  0
SECTION
  2
HEADER
  9
$ACADVER
  1
AC1015
  9
$ACADMAINTVER
 70
    20
  9
$DWGCODEPAGE
  3
ANSI_932
  9
$INSBASE
 10
0.0
 20
0.0
 30
0.0
  9
$EXTMIN
 10
-264.2288307890522
 20
-66.5000010000002
 30
0.0
  9
$EXTMAX
 10
17.02549080712876
 20
38.70000100000015
 30
0.0
  9
$LIMMIN
 10
-275.7671756521709
 20
-90.56090832182098
  9
$LIMMAX
 10
98.25933117073395
 20
52.26967058407581
  9
$ORTHOMODE
 70
     0
  9
$REGENMODE
 70
     1
  9
$FILLMODE
 70
     1
  9
$QTEXTMODE
 70
     0
  9
$MIRRTEXT
 70
     0
  9
$LTSCALE
 40
1.0
  9
$ATTMODE
 70
     1
  9
$TEXTSIZE
 40
2.5
  9
$TRACEWID
 40
1.0
  9
$TEXTSTYLE
  7
STANDARD
  9
$CLAYER
  8
AM_0
  9
$CELTYPE
  6
BYLAYER
  9
$CECOLOR
 62
   256
  9
$CELTSCALE
 40
1.0
  9
$DISPSILH
 70
     0
  9
$DIMSCALE
 40
0.5
  9
$DIMASZ
 40
2.5
  9
$DIMEXO
 40
1.0
  9
$DIMDLI
 40
12.0
  9
$DIMRND
 40
0.0
  9
$DIMDLE
 40
0.0
  9
$DIMEXE
 40
1.0
  9
$DIMTP
 40
0.1
  9
$DIMTM
 40
0.1
  9
$DIMTXT
 40
3.2
  9
$DIMCEN
 40
0.0
  9
$DIMTSZ
 40
0.0
  9
$DIMTOL
 70
     0
  9
$DIMLIM
 70
     0
  9
$DIMTIH
 70
     0
  9
$DIMTOH
 70
     0
  9
$DIMSE1
 70
     0
  9
$DIMSE2
 70
     0
  9
$DIMTAD
 70
     3
  9
$DIMZIN
 70
     8
  9
$DIMBLK
  1
Open30
  9
$DIMASO
 70
     1
  9
$DIMSHO
 70
     1
  9
$DIMPOST
  1

  9
$DIMAPOST
  1
"
  9
$DIMALT
 70
     0
  9
$DIMALTD
 70
     2
  9
$DIMALTF
 40
0.0393701
  9
$DIMLFAC
 40
1.0
  9
$DIMTOFL
 70
     1
  9
$DIMTVP
 40
0.0
  9
$DIMTIX
 70
     0
  9
$DIMSOXD
 70
     0
  9
$DIMSAH
 70
     0
  9
$DIMBLK1
  1

  9
$DIMBLK2
  1

  9
$DIMSTYLE
  2
AM_JIS
  9
$DIMCLRD
 70
   256
  9
$DIMCLRE
 70
   256
  9
$DIMCLRT
 70
     2
  9
$DIMTFAC
 40
0.71
  9
$DIMGAP
 40
1.5
  9
$DIMJUST
 70
     0
  9
$DIMSD1
 70
     0
  9
$DIMSD2
 70
     0
  9
$DIMTOLJ
 70
     0
  9
$DIMTZIN
 70
     0
  9
$DIMALTZ
 70
     0
  9
$DIMALTTZ
 70
     0
  9
$DIMUPT
 70
     0
  9
$DIMDEC
 70
     3
  9
$DIMTDEC
 70
     3
  9
$DIMALTU
 70
     2
  9
$DIMALTTD
 70
     2
  9
$DIMTXSTY
  7
ASAMI
  9
$DIMAUNIT
 70
     0
  9
$DIMADEC
 70
     0
  9
$DIMALTRND
 40
0.0
  9
$DIMAZIN
 70
     2
  9
$DIMDSEP
 70
    46
  9
$DIMATFIT
 70
     3
  9
$DIMFRAC
 70
     0
  9
$DIMLDRBLK
  1
Open30
  9
$DIMLUNIT
 70
     2
  9
$DIMLWD
 70
    -1
  9
$DIMLWE
 70
    -1
  9
$DIMTMOVE
 70
     0
  9
$LUNITS
 70
     2
  9
$LUPREC
 70
     2
  9
$SKETCHINC
 40
1.0
  9
$FILLETRAD
 40
0.4
  9
$AUNITS
 70
     0
  9
$AUPREC
 70
     0
  9
$MENU
  1
.
  9
$ELEVATION
 40
0.0
  9
$PELEVATION
 40
0.0
  9
$THICKNESS
 40
0.0
  9
$LIMCHECK
 70
     1
  9
$CHAMFERA
 40
1.0
  9
$CHAMFERB
 40
1.0
  9
$CHAMFERC
 40
20.0
  9
$CHAMFERD
 40
0.0
  9
$SKPOLY
 70
     0
  9
$TDCREATE
 40
2452802.716478762
  9
$TDUCREATE
 40
2452802.341478762
  9
$TDUPDATE
 40
2453691.655909468
  9
$TDUUPDATE
 40
2453691.280909468
  9
$TDINDWG
 40
0.9682303009
  9
$TDUSRTIMER
 40
0.9682297685
  9
$USRTIMER
 70
     1
  9
$ANGBASE
 50
0.0
  9
$ANGDIR
 70
     0
  9
$PDMODE
 70
     0
  9
$PDSIZE
 40
0.0
  9
$PLINEWID
 40
0.0
  9
$SPLFRAME
 70
     0
  9
$SPLINETYPE
 70
     6
  9
$SPLINESEGS
 70
     8
  9
$HANDSEED
  5
C4CC
  9
$SURFTAB1
 70
     6
  9
$SURFTAB2
 70
     6
  9
$SURFTYPE
 70
     6
  9
$SURFU
 70
     6
  9
$SURFV
 70
     6
  9
$UCSBASE
  2

  9
$UCSNAME
  2

  9
$UCSORG
 10
-0.0000000000002682
 20
0.000000000000161
 30
0.0
  9
$UCSXDIR
 10
1.0
 20
0.000000000000002
 30
0.0
  9
$UCSYDIR
 10
-0.000000000000002
 20
1.0
 30
0.0
  9
$UCSORTHOREF
  2

  9
$UCSORTHOVIEW
 70
     0
  9
$UCSORGTOP
 10
0.0
 20
0.0
 30
0.0
  9
$UCSORGBOTTOM
 10
0.0
 20
0.0
 30
0.0
  9
$UCSORGLEFT
 10
0.0
 20
0.0
 30
0.0
  9
$UCSORGRIGHT
 10
0.0
 20
0.0
 30
0.0
  9
$UCSORGFRONT
 10
0.0
 20
0.0
 30
0.0
  9
$UCSORGBACK
 10
0.0
 20
0.0
 30
0.0
  9
$PUCSBASE
  2

  9
$PUCSNAME
  2

  9
$PUCSORG
 10
0.0
 20
0.0
 30
0.0
  9
$PUCSXDIR
 10
1.0
 20
0.0
 30
0.0
  9
$PUCSYDIR
 10
0.0
 20
1.0
 30
0.0
  9
$PUCSORTHOREF
  2

  9
$PUCSORTHOVIEW
 70
     0
  9
$PUCSORGTOP
 10
0.0
 20
0.0
 30
0.0
  9
$PUCSORGBOTTOM
 10
0.0
 20
0.0
 30
0.0
  9
$PUCSORGLEFT
 10
0.0
 20
0.0
 30
0.0
  9
$PUCSORGRIGHT
 10
0.0
 20
0.0
 30
0.0
  9
$PUCSORGFRONT
 10
0.0
 20
0.0
 30
0.0
  9
$PUCSORGBACK
 10
0.0
 20
0.0
 30
0.0
  9
$USERI1
 70
     0
  9
$USERI2
 70
     0
  9
$USERI3
 70
     0
  9
$USERI4
 70
     0
  9
$USERI5
 70
     0
  9
$USERR1
 40
0.0
  9
$USERR2
 40
0.0
  9
$USERR3
 40
0.0
  9
$USERR4
 40
0.0
  9
$USERR5
 40
0.0
  9
$WORLDVIEW
 70
     1
  9
$SHADEDGE
 70
     3
  9
$SHADEDIF
 70
    70
  9
$TILEMODE
 70
     1
  9
$MAXACTVP
 70
    64
  9
$PINSBASE
 10
0.0
 20
0.0
 30
0.0
  9
$PLIMCHECK
 70
     0
  9
$PEXTMIN
 10
1.000000000000000E+20
 20
1.000000000000000E+20
 30
1.000000000000000E+20
  9
$PEXTMAX
 10
-1.000000000000000E+20
 20
-1.000000000000000E+20
 30
-1.000000000000000E+20
  9
$PLIMMIN
 10
0.0
 20
0.0
  9
$PLIMMAX
 10
841.0
 20
594.0
  9
$UNITMODE
 70
     0
  9
$VISRETAIN
 70
     1
  9
$PLINEGEN
 70
     0
  9
$PSLTSCALE
 70
     0
  9
$TREEDEPTH
 70
  3020
  9
$CMLSTYLE
  2
STANDARD
  9
$CMLJUST
 70
     0
  9
$CMLSCALE
 40
20.0
  9
$PROXYGRAPHICS
 70
     1
  9
$MEASUREMENT
 70
     1
  9
$CELWEIGHT
370
    -1
  9
$ENDCAPS
280
     0
  9
$JOINSTYLE
280
     0
  9
$LWDISPLAY
290
     0
  9
$INSUNITS
 70
     4
  9
$HYPERLINKBASE
  1

  9
$STYLESHEET
  1
ASAMI.ctb
  9
$XEDIT
290
     1
  9
$CEPSNTYPE
380
     0
  9
$PSTYLEMODE
290
     1
  9
$FINGERPRINTGUID
  2
{AFB28963-8C59-40AE-9337-C84526B81ACE}
  9
$VERSIONGUID
  2
{11A24126-F624-4D8B-AF9E-748943867EC8}
  9
$EXTNAMES
290
     1
  9
$PSVPSCALE
 40
0.0
  9
$OLESTARTUP
290
     0
  0
ENDSEC
  0
SECTION
  2
CLASSES
  0
CLASS
  1
ACDBDICTIONARYWDFLT
  2
AcDbDictionaryWithDefault
  3
ObjectDBX Classes
 90
        0
280
     0
281
     0
  0
CLASS
  1
ACDBPLACEHOLDER
  2
AcDbPlaceHolder
  3
ObjectDBX Classes
 90
        0
280
     0
281
     0
  0
CLASS
  1
LAYOUT
  2
AcDbLayout
  3
ObjectDBX Classes
 90
        0
280
     0
281
     0
  0
CLASS
  1
AMGSETTINGSOBJ
  2
AmgSettingsObj
  3
"AcadM|Product Description: AutoCAD Mechanical 2000|Company: Autodesk"
 90
        0
280
     0
281
     0
  0
CLASS
  1
ACME_DOCUMENT
  2
AcMeDbDoc
  3
AcMeServices
 90
        0
280
     0
281
     0
  0
CLASS
  1
ACMESCOPE
  2
AcMeScope
  3
AcMeServices
 90
        0
280
     0
281
     0
  0
CLASS
  1
ACMECOMMANDHISTORY
  2
AcMeCommandHistory
  3
AcMeServices
 90
        0
280
     0
281
     0
  0
CLASS
  1
DICTIONARYVAR
  2
AcDbDictionaryVar
  3
ObjectDBX Classes
 90
        0
280
     0
281
     0
  0
CLASS
  1
ACIMSYSVARMAN
  2
AcImSysVarManager
  3
AcMeServices
 90
        0
280
     0
281
     0
  0
CLASS
  1
ACIMREALSYSVAR
  2
AcImRealSysVar
  3
AcMeServices
 90
        0
280
     0
281
     0
  0
CLASS
  1
ACIMINTSYSVAR
  2
AcImIntSysVar
  3
AcMeServices
 90
        0
280
     0
281
     0
  0
CLASS
  1
ACMEDRAWINGMAN
  2
AcMeDrawingMan
  3
AcMeServices
 90
        0
280
     0
281
     0
  0
CLASS
  1
ACMEVIEW
  2
AcMeView
  3
AcMeServices
 90
        0
280
     0
281
     0
  0
CLASS
  1
ACDBENTITYCACHE
  2
AcMeEntityCache
  3
AcMeServices
 90
        0
280
     0
281
     0
  0
CLASS
  1
GSMANAGER
  2
AcMeGSManager
  3
AcMeServices
 90
        0
280
     0
281
     0
  0
CLASS
  1
AMDTINTERNALREACTOR
  2
AmdtInternalReactor
  3
AcMeServices
 90
        0
280
     0
281
     0
  0
CLASS
  1
ACMESTATEMGR
  2
AcMeStateMgr
  3
AcMeServices
 90
        0
280
     0
281
     0
  0
CLASS
  1
ACME_DATABASE
  2
AcMeDbDatabase
  3
AcMeServices
 90
        0
280
     0
281
     0
  0
CLASS
  1
ACRFINSADJUSTERMGR
  2
AcRfInsAdjusterMgr
  3
AcMeServices
 90
        0
280
     0
281
     0
  0
CLASS
  1
ACMDATADICTIONARY
  2
AcmDataDictionary
  3
"AcmSymBB|Product Description: AutoCAD Mechanical 2004 DX|Company: Autodesk"
 90
        0
280
     0
281
     0
  0
CLASS
  1
ACMDATAENTRYBLOCK
  2
AcmDataEntryBlock
  3
"AcmSymBB|Product Description: AutoCAD Mechanical 2004 DX|Company: Autodesk"
 90
    32768
280
     0
281
     0
  0
CLASS
  1
AMGOBJPROPCFG
  2
AmgObjPropCfg
  3
"AmgLay|Product Description: AutoCAD Mechanical 2000|Company: Autodesk"
 90
        1
280
     0
281
     0
  0
CLASS
  1
ACAMGFILTERDAT
  2
AcAmgFilterDat
  3
"AcadM|Product Description: AutoCAD Mechanical 2000|Company: Autodesk"
 90
    32768
280
     0
281
     0
  0
CLASS
  1
LAYER_INDEX
  2
AcDbLayerIndex
  3
ObjectDBX Classes
 90
        0
280
     0
281
     0
  0
CLASS
  1
IDBUFFER
  2
AcDbIdBuffer
  3
ObjectDBX Classes
 90
        0
280
     0
281
     0
  0
CLASS
  1
ACIMSTRSYSVAR
  2
AcImStrSysVar
  3
AcMeServices
 90
        0
280
     0
281
     0
  0
CLASS
  1
ACMSTANDARDJIS
  2
AcmStandardJIS
  3
"Amdt_StdImp|Product Description: AutoCAD Mechanical 2004 DX|Company: Autodesk"
 90
        0
280
     0
281
     0
  0
CLASS
  1
ACMSURFSTANDARDJIS
  2
AcmSurfTextStdJIS
  3
"Amdt_StdImp|Product Description: AutoCAD Mechanical 2004 DX|Company: Autodesk"
 90
        0
280
     0
281
     0
  0
CLASS
  1
ACMFCFSTANDARDJIS
  2
AcmFCFStdJIS
  3
"Amdt_StdImp|Product Description: AutoCAD Mechanical 2004 DX|Company: Autodesk"
 90
    32768
280
     0
281
     0
  0
CLASS
  1
ACMWELDSTANDARDJIS
  2
AcmWeldingStdJIS
  3
"Amdt_StdImp|Product Description: AutoCAD Mechanical 2004 DX|Company: Autodesk"
 90
        0
280
     0
281
     0
  0
CLASS
  1
ACMIDSTANDARDJIS
  2
AcmIdStdJIS
  3
"Amdt_StdImp|Product Description: AutoCAD Mechanical 2004 DX|Company: Autodesk"
 90
        0
280
     0
281
     0
  0
CLASS
  1
ACMDATUMSTANDARDJIS
  2
AcmDatumStdJIS
  3
"Amdt_StdImp|Product Description: AutoCAD Mechanical 2004 DX|Company: Autodesk"
 90
        0
280
     0
281
     0
  0
CLASS
  1
ACMBOMSTANDARDJIS
  2
AcmBOMStdJIS
  3
"Amdt_StdImp|Product Description: AutoCAD Mechanical 2004 DX|Company: Autodesk"
 90
        0
280
     0
281
     0
  0
CLASS
  1
ACMSTANDARDANSI
  2
AcmStandardANSI
  3
"Amdt_StdImp|Product Description: AutoCAD Mechanical 2004 DX|Company: Autodesk"
 90
    32768
280
     0
281
     0
  0
CLASS
  1
ACMSURFSTANDARDANSI
  2
AcmSurfTextStdANSI
  3
"Amdt_StdImp|Product Description: AutoCAD Mechanical 2004 DX|Company: Autodesk"
 90
    32768
280
     0
281
     0
  0
CLASS
  1
ACMFCFSTANDARDANSI
  2
AcmFCFStdANSI
  3
"Amdt_StdImp|Product Description: AutoCAD Mechanical 2004 DX|Company: Autodesk"
 90
    32768
280
     0
281
     0
  0
CLASS
  1
ACMWELDSTANDARDANSI
  2
AcmWeldingStdANSI
  3
"Amdt_StdImp|Product Description: AutoCAD Mechanical 2004 DX|Company: Autodesk"
 90
    32768
280
     0
281
     0
  0
CLASS
  1
ACMIDSTANDARDANSI
  2
AcmIdStdANSI
  3
"Amdt_StdImp|Product Description: AutoCAD Mechanical 2004 DX|Company: Autodesk"
 90
    32768
280
     0
281
     0
  0
CLASS
  1
ACMDATUMSTANDARDANSI
  2
AcmDatumStdANSI
  3
"Amdt_StdImp|Product Description: AutoCAD Mechanical 2004 DX|Company: Autodesk"
 90
    32768
280
     0
281
     0
  0
CLASS
  1
ACMBOMSTANDARDANSI
  2
AcmBOMStdANSI
  3
"Amdt_StdImp|Product Description: AutoCAD Mechanical 2004 DX|Company: Autodesk"
 90
    32768
280
     0
281
     0
  0
CLASS
  1
ACMSTANDARDBSI
  2
AcmStandardBSI
  3
"Amdt_StdImp|Product Description: AutoCAD Mechanical 2004 DX|Company: Autodesk"
 90
    32768
280
     0
281
     0
  0
CLASS
  1
ACMSURFSTANDARDBSI
  2
AcmSurfTextStdBSI
  3
"Amdt_StdImp|Product Description: AutoCAD Mechanical 2004 DX|Company: Autodesk"
 90
    32768
280
     0
281
     0
  0
CLASS
  1
ACMFCFSTANDARDBSI
  2
AcmFCFStdBSI
  3
"Amdt_StdImp|Product Description: AutoCAD Mechanical 2004 DX|Company: Autodesk"
 90
    32768
280
     0
281
     0
  0
CLASS
  1
ACMWELDSTANDARDBSI
  2
AcmWeldingStdBSI
  3
"Amdt_StdImp|Product Description: AutoCAD Mechanical 2004 DX|Company: Autodesk"
 90
    32768
280
     0
281
     0
  0
CLASS
  1
ACMIDSTANDARDBSI
  2
AcmIdStdBSI
  3
"Amdt_StdImp|Product Description: AutoCAD Mechanical 2004 DX|Company: Autodesk"
 90
    32768
280
     0
281
     0
  0
CLASS
  1
ACMDATUMSTANDARDBSI
  2
AcmDatumStdBSI
  3
"Amdt_StdImp|Product Description: AutoCAD Mechanical 2004 DX|Company: Autodesk"
 90
    32768
280
     0
281
     0
  0
CLASS
  1
ACMBOMSTANDARDBSI
  2
AcmBOMStdBSI
  3
"Amdt_StdImp|Product Description: AutoCAD Mechanical 2004 DX|Company: Autodesk"
 90
    32768
280
     0
281
     0
  0
CLASS
  1
STDPART2D
  2
AmgStdPart
  3
"AmgStdPart|Product Description: AutoCAD Mechanical 2000|Company: Autodesk"
 90
    33791
280
     0
281
     1
  0
CLASS
  1
PLOTSETTINGS
  2
AcDbPlotSettings
  3
ObjectDBX Classes
 90
        0
280
     0
281
     0
  0
CLASS
  1
TABLESTYLE
  2
AcDbTableStyle
  3
ObjectDBX Classes
 90
     2047
280
     0
281
     0
  0
CLASS
  1
ACGREFMASTER
  2
AcGrefMaster
  3
AcAttribServices
 90
        0
280
     0
281
     0
  0
CLASS
  1
AM_DRAWING_MGR
  2
AcDmDwgMgr
  3
AcMechDwgViewMgmt
 90
        0
280
     0
281
     0
  0
CLASS
  1
AM_DWG_DOCUMENT
  2
AcDmDwgDocument
  3
AcMechDwgViewMgmt
 90
        0
280
     0
281
     0
  0
CLASS
  1
AM_DWG_SHEET
  2
AcDmSheet
  3
AcMechDwgViewMgmt
 90
        0
280
     0
281
     0
  0
CLASS
  1
AM_VIEWDIMPARMAP
  2
AcDmViewDimParMap
  3
AcMechDwgViewMgmt
 90
        0
280
     0
281
     0
  0
CLASS
  1
AM_DWGMGR_NAME
  2
AcDmDwgMgrName
  3
AcMechDwgViewMgmt
 90
        0
280
     0
281
     0
  0
CLASS
  1
ACGREFACADMASTER
  2
AcGrefacadMaster
  3
AcGrefServices
 90
        0
280
     0
281
     0
  0
CLASS
  1
AMDTMENUSTATEMGR
  2
AmdtMenuStateMgr
  3
McadcomServices
 90
        0
280
     0
281
     0
  0
CLASS
  1
AMDTMCOMMENUSTATE
  2
AmdtMcomMenuState
  3
McadcomServices
 90
        0
280
     0
281
     0
  0
CLASS
  1
AMIMASTER
  2
AmiMaster
  3
AmiServices
 90
        0
280
     0
281
     0
  0
CLASS
  1
MAPIAMMOUDLE
  2
MApiAmModule
  3
MApiAmServices
 90
        0
280
     0
281
     0
  0
CLASS
  1
AMDTADMENUSTATE
  2
AmdtAdMenuState
  3
DesignerServices
 90
        0
280
     0
281
     0
  0
CLASS
  1
ADAPPL
  2
AcAdAppl
  3
DesignerServices
 90
        0
280
     0
281
     0
  0
CLASS
  1
DEPMGR
  2
AcAdDepMgr
  3
DesignerServices
 90
        0
280
     0
281
     0
  0
CLASS
  1
PARAMMGR
  2
AcAdParamMgr
  3
DesignerServices
 90
        0
280
     0
281
     0
  0
CLASS
  1
PARAMSCOPE
  2
AcAdParamScope
  3
DesignerServices
 90
        0
280
     0
281
     0
  0
CLASS
  1
NAMEDAPPL
  2
AcAdNamedAppl
  3
DesignerServices
 90
        0
280
     0
281
     0
  0
CLASS
  1
AMDTDMMENUSTATE
  2
AmdtDmMenuState
  3
AcMechDwgViewMgmt
 90
        0
280
     0
281
     0
  0
CLASS
  1
AMDTAMMENUSTATE
  2
AmdtAmMenuState
  3
DesignerAssemblies
 90
        0
280
     0
281
     0
  0
CLASS
  1
ACAMPROJECT
  2
AcAmProject
  3
DesignerAssemblies
 90
        0
280
     0
281
     0
  0
CLASS
  1
ACAMGRCOMPDEF
  2
AcAmGrCompDef
  3
DesignerAssemblies
 90
        0
280
     0
281
     0
  0
CLASS
  1
ACCMCONTEXT
  2
AcCmContext
  3
DesignerAssemblies
 90
        0
280
     0
281
     0
  0
CLASS
  1
ACAMCOMPDEF
  2
AcAmCompDef
  3
DesignerAssemblies
 90
        0
280
     0
281
     0
  0
CLASS
  1
ACAMCOMPDEFMGR
  2
AcAmCompDefMgr
  3
DesignerAssemblies
 90
        0
280
     0
281
     0
  0
CLASS
  1
AMCONTEXTMGR
  2
AcAmContextMgr
  3
DesignerAssemblies
 90
        0
280
     0
281
     0
  0
CLASS
  1
ACAMCONTEXTMODELER
  2
AcAmContextModeler
  3
DesignerAssemblies
 90
        0
280
     0
281
     0
  0
CLASS
  1
CATALOGSTATE
  2
AcAmCatalogState
  3
DesignerAssemblies
 90
        0
280
     0
281
     0
  0
CLASS
  1
ACAMGRCOMPDEFSET
  2
AcAmGrCompDefSet
  3
DesignerAssemblies
 90
        0
280
     0
281
     0
  0
CLASS
  1
AMDTBROWSERDBTAB
  2
AmdtBrowserDbTab
  3
McadcomServices
 90
        0
280
     0
281
     0
  0
CLASS
  1
CBROWSERAPPOBJECT
  2
CBrowserAppObject
  3
McadcomServices
 90
        0
280
     0
281
     0
  0
CLASS
  1
DM_PLACEHOLDER
  2
AcDmSelsetPlaceholder
  3
AcMechDwgViewMgmt
 90
        0
280
     0
281
     0
  0
CLASS
  1
ACMSTANDARDISO
  2
AcmStandardISO
  3
"Amdt_StdImp|Product Description: AutoCAD Mechanical 2004 DX|Company: Autodesk"
 90
        0
280
     0
281
     0
  0
CLASS
  1
AMDTEDGESTANDARDISO
  2
AmdtEdgeStdISO
  3
"Amdt_StdImp|Product Description: AutoCAD Mechanical 2004 DX|Company: Autodesk"
 90
        0
280
     0
281
     0
  0
CLASS
  1
ACMSURFSTANDARDISO
  2
AcmSurfTextStdISO
  3
"Amdt_StdImp|Product Description: AutoCAD Mechanical 2004 DX|Company: Autodesk"
 90
        0
280
     0
281
     0
  0
CLASS
  1
ACMFCFSTANDARDISO
  2
AcmFCFStdISO
  3
"Amdt_StdImp|Product Description: AutoCAD Mechanical 2004 DX|Company: Autodesk"
 90
        0
280
     0
281
     0
  0
CLASS
  1
ACMWELDSTANDARDISO
  2
AcmWeldingStdISO
  3
"Amdt_StdImp|Product Description: AutoCAD Mechanical 2004 DX|Company: Autodesk"
 90
        0
280
     0
281
     0
  0
CLASS
  1
ACMIDSTANDARDISO
  2
AcmIdStdISO
  3
"Amdt_StdImp|Product Description: AutoCAD Mechanical 2004 DX|Company: Autodesk"
 90
        0
280
     0
281
     0
  0
CLASS
  1
ACMDATUMSTANDARDISO
  2
AcmDatumStdISO
  3
"Amdt_StdImp|Product Description: AutoCAD Mechanical 2004 DX|Company: Autodesk"
 90
        0
280
     0
281
     0
  0
CLASS
  1
ACMBOMSTANDARDISO
  2
AcmBOMStdISO
  3
"Amdt_StdImp|Product Description: AutoCAD Mechanical 2004 DX|Company: Autodesk"
 90
        0
280
     0
281
     0
  0
CLASS
  1
ACMDETAILSTANDARDISO
  2
AmdtDetailSymStdISO
  3
"Amdt_StdImp|Product Description: AutoCAD Mechanical 2004 DX|Company: Autodesk"
 90
        0
280
     0
281
     0
  0
CLASS
  1
ACMSECTIONSTANDARDISO
  2
AmdtSectionSymStdISO
  3
"Amdt_StdImp|Product Description: AutoCAD Mechanical 2004 DX|Company: Autodesk"
 90
        0
280
     0
281
     0
  0
CLASS
  1
ACMCENTERLINESTANDARDISO
  2
AmdtCenterLineStdISO
  3
"Amdt_StdImp|Product Description: AutoCAD Mechanical 2004 DX|Company: Autodesk"
 90
        0
280
     0
281
     0
  0
CLASS
  1
ACMNOTESTANDARDISO
  2
AmdtNoteStdISO
  3
"Amdt_StdImp|Product Description: AutoCAD Mechanical 2004 DX|Company: Autodesk"
 90
        0
280
     0
281
     0
  0
CLASS
  1
AMDTNOTETEMPLATEDB
  2
AmdtNoteTemplateDB
  3
AMDT_STDIMP_MODULE_NAME
 90
        0
280
     0
281
     0
  0
CLASS
  1
ACAMGLAYSTD
  2
AcAmgLayStd
  3
"AcAmgLayStd|Product Description: AutoCAD Mechanical 2000|Company: Autodesk"
 90
        0
280
     0
281
     0
  0
CLASS
  1
ACAMGDIMSTD
  2
AcAmgDimStd
  3
"AcAmgDimStd|Product Description: AutoCAD Mechanical 2000|Company: Autodesk"
 90
        0
280
     0
281
     0
  0
CLASS
  1
ACAMGHOLECHARTSTDISO
  2
AcAmgHoleChartStdISO
  3
ACMSYMBB_MODULE_NAME
 90
        0
280
     0
281
     0
  0
CLASS
  1
ACAMGTITLESTD
  2
AcAmgTitleStd
  3
"TITLEAPP"
 90
        0
280
     0
281
     0
  0
CLASS
  1
ACMTHREADLINESTANDARDISO
  2
AmdtThreadLineStdISO
  3
"Amdt_StdImp|Product Description: AutoCAD Mechanical 2004 DX|Company: Autodesk"
 90
        0
280
     0
281
     0
  0
CLASS
  1
ACMFCFSTANDARDJIS98
  2
AcmFCFStdJIS98
  3
"Amdt_StdImp|Product Description: AutoCAD Mechanical 2004 DX|Company: Autodesk"
 90
        0
280
     0
281
     0
  0
CLASS
  1
ACMDETAILSTANDARDJIS
  2
AmdtDetailSymStdJIS
  3
"Amdt_StdImp|Product Description: AutoCAD Mechanical 2004 DX|Company: Autodesk"
 90
        0
280
     0
281
     0
  0
CLASS
  1
ACMSECTIONSTANDARDJIS
  2
AmdtSectionSymStdJIS
  3
"Amdt_StdImp|Product Description: AutoCAD Mechanical 2004 DX|Company: Autodesk"
 90
        0
280
     0
281
     0
  0
CLASS
  1
ACMCENTERLINESTANDARDJIS
  2
AmdtCenterLineStdJIS
  3
"Amdt_StdImp|Product Description: AutoCAD Mechanical 2004 DX|Company: Autodesk"
 90
        0
280
     0
281
     0
  0
CLASS
  1
ACMTHREADLINESTANDARDJIS
  2
AmdtThreadLineStdJIS
  3
"Amdt_StdImp|Product Description: AutoCAD Mechanical 2004 DX|Company: Autodesk"
 90
        0
280
     0
281
     0
  0
CLASS
  1
ACMNOTESTANDARDJIS
  2
AmdtNoteStdJIS
  3
"Amdt_StdImp|Product Description: AutoCAD Mechanical 2004 DX|Company: Autodesk"
 90
        0
280
     0
281
     0
  0
CLASS
  1
ACAMGHOLECHARTSTDJIS
  2
AcAmgHoleChartStdJIS
  3
ACMSYMBB_MODULE_NAME
 90
        0
280
     0
281
     0
  0
ENDSEC
  0
SECTION
  2
TABLES
  0
TABLE
  2
VPORT
  5
8
330
0
100
AcDbSymbolTable
 70
     3
  0
VPORT
  5
C4C1
330
8
100
AcDbSymbolTableRecord
100
AcDbViewportTableRecord
  2
*Active
 70
     0
 10
0.0
 20
0.0
 11
1.0
 21
1.0
 12
-108.297841039461
 22
-9.514715993918031
 13
0.0
 23
0.0
 14
2.5
 24
2.5
 15
10.0
 25
10.0
 16
0.0
 26
0.0
 36
1.0
 17
0.0
 27
0.0
 37
0.0
 40
190.2869003940285
 41
1.732758620689655
 42
50.0
 43
0.0
 44
0.0
 50
0.0
 51
0.0
 71
     0
 72
   100
 73
     1
 74
     3
 75
     0
 76
     0
 77
     0
 78
     0
281
     0
 65
     1
110
-0.0000000000002682
120
0.000000000000161
130
0.0
111
1.0
121
0.000000000000002
131
0.0
112
-0.000000000000002
122
1.0
132
0.0
 79
     0
146
0.0
  0
ENDTAB
  0
TABLE
  2
LTYPE
  5
5
330
0
100
AcDbSymbolTable
 70
    17
  0
LTYPE
  5
14
330
5
100
AcDbSymbolTableRecord
100
AcDbLinetypeTableRecord
  2
BYBLOCK
 70
     0
  3

 72
    65
 73
     0
 40
0.0
  0
LTYPE
  5
15
330
5
100
AcDbSymbolTableRecord
100
AcDbLinetypeTableRecord
  2
BYLAYER
 70
     0
  3

 72
    65
 73
     0
 40
0.0
  0
LTYPE
  5
16
330
5
100
AcDbSymbolTableRecord
100
AcDbLinetypeTableRecord
  2
CONTINUOUS
 70
     0
  3
Solid line
 72
    65
 73
     0
 40
0.0
  0
LTYPE
  5
4B
330
5
100
AcDbSymbolTableRecord
100
AcDbLinetypeTableRecord
  2
AM_ISO02W050
 70
     0
  3
__ __ __ __ __ __ __ __ __ __ __ __ __ __ __
 72
    65
 73
     2
 40
7.5
 49
6.0
 74
     0
 49
-1.5
 74
     0
  0
LTYPE
  5
4C
330
5
100
AcDbSymbolTableRecord
100
AcDbLinetypeTableRecord
  2
AM_ISO08W050
 70
     0
  3
____ . ____ . ____ . ____ . ____ . ____ . ____
 72
    65
 73
     4
 40
18.0
 49
12.0
 74
     0
 49
-1.5
 74
     0
 49
3.0
 74
     0
 49
-1.5
 74
     0
  0
LTYPE
  5
4D
330
5
100
AcDbSymbolTableRecord
100
AcDbLinetypeTableRecord
  2
AM_ISO09W050
 70
     0
  3
_____ . . _____ . . _____ . . ____ .. ____
 72
    65
 73
     6
 40
22.5
 49
12.0
 74
     0
 49
-1.5
 74
     0
 49
3.0
 74
     0
 49
-1.5
 74
     0
 49
3.0
 74
     0
 49
-1.5
 74
     0
  0
LTYPE
  5
4E
330
5
100
AcDbSymbolTableRecord
100
AcDbLinetypeTableRecord
  2
Amconstr
 70
     0
  3
_______________________
 72
    65
 73
     2
 40
9999.0
 49
9999.0
 74
     0
 49
0.0
 74
     0
  0
LTYPE
  5
4F
330
5
100
AcDbSymbolTableRecord
100
AcDbLinetypeTableRecord
  2
AM_ISO02W050x2
 70
     0
  3
 _ _ _ _ _ _ _ _ _ _ _ _
 72
    65
 73
     2
 40
3.75
 49
3.0
 74
     0
 49
-0.75
 74
     0
  0
LTYPE
  5
50
330
5
100
AcDbSymbolTableRecord
100
AcDbLinetypeTableRecord
  2
AM_ISO08W050x2
 70
     0
  3
__ . __ . __ . __ . __ . __
 72
    65
 73
     4
 40
9.0
 49
6.0
 74
     0
 49
-0.75
 74
     0
 49
1.5
 74
     0
 49
-0.75
 74
     0
  0
LTYPE
  5
53
330
5
100
AcDbSymbolTableRecord
100
AcDbLinetypeTableRecord
  2
Amzigzag
 70
     0
  3
/\/-/\/-/\/-/\/-/\/-/\/
 72
    65
 73
     2
 40
11.0001
 49
0.0001
 74
     4
 75
   135
340
52
 46
0.04
 50
0.0
 44
0.0
 45
0.0
 49
-11.0
 74
     0
  0
LTYPE
  5
166
330
5
100
AcDbSymbolTableRecord
100
AcDbLinetypeTableRecord
  2
ACJISTGL
 70
     0
  3
_ _ _ _ _
 72
    65
 73
     2
 40
3.0
 49
2.0
 74
     0
 49
-1.0
 74
     0
  0
LTYPE
  5
26A
330
5
100
AcDbSymbolTableRecord
100
AcDbLinetypeTableRecord
  2
ACJISTGB
 70
     0
  3
__ . . __ . .
 72
    65
 73
     6
 40
9.0
 49
4.0
 74
     0
 49
-1.0
 74
     0
 49
1.0
 74
     0
 49
-1.0
 74
     0
 49
1.0
 74
     0
 49
-1.0
 74
     0
  0
LTYPE
  5
C437
330
5
100
AcDbSymbolTableRecord
100
AcDbLinetypeTableRecord
  2
HIDDEN
 70
     0
  3
Hidden __ __ __ __ __ __ __ __ __ __ __ __ __ _
 72
    65
 73
     2
 40
9.524999999999998
 49
6.349999999999999
 74
     0
 49
-3.174999999999999
 74
     0
  0
LTYPE
  5
C438
330
5
100
AcDbSymbolTableRecord
100
AcDbLinetypeTableRecord
  2
PHANTOM2
 70
     0
  3
Phantom (.5x) ___ _ _ ___ _ _ ___ _ _ ___ _ _
 72
    65
 73
     6
 40
31.75
 49
15.875
 74
     0
 49
-3.174999999999999
 74
     0
 49
3.174999999999999
 74
     0
 49
-3.174999999999999
 74
     0
 49
3.174999999999999
 74
     0
 49
-3.174999999999999
 74
     0
  0
LTYPE
  5
C439
330
5
100
AcDbSymbolTableRecord
100
AcDbLinetypeTableRecord
  2
CENTER
 70
     0
  3
__ . __
 72
    65
 73
     4
 40
7.0
 49
4.0
 74
     0
 49
-1.0
 74
     0
 49
1.0
 74
     0
 49
-1.0
 74
     0
  0
LTYPE
  5
C46A
330
5
100
AcDbSymbolTableRecord
100
AcDbLinetypeTableRecord
  2
ACISOWELD
 70
     0
  3
_ _ _ _ _
 72
    65
 73
     2
 40
2.0
 49
2.0
 74
     0
 49
-1.0
 74
     0
  0
LTYPE
  5
C46D
330
5
100
AcDbSymbolTableRecord
100
AcDbLinetypeTableRecord
  2
ACISOTGB
 70
     0
  3
__ . . __ . .
 72
    65
 73
     6
 40
9.0
 49
4.0
 74
     0
 49
-1.0
 74
     0
 49
1.0
 74
     0
 49
-1.0
 74
     0
 49
1.0
 74
     0
 49
-1.0
 74
     0
  0
LTYPE
  5
C46E
330
5
100
AcDbSymbolTableRecord
100
AcDbLinetypeTableRecord
  2
ACISOTGL
 70
     0
  3
_ _ _ _ _
 72
    65
 73
     2
 40
3.0
 49
2.0
 74
     0
 49
-1.0
 74
     0
  0
LTYPE
  5
C497
330
5
100
AcDbSymbolTableRecord
100
AcDbLinetypeTableRecord
  2
ACJISWELD
 70
     0
  3
_ _ _ _ _
 72
    65
 73
     2
 40
2.0
 49
2.0
 74
     0
 49
-1.0
 74
     0
  0
ENDTAB
  0
TABLE
  2
LAYER
  5
2
330
0
100
AcDbSymbolTable
 70
     8
  0
LAYER
  5
10
330
2
100
AcDbSymbolTableRecord
100
AcDbLayerTableRecord
  2
0
 70
     0
 62
     7
  6
CONTINUOUS
370
    -3
390
F
  0
LAYER
  5
3F9
330
2
100
AcDbSymbolTableRecord
100
AcDbLayerTableRecord
  2
AM_0
 70
     0
 62
     7
  6
CONTINUOUS
370
    -3
390
F
  0
LAYER
  5
BA4
330
2
100
AcDbSymbolTableRecord
100
AcDbLayerTableRecord
  2
AM_5
 70
     0
 62
     3
  6
CONTINUOUS
370
    -3
390
F
  0
LAYER
  5
BA6
330
2
100
AcDbSymbolTableRecord
100
AcDbLayerTableRecord
  2
AM_7
 70
     0
 62
     4
  6
AM_ISO08W050
370
    -3
390
F
  0
LAYER
  5
E64
330
2
100
AcDbSymbolTableRecord
100
AcDbLayerTableRecord
  2
AM_6
 70
     0
 62
     2
  6
CONTINUOUS
370
    -3
390
F
  0
LAYER
  5
F4D
330
2
100
AcDbSymbolTableRecord
100
AcDbLayerTableRecord
  2
DEFPOINTS
 70
     0
 62
     7
  6
CONTINUOUS
290
     0
370
    -3
390
F
  0
LAYER
  5
2382
330
2
100
AcDbSymbolTableRecord
100
AcDbLayerTableRecord
  2
AM_3
 70
     0
 62
     6
  6
ACJISTGL
370
    -3
390
F
  0
LAYER
  5
4E80
330
2
100
AcDbSymbolTableRecord
100
AcDbLayerTableRecord
  2
AM_11
 70
     0
 62
     3
  6
AM_ISO09W050
370
    -3
390
F
  0
ENDTAB
  0
TABLE
  2
STYLE
  5
3
330
0
100
AcDbSymbolTable
 70
     7
  0
STYLE
  5
11
330
3
100
AcDbSymbolTableRecord
100
AcDbTextStyleTableRecord
  2
STANDARD
 70
     0
 40
0.0
 41
1.0
 50
0.0
 71
     0
 42
2.5
  3
simplex.shx
  4
EXTFONT.SHX
  0
STYLE
  5
52
330
3
100
AcDbSymbolTableRecord
100
AcDbTextStyleTableRecord
  2

 70
     1
 40
0.0
 41
1.0
 50
0.0
 71
     0
 42
2.5
  3
ltypeshp.shx
  4

  0
STYLE
  5
6B
330
3
100
AcDbSymbolTableRecord
100
AcDbTextStyleTableRecord
  2
ASAMI
 70
     0
 40
0.0
 41
1.0
 50
0.0
 71
     0
 42
2.5
  3
simplex.shx
  4
EXTFONT.SHX
  0
STYLE
  5
262
330
3
100
AcDbSymbolTableRecord
100
AcDbTextStyleTableRecord
  2
ACJISTS
 70
     0
 40
1.0
 41
1.0
 50
0.0
 71
     0
 42
1.0
  3
isocp.shx
  4
extfont.shx
  0
STYLE
  5
269
330
3
100
AcDbSymbolTableRecord
100
AcDbTextStyleTableRecord
  2
ACJISGDT
 70
     0
 40
0.0
 41
1.0
 50
0.0
 71
     0
 42
1.0
  3
amgdt.shx
  4

  0
STYLE
  5
C464
330
3
100
AcDbSymbolTableRecord
100
AcDbTextStyleTableRecord
  2
ACISOTS
 70
     0
 40
3.5
 41
1.0
 50
5.0
 71
     0
 42
3.799999999999999
  3
isocp.shx
  4
extfont.shx
  0
STYLE
  5
C468
330
3
100
AcDbSymbolTableRecord
100
AcDbTextStyleTableRecord
  2
ACISOGDT
 70
     0
 40
0.0
 41
1.0
 50
0.0
 71
     0
 42
2.5
  3
amgdt.shx
  4
extfont.shx
  0
ENDTAB
  0
TABLE
  2
VIEW
  5
6
330
0
100
AcDbSymbolTable
 70
     0
  0
ENDTAB
  0
TABLE
  2
UCS
  5
7
330
0
100
AcDbSymbolTable
 70
     0
  0
ENDTAB
  0
TABLE
  2
APPID
  5
9
330
0
100
AcDbSymbolTable
 70
    36
  0
APPID
  5
12
330
9
100
AcDbSymbolTableRecord
100
AcDbRegAppTableRecord
  2
ACAD
 70
     0
  0
APPID
  5
30
330
9
100
AcDbSymbolTableRecord
100
AcDbRegAppTableRecord
  2
MCAD_NO_VIS
 70
     0
  0
APPID
  5
31
330
9
100
AcDbSymbolTableRecord
100
AcDbRegAppTableRecord
  2
ACAD_TEMP_GRAPHIC
 70
     0
  0
APPID
  5
2C2
330
9
100
AcDbSymbolTableRecord
100
AcDbRegAppTableRecord
  2
GENIUS_GENDTOL_13
 70
     0
  0
APPID
  5
339
330
9
100
AcDbSymbolTableRecord
100
AcDbRegAppTableRecord
  2
GENIUS_GENODEF_13
 70
     0
  0
APPID
  5
33A
330
9
100
AcDbSymbolTableRecord
100
AcDbRegAppTableRecord
  2
GENIUS_GENOBJ-N-RSBK_13
 70
     0
  0
APPID
  5
33B
330
9
100
AcDbSymbolTableRecord
100
AcDbRegAppTableRecord
  2
GENIUS_GENOBJ-N-LIB_13
 70
     0
  0
APPID
  5
33C
330
9
100
AcDbSymbolTableRecord
100
AcDbRegAppTableRecord
  2
GENIUS_GENSCALE_13
 70
     0
  0
APPID
  5
378
330
9
100
AcDbSymbolTableRecord
100
AcDbRegAppTableRecord
  2
GENIUS_GENDIMSH_14
 70
     0
  0
APPID
  5
BB0
330
9
100
AcDbSymbolTableRecord
100
AcDbRegAppTableRecord
  2
GENIUS_GENOBJ-N-CEN_13
 70
     0
  0
APPID
  5
BB1
330
9
100
AcDbSymbolTableRecord
100
AcDbRegAppTableRecord
  2
GENIUS_GENFIL_13
 70
     0
  0
APPID
  5
BB2
330
9
100
AcDbSymbolTableRecord
100
AcDbRegAppTableRecord
  2
GENIUS_GENOBJ-N-CHA_13
 70
     0
  0
APPID
  5
1FAF
330
9
100
AcDbSymbolTableRecord
100
AcDbRegAppTableRecord
  2
GENIUS_GENOBJ-N-CRS_13
 70
     0
  0
APPID
  5
1FB0
330
9
100
AcDbSymbolTableRecord
100
AcDbRegAppTableRecord
  2
GENIUS_GENOENT_13
 70
     0
  0
APPID
  5
1FB1
330
9
100
AcDbSymbolTableRecord
100
AcDbRegAppTableRecord
  2
GENIUS_GENOREF_13
 70
     0
  0
APPID
  5
1FB2
330
9
100
AcDbSymbolTableRecord
100
AcDbRegAppTableRecord
  2
GENIUS_GENOLIS_13
 70
     0
  0
APPID
  5
1FB7
330
9
100
AcDbSymbolTableRecord
100
AcDbRegAppTableRecord
  2
GENIUS_GENOBJ-N-FIL_13
 70
     0
  0
APPID
  5
22A8
330
9
100
AcDbSymbolTableRecord
100
AcDbRegAppTableRecord
  2
GEVID1056506048
 70
     0
  0
APPID
  5
22A9
330
9
100
AcDbSymbolTableRecord
100
AcDbRegAppTableRecord
  2
GEVDC
 70
     0
  0
APPID
  5
22AC
330
9
100
AcDbSymbolTableRecord
100
AcDbRegAppTableRecord
  2
GENIUS_GENBH_13
 70
     0
  0
APPID
  5
22B8
330
9
100
AcDbSymbolTableRecord
100
AcDbRegAppTableRecord
  2
GENIUS_GENOBJ-NBEHI-BHF_13
 70
     0
  0
APPID
  5
22BA
330
9
100
AcDbSymbolTableRecord
100
AcDbRegAppTableRecord
  2
GENIUS_GENOBJ-NBEHI-BHB_13
 70
     0
  0
APPID
  5
35C9
330
9
100
AcDbSymbolTableRecord
100
AcDbRegAppTableRecord
  2
GENIUS_GENREC_14
 70
     0
  0
APPID
  5
35CA
330
9
100
AcDbSymbolTableRecord
100
AcDbRegAppTableRecord
  2
GENIUS_GENOBJ-N-REC_13
 70
     0
  0
APPID
  5
C3FD
330
9
100
AcDbSymbolTableRecord
100
AcDbRegAppTableRecord
  2
ACATTRIBSERVICES
 70
     0
  0
APPID
  5
C3FE
330
9
100
AcDbSymbolTableRecord
100
AcDbRegAppTableRecord
  2
AD_DRAW
 70
     0
  0
APPID
  5
C3FF
330
9
100
AcDbSymbolTableRecord
100
AcDbRegAppTableRecord
  2
DESIGNERASSEMBLIES
 70
     0
  0
APPID
  5
C400
330
9
100
AcDbSymbolTableRecord
100
AcDbRegAppTableRecord
  2
ACADM_DIM_EDIT
 70
     0
  0
APPID
  5
C401
330
9
100
AcDbSymbolTableRecord
100
AcDbRegAppTableRecord
  2
AMDT_DM_ADJ
 70
     0
  0
APPID
  5
C402
330
9
100
AcDbSymbolTableRecord
100
AcDbRegAppTableRecord
  2
ACAD_DSTYLE_DIMTEXT_FILL
 70
     0
  0
APPID
  5
C403
330
9
100
AcDbSymbolTableRecord
100
AcDbRegAppTableRecord
  2
ACAD_PSEXT
 70
     0
  0
APPID
  5
C404
330
9
100
AcDbSymbolTableRecord
100
AcDbRegAppTableRecord
  2
ACAD_DIMASSOC_DIMLFAC
 70
     0
  0
APPID
  5
C405
330
9
100
AcDbSymbolTableRecord
100
AcDbRegAppTableRecord
  2
ACAD_DIMASSOC_CALC_DIMLFAC
 70
     0
  0
APPID
  5
C406
330
9
100
AcDbSymbolTableRecord
100
AcDbRegAppTableRecord
  2
ACAD_DIMASSOC_OVERRIDDEN_DIMLFAC
 70
     0
  0
APPID
  5
C4BB
330
9
100
AcDbSymbolTableRecord
100
AcDbRegAppTableRecord
  2
GENIUS_GENSCREG_15
 70
     0
  0
APPID
  5
C4BC
330
9
100
AcDbSymbolTableRecord
100
AcDbRegAppTableRecord
  2
GENIUS_GENOBJ-N-SDF_13
 70
     0
  0
ENDTAB
  0
TABLE
  2
DIMSTYLE
  5
A
330
0
100
AcDbSymbolTable
 70
    16
100
AcDbDimStyleTable
 71
     0
  0
DIMSTYLE
105
58
330
A
100
AcDbSymbolTableRecord
100
AcDbDimStyleTableRecord
  2
AM_JIS
 70
     0
  4
"
 41
2.699999999999999
 42
0.0
 43
7.0
 44
0.5
 47
0.1
 48
0.1000000001
 73
     0
 74
     0
 77
     3
 78
     8
 79
     2
140
3.5
141
0.0
143
0.0393701
146
0.71
147
1.0
172
     1
176
     3
177
     3
178
     2
179
     1
271
     2
272
     2
275
     1
283
     0
284
     8
340
11
341
59
342
59
371
    -1
372
    -1
  0
DIMSTYLE
105
5F
330
A
100
AcDbSymbolTableRecord
100
AcDbDimStyleTableRecord
  2
AM_JIS$3
 70
     0
  4
"
 41
2.699999999999999
 42
1.0
 43
10.0
 44
1.0
 47
0.1
 48
0.1000000001
 73
     0
 77
     3
 78
     8
 79
     2
140
3.799999999999999
141
0.0
143
0.0393701
146
0.71
147
1.5
176
   256
177
   256
178
     2
271
     2
272
     2
275
     1
283
     0
284
     8
288
     1
289
     0
340
11
341
59
342
59
371
    -1
372
    -1
  0
DIMSTYLE
105
60
330
A
100
AcDbSymbolTableRecord
100
AcDbDimStyleTableRecord
  2
AM_JIS$4
 70
     0
  4
"
 41
2.699999999999999
 42
1.0
 43
10.0
 44
1.0
 47
0.1
 48
0.1000000001
 73
     0
 77
     3
 78
     8
 79
     2
140
3.799999999999999
141
0.0
143
0.0393701
146
0.71
147
1.5
176
   256
177
   256
178
     2
271
     2
272
     2
275
     1
283
     0
284
     8
288
     1
289
     0
340
11
341
59
342
59
371
    -1
372
    -1
  0
DIMSTYLE
105
61
330
A
100
AcDbSymbolTableRecord
100
AcDbDimStyleTableRecord
  2
AM_JIS$6
 70
     0
  4
"
 41
2.699999999999999
 42
1.0
 43
10.0
 44
1.0
 47
0.1
 48
0.1000000001
 73
     0
 74
     0
 78
     8
 79
     2
140
3.799999999999999
141
0.0
143
0.0393701
146
0.71
147
1.5
172
     1
176
   256
177
   256
178
     2
271
     2
272
     2
275
     1
283
     0
284
     8
340
11
341
59
342
59
371
    -1
372
    -1
  0
DIMSTYLE
105
62
330
A
100
AcDbSymbolTableRecord
100
AcDbDimStyleTableRecord
  2
AM_JIS$7
 70
     0
  4
"
 41
2.699999999999999
 42
1.0
 43
10.0
 44
1.0
 47
0.1
 48
0.1000000001
 73
     0
 74
     0
 77
     3
 78
     8
 79
     2
140
3.5
141
0.0
143
0.0393701
146
0.71
147
1.5
172
     1
176
     3
177
   256
178
     2
271
     2
272
     2
275
     1
283
     0
284
     8
340
11
341
59
342
59
371
    -1
372
    -1
  0
DIMSTYLE
105
63
330
A
100
AcDbSymbolTableRecord
100
AcDbDimStyleTableRecord
  2
AM_JIS$SF
 70
     0
  4
"
 41
2.5
 42
1.0
 43
10.0
 44
1.0
 47
0.1
 48
0.1
 73
     0
 74
     0
 75
     1
 76
     1
 77
     3
 78
     8
 79
     2
140
3.5
141
0.0
143
0.0393701
146
0.71
147
1.5
172
     1
176
   256
177
   256
178
     2
271
     2
272
     3
274
     4
283
     0
284
     8
340
11
341
59
342
59
343
59
344
59
371
    -1
372
    -1
  0
DIMSTYLE
105
68
330
A
100
AcDbSymbolTableRecord
100
AcDbDimStyleTableRecord
  2
AM_JIS$SH
 70
     0
  4
"
 41
2.5
 42
1.0
 43
10.0
 44
1.0
 47
0.1
 48
0.1
 73
     0
 74
     0
 75
     1
 76
     1
 77
     3
 78
     8
 79
     2
140
3.5
141
0.0
143
0.0393701
144
2.0
146
0.71
147
1.5
172
     1
173
     1
176
   256
177
   256
178
     2
271
     2
272
     3
274
     4
283
     0
284
     8
340
11
341
59
342
59
343
64
344
59
371
    -1
372
    -1
  0
DIMSTYLE
105
B34
330
A
100
AcDbSymbolTableRecord
100
AcDbDimStyleTableRecord
  2
AM_JIS$2
 70
     0
  4
"
 41
2.699999999999999
 42
0.0
 43
7.0
 44
0.5
 47
0.1
 48
0.1000000001
 73
     0
 74
     0
 77
     3
 78
     8
 79
     2
140
3.5
141
0.0
143
0.0393701
146
0.71
147
1.0
172
     1
176
     3
177
     3
178
     2
179
     1
271
     2
272
     2
275
     1
283
     0
284
     8
340
11
341
59
342
59
371
    -1
372
    -1
  0
DIMSTYLE
105
3B48
102
{ACAD_REACTORS
330
BC70
330
BD09
330
BDB0
330
BE45
330
BEE3
330
BF78
102
}
330
A
100
AcDbSymbolTableRecord
100
AcDbDimStyleTableRecord
  2
AM_JIS$0
 70
     0
  4
"
 41
2.699999999999999
 42
0.0
 43
7.0
 44
0.5
 47
0.1
 48
0.1000000001
 73
     0
 74
     0
 77
     3
 78
     8
 79
     2
140
3.5
141
0.0
143
0.0393701
146
0.71
147
1.0
172
     1
176
     3
177
     3
178
     2
179
     1
271
     2
272
     2
275
     1
283
     0
284
     8
340
11
341
59
342
59
371
    -1
372
    -1
  0
DIMSTYLE
105
C483
330
A
100
AcDbSymbolTableRecord
100
AcDbDimStyleTableRecord
  2
AM_ISO
 70
     0
  4
"
 41
2.5
 42
1.0
 43
10.0
 44
1.0
 47
0.1
 48
0.1
 73
     0
 74
     0
 77
     1
 78
     8
 79
     2
140
3.5
141
0.0
143
0.0393701
146
0.71
147
1.5
172
     1
176
   256
177
   256
178
     2
271
     2
272
     3
274
     4
283
     0
284
     8
340
11
371
    -1
372
    -1
  0
DIMSTYLE
105
C484
330
A
100
AcDbSymbolTableRecord
100
AcDbDimStyleTableRecord
  2
AM_ISO$3
 70
     0
  4
"
 41
2.5
 42
1.0
 43
10.0
 44
1.0
 47
0.1
 48
0.1
 73
     0
 77
     1
 78
     8
 79
     2
140
3.5
141
0.0
143
0.0393701
146
0.71
147
1.5
176
   256
177
   256
178
     2
271
     2
272
     3
274
     4
283
     0
284
     8
288
     1
289
     0
340
11
371
    -1
372
    -1
  0
DIMSTYLE
105
C485
330
A
100
AcDbSymbolTableRecord
100
AcDbDimStyleTableRecord
  2
AM_ISO$4
 70
     0
  4
"
 41
2.5
 42
1.0
 43
10.0
 44
1.0
 47
0.1
 48
0.1
 73
     0
 77
     1
 78
     8
 79
     2
140
3.5
141
0.0
143
0.0393701
146
0.71
147
1.5
176
   256
177
   256
178
     2
271
     2
272
     3
274
     4
283
     0
284
     8
288
     1
289
     0
340
11
371
    -1
372
    -1
  0
DIMSTYLE
105
C486
330
A
100
AcDbSymbolTableRecord
100
AcDbDimStyleTableRecord
  2
AM_ISO$6
 70
     0
  4
"
 41
2.5
 42
1.0
 43
10.0
 44
1.0
 47
0.1
 48
0.1
 73
     0
 74
     0
 78
     8
 79
     2
140
3.5
141
0.0
143
0.0393701
146
0.71
147
1.5
172
     1
176
   256
177
   256
178
     2
271
     2
272
     3
274
     4
283
     0
284
     8
340
11
371
    -1
372
    -1
  0
DIMSTYLE
105
C487
330
A
100
AcDbSymbolTableRecord
100
AcDbDimStyleTableRecord
  2
AM_ISO$7
 70
     0
  4
"
 41
2.5
 42
1.0
 43
10.0
 44
1.0
 47
0.1
 48
0.1
 73
     0
 74
     0
 77
     1
 78
     8
 79
     2
140
5.0
141
0.0
143
0.0393701
146
0.71
147
1.5
172
     1
176
   256
177
   256
178
     2
271
     2
272
     3
274
     4
283
     0
284
     8
340
11
371
    -1
372
    -1
  0
DIMSTYLE
105
C488
330
A
100
AcDbSymbolTableRecord
100
AcDbDimStyleTableRecord
  2
AM_ISO$SF
 70
     0
  4
"
 41
2.5
 42
1.0
 43
10.0
 44
1.0
 47
0.1
 48
0.1
 73
     0
 74
     0
 75
     1
 76
     1
 77
     1
 78
     8
 79
     2
140
3.5
141
0.0
143
0.0393701
146
0.71
147
1.5
172
     1
176
   256
177
   256
178
     2
271
     2
272
     3
274
     4
283
     0
284
     8
340
11
371
    -1
372
    -1
  0
DIMSTYLE
105
C489
330
A
100
AcDbSymbolTableRecord
100
AcDbDimStyleTableRecord
  2
AM_ISO$SH
 70
     0
  4
"
 41
2.5
 42
1.0
 43
10.0
 44
1.0
 47
0.1
 48
0.1
 73
     0
 74
     0
 75
     1
 76
     1
 77
     1
 78
     8
 79
     2
140
3.5
141
0.0
143
0.0393701
144
2.0
146
0.71
147
1.5
172
     1
173
     1
176
   256
177
   256
178
     2
271
     2
272
     3
274
     4
283
     0
284
     8
340
11
343
64
371
    -1
372
    -1
  0
ENDTAB
  0
TABLE
  2
BLOCK_RECORD
  5
1
330
0
100
AcDbSymbolTable
 70
     9
  0
BLOCK_RECORD
  5
1F
102
{ACAD_XDICTIONARY
360
74
102
}
330
1
100
AcDbSymbolTableRecord
100
AcDbBlockTableRecord
  2
*MODEL_SPACE
340
C3F8
  0
BLOCK_RECORD
  5
101
102
{ACAD_XDICTIONARY
360
C3B6
102
}
330
1
100
AcDbSymbolTableRecord
100
AcDbBlockTableRecord
  2
*PAPER_SPACE
340
C3F9
  0
BLOCK_RECORD
  5
59
330
1
100
AcDbSymbolTableRecord
100
AcDbBlockTableRecord
  2
_Open30
340
0
  0
BLOCK_RECORD
  5
64
330
1
100
AcDbSymbolTableRecord
100
AcDbBlockTableRecord
  2
GENAXEH
340
0
  0
BLOCK_RECORD
  5
BC71
330
1
100
AcDbSymbolTableRecord
100
AcDbBlockTableRecord
  2
*D2
340
0
  0
BLOCK_RECORD
  5
BD0A
330
1
100
AcDbSymbolTableRecord
100
AcDbBlockTableRecord
  2
*D3
340
0
  0
BLOCK_RECORD
  5
BDB1
330
1
100
AcDbSymbolTableRecord
100
AcDbBlockTableRecord
  2
*D4
340
0
  0
BLOCK_RECORD
  5
BE46
330
1
100
AcDbSymbolTableRecord
100
AcDbBlockTableRecord
  2
*D5
340
0
  0
BLOCK_RECORD
  5
BEE4
330
1
100
AcDbSymbolTableRecord
100
AcDbBlockTableRecord
  2
*D6
340
0
  0
BLOCK_RECORD
  5
BF79
330
1
100
AcDbSymbolTableRecord
100
AcDbBlockTableRecord
  2
*D7
340
0
  0
ENDTAB
  0
ENDSEC
  0
SECTION
  2
BLOCKS
  0
BLOCK
  5
20
330
1F
100
AcDbEntity
  8
0
100
AcDbBlockBegin
  2
*MODEL_SPACE
 70
     0
 10
0.0
 20
0.0
 30
0.0
  3
*MODEL_SPACE
  1

  0
ENDBLK
  5
21
330
1F
100
AcDbEntity
  8
0
100
AcDbBlockEnd
  0
BLOCK
  5
103
330
101
100
AcDbEntity
 67
     1
  8
0
100
AcDbBlockBegin
  2
*PAPER_SPACE
 70
     0
 10
0.0
 20
0.0
 30
0.0
  3
*PAPER_SPACE
  1

  0
ENDBLK
  5
104
330
101
100
AcDbEntity
 67
     1
  8
0
100
AcDbBlockEnd
  0
BLOCK
  5
C4AB
330
59
100
AcDbEntity
  8
0
100
AcDbBlockBegin
  2
_Open30
 70
     0
 10
0.0
 20
0.0
 30
0.0
  3
_Open30
  1

  0
LINE
  5
C4AC
330
59
100
AcDbEntity
  8
0
  6
ByBlock
 62
     0
370
    -2
100
AcDbLine
 10
-1.0
 20
0.26794919
 30
0.0
 11
0.0
 21
0.0
 31
0.0
  0
LINE
  5
C4AD
330
59
100
AcDbEntity
  8
0
  6
ByBlock
 62
     0
370
    -2
100
AcDbLine
 10
0.0
 20
0.0
 30
0.0
 11
-1.0
 21
-0.26794919
 31
0.0
  0
LINE
  5
C4AE
330
59
100
AcDbEntity
  8
0
  6
ByBlock
 62
     0
370
    -2
100
AcDbLine
 10
0.0
 20
0.0
 30
0.0
 11
-1.0
 21
0.0
 31
0.0
  0
ENDBLK
  5
C4AF
330
59
100
AcDbEntity
  8
0
100
AcDbBlockEnd
  0
BLOCK
  5
C48B
330
64
100
AcDbEntity
  8
0
100
AcDbBlockBegin
  2
GENAXEH
 70
     0
 10
0.0
 20
0.0
 30
0.0
  3
GENAXEH
  1

  0
LINE
  5
C48C
330
64
100
AcDbEntity
  8
0
100
AcDbLine
 10
-1.0
 20
0.0
 30
0.0
 11
1.0
 21
0.0
 31
0.0
  0
ENDBLK
  5
C48D
330
64
100
AcDbEntity
  8
0
100
AcDbBlockEnd
  0
BLOCK
  5
BC7B
330
BC71
100
AcDbEntity
  8
0
100
AcDbBlockBegin
  2
*D2
 70
     1
 10
0.0
 20
0.0
 30
0.0
  3
*D2
  1

  0
LINE
  5
C3B8
330
BC71
100
AcDbEntity
  8
AM_5
100
AcDbLine
 10
-39.00000000000032
 20
21.0
 30
0.0
 11
-39.00000000000032
 21
35.00000100000015
 31
0.0
  0
LINE
  5
C3B9
330
BC71
100
AcDbEntity
  8
AM_5
100
AcDbLine
 10
-0.0000000000003691
 20
21.00000000000016
 30
0.0
 11
-0.0000000000003717
 21
35.00000100000016
 31
0.0
  0
LINE
  5
C3BA
330
BC71
100
AcDbEntity
  8
AM_5
100
AcDbLine
 10
-36.50000000000032
 20
34.00000100000015
 30
0.0
 11
-2.500000000000371
 21
34.00000100000016
 31
0.0
  0
INSERT
  5
C3BB
330
BC71
100
AcDbEntity
  8
AM_5
100
AcDbBlockReference
  2
_Open30
 10
-39.00000000000032
 20
34.00000100000015
 30
0.0
 41
2.5
 42
2.5
 43
2.5
 50
180.0
  0
INSERT
  5
C3BC
330
BC71
100
AcDbEntity
  8
AM_5
100
AcDbBlockReference
  2
_Open30
 10
-0.0000000000003715
 20
34.00000100000016
 30
0.0
 41
2.5
 42
2.5
 43
2.5
  0
MTEXT
  5
C3BD
330
BC71
100
AcDbEntity
  8
AM_5
 62
     2
100
AcDbMText
 10
-19.50000000000034
 20
37.10000100000015
 30
0.0
 40
3.2
 41
0.0
 71
     5
 72
     1
  1
39
  7
ASAMI
 73
     1
 44
1.0
1001
ACAD
1000
MTEXTBEGIN
1070
    73
1070
     1
1070
    44
1040
1.0
1070
    74
1070
     0
1000
MTEXTEND
  0
POINT
  5
C3BE
330
BC71
100
AcDbEntity
  8
DEFPOINTS
 62
     0
100
AcDbPoint
 10
-39.00000000000027
 20
20.00000000000008
 30
0.0
  0
POINT
  5
C3BF
330
BC71
100
AcDbEntity
  8
DEFPOINTS
 62
     0
100
AcDbPoint
 10
-0.0000000000003285
 20
20.00000000000016
 30
0.0
  0
POINT
  5
C3C0
330
BC71
100
AcDbEntity
  8
DEFPOINTS
 62
     0
100
AcDbPoint
 10
-0.0000000000003028
 20
34.00000100000016
 30
0.0
  0
ENDBLK
  5
BC7C
330
BC71
100
AcDbEntity
  8
0
100
AcDbBlockEnd
  0
BLOCK
  5
BD14
330
BD0A
100
AcDbEntity
  8
0
100
AcDbBlockBegin
  2
*D3
 70
     1
 10
0.0
 20
0.0
 30
0.0
  3
*D3
  1

  0
LINE
  5
C3C1
330
BD0A
100
AcDbEntity
  8
AM_5
100
AcDbLine
 10
0.9999999999996781
 20
20.00000000000017
 30
0.0
 11
17.02549080712868
 21
20.0000000000002
 31
0.0
  0
LINE
  5
C3C2
330
BD0A
100
AcDbEntity
  8
AM_5
100
AcDbLine
 10
0.9999999999998435
 20
-19.99999999999983
 30
0.0
 11
17.02549080712876
 21
-19.9999999999998
 31
0.0
  0
LINE
  5
C3C3
330
BD0A
100
AcDbEntity
  8
AM_5
100
AcDbLine
 10
16.02549080712868
 20
17.50000000000019
 30
0.0
 11
16.02549080712875
 21
-17.4999999999998
 31
0.0
  0
INSERT
  5
C3C4
330
BD0A
100
AcDbEntity
  8
AM_5
100
AcDbBlockReference
  2
_Open30
 10
16.02549080712868
 20
20.00000000000019
 30
0.0
 41
2.5
 42
2.5
 43
2.5
 50
90.0000000000001
  0
INSERT
  5
C3C5
330
BD0A
100
AcDbEntity
  8
AM_5
100
AcDbBlockReference
  2
_Open30
 10
16.02549080712876
 20
-19.9999999999998
 30
0.0
 41
2.5
 42
2.5
 43
2.5
 50
270.0000000000001
  0
MTEXT
  5
C3C6
330
BD0A
100
AcDbEntity
  8
AM_5
 62
     2
100
AcDbMText
 10
12.92549080712872
 20
0.0000000000001907
 30
0.0
 40
3.2
 41
0.0
 71
     5
 72
     1
  1
%%c40
  7
ASAMI
 11
-0.000000000000002
 21
1.0
 31
0.0
 73
     1
 44
1.0
1001
ACAD
1000
MTEXTBEGIN
1070
    73
1070
     1
1070
    44
1040
1.0
1070
    74
1070
     0
1000
MTEXTEND
  0
POINT
  5
C3C7
330
BD0A
100
AcDbEntity
  8
DEFPOINTS
 62
     0
100
AcDbPoint
 10
-0.0000000000002776
 20
20.00000000000016
 30
0.0
  0
POINT
  5
C3C8
330
BD0A
100
AcDbEntity
  8
DEFPOINTS
 62
     0
100
AcDbPoint
 10
-0.0000000000002008
 20
-19.99999999999983
 30
0.0
  0
POINT
  5
C3C9
330
BD0A
100
AcDbEntity
  8
DEFPOINTS
 62
     0
100
AcDbPoint
 10
16.02549080712871
 20
-19.99999999999984
 30
0.0
  0
ENDBLK
  5
BD15
330
BD0A
100
AcDbEntity
  8
0
100
AcDbBlockEnd
  0
BLOCK
  5
BDBB
330
BDB1
100
AcDbEntity
  8
0
100
AcDbBlockBegin
  2
*D4
 70
     1
 10
0.0
 20
0.0
 30
0.0
  3
*D4
  1

  0
LINE
  5
C3CA
330
BDB1
100
AcDbEntity
  8
AM_5
100
AcDbLine
 10
-0.0000000000001585
 20
-20.99999999999983
 30
0.0
 11
-0.000000000000131
 21
-35.00000099999991
 31
0.0
  0
LINE
  5
C3CB
330
BDB1
100
AcDbEntity
  8
AM_5
100
AcDbLine
 10
-54.96920013427722
 20
-18.84999847412106
 30
0.0
 11
-54.96920013427718
 21
-35.00000100000002
 31
0.0
  0
LINE
  5
C3CC
330
BDB1
100
AcDbEntity
  8
AM_5
100
AcDbLine
 10
-2.500000000000131
 20
-34.00000099999993
 30
0.0
 11
-52.46920013427718
 21
-34.00000100000001
 31
0.0
  0
INSERT
  5
C3CD
330
BDB1
100
AcDbEntity
  8
AM_5
100
AcDbBlockReference
  2
_Open30
 10
-0.000000000000133
 20
-34.00000099999991
 30
0.0
 41
2.5
 42
2.5
 43
2.5
 50
0.0000000000001018
  0
INSERT
  5
C3CE
330
BDB1
100
AcDbEntity
  8
AM_5
100
AcDbBlockReference
  2
_Open30
 10
-54.96920013427718
 20
-34.00000100000002
 30
0.0
 41
2.5
 42
2.5
 43
2.5
 50
180.0000000000001
  0
MTEXT
  5
C3CF
330
BDB1
100
AcDbEntity
  8
AM_5
 62
     2
100
AcDbMText
 10
-27.48460006713866
 20
-30.90000099999997
 30
0.0
 40
3.2
 41
0.0
 71
     5
 72
     1
  1
55
  7
ASAMI
 73
     1
 44
1.0
1001
ACAD
1000
MTEXTBEGIN
1070
    73
1070
     1
1070
    44
1040
1.0
1070
    74
1070
     0
1000
MTEXTEND
  0
POINT
  5
C3D0
330
BDB1
100
AcDbEntity
  8
DEFPOINTS
 62
     0
100
AcDbPoint
 10
-0.0000000000002009
 20
-19.99999999999983
 30
0.0
  0
POINT
  5
C3D1
330
BDB1
100
AcDbEntity
  8
DEFPOINTS
 62
     0
100
AcDbPoint
 10
-54.96920013427725
 20
-17.84999847412095
 30
0.0
  0
POINT
  5
C3D2
330
BDB1
100
AcDbEntity
  8
DEFPOINTS
 62
     0
100
AcDbPoint
 10
-54.96920013427725
 20
-34.00000099999991
 30
0.0
  0
ENDBLK
  5
BDBC
330
BDB1
100
AcDbEntity
  8
0
100
AcDbBlockEnd
  0
BLOCK
  5
BE50
330
BE46
100
AcDbEntity
  8
0
100
AcDbBlockBegin
  2
*D5
 70
     1
 10
0.0
 20
0.0
 30
0.0
  3
*D5
  1

  0
LINE
  5
C3D3
330
BE46
100
AcDbEntity
  8
AM_5
100
AcDbLine
 10
-54.96919727325423
 20
-18.84999847412106
 30
0.0
 11
-54.96919727325417
 21
-35.00000100000002
 31
0.0
  0
LINE
  5
C3D4
330
BE46
100
AcDbEntity
  8
AM_5
100
AcDbLine
 10
-240.0000004768373
 20
-14.66149902343875
 30
0.0
 11
-240.0000004768373
 21
-35.00000100000039
 31
0.0
  0
LINE
  5
C3D5
330
BE46
100
AcDbEntity
  8
AM_5
100
AcDbLine
 10
-57.46919727325417
 20
-34.00000100000002
 30
0.0
 11
-237.5000004768373
 21
-34.00000100000039
 31
0.0
  0
INSERT
  5
C3D6
330
BE46
100
AcDbEntity
  8
AM_5
100
AcDbBlockReference
  2
_Open30
 10
-54.96919727325417
 20
-34.00000100000002
 30
0.0
 41
2.5
 42
2.5
 43
2.5
 50
0.0000000000001018
  0
INSERT
  5
C3D7
330
BE46
100
AcDbEntity
  8
AM_5
100
AcDbBlockReference
  2
_Open30
 10
-240.0000004768373
 20
-34.00000100000039
 30
0.0
 41
2.5
 42
2.5
 43
2.5
 50
180.0000000000001
  0
MTEXT
  5
C3D8
330
BE46
100
AcDbEntity
  8
AM_5
 62
     2
100
AcDbMText
 10
-147.4845988750457
 20
-30.90000100000021
 30
0.0
 40
3.2
 41
0.0
 71
     5
 72
     1
  1
185
  7
ASAMI
 73
     1
 44
1.0
1001
ACAD
1000
MTEXTBEGIN
1070
    73
1070
     1
1070
    44
1040
1.0
1070
    74
1070
     0
1000
MTEXTEND
  0
POINT
  5
C3D9
330
BE46
100
AcDbEntity
  8
DEFPOINTS
 62
     0
100
AcDbPoint
 10
-54.96919727325425
 20
-17.84999847412095
 30
0.0
  0
POINT
  5
C3DA
330
BE46
100
AcDbEntity
  8
DEFPOINTS
 62
     0
100
AcDbPoint
 10
-240.0000004768373
 20
-13.66149902343826
 30
0.0
  0
POINT
  5
C3DB
330
BE46
100
AcDbEntity
  8
DEFPOINTS
 62
     0
100
AcDbPoint
 10
-240.0000004768373
 20
-34.00000099999991
 30
0.0
  0
ENDBLK
  5
BE51
330
BE46
100
AcDbEntity
  8
0
100
AcDbBlockEnd
  0
BLOCK
  5
BEEE
330
BEE4
100
AcDbEntity
  8
0
100
AcDbBlockBegin
  2
*D6
 70
     1
 10
0.0
 20
0.0
 30
0.0
  3
*D6
  1

  0
LINE
  5
C3DC
330
BEE4
100
AcDbEntity
  8
AM_5
100
AcDbLine
 10
-0.0000000000001585
 20
-20.99999999999983
 30
0.0
 11
-0.0000000000001114
 21
-45.0000009999999
 31
0.0
  0
LINE
  5
C3DD
330
BEE4
100
AcDbEntity
  8
AM_5
100
AcDbLine
 10
-240.0000004768373
 20
-14.66149902343875
 30
0.0
 11
-240.0000004768372
 21
-45.00000100000039
 31
0.0
  0
LINE
  5
C3DE
330
BEE4
100
AcDbEntity
  8
AM_5
100
AcDbLine
 10
-2.500000000000113
 20
-44.0000009999999
 30
0.0
 11
-237.5000004768372
 21
-44.00000100000038
 31
0.0
  0
INSERT
  5
C3DF
330
BEE4
100
AcDbEntity
  8
AM_5
100
AcDbBlockReference
  2
_Open30
 10
-0.0000000000001134
 20
-44.0000009999999
 30
0.0
 41
2.5
 42
2.5
 43
2.5
 50
0.0000000000001018
  0
INSERT
  5
C3E0
330
BEE4
100
AcDbEntity
  8
AM_5
100
AcDbBlockReference
  2
_Open30
 10
-240.0000004768372
 20
-44.00000100000038
 30
0.0
 41
2.5
 42
2.5
 43
2.5
 50
180.0000000000001
  0
MTEXT
  5
C3E1
330
BEE4
100
AcDbEntity
  8
AM_5
 62
     2
100
AcDbMText
 10
-120.0000002384187
 20
-40.90000100000014
 30
0.0
 40
3.2
 41
0.0
 71
     5
 72
     1
  1
240
  7
ASAMI
 73
     1
 44
1.0
1001
ACAD
1000
MTEXTBEGIN
1070
    73
1070
     1
1070
    44
1040
1.0
1070
    74
1070
     0
1000
MTEXTEND
  0
POINT
  5
C3E2
330
BEE4
100
AcDbEntity
  8
DEFPOINTS
 62
     0
100
AcDbPoint
 10
-0.0000000000002009
 20
-19.99999999999983
 30
0.0
  0
POINT
  5
C3E3
330
BEE4
100
AcDbEntity
  8
DEFPOINTS
 62
     0
100
AcDbPoint
 10
-240.0000004768373
 20
-13.66149902343826
 30
0.0
  0
POINT
  5
C3E4
330
BEE4
100
AcDbEntity
  8
DEFPOINTS
 62
     0
100
AcDbPoint
 10
-240.0000004768373
 20
-44.0000009999999
 30
0.0
  0
ENDBLK
  5
BEEF
330
BEE4
100
AcDbEntity
  8
0
100
AcDbBlockEnd
  0
BLOCK
  5
BF83
330
BF79
100
AcDbEntity
  8
0
100
AcDbBlockBegin
  2
*D7
 70
     1
 10
0.0
 20
0.0
 30
0.0
  3
*D7
  1

  0
LINE
  5
C3E5
330
BF79
100
AcDbEntity
  8
AM_5
100
AcDbLine
 10
-238.0000000000002
 20
15.99999999999918
 30
0.0
 11
-260.5288307890522
 21
15.99999999999914
 31
0.0
  0
LINE
  5
C3E6
330
BF79
100
AcDbEntity
  8
AM_5
100
AcDbLine
 10
-237.9999923706001
 20
-16.00000381469782
 30
0.0
 11
-260.5288307890521
 21
-16.00000381469786
 31
0.0
  0
LINE
  5
C3E7
330
BF79
100
AcDbEntity
  8
AM_5
100
AcDbLine
 10
-259.5288307890521
 20
13.49999999999914
 30
0.0
 11
-259.5288307890521
 21
-13.50000381469786
 31
0.0
  0
INSERT
  5
C3E8
330
BF79
100
AcDbEntity
  8
AM_5
100
AcDbBlockReference
  2
_Open30
 10
-259.5288307890522
 20
15.99999999999914
 30
0.0
 41
2.5
 42
2.5
 43
2.5
 50
90.0000000000001
  0
INSERT
  5
C3E9
330
BF79
100
AcDbEntity
  8
AM_5
100
AcDbBlockReference
  2
_Open30
 10
-259.5288307890521
 20
-16.00000381469786
 30
0.0
 41
2.5
 42
2.5
 43
2.5
 50
270.0000000000001
  0
MTEXT
  5
C3EA
330
BF79
100
AcDbEntity
  8
AM_5
 62
     2
100
AcDbMText
 10
-262.6288307890522
 20
-0.0000019073493561
 30
0.0
 40
3.2
 41
0.0
 71
     5
 72
     1
  1
%%c32
  7
ASAMI
 11
-0.000000000000002
 21
1.0
 31
0.0
 73
     1
 44
1.0
1001
ACAD
1000
MTEXTBEGIN
1070
    73
1070
     1
1070
    44
1040
1.0
1070
    74
1070
     0
1000
MTEXTEND
  0
POINT
  5
C3EB
330
BF79
100
AcDbEntity
  8
DEFPOINTS
 62
     0
100
AcDbPoint
 10
-237.0000000000002
 20
15.99999999999971
 30
0.0
  0
POINT
  5
C3EC
330
BF79
100
AcDbEntity
  8
DEFPOINTS
 62
     0
100
AcDbPoint
 10
-236.9999923706001
 20
-16.00000381469729
 30
0.0
  0
POINT
  5
C3ED
330
BF79
100
AcDbEntity
  8
DEFPOINTS
 62
     0
100
AcDbPoint
 10
-259.5288307890521
 20
-16.00000381469729
 30
0.0
  0
ENDBLK
  5
BF84
330
BF79
100
AcDbEntity
  8
0
100
AcDbBlockEnd
  0
ENDSEC
  0
SECTION
  2
ENTITIES
  0
TEXT
  5
388D
330
1F
100
AcDbEntity
  8
AM_6
100
AcDbText
 10
-144.0476192860376
 20
-66.50000100000008
 30
0.0
 40
5.0
  1
WMM3040ELH
 50
359.9999999999998
 51
359.9999999999998
 72
     4
 11
-120.0000002384186
 21
-64.00000100000015
 31
0.0
100
AcDbText
  0
LINE
  5
B916
330
1F
100
AcDbEntity
  8
AM_7
100
AcDbLine
 10
-245.5288297890521
 20
-0.0000000000003126
 30
0.0
 11
2.025489807128721
 21
0.0000000000001705
 31
0.0
  0
SPLINE
  5
B91C
330
1F
100
AcDbEntity
  8
AM_0
100
AcDbSpline
210
0.0
220
0.0
230
1.0
 70
     8
 71
     3
 72
    11
 73
     7
 74
     5
 42
0.0000000001
 43
0.0000000001
 44
0.0000000001
 40
0.0
 40
0.0
 40
0.0
 40
0.0
 40
1.751652172792142
 40
3.491146410846076
 40
5.212953306360458
 40
6.909439730250354
 40
6.909439730250354
 40
6.909439730250354
 40
6.909439730250354
 10
-1.503440856934286
 20
6.429199218750156
 30
0.0
 10
-1.521206103808632
 20
5.84558486705709
 30
0.0
 10
-1.556613291848884
 20
4.682406936598584
 30
0.0
 10
-1.602352118243252
 20
2.945354888321558
 30
0.0
 10
-1.641447304567109
 20
1.226525259476272
 30
0.0
 10
-1.659059857811125
 20
0.0872268150980211
 30
0.0
 10
-1.667800903320267
 20
-0.4782028198238354
 30
0.0
 11
-1.503440856934286
 21
6.429199218750156
 31
0.0
 11
-1.555534362793312
 21
4.678321838379175
 31
0.0
 11
-1.601463317871289
 21
2.939434051514168
 31
0.0
 11
-1.639533996582276
 21
1.218048095703166
 31
0.0
 11
-1.667800903320267
 21
-0.4782028198238354
 31
0.0
  0
SPLINE
  5
B91F
330
1F
100
AcDbEntity
  8
AM_0
100
AcDbSpline
210
0.0
220
0.0
230
1.0
 70
     8
 71
     3
 72
    11
 73
     7
 74
     5
 42
0.0000000001
 43
0.0000000001
 44
0.0000000001
 40
0.0
 40
0.0
 40
0.0
 40
0.0
 40
0.0378793960330565
 40
0.0757587920661271
 40
0.1136458160681641
 40
0.1515252121012419
 40
0.1515252121012419
 40
0.1515252121012419
 40
0.1515252121012419
 10
-42.14342498779332
 20
17.24893188476608
 30
0.0
 10
-42.15604909269585
 20
17.24917602100266
 30
0.0
 10
-42.18129730250089
 20
17.2496642934758
 30
0.0
 10
-42.21917215786187
 20
17.25039683034545
 30
0.0
 10
-42.25704701933383
 20
17.2511290511955
 30
0.0
 10
-42.28229777050513
 20
17.25161741496495
 30
0.0
 10
-42.29492187500033
 20
17.25186157226607
 30
0.0
 11
-42.14342498779332
 21
17.24893188476608
 31
0.0
 11
-42.18129730224631
 21
17.24966430664108
 31
0.0
 11
-42.21916961669932
 21
17.25039672851608
 31
0.0
 11
-42.25704956054732
 21
17.25112915039107
 31
0.0
 11
-42.29492187500033
 21
17.25186157226607
 31
0.0
  0
SPLINE
  5
B920
330
1F
100
AcDbEntity
  8
AM_0
100
AcDbSpline
210
0.0
220
0.0
230
1.0
 70
     8
 71
     3
 72
    11
 73
     7
 74
     5
 42
0.0000000001
 43
0.0000000001
 44
0.0000000001
 40
0.0
 40
0.0
 40
0.0
 40
0.0
 40
0.0766986857400193
 40
0.1533897481712827
 40
0.2300808045543699
 40
0.3067718609374608
 40
0.3067718609374608
 40
0.3067718609374608
 40
0.3067718609374608
 10
-15.98510742187534
 20
18.80837440490712
 30
0.0
 10
-16.01067352364059
 20
18.80845493143987
 30
0.0
 10
-16.06180318608076
 20
18.80861597650159
 30
0.0
 10
-16.13849639474481
 20
18.80886146170371
 30
0.0
 10
-16.2151870732957
 20
18.80910284135991
 30
0.0
 10
-16.26631418882013
 20
18.80926444402739
 30
0.0
 10
-16.29187774658234
 20
18.80934524536114
 30
0.0
 11
-15.98510742187534
 21
18.80837440490712
 31
0.0
 11
-16.06180572509833
 21
18.80861663818414
 31
0.0
 11
-16.13849639892632
 21
18.80886077880914
 31
0.0
 11
-16.21518707275433
 21
18.80910301208514
 31
0.0
 11
-16.29187774658234
 21
18.80934524536114
 31
0.0
  0
SPLINE
  5
B923
330
1F
100
AcDbEntity
  8
AM_0
100
AcDbSpline
210
0.0
220
0.0
230
1.0
 70
     8
 71
     3
 72
    11
 73
     7
 74
     5
 42
0.0000000001
 43
0.0000000001
 44
0.0000000001
 40
0.0
 40
0.0
 40
0.0
 40
0.0
 40
0.1655340578838051
 40
0.3291289239808376
 40
0.4905446688449022
 40
0.6496120863266519
 40
0.6496120863266519
 40
0.6496120863266519
 40
0.6496120863266519
 10
-27.94892120361331
 20
10.28952407836913
 30
0.0
 10
-27.99631936921283
 20
10.26125862564792
 30
0.0
 10
-28.09056044226975
 20
10.20505884320501
 30
0.0
 10
-28.23512391749402
 20
10.12853105201662
 30
0.0
 10
-28.38018856383733
 20
10.05775439311605
 30
0.0
 10
-28.47838436156124
 20
10.01564927423008
 30
0.0
 10
-28.5271224975593
 20
9.994750976563118
 30
0.0
 11
-27.94892120361331
 21
10.28952407836913
 31
0.0
 11
-28.09181213378928
 21
10.20595550537111
 31
0.0
 11
-28.23617553710931
 21
10.12899780273411
 31
0.0
 11
-28.38143920898431
 21
10.05861663818412
 31
0.0
 11
-28.5271224975593
 21
9.994750976563118
 31
0.0
  0
SPLINE
  5
B924
330
1F
100
AcDbEntity
  8
AM_0
100
AcDbSpline
210
0.0
220
0.0
230
1.0
 70
     8
 71
     3
 72
    11
 73
     7
 74
     5
 42
0.0000000001
 43
0.0000000001
 44
0.0000000001
 40
0.0
 40
0.0
 40
0.0
 40
0.0
 40
0.6501159621524011
 40
1.300546482836751
 40
1.951272538927609
 40
2.602274492455793
 40
2.602274492455793
 40
2.602274492455793
 40
2.602274492455793
 10
-1.494911193848311
 20
11.53699493408216
 30
0.0
 10
-1.503797546387344
 20
11.32047188849672
 30
0.0
 10
-1.521574551126042
 20
10.88732103267566
 30
0.0
 10
-1.548051283961178
 20
10.23743596197927
 30
0.0
 10
-1.574418545557908
 20
9.587250865537379
 30
0.0
 10
-1.591857155235421
 20
9.15369209251909
 30
0.0
 10
-1.600578308105289
 20
8.936866760254176
 30
0.0
 11
-1.494911193848311
 21
11.53699493408216
 31
0.0
 11
-1.521537780762314
 21
10.88742446899415
 31
0.0
 11
-1.548027038574301
 21
10.23753356933615
 31
0.0
 11
-1.574378967285292
 21
9.587341308594163
 31
0.0
 11
-1.600578308105289
 21
8.936866760254176
 31
0.0
  0
SPLINE
  5
B925
330
1F
100
AcDbEntity
  8
AM_0
100
AcDbSpline
210
0.0
220
0.0
230
1.0
 70
     8
 71
     3
 72
    11
 73
     7
 74
     5
 42
0.0000000001
 43
0.0000000001
 44
0.0000000001
 40
0.0
 40
0.0
 40
0.0
 40
0.0
 40
0.0866433231236975
 40
0.1733041457460036
 40
0.2599947723054241
 40
0.3467236639128533
 40
0.3467236639128533
 40
0.3467236639128533
 40
0.3467236639128533
 10
-1.549522399902313
 20
10.76859283447315
 30
0.0
 10
-1.548140689467421
 20
10.79744106265891
 30
0.0
 10
-1.54537698953124
 20
10.85514334555589
 30
0.0
 10
-1.540283409762811
 20
10.94165992657847
 30
0.0
 10
-1.534496385718959
 20
11.02816147150991
 30
0.0
 10
-1.530008036490878
 20
11.08579384766733
 30
0.0
 10
-1.527763366699304
 20
11.11461639404315
 30
0.0
 11
-1.549522399902313
 21
10.76859283447315
 31
0.0
 11
-1.545219421387314
 21
10.85512924194317
 31
0.0
 11
-1.540168762207314
 21
10.94164276123017
 31
0.0
 11
-1.534339904785297
 21
11.02813720703115
 31
0.0
 11
-1.527763366699304
 21
11.11461639404315
 31
0.0
  0
SPLINE
  5
B926
330
1F
100
AcDbEntity
  8
AM_0
100
AcDbSpline
210
0.0
220
0.0
230
1.0
 70
     8
 71
     3
 72
    11
 73
     7
 74
     5
 42
0.0000000001
 43
0.0000000001
 44
0.0000000001
 40
0.0
 40
0.0
 40
0.0
 40
0.0
 40
0.0854418459340035
 40
0.1675240349937118
 40
0.245231547622192
 40
0.3176557937691803
 40
0.3176557937691803
 40
0.3176557937691803
 40
0.3176557937691803
 10
-1.611061096191314
 20
9.254707336426164
 30
0.0
 10
-1.612242981656128
 20
9.226251250808241
 30
0.0
 10
-1.614560279694364
 20
9.170458000665647
 30
0.0
 10
-1.617834997545045
 20
9.088779753887859
 30
0.0
 10
-1.620871777687173
 20
9.011434671579234
 30
0.0
 10
-1.622750784900421
 20
8.96142603192262
 30
0.0
 10
-1.623657226562292
 20
8.937301635742171
 30
0.0
 11
-1.611061096191314
 21
9.254707336426164
 31
0.0
 11
-1.61458587646529
 21
9.169338226318174
 31
0.0
 11
-1.617881774902307
 21
9.087322235107151
 31
0.0
 11
-1.620918273926313
 21
9.00967407226615
 31
0.0
 11
-1.623657226562292
 21
8.937301635742171
 31
0.0
  0
SPLINE
  5
B927
330
1F
100
AcDbEntity
  8
AM_0
100
AcDbSpline
210
0.0
220
0.0
230
1.0
 70
     8
 71
     3
 72
    11
 73
     7
 74
     5
 42
0.0000000001
 43
0.0000000001
 44
0.0000000001
 40
0.0
 40
0.0
 40
0.0
 40
0.0
 40
1.095162781695897
 40
2.119143126808189
 40
3.034830615981427
 40
3.820519059030965
 40
3.820519059030965
 40
3.820519059030965
 40
3.820519059030965
 10
-43.69883728027328
 20
10.78675079345707
 30
0.0
 10
-44.04470969092358
 20
10.90799167270156
 30
0.0
 10
-44.7139737985361
 20
11.14259312212381
 30
0.0
 10
-45.55867632007124
 20
11.71494936917663
 30
0.0
 10
-46.22221240051384
 20
12.34528283487544
 30
0.0
 10
-46.5340548650014
 20
12.82084830563213
 30
0.0
 10
-46.67806243896531
 20
13.04046249389609
 30
0.0
 11
-43.69883728027328
 21
10.78675079345707
 31
0.0
 11
-44.71524047851629
 21
11.19455718994108
 31
0.0
 11
-45.56996917724628
 21
11.75844955444305
 31
0.0
 11
-46.2242050170903
 21
12.39912033081106
 31
0.0
 11
-46.67806243896531
 21
13.04046249389609
 31
0.0
  0
SPLINE
  5
B928
330
1F
100
AcDbEntity
  8
AM_0
100
AcDbSpline
210
0.0
220
0.0
230
1.0
 70
     8
 71
     3
 72
    11
 73
     7
 74
     5
 42
0.0000000001
 43
0.0000000001
 44
0.0000000001
 40
0.0
 40
0.0
 40
0.0
 40
0.0
 40
0.1038435362894783
 40
0.2071661023868761
 40
0.3099734504144677
 40
0.4122847143221246
 40
0.4122847143221246
 40
0.4122847143221246
 40
0.4122847143221246
 10
-1.538261413574294
 20
8.529407501221145
 30
0.0
 10
-1.544888646754825
 20
8.563383342078042
 30
0.0
 10
-1.55810986510579
 20
8.631164571195849
 30
0.0
 10
-1.57498744925181
 20
8.733112177741684
 30
0.0
 10
-1.58953554893083
 20
8.834910716272158
 30
0.0
 10
-1.596669171225448
 20
8.902915891239091
 30
0.0
 10
-1.600227355957278
 20
8.936836242676164
 30
0.0
 11
-1.538261413574294
 21
8.529407501221145
 31
0.0
 11
-1.5576553344733
 21
8.631423950195157
 31
0.0
 11
-1.574638366699295
 21
8.733341217041173
 31
0.0
 11
-1.588920593262306
 21
8.835151672363155
 31
0.0
 11
-1.600227355957278
 21
8.936836242676164
 31
0.0
  0
SPLINE
  5
B929
330
1F
100
AcDbEntity
  8
AM_0
100
AcDbSpline
210
0.0
220
0.0
230
1.0
 70
     8
 71
     3
 72
    11
 73
     7
 74
     5
 42
0.0000000001
 43
0.0000000001
 44
0.0000000001
 40
0.0
 40
0.0
 40
0.0
 40
0.0
 40
0.5271947021057012
 40
1.053058850825427
 40
1.577524057610445
 40
2.100536503771986
 40
2.100536503771986
 40
2.100536503771986
 40
2.100536503771986
 10
-1.503440856934286
 20
6.429199218750156
 30
0.0
 10
-1.507961473394235
 20
6.60487306361955
 30
0.0
 10
-1.516991297015987
 20
6.955777381245182
 30
0.0
 10
-1.52707184879571
 20
7.481525056723985
 30
0.0
 10
-1.534639387270684
 20
8.005921658443952
 30
0.0
 10
-1.537055188308571
 20
8.355073634794782
 30
0.0
 10
-1.538261413574294
 20
8.529407501221145
 30
0.0
 11
-1.503440856934286
 21
6.429199218750156
 31
0.0
 11
-1.516426086426305
 21
6.956233978271156
 31
0.0
 11
-1.526664733887301
 21
7.481998443604153
 31
0.0
 11
-1.533988952637303
 21
8.006412506104155
 31
0.0
 11
-1.538261413574294
 21
8.529407501221145
 31
0.0
  0
SPLINE
  5
B92A
330
1F
100
AcDbEntity
  8
AM_0
100
AcDbSpline
210
0.0
220
0.0
230
1.0
 70
     8
 71
     3
 72
    11
 73
     7
 74
     5
 42
0.0000000001
 43
0.0000000001
 44
0.0000000001
 40
0.0
 40
0.0
 40
0.0
 40
0.0
 40
0.4574014291074107
 40
0.9464834661681306
 40
1.466632057919235
 40
2.016384462142848
 40
2.016384462142848
 40
2.016384462142848
 40
2.016384462142848
 10
-48.56575775146531
 20
15.23287963867207
 30
0.0
 10
-48.47438146557092
 20
15.11070037637039
 30
0.0
 10
-48.28529997545035
 20
14.85787945295784
 30
0.0
 10
-47.95052549501287
 20
14.50050728717638
 30
0.0
 10
-47.56768513634731
 20
14.14789668959785
 30
0.0
 10
-47.27998109959796
 20
13.93670916955698
 30
0.0
 10
-47.13214874267627
 20
13.8281936645511
 30
0.0
 11
-48.56575775146531
 21
15.23287963867207
 31
0.0
 11
-48.28533172607431
 21
14.87152481079107
 31
0.0
 11
-47.9535140991213
 21
14.51222229003908
 31
0.0
 11
-47.56905364990234
 21
14.16187286377009
 31
0.0
 11
-47.13214874267627
 21
13.8281936645511
 31
0.0
  0
SPLINE
  5
B92B
330
1F
100
AcDbEntity
  8
AM_0
100
AcDbSpline
210
0.0
220
0.0
230
1.0
 70
     8
 71
     3
 72
    11
 73
     7
 74
     5
 42
0.0000000001
 43
0.0000000001
 44
0.0000000001
 40
0.0
 40
0.0
 40
0.0
 40
0.0
 40
0.0222497658763908
 40
0.0459040020027974
 40
0.0715898631678313
 40
0.0997596552009878
 40
0.0997596552009878
 40
0.0997596552009878
 40
0.0997596552009878
 10
-25.23477172851633
 20
17.65897369384814
 30
0.0
 10
-25.23606673482857
 20
17.65164500190494
 30
0.0
 10
-25.23873849203629
 20
17.636525009564
 30
0.0
 10
-25.24866783912797
 20
17.61460362829989
 30
0.0
 10
-25.2626275459732
 20
17.59275373618441
 30
0.0
 10
-25.27475936175902
 20
17.57947712919223
 30
0.0
 10
-25.28110504150433
 20
17.57253265380914
 30
0.0
 11
-25.23477172851633
 21
17.65897369384814
 31
0.0
 11
-25.23952484130933
 21
17.63723754882812
 31
0.0
 11
-25.24885559082034
 21
17.61550140380913
 31
0.0
 11
-25.26273345947333
 21
17.59388732910213
 31
0.0
 11
-25.28110504150433
 21
17.57253265380914
 31
0.0
  0
SPLINE
  5
B92C
330
1F
100
AcDbEntity
  8
AM_0
100
AcDbSpline
210
0.0
220
0.0
230
1.0
 70
     8
 71
     3
 72
    11
 73
     7
 74
     5
 42
0.0000000001
 43
0.0000000001
 44
0.0000000001
 40
0.0
 40
0.0
 40
0.0
 40
0.0
 40
1.463193322411392
 40
3.066511346709372
 40
4.779633712434014
 40
6.555146931382311
 40
6.555146931382311
 40
6.555146931382311
 40
6.555146931382311
 10
-46.5843505859373
 20
12.72032928466806
 30
0.0
 10
-46.34133230020382
 20
12.29496331316406
 30
0.0
 10
-45.83202275153023
 20
11.40349561840219
 30
0.0
 10
-44.66863579249026
 20
10.28825294309037
 30
0.0
 10
-43.17208597589128
 20
9.416737718231503
 30
0.0
 10
-42.0103274677775
 20
9.254129575526398
 30
0.0
 10
-41.4190597534183
 20
9.171371459961108
 30
0.0
 11
-46.5843505859373
 21
12.72032928466806
 31
0.0
 11
-45.80131530761729
 21
11.48429107666007
 31
0.0
 11
-44.65621948242229
 21
10.36206817627008
 31
0.0
 11
-43.1575241088873
 21
9.53218841552708
 31
0.0
 11
-41.4190597534183
 21
9.171371459961108
 31
0.0
  0
SPLINE
  5
B92D
330
1F
100
AcDbEntity
  8
AM_0
100
AcDbSpline
210
0.0
220
0.0
230
1.0
 70
     8
 71
     3
 72
    11
 73
     7
 74
     5
 42
0.0000000001
 43
0.0000000001
 44
0.0000000001
 40
0.0
 40
0.0
 40
0.0
 40
0.0
 40
0.9584987290220395
 40
1.917275423997081
 40
2.876447665924081
 40
3.836077245648681
 40
3.836077245648681
 40
3.836077245648681
 40
3.836077245648681
 10
-12.56243896484435
 20
19.99170303344714
 30
0.0
 10
-12.88301975319573
 20
19.98607803056058
 30
0.0
 10
-13.52427429876913
 20
19.97482639352884
 30
0.0
 10
-14.45693269836835
 20
19.72133381211022
 30
0.0
 10
-15.33621522187473
 20
19.31928607102055
 30
0.0
 10
-15.83682444844009
 20
18.91757714197205
 30
0.0
 10
-16.08718872070332
 20
18.71667480468813
 30
0.0
 11
-12.56243896484435
 21
19.99170303344714
 31
0.0
 11
-13.51928329467833
 21
19.93541145324715
 31
0.0
 11
-14.44785308837933
 21
19.69664192199715
 31
0.0
 11
-15.31465911865231
 21
19.28596115112314
 31
0.0
 11
-16.08718872070332
 21
18.71667480468813
 31
0.0
  0
SPLINE
  5
B92E
330
1F
100
AcDbEntity
  8
AM_0
100
AcDbSpline
210
0.0
220
0.0
230
1.0
 70
     8
 71
     3
 72
    11
 73
     7
 74
     5
 42
0.0000000001
 43
0.0000000001
 44
0.0000000001
 40
0.0
 40
0.0
 40
0.0
 40
0.0
 40
0.9587792360193216
 40
1.917781021664676
 40
2.877177249946045
 40
3.837088268002807
 40
3.837088268002807
 40
3.837088268002807
 40
3.837088268002807
 10
-12.56374359130933
 20
19.99325370788616
 30
0.0
 10
-12.8844116596234
 20
19.98805649777521
 30
0.0
 10
-13.52582222898433
 20
19.97766087118888
 30
0.0
 10
-14.4592877083802
 20
19.72577949673567
 30
0.0
 10
-15.33815323629641
 20
19.32196660155894
 30
0.0
 10
-15.83834034367032
 20
18.91950723044562
 30
0.0
 10
-16.08850097656232
 20
18.71822357177713
 30
0.0
 11
-12.56374359130933
 21
19.99325370788616
 31
0.0
 11
-13.52094650268535
 21
19.93829727172913
 31
0.0
 11
-14.45000457763732
 21
19.70052528381315
 31
0.0
 11
-15.31654357910133
 21
19.28875923156714
 31
0.0
 11
-16.08850097656232
 21
18.71822357177713
 31
0.0
  0
SPLINE
  5
B92F
330
1F
100
AcDbEntity
  8
AM_0
100
AcDbSpline
210
0.0
220
0.0
230
1.0
 70
     8
 71
     3
 72
    11
 73
     7
 74
     5
 42
0.0000000001
 43
0.0000000001
 44
0.0000000001
 40
0.0
 40
0.0
 40
0.0
 40
0.0
 40
2.371829055308329
 40
4.728101464832498
 40
7.103969647036734
 40
9.433477394333976
 40
9.433477394333976
 40
9.433477394333976
 40
9.433477394333976
 10
-9.267715454101312
 20
12.35324478149418
 30
0.0
 10
-10.01445154254407
 20
12.73265094232639
 30
0.0
 10
-11.50302593440745
 20
13.48897476793366
 30
0.0
 10
-11.7941074156405
 20
16.19002666415138
 30
0.0
 10
-10.19313074721902
 20
18.32371175732353
 30
0.0
 10
-8.548102397522924
 20
18.33311893705425
 30
0.0
 10
-7.733692169189339
 20
18.33777618408216
 30
0.0
 11
-9.267715454101312
 21
12.35324478149418
 31
0.0
 11
-11.18207931518529
 21
13.75352478027315
 31
0.0
 11
-11.4792366027833
 21
16.09098434448217
 31
0.0
 11
-10.03519439697333
 21
17.97764587402316
 31
0.0
 11
-7.733692169189339
 21
18.33777618408216
 31
0.0
  0
SPLINE
  5
B930
330
1F
100
AcDbEntity
  8
AM_0
100
AcDbSpline
210
0.0
220
0.0
230
1.0
 70
     8
 71
     3
 72
    11
 73
     7
 74
     5
 42
0.0000000001
 43
0.0000000001
 44
0.0000000001
 40
0.0
 40
0.0
 40
0.0
 40
0.0
 40
1.170968367282101
 40
2.335502589575889
 40
3.49259798859025
 40
4.641273669491456
 40
4.641273669491456
 40
4.641273669491456
 40
4.641273669491456
 10
-12.56371688842834
 20
19.99323081970214
 30
0.0
 10
-12.173489051097
 20
19.98456429854669
 30
0.0
 10
-11.39517756969694
 20
19.96727887635534
 30
0.0
 10
-10.23109484706884
 20
19.95020353095706
 30
0.0
 10
-9.074370243758357
 20
19.93912680420491
 30
0.0
 10
-8.305778485165822
 20
19.93774431048347
 30
0.0
 10
-7.92288589477534
 20
19.93705558776913
 30
0.0
 11
-12.56371688842834
 21
19.99323081970214
 31
0.0
 11
-11.39300537109435
 21
19.96870613098115
 31
0.0
 11
-10.22860336303734
 21
19.95115852356017
 31
0.0
 11
-9.071556091309338
 21
19.94060516357414
 31
0.0
 11
-7.92288589477534
 21
19.93705558776913
 31
0.0
  0
SPLINE
  5
B931
330
1F
100
AcDbEntity
  8
AM_0
100
AcDbSpline
210
0.0
220
0.0
230
1.0
 70
    24
 71
     3
 72
    11
 73
     7
 74
     5
 42
0.0000000001
 43
0.0000000001
 44
0.0000000001
 40
0.0
 40
0.0
 40
0.0
 40
0.0
 40
1.425502263189776
 40
2.85100452637959
 40
4.276506789569316
 40
5.702009052759128
 40
5.702009052759128
 40
5.702009052759128
 40
5.702009052759128
 10
-16.08718872070332
 20
18.71667480468813
 30
0.0
 10
-16.17914835611999
 20
18.25049082438214
 30
0.0
 10
-16.36306762695332
 20
17.31812286377013
 30
0.0
 10
-16.6389465332033
 20
15.91957092285213
 30
0.0
 10
-16.9148254394533
 20
14.52101898193414
 30
0.0
 10
-17.09874471028665
 20
13.58865102132215
 30
0.0
 10
-17.19070434570333
 20
13.12246704101615
 30
0.0
 11
-16.08718872070332
 21
18.71667480468813
 31
0.0
 11
-16.36306762695332
 21
17.31812286377014
 31
0.0
 11
-16.63894653320331
 21
15.91957092285211
 31
0.0
 11
-16.9148254394533
 21
14.52101898193417
 31
0.0
 11
-17.19070434570333
 21
13.12246704101615
 31
0.0
  0
SPLINE
  5
B932
330
1F
100
AcDbEntity
  8
AM_0
100
AcDbSpline
210
0.0
220
0.0
230
1.0
 70
     8
 71
     3
 72
    11
 73
     7
 74
     5
 42
0.0000000001
 43
0.0000000001
 44
0.0000000001
 40
0.0
 40
0.0
 40
0.0
 40
0.0
 40
0.1565904416316926
 40
0.3132675503118022
 40
0.4700126471864455
 40
0.6267897249588306
 40
0.6267897249588306
 40
0.6267897249588306
 40
0.6267897249588306
 10
-17.0344619750983
 20
11.14912414550816
 30
0.0
 10
-17.06767987886773
 20
11.18963343904511
 30
0.0
 10
-17.13413407129422
 20
11.27067444652263
 30
0.0
 10
-17.20072514345206
 20
11.41391566211355
 30
0.0
 10
-17.24278402980434
 20
11.56623514793021
 30
0.0
 10
-17.24470561386846
 20
11.67110486653267
 30
0.0
 10
-17.24566650390633
 20
11.72354507446315
 30
0.0
 11
-17.0344619750983
 21
11.14912414550816
 31
0.0
 11
-17.12860107421931
 21
11.27425765991215
 31
0.0
 11
-17.19662475585931
 21
11.41539764404314
 31
0.0
 11
-17.23625183105534
 21
11.56705093383815
 31
0.0
 11
-17.24566650390633
 21
11.72354507446315
 31
0.0
  0
SPLINE
  5
B933
330
1F
100
AcDbEntity
  8
AM_0
100
AcDbSpline
210
0.0
220
0.0
230
1.0
 70
     8
 71
     3
 72
    11
 73
     7
 74
     5
 42
0.0000000001
 43
0.0000000001
 44
0.0000000001
 40
0.0
 40
0.0
 40
0.0
 40
0.0
 40
0.0000255897676704
 40
0.0000530979403018
 40
0.0000721714275245
 40
0.0000996796001579
 40
0.0000996796001579
 40
0.0000996796001579
 40
0.0000996796001579
 10
-16.48007202148431
 20
10.89290237426813
 30
0.0
 10
-16.48007976363281
 20
10.8928987621002
 30
0.0
 10
-16.48009582834056
 20
10.89289126696859
 30
0.0
 10
-16.48011568417184
 20
10.89287752383069
 30
0.0
 10
-16.48013512426264
 20
10.89286229212151
 30
0.0
 10
-16.48014821453817
 20
10.89285391531596
 30
0.0
 10
-16.4801559448243
 20
10.89284896850612
 30
0.0
 11
-16.48007202148431
 21
10.89290237426813
 31
0.0
 11
-16.48009490966833
 21
10.89289093017613
 31
0.0
 11
-16.4801177978513
 21
10.89287567138713
 31
0.0
 11
-16.48013305664133
 21
10.89286422729513
 31
0.0
 11
-16.4801559448243
 21
10.89284896850612
 31
0.0
  0
SPLINE
  5
B934
330
1F
100
AcDbEntity
  8
AM_0
100
AcDbSpline
210
0.0
220
0.0
230
1.0
 70
     8
 71
     3
 72
    11
 73
     7
 74
     5
 42
0.0000000001
 43
0.0000000001
 44
0.0000000001
 40
0.0
 40
0.0
 40
0.0
 40
0.0
 40
0.1563056111562319
 40
0.3126460669192891
 40
0.4690561016654374
 40
0.6255469561440071
 40
0.6255469561440071
 40
0.6255469561440071
 40
0.6255469561440071
 10
-16.4801559448243
 20
10.89284896850612
 30
0.0
 10
-16.53220223098351
 20
10.89792617673396
 30
0.0
 10
-16.63630640577971
 20
10.90808172503209
 30
0.0
 10
-16.78441190127644
 20
10.96210906507224
 30
0.0
 10
-16.92155644094392
 20
11.03997750783143
 30
0.0
 10
-16.99682031703295
 20
11.11273566867059
 30
0.0
 10
-17.0344619750983
 20
11.14912414550816
 30
0.0
 11
-16.4801559448243
 21
10.89284896850612
 31
0.0
 11
-16.63494873046931
 21
10.91454315185514
 31
0.0
 11
-16.78255462646532
 21
10.96606826782216
 31
0.0
 11
-16.91748809814433
 21
11.04516983032216
 31
0.0
 11
-17.0344619750983
 21
11.14912414550816
 31
0.0
  0
SPLINE
  5
B935
330
1F
100
AcDbEntity
  8
AM_0
100
AcDbSpline
210
0.0
220
0.0
230
1.0
 70
     8
 71
     3
 72
    11
 73
     7
 74
     5
 42
0.0000000001
 43
0.0000000001
 44
0.0000000001
 40
0.0
 40
0.0
 40
0.0
 40
0.0
 40
0.9587791266945922
 40
1.917780439438226
 40
2.877176667720485
 40
3.837086552121261
 40
3.837086552121261
 40
3.837086552121261
 40
3.837086552121261
 10
-4.457794189453323
 20
10.69856262207016
 30
0.0
 10
-4.137126168015485
 20
10.70375923457969
 30
0.0
 10
-3.495715814009379
 20
10.71415366385398
 30
0.0
 10
-2.562249708155586
 20
10.96603249039498
 30
0.0
 10
-1.683385160730694
 20
11.36984619193252
 30
0.0
 10
-1.183197544104849
 20
11.77230418533224
 30
0.0
 10
-0.9330368041993079
 20
11.97358703613317
 30
0.0
 11
-4.457794189453323
 21
10.69856262207016
 31
0.0
 11
-3.500591278076313
 21
10.75351715087919
 31
0.0
 11
-2.571533203125313
 21
10.99128723144517
 31
0.0
 11
-1.704994201660299
 21
11.40305328369115
 31
0.0
 11
-0.9330368041993079
 21
11.97358703613317
 31
0.0
  0
SPLINE
  5
B936
330
1F
100
AcDbEntity
  8
AM_0
100
AcDbSpline
210
0.0
220
0.0
230
1.0
 70
     8
 71
     3
 72
    11
 73
     7
 74
     5
 42
0.0000000001
 43
0.0000000001
 44
0.0000000001
 40
0.0
 40
0.0
 40
0.0
 40
0.0
 40
0.958502425120691
 40
1.91728007009819
 40
2.87645149537395
 40
3.836078812089511
 40
3.836078812089511
 40
3.836078812089511
 40
3.836078812089511
 10
-4.459102630615318
 20
10.70011138916018
 30
0.0
 10
-4.138520436254575
 20
10.70573506367138
 30
0.0
 10
-3.497263997076754
 20
10.7169840274491
 30
0.0
 10
-2.564606111850551
 20
10.97048411593757
 30
0.0
 10
-1.685323152917835
 20
11.37252792449588
 30
0.0
 10
-1.184713404654104
 20
11.77423469619437
 30
0.0
 10
-0.9343490600593082
 20
11.97513580322315
 30
0.0
 11
-4.459102630615318
 21
10.70011138916018
 31
0.0
 11
-3.502254486084296
 21
10.75640106201218
 31
0.0
 11
-2.573684692383323
 21
10.99517440795919
 31
0.0
 11
-1.706878662109319
 21
11.40585327148415
 31
0.0
 11
-0.9343490600593082
 21
11.97513580322315
 31
0.0
  0
SPLINE
  5
B937
330
1F
100
AcDbEntity
  8
AM_0
100
AcDbSpline
210
0.0
220
0.0
230
1.0
 70
     8
 71
     3
 72
    11
 73
     7
 74
     5
 42
0.0000000001
 43
0.0000000001
 44
0.0000000001
 40
0.0
 40
0.0
 40
0.0
 40
0.0
 40
1.188289929682194
 40
2.375566930144489
 40
3.560808778867737
 40
4.743001096044245
 40
4.743001096044245
 40
4.743001096044245
 40
4.743001096044245
 10
-4.457801818848308
 20
10.69858169555717
 30
0.0
 10
-4.853800044474758
 20
10.70746500631236
 30
0.0
 10
-5.645458936548079
 20
10.72522405545777
 30
0.0
 10
-6.832267637277515
 20
10.74317984342835
 30
0.0
 10
-8.017117447654213
 20
10.75533464684538
 30
0.0
 10
-8.806261327166414
 20
10.75761313762059
 30
0.0
 10
-9.200325012207315
 20
10.75875091552716
 30
0.0
 11
-4.457801818848308
 21
10.69858169555717
 31
0.0
 11
-5.645824432373301
 21
10.72378540039116
 31
0.0
 11
-6.832958221435317
 21
10.74222564697316
 31
0.0
 11
-8.01814270019534
 21
10.75388717651417
 31
0.0
 11
-9.200325012207315
 21
10.75875091552716
 31
0.0
  0
SPLINE
  5
B938
330
1F
100
AcDbEntity
  8
AM_0
100
AcDbSpline
210
0.0
220
0.0
230
1.0
 70
     8
 71
     3
 72
    11
 73
     7
 74
     5
 42
0.0000000001
 43
0.0000000001
 44
0.0000000001
 40
0.0
 40
0.0
 40
0.0
 40
0.0
 40
2.341609466138279
 40
4.705905296598963
 40
7.059686160634046
 40
9.436464079432095
 40
9.436464079432095
 40
9.436464079432095
 40
9.436464079432095
 10
-7.733692169189339
 20
18.33777618408216
 30
0.0
 10
-7.006863833870977
 20
17.95449980291103
 30
0.0
 10
-5.546165385921117
 20
17.18423371956237
 30
0.0
 10
-5.188430729312358
 20
14.51993552804346
 30
0.0
 10
-6.774064090181234
 20
12.34358338324432
 30
0.0
 10
-8.433808781636276
 20
12.35001389501884
 30
0.0
 10
-9.267715454101312
 20
12.35324478149418
 30
0.0
 11
-7.733692169189339
 21
18.33777618408216
 31
0.0
 11
-5.855827331543333
 21
16.93893432617215
 31
0.0
 11
-5.512722015381328
 21
14.59966659545915
 31
0.0
 11
-6.918090820312308
 21
12.71148681640616
 31
0.0
 11
-9.267715454101312
 21
12.35324478149418
 31
0.0
  0
SPLINE
  5
B939
330
1F
100
AcDbEntity
  8
AM_0
100
AcDbSpline
210
0.0
220
0.0
230
1.0
 70
     8
 71
     3
 72
    11
 73
     7
 74
     5
 42
0.0000000001
 43
0.0000000001
 44
0.0000000001
 40
0.0
 40
0.0
 40
0.0
 40
0.0
 40
0.0238206085118375
 40
0.047642164199076
 40
0.0714590774189104
 40
0.0952806331061729
 40
0.0952806331061729
 40
0.0952806331061729
 40
0.0952806331061729
 10
-9.291374206543345
 20
12.26094818115218
 30
0.0
 10
-9.289403678444012
 20
12.26863998463441
 30
0.0
 10
-9.285462543891517
 20
12.28402389744694
 30
0.0
 10
-9.279544008277136
 20
12.30709658042587
 30
0.0
 10
-9.273632632358941
 20
12.33017142465497
 30
0.0
 10
-9.269687974992196
 20
12.34555316288703
 30
0.0
 10
-9.267715454101312
 20
12.35324478149418
 30
0.0
 11
-9.291374206543345
 21
12.26094818115218
 31
0.0
 11
-9.28546142578134
 21
12.28402328491218
 31
0.0
 11
-9.279544830322301
 21
12.30709838867217
 31
0.0
 11
-9.273632049560323
 21
12.33016967773416
 31
0.0
 11
-9.267715454101312
 21
12.35324478149418
 31
0.0
  0
SPLINE
  5
B93A
330
1F
100
AcDbEntity
  8
AM_0
100
AcDbSpline
210
0.0
220
0.0
230
1.0
 70
     8
 71
     3
 72
    11
 73
     7
 74
     5
 42
0.0000000001
 43
0.0000000001
 44
0.0000000001
 40
0.0
 40
0.0
 40
0.0
 40
0.0
 40
1.810221037337218
 40
3.609102497353775
 40
5.393134927234867
 40
7.158877945003843
 40
7.158877945003843
 40
7.158877945003843
 40
7.158877945003843
 10
-0.7655258178713558
 20
19.80776405334517
 30
0.0
 10
-1.368607780932951
 20
19.82769879027776
 30
0.0
 10
-2.570993884121939
 20
19.86744338906628
 30
0.0
 10
-4.368304621486815
 20
19.90676280050001
 30
0.0
 10
-6.151039231038955
 20
19.9322867471014
 30
0.0
 10
-7.33430250532734
 20
19.93547144368861
 30
0.0
 10
-7.92288589477534
 20
19.93705558776913
 30
0.0
 11
-0.7655258178713558
 21
19.80776405334517
 31
0.0
 11
-2.574867248535332
 21
19.86418914794916
 31
0.0
 11
-4.373294830322328
 21
19.90459632873518
 31
0.0
 11
-6.157161712646349
 21
19.92889976501515
 31
0.0
 11
-7.92288589477534
 21
19.93705558776913
 31
0.0
  0
SPLINE
  5
B93B
330
1F
100
AcDbEntity
  8
AM_0
100
AcDbSpline
210
0.0
220
0.0
230
1.0
 70
     8
 71
     3
 72
    11
 73
     7
 74
     5
 42
0.0000000001
 43
0.0000000001
 44
0.0000000001
 40
0.0
 40
0.0
 40
0.0
 40
0.0
 40
0.1562975261724938
 40
0.3126464422983757
 40
0.4690555124457183
 40
0.6255476339501337
 40
0.6255476339501337
 40
0.6255476339501337
 40
0.6255476339501337
 10
-0.7655105590823502
 20
19.80776977539118
 30
0.0
 10
-0.7134667620589993
 20
19.80269401550846
 30
0.0
 10
-0.6093620562360031
 20
19.79254082685504
 30
0.0
 10
-0.4612579556687117
 20
19.73850986955364
 30
0.0
 10
-0.3241088728153834
 20
19.66064366272552
 30
0.0
 10
-0.2488459689946858
 20
19.58788405720648
 30
0.0
 10
-0.211204528809338
 20
19.55149459838917
 30
0.0
 11
-0.7655105590823502
 21
19.80776977539118
 31
0.0
 11
-0.6107254028323502
 21
19.78607940673815
 31
0.0
 11
-0.4631118774413271
 21
19.73455047607418
 31
0.0
 11
-0.3281784057623212
 21
19.65545082092318
 31
0.0
 11
-0.211204528809338
 21
19.55149459838917
 31
0.0
  0
SPLINE
  5
B93C
330
1F
100
AcDbEntity
  8
AM_0
100
AcDbSpline
210
0.0
220
0.0
230
1.0
 70
     8
 71
     3
 72
    11
 73
     7
 74
     5
 42
0.0000000001
 43
0.0000000001
 44
0.0000000001
 40
0.0
 40
0.0
 40
0.0
 40
0.0
 40
0.0000202753937235
 40
0.0000405507881376
 40
0.000067048521457
 40
0.0000935462561528
 40
0.0000935462561528
 40
0.0000935462561528
 40
0.0000935462561528
 10
-0.7655868530273216
 20
19.80771636962917
 30
0.0
 10
-0.7655817202232154
 20
19.80772075539086
 30
0.0
 10
-0.765571454614828
 20
19.8077295269144
 30
0.0
 10
-0.7655554044284228
 20
19.80774531424953
 30
0.0
 10
-0.7655332087943759
 20
19.80775609234083
 30
0.0
 10
-0.7655181089864895
 20
19.80776521437432
 30
0.0
 10
-0.7655105590823502
 20
19.80776977539118
 30
0.0
 11
-0.7655868530273216
 21
19.80771636962917
 31
0.0
 11
-0.7655715942383444
 21
19.80772972106915
 31
0.0
 11
-0.7655563354493387
 21
19.80774307251015
 31
0.0
 11
-0.7655334472663418
 21
19.80775642395015
 31
0.0
 11
-0.7655105590823502
 21
19.80776977539118
 31
0.0
  0
SPLINE
  5
B93D
330
1F
100
AcDbEntity
  8
AM_0
100
AcDbSpline
210
0.0
220
0.0
230
1.0
 70
     8
 71
     3
 72
    11
 73
     7
 74
     5
 42
0.0000000001
 43
0.0000000001
 44
0.0000000001
 40
0.0
 40
0.0
 40
0.0
 40
0.0
 40
0.1565858551093045
 40
0.3132662763538282
 40
0.4700113732284248
 40
0.6267860891191941
 40
0.6267860891191941
 40
0.6267860891191941
 40
0.6267860891191941
 10
-0.211204528809338
 20
19.55149459838917
 30
0.0
 10
-0.177990357424014
 20
19.51098457868281
 30
0.0
 10
-0.111541955780103
 20
19.42994007425058
 30
0.0
 10
-0.0449397275204288
 20
19.28670540750805
 30
0.0
 10
-0.0028812471348315
 20
19.1343841665815
 30
0.0
 10
-0.0009655623010444
 20
19.02951507579875
 30
0.0
 10
-0.0000076293943353
 20
18.97707557678216
 30
0.0
 11
-0.211204528809338
 21
19.55149459838917
 31
0.0
 11
-0.1170730590823486
 21
19.42636108398416
 31
0.0
 11
-0.049041748047334
 21
19.28522109985415
 31
0.0
 11
-0.0094146728513388
 21
19.13356781005918
 31
0.0
 11
-0.0000076293943353
 21
18.97707557678216
 31
0.0
  0
SPLINE
  5
B93E
330
1F
100
AcDbEntity
  8
AM_0
100
AcDbSpline
210
0.0
220
0.0
230
1.0
 70
     8
 71
     3
 72
    11
 73
     7
 74
     5
 42
0.0000000001
 43
0.0000000001
 44
0.0000000001
 40
0.0
 40
0.0
 40
0.0
 40
0.0
 40
1.417904487183117
 40
2.835805205802846
 40
4.253704741489211
 40
5.671608045740963
 40
5.671608045740963
 40
5.671608045740963
 40
5.671608045740963
 10
-0.9343490600593082
 20
11.97513580322315
 30
0.0
 10
-0.8610664084348256
 20
12.44205478400262
 30
0.0
 10
-0.7145012999594301
 20
13.37589150456558
 30
0.0
 10
-0.4946497281481441
 20
14.77664493696329
 30
0.0
 10
-0.2748109820296436
 20
16.17739998318665
 30
0.0
 10
-0.1282502506647779
 20
17.11123659244849
 30
0.0
 10
-0.0549697875983359
 20
17.57815551757817
 30
0.0
 11
-0.9343490600593082
 21
11.97513580322315
 31
0.0
 11
-0.7145004272463308
 21
13.37589263916017
 31
0.0
 11
-0.494651794434291
 21
14.77664566040018
 31
0.0
 11
-0.2748107910163276
 21
16.17739868164118
 31
0.0
 11
-0.0549697875983359
 21
17.57815551757817
 31
0.0
  0
SPLINE
  5
B93F
330
1F
100
AcDbEntity
  8
AM_0
100
AcDbSpline
210
0.0
220
0.0
230
1.0
 70
     8
 71
     3
 72
    11
 73
     7
 74
     5
 42
0.0000000001
 43
0.0000000001
 44
0.0000000001
 40
0.0
 40
0.0
 40
0.0
 40
0.0
 40
0.9603250980792138
 40
1.921954231688749
 40
2.880510554084977
 40
3.832023256898465
 40
3.832023256898465
 40
3.832023256898465
 40
3.832023256898465
 10
-38.56374359130933
 20
18.78598594665508
 30
0.0
 10
-38.88454768785514
 20
18.77244942686978
 30
0.0
 10
-39.52659150419665
 20
18.74535800591688
 30
0.0
 10
-40.45759899809517
 20
18.4843319669221
 30
0.0
 10
-41.33455026980558
 20
18.08357891625171
 30
0.0
 10
-41.83780267647574
 20
17.69030448580132
 30
0.0
 10
-42.08850097656233
 20
17.4943923950201
 30
0.0
 11
-38.56374359130933
 21
18.78598594665508
 31
0.0
 11
-39.52095031738333
 21
18.70865821838411
 31
0.0
 11
-40.45000457763734
 21
18.46048736572312
 31
0.0
 11
-41.31654357910132
 21
18.0506820678711
 31
0.0
 11
-42.08850097656233
 21
17.4943923950201
 31
0.0
  0
SPLINE
  5
B940
330
1F
100
AcDbEntity
  8
AM_0
100
AcDbSpline
210
0.0
220
0.0
230
1.0
 70
     8
 71
     3
 72
    11
 73
     7
 74
     5
 42
0.0000000001
 43
0.0000000001
 44
0.0000000001
 40
0.0
 40
0.0
 40
0.0
 40
0.0
 40
1.171631989173451
 40
2.33782755925517
 40
3.497828519858374
 40
4.650917520435474
 40
4.650917520435474
 40
4.650917520435474
 40
4.650917520435474
 10
-38.56372070312534
 20
18.78593063354507
 30
0.0
 10
-38.17342278866365
 20
18.80005095562357
 30
0.0
 10
-37.39463795760753
 20
18.82822608092375
 30
0.0
 10
-36.23049257746143
 20
18.89406739839431
 30
0.0
 10
-35.07352235367861
 20
18.97543999786252
 30
0.0
 10
-34.30566909287406
 20
19.0455686915041
 30
0.0
 10
-33.92288970947333
 20
19.08052825927711
 30
0.0
 11
-38.56372070312534
 21
18.78593063354507
 31
0.0
 11
-37.39300537109435
 21
18.83226776123009
 31
0.0
 11
-36.22859954834032
 21
18.89685249328609
 31
0.0
 11
-35.07155609130933
 21
18.9796333312991
 31
0.0
 11
-33.92288970947333
 21
19.08052825927711
 31
0.0
  0
SPLINE
  5
B941
330
1F
100
AcDbEntity
  8
AM_0
100
AcDbSpline
210
0.0
220
0.0
230
1.0
 70
     8
 71
     3
 72
    11
 73
     7
 74
     5
 42
0.0000000001
 43
0.0000000001
 44
0.0000000001
 40
0.0
 40
0.0
 40
0.0
 40
0.0
 40
1.809485191049299
 40
3.609032675253056
 40
5.396048587743611
 40
7.167948447886987
 40
7.167948447886987
 40
7.167948447886987
 40
7.167948447886987
 10
-26.76551818847634
 20
19.41961479187011
 30
0.0
 10
-27.36869727968123
 20
19.4154702274524
 30
0.0
 10
-28.57174279779659
 20
19.40720386059726
 30
0.0
 10
-30.36940335294753
 20
19.34053624901708
 30
0.0
 10
-32.15283843995182
 20
19.2379424121097
 30
0.0
 10
-33.3345456711563
 20
19.13285085578066
 30
0.0
 10
-33.92288970947333
 20
19.08052825927711
 30
0.0
 11
-26.76551818847634
 21
19.41961479187011
 31
0.0
 11
-28.57487487793035
 21
19.39805030822813
 31
0.0
 11
-30.37329101562535
 21
19.33424949646012
 31
0.0
 11
-32.15716552734435
 21
19.22833633422912
 31
0.0
 11
-33.92288970947333
 21
19.08052825927711
 31
0.0
  0
SPLINE
  5
B942
330
1F
100
AcDbEntity
  8
AM_0
100
AcDbSpline
210
0.0
220
0.0
230
1.0
 70
     8
 71
     3
 72
    11
 73
     7
 74
     5
 42
0.0000000001
 43
0.0000000001
 44
0.0000000001
 40
0.0
 40
0.0
 40
0.0
 40
0.0
 40
0.1556377015383819
 40
0.3097827908954461
 40
0.4620782206108602
 40
0.6124102763191463
 40
0.6124102763191463
 40
0.6124102763191463
 40
0.6124102763191463
 10
-26.76551818847634
 20
19.41963005065912
 30
0.0
 10
-26.71357133319911
 20
19.41629726995066
 30
0.0
 10
-26.61017580854821
 20
19.40966367089911
 30
0.0
 10
-26.46214072051613
 20
19.36314859336851
 30
0.0
 10
-26.32501727107642
 20
19.29405679730745
 30
0.0
 10
-26.24897766737277
 20
19.22720276466287
 30
0.0
 10
-26.21120452880934
 20
19.19399261474612
 30
0.0
 11
-26.76551818847634
 21
19.41963005065912
 31
0.0
 11
-26.61072540283234
 21
19.40343475341814
 31
0.0
 11
-26.46311187744132
 21
19.35903930664114
 31
0.0
 11
-26.32817840576231
 21
19.28842163085912
 31
0.0
 11
-26.21120452880934
 21
19.19399261474612
 31
0.0
  0
SPLINE
  5
B943
330
1F
100
AcDbEntity
  8
AM_0
100
AcDbSpline
210
0.0
220
0.0
230
1.0
 70
     8
 71
     3
 72
    11
 73
     7
 74
     5
 42
0.0000000001
 43
0.0000000001
 44
0.0000000001
 40
0.0
 40
0.0
 40
0.0
 40
0.0
 40
0.0000286102300038
 40
0.000050189416361
 40
0.0000776975889963
 40
0.0000992767760644
 40
0.0000992767760644
 40
0.0000992767760644
 40
0.0000992767760644
 10
-26.76559448242234
 20
19.41956710815412
 30
0.0
 10
-26.76558647756481
 20
19.41957238998627
 30
0.0
 10
-26.76557243506578
 20
19.41958165562563
 30
0.0
 10
-26.76555606223377
 20
19.41960229125478
 30
0.0
 10
-26.76553389926554
 20
19.41961224331282
 30
0.0
 10
-26.76552298602305
 20
19.41962461289437
 30
0.0
 10
-26.76551818847634
 20
19.41963005065912
 30
0.0
 11
-26.76559448242234
 21
19.41956710815412
 31
0.0
 11
-26.76557159423834
 21
19.41958427429213
 31
0.0
 11
-26.76555633544934
 21
19.41959953308114
 31
0.0
 11
-26.76553344726634
 21
19.41961479187011
 31
0.0
 11
-26.76551818847634
 21
19.41963005065912
 31
0.0
  0
SPLINE
  5
B944
330
1F
100
AcDbEntity
  8
AM_0
100
AcDbSpline
210
0.0
220
0.0
230
1.0
 70
     8
 71
     3
 72
    11
 73
     7
 74
     5
 42
0.0000000001
 43
0.0000000001
 44
0.0000000001
 40
0.0
 40
0.0
 40
0.0
 40
0.0
 40
0.1485534893514632
 40
0.2958544348574948
 40
0.4425877378182156
 40
0.5895261308685319
 40
0.5895261308685319
 40
0.5895261308685319
 40
0.5895261308685319
 10
-26.21120452880934
 20
19.19399261474612
 30
0.0
 10
-26.17803859468559
 20
19.15695542348299
 30
0.0
 10
-26.11198636838287
 20
19.08319332379958
 30
0.0
 10
-26.04501577470156
 20
18.95022986933103
 30
0.0
 10
-26.00286140226118
 20
18.80795266005121
 30
0.0
 10
-26.00095932979701
 20
18.70967475137592
 30
0.0
 10
-26.00000762939433
 20
18.66050148010313
 30
0.0
 11
-26.21120452880934
 21
19.19399261474612
 31
0.0
 11
-26.11707305908235
 21
19.07906913757313
 31
0.0
 11
-26.04904174804734
 21
18.94841957092314
 31
0.0
 11
-26.00941467285134
 21
18.80713844299314
 31
0.0
 11
-26.00000762939433
 21
18.66050148010313
 31
0.0
  0
SPLINE
  5
B945
330
1F
100
AcDbEntity
  8
AM_0
100
AcDbSpline
210
0.0
220
0.0
230
1.0
 70
     8
 71
     3
 72
    11
 73
     7
 74
     5
 42
0.0000000001
 43
0.0000000001
 44
0.0000000001
 40
0.0
 40
0.0
 40
0.0
 40
0.0
 40
1.364516206506319
 40
2.735892666200311
 40
4.107534366030095
 40
5.485433361252252
 40
5.485433361252252
 40
5.485433361252252
 40
5.485433361252252
 10
-31.42123413085933
 20
14.51969909668009
 30
0.0
 10
-31.49279586822387
 20
14.0626087916772
 30
0.0
 10
-31.63627912734725
 20
13.14613011059905
 30
0.0
 10
-32.57151360862647
 20
12.06139340055718
 30
0.0
 10
-33.88065748894593
 20
11.46435212243122
 30
0.0
 10
-34.80466186157854
 20
11.59429626605865
 30
0.0
 10
-35.2677154541013
 20
11.65941619873011
 30
0.0
 11
-31.42123413085933
 21
14.51969909668009
 31
0.0
 11
-31.75518035888729
 21
13.19667816162113
 31
0.0
 11
-32.63315582275431
 21
12.14319229126011
 31
0.0
 11
-33.89124298095732
 21
11.59673309326211
 31
0.0
 11
-35.2677154541013
 21
11.65941619873011
 31
0.0
  0
SPLINE
  5
B946
330
1F
100
AcDbEntity
  8
AM_0
100
AcDbSpline
210
0.0
220
0.0
230
1.0
 70
     8
 71
     3
 72
    11
 73
     7
 74
     5
 42
0.0000000001
 43
0.0000000001
 44
0.0000000001
 40
0.0
 40
0.0
 40
0.0
 40
0.0
 40
1.535792961361384
 40
3.112180112828839
 40
4.828018884587761
 40
6.527683704681587
 40
6.527683704681587
 40
6.527683704681587
 40
6.527683704681587
 10
-37.31590270996131
 20
13.23372650146509
 30
0.0
 10
-37.46738914340998
 20
13.74380750284114
 30
0.0
 10
-37.77436611062071
 20
14.7774520033389
 30
0.0
 10
-36.90765904769104
 20
16.29242164459279
 30
0.0
 10
-35.46852327456073
 20
17.25942028452534
 30
0.0
 10
-34.31014326331798
 20
17.2985153229809
 30
0.0
 10
-33.73369598388731
 20
17.3179702758791
 30
0.0
 11
-37.31590270996131
 21
13.23372650146509
 31
0.0
 11
-37.55955505371132
 21
14.75006866455108
 31
0.0
 11
-36.85058593750034
 21
16.15803146362309
 31
0.0
 11
-35.42002105712933
 21
17.1054420471191
 31
0.0
 11
-33.73369598388731
 21
17.3179702758791
 31
0.0
  0
SPLINE
  5
B947
330
1F
100
AcDbEntity
  8
AM_0
100
AcDbSpline
210
0.0
220
0.0
230
1.0
 70
     8
 71
     3
 72
    11
 73
     7
 74
     5
 42
0.0000000001
 43
0.0000000001
 44
0.0000000001
 40
0.0
 40
0.0
 40
0.0
 40
0.0
 40
0.9766960574329736
 40
1.954799699628784
 40
2.951855299305344
 40
3.96882424460221
 40
3.96882424460221
 40
3.96882424460221
 40
3.96882424460221
 10
-33.73369598388731
 20
17.3179702758791
 30
0.0
 10
-33.41252534650445
 20
17.24317169480465
 30
0.0
 10
-32.76972121034801
 20
17.09346673520719
 30
0.0
 10
-31.99793042806944
 20
16.43182034861955
 30
0.0
 10
-31.4931042484033
 20
15.53867414756272
 30
0.0
 10
-31.44534823003891
 20
14.86158897077794
 30
0.0
 10
-31.42123413085933
 20
14.51969909668009
 30
0.0
 11
-33.73369598388731
 21
17.3179702758791
 31
0.0
 11
-32.80306243896531
 21
17.02156448364311
 31
0.0
 11
-32.04780578613332
 21
16.40005493164112
 31
0.0
 11
-31.56803894043033
 21
15.52601623535211
 31
0.0
 11
-31.42123413085933
 21
14.51969909668009
 31
0.0
  0
SPLINE
  5
B948
330
1F
100
AcDbEntity
  8
AM_0
100
AcDbSpline
210
0.0
220
0.0
230
1.0
 70
     8
 71
     3
 72
    11
 73
     7
 74
     5
 42
0.0000000001
 43
0.0000000001
 44
0.0000000001
 40
0.0
 40
0.0
 40
0.0
 40
0.0
 40
0.6816437762372196
 40
1.357274161410647
 40
2.01710087168283
 40
2.654120890467071
 40
2.654120890467071
 40
2.654120890467071
 40
2.654120890467071
 10
-35.2677154541013
 20
11.65941619873011
 30
0.0
 10
-35.48463836158956
 20
11.7297641811073
 30
0.0
 10
-35.91657050505776
 20
11.86983954321946
 30
0.0
 10
-36.48949776702828
 20
12.23182425203393
 30
0.0
 10
-36.9807693779572
 20
12.67953754198801
 30
0.0
 10
-37.20550904313455
 20
13.05117542250875
 30
0.0
 10
-37.31590270996131
 20
13.23372650146509
 30
0.0
 11
-35.2677154541013
 21
11.65941619873011
 31
0.0
 11
-35.90677642822331
 21
11.8965644836431
 31
0.0
 11
-36.48203277587931
 21
12.25090408325211
 31
0.0
 11
-36.96101379394531
 21
12.7047195434571
 31
0.0
 11
-37.31590270996131
 21
13.23372650146509
 31
0.0
  0
SPLINE
  5
B949
330
1F
100
AcDbEntity
  8
AM_0
100
AcDbSpline
210
0.0
220
0.0
230
1.0
 70
     8
 71
     3
 72
    11
 73
     7
 74
     5
 42
0.0000000001
 43
0.0000000001
 44
0.0000000001
 40
0.0
 40
0.0
 40
0.0
 40
0.0
 40
1.228914225599777
 40
2.457828451199564
 40
3.686742676798377
 40
4.915660619730648
 40
4.915660619730648
 40
4.915660619730648
 40
4.915660619730648
 10
-42.08718872070331
 20
17.49297332763708
 30
0.0
 10
-42.17914836108724
 20
17.09379069124872
 30
0.0
 10
-42.36306764185511
 20
16.295425418472
 30
0.0
 10
-42.63894647359601
 20
15.09787748870971
 30
0.0
 10
-42.91482594114845
 20
13.90032843385334
 30
0.0
 10
-43.09874478479602
 20
13.10196178881212
 30
0.0
 10
-43.19070434570329
 20
12.7027778625491
 30
0.0
 11
-42.08718872070331
 21
17.49297332763708
 31
0.0
 11
-42.3630676269533
 21
16.29542541503909
 31
0.0
 11
-42.6389465332033
 21
15.09787750244109
 31
0.0
 11
-42.9148254394533
 21
13.90032958984408
 31
0.0
 11
-43.19070434570329
 21
12.7027778625491
 31
0.0
  0
SPLINE
  5
B94A
330
1F
100
AcDbEntity
  8
AM_0
100
AcDbSpline
210
0.0
220
0.0
230
1.0
 70
     8
 71
     3
 72
    11
 73
     7
 74
     5
 42
0.0000000001
 43
0.0000000001
 44
0.0000000001
 40
0.0
 40
0.0
 40
0.0
 40
0.0
 40
1.459956574417992
 40
2.919920691239171
 40
4.37988218571369
 40
5.839842531333668
 40
5.839842531333668
 40
5.839842531333668
 40
5.839842531333668
 10
-26.93434143066429
 20
11.57269287109412
 30
0.0
 10
-26.86106075935098
 20
12.05379608109869
 30
0.0
 10
-26.71449903814297
 20
13.01600498657517
 30
0.0
 10
-26.49466246183042
 20
14.45931964690775
 30
0.0
 10
-26.27480825799128
 20
15.90263289379465
 30
0.0
 10
-26.12824925850789
 20
16.86484260121002
 30
0.0
 10
-26.0549697875983
 20
17.34594726562514
 30
0.0
 11
-26.93434143066429
 21
11.57269287109412
 31
0.0
 11
-26.71450042724632
 21
13.01600265502912
 31
0.0
 11
-26.49465942382831
 21
14.45932006835912
 31
0.0
 11
-26.27481079101633
 21
15.90263366699213
 31
0.0
 11
-26.0549697875983
 21
17.34594726562514
 31
0.0
  0
SPLINE
  5
B94B
330
1F
100
AcDbEntity
  8
AM_0
100
AcDbSpline
210
0.0
220
0.0
230
1.0
 70
     8
 71
     3
 72
    11
 73
     7
 74
     5
 42
0.0000000001
 43
0.0000000001
 44
0.0000000001
 40
0.0
 40
0.0
 40
0.0
 40
0.0
 40
0.4046922712928708
 40
0.8083017994728553
 40
1.21054749222328
 40
1.611204507469848
 40
1.611204507469848
 40
1.611204507469848
 40
1.611204507469848
 10
-28.66941070556629
 20
10.05759429931611
 30
0.0
 10
-28.54671468241128
 20
10.1138351287905
 30
0.0
 10
-28.30165090595832
 20
10.2261663169369
 30
0.0
 10
-27.95263964987316
 20
10.4297111610896
 30
0.0
 10
-27.61905161233886
 20
10.65529280613984
 30
0.0
 10
-27.41326640566416
 20
10.82664484272935
 30
0.0
 10
-27.31057739257829
 20
10.91215133667012
 30
0.0
 11
-28.66941070556629
 21
10.05759429931611
 31
0.0
 11
-28.3043365478513
 21
10.2322273254391
 31
0.0
 11
-27.95463562011729
 21
10.43374633789113
 31
0.0
 11
-27.6226806640623
 21
10.66091918945311
 31
0.0
 11
-27.31057739257829
 21
10.91215133667012
 31
0.0
  0
SPLINE
  5
B94C
330
1F
100
AcDbEntity
  8
AM_0
100
AcDbSpline
210
0.0
220
0.0
230
1.0
 70
     8
 71
     3
 72
    11
 73
     7
 74
     5
 42
0.0000000001
 43
0.0000000001
 44
0.0000000001
 40
0.0
 40
0.0
 40
0.0
 40
0.0
 40
0.7427635051805075
 40
1.484509953447491
 40
2.223282786464946
 40
2.957379969810794
 40
2.957379969810794
 40
2.957379969810794
 40
2.957379969810794
 10
-29.5836181640623
 20
10.34335327148411
 30
0.0
 10
-29.34027632323461
 20
10.39140402550723
 30
0.0
 10
-28.85392584656285
 20
10.48743973824817
 30
0.0
 10
-28.16104626613176
 20
10.75898295212444
 30
0.0
 10
-27.5081414570236
 20
11.11030639407658
 30
0.0
 10
-27.12433221893091
 20
11.41794353352334
 30
0.0
 10
-26.93303680419931
 20
11.57127380371111
 30
0.0
 11
-29.5836181640623
 21
10.34335327148411
 31
0.0
 11
-28.85952758789131
 21
10.50885391235413
 31
0.0
 11
-28.16637420654331
 21
10.7729110717771
 31
0.0
 11
-27.5194473266603
 21
11.12966156005913
 31
0.0
 11
-26.93303680419931
 21
11.57127380371111
 31
0.0
  0
SPLINE
  5
B94D
330
1F
100
AcDbEntity
  8
AM_0
100
AcDbSpline
210
0.0
220
0.0
230
1.0
 70
     8
 71
     3
 72
    11
 73
     7
 74
     5
 42
0.0000000001
 43
0.0000000001
 44
0.0000000001
 40
0.0
 40
0.0
 40
0.0
 40
0.0
 40
0.1556379000252678
 40
0.3097756832820198
 40
0.4620711129969774
 40
0.6124031687066922
 40
0.6124031687066922
 40
0.6124031687066922
 40
0.6124031687066922
 10
-42.4801559448243
 20
10.6290931701661
 30
0.0
 10
-42.53210286651484
 20
10.63242645729816
 30
0.0
 10
-42.63549601920115
 20
10.63906090365566
 30
0.0
 10
-42.783527811189
 20
10.68557811620967
 30
0.0
 10
-42.92064927337893
 20
10.75466821417473
 30
0.0
 10
-42.99668884999204
 20
10.82152232478247
 30
0.0
 10
-43.03446197509831
 20
10.85473251342809
 30
0.0
 11
-42.4801559448243
 21
10.6290931701661
 31
0.0
 11
-42.63494873046932
 21
10.64529037475608
 31
0.0
 11
-42.78255462646529
 21
10.68968582153307
 31
0.0
 11
-42.9174880981443
 21
10.7603034973141
 31
0.0
 11
-43.03446197509831
 21
10.85473251342809
 31
0.0
  0
SPLINE
  5
B94E
330
1F
100
AcDbEntity
  8
AM_0
100
AcDbSpline
210
0.0
220
0.0
230
1.0
 70
     8
 71
     3
 72
    11
 73
     7
 74
     5
 42
0.0000000001
 43
0.0000000001
 44
0.0000000001
 40
0.0
 40
0.0
 40
0.0
 40
0.0
 40
0.1485597993759204
 40
0.2958572213830683
 40
0.4425868513922755
 40
0.5895257330771325
 40
0.5895257330771325
 40
0.5895257330771325
 40
0.5895257330771325
 10
-43.03446197509831
 20
10.85473251342809
 30
0.0
 10
-43.06763157807694
 20
10.89176961771135
 30
0.0
 10
-43.13368892745988
 20
10.96552910585923
 30
0.0
 10
-43.20064848824064
 20
11.09849850425595
 30
0.0
 10
-43.24280412660249
 20
11.24077165371646
 30
0.0
 10
-43.24471192500839
 20
11.33904836956621
 30
0.0
 10
-43.2456665039063
 20
11.3882217407231
 30
0.0
 11
-43.03446197509831
 21
10.85473251342809
 31
0.0
 11
-43.12860107421932
 21
10.96965789794909
 31
0.0
 11
-43.19662475585932
 21
11.10030746460008
 31
0.0
 11
-43.23625183105531
 21
11.24158477783207
 31
0.0
 11
-43.2456665039063
 21
11.3882217407231
 31
0.0
  0
SPLINE
  5
B94F
330
1F
100
AcDbEntity
  8
AM_0
100
AcDbSpline
210
0.0
220
0.0
230
1.0
 70
     8
 71
     3
 72
    11
 73
     7
 74
     5
 42
0.0000000001
 43
0.0000000001
 44
0.0000000001
 40
0.0
 40
0.0
 40
0.0
 40
0.0
 40
0.5450949990459322
 40
1.089681538120415
 40
1.63366278397158
 40
2.176926793260239
 40
2.176926793260239
 40
2.176926793260239
 40
2.176926793260239
 10
-33.02489471435529
 20
10.3505554199221
 30
0.0
 10
-33.20649247724626
 20
10.35660241612121
 30
0.0
 10
-33.56951861018198
 20
10.3686907679329
 30
0.0
 10
-34.11371908026679
 20
10.38833243289454
 30
0.0
 10
-34.65727233868638
 20
10.40895912917219
 30
0.0
 10
-35.01938708127485
 20
10.42371461696668
 30
0.0
 10
-35.20032501220732
 20
10.4310874938961
 30
0.0
 11
-33.02489471435529
 21
10.3505554199221
 31
0.0
 11
-33.56967926025431
 21
10.36894989013711
 31
0.0
 11
-34.11391448974632
 21
10.38850784301812
 31
0.0
 11
-34.65750122070329
 21
10.40922164917012
 31
0.0
 11
-35.20032501220732
 21
10.4310874938961
 31
0.0
  0
SPLINE
  5
B950
330
1F
100
AcDbEntity
  8
AM_0
100
AcDbSpline
210
0.0
220
0.0
230
1.0
 70
     8
 71
     3
 72
    11
 73
     7
 74
     5
 42
0.0000000001
 43
0.0000000001
 44
0.0000000001
 40
0.0
 40
0.0
 40
0.0
 40
0.0
 40
0.3331187898298929
 40
0.6660094594074973
 40
0.9986497000122504
 40
1.331009429396739
 40
1.331009429396739
 40
1.331009429396739
 40
1.331009429396739
 10
-36.5303344726563
 20
10.48263549804709
 30
0.0
 10
-36.41936886717659
 20
10.47858206533846
 30
0.0
 10
-36.19751364563202
 20
10.47047797571807
 30
0.0
 10
-35.86487287617757
 20
10.45777180190349
 30
0.0
 10
-35.53249938260487
 20
10.44470273275106
 30
0.0
 10
-35.31101866057021
 20
10.4356246304018
 30
0.0
 10
-35.20032501220732
 20
10.4310874938961
 30
0.0
 11
-36.5303344726563
 21
10.48263549804709
 31
0.0
 11
-36.1974411010743
 21
10.4703826904301
 31
0.0
 11
-35.86479187011729
 21
10.45770645141609
 31
0.0
 11
-35.53240966796932
 21
10.4446067810061
 31
0.0
 11
-35.20032501220732
 21
10.4310874938961
 31
0.0
  0
SPLINE
  5
B951
330
1F
100
AcDbEntity
  8
AM_0
100
AcDbSpline
210
0.0
220
0.0
230
1.0
 70
     8
 71
     3
 72
    11
 73
     7
 74
     5
 42
0.0000000001
 43
0.0000000001
 44
0.0000000001
 40
0.0
 40
0.0
 40
0.0
 40
0.0
 40
0.5389867463114993
 40
1.078356874908547
 40
1.618021202724218
 40
2.157890474870997
 40
2.157890474870997
 40
2.157890474870997
 40
2.157890474870997
 10
-42.47747039794929
 20
10.6290550231931
 30
0.0
 10
-42.29782493707423
 20
10.62659360094067
 30
0.0
 10
-41.93840623317017
 20
10.62166900562153
 30
0.0
 10
-41.39913774474023
 20
10.61283054994016
 30
0.0
 10
-40.85959186315576
 20
10.6030189836602
 30
0.0
 10
-40.49982548242549
 20
10.59551262158722
 30
0.0
 10
-40.31990814209029
 20
10.59175872802711
 30
0.0
 11
-42.47747039794929
 21
10.6290550231931
 31
0.0
 11
-41.93853759765629
 21
10.62142944335909
 31
0.0
 11
-41.39923858642629
 21
10.61267089843809
 31
0.0
 11
-40.8596649169923
 21
10.6027793884281
 31
0.0
 11
-40.31990814209029
 21
10.59175872802711
 31
0.0
  0
SPLINE
  5
B956
330
1F
100
AcDbEntity
  8
AM_0
100
AcDbSpline
210
0.0
220
0.0
230
1.0
 70
     8
 71
     3
 72
    11
 73
     7
 74
     5
 42
0.0000000001
 43
0.0000000001
 44
0.0000000001
 40
0.0
 40
0.0
 40
0.0
 40
0.0
 40
0.0019292715925546
 40
0.0038591917481087
 40
0.0057853116887222
 40
0.0077152318443452
 40
0.0077152318443452
 40
0.0077152318443452
 40
0.0077152318443452
 10
-25.30528259277327
 20
14.01430511474612
 30
0.0
 10
-25.30533533229819
 20
14.01366418878445
 30
0.0
 10
-25.30544082907745
 20
14.01238212140108
 30
0.0
 10
-25.30561096832265
 20
14.01046119757844
 30
0.0
 10
-25.30577859074235
 20
14.00853984352328
 30
0.0
 10
-25.30589039358489
 20
14.0072593683243
 30
0.0
 10
-25.30594635009829
 20
14.00661849975614
 30
0.0
 11
-25.30528259277327
 21
14.01430511474612
 31
0.0
 11
-25.30544281005929
 21
14.01238250732413
 31
0.0
 11
-25.30561065673829
 21
14.01045989990212
 31
0.0
 11
-25.30577850341832
 21
14.00854110717813
 31
0.0
 11
-25.30594635009829
 21
14.00661849975614
 31
0.0
  0
SPLINE
  5
B975
330
1F
100
AcDbEntity
  8
AM_0
100
AcDbSpline
210
0.0
220
0.0
230
1.0
 70
     8
 71
     3
 72
    11
 73
     7
 74
     5
 42
0.0000000001
 43
0.0000000001
 44
0.0000000001
 40
0.0
 40
0.0
 40
0.0
 40
0.0
 40
0.0022987658191484
 40
0.0046119323125011
 40
0.00717551105259
 40
0.0101665840181274
 40
0.0101665840181274
 40
0.0101665840181274
 40
0.0101665840181274
 10
-52.45114898681624
 20
-18.75546264648393
 30
0.0
 10
-52.45127447906764
 20
-18.75622626804772
 30
0.0
 10
-52.45152624971969
 20
-18.75775829490112
 30
0.0
 10
-52.45089810109907
 20
-18.76012909578637
 30
0.0
 10
-52.44955342922467
 20
-18.76241152014359
 30
0.0
 10
-52.4482300235093
 20
-18.76371672694082
 30
0.0
 10
-52.44751739501925
 20
-18.76441955566393
 30
0.0
 11
-52.45114898681624
 21
-18.75546264648393
 31
0.0
 11
-52.45136260986324
 21
-18.75775146484393
 31
0.0
 11
-52.45082855224622
 21
-18.76000213622991
 31
0.0
 11
-52.44954681396524
 21
-18.76222229003893
 31
0.0
 11
-52.44751739501925
 21
-18.76441955566393
 31
0.0
  0
SPLINE
  5
B976
330
1F
100
AcDbEntity
  8
AM_0
100
AcDbSpline
210
0.0
220
0.0
230
1.0
 70
     8
 71
     3
 72
    11
 73
     7
 74
     5
 42
0.0000000001
 43
0.0000000001
 44
0.0000000001
 40
0.0
 40
0.0
 40
0.0
 40
0.0
 40
0.0199574359411333
 40
0.0381280655573331
 40
0.0568350749133097
 40
0.0779730597605703
 40
0.0779730597605703
 40
0.0779730597605703
 40
0.0779730597605703
 10
-53.17663574218723
 20
-18.18949127197292
 30
0.0
 10
-53.17981127295779
 20
-18.19542102742662
 30
0.0
 10
-53.18587802651053
 20
-18.20674964225192
 30
0.0
 10
-53.18675780337062
 20
-18.22626505179443
 30
0.0
 10
-53.18065396788283
 20
-18.24505506070338
 30
0.0
 10
-53.17237069855582
 20
-18.25554895837941
 30
0.0
 10
-53.16797637939425
 20
-18.26111602783192
 30
0.0
 11
-53.17663574218723
 21
-18.18949127197292
 31
0.0
 11
-53.18466186523425
 21
-18.20776367187492
 31
0.0
 11
-53.18566894531223
 21
-18.22590637206992
 31
0.0
 11
-53.18000793457026
 21
-18.24373626708991
 31
0.0
 11
-53.16797637939425
 21
-18.26111602783192
 31
0.0
  0
SPLINE
  5
B977
330
1F
100
AcDbEntity
  8
AM_0
100
AcDbSpline
210
0.0
220
0.0
230
1.0
 70
     8
 71
     3
 72
    11
 73
     7
 74
     5
 42
0.0000000001
 43
0.0000000001
 44
0.0000000001
 40
0.0
 40
0.0
 40
0.0
 40
0.0
 40
1.60999476942557
 40
3.315585950994883
 40
4.980932537511982
 40
6.539664785770304
 40
6.539664785770304
 40
6.539664785770304
 40
6.539664785770304
 10
-22.72656250000028
 20
-9.745349884032872
 30
0.0
 10
-22.55031048080351
 20
-9.227008604155095
 30
0.0
 10
-22.18734115333683
 20
-8.159548573836705
 30
0.0
 10
-20.38232825936163
 20
-7.309337972495859
 30
0.0
 10
-18.87861076865812
 20
-8.585964029314544
 30
0.0
 10
-18.82167689426203
 20
-9.682904449980899
 30
0.0
 10
-18.79415130615226
 20
-10.21323776245085
 30
0.0
 11
-22.72656250000028
 21
-9.745349884032872
 31
0.0
 11
-22.00008392334025
 21
-8.308578491210859
 31
0.0
 11
-20.41723632812527
 21
-7.673255920409874
 31
0.0
 11
-19.09329223632824
 21
-8.683479309081857
 31
0.0
 11
-18.79415130615226
 21
-10.21323776245085
 31
0.0
  0
SPLINE
  5
B978
330
1F
100
AcDbEntity
  8
AM_0
100
AcDbSpline
210
0.0
220
0.0
230
1.0
 70
     8
 71
     3
 72
    11
 73
     7
 74
     5
 42
0.0000000001
 43
0.0000000001
 44
0.0000000001
 40
0.0
 40
0.0
 40
0.0
 40
0.0
 40
0.2516456592795138
 40
0.479811656288755
 40
0.6587254250094588
 40
0.7681675724463309
 40
0.7681675724463309
 40
0.7681675724463309
 40
0.7681675724463309
 10
-52.44026184082026
 20
-18.02416992187492
 30
0.0
 10
-52.52433696177037
 20
-18.02688866101555
 30
0.0
 10
-52.68464261993766
 20
-18.03207246881027
 30
0.0
 10
-52.89993770250811
 20
-18.06740385798905
 30
0.0
 10
-53.07299098019632
 20
-18.10459859917896
 30
0.0
 10
-53.14812100981178
 20
-18.16613561174603
 30
0.0
 10
-53.17663574218723
 20
-18.18949127197292
 30
0.0
 11
-52.44026184082026
 21
-18.02416992187492
 31
0.0
 11
-52.69152832031224
 21
-18.03797912597691
 31
0.0
 11
-52.91708374023425
 21
-18.07239532470692
 31
0.0
 11
-53.08799743652325
 21
-18.12529754638692
 31
0.0
 11
-53.17663574218723
 21
-18.18949127197292
 31
0.0
  0
SPLINE
  5
B979
330
1F
100
AcDbEntity
  8
AM_0
100
AcDbSpline
210
0.0
220
0.0
230
1.0
 70
     8
 71
     3
 72
    11
 73
     7
 74
     5
 42
0.0000000001
 43
0.0000000001
 44
0.0000000001
 40
0.0
 40
0.0
 40
0.0
 40
0.0
 40
1.563863387882806
 40
3.02134474556169
 40
4.29094032376425
 40
5.353944055078468
 40
5.353944055078468
 40
5.353944055078468
 40
5.353944055078468
 10
-9.079006195068259
 20
-14.35401153564482
 30
0.0
 10
-9.603398762304015
 20
-14.36583716588414
 30
0.0
 10
-10.6165120175317
 20
-14.38868398617764
 30
0.0
 10
-11.9805427781969
 20
-14.881858759012
 30
0.0
 10
-13.06988405943451
 20
-15.54289330321133
 30
0.0
 10
-13.61858767159813
 20
-16.09711689548756
 30
0.0
 10
-13.86864089965826
 20
-16.34968566894486
 30
0.0
 11
-9.079006195068259
 21
-14.35401153564482
 31
0.0
 11
-10.63807296752925
 21
-14.47640228271483
 31
0.0
 11
-12.01653671264626
 21
-14.94978332519485
 31
0.0
 11
-13.09320068359424
 21
-15.62258911132784
 31
0.0
 11
-13.86864089965826
 21
-16.34968566894486
 31
0.0
  0
SPLINE
  5
B97A
330
1F
100
AcDbEntity
  8
AM_0
100
AcDbSpline
210
0.0
220
0.0
230
1.0
 70
     8
 71
     3
 72
    11
 73
     7
 74
     5
 42
0.0000000001
 43
0.0000000001
 44
0.0000000001
 40
0.0
 40
0.0
 40
0.0
 40
0.0
 40
1.557035866755634
 40
3.029023558047075
 40
4.539467924359873
 40
6.122432230993879
 40
6.122432230993879
 40
6.122432230993879
 40
6.122432230993879
 10
-5.53843307495129
 20
-9.466995239257839
 30
0.0
 10
-6.07016480096922
 20
-9.335773285682371
 30
0.0
 10
-7.104584083824518
 20
-9.080496964051285
 30
0.0
 10
-7.741672039805012
 20
-7.492626558829613
 30
0.0
 10
-7.136990683680036
 20
-5.868636395233637
 30
0.0
 10
-6.079548945683782
 20
-5.602951805759494
 30
0.0
 10
-5.538433074951276
 20
-5.466995239257841
 30
0.0
 11
-5.53843307495129
 21
-9.466995239257839
 31
0.0
 11
-6.97262573242228
 21
-8.860816955565843
 31
0.0
 11
-7.538089752197249
 21
-7.501773834228835
 31
0.0
 11
-6.992168426514258
 21
-6.093437194823827
 31
0.0
 11
-5.538433074951276
 21
-5.466995239257841
 31
0.0
  0
SPLINE
  5
B97B
330
1F
100
AcDbEntity
  8
AM_0
100
AcDbSpline
210
0.0
220
0.0
230
1.0
 70
     8
 71
     3
 72
    11
 73
     7
 74
     5
 42
0.0000000001
 43
0.0000000001
 44
0.0000000001
 40
0.0
 40
0.0
 40
0.0
 40
0.0
 40
0.1718392304854597
 40
0.3450862192452129
 40
0.5197967237237612
 40
0.6960266696187145
 40
0.6960266696187145
 40
0.6960266696187145
 40
0.6960266696187145
 10
-22.82006072998027
 20
-10.43421936035185
 30
0.0
 10
-22.81662159153737
 20
-10.37703318061289
 30
0.0
 10
-22.80971514020278
 20
-10.26219233487909
 30
0.0
 10
-22.78987265305389
 20
-10.08999861956134
 30
0.0
 10
-22.76334804315117
 20
-9.917215265781095
 30
0.0
 10
-22.73885968953346
 20
-9.802803464774688
 30
0.0
 10
-22.72656250000028
 20
-9.745349884032872
 30
0.0
 11
-22.82006072998027
 21
-10.43421936035185
 31
0.0
 11
-22.80818939209027
 21
-10.26279067993187
 31
0.0
 11
-22.78885650634828
 21
-10.09062576293886
 31
0.0
 11
-22.76175689697328
 21
-9.91802978515586
 31
0.0
 11
-22.72656250000028
 21
-9.745349884032872
 31
0.0
  0
SPLINE
  5
B97C
330
1F
100
AcDbEntity
  8
AM_0
100
AcDbSpline
210
0.0
220
0.0
230
1.0
 70
     8
 71
     3
 72
    11
 73
     7
 74
     5
 42
0.0000000001
 43
0.0000000001
 44
0.0000000001
 40
0.0
 40
0.0
 40
0.0
 40
0.0
 40
1.171631838311392
 40
2.33782730276431
 40
3.497828127255506
 40
4.650917461623663
 40
4.650917461623663
 40
4.650917461623663
 40
4.650917461623663
 10
-25.56372070312525
 20
-18.78593444824186
 30
0.0
 10
-25.17342278107007
 20
-18.80005329434562
 30
0.0
 10
-24.39463792002718
 20
-18.82822547508155
 30
0.0
 10
-23.23049263370245
 20
-18.89406604066997
 30
0.0
 10
-22.0735220688088
 20
-18.97543463655767
 30
0.0
 10
-21.30566905022033
 20
-19.04556690320618
 30
0.0
 10
-20.92288970947325
 20
-19.08052825927686
 30
0.0
 11
-25.56372070312525
 21
-18.78593444824186
 31
0.0
 11
-24.39300537109423
 21
-18.83226776122983
 31
0.0
 11
-23.22859954834023
 21
-18.89685058593688
 31
0.0
 11
-22.07155609130925
 21
-18.97962951660185
 31
0.0
 11
-20.92288970947325
 21
-19.08052825927686
 31
0.0
  0
SPLINE
  5
B97D
330
1F
100
AcDbEntity
  8
AM_0
100
AcDbSpline
210
0.0
220
0.0
230
1.0
 70
     8
 71
     3
 72
    11
 73
     7
 74
     5
 42
0.0000000001
 43
0.0000000001
 44
0.0000000001
 40
0.0
 40
0.0
 40
0.0
 40
0.0
 40
1.809481422087856
 40
3.609028771050076
 40
5.396045022684998
 40
7.167944564618577
 40
7.167944564618577
 40
7.167944564618577
 40
7.167944564618577
 10
-13.76552200317424
 20
-19.41961669921886
 30
0.0
 10
-14.36869979087032
 20
-19.41546987745364
 30
0.0
 10
-15.57174391350173
 20
-19.40719900002079
 30
0.0
 10
-17.36940370702066
 20
-19.34054209737866
 30
0.0
 10
-19.1528380094458
 20
-19.23793527559472
 30
0.0
 10
-20.33454560091072
 20
-19.13284847720923
 30
0.0
 10
-20.92288970947325
 20
-19.08052825927686
 30
0.0
 11
-13.76552200317424
 21
-19.41961669921886
 31
0.0
 11
-15.57487487793024
 21
-19.39804840087885
 31
0.0
 11
-17.37329101562524
 21
-19.33425140380883
 31
0.0
 11
-19.15716552734422
 21
-19.22833251953084
 31
0.0
 11
-20.92288970947325
 21
-19.08052825927686
 31
0.0
  0
SPLINE
  5
B97E
330
1F
100
AcDbEntity
  8
AM_0
100
AcDbSpline
210
0.0
220
0.0
230
1.0
 70
     8
 71
     3
 72
    11
 73
     7
 74
     5
 42
0.0000000001
 43
0.0000000001
 44
0.0000000001
 40
0.0
 40
0.0
 40
0.0
 40
0.0
 40
0.1329220191381483
 40
0.2673799741922775
 40
0.4032129047324483
 40
0.5401625106343077
 40
0.5401625106343077
 40
0.5401625106343077
 40
0.5401625106343077
 10
-14.35584259033226
 20
-16.33074188232385
 30
0.0
 10
-14.39166280723302
 20
-16.35703175639715
 30
0.0
 10
-14.46371714956537
 20
-16.4099152883869
 30
0.0
 10
-14.58773522215069
 20
-16.46393857829834
 30
0.0
 10
-14.71939310476546
 20
-16.5000969114569
 30
0.0
 10
-14.81041324624523
 20
-16.50521838985495
 30
0.0
 10
-14.85610961914128
 20
-16.50778961181584
 30
0.0
 11
-14.35584259033226
 21
-16.33074188232385
 31
0.0
 11
-14.46582031250025
 21
-16.40539550781185
 31
0.0
 11
-14.58836364746125
 21
-16.46073150634783
 31
0.0
 11
-14.71973419189428
 21
-16.49526214599587
 31
0.0
 11
-14.85610961914128
 21
-16.50778961181584
 31
0.0
  0
SPLINE
  5
B97F
330
1F
100
AcDbEntity
  8
AM_0
100
AcDbSpline
210
0.0
220
0.0
230
1.0
 70
     8
 71
     3
 72
    11
 73
     7
 74
     5
 42
0.0000000001
 43
0.0000000001
 44
0.0000000001
 40
0.0
 40
0.0
 40
0.0
 40
0.0
 40
0.7624879157743308
 40
1.526365318690975
 40
2.289430613221475
 40
3.049538159940199
 40
3.049538159940199
 40
3.049538159940199
 40
3.049538159940199
 10
-24.53855133056627
 20
-16.60443878173784
 30
0.0
 10
-24.79308052538804
 20
-16.59645070866766
 30
0.0
 10
-25.30260274539036
 20
-16.58046000580501
 30
0.0
 10
-26.05144099352618
 20
-16.41670335249041
 30
0.0
 10
-26.77382616891923
 20
-16.16259362450016
 30
0.0
 10
-27.21452105017354
 20
-15.90846962462113
 30
0.0
 10
-27.43444061279323
 20
-15.78165435790986
 30
0.0
 11
-24.53855133056627
 21
-16.60443878173784
 31
0.0
 11
-25.29957580566426
 21
-16.55722045898385
 31
0.0
 11
-26.04741668701227
 21
-16.40151977539087
 31
0.0
 11
-26.76461791992222
 21
-16.14096069335885
 31
0.0
 11
-27.43444061279323
 21
-15.78165435790986
 31
0.0
  0
SPLINE
  5
B980
330
1F
100
AcDbEntity
  8
AM_0
100
AcDbSpline
210
0.0
220
0.0
230
1.0
 70
     8
 71
     3
 72
    11
 73
     7
 74
     5
 42
0.0000000001
 43
0.0000000001
 44
0.0000000001
 40
0.0
 40
0.0
 40
0.0
 40
0.0
 40
0.9603254052555596
 40
1.921954046630887
 40
2.880510369027147
 40
3.832023071840628
 40
3.832023071840628
 40
3.832023071840628
 40
3.832023071840628
 10
-25.56374359130924
 20
-18.78598785400386
 30
0.0
 10
-25.88454760823624
 20
-18.77244953253446
 30
0.0
 10
-26.52659099804346
 20
-18.74535451704253
 30
0.0
 10
-27.45759934239713
 20
-18.48433281291863
 30
0.0
 10
-28.33455022178898
 20
-18.08357868984108
 30
0.0
 10
-28.83780266050955
 20
-17.69030441051672
 30
0.0
 10
-29.08850097656224
 20
-17.49439239501987
 30
0.0
 11
-25.56374359130924
 21
-18.78598785400386
 31
0.0
 11
-26.52095031738324
 21
-18.70865631103487
 31
0.0
 11
-27.45000457763723
 21
-18.46048736572288
 31
0.0
 11
-28.31654357910125
 21
-18.05068206787086
 31
0.0
 11
-29.08850097656224
 21
-17.49439239501987
 31
0.0
  0
SPLINE
  5
B985
330
1F
100
AcDbEntity
  8
AM_0
100
AcDbSpline
210
0.0
220
0.0
230
1.0
 70
     8
 71
     3
 72
    11
 73
     7
 74
     5
 42
0.0000000001
 43
0.0000000001
 44
0.0000000001
 40
0.0
 40
0.0
 40
0.0
 40
0.0
 40
0.1707285070260935
 40
0.3414343586507806
 40
0.5121174461910231
 40
0.6827857173098792
 40
0.6827857173098792
 40
0.6827857173098792
 40
0.6827857173098792
 10
-10.48711395263724
 20
-15.12115478515584
 30
0.0
 10
-10.4839094244017
 20
-15.06433557295088
 30
0.0
 10
-10.47750079316642
 20
-14.95070468836008
 30
0.0
 10
-10.46770870214814
 20
-14.7802799293227
 30
0.0
 10
-10.45780526732397
 20
-14.60988171693548
 30
0.0
 10
-10.45108391764231
 20
-14.49629661609199
 30
0.0
 10
-10.44772338867222
 20
-14.43950653076181
 30
0.0
 11
-10.48711395263724
 21
-15.12115478515584
 31
0.0
 11
-10.47747039794923
 21
-14.95069885253881
 31
0.0
 11
-10.46768951416022
 21
-14.78027343749982
 31
0.0
 11
-10.45777511596726
 21
-14.60987854003882
 31
0.0
 11
-10.44772338867222
 21
-14.43950653076181
 31
0.0
  0
SPLINE
  5
B986
330
1F
100
AcDbEntity
  8
AM_0
100
AcDbSpline
210
0.0
220
0.0
230
1.0
 70
     8
 71
     3
 72
    11
 73
     7
 74
     5
 42
0.0000000001
 43
0.0000000001
 44
0.0000000001
 40
0.0
 40
0.0
 40
0.0
 40
0.0
 40
0.2082829135153455
 40
0.4165840814392015
 40
0.6248918395697222
 40
0.8331719560458306
 40
0.8331719560458306
 40
0.8331719560458306
 40
0.8331719560458306
 10
-1.687797546387268
 20
-0.9603576660158385
 30
0.0
 10
-1.632363165908729
 20
-1.002879462362143
 30
0.0
 10
-1.521489546551076
 20
-1.087926781765829
 30
0.0
 10
-1.404879271740168
 20
-1.264246823718629
 30
0.0
 10
-1.331276233825205
 20
-1.462418823980798
 30
0.0
 10
-1.328051275819914
 20
-1.602120399666598
 30
0.0
 10
-1.326438903809311
 20
-1.671966552733847
 30
0.0
 11
-1.687797546387268
 21
-0.9603576660158385
 31
0.0
 11
-1.52977752685525
 21
-1.096046447753834
 31
0.0
 11
-1.41204833984427
 21
-1.267887115478841
 31
0.0
 11
-1.342735290527295
 21
-1.464324951171831
 31
0.0
 11
-1.326438903809311
 21
-1.671966552733847
 31
0.0
  0
SPLINE
  5
B987
330
1F
100
AcDbEntity
  8
AM_0
100
AcDbSpline
210
0.0
220
0.0
230
1.0
 70
     8
 71
     3
 72
    11
 73
     7
 74
     5
 42
0.0000000001
 43
0.0000000001
 44
0.0000000001
 40
0.0
 40
0.0
 40
0.0
 40
0.0
 40
0.1242847459457865
 40
0.2485819933372898
 40
0.3728824005612774
 40
0.497170088591423
 40
0.497170088591423
 40
0.497170088591423
 40
0.497170088591423
 10
-8.572841644287237
 20
-14.53074645996083
 30
0.0
 10
-8.614172264396216
 20
-14.52673712774869
 30
0.0
 10
-8.696837661942577
 20
-14.51871806003719
 30
0.0
 10
-8.816289924431343
 20
-14.48208279864482
 30
0.0
 10
-8.929901161804764
 20
-14.43008489247821
 30
0.0
 10
-8.99700534847887
 20
-14.38114359234402
 30
0.0
 10
-9.030555725098238
 20
-14.35667419433583
 30
0.0
 11
-8.572841644287237
 21
-14.53074645996083
 31
0.0
 11
-8.696075439453251
 21
-14.51461791992183
 31
0.0
 11
-8.815315246582244
 21
-14.47952270507785
 31
0.0
 11
-8.927745819092265
 21
-14.42651367187484
 31
0.0
 11
-9.030555725098238
 21
-14.35667419433583
 31
0.0
  0
SPLINE
  5
B988
330
1F
100
AcDbEntity
  8
AM_0
100
AcDbSpline
210
0.0
220
0.0
230
1.0
 70
     8
 71
     3
 72
    11
 73
     7
 74
     5
 42
0.0000000001
 43
0.0000000001
 44
0.0000000001
 40
0.0
 40
0.0
 40
0.0
 40
0.0
 40
0.0452283411512945
 40
0.0904527985326052
 40
0.1356845981310384
 40
0.1809188892118061
 40
0.1809188892118061
 40
0.1809188892118061
 40
0.1809188892118061
 10
-3.297519683838244
 20
-14.65712738037083
 30
0.0
 10
-3.308233895279707
 20
-14.66773388531843
 30
0.0
 10
-3.329661398130375
 20
-14.68894598443018
 30
0.0
 10
-3.362147267648956
 20
-14.72041534320519
 30
0.0
 10
-3.394857252529744
 20
-14.75165455812178
 30
0.0
 10
-3.416889572834298
 20
-14.77224424214101
 30
0.0
 10
-3.42790603637725
 20
-14.78253936767583
 30
0.0
 11
-3.297519683838244
 21
-14.65712738037083
 31
0.0
 11
-3.329719543457243
 21
-14.68888854980482
 31
0.0
 11
-3.362182617187228
 21
-14.7203750610348
 31
0.0
 11
-3.394912719726234
 21
-14.75159454345682
 31
0.0
 11
-3.42790603637725
 21
-14.78253936767583
 31
0.0
  0
SPLINE
  5
B989
330
1F
100
AcDbEntity
  8
AM_0
100
AcDbSpline
210
0.0
220
0.0
230
1.0
 70
     8
 71
     3
 72
    11
 73
     7
 74
     5
 42
0.0000000001
 43
0.0000000001
 44
0.0000000001
 40
0.0
 40
0.0
 40
0.0
 40
0.0
 40
0.4140242298181992
 40
0.8280466456689499
 40
1.242070601740901
 40
1.656089458789628
 40
1.656089458789628
 40
1.656089458789628
 40
1.656089458789628
 10
-1.835136413574244
 20
-11.3785171508788
 30
0.0
 10
-1.845629050304996
 20
-11.51621532835783
 30
0.0
 10
-1.866614277795032
 20
-11.79161108001782
 30
0.0
 10
-1.941860002525677
 20
-12.19936619875145
 30
0.0
 10
-2.045877593844556
 20
-12.60074472940944
 30
0.0
 10
-2.14316646958745
 20
-12.85923518322971
 30
0.0
 10
-2.191810607910233
 20
-12.98847961425779
 30
0.0
 11
-1.835136413574244
 21
-11.3785171508788
 31
0.0
 11
-1.873908996582255
 21
-11.79072189331081
 31
0.0
 11
-1.946655273437238
 21
-12.1983032226558
 31
0.0
 11
-2.052864074707251
 21
-12.59847259521479
 31
0.0
 11
-2.191810607910233
 21
-12.98847961425779
 31
0.0
  0
SPLINE
  5
B98A
330
1F
100
AcDbEntity
  8
AM_0
100
AcDbSpline
210
0.0
220
0.0
230
1.0
 70
     8
 71
     3
 72
    11
 73
     7
 74
     5
 42
0.0000000001
 43
0.0000000001
 44
0.0000000001
 40
0.0
 40
0.0
 40
0.0
 40
0.0
 40
0.9617185910897154
 40
1.923439549112681
 40
2.885162485277815
 40
3.846882516239205
 40
3.846882516239205
 40
3.846882516239205
 40
3.846882516239205
 10
-1.071846008301259
 20
-12.15525054931582
 30
0.0
 10
-1.106412792373805
 20
-12.47507505030875
 30
0.0
 10
-1.175546445592919
 20
-13.11472483943052
 30
0.0
 10
-1.511873634051764
 20
-14.02400152897605
 30
0.0
 10
-1.994444293804474
 20
-14.86484992591305
 30
0.0
 10
-2.441222867146532
 20
-15.32779871912835
 30
0.0
 10
-2.66461181640626
 20
-15.55927276611281
 30
0.0
 11
-1.071846008301259
 21
-12.15525054931582
 31
0.0
 11
-1.214317321777249
 21
-13.10635757446284
 31
0.0
 11
-1.536247253418269
 21
-14.01259613037084
 31
0.0
 11
-2.02571105957024
 21
-14.84044647216778
 31
0.0
 11
-2.66461181640626
 21
-15.55927276611281
 31
0.0
  0
SPLINE
  5
B98B
330
1F
100
AcDbEntity
  8
AM_0
100
AcDbSpline
210
0.0
220
0.0
230
1.0
 70
     8
 71
     3
 72
    11
 73
     7
 74
     5
 42
0.0000000001
 43
0.0000000001
 44
0.0000000001
 40
0.0
 40
0.0
 40
0.0
 40
0.0
 40
1.18327858709157
 40
2.362815682674315
 40
3.537602117466916
 40
4.706636115127373
 40
4.706636115127373
 40
4.706636115127373
 40
4.706636115127373
 10
-1.071868896484255
 20
-12.15523147582983
 30
0.0
 10
-1.044573673991426
 20
-11.76174962012742
 30
0.0
 10
-0.990069535683083
 20
-10.97603008658405
 30
0.0
 10
-0.8997629626920039
 20
-9.800283974240212
 30
0.0
 10
-0.8040051324188807
 20
-8.629732952008811
 30
0.0
 10
-0.7344415863648522
 20
-7.851560025757847
 30
0.0
 10
-0.6997451782232668
 20
-7.463428497313837
 30
0.0
 11
-1.071868896484255
 21
-12.15523147582983
 31
0.0
 11
-0.9885253906252556
 21
-10.97489166259783
 31
0.0
 11
-0.8986663818362828
 21
-9.798782348632821
 31
0.0
 11
-0.8023757934572675
 21
-8.627948760985827
 31
0.0
 11
-0.6997451782232668
 21
-7.463428497313837
 31
0.0
  0
SPLINE
  5
B98C
330
1F
100
AcDbEntity
  8
AM_0
100
AcDbSpline
210
0.0
220
0.0
230
1.0
 70
     8
 71
     3
 72
    11
 73
     7
 74
     5
 42
0.0000000001
 43
0.0000000001
 44
0.0000000001
 40
0.0
 40
0.0
 40
0.0
 40
0.0
 40
1.821761668544033
 40
3.638432015104218
 40
5.446498336575263
 40
7.242447645318732
 40
7.242447645318732
 40
7.242447645318732
 40
7.242447645318732
 10
-0.1692123413092892
 20
-0.2407798767088225
 30
0.0
 10
-0.2047520575239289
 20
-0.8469971427465093
 30
0.0
 10
-0.2757321662372758
 20
-2.05773746457097
 30
0.0
 10
-0.4019933705413698
 20
-3.868869995773671
 30
0.0
 10
-0.5410003996548721
 20
-5.670440732082423
 30
0.0
 10
-0.6469489881443811
 20
-6.867107007460936
 30
0.0
 10
-0.6997451782232668
 20
-7.463428497313837
 30
0.0
 11
-0.1692123413092892
 21
-0.2407798767088225
 31
0.0
 11
-0.2791824340822933
 21
-2.059219360351827
 31
0.0
 11
-0.4044342041013059
 21
-3.871566772460832
 31
0.0
 11
-0.5447158813482738
 21
-5.674182891845825
 31
0.0
 11
-0.6997451782232668
 21
-7.463428497313837
 31
0.0
  0
SPLINE
  5
B98D
330
1F
100
AcDbEntity
  8
AM_0
100
AcDbSpline
210
0.0
220
0.0
230
1.0
 70
     8
 71
     3
 72
    11
 73
     7
 74
     5
 42
0.0000000001
 43
0.0000000001
 44
0.0000000001
 40
0.0
 40
0.0
 40
0.0
 40
0.0
 40
0.1231539526199879
 40
0.2463077575404827
 40
0.3694615624609457
 40
0.4926153673814441
 40
0.4926153673814441
 40
0.4926153673814441
 40
0.4926153673814441
 10
-28.80239868164125
 20
-17.24233245849587
 30
0.0
 10
-28.84344226790249
 20
-17.24312913959991
 30
0.0
 10
-28.92552939120107
 20
-17.24472250085253
 30
0.0
 10
-29.04866028886829
 20
-17.24710028532608
 30
0.0
 10
-29.17179107402324
 20
-17.24948133735982
 30
0.0
 10
-29.25387827467459
 20
-17.25106816063053
 30
0.0
 10
-29.29492187500026
 20
-17.25186157226588
 30
0.0
 11
-28.80239868164125
 21
-17.24233245849587
 31
0.0
 11
-28.92552947998024
 21
-17.24472045898387
 31
0.0
 11
-29.04866027832026
 21
-17.24710083007787
 31
0.0
 11
-29.17179107666024
 21
-17.24948120117188
 31
0.0
 11
-29.29492187500026
 21
-17.25186157226588
 31
0.0
  0
ELLIPSE
  5
B99B
330
1F
100
AcDbEntity
  8
AM_0
100
AcDbEllipse
 10
-26.81805419921929
 20
-4.77433395385688
 30
0.0
 11
1.65679109986095
 21
24.654270731586
 31
0.0
210
0.0
220
0.0
230
1.0
 40
0.0033687396455
 41
5.53757655985736
 42
5.852054633257211
  0
ELLIPSE
  5
B99C
330
1F
100
AcDbEntity
  8
AM_0
100
AcDbEllipse
 10
45.97383880614573
 20
0.0000076293952711
 30
0.0
 11
398.6985075173
 21
-10.35115984292217
 31
0.0
210
0.0
220
0.0
230
1.0
 40
0.0395121755144
 41
1.79506082411291
 42
1.816474790582287
  0
ELLIPSE
  5
B99D
330
1F
100
AcDbEntity
  8
AM_0
100
AcDbEllipse
 10
-45.94952392578128
 20
0.0000000000000685
 30
0.0
 11
3.476287323810961
 21
18.84877627199499
 31
0.0
210
0.0
220
0.0
230
1.0
 40
0.0618102134264
 41
5.880409285522108
 42
5.937121759785587
  0
ELLIPSE
  5
B99E
330
1F
100
AcDbEntity
  8
AM_0
100
AcDbEllipse
 10
13.3955230712887
 20
-0.0006256103518024
 30
0.0
 11
239.7021279965469
 21
6.537437870630498
 31
0.0
210
0.0
220
0.0
230
1.0
 40
0.0737613474676
 41
1.731144499731459
 42
1.734741969720928
  0
ELLIPSE
  5
B99F
330
1F
100
AcDbEntity
  8
AM_0
100
AcDbEllipse
 10
71.97402191161571
 20
-0.0000267028806717
 30
0.0
 11
398.6989969929298
 21
-4.329517688199168
 31
0.0
210
0.0
220
0.0
230
1.0
 40
0.046014893873
 41
1.802563899977641
 42
1.817034359985823
  0
ELLIPSE
  5
B9A0
330
1F
100
AcDbEntity
  8
AM_0
100
AcDbEllipse
 10
58.97389984130573
 20
0.0000000000002791
 30
0.0
 11
398.69859163536
 21
10.35144739050681
 31
0.0
210
0.0
220
0.0
230
1.0
 40
0.0395121855736
 41
4.428150492729587
 42
4.488169604183537
  0
ELLIPSE
  5
B9A1
330
1F
100
AcDbEntity
  8
AM_0
100
AcDbEllipse
 10
17.51233673095673
 20
0.0000000000002309
 30
0.0
 11
32.33956606981902
 21
-16.74020565798893
 31
0.0
210
0.0
220
0.0
230
1.0
 40
0.2679491458327
 41
3.811901198965268
 42
4.181711729828076
  0
ELLIPSE
  5
B9A2
330
1F
100
AcDbEntity
  8
AM_0
100
AcDbEllipse
 10
211.4267196655256
 20
0.0000000000006183
 30
0.0
 11
432.4388299859802
 21
-18.72311847050209
 31
0.0
210
0.0
220
0.0
230
1.0
 40
0.0050519153079
 41
4.088471881938618
 42
4.173415465539959
  0
ELLIPSE
  5
B9A3
330
1F
100
AcDbEntity
  8
AM_0
100
AcDbEllipse
 10
-39.57574462890629
 20
0.0000000000001218
 30
0.0
 11
9.832816741852033
 21
-18.84883737656297
 31
0.0
210
0.0
220
0.0
230
1.0
 40
0.0212863409838
 41
3.877717257919864
 42
3.960852170179288
  0
ELLIPSE
  5
B9A4
330
1F
100
AcDbEntity
  8
AM_0
100
AcDbEllipse
 10
83.7930526733357
 20
0.0000076293953619
 30
0.0
 11
239.6974742371499
 21
-6.537368138679504
 31
0.0
210
0.0
220
0.0
230
1.0
 40
0.073760034821
 41
4.252775248162325
 42
4.271371992580118
  0
ELLIPSE
  5
B9A5
330
1F
100
AcDbEntity
  8
AM_0
100
AcDbEllipse
 10
-42.65914154052729
 20
0.0000000000001098
 30
0.0
 11
9.569954173372041
 21
-18.81385705084997
 31
0.0
210
0.0
220
0.0
230
1.0
 40
0.1219179446591
 41
2.449536526406354
 42
3.079666341886654
  0
ELLIPSE
  5
B9A6
330
1F
100
AcDbEntity
  8
AM_0
100
AcDbEllipse
 10
-25.96920013427727
 20
0.0000000000001464
 30
0.0
 11
0.949974089616955
 21
18.84999029275199
 31
0.0
210
0.0
220
0.0
230
1.0
 40
0.0234515975079
 41
0.0
 42
0.3579084093282027
  0
ELLIPSE
  5
B9A7
330
1F
100
AcDbEntity
  8
AM_0
100
AcDbEllipse
 10
71.9733200073157
 20
0.0001220703133414
 30
0.0
 11
398.6973796566499
 21
-4.329500125361174
 31
0.0
210
0.0
220
0.0
230
1.0
 40
0.0460147217596
 41
1.79453018537609
 42
1.802563063790183
  0
ELLIPSE
  5
B9AD
330
1F
100
AcDbEntity
  8
AM_0
100
AcDbEllipse
 10
-41.44782257080129
 20
12.0931549072271
 30
0.0
 11
2.517723105525998
 21
-0.0112759641549919
 31
0.0
210
0.0
220
0.0
230
1.0
 40
0.8523437335762999
 41
2.205092907566287
 42
2.287411820640892
  0
ELLIPSE
  5
B9AE
330
1F
100
AcDbEntity
  8
AM_0
100
AcDbEllipse
 10
-43.37291717529335
 20
20.53672027587909
 30
0.0
 11
0.1168672821939752
 21
10.55004146923099
 31
0.0
210
0.0
220
0.0
230
1.0
 40
0.0438800550591
 41
4.010933819953424
 42
4.06420936792607
  0
ELLIPSE
  5
B9AF
330
1F
100
AcDbEntity
  8
AM_0
100
AcDbEllipse
 10
-41.53425598144532
 20
12.47225952148409
 30
0.0
 11
2.517723105525
 21
-0.0112759641539971
 31
0.0
210
0.0
220
0.0
230
1.0
 40
0.8523437335762999
 41
5.041963933017465
 42
5.280975764895012
  0
ELLIPSE
  5
B9B0
330
1F
100
AcDbEntity
  8
AM_0
100
AcDbEllipse
 10
-41.53425598144532
 20
12.47225952148409
 30
0.0
 11
2.517723105525
 21
-0.0112759641539971
 31
0.0
210
0.0
220
0.0
230
1.0
 40
0.8523437335762999
 41
3.337329452136104
 42
4.234641395140269
  0
ELLIPSE
  5
B9B1
330
1F
100
AcDbEntity
  8
AM_0
100
AcDbEllipse
 10
-31.28096008300831
 20
14.55451583862308
 30
0.0
 11
5.958969126211003
 21
-0.7038683720509857
 31
0.0
210
0.0
220
0.0
230
1.0
 40
0.9320741741267999
 41
0.0294035977278187
 42
0.072229900903164
  0
ELLIPSE
  5
B9B2
330
1F
100
AcDbEntity
  8
AM_0
100
AcDbEllipse
 10
-41.53425598144532
 20
12.47225952148409
 30
0.0
 11
2.517723105525
 21
-0.0112759641539971
 31
0.0
210
0.0
220
0.0
230
1.0
 40
0.8523437335762999
 41
2.232679321011663
 42
3.337329655148792
  0
ELLIPSE
  5
B9B3
330
1F
100
AcDbEntity
  8
AM_0
100
AcDbEllipse
 10
-27.66561889648432
 20
12.0239639282231
 30
0.0
 11
2.517723105525
 21
-0.0112759641549919
 31
0.0
210
0.0
220
0.0
230
1.0
 40
0.8523437335762999
 41
4.055782129388602
 42
4.375106581154979
  0
ELLIPSE
  5
B9B4
330
1F
100
AcDbEntity
  8
AM_0
100
AcDbEllipse
 10
-15.44782257080132
 20
12.82137298584014
 30
0.0
 11
2.116272024572996
 21
1.391061812462997
 31
0.0
210
0.0
220
0.0
230
1.0
 40
0.9805279735450998
 41
1.586729316001258
 42
1.711454873201368
  0
ELLIPSE
  5
B9B5
330
1F
100
AcDbEntity
  8
AM_0
100
AcDbEllipse
 10
-17.37291717529334
 20
12.89701461792016
 30
0.0
 11
0.4702683040309969
 21
2.483417536428001
 31
0.0
210
0.0
220
0.0
230
1.0
 40
0.0332497307174
 41
0.7170561625931687
 42
0.7838027007138983
  0
ELLIPSE
  5
B9B6
330
1F
100
AcDbEntity
  8
AM_0
100
AcDbEllipse
 10
-14.73988342285131
 20
12.79425048828113
 30
0.0
 11
2.428832923783995
 21
1.847673516002008
 31
0.0
210
0.0
220
0.0
230
1.0
 40
0.6693666810105002
 41
4.446108124636229
 42
4.452002122891917
  0
ELLIPSE
  5
B9B7
330
1F
100
AcDbEntity
  8
AM_0
100
AcDbEllipse
 10
-15.44782257080132
 20
12.82137298584014
 30
0.0
 11
2.116272024572996
 21
1.391061812462997
 31
0.0
210
0.0
220
0.0
230
1.0
 40
0.9805279735450998
 41
4.712320908683358
 42
4.762139069253144
  0
ELLIPSE
  5
B9B8
330
1F
100
AcDbEntity
  8
AM_0
100
AcDbEllipse
 10
-15.53425598144535
 20
12.82476806640612
 30
0.0
 11
2.116272024571995
 21
1.391061812463004
 31
0.0
210
0.0
220
0.0
230
1.0
 40
0.9805279735450998
 41
4.082534921197995
 42
4.704837496629721
  0
ELLIPSE
  5
B9B9
330
1F
100
AcDbEntity
  8
AM_0
100
AcDbEllipse
 10
-15.53425598144535
 20
12.82476806640612
 30
0.0
 11
2.116272024571995
 21
1.391061812463004
 31
0.0
210
0.0
220
0.0
230
1.0
 40
0.9805279735450998
 41
1.656432023787865
 42
4.082534620965848
  0
ELLIPSE
  5
B9BA
330
1F
100
AcDbEntity
  8
AM_0
100
AcDbEllipse
 10
-31.17716979980533
 20
15.24530792236309
 30
0.0
 11
5.877441529101
 21
-1.208887533139987
 31
0.0
210
0.0
220
0.0
230
1.0
 40
0.9722208028615998
 41
5.478532415677769
 42
6.335345707901642
  0
ELLIPSE
  5
B9BB
330
1F
100
AcDbEntity
  8
AM_0
100
AcDbEllipse
 10
-31.17716979980533
 20
15.24530792236309
 30
0.0
 11
5.877441529101
 21
-1.208887533139987
 31
0.0
210
0.0
220
0.0
230
1.0
 40
0.9722208028615998
 41
0.0521604007220562
 42
0.1537787181301533
  0
ELLIPSE
  5
B9BC
330
1F
100
AcDbEntity
  8
AM_0
100
AcDbEllipse
 10
-44.3802795410163
 20
10.34496688842809
 30
0.0
 11
4.865425660019015
 21
-7.887976950461987
 31
0.0
210
0.0
220
0.0
230
1.0
 40
0.0629968863504
 41
4.217008952845733
 42
4.324567227858708
  0
ELLIPSE
  5
B9BD
330
1F
100
AcDbEntity
  8
AM_0
100
AcDbEllipse
 10
-40.97419738769532
 20
14.49804687500011
 30
0.0
 11
6.047225769284998
 21
0.5088327212420066
 31
0.0
210
0.0
220
0.0
230
1.0
 40
0.6596262035755
 41
4.190336827586696
 42
4.519491903681386
  0
ELLIPSE
  5
B9BE
330
1F
100
AcDbEntity
  8
AM_0
100
AcDbEllipse
 10
-31.65335845947332
 20
12.07593536377011
 30
0.0
 11
6.002464219235005
 21
-0.4171230836949908
 31
0.0
210
0.0
220
0.0
230
1.0
 40
0.3376956799249
 41
4.786955294716046
 42
5.086174726680964
  0
ELLIPSE
  5
B9BF
330
1F
100
AcDbEntity
  8
AM_0
100
AcDbEllipse
 10
-4.483486175537309
 20
3.923881530762175
 30
0.0
 11
1.728916167285001
 21
-1.200803552956994
 31
0.0
210
0.0
220
0.0
230
1.0
 40
0.3563586291414
 41
5.898792506814799
 42
9.040386512742607
  0
ELLIPSE
  5
B9C0
330
1F
100
AcDbEntity
  8
AM_0
100
AcDbEllipse
 10
-4.483486175537309
 20
3.923881530762175
 30
0.0
 11
1.728916167285001
 21
-1.200803552956994
 31
0.0
210
0.0
220
0.0
230
1.0
 40
0.3563586291414
 41
2.75720120556302
 42
3.161128736945819
  0
ELLIPSE
  5
B9C1
330
1F
100
AcDbEntity
  8
AM_0
100
AcDbEllipse
 10
-4.483486175537309
 20
3.923881530762175
 30
0.0
 11
1.728916167285001
 21
-1.200803552956994
 31
0.0
210
0.0
220
0.0
230
1.0
 40
0.3563586291414
 41
3.161128915282477
 42
5.898794047445746
  0
ELLIPSE
  5
B9C6
330
1F
100
AcDbEntity
  8
AM_0
100
AcDbEllipse
 10
-41.09344482421931
 20
10.5388412475591
 30
0.0
 11
2.437454171226997
 21
0.5557271456260061
 31
0.0
210
0.0
220
0.0
230
1.0
 40
0.9357408366554999
 41
2.393321347496758
 42
2.651588513519843
  0
ELLIPSE
  5
B9C7
330
1F
100
AcDbEntity
  8
AM_0
100
AcDbEllipse
 10
-8.590389251709295
 20
10.61447906494113
 30
0.0
 11
1.749496460260999
 21
-0.0420324290779952
 31
0.0
210
0.0
220
0.0
230
1.0
 40
0.1902195663169
 41
2.8096958863257
 42
3.059636024381623
  0
ELLIPSE
  5
B9C8
330
1F
100
AcDbEntity
  8
AM_0
100
AcDbEllipse
 10
-8.590389251709295
 20
10.61447906494113
 30
0.0
 11
1.749496460260999
 21
-0.0420324290779952
 31
0.0
210
0.0
220
0.0
230
1.0
 40
0.1902195663169
 41
0.3219438991713397
 42
0.5259842520857309
  0
ELLIPSE
  5
B9C9
330
1F
100
AcDbEntity
  8
AM_0
100
AcDbEllipse
 10
-27.36200714111331
 20
10.69232940673811
 30
0.0
 11
2.437454171226995
 21
0.5557271456270082
 31
0.0
210
0.0
220
0.0
230
1.0
 40
0.9357422671652001
 41
0.6916142628608271
 42
1.099932393015952
  0
ELLIPSE
  5
B9CA
330
1F
100
AcDbEntity
  8
AM_0
100
AcDbEllipse
 10
-27.3580856323243
 20
10.67513275146513
 30
0.0
 11
2.437454171227
 21
0.5557271456270012
 31
0.0
210
0.0
220
0.0
230
0.9999999999999998
 40
0.9357422671651999
 41
0.6963899448870699
 42
1.102554967954825
  0
ELLIPSE
  5
B9D0
330
1F
100
AcDbEntity
  8
AM_0
100
AcDbEllipse
 10
-18.48623657226634
 20
27.80601310730015
 30
0.0
 11
39.77095860570403
 21
-2.170446290699916
 31
0.0
210
0.0
220
0.0
230
1.0
 40
0.1902207996145
 41
4.872234213699547
 42
4.991587285446673
  0
ELLIPSE
  5
B9D1
330
1F
100
AcDbEntity
  8
AM_0
100
AcDbEllipse
 10
-4.646263122559302
 20
3.125900268555172
 30
0.0
 11
39.818648946995
 21
-0.9566512179099174
 31
0.0
210
0.0
220
0.0
230
1.0
 40
0.1902207517274
 41
1.57066411086279
 42
1.689984592580263
  0
ELLIPSE
  5
B9D2
330
1F
100
AcDbEntity
  8
AM_0
100
AcDbEllipse
 10
-13.84617614746133
 20
18.54866027832013
 30
0.0
 11
40.622200488017
 21
-0.9759567086959192
 31
0.0
210
0.0
220
0.0
230
1.0
 40
0.1902207663788
 41
4.652137609926568
 42
4.8315772635872
  0
ELLIPSE
  5
B9D3
330
1F
100
AcDbEntity
  8
AM_0
100
AcDbEllipse
 10
2.853523254394668
 20
11.9062767028812
 30
0.0
 11
40.57355155123099
 21
-2.214246715497915
 31
0.0
210
0.0
220
0.0
230
1.0
 40
0.1902207485209
 41
1.670541192939561
 42
1.849994268226125
  0
ELLIPSE
  5
B9D7
330
1F
100
AcDbEntity
  8
AM_3
100
AcDbEllipse
 10
-5.8947944641113
 20
3.761795043945167
 30
0.0
 11
0.1711464553020039
 21
-1.490205751690999
 31
0.0
210
0.0
220
0.0
230
1.0
 40
0.3380660965606999
 41
0.0
 42
6.283185307179584
  0
ELLIPSE
  5
B9D8
330
1F
100
AcDbEntity
  8
AM_3
100
AcDbEllipse
 10
-5.8947944641113
 20
3.761795043945167
 30
0.0
 11
0.1426201351840061
 21
-1.241838465863004
 31
0.0
210
0.0
220
0.0
230
1.0
 40
0.3380655556945
 41
0.0
 42
6.283185307179584
  0
ELLIPSE
  5
B9EE
330
1F
100
AcDbEntity
  8
AM_0
100
AcDbEllipse
 10
-42.8063201904303
 20
0.0000000000001092
 30
0.0
 11
9.569959523702964
 21
18.81385646924501
 31
0.0
210
0.0
220
0.0
230
1.0
 40
0.1219179562328
 41
3.203144898934584
 42
3.504551808753609
  0
ELLIPSE
  5
B9EF
330
1F
100
AcDbEntity
  8
AM_0
100
AcDbEllipse
 10
-43.83172607421929
 20
0.0000000000001052
 30
0.0
 11
8.77330566094896
 21
18.689711666748
 31
0.0
210
0.0
220
0.0
230
1.0
 40
0.2795981455358
 41
3.021492170804288
 42
3.170560877401805
  0
ELLIPSE
  5
B9F0
330
1F
100
AcDbEntity
  8
AM_0
100
AcDbEllipse
 10
-32.94952392578128
 20
0.0000000000001192
 30
0.0
 11
3.476280582963038
 21
-18.84877751521099
 31
0.0
210
0.0
220
0.0
230
1.0
 40
0.0618102072068
 41
0.3457268514023948
 42
0.4038745473130473
  0
ELLIPSE
  5
B9F1
330
1F
100
AcDbEntity
  8
AM_0
100
AcDbEllipse
 10
-31.57826232910129
 20
0.0000000000000961
 30
0.0
 11
0.5320275932340445
 21
-18.849297062183
 31
0.0
210
0.0
220
0.0
230
1.0
 40
0.306299434091
 41
0.4073662844162126
 42
0.4980496462165437
  0
ELLIPSE
  5
B9F2
330
1F
100
AcDbEntity
  8
AM_0
100
AcDbEllipse
 10
-30.96011352539129
 20
0.0000000000000986
 30
0.0
 11
1.773011242847043
 21
-18.84886078224198
 31
0.0
210
0.0
220
0.0
230
1.0
 40
0.1168525532561
 41
0.4956837979753898
 42
0.5716289015517985
  0
ELLIPSE
  5
B9F3
330
1F
100
AcDbEntity
  8
AM_0
100
AcDbEllipse
 10
26.39401245117172
 20
0.0000000000002371
 30
0.0
 11
239.6974132246838
 21
-6.537366474660506
 31
0.0
210
0.0
220
0.0
230
1.0
 40
0.073760013824
 41
4.484292893942393
 42
4.545627882962221
  0
ELLIPSE
  5
B9F4
330
1F
100
AcDbEntity
  8
AM_0
100
AcDbEllipse
 10
-0.795951843262273
 20
0.0000000000001595
 30
0.0
 11
0.9989167540669575
 21
18.84970814421999
 31
0.0
210
0.0
220
0.0
230
1.0
 40
0.1049569973576
 41
2.1027087664276
 42
2.469383483366828
  0
ELLIPSE
  5
B9F5
330
1F
100
AcDbEntity
  8
AM_0
100
AcDbEllipse
 10
-0.795951843262273
 20
0.0000000000001595
 30
0.0
 11
0.9989167540669575
 21
18.84970814421999
 31
0.0
210
0.0
220
0.0
230
1.0
 40
0.1049569973576
 41
1.523316050086253
 42
1.870729160429701
  0
ELLIPSE
  5
B9F6
330
1F
100
AcDbEntity
  8
AM_0
100
AcDbEllipse
 10
-24.29707336425828
 20
0.000000000000153
 30
0.0
 11
0.1896125181590415
 21
-18.84999088469299
 31
0.0
210
0.0
220
0.0
230
1.0
 40
0.0874418047511
 41
0.8126888686809493
 42
0.9834333008554928
  0
ELLIPSE
  5
B9F7
330
1F
100
AcDbEntity
  8
AM_0
100
AcDbEllipse
 10
-20.28160858154326
 20
0.0000000000001402
 30
0.0
 11
0.1896125181580396
 21
-18.84999088469299
 31
0.0
210
0.0
220
0.0
230
1.0
 40
0.0874418047511
 41
0.7945523239562263
 42
0.9974239976472583
  0
ELLIPSE
  5
B9F8
330
1F
100
AcDbEntity
  8
AM_0
100
AcDbEllipse
 10
-42.8063201904303
 20
0.0000000000001092
 30
0.0
 11
9.569959523702964
 21
18.81385646924501
 31
0.0
210
0.0
220
0.0
230
1.0
 40
0.1219179562328
 41
3.108204535270282
 42
3.2031443794376
  0
ELLIPSE
  5
B9FD
330
1F
100
AcDbEntity
  8
AM_0
100
AcDbEllipse
 10
-21.04286193847625
 20
-11.35778808593688
 30
0.0
 11
1.706214828931003
 21
-0.3890095810409981
 31
0.0
210
0.0
220
0.0
230
1.0
 40
0.9357431012875
 41
3.141592560163716
 42
6.283185307179585
  0
ELLIPSE
  5
B9FE
330
1F
100
AcDbEntity
  8
AM_0
100
AcDbEllipse
 10
-21.04286193847625
 20
-11.35778808593688
 30
0.0
 11
1.706214828931003
 21
-0.3890095810409981
 31
0.0
210
0.0
220
0.0
230
1.0
 40
0.9357431012875
 41
1.780932745328704
 42
3.141592747015868
  0
ELLIPSE
  5
B9FF
330
1F
100
AcDbEntity
  8
AM_0
100
AcDbEllipse
 10
-21.04286193847625
 20
-11.35778808593688
 30
0.0
 11
1.706214828931003
 21
-0.3890095810409981
 31
0.0
210
0.0
220
0.0
230
1.0
 40
0.9357431012875
 41
0.0
 42
1.780932745328704
  0
ELLIPSE
  5
BA00
330
1F
100
AcDbEntity
  8
AM_0
100
AcDbEllipse
 10
-21.04286193847625
 20
-11.35778808593688
 30
0.0
 11
1.949958741848
 21
-0.4445821360539985
 31
0.0
210
0.0
220
0.0
230
1.0
 40
0.9357426745821999
 41
0.2495716026035985
 42
2.882635142994912
  0
ELLIPSE
  5
BA01
330
1F
100
AcDbEntity
  8
AM_0
100
AcDbEllipse
 10
-13.79692840576224
 20
-18.66845703124983
 30
0.0
 11
0.7799854301949983
 21
-0.1778334908710077
 31
0.0
210
0.0
220
0.0
230
1.0
 40
0.9357431651834
 41
4.963057223124831
 42
5.747585035464641
  0
ELLIPSE
  5
BA02
330
1F
100
AcDbEntity
  8
AM_0
100
AcDbEllipse
 10
-13.79692840576224
 20
-18.66845703124983
 30
0.0
 11
0.7799854301949983
 21
-0.1778334908710077
 31
0.0
210
0.0
220
0.0
230
1.0
 40
0.9357431651834
 41
5.747585035464641
 42
6.532756436622382
  0
LINE
  5
BA2B
330
1F
100
AcDbEntity
  8
AM_0
100
AcDbLine
 10
-1.650260925293269
 20
0.6379470825201706
 30
0.0
 11
-0.9262390136722896
 21
0.6000022888181772
 31
0.0
  0
LINE
  5
BA2C
330
1F
100
AcDbEntity
  8
AM_0
100
AcDbLine
 10
-0.9262390136722896
 20
0.6000022888181772
 30
0.0
 11
-1.665443420410282
 21
-0.314189910888857
 31
0.0
  0
LINE
  5
BA2D
330
1F
100
AcDbEntity
  8
AM_0
100
AcDbLine
 10
-0.1692123413092892
 20
-0.240776062011841
 30
0.0
 11
-1.326446533203302
 21
-1.671962738036838
 31
0.0
  0
LINE
  5
BA85
330
1F
100
AcDbEntity
  8
AM_0
100
AcDbLine
 10
-0.9337463378913394
 20
11.97511672973617
 30
0.0
 11
-0.0549697875983359
 21
17.57815170288116
 31
0.0
  0
ARC
  5
BA86
330
1F
100
AcDbEntity
  8
AM_0
100
AcDbCircle
 10
-0.7969284057623188
 20
19.00838661193818
 30
0.0
 40
0.7987674474716
100
AcDbArc
 50
42.83847701249756
 51
87.74998974894639
  0
ARC
  5
BA87
330
1F
100
AcDbEntity
  8
AM_0
100
AcDbCircle
 10
-0.7969284057623188
 20
19.00838661193818
 30
0.0
 40
0.7975338697433001
100
AcDbArc
 50
357.7500040925731
 51
42.8384733700349
  0
LINE
  5
BA88
330
1F
100
AcDbEntity
  8
AM_0
100
AcDbLine
 10
-0.765594482422336
 20
19.80771827697815
 30
0.0
 11
-0.7676391601563415
 21
19.80634307861315
 31
0.0
  0
LINE
  5
BA89
330
1F
100
AcDbEntity
  8
AM_0
100
AcDbLine
 10
-0.0549621582033215
 20
17.57815551757817
 30
0.0
 11
-0.0000000000003157
 21
18.97707366943417
 31
0.0
  0
LINE
  5
BA8A
330
1F
100
AcDbEntity
  8
AM_0
100
AcDbLine
 10
-0.9330368041993079
 20
11.97358703613317
 30
0.0
 11
-0.9343490600593082
 21
11.97513961792016
 31
0.0
  0
ARC
  5
BAE2
330
1F
100
AcDbEntity
  8
AM_0
100
AcDbCircle
 10
-0.9681015014652549
 20
-0.1989021301268228
 30
0.0
 40
0.8000003099441999
100
AcDbArc
 50
357.0000493217044
 51
42.00002666828005
  0
ARC
  5
BAE3
330
1F
100
AcDbEntity
  8
AM_0
100
AcDbCircle
 10
-0.9681015014652549
 20
-0.1989021301268228
 30
0.0
 40
0.8000004291533999
100
AcDbArc
 50
42.00001665037058
 51
86.99998716675612
  0
LINE
  5
BAE5
330
1F
100
AcDbEntity
  8
AM_3
100
AcDbLine
 10
-50.11182212829628
 20
-0.0581626892089322
 30
0.0
 11
-6.037414550781312
 21
5.003635406494165
 31
0.0
  0
LINE
  5
BAE6
330
1F
100
AcDbEntity
  8
AM_0
100
AcDbLine
 10
-53.96920013427729
 20
0.0000000000000657
 30
0.0
 11
-53.96920013427735
 21
18.85000038147004
 31
0.0
  0
LINE
  5
BAE7
330
1F
100
AcDbEntity
  8
AM_0
100
AcDbLine
 10
-54.96920013427729
 20
0.0000000000000902
 30
0.0
 11
-54.96920013427735
 21
17.84999847412107
 31
0.0
  0
LINE
  5
BAE8
330
1F
100
AcDbEntity
  8
AM_0
100
AcDbLine
 10
-2.724700927734279
 20
0.9995384216311816
 30
0.0
 11
-1.503440856934286
 21
6.429199218750156
 31
0.0
  0
LINE
  5
BAE9
330
1F
100
AcDbEntity
  8
AM_0
100
AcDbLine
 10
-57.96920013427713
 20
16.00000000000004
 30
0.0
 11
-57.96920013427704
 21
-15.99999999999994
 31
0.0
  0
LINE
  5
BAEA
330
1F
100
AcDbEntity
  8
AM_0
100
AcDbLine
 10
-41.8037681579593
 20
10.48556137085009
 30
0.0
 11
-31.34667205810529
 21
10.02348709106409
 31
0.0
  0
LINE
  5
BAEB
330
1F
100
AcDbEntity
  8
AM_0
100
AcDbLine
 10
-1.6110687255863
 20
9.254707336426164
 30
0.0
 11
-27.94891738891629
 21
10.28952407836913
 31
0.0
  0
LINE
  5
BAEC
330
1F
100
AcDbEntity
  8
AM_0
100
AcDbLine
 10
-29.5919342041013
 20
10.03662872314512
 30
0.0
 11
-1.600227355957278
 21
8.936832427979155
 31
0.0
  0
LINE
  5
BAED
330
1F
100
AcDbEntity
  8
AM_0
100
AcDbLine
 10
-17.07403945922829
 20
14.77340698242216
 30
0.0
 11
-16.28411483764634
 21
18.84939193725612
 31
0.0
  0
LINE
  5
BAEE
330
1F
100
AcDbEntity
  8
AM_0
100
AcDbLine
 10
-7.922946929932328
 20
19.93556022644016
 30
0.0
 11
-7.92288589477534
 21
19.93705558776913
 31
0.0
  0
LINE
  5
BAEF
330
1F
100
AcDbEntity
  8
AM_0
100
AcDbLine
 10
-12.56374359130933
 20
19.99325370788616
 30
0.0
 11
-12.56243515014635
 21
19.99170112609914
 31
0.0
  0
LINE
  5
BAF0
330
1F
100
AcDbEntity
  8
AM_0
100
AcDbLine
 10
-16.08850097656232
 20
18.71822357177713
 30
0.0
 11
-16.08718872070332
 21
18.71667098999013
 31
0.0
  0
LINE
  5
BAF1
330
1F
100
AcDbEntity
  8
AM_0
100
AcDbLine
 10
-7.049438476562297
 20
10.09647369384816
 30
0.0
 11
-10.57333755493229
 21
10.15042495727516
 31
0.0
  0
LINE
  5
BAF2
330
1F
100
AcDbEntity
  8
AM_0
100
AcDbLine
 10
-10.61671066284229
 20
7.735221862793173
 30
0.0
 11
-1.538261413574294
 21
8.529407501221145
 31
0.0
  0
LINE
  5
BAF3
330
1F
100
AcDbEntity
  8
AM_0
100
AcDbLine
 10
-1.611061096191314
 20
9.254707336426164
 30
0.0
 11
-1.556793212891333
 21
10.54618835449216
 31
0.0
  0
LINE
  5
BAF4
330
1F
100
AcDbEntity
  8
AM_0
100
AcDbLine
 10
-1.556427001953322
 20
10.56352996826215
 30
0.0
 11
-7.012508392334295
 21
10.64306259155314
 31
0.0
  0
LINE
  5
BAF5
330
1F
100
AcDbEntity
  8
AM_0
100
AcDbLine
 10
-1.556793212891333
 20
10.54618835449216
 30
0.0
 11
-7.018474578857334
 21
10.62980270385716
 31
0.0
  0
LINE
  5
BAF6
330
1F
100
AcDbEntity
  8
AM_0
100
AcDbLine
 10
-1.51410675048831
 20
11.11407852172915
 30
0.0
 11
-1.496398925781337
 21
11.53601455688515
 31
0.0
  0
LINE
  5
BAF7
330
1F
100
AcDbEntity
  8
AM_0
100
AcDbLine
 10
-1.51410675048831
 20
11.11407852172915
 30
0.0
 11
-1.527755737305313
 21
11.11461257934614
 31
0.0
  0
LINE
  5
BAF8
330
1F
100
AcDbEntity
  8
AM_0
100
AcDbLine
 10
-1.556793212891333
 20
10.54619216918915
 30
0.0
 11
-1.556419372559302
 21
10.56353378295917
 31
0.0
  0
LINE
  5
BAF9
330
1F
100
AcDbEntity
  8
AM_0
100
AcDbLine
 10
-1.558479309082313
 20
10.56356048584017
 30
0.0
 11
-1.549522399902313
 21
10.76859664917016
 31
0.0
  0
LINE
  5
BAFA
330
1F
100
AcDbEntity
  8
AM_0
100
AcDbLine
 10
-1.527763366699304
 20
11.11461639404315
 30
0.0
 11
-2.205322265625313
 21
11.14123916626017
 31
0.0
  0
LINE
  5
BAFB
330
1F
100
AcDbEntity
  8
AM_0
100
AcDbLine
 10
-1.549522399902313
 20
10.76859664917016
 30
0.0
 11
-3.272548675537306
 21
10.79497528076218
 31
0.0
  0
LINE
  5
BAFC
330
1F
100
AcDbEntity
  8
AM_0
100
AcDbLine
 10
-4.457794189453323
 20
10.69856262207016
 30
0.0
 11
-4.459098815918336
 21
10.70010757446318
 31
0.0
  0
LINE
  5
BAFD
330
1F
100
AcDbEntity
  8
AM_0
100
AcDbLine
 10
-6.931140899658315
 20
10.64187240600616
 30
0.0
 11
-6.925251007080333
 21
10.74329376220716
 31
0.0
  0
LINE
  5
BAFE
330
1F
100
AcDbEntity
  8
AM_0
100
AcDbLine
 10
-7.012508392334295
 20
10.64305877685517
 30
0.0
 11
-7.018474578857334
 21
10.62980270385716
 31
0.0
  0
LINE
  5
BAFF
330
1F
100
AcDbEntity
  8
AM_0
100
AcDbLine
 10
-7.049438476562297
 20
10.09647369384816
 30
0.0
 11
-7.018474578857334
 21
10.62980270385716
 31
0.0
  0
LINE
  5
BB00
330
1F
100
AcDbEntity
  8
AM_0
100
AcDbLine
 10
-9.200267791748302
 20
10.76024627685514
 30
0.0
 11
-9.200325012207315
 21
10.75875473022516
 31
0.0
  0
LINE
  5
BB01
330
1F
100
AcDbEntity
  8
AM_3
100
AcDbLine
 10
-6.06594085693431
 20
5.252002716064165
 30
0.0
 11
-5.923877716064316
 21
5.268318176270152
 31
0.0
  0
LINE
  5
BB02
330
1F
100
AcDbEntity
  8
AM_0
100
AcDbLine
 10
-10.53755569458033
 20
10.69444274902315
 30
0.0
 11
-14.17046356201231
 21
10.74739837646515
 31
0.0
  0
LINE
  5
BB03
330
1F
100
AcDbEntity
  8
AM_0
100
AcDbLine
 10
-10.5423736572263
 20
10.68375778198217
 30
0.0
 11
-14.18588638305729
 21
10.73953628540015
 31
0.0
  0
LINE
  5
BB04
330
1F
100
AcDbEntity
  8
AM_0
100
AcDbLine
 10
-10.33364868164133
 20
10.68297195434616
 30
0.0
 11
-10.3317184448243
 21
10.76329803466817
 31
0.0
  0
LINE
  5
BB05
330
1F
100
AcDbEntity
  8
AM_0
100
AcDbLine
 10
-10.46868896484431
 20
10.46073532104515
 30
0.0
 11
-10.45108032226633
 21
10.76405334472716
 31
0.0
  0
LINE
  5
BB06
330
1F
100
AcDbEntity
  8
AM_0
100
AcDbLine
 10
-10.46868515014633
 20
10.46073532104515
 30
0.0
 11
-10.53755569458033
 21
10.69444656372116
 31
0.0
  0
LINE
  5
BB07
330
1F
100
AcDbEntity
  8
AM_0
100
AcDbLine
 10
-10.33364868164133
 20
10.68297576904317
 30
0.0
 11
-10.57333374023428
 21
10.15042495727516
 31
0.0
  0
LINE
  5
BB08
330
1F
100
AcDbEntity
  8
AM_0
100
AcDbLine
 10
-10.53755569458033
 20
10.69444274902315
 30
0.0
 11
-10.54236984252932
 21
10.68375396728516
 31
0.0
  0
LINE
  5
BB09
330
1F
100
AcDbEntity
  8
AM_0
100
AcDbLine
 10
-10.57333374023428
 20
10.15042495727516
 30
0.0
 11
-10.54236984252932
 21
10.68375396728516
 31
0.0
  0
ARC
  5
BB0A
330
1F
100
AcDbEntity
  8
AM_0
100
AcDbCircle
 10
-16.44874572753931
 20
11.69223403930713
 30
0.0
 40
0.7975338697433001
100
AcDbArc
 50
177.7500022852638
 51
222.8384717761743
  0
ARC
  5
BB0B
330
1F
100
AcDbEntity
  8
AM_0
100
AcDbCircle
 10
-16.44874572753931
 20
11.69223403930713
 30
0.0
 40
0.7987674474716
100
AcDbArc
 50
222.8384717761743
 51
267.7499879277154
  0
LINE
  5
BB0C
330
1F
100
AcDbEntity
  8
AM_0
100
AcDbLine
 10
-16.48014450073233
 20
10.89285659790015
 30
0.0
 11
-16.47770309448233
 21
10.89276885986312
 31
0.0
  0
LINE
  5
BB0D
330
1F
100
AcDbEntity
  8
AM_0
100
AcDbLine
 10
-16.48007202148431
 20
10.89290237426813
 30
0.0
 11
-16.47801971435532
 21
10.89427566528313
 31
0.0
  0
LINE
  5
BB0E
330
1F
100
AcDbEntity
  8
AM_0
100
AcDbLine
 10
-17.19070434570333
 20
13.12246704101615
 30
0.0
 11
-17.24566650390633
 21
11.72354507446315
 31
0.0
  0
LINE
  5
BB0F
330
1F
100
AcDbEntity
  8
AM_0
100
AcDbLine
 10
-25.37196350097628
 20
13.72891235351614
 30
0.0
 11
-25.23477172851633
 21
17.65897369384814
 31
0.0
  0
LINE
  5
BB10
330
1F
100
AcDbEntity
  8
AM_0
100
AcDbLine
 10
-25.1890678405763
 20
14.92594909668014
 30
0.0
 11
-25.01343154907233
 21
18.84802436828613
 31
0.0
  0
LINE
  5
BB11
330
1F
100
AcDbEntity
  8
AM_0
100
AcDbLine
 10
-26.93347930908231
 20
11.57175445556612
 30
0.0
 11
-26.0549697875983
 21
17.34594345092813
 31
0.0
  0
LINE
  5
BB12
330
1F
100
AcDbEntity
  8
AM_0
100
AcDbLine
 10
-19.40548706054732
 20
18.85000038147015
 30
0.0
 11
-25.01974487304734
 21
18.85000038147013
 31
0.0
  0
LINE
  5
BB13
330
1F
100
AcDbEntity
  8
AM_0
100
AcDbLine
 10
-26.76559448242234
 20
19.41956901550313
 30
0.0
 11
-26.76764678955132
 21
19.41821289062511
 31
0.0
  0
LINE
  5
BB14
330
1F
100
AcDbEntity
  8
AM_0
100
AcDbLine
 10
-26.05497360229532
 20
17.34594726562514
 30
0.0
 11
-26.00001144409234
 21
18.66050148010313
 31
0.0
  0
LINE
  5
BB15
330
1F
100
AcDbEntity
  8
AM_0
100
AcDbLine
 10
-25.54886627197332
 20
13.26616668701212
 30
0.0
 11
-25.52509307861332
 21
13.24094390869112
 31
0.0
  0
LINE
  5
BB16
330
1F
100
AcDbEntity
  8
AM_0
100
AcDbLine
 10
-25.53610992431632
 20
13.21022033691412
 30
0.0
 11
-25.54886627197332
 21
13.26616668701212
 31
0.0
  0
LINE
  5
BB17
330
1F
100
AcDbEntity
  8
AM_0
100
AcDbLine
 10
-25.31510162353527
 20
13.96409988403314
 30
0.0
 11
-25.29020690918033
 21
14.25276947021513
 31
0.0
  0
LINE
  5
BB18
330
1F
100
AcDbEntity
  8
AM_0
100
AcDbLine
 10
-25.29020690918033
 20
14.25276565551815
 30
0.0
 11
-25.18906402587932
 21
14.92594909668014
 31
0.0
  0
LINE
  5
BB19
330
1F
100
AcDbEntity
  8
AM_0
100
AcDbLine
 10
-33.01847839355531
 20
10.44496536254911
 30
0.0
 11
-29.21092987060529
 21
10.33162689209012
 31
0.0
  0
LINE
  5
BB1A
330
1F
100
AcDbEntity
  8
AM_0
100
AcDbLine
 10
-27.31057739257829
 20
10.91215133667012
 30
0.0
 11
-26.93373870849633
 21
11.57004547119112
 31
0.0
  0
LINE
  5
BB1B
330
1F
100
AcDbEntity
  8
AM_0
100
AcDbLine
 10
-26.93373870849633
 20
11.57004165649414
 30
0.0
 11
-26.93303680419931
 21
11.57126998901412
 31
0.0
  0
LINE
  5
BB1C
330
1F
100
AcDbEntity
  8
AM_0
100
AcDbLine
 10
-26.93303680419931
 20
11.57127380371111
 30
0.0
 11
-26.93434143066429
 21
11.57269287109412
 31
0.0
  0
LINE
  5
BB1D
330
1F
100
AcDbEntity
  8
AM_0
100
AcDbLine
 10
-33.04191970825229
 20
10.09839630127012
 30
0.0
 11
-33.0184745788573
 21
10.44496536254911
 31
0.0
  0
LINE
  5
BB1E
330
1F
100
AcDbEntity
  8
AM_0
100
AcDbLine
 10
-43.09500694274928
 20
13.71817779541008
 30
0.0
 11
-42.29491996765132
 21
17.2518577575681
 31
0.0
  0
LINE
  5
BB1F
330
1F
100
AcDbEntity
  8
AM_0
100
AcDbLine
 10
-43.07404708862331
 20
14.17203140258807
 30
0.0
 11
-42.28412246704133
 21
17.6608314514161
 31
0.0
  0
LINE
  5
BB20
330
1F
100
AcDbEntity
  8
AM_0
100
AcDbLine
 10
-33.92294311523434
 20
19.0791244506841
 30
0.0
 11
-33.92288970947333
 21
19.08052825927711
 31
0.0
  0
LINE
  5
BB21
330
1F
100
AcDbEntity
  8
AM_0
100
AcDbLine
 10
-38.56374549865734
 20
18.78598976135309
 30
0.0
 11
-38.56243896484435
 21
18.78456878662107
 31
0.0
  0
LINE
  5
BB22
330
1F
100
AcDbEntity
  8
AM_0
100
AcDbLine
 10
-42.08740425109934
 20
17.49206161499009
 30
0.0
 11
-42.08850097656233
 21
17.4943923950201
 31
0.0
  0
LINE
  5
BB23
330
1F
100
AcDbEntity
  8
AM_0
100
AcDbLine
 10
-42.08850097656233
 20
17.49439620971708
 30
0.0
 11
-42.08719062805232
 21
17.49297714233409
 31
0.0
  0
LINE
  5
BB24
330
1F
100
AcDbEntity
  8
AM_0
100
AcDbLine
 10
-41.80376434326231
 20
10.48555755615208
 30
0.0
 11
-41.4190597534183
 21
9.171371459961108
 31
0.0
  0
LINE
  5
BB25
330
1F
100
AcDbEntity
  8
AM_0
100
AcDbLine
 10
-40.18588447570829
 20
10.65830612182611
 30
0.0
 11
-36.54236412048332
 21
10.5498542785641
 31
0.0
  0
LINE
  5
BB26
330
1F
100
AcDbEntity
  8
AM_0
100
AcDbLine
 10
-36.5159397125243
 20
10.36549758911109
 30
0.0
 11
-36.44291305542032
 21
10.36332321167011
 31
0.0
  0
LINE
  5
BB27
330
1F
100
AcDbEntity
  8
AM_0
100
AcDbLine
 10
-36.38030052185129
 20
10.24591064453109
 30
0.0
 11
-36.4429073333743
 21
10.36332321167011
 31
0.0
  0
LINE
  5
BB28
330
1F
100
AcDbEntity
  8
AM_0
100
AcDbLine
 10
-36.4506378173833
 20
10.24901580810511
 30
0.0
 11
-36.4429092407233
 21
10.36332321167011
 31
0.0
  0
LINE
  5
BB29
330
1F
100
AcDbEntity
  8
AM_0
100
AcDbLine
 10
-36.5018539428713
 20
10.25128173828109
 30
0.0
 11
-36.53755950927731
 21
10.54083251953109
 31
0.0
  0
LINE
  5
BB2A
330
1F
100
AcDbEntity
  8
AM_0
100
AcDbLine
 10
-36.53755569458031
 20
10.5408363342291
 30
0.0
 11
-36.5423603057863
 21
10.5498580932621
 31
0.0
  0
LINE
  5
BB2B
330
1F
100
AcDbEntity
  8
AM_0
100
AcDbLine
 10
-36.56238746643128
 20
10.2539558410641
 30
0.0
 11
-36.5423679351813
 21
10.5498580932621
 31
0.0
  0
LINE
  5
BB2C
330
1F
100
AcDbEntity
  8
AM_0
100
AcDbLine
 10
-35.20026206970231
 20
10.43249130249011
 30
0.0
 11
-35.20032310485832
 21
10.4310874938961
 31
0.0
  0
LINE
  5
BB2D
330
1F
100
AcDbEntity
  8
AM_0
100
AcDbLine
 10
-42.48007392883329
 20
10.62913131713909
 30
0.0
 11
-42.47801971435529
 21
10.63046646118209
 31
0.0
  0
LINE
  5
BB2E
330
1F
100
AcDbEntity
  8
AM_0
100
AcDbLine
 10
-42.4801464080813
 20
10.62908935546909
 30
0.0
 11
-42.47746849060129
 21
10.62905120849609
 31
0.0
  0
LINE
  5
BB2F
330
1F
100
AcDbEntity
  8
AM_0
100
AcDbLine
 10
-43.19070434570329
 20
12.7027778625491
 30
0.0
 11
-43.2456665039063
 21
11.38822555542008
 31
0.0
  0
LINE
  5
BB30
330
1F
100
AcDbEntity
  8
AM_0
100
AcDbLine
 10
-42.80412864685128
 20
10.69823074340807
 30
0.0
 11
-42.46263885498029
 21
10.5395469665531
 31
0.0
  0
LINE
  5
BB31
330
1F
100
AcDbEntity
  8
AM_0
100
AcDbLine
 10
-42.48014450073231
 20
10.62908554077108
 30
0.0
 11
-42.23505592346231
 21
10.51520156860408
 31
0.0
  0
LINE
  5
BB32
330
1F
100
AcDbEntity
  8
AM_0
100
AcDbLine
 10
-46.67806053161629
 20
13.04046630859409
 30
0.0
 11
-46.58434867858928
 21
12.72033309936507
 31
0.0
  0
LINE
  5
BB33
330
1F
100
AcDbEntity
  8
AM_0
100
AcDbLine
 10
-53.96919918060333
 20
18.84999656677204
 30
0.0
 11
-54.96919727325433
 21
17.84999847412107
 31
0.0
  0
LINE
  5
BB34
330
1F
100
AcDbEntity
  8
AM_0
100
AcDbLine
 10
-52.06877136230534
 20
18.85000038147005
 30
0.0
 11
-53.96920013427735
 21
18.85000038147004
 31
0.0
  0
LINE
  5
BB35
330
1F
100
AcDbEntity
  8
AM_0
100
AcDbLine
 10
-54.96920776367231
 20
15.50000000000009
 30
0.0
 11
-57.96920013427713
 21
15.50000000000005
 31
0.0
  0
LINE
  5
BB36
330
1F
100
AcDbEntity
  8
AM_3
100
AcDbLine
 10
-49.82658195495629
 20
-2.541835784911913
 30
0.0
 11
-5.752174377441287
 21
2.519962310791155
 31
0.0
  0
LINE
  5
BB37
330
1F
100
AcDbEntity
  8
AM_0
100
AcDbLine
 10
-13.76554489135724
 20
-19.41954803466785
 30
0.0
 11
-14.85610580444327
 21
-16.50778198242185
 31
0.0
  0
LINE
  5
BB38
330
1F
100
AcDbEntity
  8
AM_0
100
AcDbLine
 10
-14.85610961914128
 20
-16.50778961181584
 30
0.0
 11
-24.53855133056627
 21
-16.60443878173784
 31
0.0
  0
CIRCLE
  5
BB39
330
1F
100
AcDbEntity
  8
AM_0
100
AcDbCircle
 10
-5.538433074951268
 20
-7.46699523925784
 30
0.0
 40
1.75
  0
LINE
  5
BB3A
330
1F
100
AcDbEntity
  8
AM_0
100
AcDbLine
 10
-1.667800903320267
 20
-0.4782066345208453
 30
0.0
 11
-2.264228820801249
 21
-14.71115875244082
 31
0.0
  0
LINE
  5
BB3B
330
1F
100
AcDbEntity
  8
AM_0
100
AcDbLine
 10
-2.728019714355262
 20
-5.466995239257802
 30
0.0
 11
-2.937644958496298
 21
-9.466999053954809
 31
0.0
  0
LINE
  5
BB3C
330
1F
100
AcDbEntity
  8
AM_0
100
AcDbLine
 10
-1.326446533203302
 20
-1.671966552733847
 30
0.0
 11
-1.835144042969259
 21
-11.37852096557581
 31
0.0
  0
LINE
  5
BB3D
330
1F
100
AcDbEntity
  8
AM_3
100
AcDbLine
 10
-5.723648071289284
 20
2.271595001221156
 30
0.0
 11
-3.041786193848305
 21
2.579597473145193
 31
0.0
  0
LINE
  5
BB3E
330
1F
100
AcDbEntity
  8
AM_0
100
AcDbLine
 10
-5.538433074951276
 20
-5.466995239257841
 30
0.0
 11
-2.981124877930277
 21
-5.466995239257803
 31
0.0
  0
LINE
  5
BB3F
330
1F
100
AcDbEntity
  8
AM_0
100
AcDbLine
 10
-2.728019714355262
 20
-5.466995239257802
 30
0.0
 11
-2.981124877930277
 21
-5.466995239257803
 31
0.0
  0
LINE
  5
BB40
330
1F
100
AcDbEntity
  8
AM_0
100
AcDbLine
 10
-9.730083465576237
 20
-15.9619369506838
 30
0.0
 11
-8.572841644287237
 21
-14.53074645996083
 31
0.0
  0
LINE
  5
BB41
330
1F
100
AcDbEntity
  8
AM_0
100
AcDbLine
 10
-8.332004547119263
 20
-16.03520965576184
 30
0.0
 11
-9.730083465576237
 21
-15.9619369506838
 31
0.0
  0
LINE
  5
BB42
330
1F
100
AcDbEntity
  8
AM_0
100
AcDbLine
 10
-5.53843307495129
 20
-9.466995239257839
 30
0.0
 11
-3.007667541504281
 21
-9.466995239257801
 31
0.0
  0
LINE
  5
BB43
330
1F
100
AcDbEntity
  8
AM_0
100
AcDbLine
 10
-2.937652587891284
 20
-9.4669952392578
 30
0.0
 11
-3.007667541504281
 21
-9.466995239257801
 31
0.0
  0
LINE
  5
BB44
330
1F
100
AcDbEntity
  8
AM_0
100
AcDbLine
 10
-1.071868896484255
 20
-12.15523147582983
 30
0.0
 11
-1.835136413574244
 21
-11.3785171508788
 31
0.0
  0
LINE
  5
BB45
330
1F
100
AcDbEntity
  8
AM_0
100
AcDbLine
 10
-9.079006195068259
 20
-14.35401153564482
 30
0.0
 11
-2.809616088867257
 21
-14.68257904052682
 31
0.0
  0
LINE
  5
BB46
330
1F
100
AcDbEntity
  8
AM_0
100
AcDbLine
 10
-2.666038513184229
 20
-15.55783081054681
 30
0.0
 11
-8.332004547119263
 21
-16.03520965576184
 31
0.0
  0
LINE
  5
BB47
330
1F
100
AcDbEntity
  8
AM_0
100
AcDbLine
 10
-8.332004547119263
 20
-16.03520965576184
 30
0.0
 11
-3.632175445557221
 21
-14.78967285156181
 31
0.0
  0
LINE
  5
BB48
330
1F
100
AcDbEntity
  8
AM_0
100
AcDbLine
 10
-3.63217926025426
 20
-14.78967285156181
 30
0.0
 11
-8.572841644287237
 21
-14.53074645996083
 31
0.0
  0
LINE
  5
BB49
330
1F
100
AcDbEntity
  8
AM_0
100
AcDbLine
 10
-2.264236450195241
 20
-14.71115875244082
 30
0.0
 11
-2.809608459473238
 21
-14.68257904052682
 31
0.0
  0
LINE
  5
BB4A
330
1F
100
AcDbEntity
  8
AM_0
100
AcDbLine
 10
-3.63217926025426
 20
-14.78968048095682
 30
0.0
 11
-3.42790603637725
 21
-14.78254699706982
 31
0.0
  0
LINE
  5
BB4B
330
1F
100
AcDbEntity
  8
AM_0
100
AcDbLine
 10
-3.42790603637725
 20
-14.78253936767583
 30
0.0
 11
-2.666038513184229
 21
-15.55782318115182
 31
0.0
  0
LINE
  5
BB4C
330
1F
100
AcDbEntity
  8
AM_0
100
AcDbLine
 10
-2.666030883789243
 20
-15.55783081054681
 30
0.0
 11
-2.66461181640626
 21
-15.55927276611281
 31
0.0
  0
LINE
  5
BB4D
330
1F
100
AcDbEntity
  8
AM_0
100
AcDbLine
 10
-13.05496597290025
 20
-17.34593963622983
 30
0.0
 11
-13.35208511352522
 21
-15.83777618408186
 31
0.0
  0
LINE
  5
BB4E
330
1F
100
AcDbEntity
  8
AM_0
100
AcDbLine
 10
-13.00000000000024
 20
-18.66049957275384
 30
0.0
 11
-13.86640167236325
 21
-16.34724426269486
 31
0.0
  0
ARC
  5
BB4F
330
1F
100
AcDbEntity
  8
AM_0
100
AcDbCircle
 10
-9.688217163086234
 20
-15.16304016113279
 30
0.0
 40
0.8000003695487999
100
AcDbArc
 50
176.9999845485904
 51
221.9999670178097
  0
ARC
  5
BB50
330
1F
100
AcDbEntity
  8
AM_0
100
AcDbCircle
 10
-9.688217163086234
 20
-15.16304016113279
 30
0.0
 40
0.7999997735023002
100
AcDbArc
 50
221.9999670178097
 51
266.9999853455227
  0
LINE
  5
BB51
330
1F
100
AcDbEntity
  8
AM_0
100
AcDbLine
 10
-13.29229736328126
 20
-15.78604125976585
 30
0.0
 11
-13.05496978759825
 21
-17.34593963622983
 31
0.0
  0
LINE
  5
BB52
330
1F
100
AcDbEntity
  8
AM_0
100
AcDbLine
 10
-13.05496978759825
 20
-17.34594726562482
 30
0.0
 11
-13.00000381469723
 21
-18.66049957275384
 31
0.0
  0
LINE
  5
BB53
330
1F
100
AcDbEntity
  8
AM_0
100
AcDbLine
 10
-10.48711395263724
 20
-15.12116241455083
 30
0.0
 11
-9.876224517822221
 21
-14.36566162109382
 31
0.0
  0
LINE
  5
BB54
330
1F
100
AcDbEntity
  8
AM_0
100
AcDbLine
 10
-19.05056762695326
 20
-11.33790206909184
 30
0.0
 11
-18.97283172607423
 21
-13.19709777831985
 31
0.0
  0
LINE
  5
BB55
330
1F
100
AcDbEntity
  8
AM_0
100
AcDbLine
 10
-25.56371688842825
 20
-18.78592681884788
 30
0.0
 11
-24.53854751586929
 21
-16.60443878173784
 31
0.0
  0
LINE
  5
BB56
330
1F
100
AcDbEntity
  8
AM_0
100
AcDbLine
 10
-29.08718872070324
 20
-17.49297332763689
 30
0.0
 11
-29.14340972900424
 21
-17.24893188476588
 31
0.0
  0
LINE
  5
BB57
330
1F
100
AcDbEntity
  8
AM_0
100
AcDbLine
 10
-29.08658599853524
 20
-17.49032592773386
 30
0.0
 11
-29.14226531982425
 21
-17.24890899658185
 31
0.0
  0
LINE
  5
BB58
330
1F
100
AcDbEntity
  8
AM_0
100
AcDbLine
 10
-28.97158813476626
 20
-17.24560546874989
 30
0.0
 11
-29.08658599853524
 21
-17.49032592773386
 31
0.0
  0
LINE
  5
BB59
330
1F
100
AcDbEntity
  8
AM_0
100
AcDbLine
 10
-28.26609420776422
 20
-15.74437713622987
 30
0.0
 11
-28.28039550781223
 21
-15.77481079101587
 31
0.0
  0
LINE
  5
BB5A
330
1F
100
AcDbEntity
  8
AM_0
100
AcDbLine
 10
-29.08658218383823
 20
-17.49032592773386
 30
0.0
 11
-29.08849716186523
 21
-17.49439239501987
 31
0.0
  0
LINE
  5
BB5B
330
1F
100
AcDbEntity
  8
AM_3
100
AcDbLine
 10
-49.96920013427731
 20
3.000000000000081
 30
0.0
 11
-49.96920013427728
 21
-2.999999999999917
 31
0.0
  0
LINE
  5
BB5C
330
1F
100
AcDbEntity
  8
AM_0
100
AcDbLine
 10
-53.96920013427725
 20
-18.84999847412093
 30
0.0
 11
-53.96920013427729
 21
0.0000000000000657
 31
0.0
  0
LINE
  5
BB5D
330
1F
100
AcDbEntity
  8
AM_0
100
AcDbLine
 10
-54.96920013427725
 20
-17.84999847412091
 30
0.0
 11
-54.96920013427729
 21
0.0000000000000902
 31
0.0
  0
LINE
  5
BB5E
330
1F
100
AcDbEntity
  8
AM_0
100
AcDbLine
 10
-54.96919727325424
 20
-17.84999847412091
 30
0.0
 11
-53.96919918060326
 21
-18.84999847412093
 31
0.0
  0
LINE
  5
BB5F
330
1F
100
AcDbEntity
  8
AM_0
100
AcDbLine
 10
-52.44751548767124
 20
-18.76441955566393
 30
0.0
 11
-52.05049610137924
 21
-18.01854705810491
 31
0.0
  0
LINE
  5
BB60
330
1F
100
AcDbEntity
  8
AM_0
100
AcDbLine
 10
-53.16797924041726
 20
-18.26111602783192
 30
0.0
 11
-53.07997417449925
 21
-18.12213897705093
 31
0.0
  0
LINE
  5
BB61
330
1F
100
AcDbEntity
  8
AM_0
100
AcDbLine
 10
-53.96920013427725
 20
-18.84999847412093
 30
0.0
 11
-52.21595001220726
 21
-18.84999847412093
 31
0.0
  0
LINE
  5
BB62
330
1F
100
AcDbEntity
  8
AM_0
100
AcDbLine
 10
-57.96920013427704
 20
-15.49999999999994
 30
0.0
 11
-54.96920776367222
 21
-15.49999999999993
 31
0.0
  0
LINE
  5
BB65
330
1F
100
AcDbEntity
  8
AM_3
100
AcDbLine
 10
-237.0000000000001
 20
-3.000000000000306
 30
0.0
 11
-49.96920013427728
 21
-2.999999999999917
 31
0.0
  0
LINE
  5
BB66
330
1F
100
AcDbEntity
  8
AM_3
100
AcDbLine
 10
-237.0
 20
2.999999999999691
 30
0.0
 11
-49.96920013427731
 21
3.000000000000081
 31
0.0
  0
LINE
  5
BB67
330
1F
100
AcDbEntity
  8
AM_0
100
AcDbLine
 10
-237.0000000000001
 20
15.99999999999969
 30
0.0
 11
-57.96920013427713
 21
16.00000000000004
 31
0.0
  0
LINE
  5
BB68
330
1F
100
AcDbEntity
  8
AM_0
100
AcDbLine
 10
-237.0000000000001
 20
-16.0000000000003
 30
0.0
 11
-57.96920013427704
 21
-15.99999999999994
 31
0.0
  0
LINE
  5
BB6B
330
1F
100
AcDbEntity
  8
AM_3
100
AcDbLine
 10
-237.0
 20
2.999999999999691
 30
0.0
 11
-240.0000000000001
 21
4.732051849364687
 31
0.0
  0
LINE
  5
BB6C
330
1F
100
AcDbEntity
  8
AM_0
100
AcDbLine
 10
-237.0000000000001
 20
15.99999999999969
 30
0.0
 11
-237.0000000000001
 21
-16.0000000000003
 31
0.0
  0
LINE
  5
BB6D
330
1F
100
AcDbEntity
  8
AM_0
100
AcDbLine
 10
-240.0000000000002
 20
13.66149902343766
 30
0.0
 11
-240.0000000000002
 21
-13.66149902343733
 31
0.0
  0
ARC
  5
BB6E
330
1F
100
AcDbEntity
  8
AM_0
100
AcDbCircle
 10
-238.0000000000002
 20
13.66149902343766
 30
0.0
 40
2.000000476837199
100
AcDbArc
 50
105.0000218185961
 51
180.0
  0
LINE
  5
BB6F
330
1F
100
AcDbEntity
  8
AM_0
100
AcDbLine
 10
-236.9999923706001
 20
16.0000038146967
 30
0.0
 11
-238.5176544189401
 21
15.59335327148369
 31
0.0
  0
LINE
  5
BB70
330
1F
100
AcDbEntity
  8
AM_3
100
AcDbLine
 10
-237.0000000000001
 20
-3.000000000000306
 30
0.0
 11
-239.9999923706001
 21
-4.732048034668316
 31
0.0
  0
LINE
  5
BB71
330
1F
100
AcDbEntity
  8
AM_0
100
AcDbLine
 10
-238.5176391601501
 20
-15.59334564209029
 30
0.0
 11
-237.0000076293901
 21
-15.99999237060529
 31
0.0
  0
ARC
  5
BB72
330
1F
100
AcDbEntity
  8
AM_0
100
AcDbCircle
 10
-238.0000000000002
 20
-13.66149902343732
 30
0.0
 40
2.0
100
AcDbArc
 50
180.0
 51
254.9999781814042
  0
DIMENSION
  5
BC70
330
1F
100
AcDbEntity
  8
AM_5
100
AcDbDimension
  2
*D2
 10
-0.0000000000003028
 20
34.00000100000016
 30
0.0
 11
-19.50000000000027
 21
37.10000100000018
 31
0.0
 70
    32
  1
<>
 71
     5
 42
-1.0
 51
359.9999999999998
  3
AM_JIS$0
100
AcDbAlignedDimension
 13
-39.00000000000027
 23
20.00000000000008
 33
0.0
 14
-0.0000000000003285
 24
20.00000000000016
 34
0.0
 50
180.0
100
AcDbRotatedDimension
1001
GENIUS_GENDTOL_13
1000

1000
h7
1000

1040
0.0
1001
ACAD
1000
DSTYLE
1002
{
1070
   287
1070
     3
1070
   147
1040
3.0
1070
    44
1040
2.0
1070
    41
1040
5.0
1070
    40
1040
0.5
1070
    42
1040
2.0
1070
    43
1040
12.0
1070
    48
1040
0.1
1070
    78
1070
     8
1070
   140
1040
6.4
1070
   176
1070
   256
1070
   177
1070
   256
1070
   271
1070
     1
1070
   272
1070
     3
1070
   275
1070
     0
1070
   284
1070
     0
1070
   289
1070
     3
1070
   340
1005
6B
1070
   371
1070
    -1
1070
   372
1070
    -1
1002
}
  0
DIMENSION
  5
BD09
330
1F
100
AcDbEntity
  8
AM_5
100
AcDbDimension
  2
*D3
 10
16.02549080712871
 20
-19.99999999999984
 30
0.0
 11
12.92549080712872
 21
0.0000000000001646
 31
0.0
 70
    32
  1
%%c<>
 71
     5
 42
-1.0
 51
359.9999999999998
  3
AM_JIS$0
100
AcDbAlignedDimension
 13
-0.0000000000002776
 23
20.00000000000016
 33
0.0
 14
-0.0000000000002008
 24
-19.99999999999983
 34
0.0
 50
90.0
100
AcDbRotatedDimension
1001
GENIUS_GENDTOL_13
1000

1000
h7
1000

1040
0.0
1001
ACAD
1000
DSTYLE
1002
{
1070
   287
1070
     3
1070
   147
1040
3.0
1070
    44
1040
2.0
1070
    41
1040
5.0
1070
    40
1040
0.5
1070
    42
1040
2.0
1070
    43
1040
12.0
1070
    48
1040
0.1
1070
    78
1070
     8
1070
   140
1040
6.4
1070
   176
1070
   256
1070
   177
1070
   256
1070
   271
1070
     0
1070
   272
1070
     3
1070
   275
1070
     0
1070
   284
1070
     0
1070
   289
1070
     3
1070
   340
1005
6B
1070
   371
1070
    -1
1070
   372
1070
    -1
1002
}
  0
DIMENSION
  5
BDB0
330
1F
100
AcDbEntity
  8
AM_5
100
AcDbDimension
  2
*D4
 10
-54.96920013427725
 20
-34.00000099999991
 30
0.0
 11
-27.48460006713873
 21
-30.90000099999991
 31
0.0
 70
    32
  1
<>
 71
     5
 42
-1.0
 51
359.9999999999998
  3
AM_JIS$0
100
AcDbAlignedDimension
 13
-0.0000000000002009
 23
-19.99999999999983
 33
0.0
 14
-54.96920013427725
 24
-17.84999847412095
 34
0.0
100
AcDbRotatedDimension
1001
GENIUS_GENDTOL_13
1000

1000
h7
1000

1040
0.0
1001
ACAD
1000
DSTYLE
1002
{
1070
   287
1070
     3
1070
   147
1040
3.0
1070
    44
1040
2.0
1070
    41
1040
5.0
1070
    40
1040
0.5
1070
    42
1040
2.0
1070
    43
1040
12.0
1070
    48
1040
0.1
1070
    78
1070
     8
1070
   140
1040
6.4
1070
   176
1070
   256
1070
   177
1070
   256
1070
   271
1070
     1
1070
   272
1070
     3
1070
   275
1070
     0
1070
   284
1070
     0
1070
   289
1070
     3
1070
   340
1005
6B
1070
   371
1070
    -1
1070
   372
1070
    -1
1002
}
  0
DIMENSION
  5
BE45
330
1F
100
AcDbEntity
  8
AM_5
100
AcDbDimension
  2
*D5
 10
-240.0000004768373
 20
-34.00000099999991
 30
0.0
 11
-147.4845988750458
 21
-30.90000099999991
 31
0.0
 70
    32
  1
<>
 71
     5
 42
-1.0
 51
359.9999999999998
  3
AM_JIS$0
100
AcDbAlignedDimension
 13
-54.96919727325425
 23
-17.84999847412095
 33
0.0
 14
-240.0000004768373
 24
-13.66149902343826
 34
0.0
100
AcDbRotatedDimension
1001
GENIUS_GENDTOL_13
1000

1000
h7
1000

1040
0.0
1001
ACAD
1000
DSTYLE
1002
{
1070
   287
1070
     3
1070
   147
1040
3.0
1070
    44
1040
2.0
1070
    41
1040
5.0
1070
    40
1040
0.5
1070
    42
1040
2.0
1070
    43
1040
12.0
1070
    48
1040
0.1
1070
    78
1070
     8
1070
   140
1040
6.4
1070
   176
1070
   256
1070
   177
1070
   256
1070
   271
1070
     1
1070
   272
1070
     3
1070
   275
1070
     0
1070
   284
1070
     0
1070
   289
1070
     3
1070
   340
1005
6B
1070
   371
1070
    -1
1070
   372
1070
    -1
1002
}
  0
DIMENSION
  5
BEE3
330
1F
100
AcDbEntity
  8
AM_5
100
AcDbDimension
  2
*D6
 10
-240.0000004768373
 20
-44.0000009999999
 30
0.0
 11
-120.0000002384187
 21
-40.9000009999999
 31
0.0
 70
    32
  1
<>
 71
     5
 42
-1.0
 51
359.9999999999998
  3
AM_JIS$0
100
AcDbAlignedDimension
 13
-0.0000000000002009
 23
-19.99999999999983
 33
0.0
 14
-240.0000004768373
 24
-13.66149902343826
 34
0.0
100
AcDbRotatedDimension
1001
GENIUS_GENDTOL_13
1000

1000
h7
1000

1040
0.0
1001
ACAD
1000
DSTYLE
1002
{
1070
   287
1070
     3
1070
   147
1040
3.0
1070
    44
1040
2.0
1070
    41
1040
5.0
1070
    40
1040
0.5
1070
    42
1040
2.0
1070
    43
1040
12.0
1070
    48
1040
0.1
1070
    78
1070
     8
1070
   140
1040
6.4
1070
   176
1070
   256
1070
   177
1070
   256
1070
   271
1070
     1
1070
   272
1070
     3
1070
   275
1070
     0
1070
   284
1070
     0
1070
   289
1070
     3
1070
   340
1005
6B
1070
   371
1070
    -1
1070
   372
1070
    -1
1002
}
  0
DIMENSION
  5
BF78
330
1F
100
AcDbEntity
  8
AM_5
100
AcDbDimension
  2
*D7
 10
-259.5288307890521
 20
-16.00000381469729
 30
0.0
 11
-262.6288307890522
 21
-0.0000019073488253
 31
0.0
 70
    32
  1
%%c<>
 71
     5
 42
-1.0
 51
359.9999999999998
  3
AM_JIS$0
100
AcDbAlignedDimension
 13
-237.0000000000002
 23
15.99999999999971
 33
0.0
 14
-236.9999923706001
 24
-16.00000381469729
 34
0.0
 50
270.0
100
AcDbRotatedDimension
1001
GENIUS_GENDTOL_13
1000

1000
h7
1000

1040
0.0
1001
ACAD
1000
DSTYLE
1002
{
1070
   287
1070
     3
1070
   147
1040
3.0
1070
    44
1040
2.0
1070
    41
1040
5.0
1070
    40
1040
0.5
1070
    42
1040
2.0
1070
    43
1040
12.0
1070
    48
1040
0.1
1070
    78
1070
     8
1070
   140
1040
6.4
1070
   176
1070
   256
1070
   177
1070
   256
1070
   271
1070
     1
1070
   272
1070
     3
1070
   275
1070
     0
1070
   284
1070
     0
1070
   289
1070
     3
1070
   340
1005
6B
1070
   371
1070
    -1
1070
   372
1070
    -1
1002
}
  0
LINE
  5
C259
330
1F
100
AcDbEntity
  8
AM_11
100
AcDbLine
 10
-0.0000000000001993
 20
-19.99999999999984
 30
0.0
 11
-0.000000000000279
 21
20.00000000000016
 31
0.0
  0
LINE
  5
C265
330
1F
100
AcDbEntity
  8
AM_11
100
AcDbLine
 10
-39.00000000000019
 20
-19.9999999999999
 30
0.0
 11
-39.00000000000027
 21
20.00000000000008
 31
0.0
  0
LINE
  5
C277
330
1F
100
AcDbEntity
  8
AM_11
100
AcDbLine
 10
-0.0000000000001995
 20
-19.99999999999982
 30
0.0
 11
-39.00000000000019
 21
-19.9999999999999
 31
0.0
  0
LINE
  5
C27B
330
1F
100
AcDbEntity
  8
AM_11
100
AcDbLine
 10
-39.00000000000027
 20
20.00000000000009
 30
0.0
 11
-0.0000000000002771
 21
20.00000000000016
 31
0.0
  0
VIEWPORT
  5
110
102
{ACAD_XDICTIONARY
360
C4C4
102
}
330
101
100
AcDbEntity
 67
     1
  8
0
100
AcDbViewport
 10
420.5
 20
297.0
 30
0.0
 40
948.9782706766916
 41
628.452
 68
     1
 69
     1
 12
420.5
 22
297.0
 13
0.0
 23
0.0
 14
10.0
 24
10.0
 15
10.0
 25
10.0
 16
0.0
 26
0.0
 36
1.0
 17
0.0
 27
0.0
 37
0.0
 42
50.0
 43
0.0
 44
0.0
 45
628.452
 50
0.0
 51
0.0
 72
   100
 90
    32800
  1

281
     0
 71
     1
 74
     0
110
-0.0000000000002682
120
0.000000000000161
130
0.0
111
1.0
121
0.000000000000002
131
0.0
112
-0.000000000000002
122
1.0
132
0.0
 79
     0
146
0.0
1001
GENIUS_GENSCREG_15
1000
PF
1040
1.0
1000
DF
1040
1.0
1000
MIN
1011
-53.98913533834582
1021
-17.226
1031
0.0
1000
MAX
1011
894.9891353383458
1021
611.226
1031
0.0
1000
FLAGS
1070
     4
1001
GENIUS_GENODEF_13
1002
{
1000
HIER
1070
     0
1002
}
1002
{
1000
MANEDIT
1070
     0
1002
}
1002
{
1000
NOSEL
1070
     0
1002
}
1002
{
1000
BEHIND
1070
     0
1002
}
1002
{
1000
OTHER
1070
     0
1002
}
1002
{
1000
REACTOR
1002
}
1001
GENIUS_GENOBJ-N-SDF_13
1002
{
1000
OWNER
1000
GEN
1002
}
  0
ENDSEC
  0
SECTION
  2
OBJECTS
  0
DICTIONARY
  5
C
330
0
100
AcDbDictionary
281
     1
  3
ACAD_COLOR
350
C3F5
  3
ACAD_GROUP
350
D
  3
ACAD_LAYOUT
350
1A
  3
ACAD_MATERIAL
350
C3F4
  3
ACAD_MLINESTYLE
350
17
  3
ACAD_PLOTSETTINGS
350
19
  3
ACAD_PLOTSTYLENAME
350
E
  3
ACAD_TABLESTYLE
350
C3F6
  3
ACDBHEADERROUNDTRIPXREC
350
C4C3
  3
ACDBVARIABLEDICTIONARY
350
34
  3
ACMDICTIONARY
350
43
  3
AMG
350
2B
  3
AMGSNAPSETTINGS
350
6E
  3
DWGPROPS
350
C4C2
  0
DICTIONARY
  5
74
330
1F
100
AcDbDictionary
280
     1
281
     1
  3
ACAD_INDEX
360
C383
  3
ACAD_LAYOUTSELFREF
360
C3B1
  0
DICTIONARY
  5
C3B6
330
101
100
AcDbDictionary
280
     1
281
     1
  3
ACAD_LAYOUTSELFREF
360
C3B7
  0
DICTIONARY
  5
C4C4
330
110
100
AcDbDictionary
280
     1
281
     1
  3
ACAD_XREC_ROUNDTRIP
360
C4C5
  0
DICTIONARY
  5
C3F5
102
{ACAD_REACTORS
330
C
102
}
330
C
100
AcDbDictionary
281
     1
  0
DICTIONARY
  5
D
102
{ACAD_REACTORS
330
C
102
}
330
C
100
AcDbDictionary
281
     1
  0
DICTIONARY
  5
1A
102
{ACAD_REACTORS
330
C
102
}
330
C
100
AcDbDictionary
281
     1
  3
Model
350
C3F8
  3
レイアウト1
350
C3F9
  0
DICTIONARY
  5
C3F4
102
{ACAD_REACTORS
330
C
102
}
330
C
100
AcDbDictionary
281
     1
  0
DICTIONARY
  5
17
102
{ACAD_REACTORS
330
C
102
}
330
C
100
AcDbDictionary
281
     1
  3
STANDARD
350
18
  0
DICTIONARY
  5
19
102
{ACAD_REACTORS
330
C
102
}
330
C
100
AcDbDictionary
281
     1
  3
ASAMI
350
399D
  0
ACDBDICTIONARYWDFLT
  5
E
102
{ACAD_REACTORS
330
C
102
}
330
C
100
AcDbDictionary
281
     1
  3
Normal
350
F
100
AcDbDictionaryWithDefault
340
F
  0
DICTIONARY
  5
C3F6
102
{ACAD_REACTORS
330
C
102
}
330
C
100
AcDbDictionary
281
     1
  3
Standard
350
C3F7
  0
DICTIONARY
  5
C4C3
102
{ACAD_REACTORS
330
C
102
}
330
C
100
AcDbDictionary
281
     1
  0
DICTIONARY
  5
34
102
{ACAD_REACTORS
330
C
102
}
330
C
100
AcDbDictionary
281
     1
  3
CTABLESTYLE
350
C4BE
  3
DIMASSOC
350
C4BF
  3
INDEXCTL
350
35
  3
PROJECTNAME
350
C4C0
  3
SORTENTS
350
B5E
  0
DICTIONARY
  5
43
102
{ACAD_REACTORS
330
C
102
}
330
C
100
AcDbDictionary
281
     1
  3
ACMSTDDICTIONARY
350
260
  0
DICTIONARY
  5
2B
102
{ACAD_REACTORS
330
C
102
}
330
C
100
AcDbDictionary
281
     1
  0
DICTIONARY
  5
6E
102
{ACAD_REACTORS
330
C
102
}
330
C
100
AcDbDictionary
281
     1
  0
XRECORD
  5
C4C2
102
{ACAD_REACTORS
330
C
102
}
330
C
100
AcDbXrecord
280
     1
  1
DWGPROPS COOKIE
  2

  3

  4

  6

  7

  8
那須
  9

300
AmdtFileType=82
301
=
302
=
303
=
304
=
305
=
306
=
307
=
308
=
309
=
 40
0.968229398148148
 41
2452802.716478762
 42
2453691.655909468
  1

 90
        1
  0
DICTIONARY
  5
C383
102
{ACAD_REACTORS
330
74
102
}
330
74
100
AcDbDictionary
281
     1
  3
*A1
350
C384
  0
XRECORD
  5
C3B1
102
{ACAD_REACTORS
330
74
102
}
330
74
100
AcDbXrecord
280
     1
340
1F
  0
XRECORD
  5
C3B7
102
{ACAD_REACTORS
330
C3B6
102
}
330
C3B6
100
AcDbXrecord
280
     1
340
101
  0
XRECORD
  5
C4C5
102
{ACAD_REACTORS
330
C4C4
102
}
330
C4C4
100
AcDbXrecord
280
     1
102
SHADEPLOT
 70
     0
  0
LAYOUT
  5
C3F8
102
{ACAD_XDICTIONARY
360
C4C8
102
}
102
{ACAD_REACTORS
330
1A
102
}
330
1A
100
AcDbPlotSettings
  1

  2
SII LP-2150 (D-SCAN C2)
  4

  6

 40
0.0
 41
0.0
 42
0.0
 43
0.0
 44
0.0
 45
0.0
 46
0.0
 47
0.0
 48
0.0
 49
0.0
140
0.0
141
0.0
142
1.0
143
1.0
 70
  1712
 72
     0
 73
     0
 74
     0
  7
sei_cad.ctb
 75
     0
147
1.0
148
0.0
149
0.0
100
AcDbLayout
  1
Model
 70
     1
 71
     0
 10
0.0
 20
0.0
 11
12.0
 21
9.0
 12
0.0
 22
0.0
 32
0.0
 14
0.0
 24
0.0
 34
0.0
 15
0.0
 25
0.0
 35
0.0
146
0.0
 13
0.0
 23
0.0
 33
0.0
 16
1.0
 26
0.0
 36
0.0
 17
0.0
 27
1.0
 37
0.0
 76
     0
330
1F
  0
LAYOUT
  5
C3F9
102
{ACAD_XDICTIONARY
360
C4CA
102
}
102
{ACAD_REACTORS
330
1A
102
}
330
1A
100
AcDbPlotSettings
  1

  2
SII LP-2150 (D-SCAN C2)
  4

  6

 40
0.0
 41
0.0
 42
0.0
 43
0.0
 44
0.0
 45
0.0
 46
0.0
 47
0.0
 48
0.0
 49
0.0
140
0.0
141
0.0
142
1.0
143
1.0
 70
   688
 72
     0
 73
     0
 74
     5
  7
sei_cad.ctb
 75
    16
147
1.0
148
0.0
149
0.0
100
AcDbLayout
  1
レイアウト1
 70
     0
 71
     1
 10
0.0
 20
0.0
 11
841.0
 21
594.0
 12
0.0
 22
0.0
 32
0.0
 14
1.000000000000000E+20
 24
1.000000000000000E+20
 34
1.000000000000000E+20
 15
-1.000000000000000E+20
 25
-1.000000000000000E+20
 35
-1.000000000000000E+20
146
0.0
 13
0.0
 23
0.0
 33
0.0
 16
1.0
 26
0.0
 36
0.0
 17
0.0
 27
1.0
 37
0.0
 76
     0
330
101
331
110
  0
MLINESTYLE
  5
18
102
{ACAD_REACTORS
330
17
102
}
330
17
100
AcDbMlineStyle
  2
STANDARD
 70
     0
  3

 62
   256
 51
90.0
 52
90.0
 71
     2
 49
0.5
 62
   256
  6
BYLAYER
 49
-0.5
 62
   256
  6
BYLAYER
  0
PLOTSETTINGS
  5
399D
102
{ACAD_XDICTIONARY
360
C4C6
102
}
102
{ACAD_REACTORS
330
19
102
}
330
19
100
AcDbPlotSettings
  1
asami
  2
RICOH imagio MF1540
  4
A4
  6

 40
5.831416606903076
 41
7.651742935180664
 42
4.90008544921875
 43
5.789077758789062
 44
296.9683227539062
 45
209.9733276367186
 46
0.0
 47
0.0
 48
-156.6707931774246
 49
-74.57609991074048
140
58.59973180214831
141
60.61068161925597
142
1.0
143
1.095343097833084
 70
  1712
 72
     1
 73
     1
 74
     4
  7
asami.ctb
 75
     0
147
0.9129559514076438
148
156.6707931774246
149
74.57609991074048
  0
ACDBPLACEHOLDER
  5
F
102
{ACAD_REACTORS
330
E
102
}
330
E
  0
TABLESTYLE
  5
C3F7
102
{ACAD_REACTORS
330
C3F6
102
}
330
C3F6
100
AcDbTableStyle
  3
Standard
 70
     0
 71
     0
 40
1.5
 41
1.5
280
     0
281
     0
  7
STANDARD
140
4.5
170
     2
 62
     0
 63
     7
283
     0
274
    -2
284
     1
 64
     0
275
    -2
285
     1
 65
     0
276
    -2
286
     1
 66
     0
277
    -2
287
     1
 67
     0
278
    -2
288
     1
 68
     0
279
    -2
289
     1
 69
     0
  7
STANDARD
140
6.0
170
     5
 62
     0
 63
     7
283
     0
274
    -2
284
     1
 64
     0
275
    -2
285
     1
 65
     0
276
    -2
286
     1
 66
     0
277
    -2
287
     1
 67
     0
278
    -2
288
     1
 68
     0
279
    -2
289
     1
 69
     0
  7
STANDARD
140
4.5
170
     5
 62
     0
 63
     7
283
     0
274
    -2
284
     1
 64
     0
275
    -2
285
     1
 65
     0
276
    -2
286
     1
 66
     0
277
    -2
287
     1
 67
     0
278
    -2
288
     1
 68
     0
279
    -2
289
     1
 69
     0
  0
DICTIONARYVAR
  5
C4BE
102
{ACAD_REACTORS
330
34
102
}
330
34
100
DictionaryVariables
280
     0
  1
STANDARD
  0
DICTIONARYVAR
  5
C4BF
102
{ACAD_REACTORS
330
34
102
}
330
34
100
DictionaryVariables
280
     0
  1
1
  0
DICTIONARYVAR
  5
35
102
{ACAD_REACTORS
330
34
102
}
330
34
100
DictionaryVariables
280
     0
  1
1
  0
DICTIONARYVAR
  5
C4C0
102
{ACAD_REACTORS
330
34
102
}
330
34
100
DictionaryVariables
280
     0
  1

  0
DICTIONARYVAR
  5
B5E
102
{ACAD_REACTORS
330
34
102
}
330
34
100
DictionaryVariables
280
     0
  1
96
  0
DICTIONARY
  5
260
102
{ACAD_REACTORS
330
43
102
}
330
43
100
AcDbDictionary
281
     1
  0
LAYER_INDEX
  5
C384
102
{ACAD_REACTORS
330
C383
102
}
330
C383
100
AcDbIndex
 40
2453691.655909468
100
AcDbLayerIndex
  8
0
360
C385
 90
        0
  8
AM_0
360
C386
 90
      272
  8
AM_5
360
C387
 90
        6
  8
AM_7
360
C388
 90
        1
  8
AM_6
360
C389
 90
        1
  8
DEFPOINTS
360
C38A
 90
        0
  8
AM_3
360
C38B
 90
       11
  8
AM_11
360
C38C
 90
        4
  0
DICTIONARY
  5
C4C8
330
C3F8
100
AcDbDictionary
280
     1
281
     1
  3
ACAD_XREC_ROUNDTRIP
360
C4C9
  0
DICTIONARY
  5
C4CA
330
C3F9
100
AcDbDictionary
280
     1
281
     1
  3
ACAD_XREC_ROUNDTRIP
360
C4CB
  0
DICTIONARY
  5
C4C6
330
399D
100
AcDbDictionary
280
     1
281
     1
  3
ACAD_XREC_ROUNDTRIP
360
C4C7
  0
IDBUFFER
  5
C385
330
0
100
AcDbIdBuffer
  0
IDBUFFER
  5
C386
330
0
100
AcDbIdBuffer
330
B91C
330
B91F
330
B920
330
B923
330
B924
330
B925
330
B926
330
B927
330
B928
330
B929
330
B92A
330
B92B
330
B92C
330
B92D
330
B92E
330
B92F
330
B930
330
B931
330
B932
330
B933
330
B934
330
B935
330
B936
330
B937
330
B938
330
B939
330
B93A
330
B93B
330
B93C
330
B93D
330
B93E
330
B93F
330
B940
330
B941
330
B942
330
B943
330
B944
330
B945
330
B946
330
B947
330
B948
330
B949
330
B94A
330
B94B
330
B94C
330
B94D
330
B94E
330
B94F
330
B950
330
B951
330
B956
330
B975
330
B976
330
B977
330
B978
330
B979
330
B97A
330
B97B
330
B97C
330
B97D
330
B97E
330
B97F
330
B980
330
B985
330
B986
330
B987
330
B988
330
B989
330
B98A
330
B98B
330
B98C
330
B98D
330
B99B
330
B99C
330
B99D
330
B99E
330
B99F
330
B9A0
330
B9A1
330
B9A2
330
B9A3
330
B9A4
330
B9A5
330
B9A6
330
B9A7
330
B9AD
330
B9AE
330
B9AF
330
B9B0
330
B9B1
330
B9B2
330
B9B3
330
B9B4
330
B9B5
330
B9B6
330
B9B7
330
B9B8
330
B9B9
330
B9BA
330
B9BB
330
B9BC
330
B9BD
330
B9BE
330
B9BF
330
B9C0
330
B9C1
330
B9C6
330
B9C7
330
B9C8
330
B9C9
330
B9CA
330
B9D0
330
B9D1
330
B9D2
330
B9D3
330
B9EE
330
B9EF
330
B9F0
330
B9F1
330
B9F2
330
B9F3
330
B9F4
330
B9F5
330
B9F6
330
B9F7
330
B9F8
330
B9FD
330
B9FE
330
B9FF
330
BA00
330
BA01
330
BA02
330
BA2B
330
BA2C
330
BA2D
330
BA85
330
BA86
330
BA87
330
BA88
330
BA89
330
BA8A
330
BAE2
330
BAE3
330
BAE6
330
BAE7
330
BAE8
330
BAE9
330
BAEA
330
BAEB
330
BAEC
330
BAED
330
BAEE
330
BAEF
330
BAF0
330
BAF1
330
BAF2
330
BAF3
330
BAF4
330
BAF5
330
BAF6
330
BAF7
330
BAF8
330
BAF9
330
BAFA
330
BAFB
330
BAFC
330
BAFD
330
BAFE
330
BAFF
330
BB00
330
BB02
330
BB03
330
BB04
330
BB05
330
BB06
330
BB07
330
BB08
330
BB09
330
BB0A
330
BB0B
330
BB0C
330
BB0D
330
BB0E
330
BB0F
330
BB10
330
BB11
330
BB12
330
BB13
330
BB14
330
BB15
330
BB16
330
BB17
330
BB18
330
BB19
330
BB1A
330
BB1B
330
BB1C
330
BB1D
330
BB1E
330
BB1F
330
BB20
330
BB21
330
BB22
330
BB23
330
BB24
330
BB25
330
BB26
330
BB27
330
BB28
330
BB29
330
BB2A
330
BB2B
330
BB2C
330
BB2D
330
BB2E
330
BB2F
330
BB30
330
BB31
330
BB32
330
BB33
330
BB34
330
BB35
330
BB37
330
BB38
330
BB39
330
BB3A
330
BB3B
330
BB3C
330
BB3E
330
BB3F
330
BB40
330
BB41
330
BB42
330
BB43
330
BB44
330
BB45
330
BB46
330
BB47
330
BB48
330
BB49
330
BB4A
330
BB4B
330
BB4C
330
BB4D
330
BB4E
330
BB4F
330
BB50
330
BB51
330
BB52
330
BB53
330
BB54
330
BB55
330
BB56
330
BB57
330
BB58
330
BB59
330
BB5A
330
BB5C
330
BB5D
330
BB5E
330
BB5F
330
BB60
330
BB61
330
BB62
330
BB67
330
BB68
330
BB6C
330
BB6D
330
BB6E
330
BB6F
330
BB71
330
BB72
  0
IDBUFFER
  5
C387
330
0
100
AcDbIdBuffer
330
BC70
330
BD09
330
BDB0
330
BE45
330
BEE3
330
BF78
  0
IDBUFFER
  5
C388
330
0
100
AcDbIdBuffer
330
B916
  0
IDBUFFER
  5
C389
330
0
100
AcDbIdBuffer
330
388D
  0
IDBUFFER
  5
C38A
330
0
100
AcDbIdBuffer
  0
IDBUFFER
  5
C38B
330
0
100
AcDbIdBuffer
330
B9D7
330
B9D8
330
BAE5
330
BB01
330
BB36
330
BB3D
330
BB5B
330
BB65
330
BB66
330
BB6B
330
BB70
  0
IDBUFFER
  5
C38C
330
0
100
AcDbIdBuffer
330
C259
330
C265
330
C277
330
C27B
  0
XRECORD
  5
C4C9
102
{ACAD_REACTORS
330
C4C8
102
}
330
C4C8
100
AcDbXrecord
280
     1
102
SHADEPLOT
 70
     0
102
SHADEPLOTRESLEVEL
 70
     2
102
SHADEPLOTCUSTOMDPI
 70
   300
  0
XRECORD
  5
C4CB
102
{ACAD_REACTORS
330
C4CA
102
}
330
C4CA
100
AcDbXrecord
280
     1
102
SHADEPLOT
 70
     0
102
SHADEPLOTRESLEVEL
 70
     2
102
SHADEPLOTCUSTOMDPI
 70
   300
  0
XRECORD
  5
C4C7
102
{ACAD_REACTORS
330
C4C6
102
}
330
C4C6
100
AcDbXrecord
280
     1
102
SHADEPLOT
 70
     0
102
SHADEPLOTRESLEVEL
 70
     2
102
SHADEPLOTCUSTOMDPI
 70
   300
  0
ENDSEC
  0
EOF
