  0
SECTION
  2
HEADER
  9
$ACADVER
  1
AC1014
  9
$ACADMAINTVER
 70
     9
  9
$DWGCODEPAGE
  3
ANSI_932
  9
$INSBASE
 10
0.0
 20
0.0
 30
0.0
  9
$EXTMIN
 10
-143.813704707461
 20
-35.75000347260921
 30
-0.00000001
  9
$EXTMAX
 10
12.14999999999977
 20
21.85000000000014
 30
0.00000001
  9
$LIMMIN
 10
-164.2340850214743
 20
-79.89783713479448
  9
$LIMMAX
 10
86.56670104758587
 20
55.95006810812799
  9
$ORTHOMODE
 70
     0
  9
$REGENMODE
 70
     1
  9
$FILLMODE
 70
     1
  9
$QTEXTMODE
 70
     0
  9
$MIRRTEXT
 70
     0
  9
$DRAGMODE
 70
     2
  9
$LTSCALE
 40
1.0
  9
$OSMODE
 70
    55
  9
$ATTMODE
 70
     1
  9
$TEXTSIZE
 40
2.5
  9
$TRACEWID
 40
1.0
  9
$TEXTSTYLE
  7
STANDARD
  9
$CLAYER
  8
AM_0
  9
$CELTYPE
  6
BYLAYER
  9
$CECOLOR
 62
   256
  9
$CELTSCALE
 40
1.0
  9
$DELOBJ
 70
     1
  9
$DISPSILH
 70
     0
  9
$DIMSCALE
 40
0.5
  9
$DIMASZ
 40
2.5
  9
$DIMEXO
 40
1.0
  9
$DIMDLI
 40
12.0
  9
$DIMRND
 40
0.0
  9
$DIMDLE
 40
0.0
  9
$DIMEXE
 40
1.0
  9
$DIMTP
 40
0.1
  9
$DIMTM
 40
0.1
  9
$DIMTXT
 40
3.2
  9
$DIMCEN
 40
0.0
  9
$DIMTSZ
 40
0.0
  9
$DIMTOL
 70
     0
  9
$DIMLIM
 70
     0
  9
$DIMTIH
 70
     0
  9
$DIMTOH
 70
     0
  9
$DIMSE1
 70
     0
  9
$DIMSE2
 70
     0
  9
$DIMTAD
 70
     3
  9
$DIMZIN
 70
     8
  9
$DIMBLK
  1
OPEN30
  9
$DIMASO
 70
     1
  9
$DIMSHO
 70
     1
  9
$DIMPOST
  1

  9
$DIMAPOST
  1
"
  9
$DIMALT
 70
     0
  9
$DIMALTD
 70
     2
  9
$DIMALTF
 40
0.0393701
  9
$DIMLFAC
 40
1.0
  9
$DIMTOFL
 70
     1
  9
$DIMTVP
 40
0.0
  9
$DIMTIX
 70
     0
  9
$DIMSOXD
 70
     0
  9
$DIMSAH
 70
     0
  9
$DIMBLK1
  1

  9
$DIMBLK2
  1

  9
$DIMSTYLE
  2
AM_JIS
  9
$DIMCLRD
 70
   256
  9
$DIMCLRE
 70
   256
  9
$DIMCLRT
 70
     2
  9
$DIMTFAC
 40
0.71
  9
$DIMGAP
 40
1.5
  9
$DIMJUST
 70
     0
  9
$DIMSD1
 70
     0
  9
$DIMSD2
 70
     0
  9
$DIMTOLJ
 70
     0
  9
$DIMTZIN
 70
     0
  9
$DIMALTZ
 70
     0
  9
$DIMALTTZ
 70
     0
  9
$DIMFIT
 70
     3
  9
$DIMUPT
 70
     0
  9
$DIMUNIT
 70
     2
  9
$DIMDEC
 70
     3
  9
$DIMTDEC
 70
     3
  9
$DIMALTU
 70
     2
  9
$DIMALTTD
 70
     2
  9
$DIMTXSTY
  7
ASAMI
  9
$DIMAUNIT
 70
     0
  9
$LUNITS
 70
     2
  9
$LUPREC
 70
     2
  9
$SKETCHINC
 40
1.0
  9
$FILLETRAD
 40
0.4
  9
$AUNITS
 70
     0
  9
$AUPREC
 70
     0
  9
$MENU
  1
.
  9
$ELEVATION
 40
0.0
  9
$PELEVATION
 40
0.0
  9
$THICKNESS
 40
0.0
  9
$LIMCHECK
 70
     1
  9
$BLIPMODE
 70
     0
  9
$CHAMFERA
 40
1.0
  9
$CHAMFERB
 40
1.0
  9
$CHAMFERC
 40
20.0
  9
$CHAMFERD
 40
0.0
  9
$SKPOLY
 70
     0
  9
$TDCREATE
 40
2452802.716478761
  9
$TDUPDATE
 40
2453152.384655173
  9
$TDINDWG
 40
0.9421129514
  9
$TDUSRTIMER
 40
0.9421129514
  9
$USRTIMER
 70
     1
  9
$ANGBASE
 50
0.0
  9
$ANGDIR
 70
     0
  9
$PDMODE
 70
     0
  9
$PDSIZE
 40
0.0
  9
$PLINEWID
 40
0.0
  9
$COORDS
 70
     1
  9
$SPLFRAME
 70
     0
  9
$SPLINETYPE
 70
     6
  9
$SPLINESEGS
 70
     8
  9
$ATTDIA
 70
     1
  9
$ATTREQ
 70
     1
  9
$HANDLING
 70
 12289
  9
$HANDSEED
  5
CA3C
  9
$SURFTAB1
 70
     6
  9
$SURFTAB2
 70
     6
  9
$SURFTYPE
 70
     6
  9
$SURFU
 70
     6
  9
$SURFV
 70
     6
  9
$UCSNAME
  2

  9
$UCSORG
 10
-0.0000000000002682
 20
0.000000000000161
 30
0.0
  9
$UCSXDIR
 10
1.0
 20
0.000000000000002
 30
0.0
  9
$UCSYDIR
 10
-0.000000000000002
 20
1.0
 30
0.0
  9
$PUCSNAME
  2

  9
$PUCSORG
 10
0.0
 20
0.0
 30
0.0
  9
$PUCSXDIR
 10
1.0
 20
0.0
 30
0.0
  9
$PUCSYDIR
 10
0.0
 20
1.0
 30
0.0
  9
$USERI1
 70
     0
  9
$USERI2
 70
     0
  9
$USERI3
 70
     0
  9
$USERI4
 70
     0
  9
$USERI5
 70
     0
  9
$USERR1
 40
0.0
  9
$USERR2
 40
0.0
  9
$USERR3
 40
0.0
  9
$USERR4
 40
0.0
  9
$USERR5
 40
0.0
  9
$WORLDVIEW
 70
     1
  9
$SHADEDGE
 70
     3
  9
$SHADEDIF
 70
    70
  9
$TILEMODE
 70
     1
  9
$MAXACTVP
 70
    64
  9
$PINSBASE
 10
0.0
 20
0.0
 30
0.0
  9
$PLIMCHECK
 70
     0
  9
$PEXTMIN
 10
1.000000000000000E+20
 20
1.000000000000000E+20
 30
1.000000000000000E+20
  9
$PEXTMAX
 10
-1.000000000000000E+20
 20
-1.000000000000000E+20
 30
-1.000000000000000E+20
  9
$PLIMMIN
 10
0.0
 20
0.0
  9
$PLIMMAX
 10
841.0
 20
594.0
  9
$UNITMODE
 70
     0
  9
$VISRETAIN
 70
     1
  9
$PLINEGEN
 70
     0
  9
$PSLTSCALE
 70
     0
  9
$TREEDEPTH
 70
  3020
  9
$PICKSTYLE
 70
     0
  9
$CMLSTYLE
  2
STANDARD
  9
$CMLJUST
 70
     0
  9
$CMLSCALE
 40
20.0
  9
$PROXYGRAPHICS
 70
     1
  9
$MEASUREMENT
 70
     1
  0
ENDSEC
  0
SECTION
  2
CLASSES
  0
CLASS
  1
ACDBDICTIONARYWDFLT
  2
AcDbDictionaryWithDefault
  3
AutoCAD 2000
 90
        0
280
     0
281
     0
  0
CLASS
  1
ACDBPLACEHOLDER
  2
AcDbPlaceHolder
  3
AutoCAD 2000
 90
        0
280
     0
281
     0
  0
CLASS
  1
LAYOUT
  2
AcDbLayout
  3
AutoCAD 2000
 90
        0
280
     0
281
     0
  0
CLASS
  1
AMGSETTINGSOBJ
  2
AmgSettingsObj
  3
"AcadM|Product Description: AutoCAD Mechanical 2000|Company: Autodesk"
 90
        0
280
     0
281
     0
  0
CLASS
  1
ACME_DOCUMENT
  2
AcMeDbDoc
  3
AcMeServices
 90
        0
280
     0
281
     0
  0
CLASS
  1
ACMESCOPE
  2
AcMeScope
  3
AcMeServices
 90
        0
280
     0
281
     0
  0
CLASS
  1
ACMECOMMANDHISTORY
  2
AcMeCommandHistory
  3
AcMeServices
 90
        0
280
     0
281
     0
  0
CLASS
  1
DICTIONARYVAR
  2
AcDbDictionaryVar
  3
AutoCAD 2000
 90
        0
280
     0
281
     0
  0
CLASS
  1
ACIMSYSVARMAN
  2
AcImSysVarManager
  3
AcMeServices
 90
        0
280
     0
281
     0
  0
CLASS
  1
ACIMREALSYSVAR
  2
AcImRealSysVar
  3
AcMeServices
 90
        0
280
     0
281
     0
  0
CLASS
  1
ACIMINTSYSVAR
  2
AcImIntSysVar
  3
AcMeServices
 90
        0
280
     0
281
     0
  0
CLASS
  1
ACMEDRAWINGMAN
  2
AcMeDrawingMan
  3
AcMeServices
 90
        0
280
     0
281
     0
  0
CLASS
  1
ACMEVIEW
  2
AcMeView
  3
AcMeServices
 90
        0
280
     0
281
     0
  0
CLASS
  1
ACDBENTITYCACHE
  2
AcMeEntityCache
  3
AcMeServices
 90
        0
280
     0
281
     0
  0
CLASS
  1
GSMANAGER
  2
AcMeGSManager
  3
AcMeServices
 90
        0
280
     0
281
     0
  0
CLASS
  1
AmdtInternalReactor
  2
AmdtInternalReactor
  3
AcMeServices
 90
        0
280
     0
281
     0
  0
CLASS
  1
ACMESTATEMGR
  2
AcMeStateMgr
  3
AcMeServices
 90
        0
280
     0
281
     0
  0
CLASS
  1
ACME_DATABASE
  2
AcMeDbDatabase
  3
AcMeServices
 90
        0
280
     0
281
     0
  0
CLASS
  1
ACRFINSADJUSTERMGR
  2
AcRfInsAdjusterMgr
  3
AcMeServices
 90
        0
280
     0
281
     0
  0
CLASS
  1
ACMDATADICTIONARY
  2
AcmDataDictionary
  3
"AcmSymBB|Product Description: AutoCAD Mechanical 2000|Company: Autodesk"
 90
        0
280
     0
281
     0
  0
CLASS
  1
ACMDATAENTRYBLOCK
  2
AcmDataEntryBlock
  3
"AcmSymBB|Product Description: AutoCAD Mechanical 2000|Company: Autodesk"
 90
        0
280
     0
281
     0
  0
CLASS
  1
AMGOBJPROPCFG
  2
AmgObjPropCfg
  3
"AmgLay|Product Description: AutoCAD Mechanical 2000|Company: Autodesk"
 90
        1
280
     0
281
     0
  0
CLASS
  1
ACAMGFILTERDAT
  2
AcAmgFilterDat
  3
"AcadM|Product Description: AutoCAD Mechanical 2000|Company: Autodesk"
 90
        0
280
     0
281
     0
  0
CLASS
  1
LAYER_INDEX
  2
AcDbLayerIndex
  3
AutoCAD 2000
 90
        0
280
     0
281
     0
  0
CLASS
  1
IDBUFFER
  2
AcDbIdBuffer
  3
AutoCAD 2000
 90
        0
280
     0
281
     0
  0
CLASS
  1
ACIMSTRSYSVAR
  2
AcImStrSysVar
  3
AcMeServices
 90
        0
280
     0
281
     0
  0
CLASS
  1
ACMSTANDARDJIS
  2
AcmStandardJIS
  3
"AcmSymBB|Product Description: AutoCAD Mechanical 2000|Company: Autodesk"
 90
        0
280
     0
281
     0
  0
CLASS
  1
ACMSURFSTANDARDJIS
  2
AcmSurfTextStdJIS
  3
"AcmSymBB|Product Description: AutoCAD Mechanical 2000|Company: Autodesk"
 90
        0
280
     0
281
     0
  0
CLASS
  1
ACMFCFSTANDARDJIS
  2
AcmFCFStdJIS
  3
"AcmSymBB|Product Description: AutoCAD Mechanical 2000|Company: Autodesk"
 90
        0
280
     0
281
     0
  0
CLASS
  1
ACMWELDSTANDARDJIS
  2
AcmWeldingStdJIS
  3
"AcmSymBB|Product Description: AutoCAD Mechanical 2000|Company: Autodesk"
 90
        0
280
     0
281
     0
  0
CLASS
  1
ACMIDSTANDARDJIS
  2
AcmIdStdJIS
  3
"AcmSymBB|Product Description: AutoCAD Mechanical 2000|Company: Autodesk"
 90
        0
280
     0
281
     0
  0
CLASS
  1
ACMDATUMSTANDARDJIS
  2
AcmDatumStdJIS
  3
"AcmSymBB|Product Description: AutoCAD Mechanical 2000|Company: Autodesk"
 90
        0
280
     0
281
     0
  0
CLASS
  1
ACMBOMSTANDARDJIS
  2
AcmBOMStdJIS
  3
"AcmSymBB|Product Description: AutoCAD Mechanical 2000|Company: Autodesk"
 90
        0
280
     0
281
     0
  0
CLASS
  1
ACMSTANDARDANSI
  2
AcmStandardANSI
  3
"AcmSymBB|Product Description: AutoCAD Mechanical 2000|Company: Autodesk"
 90
        0
280
     0
281
     0
  0
CLASS
  1
ACMSURFSTANDARDANSI
  2
AcmSurfTextStdANSI
  3
"AcmSymBB|Product Description: AutoCAD Mechanical 2000|Company: Autodesk"
 90
        0
280
     0
281
     0
  0
CLASS
  1
ACMFCFSTANDARDANSI
  2
AcmFCFStdANSI
  3
"AcmSymBB|Product Description: AutoCAD Mechanical 2000|Company: Autodesk"
 90
        0
280
     0
281
     0
  0
CLASS
  1
ACMWELDSTANDARDANSI
  2
AcmWeldingStdANSI
  3
"AcmSymBB|Product Description: AutoCAD Mechanical 2000|Company: Autodesk"
 90
        0
280
     0
281
     0
  0
CLASS
  1
ACMIDSTANDARDANSI
  2
AcmIdStdANSI
  3
"AcmSymBB|Product Description: AutoCAD Mechanical 2000|Company: Autodesk"
 90
        0
280
     0
281
     0
  0
CLASS
  1
ACMDATUMSTANDARDANSI
  2
AcmDatumStdANSI
  3
"AcmSymBB|Product Description: AutoCAD Mechanical 2000|Company: Autodesk"
 90
        0
280
     0
281
     0
  0
CLASS
  1
ACMBOMSTANDARDANSI
  2
AcmBOMStdANSI
  3
"AcmSymBB|Product Description: AutoCAD Mechanical 2000|Company: Autodesk"
 90
        0
280
     0
281
     0
  0
CLASS
  1
ACMSTANDARDBSI
  2
AcmStandardBSI
  3
"AcmSymBB|Product Description: AutoCAD Mechanical 2000|Company: Autodesk"
 90
        0
280
     0
281
     0
  0
CLASS
  1
ACMSURFSTANDARDBSI
  2
AcmSurfTextStdBSI
  3
"AcmSymBB|Product Description: AutoCAD Mechanical 2000|Company: Autodesk"
 90
        0
280
     0
281
     0
  0
CLASS
  1
ACMFCFSTANDARDBSI
  2
AcmFCFStdBSI
  3
"AcmSymBB|Product Description: AutoCAD Mechanical 2000|Company: Autodesk"
 90
        0
280
     0
281
     0
  0
CLASS
  1
ACMWELDSTANDARDBSI
  2
AcmWeldingStdBSI
  3
"AcmSymBB|Product Description: AutoCAD Mechanical 2000|Company: Autodesk"
 90
        0
280
     0
281
     0
  0
CLASS
  1
ACMIDSTANDARDBSI
  2
AcmIdStdBSI
  3
"AcmSymBB|Product Description: AutoCAD Mechanical 2000|Company: Autodesk"
 90
        0
280
     0
281
     0
  0
CLASS
  1
ACMDATUMSTANDARDBSI
  2
AcmDatumStdBSI
  3
"AcmSymBB|Product Description: AutoCAD Mechanical 2000|Company: Autodesk"
 90
        0
280
     0
281
     0
  0
CLASS
  1
ACMBOMSTANDARDBSI
  2
AcmBOMStdBSI
  3
"AcmSymBB|Product Description: AutoCAD Mechanical 2000|Company: Autodesk"
 90
        0
280
     0
281
     0
  0
CLASS
  1
STDPART2D
  2
AmgStdPart
  3
"AmgStdPart|Product Description: AutoCAD Mechanical 2000|Company: Autodesk"
 90
     1023
280
     0
281
     1
  0
CLASS
  1
PLOTSETTINGS
  2
AcDbPlotSettings
  3
AutoCAD 2000
 90
        0
280
     0
281
     0
  0
CLASS
  1
LONG_TRANSACTION
  2
AcDbLongTransaction
  3
AutoCAD 2000
 90
        0
280
     0
281
     0
  0
CLASS
  1
LWPOLYLINE
  2
AcDbPolyline
  3
AutoCAD 2000
 90
        0
280
     0
281
     1
  0
CLASS
  1
HATCH
  2
AcDbHatch
  3
AutoCAD 2000
 90
        0
280
     0
281
     1
  0
CLASS
  1
XRECORD
  2
AcDbXrecord
  3
AutoCAD 2000
 90
        0
280
     0
281
     0
  0
ENDSEC
  0
SECTION
  2
TABLES
  0
TABLE
  2
VPORT
  5
8
330
0
100
AcDbSymbolTable
 70
     3
  0
VPORT
  5
C9D2
330
8
100
AcDbSymbolTableRecord
100
AcDbViewportTableRecord
  2
*ACTIVE
 70
     0
 10
0.0
 20
0.0
 11
1.0
 21
1.0
 12
-64.16080308504835
 22
0.3708793199752236
 13
0.0
 23
0.0
 14
2.5
 24
2.5
 15
10.0
 25
10.0
 16
0.0
 26
0.0
 36
1.0
 17
0.0
 27
0.0
 37
0.0
 40
112.5486884506218
 41
1.56570841889117
 42
50.0
 43
0.0
 44
0.0
 50
0.0
 51
0.0
 71
     0
 72
   100
 73
     1
 74
     3
 75
     0
 76
     0
 77
     0
 78
     0
  0
ENDTAB
  0
TABLE
  2
LTYPE
  5
5
330
0
100
AcDbSymbolTable
 70
    10
  0
LTYPE
  5
14
330
5
100
AcDbSymbolTableRecord
100
AcDbLinetypeTableRecord
  2
BYBLOCK
 70
     0
  3

 72
    65
 73
     0
 40
0.0
  0
LTYPE
  5
15
330
5
100
AcDbSymbolTableRecord
100
AcDbLinetypeTableRecord
  2
BYLAYER
 70
     0
  3

 72
    65
 73
     0
 40
0.0
  0
LTYPE
  5
16
330
5
100
AcDbSymbolTableRecord
100
AcDbLinetypeTableRecord
  2
CONTINUOUS
 70
     0
  3
Solid line
 72
    65
 73
     0
 40
0.0
  0
LTYPE
  5
4B
330
5
100
AcDbSymbolTableRecord
100
AcDbLinetypeTableRecord
  2
AM_ISO02W050
 70
     0
  3
__ __ __ __ __ __ __ __ __ __ __ __ __ __ __
 72
    65
 73
     2
 40
7.5
 49
6.0
 74
     0
 49
-1.5
 74
     0
  0
LTYPE
  5
4C
330
5
100
AcDbSymbolTableRecord
100
AcDbLinetypeTableRecord
  2
AM_ISO08W050
 70
     0
  3
____ . ____ . ____ . ____ . ____ . ____ . ____
 72
    65
 73
     4
 40
18.0
 49
12.0
 74
     0
 49
-1.5
 74
     0
 49
3.0
 74
     0
 49
-1.5
 74
     0
  0
LTYPE
  5
4D
330
5
100
AcDbSymbolTableRecord
100
AcDbLinetypeTableRecord
  2
AM_ISO09W050
 70
     0
  3
_____ . . _____ . . _____ . . ____ .. ____
 72
    65
 73
     6
 40
22.5
 49
12.0
 74
     0
 49
-1.5
 74
     0
 49
3.0
 74
     0
 49
-1.5
 74
     0
 49
3.0
 74
     0
 49
-1.5
 74
     0
  0
LTYPE
  5
4E
330
5
100
AcDbSymbolTableRecord
100
AcDbLinetypeTableRecord
  2
AMCONSTR
 70
     0
  3
_______________________
 72
    65
 73
     2
 40
9999.0
 49
9999.0
 74
     0
 49
0.0
 74
     0
  0
LTYPE
  5
4F
330
5
100
AcDbSymbolTableRecord
100
AcDbLinetypeTableRecord
  2
AM_ISO02W050X2
 70
     0
  3
 _ _ _ _ _ _ _ _ _ _ _ _
 72
    65
 73
     2
 40
3.75
 49
3.0
 74
     0
 49
-0.75
 74
     0
  0
LTYPE
  5
50
330
5
100
AcDbSymbolTableRecord
100
AcDbLinetypeTableRecord
  2
AM_ISO08W050X2
 70
     0
  3
__ . __ . __ . __ . __ . __
 72
    65
 73
     4
 40
9.0
 49
6.0
 74
     0
 49
-0.75
 74
     0
 49
1.5
 74
     0
 49
-0.75
 74
     0
  0
LTYPE
  5
53
330
5
100
AcDbSymbolTableRecord
100
AcDbLinetypeTableRecord
  2
AMZIGZAG
 70
     0
  3
/\/-/\/-/\/-/\/-/\/-/\/
 72
    65
 73
     2
 40
11.00009999999999
 49
0.0001
 74
     4
 75
   135
340
52
 46
0.04
 50
0.0
 44
0.0
 45
0.0
 49
-11.0
 74
     0
  0
LTYPE
  5
166
330
5
100
AcDbSymbolTableRecord
100
AcDbLinetypeTableRecord
  2
ACJISTGL
 70
     0
  3
_ _ _ _ _
 72
    65
 73
     2
 40
3.0
 49
2.0
 74
     0
 49
-1.0
 74
     0
  0
LTYPE
  5
26A
330
5
100
AcDbSymbolTableRecord
100
AcDbLinetypeTableRecord
  2
ACJISTGB
 70
     0
  3
__ . . __ . .
 72
    65
 73
     6
 40
9.0
 49
4.0
 74
     0
 49
-1.0
 74
     0
 49
1.0
 74
     0
 49
-1.0
 74
     0
 49
1.0
 74
     0
 49
-1.0
 74
     0
  0
ENDTAB
  0
TABLE
  2
LAYER
  5
2
330
0
100
AcDbSymbolTable
 70
     7
  0
LAYER
  5
10
330
2
100
AcDbSymbolTableRecord
100
AcDbLayerTableRecord
  2
0
 70
     0
 62
     7
  6
CONTINUOUS
  0
LAYER
  5
3F9
330
2
100
AcDbSymbolTableRecord
100
AcDbLayerTableRecord
  2
AM_0
 70
     0
 62
     7
  6
CONTINUOUS
  0
LAYER
  5
BA4
330
2
100
AcDbSymbolTableRecord
100
AcDbLayerTableRecord
  2
AM_5
 70
     0
 62
     3
  6
CONTINUOUS
  0
LAYER
  5
BA6
330
2
100
AcDbSymbolTableRecord
100
AcDbLayerTableRecord
  2
AM_7
 70
     0
 62
     4
  6
AM_ISO08W050
  0
LAYER
  5
E64
330
2
100
AcDbSymbolTableRecord
100
AcDbLayerTableRecord
  2
AM_6
 70
     0
 62
     2
  6
CONTINUOUS
  0
LAYER
  5
F4D
330
2
100
AcDbSymbolTableRecord
100
AcDbLayerTableRecord
  2
DEFPOINTS
 70
     0
 62
     7
  6
CONTINUOUS
  0
LAYER
  5
4E80
330
2
100
AcDbSymbolTableRecord
100
AcDbLayerTableRecord
  2
AM_11
 70
     0
 62
     3
  6
AM_ISO09W050
  0
ENDTAB
  0
TABLE
  2
STYLE
  5
3
330
0
100
AcDbSymbolTable
 70
     5
  0
STYLE
  5
11
330
3
100
AcDbSymbolTableRecord
100
AcDbTextStyleTableRecord
  2
STANDARD
 70
     0
 40
0.0
 41
1.0
 50
0.0
 71
     0
 42
2.5
  3
simplex.shx
  4
EXTFONT.SHX
  0
STYLE
  5
52
330
3
100
AcDbSymbolTableRecord
100
AcDbTextStyleTableRecord
  2

 70
     1
 40
0.0
 41
1.0
 50
0.0
 71
     0
 42
2.5
  3
ltypeshp.shx
  4

  0
STYLE
  5
6B
330
3
100
AcDbSymbolTableRecord
100
AcDbTextStyleTableRecord
  2
ASAMI
 70
     0
 40
0.0
 41
1.0
 50
0.0
 71
     0
 42
2.5
  3
simplex.shx
  4
EXTFONT.SHX
  0
STYLE
  5
262
330
3
100
AcDbSymbolTableRecord
100
AcDbTextStyleTableRecord
  2
ACJISTS
 70
     0
 40
1.0
 41
1.0
 50
0.0
 71
     0
 42
2.5
  3
simplex.shx
  4
bigfont.shx
  0
STYLE
  5
269
330
3
100
AcDbSymbolTableRecord
100
AcDbTextStyleTableRecord
  2
ACJISGDT
 70
     0
 40
0.0
 41
1.0
 50
0.0
 71
     0
 42
2.5
  3
amgdtans.shx
  4

  0
ENDTAB
  0
TABLE
  2
VIEW
  5
6
330
0
100
AcDbSymbolTable
 70
     0
  0
ENDTAB
  0
TABLE
  2
UCS
  5
7
330
0
100
AcDbSymbolTable
 70
     0
  0
ENDTAB
  0
TABLE
  2
APPID
  5
9
330
0
100
AcDbSymbolTable
 70
    24
  0
APPID
  5
12
330
9
100
AcDbSymbolTableRecord
100
AcDbRegAppTableRecord
  2
ACAD
 70
     0
  0
APPID
  5
30
330
9
100
AcDbSymbolTableRecord
100
AcDbRegAppTableRecord
  2
MCAD_NO_VIS
 70
     0
  0
APPID
  5
31
330
9
100
AcDbSymbolTableRecord
100
AcDbRegAppTableRecord
  2
ACAD_TEMP_GRAPHIC
 70
     0
  0
APPID
  5
2C2
330
9
100
AcDbSymbolTableRecord
100
AcDbRegAppTableRecord
  2
GENIUS_GENDTOL_13
 70
     0
  0
APPID
  5
339
330
9
100
AcDbSymbolTableRecord
100
AcDbRegAppTableRecord
  2
GENIUS_GENODEF_13
 70
     0
  0
APPID
  5
33A
330
9
100
AcDbSymbolTableRecord
100
AcDbRegAppTableRecord
  2
GENIUS_GENOBJ-N-RSBK_13
 70
     0
  0
APPID
  5
33B
330
9
100
AcDbSymbolTableRecord
100
AcDbRegAppTableRecord
  2
GENIUS_GENOBJ-N-LIB_13
 70
     0
  0
APPID
  5
33C
330
9
100
AcDbSymbolTableRecord
100
AcDbRegAppTableRecord
  2
GENIUS_GENSCALE_13
 70
     0
  0
APPID
  5
378
330
9
100
AcDbSymbolTableRecord
100
AcDbRegAppTableRecord
  2
GENIUS_GENDIMSH_14
 70
     0
  0
APPID
  5
BB0
330
9
100
AcDbSymbolTableRecord
100
AcDbRegAppTableRecord
  2
GENIUS_GENOBJ-N-CEN_13
 70
     0
  0
APPID
  5
BB1
330
9
100
AcDbSymbolTableRecord
100
AcDbRegAppTableRecord
  2
GENIUS_GENFIL_13
 70
     0
  0
APPID
  5
BB2
330
9
100
AcDbSymbolTableRecord
100
AcDbRegAppTableRecord
  2
GENIUS_GENOBJ-N-CHA_13
 70
     0
  0
APPID
  5
1FAF
330
9
100
AcDbSymbolTableRecord
100
AcDbRegAppTableRecord
  2
GENIUS_GENOBJ-N-CRS_13
 70
     0
  0
APPID
  5
1FB0
330
9
100
AcDbSymbolTableRecord
100
AcDbRegAppTableRecord
  2
GENIUS_GENOENT_13
 70
     0
  0
APPID
  5
1FB1
330
9
100
AcDbSymbolTableRecord
100
AcDbRegAppTableRecord
  2
GENIUS_GENOREF_13
 70
     0
  0
APPID
  5
1FB2
330
9
100
AcDbSymbolTableRecord
100
AcDbRegAppTableRecord
  2
GENIUS_GENOLIS_13
 70
     0
  0
APPID
  5
1FB7
330
9
100
AcDbSymbolTableRecord
100
AcDbRegAppTableRecord
  2
GENIUS_GENOBJ-N-FIL_13
 70
     0
  0
APPID
  5
22A8
330
9
100
AcDbSymbolTableRecord
100
AcDbRegAppTableRecord
  2
GEVID1056506048
 70
     0
  0
APPID
  5
22A9
330
9
100
AcDbSymbolTableRecord
100
AcDbRegAppTableRecord
  2
GEVDC
 70
     0
  0
APPID
  5
22AC
330
9
100
AcDbSymbolTableRecord
100
AcDbRegAppTableRecord
  2
GENIUS_GENBH_13
 70
     0
  0
APPID
  5
22B8
330
9
100
AcDbSymbolTableRecord
100
AcDbRegAppTableRecord
  2
GENIUS_GENOBJ-NBEHI-BHF_13
 70
     0
  0
APPID
  5
22BA
330
9
100
AcDbSymbolTableRecord
100
AcDbRegAppTableRecord
  2
GENIUS_GENOBJ-NBEHI-BHB_13
 70
     0
  0
APPID
  5
35C9
330
9
100
AcDbSymbolTableRecord
100
AcDbRegAppTableRecord
  2
GENIUS_GENREC_14
 70
     0
  0
APPID
  5
35CA
330
9
100
AcDbSymbolTableRecord
100
AcDbRegAppTableRecord
  2
GENIUS_GENOBJ-N-REC_13
 70
     0
  0
ENDTAB
  0
TABLE
  2
DIMSTYLE
  5
A
330
0
100
AcDbSymbolTable
 70
     9
  0
DIMSTYLE
105
58
330
A
100
AcDbSymbolTableRecord
100
AcDbDimStyleTableRecord
  2
AM_JIS
 70
     0
  3

  4
"
  5
OPEN30
  6

  7

 40
0.5
 41
2.5
 42
1.0
 43
12.0
 44
1.0
 45
0.0
 46
0.0
 47
0.1
 48
0.1
140
3.2
141
0.0
142
0.0
143
0.0393701
144
1.0
145
0.0
146
0.71
147
1.5
 71
     0
 72
     0
 73
     0
 74
     0
 75
     0
 76
     0
 77
     3
 78
     8
170
     0
171
     2
172
     1
173
     0
174
     0
175
     0
176
   256
177
   256
178
     2
270
     2
271
     3
272
     3
273
     2
274
     2
340
6B
275
     0
280
     0
281
     0
282
     0
283
     0
284
     0
285
     0
286
     0
287
     3
288
     0
  0
DIMSTYLE
105
5F
330
A
100
AcDbSymbolTableRecord
100
AcDbDimStyleTableRecord
  2
AM_JIS$3
 70
     0
  3

  4
"
  5
OPEN30
  6

  7

 40
0.5
 41
2.5
 42
1.0
 43
10.0
 44
1.0
 45
0.0
 46
0.0
 47
0.1
 48
0.1
140
3.2
141
0.0
142
0.0
143
0.0393701
144
1.0
145
0.0
146
0.71
147
1.5
 71
     0
 72
     0
 73
     0
 74
     1
 75
     0
 76
     0
 77
     3
 78
     8
170
     0
171
     2
172
     0
173
     0
174
     0
175
     0
176
   256
177
   256
178
     2
270
     2
271
     2
272
     3
273
     2
274
     2
340
6B
275
     0
280
     0
281
     0
282
     0
283
     0
284
     0
285
     0
286
     0
287
     0
288
     1
  0
DIMSTYLE
105
60
330
A
100
AcDbSymbolTableRecord
100
AcDbDimStyleTableRecord
  2
AM_JIS$4
 70
     0
  3

  4
"
  5
OPEN30
  6

  7

 40
0.5
 41
2.5
 42
1.0
 43
10.0
 44
1.0
 45
0.0
 46
0.0
 47
0.1
 48
0.1
140
3.2
141
0.0
142
0.0
143
0.0393701
144
1.0
145
0.0
146
0.71
147
1.5
 71
     0
 72
     0
 73
     0
 74
     1
 75
     0
 76
     0
 77
     3
 78
     8
170
     0
171
     2
172
     0
173
     0
174
     0
175
     0
176
   256
177
   256
178
     2
270
     2
271
     2
272
     3
273
     2
274
     2
340
6B
275
     0
280
     0
281
     0
282
     0
283
     0
284
     0
285
     0
286
     0
287
     0
288
     1
  0
DIMSTYLE
105
61
330
A
100
AcDbSymbolTableRecord
100
AcDbDimStyleTableRecord
  2
AM_JIS$6
 70
     0
  3

  4
"
  5
OPEN30
  6

  7

 40
0.5
 41
2.5
 42
1.0
 43
10.0
 44
1.0
 45
0.0
 46
0.0
 47
0.1
 48
0.1
140
3.2
141
0.0
142
0.0
143
0.0393701
144
1.0
145
0.0
146
0.71
147
1.5
 71
     0
 72
     0
 73
     0
 74
     0
 75
     0
 76
     0
 77
     0
 78
     8
170
     0
171
     2
172
     1
173
     0
174
     0
175
     0
176
   256
177
   256
178
     2
270
     2
271
     2
272
     2
273
     2
274
     2
340
6B
275
     0
280
     0
281
     0
282
     0
283
     0
284
     0
285
     0
286
     0
287
     3
288
     0
  0
DIMSTYLE
105
62
330
A
100
AcDbSymbolTableRecord
100
AcDbDimStyleTableRecord
  2
AM_JIS$7
 70
     0
  3

  4
"
  5
OPEN30
  6

  7

 40
0.5
 41
2.5
 42
1.0
 43
10.0
 44
1.0
 45
0.0
 46
0.0
 47
0.1
 48
0.1
140
3.2
141
0.0
142
0.0
143
0.0393701
144
1.0
145
0.0
146
0.71
147
1.5
 71
     0
 72
     0
 73
     0
 74
     0
 75
     0
 76
     0
 77
     3
 78
     8
170
     0
171
     2
172
     1
173
     0
174
     0
175
     0
176
   256
177
   256
178
     2
270
     2
271
     2
272
     3
273
     2
274
     2
340
6B
275
     0
280
     0
281
     0
282
     0
283
     0
284
     0
285
     0
286
     0
287
     3
288
     0
  0
DIMSTYLE
105
63
330
A
100
AcDbSymbolTableRecord
100
AcDbDimStyleTableRecord
  2
AM_JIS$SF
 70
     0
  3

  4
"
  5
OPEN30
  6

  7

 40
0.5
 41
2.5
 42
1.0
 43
10.0
 44
1.0
 45
0.0
 46
0.0
 47
0.1
 48
0.1
140
3.2
141
0.0
142
0.0
143
0.0393701
144
1.0
145
0.0
146
0.71
147
1.5
 71
     0
 72
     0
 73
     0
 74
     0
 75
     1
 76
     1
 77
     3
 78
     8
170
     0
171
     2
172
     1
173
     0
174
     0
175
     0
176
   256
177
   256
178
     2
270
     2
271
     2
272
     2
273
     2
274
     2
340
6B
275
     0
280
     0
281
     0
282
     0
283
     0
284
     0
285
     0
286
     0
287
     3
288
     0
  0
DIMSTYLE
105
68
330
A
100
AcDbSymbolTableRecord
100
AcDbDimStyleTableRecord
  2
AM_JIS$SH
 70
     0
  3

  4
"
  5

  6
GENAXEH
  7
OPEN30
 40
0.5
 41
2.5
 42
1.0
 43
10.0
 44
1.0
 45
0.0
 46
0.0
 47
0.1
 48
0.1
140
3.2
141
0.0
142
0.0
143
0.0393701
144
2.0
145
0.0
146
0.71
147
1.5
 71
     0
 72
     0
 73
     0
 74
     0
 75
     1
 76
     1
 77
     3
 78
     8
170
     0
171
     2
172
     1
173
     1
174
     0
175
     0
176
   256
177
   256
178
     2
270
     2
271
     2
272
     2
273
     2
274
     2
340
6B
275
     0
280
     0
281
     0
282
     0
283
     0
284
     0
285
     0
286
     0
287
     3
288
     0
  0
DIMSTYLE
105
B34
330
A
100
AcDbSymbolTableRecord
100
AcDbDimStyleTableRecord
  2
AM_JIS$2
 70
     0
  3

  4
"
  5
OPEN30
  6

  7

 40
0.5
 41
2.5
 42
1.0
 43
12.0
 44
1.0
 45
0.0
 46
0.0
 47
0.1
 48
0.1
140
3.2
141
0.0
142
0.0
143
0.0393701
144
1.0
145
0.0
146
0.71
147
1.5
 71
     0
 72
     0
 73
     0
 74
     0
 75
     0
 76
     0
 77
     3
 78
     8
170
     0
171
     2
172
     1
173
     0
174
     0
175
     0
176
   256
177
   256
178
     2
270
     2
271
     3
272
     3
273
     2
274
     2
340
6B
275
     0
280
     0
281
     0
282
     0
283
     0
284
     0
285
     0
286
     0
287
     3
288
     0
  0
DIMSTYLE
105
3B48
102
{ACAD_REACTORS
330
C3B8
330
C460
330
C500
330
C6A4
330
C73C
330
C618
330
C58C
102
}
330
A
100
AcDbSymbolTableRecord
100
AcDbDimStyleTableRecord
  2
AM_JIS$0
 70
     0
  3

  4
"
  5
OPEN30
  6

  7

 40
1.0
 41
2.5
 42
0.0
 43
10.0
 44
1.0
 45
0.0
 46
0.0
 47
0.1
 48
0.1000000001
140
3.799999999999999
141
0.0
142
0.0
143
0.0393701
144
1.0
145
0.0
146
0.71
147
1.5
 71
     0
 72
     0
 73
     0
 74
     0
 75
     0
 76
     0
 77
     3
 78
     1
170
     0
171
     2
172
     1
173
     0
174
     0
175
     0
176
     3
177
     3
178
     2
270
     2
271
     2
272
     2
273
     2
274
     2
340
11
275
     1
280
     0
281
     0
282
     0
283
     0
284
     8
285
     0
286
     0
287
     0
288
     0
  0
ENDTAB
  0
TABLE
  2
BLOCK_RECORD
  5
1
330
0
100
AcDbSymbolTable
 70
    12
  0
BLOCK_RECORD
  5
1F
102
{ACAD_XDICTIONARY
360
74
102
}
330
1
100
AcDbSymbolTableRecord
100
AcDbBlockTableRecord
  2
*MODEL_SPACE
  0
BLOCK_RECORD
  5
101
102
{ACAD_XDICTIONARY
360
C9FB
102
}
330
1
100
AcDbSymbolTableRecord
100
AcDbBlockTableRecord
  2
*PAPER_SPACE
  0
BLOCK_RECORD
  5
59
330
1
100
AcDbSymbolTableRecord
100
AcDbBlockTableRecord
  2
_OPEN30
  0
BLOCK_RECORD
  5
64
330
1
100
AcDbSymbolTableRecord
100
AcDbBlockTableRecord
  2
GENAXEH
  0
BLOCK_RECORD
  5
C3B9
330
1
100
AcDbSymbolTableRecord
100
AcDbBlockTableRecord
  2
*D5
  0
BLOCK_RECORD
  5
C461
330
1
100
AcDbSymbolTableRecord
100
AcDbBlockTableRecord
  2
*D6
  0
BLOCK_RECORD
  5
C501
330
1
100
AcDbSymbolTableRecord
100
AcDbBlockTableRecord
  2
*D7
  0
BLOCK_RECORD
  5
C58D
330
1
100
AcDbSymbolTableRecord
100
AcDbBlockTableRecord
  2
*D8
  0
BLOCK_RECORD
  5
C619
330
1
100
AcDbSymbolTableRecord
100
AcDbBlockTableRecord
  2
*D9
  0
BLOCK_RECORD
  5
C6A5
330
1
100
AcDbSymbolTableRecord
100
AcDbBlockTableRecord
  2
*D10
  0
BLOCK_RECORD
  5
C73D
330
1
100
AcDbSymbolTableRecord
100
AcDbBlockTableRecord
  2
*D11
  0
ENDTAB
  0
ENDSEC
  0
SECTION
  2
BLOCKS
  0
BLOCK
  5
20
330
1F
100
AcDbEntity
  8
0
100
AcDbBlockBegin
  2
*MODEL_SPACE
 70
     0
 10
0.0
 20
0.0
 30
0.0
  3
*MODEL_SPACE
  1

  0
ENDBLK
  5
21
330
1F
100
AcDbEntity
  8
0
100
AcDbBlockEnd
  0
BLOCK
  5
103
330
101
100
AcDbEntity
 67
     1
  8
0
100
AcDbBlockBegin
  2
*PAPER_SPACE
 70
     0
 10
0.0
 20
0.0
 30
0.0
  3
*PAPER_SPACE
  1

  0
ENDBLK
  5
104
330
101
100
AcDbEntity
 67
     1
  8
0
100
AcDbBlockEnd
  0
BLOCK
  5
5D
330
59
100
AcDbEntity
  8
0
100
AcDbBlockBegin
  2
_OPEN30
 70
     0
 10
0.0
 20
0.0
 30
0.0
  3
_OPEN30
  1

  0
LINE
  5
5A
330
59
100
AcDbEntity
  8
0
 62
     0
100
AcDbLine
 10
-1.0
 20
0.26794919
 30
0.0
 11
0.0
 21
0.0
 31
0.0
  0
LINE
  5
5B
330
59
100
AcDbEntity
  8
0
 62
     0
100
AcDbLine
 10
0.0
 20
0.0
 30
0.0
 11
-1.0
 21
-0.26794919
 31
0.0
  0
LINE
  5
5C
330
59
100
AcDbEntity
  8
0
 62
     0
100
AcDbLine
 10
0.0
 20
0.0
 30
0.0
 11
-1.0
 21
0.0
 31
0.0
  0
ENDBLK
  5
5E
330
59
100
AcDbEntity
  8
0
100
AcDbBlockEnd
  0
BLOCK
  5
66
330
64
100
AcDbEntity
  8
0
100
AcDbBlockBegin
  2
GENAXEH
 70
     0
 10
0.0
 20
0.0
 30
0.0
  3
GENAXEH
  1

  0
LINE
  5
65
330
64
100
AcDbEntity
  8
0
100
AcDbLine
 10
-1.0
 20
0.0
 30
0.0
 11
1.0
 21
0.0
 31
0.0
  0
ENDBLK
  5
67
330
64
100
AcDbEntity
  8
0
100
AcDbBlockEnd
  0
BLOCK
  5
C3C5
330
C3B9
100
AcDbEntity
  8
0
100
AcDbBlockBegin
  2
*D5
 70
     1
 10
0.0
 20
0.0
 30
0.0
  3
*D5
  1

  0
LINE
  5
C9FD
330
C3B9
100
AcDbEntity
  8
AM_5
100
AcDbLine
 10
-4.000000000000352
 20
13.00000000000013
 30
0.0
 11
-4.000000000000353
 21
20.00000000000014
 31
0.0
  0
LINE
  5
C9FE
330
C3B9
100
AcDbEntity
  8
AM_5
100
AcDbLine
 10
-0.0000000000003522
 20
13.00000000000014
 30
0.0
 11
-0.0000000000003535
 21
20.00000000000014
 31
0.0
  0
LINE
  5
C9FF
330
C3B9
100
AcDbEntity
  8
AM_5
100
AcDbLine
 10
-5.250000000000353
 20
19.50000000000014
 30
0.0
 11
-6.500000000000353
 21
19.50000000000014
 31
0.0
  0
LINE
  5
CA00
330
C3B9
100
AcDbEntity
  8
AM_5
100
AcDbLine
 10
1.249999999999646
 20
19.50000000000014
 30
0.0
 11
2.499999999999646
 21
19.50000000000014
 31
0.0
  0
LINE
  5
CA01
330
C3B9
100
AcDbEntity
  8
AM_5
100
AcDbLine
 10
-4.000000000000353
 20
19.50000000000014
 30
0.0
 11
-0.0000000000003534
 21
19.50000000000014
 31
0.0
  0
INSERT
  5
CA02
330
C3B9
100
AcDbEntity
  8
AM_5
100
AcDbBlockReference
  2
_OPEN30
 10
-4.000000000000353
 20
19.50000000000014
 30
0.0
 41
1.25
 42
1.25
 43
1.25
  0
INSERT
  5
CA03
330
C3B9
100
AcDbEntity
  8
AM_5
100
AcDbBlockReference
  2
_OPEN30
 10
-0.0000000000003534
 20
19.50000000000014
 30
0.0
 41
1.25
 42
1.25
 43
1.25
 50
180.0
  0
MTEXT
  5
CA04
330
C3B9
100
AcDbEntity
  8
AM_5
 62
     2
100
AcDbMText
 10
-2.000000000000354
 20
21.05000000000014
 30
0.0
 40
1.6
 41
0.0
 71
     5
 72
     1
  1
4
  7
ASAMI
  0
POINT
  5
CA05
330
C3B9
100
AcDbEntity
  8
DEFPOINTS
 62
     0
100
AcDbPoint
 10
-4.000000000000326
 20
12.50000000000014
 30
0.0
  0
POINT
  5
CA06
330
C3B9
100
AcDbEntity
  8
DEFPOINTS
 62
     0
100
AcDbPoint
 10
-0.0000000000003268
 20
12.50000000000014
 30
0.0
  0
POINT
  5
CA07
330
C3B9
100
AcDbEntity
  8
DEFPOINTS
 62
     0
100
AcDbPoint
 10
-0.000000000000314
 20
19.50000000000014
 30
0.0
  0
ENDBLK
  5
C3C6
330
C3B9
100
AcDbEntity
  8
0
100
AcDbBlockEnd
  0
BLOCK
  5
C46B
330
C461
100
AcDbEntity
  8
0
100
AcDbBlockBegin
  2
*D6
 70
     1
 10
0.0
 20
0.0
 30
0.0
  3
*D6
  1

  0
LINE
  5
CA08
330
C461
100
AcDbEntity
  8
AM_5
100
AcDbLine
 10
0.4999999999996597
 20
12.50000000000011
 30
0.0
 11
12.14999999999972
 21
12.50000000000013
 31
0.0
  0
LINE
  5
CA09
330
C461
100
AcDbEntity
  8
AM_5
100
AcDbLine
 10
0.4999999999997862
 20
-12.49999999999984
 30
0.0
 11
12.14999999999977
 21
-12.49999999999982
 31
0.0
  0
LINE
  5
CA0A
330
C461
100
AcDbEntity
  8
AM_5
100
AcDbLine
 10
11.64999999999973
 20
11.25000000000013
 30
0.0
 11
11.64999999999977
 21
-11.24999999999982
 31
0.0
  0
INSERT
  5
CA0B
330
C461
100
AcDbEntity
  8
AM_5
100
AcDbBlockReference
  2
_OPEN30
 10
11.64999999999972
 20
12.50000000000013
 30
0.0
 41
1.25
 42
1.25
 43
1.25
 50
90.0000000000001
  0
INSERT
  5
CA0C
330
C461
100
AcDbEntity
  8
AM_5
100
AcDbBlockReference
  2
_OPEN30
 10
11.64999999999977
 20
-12.49999999999982
 30
0.0
 41
1.25
 42
1.25
 43
1.25
 50
270.0000000000001
  0
MTEXT
  5
CA0D
330
C461
100
AcDbEntity
  8
AM_5
 62
     2
100
AcDbMText
 10
10.09999999999975
 20
0.0000000000001549
 30
0.0
 40
1.6
 41
0.0
 71
     5
 72
     1
  1
%%c25
  7
ASAMI
 11
-0.000000000000002
 21
1.0
 31
0.0
  0
POINT
  5
CA0E
330
C461
100
AcDbEntity
  8
DEFPOINTS
 62
     0
100
AcDbPoint
 10
-0.0000000000003126
 20
12.50000000000011
 30
0.0
  0
POINT
  5
CA0F
330
C461
100
AcDbEntity
  8
DEFPOINTS
 62
     0
100
AcDbPoint
 10
-0.0000000000002416
 20
-12.49999999999984
 30
0.0
  0
POINT
  5
CA10
330
C461
100
AcDbEntity
  8
DEFPOINTS
 62
     0
100
AcDbPoint
 10
11.64999999999974
 20
-12.49999999999984
 30
0.0
  0
ENDBLK
  5
C46C
330
C461
100
AcDbEntity
  8
0
100
AcDbBlockEnd
  0
BLOCK
  5
C50B
330
C501
100
AcDbEntity
  8
0
100
AcDbBlockBegin
  2
*D7
 70
     1
 10
0.0
 20
0.0
 30
0.0
  3
*D7
  1

  0
LINE
  5
CA11
330
C501
100
AcDbEntity
  8
AM_5
100
AcDbLine
 10
-38.99998474121055
 20
9.249999999999968
 30
0.0
 11
-38.99998474121051
 21
-9.250000000000017
 31
0.0
  0
INSERT
  5
CA12
330
C501
100
AcDbEntity
  8
AM_5
100
AcDbBlockReference
  2
_OPEN30
 10
-38.99998474121055
 20
10.49999999999996
 30
0.0
 41
1.25
 42
1.25
 43
1.25
 50
90.0000000000001
  0
INSERT
  5
CA13
330
C501
100
AcDbEntity
  8
AM_5
100
AcDbBlockReference
  2
_OPEN30
 10
-38.99998474121051
 20
-10.50000000000001
 30
0.0
 41
1.25
 42
1.25
 43
1.25
 50
270.0000000000001
  0
MTEXT
  5
CA14
330
C501
100
AcDbEntity
  8
AM_5
 62
     2
100
AcDbMText
 10
-40.54998474121053
 20
4.273758316641281
 30
0.0
 40
1.6
 41
0.0
 71
     5
 72
     1
  1
%%c21
  7
ASAMI
 11
-0.000000000000002
 21
1.0
 31
0.0
  0
POINT
  5
CA15
330
C501
100
AcDbEntity
  8
DEFPOINTS
 62
     0
100
AcDbPoint
 10
-45.99998474121028
 20
10.50000000000005
 30
0.0
  0
POINT
  5
CA16
330
C501
100
AcDbEntity
  8
DEFPOINTS
 62
     0
100
AcDbPoint
 10
-45.99998474121025
 20
-10.49999999999992
 30
0.0
  0
POINT
  5
CA17
330
C501
100
AcDbEntity
  8
DEFPOINTS
 62
     0
100
AcDbPoint
 10
-38.99998474121053
 20
-10.49999999999993
 30
0.0
  0
ENDBLK
  5
C50C
330
C501
100
AcDbEntity
  8
0
100
AcDbBlockEnd
  0
BLOCK
  5
C597
330
C58D
100
AcDbEntity
  8
0
100
AcDbBlockBegin
  2
*D8
 70
     1
 10
0.0
 20
0.0
 30
0.0
  3
*D8
  1

  0
LINE
  5
CA18
330
C58D
100
AcDbEntity
  8
AM_5
100
AcDbLine
 10
-127.4999847412103
 20
12.49999999999963
 30
0.0
 11
-141.9637047074611
 21
12.4999999999996
 31
0.0
  0
LINE
  5
CA19
330
C58D
100
AcDbEntity
  8
AM_5
100
AcDbLine
 10
-127.4999847412102
 20
-12.50000000000036
 30
0.0
 11
-141.963704707461
 21
-12.50000000000039
 31
0.0
  0
LINE
  5
CA1A
330
C58D
100
AcDbEntity
  8
AM_5
100
AcDbLine
 10
-141.4637047074611
 20
11.2499999999996
 30
0.0
 11
-141.463704707461
 21
-11.25000000000039
 31
0.0
  0
INSERT
  5
CA1B
330
C58D
100
AcDbEntity
  8
AM_5
100
AcDbBlockReference
  2
_OPEN30
 10
-141.4637047074611
 20
12.4999999999996
 30
0.0
 41
1.25
 42
1.25
 43
1.25
 50
90.0000000000001
  0
INSERT
  5
CA1C
330
C58D
100
AcDbEntity
  8
AM_5
100
AcDbBlockReference
  2
_OPEN30
 10
-141.463704707461
 20
-12.50000000000039
 30
0.0
 41
1.25
 42
1.25
 43
1.25
 50
270.0000000000001
  0
MTEXT
  5
CA1D
330
C58D
100
AcDbEntity
  8
AM_5
 62
     2
100
AcDbMText
 10
-143.0137047074611
 20
-0.0000000000003939
 30
0.0
 40
1.6
 41
0.0
 71
     5
 72
     1
  1
%%c25
  7
ASAMI
 11
-0.000000000000002
 21
1.0
 31
0.0
  0
POINT
  5
CA1E
330
C58D
100
AcDbEntity
  8
DEFPOINTS
 62
     0
100
AcDbPoint
 10
-126.9999847412103
 20
12.49999999999991
 30
0.0
  0
POINT
  5
CA1F
330
C58D
100
AcDbEntity
  8
DEFPOINTS
 62
     0
100
AcDbPoint
 10
-126.9999847412102
 20
-12.50000000000008
 30
0.0
  0
POINT
  5
CA20
330
C58D
100
AcDbEntity
  8
DEFPOINTS
 62
     0
100
AcDbPoint
 10
-141.463704707461
 20
-12.50000000000008
 30
0.0
  0
ENDBLK
  5
C598
330
C58D
100
AcDbEntity
  8
0
100
AcDbBlockEnd
  0
BLOCK
  5
C623
330
C619
100
AcDbEntity
  8
0
100
AcDbBlockBegin
  2
*D9
 70
     1
 10
0.0
 20
0.0
 30
0.0
  3
*D9
  1

  0
LINE
  5
CA21
330
C619
100
AcDbEntity
  8
AM_5
100
AcDbLine
 10
-129.9999847412102
 20
-11.42882537841834
 30
0.0
 11
-129.9999847412102
 21
-20.00000347260932
 31
0.0
  0
LINE
  5
CA22
330
C619
100
AcDbEntity
  8
AM_5
100
AcDbLine
 10
-49.99998448464355
 20
-13.00000347260915
 30
0.0
 11
-49.99998448464353
 21
-20.00000347260916
 31
0.0
  0
LINE
  5
CA23
330
C619
100
AcDbEntity
  8
AM_5
100
AcDbLine
 10
-128.7499847412102
 20
-19.50000347260932
 30
0.0
 11
-51.24998448464353
 21
-19.50000347260916
 31
0.0
  0
INSERT
  5
CA24
330
C619
100
AcDbEntity
  8
AM_5
100
AcDbBlockReference
  2
_OPEN30
 10
-129.9999847412102
 20
-19.50000347260932
 30
0.0
 41
1.25
 42
1.25
 43
1.25
 50
180.0000000000001
  0
INSERT
  5
CA25
330
C619
100
AcDbEntity
  8
AM_5
100
AcDbBlockReference
  2
_OPEN30
 10
-49.99998448464353
 20
-19.50000347260916
 30
0.0
 41
1.25
 42
1.25
 43
1.25
 50
0.0000000000001018
  0
MTEXT
  5
CA26
330
C619
100
AcDbEntity
  8
AM_5
 62
     2
100
AcDbMText
 10
-89.99998461292687
 20
-17.95000347260923
 30
0.0
 40
1.6
 41
0.0
 71
     5
 72
     1
  1
80
  7
ASAMI
  0
POINT
  5
CA27
330
C619
100
AcDbEntity
  8
DEFPOINTS
 62
     0
100
AcDbPoint
 10
-129.9999847412102
 20
-10.92882537841808
 30
0.0
  0
POINT
  5
CA28
330
C619
100
AcDbEntity
  8
DEFPOINTS
 62
     0
100
AcDbPoint
 10
-49.99998448464357
 20
-12.50000347260905
 30
0.0
  0
POINT
  5
CA29
330
C619
100
AcDbEntity
  8
DEFPOINTS
 62
     0
100
AcDbPoint
 10
-49.99998448464357
 20
-19.50000347260905
 30
0.0
  0
ENDBLK
  5
C624
330
C619
100
AcDbEntity
  8
0
100
AcDbBlockEnd
  0
BLOCK
  5
C6AF
330
C6A5
100
AcDbEntity
  8
0
100
AcDbBlockBegin
  2
*D10
 70
     1
 10
0.0
 20
0.0
 30
0.0
  3
*D10
  1

  0
LINE
  5
CA2A
330
C6A5
100
AcDbEntity
  8
AM_5
100
AcDbLine
 10
-49.99998474121023
 20
-13.00000000000001
 30
0.0
 11
-49.99998474121021
 21
-20.00000347260916
 31
0.0
  0
LINE
  5
CA2B
330
C6A5
100
AcDbEntity
  8
AM_5
100
AcDbLine
 10
-0.0000000000002153
 20
-12.99999999999984
 30
0.0
 11
-0.0000000000002016
 21
-20.00000347260905
 31
0.0
  0
LINE
  5
CA2C
330
C6A5
100
AcDbEntity
  8
AM_5
100
AcDbLine
 10
-48.74998474121021
 20
-19.50000347260916
 30
0.0
 11
-1.250000000000202
 21
-19.50000347260906
 31
0.0
  0
INSERT
  5
CA2D
330
C6A5
100
AcDbEntity
  8
AM_5
100
AcDbBlockReference
  2
_OPEN30
 10
-49.99998474121021
 20
-19.50000347260916
 30
0.0
 41
1.25
 42
1.25
 43
1.25
 50
180.0000000000001
  0
INSERT
  5
CA2E
330
C6A5
100
AcDbEntity
  8
AM_5
100
AcDbBlockReference
  2
_OPEN30
 10
-0.0000000000002026
 20
-19.50000347260905
 30
0.0
 41
1.25
 42
1.25
 43
1.25
 50
0.0000000000001018
  0
MTEXT
  5
CA2F
330
C6A5
100
AcDbEntity
  8
AM_5
 62
     2
100
AcDbMText
 10
-24.99999237060521
 20
-17.9500034726091
 30
0.0
 40
1.6
 41
0.0
 71
     5
 72
     1
  1
50
  7
ASAMI
  0
POINT
  5
CA30
330
C6A5
100
AcDbEntity
  8
DEFPOINTS
 62
     0
100
AcDbPoint
 10
-49.99998474121025
 20
-12.49999999999991
 30
0.0
  0
POINT
  5
CA31
330
C6A5
100
AcDbEntity
  8
DEFPOINTS
 62
     0
100
AcDbPoint
 10
-0.0000000000002416
 20
-12.49999999999984
 30
0.0
  0
POINT
  5
CA32
330
C6A5
100
AcDbEntity
  8
DEFPOINTS
 62
     0
100
AcDbPoint
 10
-0.000000000000242
 20
-19.50000347260905
 30
0.0
  0
ENDBLK
  5
C6B0
330
C6A5
100
AcDbEntity
  8
0
100
AcDbBlockEnd
  0
BLOCK
  5
C747
330
C73D
100
AcDbEntity
  8
0
100
AcDbBlockBegin
  2
*D11
 70
     1
 10
0.0
 20
0.0
 30
0.0
  3
*D11
  1

  0
LINE
  5
CA33
330
C73D
100
AcDbEntity
  8
AM_5
100
AcDbLine
 10
-129.9999847412102
 20
-11.42882537841834
 30
0.0
 11
-129.9999847412101
 21
-25.00000347260932
 31
0.0
  0
LINE
  5
CA34
330
C73D
100
AcDbEntity
  8
AM_5
100
AcDbLine
 10
-0.0000000000002153
 20
-12.99999999999984
 30
0.0
 11
-0.0000000000001918
 21
-25.00000347260906
 31
0.0
  0
LINE
  5
CA35
330
C73D
100
AcDbEntity
  8
AM_5
100
AcDbLine
 10
-128.7499847412101
 20
-24.50000347260932
 30
0.0
 11
-1.250000000000192
 21
-24.50000347260906
 31
0.0
  0
INSERT
  5
CA36
330
C73D
100
AcDbEntity
  8
AM_5
100
AcDbBlockReference
  2
_OPEN30
 10
-129.9999847412101
 20
-24.50000347260932
 30
0.0
 41
1.25
 42
1.25
 43
1.25
 50
180.0000000000001
  0
INSERT
  5
CA37
330
C73D
100
AcDbEntity
  8
AM_5
100
AcDbBlockReference
  2
_OPEN30
 10
-0.0000000000001928
 20
-24.50000347260905
 30
0.0
 41
1.25
 42
1.25
 43
1.25
 50
0.0000000000001018
  0
MTEXT
  5
CA38
330
C73D
100
AcDbEntity
  8
AM_5
 62
     2
100
AcDbMText
 10
-64.99999237060521
 20
-22.95000347260919
 30
0.0
 40
1.6
 41
0.0
 71
     5
 72
     1
  1
130
  7
ASAMI
  0
POINT
  5
CA39
330
C73D
100
AcDbEntity
  8
DEFPOINTS
 62
     0
100
AcDbPoint
 10
-129.9999847412102
 20
-10.92882537841808
 30
0.0
  0
POINT
  5
CA3A
330
C73D
100
AcDbEntity
  8
DEFPOINTS
 62
     0
100
AcDbPoint
 10
-0.0000000000002416
 20
-12.49999999999984
 30
0.0
  0
POINT
  5
CA3B
330
C73D
100
AcDbEntity
  8
DEFPOINTS
 62
     0
100
AcDbPoint
 10
-0.0000000000002423
 20
-24.50000347260905
 30
0.0
  0
ENDBLK
  5
C748
330
C73D
100
AcDbEntity
  8
0
100
AcDbBlockEnd
  0
ENDSEC
  0
SECTION
  2
ENTITIES
  0
TEXT
  5
388D
330
1F
100
AcDbEntity
  8
AM_6
100
AcDbText
 10
-76.84523046584328
 20
-35.75000347260917
 30
0.0
 40
2.5
  1
WRC08025ES
 50
359.9999999999998
 51
359.9999999999998
 72
     4
 11
-64.99999237060518
 21
-34.50000347260919
 31
0.0
100
AcDbText
  0
SPLINE
  5
C0D1
330
1F
100
AcDbEntity
  8
AM_0
100
AcDbSpline
210
0.0
220
0.0
230
1.0
 70
     8
 71
     3
 72
    11
 73
     7
 74
     5
 42
0.0000000001
 43
0.0000000001
 44
0.0000000001
 40
0.0
 40
0.0
 40
0.0
 40
0.0
 40
0.2424969388335572
 40
0.4841622236645337
 40
0.72557586124843
 40
0.967919382873589
 40
0.967919382873589
 40
0.967919382873589
 40
0.967919382873589
 10
-6.526184082030269
 20
4.349998474121164
 30
0.0
 10
-6.607118896821065
 20
4.353820753841041
 30
0.0
 10
-6.768710956867167
 20
4.361452204603039
 30
0.0
 10
-7.00427371651834
 20
4.42179444644799
 30
0.0
 10
-7.229400545933312
 20
4.51374907340384
 30
0.0
 10
-7.363164994914234
 20
4.604520794612732
 30
0.0
 10
-7.43017578125027
 20
4.649993896484147
 30
0.0
 11
-6.526184082030269
 21
4.349998474121164
 31
0.0
 11
-6.767883300780269
 21
4.369651794433153
 31
0.0
 11
-7.00262451172027
 21
4.427085876465156
 31
0.0
 11
-7.225036621090268
 21
4.520965576172159
 31
0.0
 11
-7.43017578125027
 21
4.649993896484147
 31
0.0
  0
SPLINE
  5
C0D2
330
1F
100
AcDbEntity
  8
AM_0
100
AcDbSpline
210
0.0
220
0.0
230
1.0
 70
     8
 71
     3
 72
    11
 73
     7
 74
     5
 42
0.0000000001
 43
0.0000000001
 44
0.0000000001
 40
0.0
 40
0.0
 40
0.0
 40
0.0
 40
0.1690069939435471
 40
0.3379618711703603
 40
0.507935850450494
 40
0.6795461810356666
 40
0.6795461810356666
 40
0.6795461810356666
 40
0.6795461810356666
 10
-5.869995117180266
 20
4.503562927246164
 30
0.0
 10
-5.921318234737055
 20
4.48016149701045
 30
0.0
 10
-6.023948643331759
 20
4.433365852842218
 30
0.0
 10
-6.18713368270624
 20
4.386456803559308
 30
0.0
 10
-6.354990290933715
 20
4.355586273194239
 30
0.0
 10
-6.468937531173035
 20
4.35186701282089
 30
0.0
 10
-6.526184082030269
 20
4.349998474121164
 30
0.0
 11
-5.869995117180266
 21
4.503562927246164
 31
0.0
 11
-6.025451660150267
 21
4.437255859375156
 31
0.0
 11
-6.187438964840268
 21
4.389236450195156
 31
0.0
 11
-6.354858398430266
 21
4.359878540039161
 31
0.0
 11
-6.526184082030269
 21
4.349998474121164
 31
0.0
  0
SPLINE
  5
C0D3
330
1F
100
AcDbEntity
  8
AM_0
100
AcDbSpline
210
0.0
220
0.0
230
1.0
 70
     8
 71
     3
 72
    11
 73
     7
 74
     5
 42
0.0000000001
 43
0.0000000001
 44
0.0000000001
 40
0.0
 40
0.0
 40
0.0
 40
0.0
 40
0.3080669177228811
 40
0.6162102123201237
 40
0.92443604807571
 40
1.232745360475883
 40
1.232745360475883
 40
1.232745360475883
 40
1.232745360475883
 10
-6.564941406250241
 20
-10.42787933349583
 30
0.0
 10
-6.490179608257806
 20
-10.49827610105053
 30
0.0
 10
-6.340637477103711
 20
-10.63908708913771
 30
0.0
 10
-6.115815757893042
 20
-10.84982123046021
 30
0.0
 10
-5.890622120153913
 20
-11.06027623152191
 30
0.0
 10
-5.740158825568014
 20
-11.20026154058785
 30
0.0
 10
-5.664916992180238
 20
-11.27026367187484
 30
0.0
 11
-6.564941406250241
 21
-10.42787933349583
 31
0.0
 11
-6.340576171870239
 21
-10.63898468017583
 31
0.0
 11
-6.115783691400238
 21
-10.84974670410184
 31
0.0
 11
-5.890563964840239
 21
-11.06017303466784
 31
0.0
 11
-5.664916992180238
 21
-11.27026367187484
 31
0.0
  0
SPLINE
  5
C0D4
330
1F
100
AcDbEntity
  8
AM_0
100
AcDbSpline
210
0.0
220
0.0
230
1.0
 70
     8
 71
     3
 72
    11
 73
     7
 74
     5
 42
0.0000000001
 43
0.0000000001
 44
0.0000000001
 40
0.0
 40
0.0
 40
0.0
 40
0.0
 40
0.5814074929820707
 40
1.163176881726081
 40
1.745208674364821
 40
2.327479074321949
 40
2.327479074321949
 40
2.327479074321949
 40
2.327479074321949
 10
-1.20373535156024
 20
-9.936912536620837
 30
0.0
 10
-1.344245230001436
 20
-10.07039099578756
 30
0.0
 10
-1.62535244693574
 20
-10.33743099748211
 30
0.0
 10
-2.049194422989105
 20
-10.73589974029439
 30
0.0
 10
-2.474360968282559
 20
-11.13337462426337
 30
0.0
 10
-2.758849586697273
 20
-11.39736070690582
 30
0.0
 10
-2.901123046870239
 20
-11.52938079833984
 30
0.0
 11
-1.20373535156024
 21
-9.936912536620837
 31
0.0
 11
-1.62561035156024
 21
-10.33698272705083
 31
0.0
 11
-2.049316406250241
 21
-10.73564147949284
 31
0.0
 11
-2.474548339840239
 21
-11.13305664062484
 31
0.0
 11
-2.901123046870239
 21
-11.52938079833984
 31
0.0
  0
SPLINE
  5
C0D5
330
1F
100
AcDbEntity
  8
AM_0
100
AcDbSpline
210
0.0
220
0.0
230
1.0
 70
     8
 71
     3
 72
    11
 73
     7
 74
     5
 42
0.0000000001
 43
0.0000000001
 44
0.0000000001
 40
0.0
 40
0.0
 40
0.0
 40
0.0
 40
0.454709961135139
 40
0.9088603993826747
 40
1.362354519334928
 40
1.815009615749174
 40
1.815009615749174
 40
1.815009615749174
 40
1.815009615749174
 10
-1.203735351560268
 20
-7.769813537597826
 30
0.0
 10
-1.313776046610099
 20
-7.665578893800935
 30
0.0
 10
-1.533722031082635
 20
-7.457237867459094
 30
0.0
 10
-1.859861635319513
 20
-7.141227776939003
 30
0.0
 10
-2.182751784602674
 20
-6.822860307591744
 30
0.0
 10
-2.394315892158306
 20
-6.607273819303571
 30
0.0
 10
-2.50000000000027
 20
-6.499580383300838
 30
0.0
 11
-1.203735351560268
 21
-7.769813537597826
 31
0.0
 11
-1.533264160150267
 21
-7.456489562988835
 31
0.0
 11
-1.85955810547027
 21
-7.140602111816846
 31
0.0
 11
-2.182067871090268
 21
-6.821784973144843
 31
0.0
 11
-2.50000000000027
 21
-6.499580383300838
 31
0.0
  0
SPLINE
  5
C0D6
330
1F
100
AcDbEntity
  8
AM_0
100
AcDbSpline
210
0.0
220
0.0
230
1.0
 70
     8
 71
     3
 72
    11
 73
     7
 74
     5
 42
0.0000000001
 43
0.0000000001
 44
0.0000000001
 40
0.0
 40
0.0
 40
0.0
 40
0.0
 40
0.0666221626145938
 40
0.13150750733877
 40
0.1950548704728802
 40
0.2579139261310744
 40
0.2579139261310744
 40
0.2579139261310744
 40
0.2579139261310744
 10
-19.21392822265026
 20
-5.636940002441875
 30
0.0
 10
-19.2266181723776
 20
-5.655240039802517
 30
0.0
 10
-19.25166724901222
 20
-5.691363038562353
 30
0.0
 10
-19.27621507583543
 20
-5.752046134017492
 30
0.0
 10
-19.28986537906424
 20
-5.814908712117107
 30
0.0
 10
-19.28826928663059
 20
-5.857162148842635
 30
0.0
 10
-19.28747558593026
 20
-5.878173828124872
 30
0.0
 11
-19.21392822265026
 21
-5.636940002441875
 31
0.0
 11
-19.24981689453026
 21
-5.693069458007869
 31
0.0
 11
-19.27459716797027
 21
-5.753036499023863
 31
0.0
 11
-19.28723144531026
 21
-5.815315246581874
 31
0.0
 11
-19.28747558593026
 21
-5.878173828124872
 31
0.0
  0
SPLINE
  5
C0D7
330
1F
100
AcDbEntity
  8
AM_0
100
AcDbSpline
210
0.0
220
0.0
230
1.0
 70
     8
 71
     3
 72
    11
 73
     7
 74
     5
 42
0.0000000001
 43
0.0000000001
 44
0.0000000001
 40
0.0
 40
0.0
 40
0.0
 40
0.0
 40
1.199556798924341
 40
2.378980649985642
 40
3.517781814943303
 40
4.595076503130103
 40
4.595076503130103
 40
4.595076503130103
 40
4.595076503130103
 10
-9.508239746090239
 20
-10.42787933349585
 30
0.0
 10
-9.908094745258033
 20
-10.42972669582809
 30
0.0
 10
-10.70109371510523
 20
-10.43339041499992
 30
0.0
 10
-11.87345679799535
 20
-10.45822453261451
 30
0.0
 10
-13.00489201232021
 20
-10.48936247249538
 30
0.0
 10
-13.74357197301646
 20
-10.4965203787001
 30
0.0
 10
-14.10266113281024
 20
-10.49999999999985
 30
0.0
 11
-9.508239746090239
 21
-10.42787933349585
 31
0.0
 11
-10.70776367187024
 21
-10.43675994873085
 31
0.0
 11
-11.88696289062024
 21
-10.45977783203186
 31
0.0
 11
-13.02545166015024
 21
-10.48645019531285
 31
0.0
 11
-14.10266113281024
 21
-10.49999999999985
 31
0.0
  0
SPLINE
  5
C0D8
330
1F
100
AcDbEntity
  8
AM_0
100
AcDbSpline
210
0.0
220
0.0
230
1.0
 70
     8
 71
     3
 72
    11
 73
     7
 74
     5
 42
0.0000000001
 43
0.0000000001
 44
0.0000000001
 40
0.0
 40
0.0
 40
0.0
 40
0.0
 40
0.1268895120541905
 40
0.2516287661742822
 40
0.372743514410536
 40
0.4889799829334989
 40
0.4889799829334989
 40
0.4889799829334989
 40
0.4889799829334989
 10
-18.78448486328027
 20
-5.433723449706874
 30
0.0
 10
-18.82673464486229
 20
-5.437848462598255
 30
0.0
 10
-18.91051824713573
 20
-5.446028586294117
 30
0.0
 10
-19.02834939802488
 20
-5.488233357887414
 30
0.0
 10
-19.13434532911466
 20
-5.549113609395132
 30
0.0
 10
-19.18776658047645
 20
-5.608068437634078
 30
0.0
 10
-19.21392822265026
 20
-5.636940002441875
 30
0.0
 11
-18.78448486328027
 21
-5.433723449706874
 31
0.0
 11
-18.91015625000027
 21
-5.451263427734872
 31
0.0
 11
-19.02801513672027
 21
-5.492118835449872
 31
0.0
 11
-19.13159179687026
 21
-5.554893493652869
 31
0.0
 11
-19.21392822265026
 21
-5.636940002441875
 31
0.0
  0
SPLINE
  5
C0D9
330
1F
100
AcDbEntity
  8
AM_0
100
AcDbSpline
210
0.0
220
0.0
230
1.0
 70
     8
 71
     3
 72
    11
 73
     7
 74
     5
 42
0.0000000001
 43
0.0000000001
 44
0.0000000001
 40
0.0
 40
0.0
 40
0.0
 40
0.0
 40
4.14044355048738
 40
7.997031048917256
 40
10.88020346889596
 40
12.17707504350469
 40
12.17707504350469
 40
12.17707504350469
 40
12.17707504350469
 10
-9.508239746090268
 20
4.149993896484147
 30
0.0
 10
-10.89616551904801
 20
4.319246567758407
 30
0.0
 10
-13.57686515052324
 20
4.646148468675064
 30
0.0
 10
-16.66199758196368
 20
6.808910117793185
 30
0.0
 10
-18.29635086102931
 20
8.940633254788879
 30
0.0
 10
-19.05278847666659
 20
10.11080474253267
 30
0.0
 10
-19.28747558593029
 20
10.47385406494113
 30
0.0
 11
-9.508239746090268
 21
4.149993896484147
 31
0.0
 11
-13.56127929687026
 21
4.996246337890141
 31
0.0
 11
-16.76104736328029
 21
7.149093627929133
 31
0.0
 11
-18.57440185547029
 21
9.390617370605127
 31
0.0
 11
-19.28747558593029
 21
10.47385406494113
 31
0.0
  0
SPLINE
  5
C0DA
330
1F
100
AcDbEntity
  8
AM_0
100
AcDbSpline
210
0.0
220
0.0
230
1.0
 70
     8
 71
     3
 72
    11
 73
     7
 74
     5
 42
0.0000000001
 43
0.0000000001
 44
0.0000000001
 40
0.0
 40
0.0
 40
0.0
 40
0.0
 40
0.1867087876296251
 40
0.3484182931970623
 40
0.4616940021405554
 40
0.5059111821619567
 40
0.5059111821619567
 40
0.5059111821619567
 40
0.5059111821619567
 10
-18.78448486328029
 20
10.49782562255813
 30
0.0
 10
-18.84677287500063
 20
10.49793018273362
 30
0.0
 10
-18.96300887548976
 20
10.49812530305089
 30
0.0
 10
-19.11630809229903
 20
10.49271166678962
 30
0.0
 10
-19.22391837608361
 20
10.49498016197319
 30
0.0
 10
-19.2746391879731
 20
10.48087388389426
 30
0.0
 10
-19.28887939453029
 20
10.47691345214812
 30
0.0
 11
-18.78448486328029
 21
10.49782562255813
 31
0.0
 11
-18.97119140625029
 21
10.49691009521512
 31
0.0
 11
-19.13287353515029
 21
10.49393463134714
 31
0.0
 11
-19.24597167968029
 21
10.48759460449213
 31
0.0
 11
-19.28887939453029
 21
10.47691345214812
 31
0.0
  0
SPLINE
  5
C0DB
330
1F
100
AcDbEntity
  8
AM_0
100
AcDbSpline
210
0.0
220
0.0
230
1.0
 70
     8
 71
     3
 72
    11
 73
     7
 74
     5
 42
0.0000000001
 43
0.0000000001
 44
0.0000000001
 40
0.0
 40
0.0
 40
0.0
 40
0.0
 40
2.295945722437478
 40
4.042192408055802
 40
5.79624212448463
 40
8.026248163336383
 40
8.026248163336383
 40
8.026248163336383
 40
8.026248163336383
 10
-14.10266113281024
 20
-10.49999999999985
 30
0.0
 10
-14.86822018104143
 20
-10.49994441241576
 30
0.0
 10
-16.21604689246439
 20
-10.49984654611684
 30
0.0
 10
-18.11652615461108
 20
-9.73211012558422
 30
0.0
 10
-19.03457244110415
 20
-7.930664838914431
 30
0.0
 10
-19.19671763100626
 20
-6.614739942268053
 30
0.0
 10
-19.28747558593026
 20
-5.878173828124872
 30
0.0
 11
-14.10266113281024
 21
-10.49999999999985
 31
0.0
 11
-16.39208984375024
 21
-10.32713317871086
 31
0.0
 11
-17.96789550781024
 21
-9.574661254882869
 31
0.0
 11
-18.86602783203026
 21
-8.067993164062869
 31
0.0
 11
-19.28747558593026
 21
-5.878173828124872
 31
0.0
  0
SPLINE
  5
C0DC
330
1F
100
AcDbEntity
  8
AM_0
100
AcDbSpline
210
0.0
220
0.0
230
1.0
 70
     8
 71
     3
 72
    11
 73
     7
 74
     5
 42
0.0000000001
 43
0.0000000001
 44
0.0000000001
 40
0.0
 40
0.0
 40
0.0
 40
0.0
 40
0.260308534155729
 40
0.5191977698651787
 40
0.7770251138162757
 40
1.034431143734581
 40
1.034431143734581
 40
1.034431143734581
 40
1.034431143734581
 10
-3.09246826172027
 20
3.163208007812158
 30
0.0
 10
-3.100070455506616
 20
3.249732799802313
 30
0.0
 10
-3.115233393105859
 20
3.422310618601219
 30
0.0
 10
-3.17184363977516
 20
3.675640392155119
 30
0.0
 10
-3.252737705084847
 20
3.921653153368916
 30
0.0
 10
-3.332762180245043
 20
4.073921819567359
 30
0.0
 10
-3.37274169922027
 20
4.149993896484161
 30
0.0
 11
-3.09246826172027
 21
3.163208007812158
 31
0.0
 11
-3.120971679680266
 21
3.421951293945156
 31
0.0
 11
-3.176025390620267
 21
3.674919128418153
 31
0.0
 11
-3.259338378900267
 21
3.918914794922159
 31
0.0
 11
-3.37274169922027
 21
4.149993896484161
 31
0.0
  0
SPLINE
  5
C0DD
330
1F
100
AcDbEntity
  8
AM_0
100
AcDbSpline
210
0.0
220
0.0
230
1.0
 70
     8
 71
     3
 72
    11
 73
     7
 74
     5
 42
0.0000000001
 43
0.0000000001
 44
0.0000000001
 40
0.0
 40
0.0
 40
0.0
 40
0.0
 40
0.4745286065878251
 40
0.9497344607654646
 40
1.425623069062668
 40
1.90214311211551
 40
1.90214311211551
 40
1.90214311211551
 40
1.90214311211551
 10
-1.20458984375027
 20
-2.037994384765823
 30
0.0
 10
-1.341459515750409
 20
-2.117281336036223
 30
0.0
 10
-1.61539420025112
 20
-2.275968396974445
 30
0.0
 10
-2.027171371418385
 20
-2.513165092052472
 30
0.0
 10
-2.439911026319794
 20
-2.750019449812241
 30
0.0
 10
-2.715627183444748
 20
-2.907396630342638
 30
0.0
 10
-2.853576660150267
 20
-2.986137390136846
 30
0.0
 11
-1.20458984375027
 21
-2.037994384765823
 31
0.0
 11
-1.615295410150267
 21
-2.275688171386846
 31
0.0
 11
-2.02703857422027
 21
-2.512939453124843
 31
0.0
 11
-2.439819335930266
 21
-2.749755859374843
 31
0.0
 11
-2.853576660150267
 21
-2.986137390136846
 31
0.0
  0
SPLINE
  5
C0DE
330
1F
100
AcDbEntity
  8
AM_0
100
AcDbSpline
210
0.0
220
0.0
230
1.0
 70
     8
 71
     3
 72
    11
 73
     7
 74
     5
 42
0.0000000001
 43
0.0000000001
 44
0.0000000001
 40
0.0
 40
0.0
 40
0.0
 40
0.0
 40
0.1771713400000092
 40
0.354699723972924
 40
0.5326288485386535
 40
0.7109141464208778
 40
0.7109141464208778
 40
0.7109141464208778
 40
0.7109141464208778
 10
-6.007568359370267
 20
1.372726440429161
 30
0.0
 10
-5.956050753065761
 20
1.343852868986325
 30
0.0
 10
-5.852911719766393
 20
1.286047538728699
 30
0.0
 10
-5.697738423709743
 20
1.199775513254837
 30
0.0
 10
-5.541998403423887
 20
1.113760107707546
 30
0.0
 10
-5.437862300836685
 20
1.05671244640535
 30
0.0
 10
-5.38574218750027
 20
1.028160095215156
 30
0.0
 11
-6.007568359370267
 21
1.372726440429161
 31
0.0
 11
-5.852966308590268
 21
1.286193847656164
 31
0.0
 11
-5.697814941400267
 21
1.199913024902159
 31
0.0
 11
-5.542053222650267
 21
1.113906860351164
 31
0.0
 11
-5.38574218750027
 21
1.028160095215156
 31
0.0
  0
SPLINE
  5
C0DF
330
1F
100
AcDbEntity
  8
AM_0
100
AcDbSpline
210
0.0
220
0.0
230
1.0
 70
     8
 71
     3
 72
    11
 73
     7
 74
     5
 42
0.0000000001
 43
0.0000000001
 44
0.0000000001
 40
0.0
 40
0.0
 40
0.0
 40
0.0
 40
0.4843654968716455
 40
0.9682422151707987
 40
1.449266395956639
 40
1.924006896796951
 40
1.924006896796951
 40
1.924006896796951
 40
1.924006896796951
 10
-5.664916992180266
 20
4.149993896484161
 30
0.0
 10
-5.723561296845011
 20
3.999413524608915
 30
0.0
 10
-5.840790727558964
 20
3.698404733174771
 30
0.0
 10
-5.960958640776378
 20
3.22967479198671
 30
0.0
 10
-6.040777620382206
 20
2.75491396720195
 30
0.0
 10
-6.042730935400881
 20
2.435854949052963
 30
0.0
 10
-6.043701171870267
 20
2.277374267578153
 30
0.0
 11
-5.664916992180266
 21
4.149993896484161
 31
0.0
 11
-5.831604003900267
 21
3.695213317871164
 31
0.0
 11
-5.954528808590268
 21
3.227210998535156
 31
0.0
 11
-6.028198242180266
 21
2.751861572265156
 31
0.0
 11
-6.043701171870267
 21
2.277374267578153
 31
0.0
  0
SPLINE
  5
C0E0
330
1F
100
AcDbEntity
  8
AM_0
100
AcDbSpline
210
0.0
220
0.0
230
1.0
 70
     8
 71
     3
 72
    11
 73
     7
 74
     5
 42
0.0000000001
 43
0.0000000001
 44
0.0000000001
 40
0.0
 40
0.0
 40
0.0
 40
0.0
 40
0.0385172104242006
 40
0.0770954496374943
 40
0.1156125505086842
 40
0.1541297609328852
 40
0.1541297609328852
 40
0.1541297609328852
 40
0.1541297609328852
 10
-7.738220214840296
 20
10.12561798095714
 30
0.0
 10
-7.72538248515537
 20
10.12543245979741
 30
0.0
 10
-7.699686684979715
 20
10.12506112352799
 30
0.0
 10
-7.661153224464935
 20
10.12450196966822
 30
0.0
 10
-7.622619556360294
 20
10.12395728131457
 30
0.0
 10
-7.596944161164901
 20
10.12358431204709
 30
0.0
 10
-7.584106445310297
 20
10.12339782714815
 30
0.0
 11
-7.738220214840296
 21
10.12561798095714
 31
0.0
 11
-7.699707031250298
 21
10.12506103515616
 31
0.0
 11
-7.661132812500298
 21
10.12450408935515
 31
0.0
 11
-7.622619628900295
 21
10.12395477294916
 31
0.0
 11
-7.584106445310297
 21
10.12339782714815
 31
0.0
  0
SPLINE
  5
C0E1
330
1F
100
AcDbEntity
  8
AM_0
100
AcDbSpline
210
0.0
220
0.0
230
1.0
 70
     8
 71
     3
 72
    11
 73
     7
 74
     5
 42
0.0000000001
 43
0.0000000001
 44
0.0000000001
 40
0.0
 40
0.0
 40
0.0
 40
0.0
 40
0.0054394586747367
 40
0.0108789173594651
 40
0.0163187773169566
 40
0.0217586372644586
 40
0.0217586372644586
 40
0.0217586372644586
 40
0.0217586372644586
 10
-6.586669921870267
 20
-2.595634460449844
 30
0.0
 10
-6.58485922177712
 20
-2.595540183447432
 30
0.0
 10
-6.581237821587503
 20
-2.595351629442439
 30
0.0
 10
-6.5758054159972
 20
-2.595072052015569
 30
0.0
 10
-6.57037356377836
 20
-2.594779424772873
 30
0.0
 10
-6.56675212542519
 20
-2.594586509104127
 30
0.0
 10
-6.56494140625027
 20
-2.594490051269843
 30
0.0
 11
-6.586669921870267
 21
-2.595634460449844
 31
0.0
 11
-6.58123779297027
 21
-2.595352172851846
 31
0.0
 11
-6.575805664060268
 21
-2.595069885253835
 31
0.0
 11
-6.570373535150267
 21
-2.594779968261846
 31
0.0
 11
-6.56494140625027
 21
-2.594490051269843
 31
0.0
  0
SPLINE
  5
C0E2
330
1F
100
AcDbEntity
  8
AM_0
100
AcDbSpline
210
0.0
220
0.0
230
1.0
 70
     8
 71
     3
 72
    11
 73
     7
 74
     5
 42
0.0000000001
 43
0.0000000001
 44
0.0000000001
 40
0.0
 40
0.0
 40
0.0
 40
0.0
 40
0.0050729507452383
 40
0.0101459014804329
 40
0.0152798037761606
 40
0.0203527545213458
 40
0.0203527545213458
 40
0.0203527545213458
 40
0.0203527545213458
 10
-2.921447753900267
 20
-3.014328002929843
 30
0.0
 10
-2.919759109654653
 20
-3.014239087268728
 30
0.0
 10
-2.916381821166768
 20
-3.014061255946671
 30
0.0
 10
-2.911295688312817
 20
-3.013791742914786
 30
0.0
 10
-2.906209197497516
 20
-3.013529061587068
 30
0.0
 10
-2.902811667481882
 20
-3.01334925441227
 30
0.0
 10
-2.901123046870267
 20
-3.013259887695838
 30
0.0
 11
-2.921447753900267
 21
-3.014328002929843
 31
0.0
 11
-2.916381835930266
 21
-3.014060974120837
 31
0.0
 11
-2.91131591797027
 21
-3.013793945312841
 31
0.0
 11
-2.906188964840268
 21
-3.013526916503835
 31
0.0
 11
-2.901123046870267
 21
-3.013259887695838
 31
0.0
  0
SPLINE
  5
C0E3
330
1F
100
AcDbEntity
  8
AM_0
100
AcDbSpline
210
0.0
220
0.0
230
1.0
 70
     8
 71
     3
 72
    11
 73
     7
 74
     5
 42
0.0000000001
 43
0.0000000001
 44
0.0000000001
 40
0.0
 40
0.0
 40
0.0
 40
0.0
 40
0.0291529338041108
 40
0.0583062639467565
 40
0.0874595940794638
 40
0.1166129242121711
 40
0.1166129242121711
 40
0.1166129242121711
 40
0.1166129242121711
 10
-5.38574218750027
 20
-3.143127441406846
 30
0.0
 10
-5.376037562318706
 20
-3.142624580716081
 30
0.0
 10
-5.356628180019734
 20
-3.141618852498083
 30
0.0
 10
-5.327514676704906
 20
-3.140098028284785
 30
0.0
 10
-5.298400871832434
 20
-3.138580458139145
 30
0.0
 10
-5.278991696857657
 20
-3.137568201215604
 30
0.0
 10
-5.269287109370267
 20
-3.137062072753835
 30
0.0
 11
-5.38574218750027
 21
-3.143127441406846
 31
0.0
 11
-5.35662841797027
 21
-3.141616821288835
 31
0.0
 11
-5.327514648430266
 21
-3.140098571777841
 31
0.0
 11
-5.298400878900267
 21
-3.138580322265838
 31
0.0
 11
-5.269287109370267
 21
-3.137062072753835
 31
0.0
  0
ELLIPSE
  5
C0E4
330
1F
100
AcDbEntity
  8
AM_0
100
AcDbEllipse
 10
-7.665710449220242
 20
-19.79399108886784
 30
0.0
 11
-7.469054858339971
 21
-15.000666113955
 31
0.0
210
0.0
220
0.0
230
1.0
 40
0.0400540587738
 41
2.919559279832826
 42
3.061361861767326
  0
ELLIPSE
  5
C0E5
330
1F
100
AcDbEntity
  8
AM_0
100
AcDbEllipse
 10
-0.4346923828102689
 20
-5.388534545898821
 30
0.0
 11
-0.3850097035299856
 21
-1.33054740995901
 31
0.0
210
0.0
220
0.0
230
0.9999999999999998
 40
0.0530759362593
 41
0.2301021716059122
 42
0.4904141146617733
  0
ELLIPSE
  5
C0E6
330
1F
100
AcDbEntity
  8
AM_0
100
AcDbEllipse
 10
-3.05194091797027
 20
-3.942611694335838
 30
0.0
 11
-3.050842235159991
 21
0.1679379351869923
 31
0.0
210
0.0
220
0.0
230
0.9999999999999998
 40
0.4907145095498001
 41
3.168695997793602
 42
3.337770852160367
  0
ELLIPSE
  5
C0E7
330
1F
100
AcDbEntity
  8
AM_0
100
AcDbEllipse
 10
-7.665710449220242
 20
-19.79399108886784
 30
0.0
 11
-7.469054858339971
 21
-15.000666113955
 31
0.0
210
0.0
220
0.0
230
1.0
 40
0.0400540587738
 41
2.676034607945021
 42
2.919559279832826
  0
ELLIPSE
  5
C0E8
330
1F
100
AcDbEntity
  8
AM_0
100
AcDbEllipse
 10
-6.723876953120296
 20
5.849998474121164
 30
0.0
 11
-1.173828201180017
 21
1.102912778622991
 31
0.0
210
0.0
220
0.0
230
1.0
 40
0.8660872135678999
 41
2.852647202456242
 42
3.083336612990997
  0
ELLIPSE
  5
C0E9
330
1F
100
AcDbEntity
  8
AM_0
100
AcDbEllipse
 10
-6.723876953120296
 20
5.849998474121164
 30
0.0
 11
-0.0000000655699891
 21
-1.499999999999999
 31
0.0
210
0.0
220
0.0
230
0.9999999999999998
 40
0.8548177083332999
 41
3.996555233277907
 42
4.244346468382468
  0
ELLIPSE
  5
C0EA
330
1F
100
AcDbEntity
  8
AM_0
100
AcDbEllipse
 10
-3.051940917970298
 20
8.162246704101164
 30
0.0
 11
-2.986633319920003
 21
0.639476765705987
 31
0.0
210
0.0
220
0.0
230
0.9999999999999998
 40
0.9821569705434999
 41
2.963527539795539
 42
3.348729035290029
  0
ELLIPSE
  5
C0EB
330
1F
100
AcDbEntity
  8
AM_0
100
AcDbEllipse
 10
-3.051940917970298
 20
8.537742614746164
 30
0.0
 11
-2.986633256999992
 21
-0.639480475802009
 31
0.0
210
0.0
220
0.0
230
1.0
 40
0.9821579114332999
 41
2.934479184411373
 42
3.319607342269559
  0
ELLIPSE
  5
C0EC
330
1F
100
AcDbEntity
  8
AM_0
100
AcDbEllipse
 10
-3.195434570310297
 20
8.884643554687158
 30
0.0
 11
-2.48181171912
 21
-1.782340906676997
 31
0.0
210
0.0
220
0.0
230
1.0
 40
0.9814022284647
 41
2.915143655614733
 42
3.300526259956899
  0
ELLIPSE
  5
C0ED
330
1F
100
AcDbEntity
  8
AM_0
100
AcDbEllipse
 10
-3.460632324220298
 20
9.150161743164161
 30
0.0
 11
-1.616333111300003
 21
-2.594898289718004
 31
0.0
210
0.0
220
0.0
230
1.0
 40
0.9803621330997
 41
2.916930017401538
 42
3.302640539746428
  0
ELLIPSE
  5
C0EE
330
1F
100
AcDbEntity
  8
AM_0
100
AcDbEllipse
 10
-3.807006835930295
 20
9.293853759765156
 30
0.0
 11
-0.5582274152399915
 21
-3.006816964593996
 31
0.0
210
0.0
220
0.0
230
1.0
 40
0.9796682873617999
 41
2.936246986477236
 42
3.321499780552235
  0
ELLIPSE
  5
C0EF
330
1F
100
AcDbEntity
  8
AM_0
100
AcDbEllipse
 10
-4.182006835930295
 20
9.293853759765156
 30
0.0
 11
-0.5582274152400036
 21
3.006816964595002
 31
0.0
210
0.0
220
0.0
230
1.0
 40
0.9796678195986999
 41
6.103272853303089
 42
6.488553981694857
  0
ELLIPSE
  5
C0F0
330
1F
100
AcDbEntity
  8
AM_0
100
AcDbEllipse
 10
-4.528442382810297
 20
9.150161743164161
 30
0.0
 11
-1.616333111300013
 21
2.594898289716991
 31
0.0
210
0.0
220
0.0
230
1.0
 40
0.9803621330997
 41
6.12241676781853
 42
6.507648800314396
  0
ELLIPSE
  5
C0F1
330
1F
100
AcDbEntity
  8
AM_0
100
AcDbEllipse
 10
-4.793579101560297
 20
8.884643554687158
 30
0.0
 11
-2.481811719120006
 21
1.782340906677001
 31
0.0
210
0.0
220
0.0
230
0.9999999999999998
 40
0.9814022284647
 41
6.124195010289769
 42
6.509635000282099
  0
ELLIPSE
  5
C0F2
330
1F
100
AcDbEntity
  8
AM_0
100
AcDbEllipse
 10
-4.937072753900295
 20
8.537734985351164
 30
0.0
 11
-2.986633319920003
 21
0.639476765705987
 31
0.0
210
0.0
220
0.0
230
0.9999999999999998
 40
0.9821569705434999
 41
6.105119664976924
 42
6.49032126672007
  0
ELLIPSE
  5
C0F3
330
1F
100
AcDbEntity
  8
AM_0
100
AcDbEllipse
 10
-4.937072753900295
 20
8.162254333496164
 30
0.0
 11
-2.986633257009997
 21
-0.6394804758020089
 31
0.0
210
0.0
220
0.0
230
1.0
 40
0.9821579114332999
 41
6.076072536880172
 42
6.461199512916309
  0
ELLIPSE
  5
C0F4
330
1F
100
AcDbEntity
  8
AM_0
100
AcDbEllipse
 10
-4.793579101560297
 20
7.815345764160156
 30
0.0
 11
-2.48181171912
 21
-1.782340906676997
 31
0.0
210
0.0
220
0.0
230
1.0
 40
0.9814022284647
 41
6.05673591718379
 42
6.442118521158916
  0
ELLIPSE
  5
C0F5
330
1F
100
AcDbEntity
  8
AM_0
100
AcDbEllipse
 10
-4.528442382810297
 20
7.549835205078153
 30
0.0
 11
-1.616333111300003
 21
-2.59489828971799
 31
0.0
210
0.0
220
0.0
230
1.0
 40
0.9803608073075999
 41
6.058521893858646
 42
6.444234016783918
  0
ELLIPSE
  5
C0F6
330
1F
100
AcDbEntity
  8
AM_0
100
AcDbEllipse
 10
-4.182006835930295
 20
7.406143188476164
 30
0.0
 11
-0.5582274152399917
 21
-3.006816964595004
 31
0.0
210
0.0
220
0.0
230
1.0
 40
0.9796682873617999
 41
6.077840492446775
 42
6.463092177920919
  0
ELLIPSE
  5
C0F7
330
1F
100
AcDbEntity
  8
AM_0
100
AcDbEllipse
 10
-3.807006835930295
 20
7.406143188476164
 30
0.0
 11
-0.5582274152400033
 21
3.006816964594988
 31
0.0
210
0.0
220
0.0
230
1.0
 40
0.9796678195986999
 41
2.961679544485392
 42
3.346961675337186
  0
ELLIPSE
  5
C0F8
330
1F
100
AcDbEntity
  8
AM_0
100
AcDbEllipse
 10
-3.460632324220298
 20
7.549835205078153
 30
0.0
 11
-1.616333111300012
 21
2.594898289717005
 31
0.0
210
0.0
220
0.0
230
1.0
 40
0.9803608073075999
 41
2.980824369238462
 42
3.366055998223014
  0
ELLIPSE
  5
C0F9
330
1F
100
AcDbEntity
  8
AM_0
100
AcDbEllipse
 10
-3.195434570310297
 20
7.815345764160156
 30
0.0
 11
-2.481811719120006
 21
1.782340906677001
 31
0.0
210
0.0
220
0.0
230
0.9999999999999998
 40
0.9814022284647
 41
2.982602673239918
 42
3.36804158690737
  0
ELLIPSE
  5
C0FA
330
1F
100
AcDbEntity
  8
AM_0
100
AcDbEllipse
 10
-4.654968261720242
 20
-12.34999847412083
 30
0.0
 11
-1.109619022679991
 21
-1.044517559529
 31
0.0
210
0.0
220
0.0
230
0.9999999999999998
 40
0.9701932193313
 41
2.950068261625858
 42
4.70931346581634
  0
ELLIPSE
  5
C0FB
330
1F
100
AcDbEntity
  8
AM_0
100
AcDbEllipse
 10
-7.665710449220298
 20
11.44398498535116
 30
0.0
 11
-7.469055884350042
 21
15.00065921097098
 31
0.0
210
0.0
220
0.0
230
1.0
 40
0.0400539195025
 41
3.364504558191284
 42
3.608330577236546
  0
ELLIPSE
  5
C0FC
330
1F
100
AcDbEntity
  8
AM_0
100
AcDbEllipse
 10
-3.05194091797027
 20
-4.219650268554843
 30
0.0
 11
-3.050415008820009
 21
-0.1970177837889995
 31
0.0
210
0.0
220
0.0
230
1.0
 40
0.4902924695730001
 41
3.109978644002224
 42
3.251776825968944
  0
ELLIPSE
  5
C0FD
330
1F
100
AcDbEntity
  8
AM_0
100
AcDbEllipse
 10
-0.4346923828102689
 20
-2.961471557617826
 30
0.0
 11
-0.385009703529991
 21
1.330547409960004
 31
0.0
210
0.0
220
0.0
230
1.0
 40
0.0530759362593
 41
5.810056296974254
 42
6.036229972671228
  0
ELLIPSE
  5
C0FE
330
1F
100
AcDbEntity
  8
AM_0
100
AcDbEllipse
 10
-4.937072753900267
 20
-4.49295043945284
 30
0.0
 11
-3.050415008820009
 21
-0.1970177837889995
 31
0.0
210
0.0
220
0.0
230
1.0
 40
0.4902924695730001
 41
0.0929587071827755
 42
0.3538631338135158
  0
ELLIPSE
  5
C0FF
330
1F
100
AcDbEntity
  8
AM_0
100
AcDbEllipse
 10
-3.05194091797027
 20
-4.407394409179843
 30
0.0
 11
-3.05084223515999
 21
-0.1679379351870043
 31
0.0
210
0.0
220
0.0
230
1.0
 40
0.4907145095498001
 41
2.729197768061036
 42
3.114616048486067
  0
ELLIPSE
  5
C100
330
1F
100
AcDbEntity
  8
AM_0
100
AcDbEllipse
 10
-4.793579101560268
 20
-4.659889221191846
 30
0.0
 11
-3.034362814990004
 21
-0.2182384873600032
 31
0.0
210
0.0
220
0.0
230
0.9999999999999998
 40
0.4950016124716001
 41
0.3521045475579906
 42
0.7373012991536183
  0
ELLIPSE
  5
C101
330
1F
100
AcDbEntity
  8
AM_0
100
AcDbEllipse
 10
-7.665710449220298
 20
11.98008728027315
 30
0.0
 11
-7.470397813760031
 21
15.71665621648898
 31
0.0
210
0.0
220
0.0
230
1.0
 40
0.0371450505326
 41
2.834403041803364
 42
3.220291065067039
  0
ELLIPSE
  5
C102
330
1F
100
AcDbEntity
  8
AM_0
100
AcDbEllipse
 10
-7.665710449220298
 20
11.44398498535116
 30
0.0
 11
-7.469055884350042
 21
15.00065921097098
 31
0.0
210
0.0
220
0.0
230
1.0
 40
0.0400539195025
 41
3.221900608199644
 42
3.364504558191284
  0
ELLIPSE
  5
C103
330
1F
100
AcDbEntity
  8
AM_0
100
AcDbEllipse
 10
-7.613403320310268
 20
-4.776092529296846
 30
0.0
 11
-0.1955566433900031
 21
-1.476421370187992
 31
0.0
210
0.0
220
0.0
230
0.9999999999999998
 40
0.0883428094876
 41
2.691650557956948
 42
3.427051251829777
  0
ELLIPSE
  5
C104
330
1F
100
AcDbEntity
  8
AM_0
100
AcDbEllipse
 10
-3.195434570310268
 20
-4.58735656738284
 30
0.0
 11
-3.035400490749992
 21
-0.1472054376710108
 31
0.0
210
0.0
220
0.0
230
1.0
 40
0.4960522047283
 41
2.344549613836731
 42
2.730057751342549
  0
ELLIPSE
  5
C105
330
1F
100
AcDbEntity
  8
AM_0
100
AcDbEllipse
 10
-0.4346923828102689
 20
-4.450271606445824
 30
0.0
 11
-0.3646851154599944
 21
1.450881928895
 31
0.0
210
0.0
220
0.0
230
1.0
 40
0.0980185068477
 41
5.990946780302381
 42
6.725926718721497
  0
ELLIPSE
  5
C106
330
1F
100
AcDbEntity
  8
AM_0
100
AcDbEllipse
 10
-14.71264648437026
 20
0.0000000000001421
 30
0.0
 11
-200.3517842060399
 21
-9.099556164078389
 31
0.0
210
0.0
220
0.0
230
1.0
 40
0.0261499941227
 41
1.549297194511305
 42
1.601348049613068
  0
ELLIPSE
  5
C107
330
1F
100
AcDbEntity
  8
AM_0
100
AcDbEllipse
 10
9.864990234379732
 20
0.0000000000001847
 30
0.0
 11
-17.97680675399998
 21
-6.411933385041032
 31
0.0
210
0.0
220
0.0
230
1.0
 40
0.4625338389062
 41
5.882593719836951
 42
6.118167470236133
  0
ELLIPSE
  5
C108
330
1F
100
AcDbEntity
  8
AM_0
100
AcDbEllipse
 10
-60.77226257324027
 20
0.0005340576170454
 30
0.0
 11
-200.3737690051399
 21
-9.100123825033389
 31
0.0
210
0.0
220
0.0
230
1.0
 40
0.0261523147634
 41
1.836926643695374
 42
1.843445679634824
  0
ELLIPSE
  5
C109
330
1F
100
AcDbEntity
  8
AM_0
100
AcDbEllipse
 10
-14.71263122558026
 20
-0.0000076293948723
 30
0.0
 11
-200.3519897460799
 21
0.0000780199456066
 31
0.0
210
0.0
220
0.0
230
0.9999999999999998
 40
0.0524078031004
 41
4.712389053063835
 42
4.732717186811061
  0
ELLIPSE
  5
C10A
330
1F
100
AcDbEntity
  8
AM_0
100
AcDbEllipse
 10
-14.71263122558026
 20
-0.0000076293948723
 30
0.0
 11
-200.3519287109198
 21
0.0000780199216045
 31
0.0
210
0.0
220
0.0
230
1.0
 40
0.052407780986
 41
4.68065074642358
 42
4.712389053063805
  0
ELLIPSE
  5
C10B
330
1F
100
AcDbEntity
  8
AM_0
100
AcDbEllipse
 10
-4.528442382810268
 20
-4.780609130859843
 30
0.0
 11
-3.011962934629991
 21
-0.2192918518750051
 31
0.0
210
0.0
220
0.0
230
1.0
 40
0.5023256177483
 41
0.7435725914872977
 42
1.128986434722566
  0
ELLIPSE
  5
C10C
330
1F
100
AcDbEntity
  8
AM_0
100
AcDbEllipse
 10
-3.46063232422027
 20
-4.732147216796846
 30
0.0
 11
-3.013061554469998
 21
-0.1470416132230016
 31
0.0
210
0.0
220
0.0
230
1.0
 40
0.5034185491581001
 41
1.951718505727589
 42
2.336518714407479
  0
ELLIPSE
  5
C10D
330
1F
100
AcDbEntity
  8
AM_0
100
AcDbEllipse
 10
-4.182006835930266
 20
-4.836730957031846
 30
0.0
 11
-2.996399046909999
 21
-0.1986997609559953
 31
0.0
210
0.0
220
0.0
230
1.0
 40
0.5080130374467
 41
1.144375528333066
 42
1.529750642107871
  0
ELLIPSE
  5
C10E
330
1F
100
AcDbEntity
  8
AM_0
100
AcDbEllipse
 10
-3.807006835930266
 20
-4.819717407226846
 30
0.0
 11
-2.996887225670008
 21
-0.1683995797059967
 31
0.0
210
0.0
220
0.0
230
1.0
 40
0.5084762247823999
 41
1.549767609162572
 42
1.93506843300561
  0
ELLIPSE
  5
C10F
330
1F
100
AcDbEntity
  8
AM_0
100
AcDbEllipse
 10
-2.692626953120296
 20
12.70107269287118
 30
0.0
 11
-4.141418490219955
 21
-17.90178754589001
 31
0.0
210
0.0
220
0.0
230
1.0
 40
0.1242844296416
 41
5.872618841400959
 42
6.258007969587153
  0
ELLIPSE
  5
C110
330
1F
100
AcDbEntity
  8
AM_0
100
AcDbEllipse
 10
-3.449707031250298
 20
13.04578399658217
 30
0.0
 11
-3.11114420198995
 21
-18.366936371529
 31
0.0
210
0.0
220
0.0
230
1.0
 40
0.1209175968223
 41
6.251102592694628
 42
6.636502493971162
  0
ELLIPSE
  5
C111
330
1F
100
AcDbEntity
  8
AM_0
100
AcDbEllipse
 10
-6.498840332030297
 20
12.90739440917914
 30
0.0
 11
-5.002745839190033
 21
17.99728483865299
 31
0.0
210
0.0
220
0.0
230
0.9999999999999998
 40
0.1259954794608
 41
2.785164813146398
 42
3.171049633526249
  0
ELLIPSE
  5
C112
330
1F
100
AcDbEntity
  8
AM_0
100
AcDbEllipse
 10
-7.255981445310297
 20
12.49396514892515
 30
0.0
 11
-6.034912109150048
 21
17.43768361320698
 31
0.0
210
0.0
220
0.0
230
0.9999999999999998
 40
0.12911830492
 41
3.163556463499142
 42
3.548811072292462
  0
ELLIPSE
  5
C113
330
1F
100
AcDbEntity
  8
AM_0
100
AcDbEllipse
 10
-1.522521972650267
 20
-2.033546447753835
 30
0.0
 11
-0.3187866083800088
 21
-0.0086975172440027
 31
0.0
210
0.0
220
0.0
230
1.0
 40
0.4749203415408
 41
2.394462337344132
 42
3.056003798722481
  0
ELLIPSE
  5
C114
330
1F
100
AcDbEntity
  8
AM_0
100
AcDbEllipse
 10
-5.510803222650267
 20
-5.733398437499843
 30
0.0
 11
-0.0283202201300097
 21
-1.548400835010994
 31
0.0
210
0.0
220
0.0
230
1.0
 40
0.1792739644834
 41
2.750201360290681
 42
3.48264833809047
  0
ELLIPSE
  5
C115
330
1F
100
AcDbEntity
  8
AM_0
100
AcDbEllipse
 10
-4.438903808590296
 20
13.20603942871116
 30
0.0
 11
-0.208862071880029
 21
18.897666712551
 31
0.0
210
0.0
220
0.0
230
1.0
 40
0.1587077663705
 41
2.761518011694512
 42
3.146724842999248
  0
ELLIPSE
  5
C116
330
1F
100
AcDbEntity
  8
AM_0
100
AcDbEllipse
 10
-5.509643554680295
 20
13.15744781494115
 30
0.0
 11
-1.681823983470033
 21
18.83064236776099
 31
0.0
210
0.0
220
0.0
230
1.0
 40
0.1585952496061
 41
3.134966687903742
 42
3.520265367327653
  0
ELLIPSE
  5
C117
330
1F
100
AcDbEntity
  8
AM_0
100
AcDbEllipse
 10
-3.06805419922027
 20
-2.877532958984843
 30
0.0
 11
-0.3029174849999947
 21
-0.007759088619992
 31
0.0
210
0.0
220
0.0
230
1.0
 40
0.5259678380984
 41
1.605553635640985
 42
2.065643334732042
  0
ELLIPSE
  5
C118
330
1F
100
AcDbEntity
  8
AM_0
100
AcDbEllipse
 10
-2.537231445310268
 20
-5.598434448242841
 30
0.0
 11
-0.198486281820013
 21
1.538028717716002
 31
0.0
210
0.0
220
0.0
230
1.0
 40
0.1828243502878
 41
5.938823940350308
 42
6.672742726910507
  0
ELLIPSE
  5
C119
330
1F
100
AcDbEntity
  8
AM_0
100
AcDbEllipse
 10
-2.653625488280269
 20
0.0000000000001563
 30
0.0
 11
-0.5304568169500162
 21
11.679157165729
 31
0.0
210
0.0
220
0.0
230
1.0
 40
0.0261508325156
 41
1.301577669375869
 42
1.468421566534171
  0
ELLIPSE
  5
C11A
330
1F
100
AcDbEntity
  8
AM_0
100
AcDbEllipse
 10
-133.3725433349602
 20
-0.0000305175780966
 30
0.0
 11
-222.85559078047
 21
-10.12136546055843
 31
0.0
210
0.0
220
0.0
230
1.0
 40
0.0261501034978
 41
2.181388321601086
 42
2.194457478849328
  0
ELLIPSE
  5
C11B
330
1F
100
AcDbEntity
  8
AM_0
100
AcDbEllipse
 10
-60.76170349121027
 20
0.0000228881830395
 30
0.0
 11
-222.8525453426699
 21
-10.12149335574643
 31
0.0
210
0.0
220
0.0
230
1.0
 40
0.0261500811051
 41
1.821273232431311
 42
1.8321633891013
  0
ELLIPSE
  5
C11C
330
1F
100
AcDbEntity
  8
AM_0
100
AcDbEllipse
 10
-5.626342773430266
 20
-0.5191497802738354
 30
0.0
 11
-0.5197148746000208
 21
11.43465034699698
 31
0.0
210
0.0
220
0.0
230
1.0
 40
0.0261335695637
 41
1.322764722715905
 42
1.403698313080687
  0
ELLIPSE
  5
C11D
330
1F
100
AcDbEntity
  8
AM_0
100
AcDbEllipse
 10
-10.00042724609026
 20
-7.294738769531861
 30
0.0
 11
-9.981750069100002
 21
-0.6040491424560113
 31
0.0
210
0.0
220
0.0
230
1.0
 40
0.4993145473042001
 41
5.787396069449786
 42
5.876543539794263
  0
ELLIPSE
  5
C11E
330
1F
100
AcDbEntity
  8
AM_0
100
AcDbEllipse
 10
-4.509643554680266
 20
1.748474121093153
 30
0.0
 11
-1.247741684060002
 21
-0.0755042458310012
 31
0.0
210
0.0
220
0.0
230
1.0
 40
0.4993069782248001
 41
3.141592828678086
 42
6.283185657355973
  0
ELLIPSE
  5
C11F
330
1F
100
AcDbEntity
  8
AM_0
100
AcDbEllipse
 10
-4.509643554680266
 20
1.748474121093153
 30
0.0
 11
-1.247741684060002
 21
-0.0755042458310012
 31
0.0
210
0.0
220
0.0
230
1.0
 40
0.4993069782248001
 41
0.0
 42
3.111407451080416
  0
ELLIPSE
  5
C120
330
1F
100
AcDbEntity
  8
AM_0
100
AcDbEllipse
 10
-4.509643554680266
 20
1.748474121093153
 30
0.0
 11
-1.497253443210013
 21
-0.0906068226659927
 31
0.0
210
0.0
220
0.0
230
1.0
 40
0.4993166094578
 41
3.322151357201335
 42
6.253000560050565
  0
ELLIPSE
  5
C121
330
1F
100
AcDbEntity
  8
AM_0
100
AcDbEllipse
 10
-4.509521484370267
 20
1.748474121093153
 30
0.0
 11
-1.247619624599991
 21
-0.0755043233059947
 31
0.0
210
0.0
220
0.0
230
0.9999999999999998
 40
0.4993373829512001
 41
3.111405947941445
 42
3.141592828667425
  0
LINE
  5
C122
330
1F
100
AcDbEntity
  8
AM_7
100
AcDbLine
 10
-137.9211883544902
 20
-0.0000000000001137
 30
0.0
 11
6.80096435546973
 21
0.0000000000001705
 31
0.0
  0
LINE
  5
C123
330
1F
100
AcDbEntity
  8
AM_0
100
AcDbLine
 10
-49.9999847412103
 20
12.50000000000005
 30
0.0
 11
-126.9999847412103
 21
12.49999999999991
 31
0.0
  0
LINE
  5
C124
330
1F
100
AcDbEntity
  8
AM_0
100
AcDbLine
 10
-126.9999847412102
 20
-12.50000000000008
 30
0.0
 11
-49.99998474121025
 21
-12.49999999999992
 31
0.0
  0
LINE
  5
C127
330
1F
100
AcDbEntity
  8
AM_0
100
AcDbLine
 10
-129.9999847412102
 20
-10.92882537841808
 30
0.0
 11
-129.9999847412103
 21
10.92882537841791
 31
0.0
  0
LINE
  5
C128
330
1F
100
AcDbEntity
  8
AM_0
100
AcDbLine
 10
-126.9999847412102
 20
-12.50000000000008
 30
0.0
 11
-126.9999847412103
 21
12.49999999999991
 31
0.0
  0
LINE
  5
C12A
330
1F
100
AcDbEntity
  8
AM_0
100
AcDbLine
 10
-129.2588043212902
 20
-11.89475250244208
 30
0.0
 11
-126.9999847412102
 21
-12.50000762939508
 31
0.0
  0
ARC
  5
C12B
330
1F
100
AcDbEntity
  8
AM_0
100
AcDbCircle
 10
-128.9999847412102
 20
-10.92882537841808
 30
0.0
 40
1.0
100
AcDbArc
 50
180.0000086514222
 51
255.0000073233939
  0
LINE
  5
C12C
330
1F
100
AcDbEntity
  8
AM_0
100
AcDbLine
 10
-127.0000152587902
 20
12.4999923706049
 30
0.0
 11
-129.2587738037103
 21
11.8947601318359
 31
0.0
  0
ARC
  5
C12D
330
1F
100
AcDbEntity
  8
AM_0
100
AcDbCircle
 10
-128.9999847412103
 20
10.92882537841791
 30
0.0
 40
1.000000119209299
100
AcDbArc
 50
104.9999926766062
 51
180.0000050089577
  0
LINE
  5
C12F
330
1F
100
AcDbEntity
  8
AM_0
100
AcDbLine
 10
-14.71264648437029
 20
10.50000000000014
 30
0.0
 11
-45.99998474121029
 21
10.50000000000008
 31
0.0
  0
LINE
  5
C130
330
1F
100
AcDbEntity
  8
AM_0
100
AcDbLine
 10
-45.99998474121025
 20
-10.49999999999992
 30
0.0
 11
-14.10253906250024
 21
-10.49999999999985
 31
0.0
  0
LINE
  5
C132
330
1F
100
AcDbEntity
  8
AM_0
100
AcDbLine
 10
-49.99998474121025
 20
-12.49999999999992
 30
0.0
 11
-49.9999847412103
 21
12.50000000000005
 31
0.0
  0
ARC
  5
C133
330
1F
100
AcDbEntity
  8
AM_0
100
AcDbCircle
 10
-45.99998474121024
 20
-15.50000381469792
 30
0.0
 40
5.0
100
AcDbArc
 50
90.00000250447845
 51
143.1300974540939
  0
ARC
  5
C134
330
1F
100
AcDbEntity
  8
AM_0
100
AcDbCircle
 10
-45.99998474121029
 20
15.50000000000005
 30
0.0
 40
5.0
100
AcDbArc
 50
216.869902545906
 51
269.9999974955215
  0
LINE
  5
C135
330
1F
100
AcDbEntity
  8
AM_0
100
AcDbLine
 10
-2.901123046870267
 20
-3.013259887695838
 30
0.0
 11
-2.901123046870267
 21
4.149993896484161
 31
0.0
  0
LINE
  5
C136
330
1F
100
AcDbEntity
  8
AM_0
100
AcDbLine
 10
-1.203735351560268
 20
-2.037490844726846
 30
0.0
 11
-1.203735351560268
 21
4.149993896484176
 31
0.0
  0
LINE
  5
C137
330
1F
100
AcDbEntity
  8
AM_0
100
AcDbLine
 10
-5.38574218750027
 20
-3.143127441406846
 30
0.0
 11
-5.38574218750027
 21
1.028160095215156
 31
0.0
  0
LINE
  5
C138
330
1F
100
AcDbEntity
  8
AM_0
100
AcDbLine
 10
-6.56494140625027
 20
-2.594490051269843
 30
0.0
 11
-6.56494140625027
 21
4.149993896484161
 31
0.0
  0
LINE
  5
C139
330
1F
100
AcDbEntity
  8
AM_0
100
AcDbLine
 10
-1.802658081050267
 20
-5.941009521484843
 30
0.0
 11
-1.286178588860266
 21
-6.219779968261832
 31
0.0
  0
LINE
  5
C13A
330
1F
100
AcDbEntity
  8
AM_0
100
AcDbLine
 10
-1.798934936520268
 20
-5.939765930175838
 30
0.0
 11
-1.286178588860266
 21
-6.219779968261832
 31
0.0
  0
LINE
  5
C13B
330
1F
100
AcDbEntity
  8
AM_0
100
AcDbLine
 10
-1.286193847650267
 20
-2.130233764648835
 30
0.0
 11
-2.853591918940267
 21
-2.986145019531846
 31
0.0
  0
LINE
  5
C13C
330
1F
100
AcDbEntity
  8
AM_0
100
AcDbLine
 10
-9.508239746090239
 20
-10.42787933349585
 30
0.0
 11
-6.564941406250241
 21
-10.42787933349583
 31
0.0
  0
LINE
  5
C13D
330
1F
100
AcDbEntity
  8
AM_0
100
AcDbLine
 10
-3.372741699220242
 20
-11.52938079833984
 30
0.0
 11
-2.901123046870239
 21
-11.52938079833984
 31
0.0
  0
LINE
  5
C13E
330
1F
100
AcDbEntity
  8
AM_0
100
AcDbLine
 10
-6.564926147460269
 20
-2.594490051269843
 30
0.0
 11
-5.468307495110266
 21
-3.104804992675838
 31
0.0
  0
LINE
  5
C13F
330
1F
100
AcDbEntity
  8
AM_0
100
AcDbLine
 10
-5.468322753900267
 20
-3.104797363281846
 30
0.0
 11
-6.586669921870267
 21
-2.595634460449844
 31
0.0
  0
LINE
  5
C140
330
1F
100
AcDbEntity
  8
AM_0
100
AcDbLine
 10
-7.604736328120267
 20
-5.382492065429843
 30
0.0
 11
-7.765197753900267
 21
-5.195869445800838
 31
0.0
  0
LINE
  5
C141
330
1F
100
AcDbEntity
  8
AM_0
100
AcDbLine
 10
-7.533157348630268
 20
-3.734291076659843
 30
0.0
 11
-7.765213012690267
 21
-5.19585418701186
 31
0.0
  0
LINE
  5
C142
330
1F
100
AcDbEntity
  8
AM_0
100
AcDbLine
 10
-7.478500366210269
 20
-3.39041900634784
 30
0.0
 11
-7.491500854490269
 21
-3.472358703613835
 31
0.0
  0
LINE
  5
C143
330
1F
100
AcDbEntity
  8
AM_0
100
AcDbLine
 10
-7.47851562500027
 20
-3.390426635742841
 30
0.0
 11
-7.463150024410268
 21
-3.356018066406846
 31
0.0
  0
LINE
  5
C144
330
1F
100
AcDbEntity
  8
AM_0
100
AcDbLine
 10
-7.604721069330267
 20
-5.382476806640838
 30
0.0
 11
-7.377853393550267
 21
-3.507530212402841
 31
0.0
  0
LINE
  5
C145
330
1F
100
AcDbEntity
  8
AM_0
100
AcDbLine
 10
-7.463134765620267
 20
-3.356010437011846
 30
0.0
 11
-7.226867675780269
 21
-2.629371643066846
 31
0.0
  0
LINE
  5
C146
330
1F
100
AcDbEntity
  8
AM_0
100
AcDbLine
 10
-6.67089843750027
 20
-5.96617889404284
 30
0.0
 11
-6.967269897460269
 21
-5.831230163574844
 31
0.0
  0
LINE
  5
C147
330
1F
100
AcDbEntity
  8
AM_0
100
AcDbLine
 10
-6.888702392570266
 20
-5.18208312988284
 30
0.0
 11
-6.967254638670269
 21
-5.831230163574844
 31
0.0
  0
LINE
  5
C148
330
1F
100
AcDbEntity
  8
AM_0
100
AcDbLine
 10
-7.491516113280269
 20
-3.419433593749843
 30
0.0
 11
-7.491516113280269
 21
-3.602439880370837
 31
0.0
  0
LINE
  5
C149
330
1F
100
AcDbEntity
  8
AM_0
100
AcDbLine
 10
-7.491516113280269
 20
-3.419433593749843
 30
0.0
 11
-7.491516113280269
 21
-2.643310546874843
 31
0.0
  0
LINE
  5
C14A
330
1F
100
AcDbEntity
  8
AM_0
100
AcDbLine
 10
-8.354812622070269
 20
-4.958801269531846
 30
0.0
 11
-7.86802673340027
 21
-4.795974731445852
 31
0.0
  0
LINE
  5
C14B
330
1F
100
AcDbEntity
  8
AM_0
100
AcDbLine
 10
-7.491485595700268
 20
-3.602439880370837
 30
0.0
 11
-7.86801147461027
 21
-4.795997619628849
 31
0.0
  0
LINE
  5
C14C
330
1F
100
AcDbEntity
  8
AM_0
100
AcDbLine
 10
-7.549346923820266
 20
-2.64635467529284
 30
0.0
 11
-7.491485595700268
 21
-3.602432250976846
 31
0.0
  0
LINE
  5
C14D
330
1F
100
AcDbEntity
  8
AM_0
100
AcDbLine
 10
-6.670928955070266
 20
-5.96617889404284
 30
0.0
 11
-6.630584716790266
 21
-5.299629211425838
 31
0.0
  0
LINE
  5
C14E
330
1F
100
AcDbEntity
  8
AM_0
100
AcDbLine
 10
-7.11117553711027
 20
-2.623298645019843
 30
0.0
 11
-7.380645751950268
 21
-3.45194244384784
 31
0.0
  0
LINE
  5
C14F
330
1F
100
AcDbEntity
  8
AM_0
100
AcDbLine
 10
-7.380676269530269
 20
-3.45193481445284
 30
0.0
 11
-7.377868652340268
 21
-3.50752258300784
 31
0.0
  0
LINE
  5
C150
330
1F
100
AcDbEntity
  8
AM_0
100
AcDbLine
 10
-6.888717651360266
 20
-5.18208312988284
 30
0.0
 11
-6.630523681640269
 21
-5.299636840820838
 31
0.0
  0
LINE
  5
C151
330
1F
100
AcDbEntity
  8
AM_0
100
AcDbLine
 10
-2.901123046870267
 20
-3.013282775878835
 30
0.0
 11
-2.853576660150267
 21
-2.986152648925838
 31
0.0
  0
LINE
  5
C152
330
1F
100
AcDbEntity
  8
AM_0
100
AcDbLine
 10
-5.38574218750027
 20
-3.143112182617841
 30
0.0
 11
-5.468307495110266
 21
-3.104797363281846
 31
0.0
  0
LINE
  5
C153
330
1F
100
AcDbEntity
  8
AM_0
100
AcDbLine
 10
-2.50000000000027
 20
-6.143302917480838
 30
0.0
 11
-2.50000000000027
 21
-6.499580383300838
 31
0.0
  0
LINE
  5
C154
330
1F
100
AcDbEntity
  8
AM_0
100
AcDbLine
 10
-3.784912109370267
 20
-6.34679412841784
 30
0.0
 11
-4.20410156250027
 21
-6.365814208984843
 31
0.0
  0
LINE
  5
C155
330
1F
100
AcDbEntity
  8
AM_0
100
AcDbLine
 10
-4.213684082030269
 20
-5.691162109374843
 30
0.0
 11
-4.20410156250027
 21
-6.365821838378835
 31
0.0
  0
LINE
  5
C156
330
1F
100
AcDbEntity
  8
AM_0
100
AcDbLine
 10
-5.600234985350269
 20
-4.316856384277841
 30
0.0
 11
-5.716751098630268
 21
-6.242073059081846
 31
0.0
  0
LINE
  5
C157
330
1F
100
AcDbEntity
  8
AM_0
100
AcDbLine
 10
-5.329498291010267
 20
-6.304809570312841
 30
0.0
 11
-5.716781616210269
 21
-6.242073059081846
 31
0.0
  0
LINE
  5
C158
330
1F
100
AcDbEntity
  8
AM_0
100
AcDbLine
 10
-5.329544067380268
 20
-6.304809570312841
 30
0.0
 11
-5.357254028320269
 21
-4.356224060058835
 31
0.0
  0
LINE
  5
C159
330
1F
100
AcDbEntity
  8
AM_0
100
AcDbLine
 10
-3.784881591790266
 20
-6.346786499023835
 30
0.0
 11
-3.848541259760267
 21
-5.67459106445284
 31
0.0
  0
LINE
  5
C15A
330
1F
100
AcDbEntity
  8
AM_0
100
AcDbLine
 10
-2.843383789060268
 20
-4.242134094238835
 30
0.0
 11
-2.659545898430266
 21
-6.18362426757784
 31
0.0
  0
LINE
  5
C15B
330
1F
100
AcDbEntity
  8
AM_0
100
AcDbLine
 10
-2.272262573240269
 20
-6.085739135742841
 30
0.0
 11
-2.659561157220267
 21
-6.183639526367841
 31
0.0
  0
LINE
  5
C15C
330
1F
100
AcDbEntity
  8
AM_0
100
AcDbLine
 10
-2.272247314450268
 20
-6.08573150634784
 30
0.0
 11
-2.600372314450268
 21
-4.18069458007784
 31
0.0
  0
LINE
  5
C15D
330
1F
100
AcDbEntity
  8
AM_0
100
AcDbLine
 10
-5.60026550293027
 20
-4.316856384277841
 30
0.0
 11
-5.577194213860266
 21
-4.27306365966784
 31
0.0
  0
LINE
  5
C15E
330
1F
100
AcDbEntity
  8
AM_0
100
AcDbLine
 10
-2.62858581543027
 20
-4.139236450195838
 30
0.0
 11
-2.600387573240269
 21
-4.18070220947284
 31
0.0
  0
LINE
  5
C15F
330
1F
100
AcDbEntity
  8
AM_0
100
AcDbLine
 10
-5.577224731440267
 20
-4.273048400878835
 30
0.0
 11
-5.468338012690267
 21
-3.104812622070838
 31
0.0
  0
LINE
  5
C160
330
1F
100
AcDbEntity
  8
AM_0
100
AcDbLine
 10
-5.269302368160268
 20
-3.137062072753835
 30
0.0
 11
-5.378189086910268
 21
-4.305297851562841
 31
0.0
  0
LINE
  5
C161
330
1F
100
AcDbEntity
  8
AM_0
100
AcDbLine
 10
-5.378189086910268
 20
-4.305297851562841
 30
0.0
 11
-5.357254028320269
 21
-4.35623168945284
 31
0.0
  0
LINE
  5
C162
330
1F
100
AcDbEntity
  8
AM_0
100
AcDbLine
 10
-4.213684082030269
 20
-5.691162109374843
 30
0.0
 11
-3.848571777340268
 21
-5.67459106445284
 31
0.0
  0
LINE
  5
C163
330
1F
100
AcDbEntity
  8
AM_0
100
AcDbLine
 10
-2.843353271480268
 20
-4.24214172363284
 30
0.0
 11
-2.827667236320266
 21
-4.189544677734843
 31
0.0
  0
LINE
  5
C164
330
1F
100
AcDbEntity
  8
AM_0
100
AcDbLine
 10
-3.05259704590027
 20
-3.036453247070838
 30
0.0
 11
-5.269256591790266
 21
-3.137062072753835
 31
0.0
  0
LINE
  5
C165
330
1F
100
AcDbEntity
  8
AM_0
100
AcDbLine
 10
-2.827697753900267
 20
-4.189552307128835
 30
0.0
 11
-3.052612304680266
 21
-3.036460876464843
 31
0.0
  0
LINE
  5
C166
330
1F
100
AcDbEntity
  8
AM_0
100
AcDbLine
 10
-2.853546142570266
 20
-2.986129760742841
 30
0.0
 11
-2.628570556640269
 21
-4.139221191406846
 31
0.0
  0
LINE
  5
C167
330
1F
100
AcDbEntity
  8
AM_0
100
AcDbLine
 10
-1.203735351560268
 20
-6.264053344726846
 30
0.0
 11
-1.203735351560268
 21
-7.769813537597826
 31
0.0
  0
LINE
  5
C168
330
1F
100
AcDbEntity
  8
AM_0
100
AcDbLine
 10
-1.203735351560268
 20
-7.433013916015823
 30
0.0
 11
-0.7426605224602696
 21
-6.575988769531846
 31
0.0
  0
LINE
  5
C169
330
1F
100
AcDbEntity
  8
AM_0
100
AcDbLine
 10
-1.203720092770268
 20
-7.451438903808821
 30
0.0
 11
-0.7915344238202664
 21
-6.685211181640823
 31
0.0
  0
LINE
  5
C16A
330
1F
100
AcDbEntity
  8
AM_0
100
AcDbLine
 10
-1.20373535156024
 20
-9.936912536620837
 30
0.0
 11
-1.203735351560268
 21
-7.769813537597826
 31
0.0
  0
LINE
  5
C16B
330
1F
100
AcDbEntity
  8
AM_0
100
AcDbLine
 10
-1.286193847650267
 20
-6.219779968261832
 30
0.0
 11
-1.203720092770268
 21
-6.264060974120837
 31
0.0
  0
LINE
  5
C16C
330
1F
100
AcDbEntity
  8
AM_0
100
AcDbLine
 10
-0.2477874755802674
 20
-5.227790832519829
 30
0.0
 11
-0.0435638427702685
 21
-4.534446716308821
 31
0.0
  0
LINE
  5
C16D
330
1F
100
AcDbEntity
  8
AM_0
100
AcDbLine
 10
-0.1724548339802681
 20
-4.865623474120823
 30
0.0
 11
-0.1285247802702685
 21
-4.716377258300823
 31
0.0
  0
LINE
  5
C16E
330
1F
100
AcDbEntity
  8
AM_0
100
AcDbLine
 10
-0.7426605224602696
 20
-6.575996398925838
 30
0.0
 11
-0.7221069335902684
 21
-6.524894714355838
 31
0.0
  0
LINE
  5
C16F
330
1F
100
AcDbEntity
  8
AM_0
100
AcDbLine
 10
-0.1724853515602689
 20
-4.865631103515823
 30
0.0
 11
-0.1724853515602689
 21
-4.784675598144829
 31
0.0
  0
LINE
  5
C170
330
1F
100
AcDbEntity
  8
AM_0
100
AcDbLine
 10
-0.8004150390602688
 20
-5.427207946777826
 30
0.0
 11
-1.203750610350269
 21
-6.323188781738821
 31
0.0
  0
LINE
  5
C171
330
1F
100
AcDbEntity
  8
AM_0
100
AcDbLine
 10
-1.286163330070266
 20
-6.219787597656846
 30
0.0
 11
-0.9791107177702684
 21
-5.537666320800838
 31
0.0
  0
LINE
  5
C172
330
1F
100
AcDbEntity
  8
AM_0
100
AcDbLine
 10
-0.0306243896502707
 20
-3.859352111816832
 30
0.0
 11
-0.2477874755802674
 21
-3.122222900390823
 31
0.0
  0
LINE
  5
C173
330
1F
100
AcDbEntity
  8
AM_0
100
AcDbLine
 10
-0.00000000000027
 20
-4.070060729980824
 30
0.0
 11
-0.00000000000027
 21
-4.279937744140823
 31
0.0
  0
LINE
  5
C174
330
1F
100
AcDbEntity
  8
AM_0
100
AcDbLine
 10
0.0000305175797308
 20
-4.070060729980824
 30
0.0
 11
-0.1724700927702685
 21
-3.484367370605824
 31
0.0
  0
LINE
  5
C175
330
1F
100
AcDbEntity
  8
AM_0
100
AcDbLine
 10
-0.7915496826102669
 20
-1.664794921874829
 30
0.0
 11
-1.203720092770268
 21
-0.8985748291018467
 31
0.0
  0
LINE
  5
C176
330
1F
100
AcDbEntity
  8
AM_0
100
AcDbLine
 10
-0.1724700927702685
 20
-3.667198181152826
 30
0.0
 11
0.0000152587897304
 21
-4.279953002929829
 31
0.0
  0
LINE
  5
C177
330
1F
100
AcDbEntity
  8
AM_0
100
AcDbLine
 10
-0.2238616943302674
 20
-4.853591918945824
 30
0.0
 11
-0.3842620849602696
 21
-5.054771423339829
 31
0.0
  0
LINE
  5
C178
330
1F
100
AcDbEntity
  8
AM_0
100
AcDbLine
 10
-0.2238922119102682
 20
-4.853584289550823
 30
0.0
 11
-0.7221221923802688
 21
-3.08377075195284
 31
0.0
  0
LINE
  5
C179
330
1F
100
AcDbEntity
  8
AM_0
100
AcDbLine
 10
-0.7426605224602696
 20
-1.77402496337882
 30
0.0
 11
-1.203735351560268
 21
-0.9169998168948438
 31
0.0
  0
LINE
  5
C17A
330
1F
100
AcDbEntity
  8
AM_0
100
AcDbLine
 10
-0.74267578125027
 20
-3.050987243652826
 30
0.0
 11
-0.7221069335902684
 21
-3.083763122558821
 31
0.0
  0
LINE
  5
C17B
330
1F
100
AcDbEntity
  8
AM_0
100
AcDbLine
 10
-0.1724853515602689
 20
-3.667190551757826
 30
0.0
 11
-0.1724853515602689
 21
-3.484374999999829
 31
0.0
  0
LINE
  5
C17C
330
1F
100
AcDbEntity
  8
AM_0
100
AcDbLine
 10
-0.7221221923802688
 20
-1.825111389159843
 30
0.0
 11
-0.7426910400402705
 21
-1.773994445800838
 31
0.0
  0
LINE
  5
C17D
330
1F
100
AcDbEntity
  8
AM_0
100
AcDbLine
 10
-0.8227996826102668
 20
-3.210006713867841
 30
0.0
 11
-0.3842620849602696
 21
-5.054763793945824
 31
0.0
  0
LINE
  5
C17E
330
1F
100
AcDbEntity
  8
AM_0
100
AcDbLine
 10
-1.203750610350269
 20
-2.026802062988821
 30
0.0
 11
-0.7426910400402705
 21
-3.05097961425784
 31
0.0
  0
LINE
  5
C17F
330
1F
100
AcDbEntity
  8
AM_0
100
AcDbLine
 10
-1.021774291990269
 20
-5.56137847900382
 30
0.0
 11
-1.318161010740269
 21
-5.72324371337882
 31
0.0
  0
LINE
  5
C180
330
1F
100
AcDbEntity
  8
AM_0
100
AcDbLine
 10
-1.021804809570269
 20
-5.561401367187841
 30
0.0
 11
-1.173599243160268
 21
-4.92270660400382
 31
0.0
  0
LINE
  5
C181
330
1F
100
AcDbEntity
  8
AM_0
100
AcDbLine
 10
-1.431762695310268
 20
-5.06367492675784
 30
0.0
 11
-1.318176269530269
 21
-5.723251342773835
 31
0.0
  0
LINE
  5
C182
330
1F
100
AcDbEntity
  8
AM_0
100
AcDbLine
 10
-0.8251190185502679
 20
-3.154388427734829
 30
0.0
 11
-1.286178588860266
 21
-2.130210876464843
 31
0.0
  0
LINE
  5
C183
330
1F
100
AcDbEntity
  8
AM_0
100
AcDbLine
 10
-1.431762695310268
 20
-5.063682556152841
 30
0.0
 11
-1.173583984370267
 21
-4.922698974609829
 31
0.0
  0
LINE
  5
C184
330
1F
100
AcDbEntity
  8
AM_0
100
AcDbLine
 10
-0.8228149414002672
 20
-3.210014343261832
 30
0.0
 11
-0.8251342773402683
 21
-3.154403686523835
 31
0.0
  0
LINE
  5
C185
330
1F
100
AcDbEntity
  8
AM_0
100
AcDbLine
 10
-7.43017578125027
 20
4.649993896484147
 30
0.0
 11
-10.02661132812026
 21
4.649993896484147
 31
0.0
  0
ARC
  5
C186
330
1F
100
AcDbEntity
  8
AM_0
100
AcDbCircle
 10
-10.02661132812029
 20
14.14999389648414
 30
0.0
 40
9.488905906677199
100
AcDbArc
 50
202.6367991835945
 51
270.0000043257106
  0
LINE
  5
C187
330
1F
100
AcDbEntity
  8
AM_0
100
AcDbLine
 10
-19.2887573242203
 20
10.47552490234312
 30
0.0
 11
-19.28747558593029
 21
10.47382354736312
 31
0.0
  0
LINE
  5
C188
330
1F
100
AcDbEntity
  8
AM_0
100
AcDbLine
 10
-1.203735351560268
 20
4.149993896484176
 30
0.0
 11
-2.901123046870267
 21
4.149993896484161
 31
0.0
  0
ARC
  5
C189
330
1F
100
AcDbEntity
  8
AM_0
100
AcDbCircle
 10
-6.531372070310297
 20
5.849998474121164
 30
0.0
 40
1.4983630180359
100
AcDbArc
 50
153.1325133426045
 51
233.1678230933593
  0
LINE
  5
C18A
330
1F
100
AcDbEntity
  8
AM_0
100
AcDbLine
 10
-6.56494140625027
 20
4.149993896484161
 30
0.0
 11
-5.664916992180266
 21
4.149993896484161
 31
0.0
  0
LINE
  5
C18B
330
1F
100
AcDbEntity
  8
AM_0
100
AcDbLine
 10
-5.869995117180266
 20
4.503562927246164
 30
0.0
 11
-5.141418457030269
 21
4.503562927246164
 31
0.0
  0
LINE
  5
C18C
330
1F
100
AcDbEntity
  8
AM_0
100
AcDbLine
 10
-9.508239746090268
 20
4.149993896484147
 30
0.0
 11
-6.56494140625027
 21
4.149993896484161
 31
0.0
  0
LINE
  5
C18D
330
1F
100
AcDbEntity
  8
AM_0
100
AcDbLine
 10
-6.043716430660268
 20
2.277374267578153
 30
0.0
 11
-6.007583618160268
 21
1.680488586425155
 31
0.0
  0
LINE
  5
C18E
330
1F
100
AcDbEntity
  8
AM_0
100
AcDbLine
 10
-6.007568359370267
 20
1.680488586425155
 30
0.0
 11
-6.007568359370267
 21
1.372726440429161
 31
0.0
  0
LINE
  5
C18F
330
1F
100
AcDbEntity
  8
AM_0
100
AcDbLine
 10
-3.089462280270268
 20
3.102226257324161
 30
0.0
 11
-3.09245300293027
 21
3.163208007812158
 31
0.0
  0
LINE
  5
C190
330
1F
100
AcDbEntity
  8
AM_0
100
AcDbLine
 10
-2.50000000000027
 20
4.503562927246164
 30
0.0
 11
-2.50000000000027
 21
4.149993896484161
 31
0.0
  0
LINE
  5
C191
330
1F
100
AcDbEntity
  8
AM_0
100
AcDbLine
 10
-5.664916992180266
 20
4.149993896484161
 30
0.0
 11
-3.37274169922027
 21
4.149993896484161
 31
0.0
  0
LINE
  5
C192
330
1F
100
AcDbEntity
  8
AM_0
100
AcDbLine
 10
-2.50000000000027
 20
4.503562927246164
 30
0.0
 11
-2.50000000000027
 21
4.640327453613153
 31
0.0
  0
LINE
  5
C193
330
1F
100
AcDbEntity
  8
AM_0
100
AcDbLine
 10
-2.84765625000027
 20
4.503562927246164
 30
0.0
 11
-2.50000000000027
 21
4.503562927246164
 31
0.0
  0
LINE
  5
C194
330
1F
100
AcDbEntity
  8
AM_0
100
AcDbLine
 10
-5.716781616210269
 20
4.734794616699161
 30
0.0
 11
-5.329528808590268
 21
4.574165344238153
 31
0.0
  0
LINE
  5
C195
330
1F
100
AcDbEntity
  8
AM_0
100
AcDbLine
 10
-4.20410156250027
 20
4.349998474121164
 30
0.0
 11
-3.784912109370267
 21
4.349998474121164
 31
0.0
  0
LINE
  5
C196
330
1F
100
AcDbEntity
  8
AM_0
100
AcDbLine
 10
-2.659545898430266
 20
4.574165344238153
 30
0.0
 11
-2.272293090820269
 21
4.734794616699161
 31
0.0
  0
LINE
  5
C197
330
1F
100
AcDbEntity
  8
AM_0
100
AcDbLine
 10
-3.37274169922027
 20
4.149993896484161
 30
0.0
 11
-2.901123046870267
 21
4.149993896484161
 31
0.0
  0
CIRCLE
  5
C198
330
1F
100
AcDbEntity
  8
AM_0
100
AcDbCircle
 10
-3.994506835930295
 20
8.349998474121164
 30
0.0
 40
2.077563047409099
  0
LINE
  5
C199
330
1F
100
AcDbEntity
  8
AM_0
100
AcDbLine
 10
-7.617431640620296
 20
10.04402160644514
 30
0.0
 11
-7.868041992180295
 21
10.21326446533214
 31
0.0
  0
LINE
  5
C19A
330
1F
100
AcDbEntity
  8
AM_0
100
AcDbLine
 10
-7.868041992180295
 20
6.52715301513615
 30
0.0
 11
-7.868041992180295
 21
7.303955078125142
 31
0.0
  0
LINE
  5
C19B
330
1F
100
AcDbEntity
  8
AM_0
100
AcDbLine
 10
-7.868041992180295
 20
9.396034240722144
 30
0.0
 11
-7.868041992180295
 21
10.21327209472616
 31
0.0
  0
LINE
  5
C19C
330
1F
100
AcDbEntity
  8
AM_0
100
AcDbLine
 10
-8.354782104490297
 20
10.49470520019514
 30
0.0
 11
-7.868026733400299
 21
10.21327209472616
 31
0.0
  0
LINE
  5
C19D
330
1F
100
AcDbEntity
  8
AM_0
100
AcDbLine
 10
-7.604751586910296
 20
10.07464599609315
 30
0.0
 11
-7.765213012690296
 21
9.686836242675155
 31
0.0
  0
LINE
  5
C19E
330
1F
100
AcDbEntity
  8
AM_0
100
AcDbLine
 10
-7.989013671870296
 20
8.559875488281164
 30
0.0
 11
-7.989013671870296
 21
8.140121459961164
 31
0.0
  0
LINE
  5
C19F
330
1F
100
AcDbEntity
  8
AM_0
100
AcDbLine
 10
-7.765182495110295
 20
7.013175964355156
 30
0.0
 11
-7.604721069330295
 21
6.625366210937158
 31
0.0
  0
LINE
  5
C1A0
330
1F
100
AcDbEntity
  8
AM_0
100
AcDbLine
 10
-6.967285156250298
 20
5.669967651367159
 30
0.0
 11
-6.670883178710298
 21
5.373146057129162
 31
0.0
  0
LINE
  5
C1A1
330
1F
100
AcDbEntity
  8
AM_0
100
AcDbLine
 10
-1.203735351560297
 20
5.487770080566178
 30
0.0
 11
-1.203735351560268
 21
4.150527954101164
 31
0.0
  0
LINE
  5
C1A2
330
1F
100
AcDbEntity
  8
AM_0
100
AcDbLine
 10
-0.384262084960298
 20
6.625350952148153
 30
0.0
 11
-0.2238616943302958
 21
7.013153076172159
 31
0.0
  0
LINE
  5
C1A3
330
1F
100
AcDbEntity
  8
AM_0
100
AcDbLine
 10
-0.0000000000002984
 20
8.140121459961179
 30
0.0
 11
-0.0000000000002984
 21
8.559875488281178
 31
0.0
  0
LINE
  5
C1A4
330
1F
100
AcDbEntity
  8
AM_0
100
AcDbLine
 10
-0.2238464355402954
 20
9.686836242675155
 30
0.0
 11
-0.3842468261702976
 21
10.07463836669916
 31
0.0
  0
LINE
  5
C1A5
330
1F
100
AcDbEntity
  8
AM_0
100
AcDbLine
 10
-1.318161010740297
 20
5.373176574707173
 30
0.0
 11
-1.021789550780297
 21
5.669975280761178
 31
0.0
  0
LINE
  5
C1A6
330
1F
100
AcDbEntity
  8
AM_0
100
AcDbLine
 10
-6.670883178710298
 20
11.32683563232416
 30
0.0
 11
-6.967285156250298
 21
11.03001403808616
 31
0.0
  0
LINE
  5
C1A7
330
1F
100
AcDbEntity
  8
AM_0
100
AcDbLine
 10
-2.272277832030297
 20
11.96520233154316
 30
0.0
 11
-2.659545898430295
 21
12.12583160400416
 31
0.0
  0
LINE
  5
C1A8
330
1F
100
AcDbEntity
  8
AM_0
100
AcDbLine
 10
-3.784912109370296
 20
12.34999847412115
 30
0.0
 11
-4.204101562500298
 21
12.34999847412115
 31
0.0
  0
LINE
  5
C1A9
330
1F
100
AcDbEntity
  8
AM_0
100
AcDbLine
 10
-5.329528808590296
 20
12.12583160400416
 30
0.0
 11
-5.716781616210298
 21
11.96520233154313
 31
0.0
  0
LINE
  5
C1AA
330
1F
100
AcDbEntity
  8
AM_0
100
AcDbLine
 10
-1.021789550780297
 20
11.03000640869117
 30
0.0
 11
-1.318191528320298
 21
11.32682800292917
 31
0.0
  0
LINE
  5
C39B
330
1F
100
AcDbEntity
  8
AM_11
100
AcDbLine
 10
-0.0000000000002558
 20
-12.49999999999984
 30
0.0
 11
-0.0000000000003126
 21
12.50000000000014
 31
0.0
  0
LINE
  5
C3A3
330
1F
100
AcDbEntity
  8
AM_11
100
AcDbLine
 10
-4.000000000000255
 20
-12.49999999999984
 30
0.0
 11
-4.000000000000312
 21
12.50000000000014
 31
0.0
  0
LINE
  5
C3AB
330
1F
100
AcDbEntity
  8
AM_11
100
AcDbLine
 10
-4.000000000000298
 20
12.50000000000014
 30
0.0
 11
-0.0000000000003126
 21
12.50000000000017
 31
0.0
  0
LINE
  5
C3AF
330
1F
100
AcDbEntity
  8
AM_11
100
AcDbLine
 10
-4.000000000000241
 20
-12.49999999999985
 30
0.0
 11
-0.0000000000002558
 21
-12.49999999999984
 31
0.0
  0
DIMENSION
  5
C3B8
330
1F
100
AcDbEntity
  8
AM_5
100
AcDbDimension
  2
*D5
 10
-0.000000000000314
 20
19.50000000000014
 30
0.0
 11
-2.000000000000311
 21
21.05000000000014
 31
0.0
 70
    32
  1
<>
 51
359.9999999999998
  3
AM_JIS$0
100
AcDbAlignedDimension
 13
-4.000000000000326
 23
12.50000000000014
 33
0.0
 14
-0.0000000000003268
 24
12.50000000000014
 34
0.0
 50
180.0
100
AcDbRotatedDimension
1001
GENIUS_GENDTOL_13
1000

1000
h7
1000

1040
0.0
1001
ACAD
1000
DSTYLE
1002
{
1070
   287
1070
     3
1070
    40
1040
0.5
1070
    42
1040
1.0
1070
    43
1040
12.0
1070
    48
1040
0.1
1070
    78
1070
     8
1070
   140
1040
3.2
1070
   176
1070
   256
1070
   177
1070
   256
1070
   271
1070
     0
1070
   272
1070
     3
1070
   275
1070
     0
1070
   284
1070
     0
1070
   289
1070
     3
1070
   340
1005
6B
1070
   371
1070
    -1
1070
   372
1070
    -1
1002
}
  0
DIMENSION
  5
C460
330
1F
100
AcDbEntity
  8
AM_5
100
AcDbDimension
  2
*D6
 10
11.64999999999974
 20
-12.49999999999984
 30
0.0
 11
10.09999999999975
 21
0.0000000000001345
 31
0.0
 70
    32
  1
%%c<>
 51
359.9999999999998
  3
AM_JIS$0
100
AcDbAlignedDimension
 13
-0.0000000000003126
 23
12.50000000000011
 33
0.0
 14
-0.0000000000002416
 24
-12.49999999999984
 34
0.0
 50
90.0
100
AcDbRotatedDimension
1001
GENIUS_GENDTOL_13
1000

1000
h7
1000

1040
0.0
1001
ACAD
1000
DSTYLE
1002
{
1070
   287
1070
     3
1070
    40
1040
0.5
1070
    42
1040
1.0
1070
    43
1040
12.0
1070
    48
1040
0.1
1070
    78
1070
     8
1070
   140
1040
3.2
1070
   176
1070
   256
1070
   177
1070
   256
1070
   271
1070
     0
1070
   272
1070
     3
1070
   275
1070
     0
1070
   284
1070
     0
1070
   289
1070
     3
1070
   340
1005
6B
1070
   371
1070
    -1
1070
   372
1070
    -1
1002
}
  0
DIMENSION
  5
C500
330
1F
100
AcDbEntity
  8
AM_5
100
AcDbDimension
  2
*D7
 10
-38.99998474121053
 20
-10.49999999999993
 30
0.0
 11
-38.99998474121053
 21
4.273758316641362
 31
0.0
 70
   160
  1
%%c<>
 51
359.9999999999998
  3
AM_JIS$0
100
AcDbAlignedDimension
 13
-45.99998474121028
 23
10.50000000000005
 33
0.0
 14
-45.99998474121025
 24
-10.49999999999992
 34
0.0
 50
90.0
100
AcDbRotatedDimension
1001
GENIUS_GENDTOL_13
1000

1000
h7
1000

1040
0.0
1001
ACAD
1000
DSTYLE
1002
{
1070
   287
1070
     3
1070
    76
1070
     1
1070
    75
1070
     1
1070
    40
1040
0.5
1070
    42
1040
1.0
1070
    43
1040
12.0
1070
    48
1040
0.1
1070
    78
1070
     8
1070
   140
1040
3.2
1070
   176
1070
   256
1070
   177
1070
   256
1070
   271
1070
     0
1070
   272
1070
     3
1070
   275
1070
     0
1070
   284
1070
     0
1070
   289
1070
     3
1070
   340
1005
6B
1070
   371
1070
    -1
1070
   372
1070
    -1
1002
}
  0
DIMENSION
  5
C58C
330
1F
100
AcDbEntity
  8
AM_5
100
AcDbDimension
  2
*D8
 10
-141.463704707461
 20
-12.50000000000008
 30
0.0
 11
-143.0137047074611
 21
-0.0000000000001048
 31
0.0
 70
    32
  1
%%c<>
 51
359.9999999999998
  3
AM_JIS$0
100
AcDbAlignedDimension
 13
-126.9999847412103
 23
12.49999999999991
 33
0.0
 14
-126.9999847412102
 24
-12.50000000000008
 34
0.0
 50
270.0
100
AcDbRotatedDimension
1001
GENIUS_GENDTOL_13
1000

1000
h7
1000

1040
0.0
1001
ACAD
1000
DSTYLE
1002
{
1070
   287
1070
     3
1070
    40
1040
0.5
1070
    42
1040
1.0
1070
    43
1040
12.0
1070
    48
1040
0.1
1070
    78
1070
     8
1070
   140
1040
3.2
1070
   176
1070
   256
1070
   177
1070
   256
1070
   271
1070
     0
1070
   272
1070
     3
1070
   275
1070
     0
1070
   284
1070
     0
1070
   289
1070
     3
1070
   340
1005
6B
1070
   371
1070
    -1
1070
   372
1070
    -1
1002
}
  0
DIMENSION
  5
C618
330
1F
100
AcDbEntity
  8
AM_5
100
AcDbDimension
  2
*D9
 10
-49.99998448464357
 20
-19.50000347260905
 30
0.0
 11
-89.9999846129269
 21
-17.95000347260906
 31
0.0
 70
    32
  1
<>
 51
359.9999999999998
  3
AM_JIS$0
100
AcDbAlignedDimension
 13
-129.9999847412102
 23
-10.92882537841808
 33
0.0
 14
-49.99998448464357
 24
-12.50000347260905
 34
0.0
100
AcDbRotatedDimension
1001
GENIUS_GENDTOL_13
1000

1000
h7
1000

1040
0.0
1001
ACAD
1000
DSTYLE
1002
{
1070
   287
1070
     3
1070
    40
1040
0.5
1070
    42
1040
1.0
1070
    43
1040
12.0
1070
    48
1040
0.1
1070
    78
1070
     8
1070
   140
1040
3.2
1070
   176
1070
   256
1070
   177
1070
   256
1070
   271
1070
     0
1070
   272
1070
     3
1070
   275
1070
     0
1070
   284
1070
     0
1070
   289
1070
     3
1070
   340
1005
6B
1070
   371
1070
    -1
1070
   372
1070
    -1
1002
}
  0
DIMENSION
  5
C6A4
330
1F
100
AcDbEntity
  8
AM_5
100
AcDbDimension
  2
*D10
 10
-0.000000000000242
 20
-19.50000347260905
 30
0.0
 11
-24.99999237060524
 21
-17.95000347260906
 31
0.0
 70
    32
  1
<>
 51
359.9999999999998
  3
AM_JIS$0
100
AcDbAlignedDimension
 13
-49.99998474121025
 23
-12.49999999999991
 33
0.0
 14
-0.0000000000002416
 24
-12.49999999999984
 34
0.0
100
AcDbRotatedDimension
1001
GENIUS_GENDTOL_13
1000

1000
h7
1000

1040
0.0
1001
ACAD
1000
DSTYLE
1002
{
1070
   287
1070
     3
1070
    40
1040
0.5
1070
    42
1040
1.0
1070
    43
1040
12.0
1070
    48
1040
0.1
1070
    78
1070
     8
1070
   140
1040
3.2
1070
   176
1070
   256
1070
   177
1070
   256
1070
   271
1070
     0
1070
   272
1070
     3
1070
   275
1070
     0
1070
   284
1070
     0
1070
   289
1070
     3
1070
   340
1005
6B
1070
   371
1070
    -1
1070
   372
1070
    -1
1002
}
  0
DIMENSION
  5
C73C
330
1F
100
AcDbEntity
  8
AM_5
100
AcDbDimension
  2
*D11
 10
-0.0000000000002423
 20
-24.50000347260905
 30
0.0
 11
-64.99999237060525
 21
-22.95000347260905
 31
0.0
 70
    32
  1
<>
 51
359.9999999999998
  3
AM_JIS$0
100
AcDbAlignedDimension
 13
-129.9999847412102
 23
-10.92882537841808
 33
0.0
 14
-0.0000000000002416
 24
-12.49999999999984
 34
0.0
100
AcDbRotatedDimension
1001
GENIUS_GENDTOL_13
1000

1000
h7
1000

1040
0.0
1001
ACAD
1000
DSTYLE
1002
{
1070
   287
1070
     3
1070
    40
1040
0.5
1070
    42
1040
1.0
1070
    43
1040
12.0
1070
    48
1040
0.1
1070
    78
1070
     8
1070
   140
1040
3.2
1070
   176
1070
   256
1070
   177
1070
   256
1070
   271
1070
     0
1070
   272
1070
     3
1070
   275
1070
     0
1070
   284
1070
     0
1070
   289
1070
     3
1070
   340
1005
6B
1070
   371
1070
    -1
1070
   372
1070
    -1
1002
}
  0
VIEWPORT
  5
110
330
101
100
AcDbEntity
 67
     1
  8
0
100
AcDbViewport
 10
420.5
 20
297.0
 30
0.0
 40
948.9782706766916
 41
628.452
 68
     1
 69
     1
1001
ACAD
1000
MVIEW
1002
{
1070
    16
1010
0.0
1020
0.0
1030
0.0
1010
0.0
1020
0.0
1030
1.0
1040
0.0
1040
628.452
1040
420.5
1040
297.0
1040
50.0
1040
0.0
1040
0.0
1070
     0
1070
   100
1070
     1
1070
     1
1070
     0
1070
     0
1070
     0
1070
     0
1040
0.0
1040
0.0
1040
0.0
1040
10.0
1040
10.0
1040
10.0
1040
10.0
1070
     0
1002
{
1002
}
1002
}
  0
ENDSEC
  0
SECTION
  2
OBJECTS
  0
DICTIONARY
  5
C
330
0
100
AcDbDictionary
  3
ACAD_GROUP
350
D
  3
ACAD_LAYOUT
350
1A
  3
ACAD_MLINESTYLE
350
17
  3
ACAD_PLOTSETTINGS
350
19
  3
ACAD_PLOTSTYLENAME
350
E
  3
ACDBVARIABLEDICTIONARY
350
34
  3
ACMDICTIONARY
350
43
  3
AMG
350
2B
  3
AMGSNAPSETTINGS
350
6E
  3
DWGPROPS
350
C9C7
  3
ACDBHEADERROUNDTRIPXREC
350
C9D3
  0
DICTIONARY
  5
74
330
1F
100
AcDbDictionary
280
     1
  3
ACAD_INDEX
360
C9C9
  3
ACAD_LAYOUTSELFREF
360
C9F6
  0
DICTIONARY
  5
C9FB
330
101
100
AcDbDictionary
280
     1
  3
ACAD_LAYOUTSELFREF
360
C9FC
  0
DICTIONARY
  5
D
102
{ACAD_REACTORS
330
C
102
}
330
C
100
AcDbDictionary
  0
DICTIONARY
  5
1A
102
{ACAD_REACTORS
330
C
102
}
330
C
100
AcDbDictionary
  0
DICTIONARY
  5
17
102
{ACAD_REACTORS
330
C
102
}
330
C
100
AcDbDictionary
  3
STANDARD
350
18
  0
DICTIONARY
  5
19
102
{ACAD_REACTORS
330
C
102
}
330
C
100
AcDbDictionary
  3
ASAMI
350
399D
  0
ACDBDICTIONARYWDFLT
  5
E
102
{ACAD_REACTORS
330
C
102
}
330
C
100
AcDbDictionary
281
     1
  3
Normal
350
F
100
AcDbDictionaryWithDefault
340
F
  0
DICTIONARY
  5
34
102
{ACAD_REACTORS
330
C
102
}
330
C
100
AcDbDictionary
  3
INDEXCTL
350
35
  3
SORTENTS
350
B5E
  0
DICTIONARY
  5
43
102
{ACAD_REACTORS
330
C
102
}
330
C
100
AcDbDictionary
  3
ACMSTDDICTIONARY
350
260
  0
DICTIONARY
  5
2B
102
{ACAD_REACTORS
330
C
102
}
330
C
100
AcDbDictionary
  3
ACMGSETTINGS
350
2C
  0
DICTIONARY
  5
6E
102
{ACAD_REACTORS
330
C
102
}
330
C
100
AcDbDictionary
  0
XRECORD
  5
C9C7
102
{ACAD_REACTORS
330
C
102
}
330
C
100
AcDbXrecord
  1
DWGPROPS COOKIE
  2

  3

  4

  6

  7

  8

  9

300
AmdtFileType=82
301
=
302
=
303
=
304
=
305
=
306
=
307
=
308
=
309
=
 40
0.9420371759259259
 41
2452802.716478761
 42
2453075.686738275
  1

 90
        1
  0
DICTIONARY
  5
C9D3
102
{ACAD_REACTORS
330
C
102
}
330
C
100
AcDbDictionary
  3
TSTACKALIGN
350
C9D4
  3
TSTACKSIZE
350
C9D5
  3
HYPERLINKBASE
350
C9D6
  3
STYLESHEET
350
C9D7
  3
LAYOUTDICT
350
C9D8
  3
PLOTSETDICT
350
C9D9
  3
PLOTSTYLNAMDICT
350
C9DA
  3
LWETCUNION
350
C9DB
  3
INSUNITS
350
C9DC
  3
CEPSNTYPE
350
C9DD
  3
FINGERPRINTGUID
350
C9DE
  3
VERSIONGUID
350
C9DF
  3
PSVPSCALE
350
C9E0
  3
DIMSTYLEDATA
350
C9E1
  3
PUCSORTHOREF
350
C9E2
  3
PUCSORTHOVIEW
350
C9E3
  3
PUCSBASE
350
C9E4
  3
PUCSORGTOP
350
C9E5
  3
PUCSORGBOTTOM
350
C9E6
  3
PUCSORGLEFT
350
C9E7
  3
PUCSORGRIGHT
350
C9E8
  3
PUCSORGFRONT
350
C9E9
  3
PUCSORGBACK
350
C9EA
  3
UCSORTHOREF
350
C9EB
  3
UCSORTHOVIEW
350
C9EC
  3
UCSBASE
350
C9ED
  3
UCSORGTOP
350
C9EE
  3
UCSORGBOTTOM
350
C9EF
  3
UCSORGLEFT
350
C9F0
  3
UCSORGRIGHT
350
C9F1
  3
UCSORGFRONT
350
C9F2
  3
UCSORGBACK
350
C9F3
  0
DICTIONARY
  5
C9C9
102
{ACAD_REACTORS
330
74
102
}
330
74
100
AcDbDictionary
  3
*A1
350
C9CA
  0
XRECORD
  5
C9F6
102
{ACAD_REACTORS
330
74
102
}
330
74
100
AcDbXrecord
340
1F
  0
XRECORD
  5
C9FC
102
{ACAD_REACTORS
330
C9FB
102
}
330
C9FB
100
AcDbXrecord
340
101
  0
MLINESTYLE
  5
18
102
{ACAD_REACTORS
330
17
102
}
330
17
100
AcDbMlineStyle
  2
STANDARD
 70
     0
  3

 62
   256
 51
90.0
 52
90.0
 71
     2
 49
0.5
 62
   256
  6
BYLAYER
 49
-0.5
 62
   256
  6
BYLAYER
  0
PLOTSETTINGS
  5
399D
102
{ACAD_REACTORS
330
19
102
}
330
19
100
AcDbPlotSettings
  1
asami
  2
RICOH imagio MF1540
  4
A4
  6

 40
5.831416606903076
 41
7.651742935180664
 42
4.90008544921875
 43
5.789077758789062
 44
296.9683227539062
 45
209.9733276367187
 46
0.0
 47
0.0
 48
-156.6707931774246
 49
-74.57609991074048
140
58.59973180214831
141
60.61068161925596
142
1.0
143
1.095343097833084
 70
  1712
 72
     1
 73
     1
 74
     4
  7
asami.ctb
 75
     0
147
0.9129559514076438
148
156.6707931774246
149
74.57609991074048
  0
ACDBPLACEHOLDER
  5
F
102
{ACAD_REACTORS
330
E
102
}
330
E
100
AcDbPlaceHolder
280
     0
  0
DICTIONARYVAR
  5
35
102
{ACAD_REACTORS
330
34
102
}
330
34
100
DictionaryVariables
280
     0
  1
1
  0
DICTIONARYVAR
  5
B5E
102
{ACAD_REACTORS
330
34
102
}
330
34
100
DictionaryVariables
280
     0
  1
96
  0
DICTIONARY
  5
260
102
{ACAD_REACTORS
330
43
102
}
330
43
100
AcDbDictionary
  0
DICTIONARY
  5
2C
102
{ACAD_REACTORS
330
2B
102
}
330
2B
100
AcDbDictionary
  3
DWGSETTINGS
350
2D
  0
XRECORD
  5
C9D4
102
{ACAD_REACTORS
330
C9D3
102
}
330
C9D3
100
AcDbXrecord
 90
        1
  0
XRECORD
  5
C9D5
102
{ACAD_REACTORS
330
C9D3
102
}
330
C9D3
100
AcDbXrecord
 90
       70
  0
XRECORD
  5
C9D6
102
{ACAD_REACTORS
330
C9D3
102
}
330
C9D3
100
AcDbXrecord
  1

  0
XRECORD
  5
C9D7
102
{ACAD_REACTORS
330
C9D3
102
}
330
C9D3
100
AcDbXrecord
  1
ASAMI.ctb
  0
XRECORD
  5
C9D8
102
{ACAD_REACTORS
330
C9D3
102
}
330
C9D3
100
AcDbXrecord
340
1A
  0
XRECORD
  5
C9D9
102
{ACAD_REACTORS
330
C9D3
102
}
330
C9D3
100
AcDbXrecord
340
19
  0
XRECORD
  5
C9DA
102
{ACAD_REACTORS
330
C9D3
102
}
330
C9D3
100
AcDbXrecord
340
E
  0
XRECORD
  5
C9DB
102
{ACAD_REACTORS
330
C9D3
102
}
330
C9D3
100
AcDbXrecord
 90
    10781
  0
XRECORD
  5
C9DC
102
{ACAD_REACTORS
330
C9D3
102
}
330
C9D3
100
AcDbXrecord
 90
        4
  0
XRECORD
  5
C9DD
102
{ACAD_REACTORS
330
C9D3
102
}
330
C9D3
100
AcDbXrecord
 90
        0
  0
XRECORD
  5
C9DE
102
{ACAD_REACTORS
330
C9D3
102
}
330
C9D3
100
AcDbXrecord
  1
{AFB28963-8C59-40AE-9337-C84526B81ACE}
  0
XRECORD
  5
C9DF
102
{ACAD_REACTORS
330
C9D3
102
}
330
C9D3
100
AcDbXrecord
  1
{EB60A3C7-3C8F-490C-AE9E-5B6B73BEF772}
  0
XRECORD
  5
C9E0
102
{ACAD_REACTORS
330
C9D3
102
}
330
C9D3
100
AcDbXrecord
 40
0.0
  0
XRECORD
  5
C9E1
102
{ACAD_REACTORS
330
C9D3
102
}
330
C9D3
100
AcDbXrecord
1000
DSTYLE
1002
{
1070
    79
 70
     2
1070
   341
340
59
1070
   342
340
59
1070
   371
 70
    -1
1070
   372
 70
    -1
1002
}
  0
XRECORD
  5
C9E2
102
{ACAD_REACTORS
330
C9D3
102
}
330
C9D3
100
AcDbXrecord
340
0
  0
XRECORD
  5
C9E3
102
{ACAD_REACTORS
330
C9D3
102
}
330
C9D3
100
AcDbXrecord
 70
     0
  0
XRECORD
  5
C9E4
102
{ACAD_REACTORS
330
C9D3
102
}
330
C9D3
100
AcDbXrecord
340
0
  0
XRECORD
  5
C9E5
102
{ACAD_REACTORS
330
C9D3
102
}
330
C9D3
100
AcDbXrecord
 10
0.0
 20
0.0
 30
0.0
  0
XRECORD
  5
C9E6
102
{ACAD_REACTORS
330
C9D3
102
}
330
C9D3
100
AcDbXrecord
 10
0.0
 20
0.0
 30
0.0
  0
XRECORD
  5
C9E7
102
{ACAD_REACTORS
330
C9D3
102
}
330
C9D3
100
AcDbXrecord
 10
0.0
 20
0.0
 30
0.0
  0
XRECORD
  5
C9E8
102
{ACAD_REACTORS
330
C9D3
102
}
330
C9D3
100
AcDbXrecord
 10
0.0
 20
0.0
 30
0.0
  0
XRECORD
  5
C9E9
102
{ACAD_REACTORS
330
C9D3
102
}
330
C9D3
100
AcDbXrecord
 10
0.0
 20
0.0
 30
0.0
  0
XRECORD
  5
C9EA
102
{ACAD_REACTORS
330
C9D3
102
}
330
C9D3
100
AcDbXrecord
 10
0.0
 20
0.0
 30
0.0
  0
XRECORD
  5
C9EB
102
{ACAD_REACTORS
330
C9D3
102
}
330
C9D3
100
AcDbXrecord
340
0
  0
XRECORD
  5
C9EC
102
{ACAD_REACTORS
330
C9D3
102
}
330
C9D3
100
AcDbXrecord
 70
     0
  0
XRECORD
  5
C9ED
102
{ACAD_REACTORS
330
C9D3
102
}
330
C9D3
100
AcDbXrecord
340
0
  0
XRECORD
  5
C9EE
102
{ACAD_REACTORS
330
C9D3
102
}
330
C9D3
100
AcDbXrecord
 10
0.0
 20
0.0
 30
0.0
  0
XRECORD
  5
C9EF
102
{ACAD_REACTORS
330
C9D3
102
}
330
C9D3
100
AcDbXrecord
 10
0.0
 20
0.0
 30
0.0
  0
XRECORD
  5
C9F0
102
{ACAD_REACTORS
330
C9D3
102
}
330
C9D3
100
AcDbXrecord
 10
0.0
 20
0.0
 30
0.0
  0
XRECORD
  5
C9F1
102
{ACAD_REACTORS
330
C9D3
102
}
330
C9D3
100
AcDbXrecord
 10
0.0
 20
0.0
 30
0.0
  0
XRECORD
  5
C9F2
102
{ACAD_REACTORS
330
C9D3
102
}
330
C9D3
100
AcDbXrecord
 10
0.0
 20
0.0
 30
0.0
  0
XRECORD
  5
C9F3
102
{ACAD_REACTORS
330
C9D3
102
}
330
C9D3
100
AcDbXrecord
 10
0.0
 20
0.0
 30
0.0
  0
LAYER_INDEX
  5
C9CA
102
{ACAD_REACTORS
330
C9C9
102
}
330
C9C9
100
AcDbIndex
 40
2453152.384655173
100
AcDbLayerIndex
  8
0
360
C9CB
 90
        0
  8
AM_0
360
C9CC
 90
      212
  8
AM_5
360
C9CD
 90
        7
  8
AM_7
360
C9CE
 90
        1
  8
AM_6
360
C9CF
 90
        1
  8
Defpoints
360
C9D0
 90
        0
  8
AM_11
360
C9D1
 90
        4
  0
XRECORD
  5
2D
102
{ACAD_REACTORS
330
2C
102
}
330
2C
100
AcDbXrecord
  1
VERSION
140
15.0
  1
PRODUCT
  2
AutoCAD Mechanical 2000
  0
IDBUFFER
  5
C9CB
330
0
100
AcDbIdBuffer
  0
IDBUFFER
  5
C9CC
330
0
100
AcDbIdBuffer
330
C147
330
C148
330
C149
330
C14A
330
C14B
330
C14C
330
C14D
330
C14E
330
C14F
330
C150
330
C151
330
C152
330
C153
330
C154
330
C155
330
C156
330
C157
330
C158
330
C159
330
C15A
330
C15B
330
C15C
330
C15D
330
C15E
330
C15F
330
C160
330
C161
330
C162
330
C163
330
C164
330
C165
330
C166
330
C167
330
C168
330
C169
330
C16A
330
C16B
330
C16C
330
C16D
330
C16E
330
C16F
330
C170
330
C171
330
C172
330
C173
330
C174
330
C175
330
C176
330
C177
330
C178
330
C179
330
C17A
330
C17B
330
C17C
330
C17D
330
C17E
330
C17F
330
C180
330
C181
330
C182
330
C183
330
C184
330
C185
330
C186
330
C187
330
C188
330
C189
330
C18A
330
C18B
330
C18C
330
C18D
330
C18E
330
C18F
330
C190
330
C191
330
C192
330
C193
330
C194
330
C195
330
C196
330
C197
330
C198
330
C199
330
C19A
330
C19B
330
C19C
330
C19D
330
C19E
330
C19F
330
C1A0
330
C1A1
330
C1A2
330
C1A3
330
C1A4
330
C1A5
330
C1A6
330
C1A7
330
C1A8
330
C1A9
330
C1AA
330
C0D1
330
C0D2
330
C0D3
330
C0D4
330
C0D5
330
C0D6
330
C0D7
330
C0D8
330
C0D9
330
C0DA
330
C0DB
330
C0DC
330
C0DD
330
C0DE
330
C0DF
330
C0E0
330
C0E1
330
C0E2
330
C0E3
330
C0E4
330
C0E5
330
C0E6
330
C0E7
330
C0E8
330
C0E9
330
C0EA
330
C0EB
330
C0EC
330
C0ED
330
C0EE
330
C0EF
330
C0F0
330
C0F1
330
C0F2
330
C0F3
330
C0F4
330
C0F5
330
C0F6
330
C0F7
330
C0F8
330
C0F9
330
C0FA
330
C0FB
330
C0FC
330
C0FD
330
C0FE
330
C0FF
330
C100
330
C101
330
C102
330
C103
330
C104
330
C105
330
C106
330
C107
330
C108
330
C109
330
C10A
330
C10B
330
C10C
330
C10D
330
C10E
330
C10F
330
C110
330
C111
330
C112
330
C113
330
C114
330
C115
330
C116
330
C117
330
C118
330
C119
330
C11A
330
C11B
330
C11C
330
C11D
330
C11E
330
C11F
330
C120
330
C121
330
C123
330
C124
330
C127
330
C128
330
C12A
330
C12B
330
C12C
330
C12D
330
C12F
330
C130
330
C132
330
C133
330
C134
330
C135
330
C136
330
C137
330
C138
330
C139
330
C13A
330
C13B
330
C13C
330
C13D
330
C13E
330
C13F
330
C140
330
C141
330
C142
330
C143
330
C144
330
C145
330
C146
  0
IDBUFFER
  5
C9CD
330
0
100
AcDbIdBuffer
330
C3B8
330
C460
330
C500
330
C58C
330
C618
330
C6A4
330
C73C
  0
IDBUFFER
  5
C9CE
330
0
100
AcDbIdBuffer
330
C122
  0
IDBUFFER
  5
C9CF
330
0
100
AcDbIdBuffer
330
388D
  0
IDBUFFER
  5
C9D0
330
0
100
AcDbIdBuffer
  0
IDBUFFER
  5
C9D1
330
0
100
AcDbIdBuffer
330
C39B
330
C3A3
330
C3AB
330
C3AF
  0
ENDSEC
  0
EOF
