  0
SECTION
  2
HEADER
  9
$ACADVER
  1
AC1014
  9
$ACADMAINTVER
 70
     9
  9
$DWGCODEPAGE
  3
ANSI_932
  9
$INSBASE
 10
0.0
 20
0.0
 30
0.0
  9
$EXTMIN
 10
-129.3500000000002
 20
-31.24999999999996
 30
-0.00000001
  9
$EXTMAX
 10
7.49999999999976
 20
17.35000000000017
 30
0.00000001
  9
$LIMMIN
 10
-144.2561018295734
 20
-72.7137007406182
  9
$LIMMAX
 10
56.32456594564849
 20
43.72530051830387
  9
$ORTHOMODE
 70
     0
  9
$REGENMODE
 70
     1
  9
$FILLMODE
 70
     1
  9
$QTEXTMODE
 70
     0
  9
$MIRRTEXT
 70
     0
  9
$DRAGMODE
 70
     2
  9
$LTSCALE
 40
1.0
  9
$OSMODE
 70
    55
  9
$ATTMODE
 70
     1
  9
$TEXTSIZE
 40
2.5
  9
$TRACEWID
 40
1.0
  9
$TEXTSTYLE
  7
STANDARD
  9
$CLAYER
  8
AM_0
  9
$CELTYPE
  6
BYLAYER
  9
$CECOLOR
 62
   256
  9
$CELTSCALE
 40
1.0
  9
$DELOBJ
 70
     1
  9
$DISPSILH
 70
     0
  9
$DIMSCALE
 40
0.5
  9
$DIMASZ
 40
2.5
  9
$DIMEXO
 40
1.0
  9
$DIMDLI
 40
12.0
  9
$DIMRND
 40
0.0
  9
$DIMDLE
 40
0.0
  9
$DIMEXE
 40
1.0
  9
$DIMTP
 40
0.1
  9
$DIMTM
 40
0.1
  9
$DIMTXT
 40
3.2
  9
$DIMCEN
 40
0.0
  9
$DIMTSZ
 40
0.0
  9
$DIMTOL
 70
     0
  9
$DIMLIM
 70
     0
  9
$DIMTIH
 70
     0
  9
$DIMTOH
 70
     0
  9
$DIMSE1
 70
     0
  9
$DIMSE2
 70
     0
  9
$DIMTAD
 70
     3
  9
$DIMZIN
 70
     8
  9
$DIMBLK
  1
OPEN30
  9
$DIMASO
 70
     1
  9
$DIMSHO
 70
     1
  9
$DIMPOST
  1

  9
$DIMAPOST
  1
"
  9
$DIMALT
 70
     0
  9
$DIMALTD
 70
     2
  9
$DIMALTF
 40
0.0393701
  9
$DIMLFAC
 40
1.0
  9
$DIMTOFL
 70
     1
  9
$DIMTVP
 40
0.0
  9
$DIMTIX
 70
     0
  9
$DIMSOXD
 70
     0
  9
$DIMSAH
 70
     0
  9
$DIMBLK1
  1

  9
$DIMBLK2
  1

  9
$DIMSTYLE
  2
AM_JIS
  9
$DIMCLRD
 70
   256
  9
$DIMCLRE
 70
   256
  9
$DIMCLRT
 70
     2
  9
$DIMTFAC
 40
0.71
  9
$DIMGAP
 40
1.5
  9
$DIMJUST
 70
     0
  9
$DIMSD1
 70
     0
  9
$DIMSD2
 70
     0
  9
$DIMTOLJ
 70
     0
  9
$DIMTZIN
 70
     0
  9
$DIMALTZ
 70
     0
  9
$DIMALTTZ
 70
     0
  9
$DIMFIT
 70
     3
  9
$DIMUPT
 70
     0
  9
$DIMUNIT
 70
     2
  9
$DIMDEC
 70
     3
  9
$DIMTDEC
 70
     3
  9
$DIMALTU
 70
     2
  9
$DIMALTTD
 70
     2
  9
$DIMTXSTY
  7
ASAMI
  9
$DIMAUNIT
 70
     0
  9
$LUNITS
 70
     2
  9
$LUPREC
 70
     2
  9
$SKETCHINC
 40
1.0
  9
$FILLETRAD
 40
0.4
  9
$AUNITS
 70
     0
  9
$AUPREC
 70
     0
  9
$MENU
  1
.
  9
$ELEVATION
 40
0.0
  9
$PELEVATION
 40
0.0
  9
$THICKNESS
 40
0.0
  9
$LIMCHECK
 70
     1
  9
$BLIPMODE
 70
     0
  9
$CHAMFERA
 40
1.0
  9
$CHAMFERB
 40
1.0
  9
$CHAMFERC
 40
20.0
  9
$CHAMFERD
 40
0.0
  9
$SKPOLY
 70
     0
  9
$TDCREATE
 40
2452802.716478761
  9
$TDUPDATE
 40
2453152.382547546
  9
$TDINDWG
 40
0.9988342014
  9
$TDUSRTIMER
 40
0.9988342014
  9
$USRTIMER
 70
     1
  9
$ANGBASE
 50
0.0
  9
$ANGDIR
 70
     0
  9
$PDMODE
 70
     0
  9
$PDSIZE
 40
0.0
  9
$PLINEWID
 40
0.0
  9
$COORDS
 70
     1
  9
$SPLFRAME
 70
     0
  9
$SPLINETYPE
 70
     6
  9
$SPLINESEGS
 70
     8
  9
$ATTDIA
 70
     1
  9
$ATTREQ
 70
     1
  9
$HANDLING
 70
 12289
  9
$HANDSEED
  5
C7FD
  9
$SURFTAB1
 70
     6
  9
$SURFTAB2
 70
     6
  9
$SURFTYPE
 70
     6
  9
$SURFU
 70
     6
  9
$SURFV
 70
     6
  9
$UCSNAME
  2

  9
$UCSORG
 10
-0.0000000000002682
 20
0.000000000000161
 30
0.0
  9
$UCSXDIR
 10
1.0
 20
0.000000000000002
 30
0.0
  9
$UCSYDIR
 10
-0.000000000000002
 20
1.0
 30
0.0
  9
$PUCSNAME
  2

  9
$PUCSORG
 10
0.0
 20
0.0
 30
0.0
  9
$PUCSXDIR
 10
1.0
 20
0.0
 30
0.0
  9
$PUCSYDIR
 10
0.0
 20
1.0
 30
0.0
  9
$USERI1
 70
     0
  9
$USERI2
 70
     0
  9
$USERI3
 70
     0
  9
$USERI4
 70
     0
  9
$USERI5
 70
     0
  9
$USERR1
 40
0.0
  9
$USERR2
 40
0.0
  9
$USERR3
 40
0.0
  9
$USERR4
 40
0.0
  9
$USERR5
 40
0.0
  9
$WORLDVIEW
 70
     1
  9
$SHADEDGE
 70
     3
  9
$SHADEDIF
 70
    70
  9
$TILEMODE
 70
     1
  9
$MAXACTVP
 70
    64
  9
$PINSBASE
 10
0.0
 20
0.0
 30
0.0
  9
$PLIMCHECK
 70
     0
  9
$PEXTMIN
 10
1.000000000000000E+20
 20
1.000000000000000E+20
 30
1.000000000000000E+20
  9
$PEXTMAX
 10
-1.000000000000000E+20
 20
-1.000000000000000E+20
 30
-1.000000000000000E+20
  9
$PLIMMIN
 10
0.0
 20
0.0
  9
$PLIMMAX
 10
841.0
 20
594.0
  9
$UNITMODE
 70
     0
  9
$VISRETAIN
 70
     1
  9
$PLINEGEN
 70
     0
  9
$PSLTSCALE
 70
     0
  9
$TREEDEPTH
 70
  3020
  9
$PICKSTYLE
 70
     0
  9
$CMLSTYLE
  2
STANDARD
  9
$CMLJUST
 70
     0
  9
$CMLSCALE
 40
20.0
  9
$PROXYGRAPHICS
 70
     1
  9
$MEASUREMENT
 70
     1
  0
ENDSEC
  0
SECTION
  2
CLASSES
  0
CLASS
  1
ACDBDICTIONARYWDFLT
  2
AcDbDictionaryWithDefault
  3
AutoCAD 2000
 90
        0
280
     0
281
     0
  0
CLASS
  1
ACDBPLACEHOLDER
  2
AcDbPlaceHolder
  3
AutoCAD 2000
 90
        0
280
     0
281
     0
  0
CLASS
  1
LAYOUT
  2
AcDbLayout
  3
AutoCAD 2000
 90
        0
280
     0
281
     0
  0
CLASS
  1
AMGSETTINGSOBJ
  2
AmgSettingsObj
  3
"AcadM|Product Description: AutoCAD Mechanical 2000|Company: Autodesk"
 90
        0
280
     0
281
     0
  0
CLASS
  1
ACME_DOCUMENT
  2
AcMeDbDoc
  3
AcMeServices
 90
        0
280
     0
281
     0
  0
CLASS
  1
ACMESCOPE
  2
AcMeScope
  3
AcMeServices
 90
        0
280
     0
281
     0
  0
CLASS
  1
ACMECOMMANDHISTORY
  2
AcMeCommandHistory
  3
AcMeServices
 90
        0
280
     0
281
     0
  0
CLASS
  1
DICTIONARYVAR
  2
AcDbDictionaryVar
  3
AutoCAD 2000
 90
        0
280
     0
281
     0
  0
CLASS
  1
ACIMSYSVARMAN
  2
AcImSysVarManager
  3
AcMeServices
 90
        0
280
     0
281
     0
  0
CLASS
  1
ACIMREALSYSVAR
  2
AcImRealSysVar
  3
AcMeServices
 90
        0
280
     0
281
     0
  0
CLASS
  1
ACIMINTSYSVAR
  2
AcImIntSysVar
  3
AcMeServices
 90
        0
280
     0
281
     0
  0
CLASS
  1
ACMEDRAWINGMAN
  2
AcMeDrawingMan
  3
AcMeServices
 90
        0
280
     0
281
     0
  0
CLASS
  1
ACMEVIEW
  2
AcMeView
  3
AcMeServices
 90
        0
280
     0
281
     0
  0
CLASS
  1
ACDBENTITYCACHE
  2
AcMeEntityCache
  3
AcMeServices
 90
        0
280
     0
281
     0
  0
CLASS
  1
GSMANAGER
  2
AcMeGSManager
  3
AcMeServices
 90
        0
280
     0
281
     0
  0
CLASS
  1
AmdtInternalReactor
  2
AmdtInternalReactor
  3
AcMeServices
 90
        0
280
     0
281
     0
  0
CLASS
  1
ACMESTATEMGR
  2
AcMeStateMgr
  3
AcMeServices
 90
        0
280
     0
281
     0
  0
CLASS
  1
ACME_DATABASE
  2
AcMeDbDatabase
  3
AcMeServices
 90
        0
280
     0
281
     0
  0
CLASS
  1
ACRFINSADJUSTERMGR
  2
AcRfInsAdjusterMgr
  3
AcMeServices
 90
        0
280
     0
281
     0
  0
CLASS
  1
ACMDATADICTIONARY
  2
AcmDataDictionary
  3
"AcmSymBB|Product Description: AutoCAD Mechanical 2000|Company: Autodesk"
 90
        0
280
     0
281
     0
  0
CLASS
  1
ACMDATAENTRYBLOCK
  2
AcmDataEntryBlock
  3
"AcmSymBB|Product Description: AutoCAD Mechanical 2000|Company: Autodesk"
 90
        0
280
     0
281
     0
  0
CLASS
  1
AMGOBJPROPCFG
  2
AmgObjPropCfg
  3
"AmgLay|Product Description: AutoCAD Mechanical 2000|Company: Autodesk"
 90
        1
280
     0
281
     0
  0
CLASS
  1
ACAMGFILTERDAT
  2
AcAmgFilterDat
  3
"AcadM|Product Description: AutoCAD Mechanical 2000|Company: Autodesk"
 90
        0
280
     0
281
     0
  0
CLASS
  1
LAYER_INDEX
  2
AcDbLayerIndex
  3
AutoCAD 2000
 90
        0
280
     0
281
     0
  0
CLASS
  1
IDBUFFER
  2
AcDbIdBuffer
  3
AutoCAD 2000
 90
        0
280
     0
281
     0
  0
CLASS
  1
ACIMSTRSYSVAR
  2
AcImStrSysVar
  3
AcMeServices
 90
        0
280
     0
281
     0
  0
CLASS
  1
ACMSTANDARDJIS
  2
AcmStandardJIS
  3
"AcmSymBB|Product Description: AutoCAD Mechanical 2000|Company: Autodesk"
 90
        0
280
     0
281
     0
  0
CLASS
  1
ACMSURFSTANDARDJIS
  2
AcmSurfTextStdJIS
  3
"AcmSymBB|Product Description: AutoCAD Mechanical 2000|Company: Autodesk"
 90
        0
280
     0
281
     0
  0
CLASS
  1
ACMFCFSTANDARDJIS
  2
AcmFCFStdJIS
  3
"AcmSymBB|Product Description: AutoCAD Mechanical 2000|Company: Autodesk"
 90
        0
280
     0
281
     0
  0
CLASS
  1
ACMWELDSTANDARDJIS
  2
AcmWeldingStdJIS
  3
"AcmSymBB|Product Description: AutoCAD Mechanical 2000|Company: Autodesk"
 90
        0
280
     0
281
     0
  0
CLASS
  1
ACMIDSTANDARDJIS
  2
AcmIdStdJIS
  3
"AcmSymBB|Product Description: AutoCAD Mechanical 2000|Company: Autodesk"
 90
        0
280
     0
281
     0
  0
CLASS
  1
ACMDATUMSTANDARDJIS
  2
AcmDatumStdJIS
  3
"AcmSymBB|Product Description: AutoCAD Mechanical 2000|Company: Autodesk"
 90
        0
280
     0
281
     0
  0
CLASS
  1
ACMBOMSTANDARDJIS
  2
AcmBOMStdJIS
  3
"AcmSymBB|Product Description: AutoCAD Mechanical 2000|Company: Autodesk"
 90
        0
280
     0
281
     0
  0
CLASS
  1
ACMSTANDARDANSI
  2
AcmStandardANSI
  3
"AcmSymBB|Product Description: AutoCAD Mechanical 2000|Company: Autodesk"
 90
        0
280
     0
281
     0
  0
CLASS
  1
ACMSURFSTANDARDANSI
  2
AcmSurfTextStdANSI
  3
"AcmSymBB|Product Description: AutoCAD Mechanical 2000|Company: Autodesk"
 90
        0
280
     0
281
     0
  0
CLASS
  1
ACMFCFSTANDARDANSI
  2
AcmFCFStdANSI
  3
"AcmSymBB|Product Description: AutoCAD Mechanical 2000|Company: Autodesk"
 90
        0
280
     0
281
     0
  0
CLASS
  1
ACMWELDSTANDARDANSI
  2
AcmWeldingStdANSI
  3
"AcmSymBB|Product Description: AutoCAD Mechanical 2000|Company: Autodesk"
 90
        0
280
     0
281
     0
  0
CLASS
  1
ACMIDSTANDARDANSI
  2
AcmIdStdANSI
  3
"AcmSymBB|Product Description: AutoCAD Mechanical 2000|Company: Autodesk"
 90
        0
280
     0
281
     0
  0
CLASS
  1
ACMDATUMSTANDARDANSI
  2
AcmDatumStdANSI
  3
"AcmSymBB|Product Description: AutoCAD Mechanical 2000|Company: Autodesk"
 90
        0
280
     0
281
     0
  0
CLASS
  1
ACMBOMSTANDARDANSI
  2
AcmBOMStdANSI
  3
"AcmSymBB|Product Description: AutoCAD Mechanical 2000|Company: Autodesk"
 90
        0
280
     0
281
     0
  0
CLASS
  1
ACMSTANDARDBSI
  2
AcmStandardBSI
  3
"AcmSymBB|Product Description: AutoCAD Mechanical 2000|Company: Autodesk"
 90
        0
280
     0
281
     0
  0
CLASS
  1
ACMSURFSTANDARDBSI
  2
AcmSurfTextStdBSI
  3
"AcmSymBB|Product Description: AutoCAD Mechanical 2000|Company: Autodesk"
 90
        0
280
     0
281
     0
  0
CLASS
  1
ACMFCFSTANDARDBSI
  2
AcmFCFStdBSI
  3
"AcmSymBB|Product Description: AutoCAD Mechanical 2000|Company: Autodesk"
 90
        0
280
     0
281
     0
  0
CLASS
  1
ACMWELDSTANDARDBSI
  2
AcmWeldingStdBSI
  3
"AcmSymBB|Product Description: AutoCAD Mechanical 2000|Company: Autodesk"
 90
        0
280
     0
281
     0
  0
CLASS
  1
ACMIDSTANDARDBSI
  2
AcmIdStdBSI
  3
"AcmSymBB|Product Description: AutoCAD Mechanical 2000|Company: Autodesk"
 90
        0
280
     0
281
     0
  0
CLASS
  1
ACMDATUMSTANDARDBSI
  2
AcmDatumStdBSI
  3
"AcmSymBB|Product Description: AutoCAD Mechanical 2000|Company: Autodesk"
 90
        0
280
     0
281
     0
  0
CLASS
  1
ACMBOMSTANDARDBSI
  2
AcmBOMStdBSI
  3
"AcmSymBB|Product Description: AutoCAD Mechanical 2000|Company: Autodesk"
 90
        0
280
     0
281
     0
  0
CLASS
  1
STDPART2D
  2
AmgStdPart
  3
"AmgStdPart|Product Description: AutoCAD Mechanical 2000|Company: Autodesk"
 90
     1023
280
     0
281
     1
  0
CLASS
  1
PLOTSETTINGS
  2
AcDbPlotSettings
  3
AutoCAD 2000
 90
        0
280
     0
281
     0
  0
CLASS
  1
LONG_TRANSACTION
  2
AcDbLongTransaction
  3
AutoCAD 2000
 90
        0
280
     0
281
     0
  0
CLASS
  1
LWPOLYLINE
  2
AcDbPolyline
  3
AutoCAD 2000
 90
        0
280
     0
281
     1
  0
CLASS
  1
HATCH
  2
AcDbHatch
  3
AutoCAD 2000
 90
        0
280
     0
281
     1
  0
CLASS
  1
XRECORD
  2
AcDbXrecord
  3
AutoCAD 2000
 90
        0
280
     0
281
     0
  0
ENDSEC
  0
SECTION
  2
TABLES
  0
TABLE
  2
VPORT
  5
8
330
0
100
AcDbSymbolTable
 70
     3
  0
VPORT
  5
C793
330
8
100
AcDbSymbolTableRecord
100
AcDbViewportTableRecord
  2
*ACTIVE
 70
     0
 10
0.0
 20
0.0
 11
1.0
 21
1.0
 12
-59.70102776962765
 22
-5.080777206995151
 13
0.0
 23
0.0
 14
2.5
 24
2.5
 15
10.0
 25
10.0
 16
0.0
 26
0.0
 36
1.0
 17
0.0
 27
0.0
 37
0.0
 40
91.77901289117096
 41
1.56570841889117
 42
50.0
 43
0.0
 44
0.0
 50
0.0
 51
0.0
 71
     0
 72
   100
 73
     1
 74
     3
 75
     0
 76
     0
 77
     0
 78
     0
  0
ENDTAB
  0
TABLE
  2
LTYPE
  5
5
330
0
100
AcDbSymbolTable
 70
    10
  0
LTYPE
  5
14
330
5
100
AcDbSymbolTableRecord
100
AcDbLinetypeTableRecord
  2
BYBLOCK
 70
     0
  3

 72
    65
 73
     0
 40
0.0
  0
LTYPE
  5
15
330
5
100
AcDbSymbolTableRecord
100
AcDbLinetypeTableRecord
  2
BYLAYER
 70
     0
  3

 72
    65
 73
     0
 40
0.0
  0
LTYPE
  5
16
330
5
100
AcDbSymbolTableRecord
100
AcDbLinetypeTableRecord
  2
CONTINUOUS
 70
     0
  3
Solid line
 72
    65
 73
     0
 40
0.0
  0
LTYPE
  5
4B
330
5
100
AcDbSymbolTableRecord
100
AcDbLinetypeTableRecord
  2
AM_ISO02W050
 70
     0
  3
__ __ __ __ __ __ __ __ __ __ __ __ __ __ __
 72
    65
 73
     2
 40
7.5
 49
6.0
 74
     0
 49
-1.5
 74
     0
  0
LTYPE
  5
4C
330
5
100
AcDbSymbolTableRecord
100
AcDbLinetypeTableRecord
  2
AM_ISO08W050
 70
     0
  3
____ . ____ . ____ . ____ . ____ . ____ . ____
 72
    65
 73
     4
 40
18.0
 49
12.0
 74
     0
 49
-1.5
 74
     0
 49
3.0
 74
     0
 49
-1.5
 74
     0
  0
LTYPE
  5
4D
330
5
100
AcDbSymbolTableRecord
100
AcDbLinetypeTableRecord
  2
AM_ISO09W050
 70
     0
  3
_____ . . _____ . . _____ . . ____ .. ____
 72
    65
 73
     6
 40
22.5
 49
12.0
 74
     0
 49
-1.5
 74
     0
 49
3.0
 74
     0
 49
-1.5
 74
     0
 49
3.0
 74
     0
 49
-1.5
 74
     0
  0
LTYPE
  5
4E
330
5
100
AcDbSymbolTableRecord
100
AcDbLinetypeTableRecord
  2
AMCONSTR
 70
     0
  3
_______________________
 72
    65
 73
     2
 40
9999.0
 49
9999.0
 74
     0
 49
0.0
 74
     0
  0
LTYPE
  5
4F
330
5
100
AcDbSymbolTableRecord
100
AcDbLinetypeTableRecord
  2
AM_ISO02W050X2
 70
     0
  3
 _ _ _ _ _ _ _ _ _ _ _ _
 72
    65
 73
     2
 40
3.75
 49
3.0
 74
     0
 49
-0.75
 74
     0
  0
LTYPE
  5
50
330
5
100
AcDbSymbolTableRecord
100
AcDbLinetypeTableRecord
  2
AM_ISO08W050X2
 70
     0
  3
__ . __ . __ . __ . __ . __
 72
    65
 73
     4
 40
9.0
 49
6.0
 74
     0
 49
-0.75
 74
     0
 49
1.5
 74
     0
 49
-0.75
 74
     0
  0
LTYPE
  5
53
330
5
100
AcDbSymbolTableRecord
100
AcDbLinetypeTableRecord
  2
AMZIGZAG
 70
     0
  3
/\/-/\/-/\/-/\/-/\/-/\/
 72
    65
 73
     2
 40
11.00009999999999
 49
0.0001
 74
     4
 75
   135
340
52
 46
0.04
 50
0.0
 44
0.0
 45
0.0
 49
-11.0
 74
     0
  0
LTYPE
  5
166
330
5
100
AcDbSymbolTableRecord
100
AcDbLinetypeTableRecord
  2
ACJISTGL
 70
     0
  3
_ _ _ _ _
 72
    65
 73
     2
 40
3.0
 49
2.0
 74
     0
 49
-1.0
 74
     0
  0
LTYPE
  5
26A
330
5
100
AcDbSymbolTableRecord
100
AcDbLinetypeTableRecord
  2
ACJISTGB
 70
     0
  3
__ . . __ . .
 72
    65
 73
     6
 40
9.0
 49
4.0
 74
     0
 49
-1.0
 74
     0
 49
1.0
 74
     0
 49
-1.0
 74
     0
 49
1.0
 74
     0
 49
-1.0
 74
     0
  0
ENDTAB
  0
TABLE
  2
LAYER
  5
2
330
0
100
AcDbSymbolTable
 70
     7
  0
LAYER
  5
10
330
2
100
AcDbSymbolTableRecord
100
AcDbLayerTableRecord
  2
0
 70
     0
 62
     7
  6
CONTINUOUS
  0
LAYER
  5
3F9
330
2
100
AcDbSymbolTableRecord
100
AcDbLayerTableRecord
  2
AM_0
 70
     0
 62
     7
  6
CONTINUOUS
  0
LAYER
  5
BA4
330
2
100
AcDbSymbolTableRecord
100
AcDbLayerTableRecord
  2
AM_5
 70
     0
 62
     3
  6
CONTINUOUS
  0
LAYER
  5
BA6
330
2
100
AcDbSymbolTableRecord
100
AcDbLayerTableRecord
  2
AM_7
 70
     0
 62
     4
  6
AM_ISO08W050
  0
LAYER
  5
E64
330
2
100
AcDbSymbolTableRecord
100
AcDbLayerTableRecord
  2
AM_6
 70
     0
 62
     2
  6
CONTINUOUS
  0
LAYER
  5
F4D
330
2
100
AcDbSymbolTableRecord
100
AcDbLayerTableRecord
  2
DEFPOINTS
 70
     0
 62
     7
  6
CONTINUOUS
  0
LAYER
  5
4E80
330
2
100
AcDbSymbolTableRecord
100
AcDbLayerTableRecord
  2
AM_11
 70
     0
 62
     3
  6
AM_ISO09W050
  0
ENDTAB
  0
TABLE
  2
STYLE
  5
3
330
0
100
AcDbSymbolTable
 70
     5
  0
STYLE
  5
11
330
3
100
AcDbSymbolTableRecord
100
AcDbTextStyleTableRecord
  2
STANDARD
 70
     0
 40
0.0
 41
1.0
 50
0.0
 71
     0
 42
2.5
  3
simplex.shx
  4
EXTFONT.SHX
  0
STYLE
  5
52
330
3
100
AcDbSymbolTableRecord
100
AcDbTextStyleTableRecord
  2

 70
     1
 40
0.0
 41
1.0
 50
0.0
 71
     0
 42
2.5
  3
ltypeshp.shx
  4

  0
STYLE
  5
6B
330
3
100
AcDbSymbolTableRecord
100
AcDbTextStyleTableRecord
  2
ASAMI
 70
     0
 40
0.0
 41
1.0
 50
0.0
 71
     0
 42
2.5
  3
simplex.shx
  4
EXTFONT.SHX
  0
STYLE
  5
262
330
3
100
AcDbSymbolTableRecord
100
AcDbTextStyleTableRecord
  2
ACJISTS
 70
     0
 40
1.0
 41
1.0
 50
0.0
 71
     0
 42
2.5
  3
simplex.shx
  4
bigfont.shx
  0
STYLE
  5
269
330
3
100
AcDbSymbolTableRecord
100
AcDbTextStyleTableRecord
  2
ACJISGDT
 70
     0
 40
0.0
 41
1.0
 50
0.0
 71
     0
 42
2.5
  3
amgdtans.shx
  4

  0
ENDTAB
  0
TABLE
  2
VIEW
  5
6
330
0
100
AcDbSymbolTable
 70
     0
  0
ENDTAB
  0
TABLE
  2
UCS
  5
7
330
0
100
AcDbSymbolTable
 70
     0
  0
ENDTAB
  0
TABLE
  2
APPID
  5
9
330
0
100
AcDbSymbolTable
 70
    24
  0
APPID
  5
12
330
9
100
AcDbSymbolTableRecord
100
AcDbRegAppTableRecord
  2
ACAD
 70
     0
  0
APPID
  5
30
330
9
100
AcDbSymbolTableRecord
100
AcDbRegAppTableRecord
  2
MCAD_NO_VIS
 70
     0
  0
APPID
  5
31
330
9
100
AcDbSymbolTableRecord
100
AcDbRegAppTableRecord
  2
ACAD_TEMP_GRAPHIC
 70
     0
  0
APPID
  5
2C2
330
9
100
AcDbSymbolTableRecord
100
AcDbRegAppTableRecord
  2
GENIUS_GENDTOL_13
 70
     0
  0
APPID
  5
339
330
9
100
AcDbSymbolTableRecord
100
AcDbRegAppTableRecord
  2
GENIUS_GENODEF_13
 70
     0
  0
APPID
  5
33A
330
9
100
AcDbSymbolTableRecord
100
AcDbRegAppTableRecord
  2
GENIUS_GENOBJ-N-RSBK_13
 70
     0
  0
APPID
  5
33B
330
9
100
AcDbSymbolTableRecord
100
AcDbRegAppTableRecord
  2
GENIUS_GENOBJ-N-LIB_13
 70
     0
  0
APPID
  5
33C
330
9
100
AcDbSymbolTableRecord
100
AcDbRegAppTableRecord
  2
GENIUS_GENSCALE_13
 70
     0
  0
APPID
  5
378
330
9
100
AcDbSymbolTableRecord
100
AcDbRegAppTableRecord
  2
GENIUS_GENDIMSH_14
 70
     0
  0
APPID
  5
BB0
330
9
100
AcDbSymbolTableRecord
100
AcDbRegAppTableRecord
  2
GENIUS_GENOBJ-N-CEN_13
 70
     0
  0
APPID
  5
BB1
330
9
100
AcDbSymbolTableRecord
100
AcDbRegAppTableRecord
  2
GENIUS_GENFIL_13
 70
     0
  0
APPID
  5
BB2
330
9
100
AcDbSymbolTableRecord
100
AcDbRegAppTableRecord
  2
GENIUS_GENOBJ-N-CHA_13
 70
     0
  0
APPID
  5
1FAF
330
9
100
AcDbSymbolTableRecord
100
AcDbRegAppTableRecord
  2
GENIUS_GENOBJ-N-CRS_13
 70
     0
  0
APPID
  5
1FB0
330
9
100
AcDbSymbolTableRecord
100
AcDbRegAppTableRecord
  2
GENIUS_GENOENT_13
 70
     0
  0
APPID
  5
1FB1
330
9
100
AcDbSymbolTableRecord
100
AcDbRegAppTableRecord
  2
GENIUS_GENOREF_13
 70
     0
  0
APPID
  5
1FB2
330
9
100
AcDbSymbolTableRecord
100
AcDbRegAppTableRecord
  2
GENIUS_GENOLIS_13
 70
     0
  0
APPID
  5
1FB7
330
9
100
AcDbSymbolTableRecord
100
AcDbRegAppTableRecord
  2
GENIUS_GENOBJ-N-FIL_13
 70
     0
  0
APPID
  5
22A8
330
9
100
AcDbSymbolTableRecord
100
AcDbRegAppTableRecord
  2
GEVID1056506048
 70
     0
  0
APPID
  5
22A9
330
9
100
AcDbSymbolTableRecord
100
AcDbRegAppTableRecord
  2
GEVDC
 70
     0
  0
APPID
  5
22AC
330
9
100
AcDbSymbolTableRecord
100
AcDbRegAppTableRecord
  2
GENIUS_GENBH_13
 70
     0
  0
APPID
  5
22B8
330
9
100
AcDbSymbolTableRecord
100
AcDbRegAppTableRecord
  2
GENIUS_GENOBJ-NBEHI-BHF_13
 70
     0
  0
APPID
  5
22BA
330
9
100
AcDbSymbolTableRecord
100
AcDbRegAppTableRecord
  2
GENIUS_GENOBJ-NBEHI-BHB_13
 70
     0
  0
APPID
  5
35C9
330
9
100
AcDbSymbolTableRecord
100
AcDbRegAppTableRecord
  2
GENIUS_GENREC_14
 70
     0
  0
APPID
  5
35CA
330
9
100
AcDbSymbolTableRecord
100
AcDbRegAppTableRecord
  2
GENIUS_GENOBJ-N-REC_13
 70
     0
  0
ENDTAB
  0
TABLE
  2
DIMSTYLE
  5
A
330
0
100
AcDbSymbolTable
 70
     9
  0
DIMSTYLE
105
58
330
A
100
AcDbSymbolTableRecord
100
AcDbDimStyleTableRecord
  2
AM_JIS
 70
     0
  3

  4
"
  5
OPEN30
  6

  7

 40
0.5
 41
2.5
 42
1.0
 43
12.0
 44
1.0
 45
0.0
 46
0.0
 47
0.1
 48
0.1
140
3.2
141
0.0
142
0.0
143
0.0393701
144
1.0
145
0.0
146
0.71
147
1.5
 71
     0
 72
     0
 73
     0
 74
     0
 75
     0
 76
     0
 77
     3
 78
     8
170
     0
171
     2
172
     1
173
     0
174
     0
175
     0
176
   256
177
   256
178
     2
270
     2
271
     3
272
     3
273
     2
274
     2
340
6B
275
     0
280
     0
281
     0
282
     0
283
     0
284
     0
285
     0
286
     0
287
     3
288
     0
  0
DIMSTYLE
105
5F
330
A
100
AcDbSymbolTableRecord
100
AcDbDimStyleTableRecord
  2
AM_JIS$3
 70
     0
  3

  4
"
  5
OPEN30
  6

  7

 40
0.5
 41
2.5
 42
1.0
 43
10.0
 44
1.0
 45
0.0
 46
0.0
 47
0.1
 48
0.1
140
3.2
141
0.0
142
0.0
143
0.0393701
144
1.0
145
0.0
146
0.71
147
1.5
 71
     0
 72
     0
 73
     0
 74
     1
 75
     0
 76
     0
 77
     3
 78
     8
170
     0
171
     2
172
     0
173
     0
174
     0
175
     0
176
   256
177
   256
178
     2
270
     2
271
     2
272
     3
273
     2
274
     2
340
6B
275
     0
280
     0
281
     0
282
     0
283
     0
284
     0
285
     0
286
     0
287
     0
288
     1
  0
DIMSTYLE
105
60
330
A
100
AcDbSymbolTableRecord
100
AcDbDimStyleTableRecord
  2
AM_JIS$4
 70
     0
  3

  4
"
  5
OPEN30
  6

  7

 40
0.5
 41
2.5
 42
1.0
 43
10.0
 44
1.0
 45
0.0
 46
0.0
 47
0.1
 48
0.1
140
3.2
141
0.0
142
0.0
143
0.0393701
144
1.0
145
0.0
146
0.71
147
1.5
 71
     0
 72
     0
 73
     0
 74
     1
 75
     0
 76
     0
 77
     3
 78
     8
170
     0
171
     2
172
     0
173
     0
174
     0
175
     0
176
   256
177
   256
178
     2
270
     2
271
     2
272
     3
273
     2
274
     2
340
6B
275
     0
280
     0
281
     0
282
     0
283
     0
284
     0
285
     0
286
     0
287
     0
288
     1
  0
DIMSTYLE
105
61
330
A
100
AcDbSymbolTableRecord
100
AcDbDimStyleTableRecord
  2
AM_JIS$6
 70
     0
  3

  4
"
  5
OPEN30
  6

  7

 40
0.5
 41
2.5
 42
1.0
 43
10.0
 44
1.0
 45
0.0
 46
0.0
 47
0.1
 48
0.1
140
3.2
141
0.0
142
0.0
143
0.0393701
144
1.0
145
0.0
146
0.71
147
1.5
 71
     0
 72
     0
 73
     0
 74
     0
 75
     0
 76
     0
 77
     0
 78
     8
170
     0
171
     2
172
     1
173
     0
174
     0
175
     0
176
   256
177
   256
178
     2
270
     2
271
     2
272
     2
273
     2
274
     2
340
6B
275
     0
280
     0
281
     0
282
     0
283
     0
284
     0
285
     0
286
     0
287
     3
288
     0
  0
DIMSTYLE
105
62
330
A
100
AcDbSymbolTableRecord
100
AcDbDimStyleTableRecord
  2
AM_JIS$7
 70
     0
  3

  4
"
  5
OPEN30
  6

  7

 40
0.5
 41
2.5
 42
1.0
 43
10.0
 44
1.0
 45
0.0
 46
0.0
 47
0.1
 48
0.1
140
3.2
141
0.0
142
0.0
143
0.0393701
144
1.0
145
0.0
146
0.71
147
1.5
 71
     0
 72
     0
 73
     0
 74
     0
 75
     0
 76
     0
 77
     3
 78
     8
170
     0
171
     2
172
     1
173
     0
174
     0
175
     0
176
   256
177
   256
178
     2
270
     2
271
     2
272
     3
273
     2
274
     2
340
6B
275
     0
280
     0
281
     0
282
     0
283
     0
284
     0
285
     0
286
     0
287
     3
288
     0
  0
DIMSTYLE
105
63
330
A
100
AcDbSymbolTableRecord
100
AcDbDimStyleTableRecord
  2
AM_JIS$SF
 70
     0
  3

  4
"
  5
OPEN30
  6

  7

 40
0.5
 41
2.5
 42
1.0
 43
10.0
 44
1.0
 45
0.0
 46
0.0
 47
0.1
 48
0.1
140
3.2
141
0.0
142
0.0
143
0.0393701
144
1.0
145
0.0
146
0.71
147
1.5
 71
     0
 72
     0
 73
     0
 74
     0
 75
     1
 76
     1
 77
     3
 78
     8
170
     0
171
     2
172
     1
173
     0
174
     0
175
     0
176
   256
177
   256
178
     2
270
     2
271
     2
272
     2
273
     2
274
     2
340
6B
275
     0
280
     0
281
     0
282
     0
283
     0
284
     0
285
     0
286
     0
287
     3
288
     0
  0
DIMSTYLE
105
68
330
A
100
AcDbSymbolTableRecord
100
AcDbDimStyleTableRecord
  2
AM_JIS$SH
 70
     0
  3

  4
"
  5

  6
GENAXEH
  7
OPEN30
 40
0.5
 41
2.5
 42
1.0
 43
10.0
 44
1.0
 45
0.0
 46
0.0
 47
0.1
 48
0.1
140
3.2
141
0.0
142
0.0
143
0.0393701
144
2.0
145
0.0
146
0.71
147
1.5
 71
     0
 72
     0
 73
     0
 74
     0
 75
     1
 76
     1
 77
     3
 78
     8
170
     0
171
     2
172
     1
173
     1
174
     0
175
     0
176
   256
177
   256
178
     2
270
     2
271
     2
272
     2
273
     2
274
     2
340
6B
275
     0
280
     0
281
     0
282
     0
283
     0
284
     0
285
     0
286
     0
287
     3
288
     0
  0
DIMSTYLE
105
B34
330
A
100
AcDbSymbolTableRecord
100
AcDbDimStyleTableRecord
  2
AM_JIS$2
 70
     0
  3

  4
"
  5
OPEN30
  6

  7

 40
0.5
 41
2.5
 42
1.0
 43
12.0
 44
1.0
 45
0.0
 46
0.0
 47
0.1
 48
0.1
140
3.2
141
0.0
142
0.0
143
0.0393701
144
1.0
145
0.0
146
0.71
147
1.5
 71
     0
 72
     0
 73
     0
 74
     0
 75
     0
 76
     0
 77
     3
 78
     8
170
     0
171
     2
172
     1
173
     0
174
     0
175
     0
176
   256
177
   256
178
     2
270
     2
271
     3
272
     3
273
     2
274
     2
340
6B
275
     0
280
     0
281
     0
282
     0
283
     0
284
     0
285
     0
286
     0
287
     3
288
     0
  0
DIMSTYLE
105
3B48
102
{ACAD_REACTORS
330
C143
330
C1E9
330
C279
330
C305
330
C39A
330
C469
330
C4FE
102
}
330
A
100
AcDbSymbolTableRecord
100
AcDbDimStyleTableRecord
  2
AM_JIS$0
 70
     0
  3

  4
"
  5
OPEN30
  6

  7

 40
1.0
 41
2.5
 42
0.0
 43
10.0
 44
1.0
 45
0.0
 46
0.0
 47
0.1
 48
0.1000000001
140
3.799999999999999
141
0.0
142
0.0
143
0.0393701
144
1.0
145
0.0
146
0.71
147
1.5
 71
     0
 72
     0
 73
     0
 74
     0
 75
     0
 76
     0
 77
     3
 78
     1
170
     0
171
     2
172
     1
173
     0
174
     0
175
     0
176
     3
177
     3
178
     2
270
     2
271
     2
272
     2
273
     2
274
     2
340
11
275
     1
280
     0
281
     0
282
     0
283
     0
284
     8
285
     0
286
     0
287
     0
288
     0
  0
ENDTAB
  0
TABLE
  2
BLOCK_RECORD
  5
1
330
0
100
AcDbSymbolTable
 70
    12
  0
BLOCK_RECORD
  5
1F
102
{ACAD_XDICTIONARY
360
74
102
}
330
1
100
AcDbSymbolTableRecord
100
AcDbBlockTableRecord
  2
*MODEL_SPACE
  0
BLOCK_RECORD
  5
101
102
{ACAD_XDICTIONARY
360
C7BC
102
}
330
1
100
AcDbSymbolTableRecord
100
AcDbBlockTableRecord
  2
*PAPER_SPACE
  0
BLOCK_RECORD
  5
59
330
1
100
AcDbSymbolTableRecord
100
AcDbBlockTableRecord
  2
_OPEN30
  0
BLOCK_RECORD
  5
64
330
1
100
AcDbSymbolTableRecord
100
AcDbBlockTableRecord
  2
GENAXEH
  0
BLOCK_RECORD
  5
C144
330
1
100
AcDbSymbolTableRecord
100
AcDbBlockTableRecord
  2
*D5
  0
BLOCK_RECORD
  5
C1EA
330
1
100
AcDbSymbolTableRecord
100
AcDbBlockTableRecord
  2
*D6
  0
BLOCK_RECORD
  5
C27A
330
1
100
AcDbSymbolTableRecord
100
AcDbBlockTableRecord
  2
*D7
  0
BLOCK_RECORD
  5
C306
330
1
100
AcDbSymbolTableRecord
100
AcDbBlockTableRecord
  2
*D8
  0
BLOCK_RECORD
  5
C39B
330
1
100
AcDbSymbolTableRecord
100
AcDbBlockTableRecord
  2
*D9
  0
BLOCK_RECORD
  5
C46A
330
1
100
AcDbSymbolTableRecord
100
AcDbBlockTableRecord
  2
*D10
  0
BLOCK_RECORD
  5
C4FF
330
1
100
AcDbSymbolTableRecord
100
AcDbBlockTableRecord
  2
*D11
  0
ENDTAB
  0
ENDSEC
  0
SECTION
  2
BLOCKS
  0
BLOCK
  5
20
330
1F
100
AcDbEntity
  8
0
100
AcDbBlockBegin
  2
*MODEL_SPACE
 70
     0
 10
0.0
 20
0.0
 30
0.0
  3
*MODEL_SPACE
  1

  0
ENDBLK
  5
21
330
1F
100
AcDbEntity
  8
0
100
AcDbBlockEnd
  0
BLOCK
  5
103
330
101
100
AcDbEntity
 67
     1
  8
0
100
AcDbBlockBegin
  2
*PAPER_SPACE
 70
     0
 10
0.0
 20
0.0
 30
0.0
  3
*PAPER_SPACE
  1

  0
ENDBLK
  5
104
330
101
100
AcDbEntity
 67
     1
  8
0
100
AcDbBlockEnd
  0
BLOCK
  5
5D
330
59
100
AcDbEntity
  8
0
100
AcDbBlockBegin
  2
_OPEN30
 70
     0
 10
0.0
 20
0.0
 30
0.0
  3
_OPEN30
  1

  0
LINE
  5
5A
330
59
100
AcDbEntity
  8
0
 62
     0
100
AcDbLine
 10
-1.0
 20
0.26794919
 30
0.0
 11
0.0
 21
0.0
 31
0.0
  0
LINE
  5
5B
330
59
100
AcDbEntity
  8
0
 62
     0
100
AcDbLine
 10
0.0
 20
0.0
 30
0.0
 11
-1.0
 21
-0.26794919
 31
0.0
  0
LINE
  5
5C
330
59
100
AcDbEntity
  8
0
 62
     0
100
AcDbLine
 10
0.0
 20
0.0
 30
0.0
 11
-1.0
 21
0.0
 31
0.0
  0
ENDBLK
  5
5E
330
59
100
AcDbEntity
  8
0
100
AcDbBlockEnd
  0
BLOCK
  5
66
330
64
100
AcDbEntity
  8
0
100
AcDbBlockBegin
  2
GENAXEH
 70
     0
 10
0.0
 20
0.0
 30
0.0
  3
GENAXEH
  1

  0
LINE
  5
65
330
64
100
AcDbEntity
  8
0
100
AcDbLine
 10
-1.0
 20
0.0
 30
0.0
 11
1.0
 21
0.0
 31
0.0
  0
ENDBLK
  5
67
330
64
100
AcDbEntity
  8
0
100
AcDbBlockEnd
  0
BLOCK
  5
C14E
330
C144
100
AcDbEntity
  8
0
100
AcDbBlockBegin
  2
*D5
 70
     1
 10
0.0
 20
0.0
 30
0.0
  3
*D5
  1

  0
LINE
  5
C7BE
330
C144
100
AcDbEntity
  8
AM_5
100
AcDbLine
 10
-5.000000000000328
 20
8.500000000000145
 30
0.0
 11
-5.000000000000329
 21
15.50000000000016
 31
0.0
  0
LINE
  5
C7BF
330
C144
100
AcDbEntity
  8
AM_5
100
AcDbLine
 10
-0.0000000000003289
 20
8.500000000000142
 30
0.0
 11
-0.0000000000003302
 21
15.50000000000017
 31
0.0
  0
LINE
  5
C7C0
330
C144
100
AcDbEntity
  8
AM_5
100
AcDbLine
 10
-3.75000000000033
 20
15.00000000000016
 30
0.0
 11
-1.25000000000033
 21
15.00000000000017
 31
0.0
  0
INSERT
  5
C7C1
330
C144
100
AcDbEntity
  8
AM_5
100
AcDbBlockReference
  2
_OPEN30
 10
-5.00000000000033
 20
15.00000000000016
 30
0.0
 41
1.25
 42
1.25
 43
1.25
 50
180.0
  0
INSERT
  5
C7C2
330
C144
100
AcDbEntity
  8
AM_5
100
AcDbBlockReference
  2
_OPEN30
 10
-0.0000000000003301
 20
15.00000000000017
 30
0.0
 41
1.25
 42
1.25
 43
1.25
  0
MTEXT
  5
C7C3
330
C144
100
AcDbEntity
  8
AM_5
 62
     2
100
AcDbMText
 10
-2.50000000000033
 20
16.55000000000017
 30
0.0
 40
1.6
 41
0.0
 71
     5
 72
     1
  1
5
  7
ASAMI
  0
POINT
  5
C7C4
330
C144
100
AcDbEntity
  8
DEFPOINTS
 62
     0
100
AcDbPoint
 10
-5.000000000000312
 20
8.000000000000156
 30
0.0
  0
POINT
  5
C7C5
330
C144
100
AcDbEntity
  8
DEFPOINTS
 62
     0
100
AcDbPoint
 10
-0.0000000000003126
 20
8.000000000000142
 30
0.0
  0
POINT
  5
C7C6
330
C144
100
AcDbEntity
  8
DEFPOINTS
 62
     0
100
AcDbPoint
 10
-0.0000000000002998
 20
15.00000000000017
 30
0.0
  0
ENDBLK
  5
C14F
330
C144
100
AcDbEntity
  8
0
100
AcDbBlockEnd
  0
BLOCK
  5
C1F4
330
C1EA
100
AcDbEntity
  8
0
100
AcDbBlockBegin
  2
*D6
 70
     1
 10
0.0
 20
0.0
 30
0.0
  3
*D6
  1

  0
LINE
  5
C7C7
330
C1EA
100
AcDbEntity
  8
AM_5
100
AcDbLine
 10
0.4999999999996838
 20
8.000000000000143
 30
0.0
 11
7.499999999999728
 21
8.000000000000156
 31
0.0
  0
LINE
  5
C7C8
330
C1EA
100
AcDbEntity
  8
AM_5
100
AcDbLine
 10
0.499999999999762
 20
-7.999999999999814
 30
0.0
 11
7.49999999999976
 21
-7.999999999999801
 31
0.0
  0
LINE
  5
C7C9
330
C1EA
100
AcDbEntity
  8
AM_5
100
AcDbLine
 10
6.99999999999973
 20
6.750000000000156
 30
0.0
 11
6.999999999999757
 21
-6.749999999999801
 31
0.0
  0
INSERT
  5
C7CA
330
C1EA
100
AcDbEntity
  8
AM_5
100
AcDbBlockReference
  2
_OPEN30
 10
6.999999999999728
 20
8.000000000000156
 30
0.0
 41
1.25
 42
1.25
 43
1.25
 50
90.0000000000001
  0
INSERT
  5
C7CB
330
C1EA
100
AcDbEntity
  8
AM_5
100
AcDbBlockReference
  2
_OPEN30
 10
6.99999999999976
 20
-7.999999999999801
 30
0.0
 41
1.25
 42
1.25
 43
1.25
 50
270.0000000000001
  0
MTEXT
  5
C7CC
330
C1EA
100
AcDbEntity
  8
AM_5
 62
     2
100
AcDbMText
 10
5.449999999999743
 20
0.0000000000001742
 30
0.0
 40
1.6
 41
0.0
 71
     5
 72
     1
  1
%%c16
  7
ASAMI
 11
-0.000000000000002
 21
1.0
 31
0.0
  0
POINT
  5
C7CD
330
C1EA
100
AcDbEntity
  8
DEFPOINTS
 62
     0
100
AcDbPoint
 10
-0.0000000000002984
 20
8.000000000000142
 30
0.0
  0
POINT
  5
C7CE
330
C1EA
100
AcDbEntity
  8
DEFPOINTS
 62
     0
100
AcDbPoint
 10
-0.0000000000002558
 20
-7.999999999999815
 30
0.0
  0
POINT
  5
C7CF
330
C1EA
100
AcDbEntity
  8
DEFPOINTS
 62
     0
100
AcDbPoint
 10
6.999999999999742
 20
-7.999999999999817
 30
0.0
  0
ENDBLK
  5
C1F5
330
C1EA
100
AcDbEntity
  8
0
100
AcDbBlockEnd
  0
BLOCK
  5
C284
330
C27A
100
AcDbEntity
  8
0
100
AcDbBlockBegin
  2
*D7
 70
     1
 10
0.0
 20
0.0
 30
0.0
  3
*D7
  1

  0
LINE
  5
C7D0
330
C27A
100
AcDbEntity
  8
AM_5
100
AcDbLine
 10
-0.0000000000002386
 20
-8.499999999999829
 30
0.0
 11
-0.0000000000002249
 21
-15.49999999999982
 31
0.0
  0
LINE
  5
C7D1
330
C27A
100
AcDbEntity
  8
AM_5
100
AcDbLine
 10
-49.99998960182952
 20
-8.499999747619968
 30
0.0
 11
-49.9999896018295
 21
-15.49999999999993
 31
0.0
  0
LINE
  5
C7D2
330
C27A
100
AcDbEntity
  8
AM_5
100
AcDbLine
 10
-1.250000000000225
 20
-14.99999999999983
 30
0.0
 11
-48.7499896018295
 21
-14.99999999999992
 31
0.0
  0
INSERT
  5
C7D3
330
C27A
100
AcDbEntity
  8
AM_5
100
AcDbBlockReference
  2
_OPEN30
 10
-0.0000000000002259
 20
-14.99999999999983
 30
0.0
 41
1.25
 42
1.25
 43
1.25
 50
0.0000000000001018
  0
INSERT
  5
C7D4
330
C27A
100
AcDbEntity
  8
AM_5
100
AcDbBlockReference
  2
_OPEN30
 10
-49.9999896018295
 20
-14.99999999999993
 30
0.0
 41
1.25
 42
1.25
 43
1.25
 50
180.0000000000001
  0
MTEXT
  5
C7D5
330
C27A
100
AcDbEntity
  8
AM_5
 62
     2
100
AcDbMText
 10
-24.99999480091486
 20
-13.44999999999987
 30
0.0
 40
1.6
 41
0.0
 71
     5
 72
     1
  1
50
  7
ASAMI
  0
POINT
  5
C7D6
330
C27A
100
AcDbEntity
  8
DEFPOINTS
 62
     0
100
AcDbPoint
 10
-0.0000000000002558
 20
-7.999999999999829
 30
0.0
  0
POINT
  5
C7D7
330
C27A
100
AcDbEntity
  8
DEFPOINTS
 62
     0
100
AcDbPoint
 10
-49.99998960182953
 20
-7.999999747619867
 30
0.0
  0
POINT
  5
C7D8
330
C27A
100
AcDbEntity
  8
DEFPOINTS
 62
     0
100
AcDbPoint
 10
-49.99998960182953
 20
-14.99999999999983
 30
0.0
  0
ENDBLK
  5
C285
330
C27A
100
AcDbEntity
  8
0
100
AcDbBlockEnd
  0
BLOCK
  5
C310
330
C306
100
AcDbEntity
  8
0
100
AcDbBlockBegin
  2
*D8
 70
     1
 10
0.0
 20
0.0
 30
0.0
  3
*D8
  1

  0
LINE
  5
C7D9
330
C306
100
AcDbEntity
  8
AM_5
100
AcDbLine
 10
-50.00000000000023
 20
-8.499999999996036
 30
0.0
 11
-50.00000000000021
 21
-15.49999999999993
 31
0.0
  0
LINE
  5
C7DA
330
C306
100
AcDbEntity
  8
AM_5
100
AcDbLine
 10
-120.0000000000002
 20
-6.928825378414317
 30
0.0
 11
-120.0000000000002
 21
-15.50000000000007
 31
0.0
  0
LINE
  5
C7DB
330
C306
100
AcDbEntity
  8
AM_5
100
AcDbLine
 10
-51.25000000000021
 20
-14.99999999999993
 30
0.0
 11
-118.7500000000002
 21
-15.00000000000007
 31
0.0
  0
INSERT
  5
C7DC
330
C306
100
AcDbEntity
  8
AM_5
100
AcDbBlockReference
  2
_OPEN30
 10
-50.00000000000021
 20
-14.99999999999993
 30
0.0
 41
1.25
 42
1.25
 43
1.25
 50
0.0000000000001018
  0
INSERT
  5
C7DD
330
C306
100
AcDbEntity
  8
AM_5
100
AcDbBlockReference
  2
_OPEN30
 10
-120.0000000000002
 20
-15.00000000000007
 30
0.0
 41
1.25
 42
1.25
 43
1.25
 50
180.0000000000001
  0
MTEXT
  5
C7DE
330
C306
100
AcDbEntity
  8
AM_5
 62
     2
100
AcDbMText
 10
-85.00000000000021
 20
-13.45
 30
0.0
 40
1.6
 41
0.0
 71
     5
 72
     1
  1
70
  7
ASAMI
  0
POINT
  5
C7DF
330
C306
100
AcDbEntity
  8
DEFPOINTS
 62
     0
100
AcDbPoint
 10
-50.00000000000024
 20
-7.999999999995935
 30
0.0
  0
POINT
  5
C7E0
330
C306
100
AcDbEntity
  8
DEFPOINTS
 62
     0
100
AcDbPoint
 10
-120.0000000000002
 20
-6.428825378414074
 30
0.0
  0
POINT
  5
C7E1
330
C306
100
AcDbEntity
  8
DEFPOINTS
 62
     0
100
AcDbPoint
 10
-120.0000000000002
 20
-14.99999999999983
 30
0.0
  0
ENDBLK
  5
C311
330
C306
100
AcDbEntity
  8
0
100
AcDbBlockEnd
  0
BLOCK
  5
C3A5
330
C39B
100
AcDbEntity
  8
0
100
AcDbBlockBegin
  2
*D9
 70
     1
 10
0.0
 20
0.0
 30
0.0
  3
*D9
  1

  0
LINE
  5
C7E2
330
C39B
100
AcDbEntity
  8
AM_5
100
AcDbLine
 10
-117.5000000000002
 20
7.999992370609684
 30
0.0
 11
-127.5000000000002
 21
7.999992370609665
 31
0.0
  0
LINE
  5
C7E3
330
C39B
100
AcDbEntity
  8
AM_5
100
AcDbLine
 10
-117.5000000000002
 20
-7.999991822751018
 30
0.0
 11
-127.5000000000002
 21
-7.999991822751037
 31
0.0
  0
LINE
  5
C7E4
330
C39B
100
AcDbEntity
  8
AM_5
100
AcDbLine
 10
-127.0000000000002
 20
6.749992370609666
 30
0.0
 11
-127.0000000000002
 21
-6.749991822751036
 31
0.0
  0
INSERT
  5
C7E5
330
C39B
100
AcDbEntity
  8
AM_5
100
AcDbBlockReference
  2
_OPEN30
 10
-127.0000000000002
 20
7.999992370609666
 30
0.0
 41
1.25
 42
1.25
 43
1.25
 50
90.0000000000001
  0
INSERT
  5
C7E6
330
C39B
100
AcDbEntity
  8
AM_5
100
AcDbBlockReference
  2
_OPEN30
 10
-127.0000000000002
 20
-7.999991822751036
 30
0.0
 41
1.25
 42
1.25
 43
1.25
 50
270.0000000000001
  0
MTEXT
  5
C7E7
330
C39B
100
AcDbEntity
  8
AM_5
 62
     2
100
AcDbMText
 10
-128.5500000000002
 20
0.0000002739293169
 30
0.0
 40
1.6
 41
0.0
 71
     5
 72
     1
  1
%%c16
  7
ASAMI
 11
-0.000000000000002
 21
1.0
 31
0.0
  0
POINT
  5
C7E8
330
C39B
100
AcDbEntity
  8
DEFPOINTS
 62
     0
100
AcDbPoint
 10
-117.0000000000002
 20
7.999992370609945
 30
0.0
  0
POINT
  5
C7E9
330
C39B
100
AcDbEntity
  8
DEFPOINTS
 62
     0
100
AcDbPoint
 10
-117.0000000000002
 20
-7.999991822750757
 30
0.0
  0
POINT
  5
C7EA
330
C39B
100
AcDbEntity
  8
DEFPOINTS
 62
     0
100
AcDbPoint
 10
-127.0000000000002
 20
-7.999991822750754
 30
0.0
  0
ENDBLK
  5
C3A6
330
C39B
100
AcDbEntity
  8
0
100
AcDbBlockEnd
  0
BLOCK
  5
C474
330
C46A
100
AcDbEntity
  8
0
100
AcDbBlockBegin
  2
*D10
 70
     1
 10
0.0
 20
0.0
 30
0.0
  3
*D10
  1

  0
LINE
  5
C7EB
330
C46A
100
AcDbEntity
  8
AM_5
100
AcDbLine
 10
-120.0000000000002
 20
-6.928825378414317
 30
0.0
 11
-120.0000000000001
 21
-20.50000000000007
 31
0.0
  0
LINE
  5
C7EC
330
C46A
100
AcDbEntity
  8
AM_5
100
AcDbLine
 10
-0.0000000000002386
 20
-8.499999999999815
 30
0.0
 11
-0.0000000000002151
 21
-20.49999999999982
 31
0.0
  0
LINE
  5
C7ED
330
C46A
100
AcDbEntity
  8
AM_5
100
AcDbLine
 10
-118.7500000000001
 20
-20.00000000000007
 30
0.0
 11
-1.250000000000216
 21
-19.99999999999983
 31
0.0
  0
INSERT
  5
C7EE
330
C46A
100
AcDbEntity
  8
AM_5
100
AcDbBlockReference
  2
_OPEN30
 10
-120.0000000000001
 20
-20.00000000000007
 30
0.0
 41
1.25
 42
1.25
 43
1.25
 50
180.0000000000001
  0
INSERT
  5
C7EF
330
C46A
100
AcDbEntity
  8
AM_5
100
AcDbBlockReference
  2
_OPEN30
 10
-0.0000000000002161
 20
-19.99999999999983
 30
0.0
 41
1.25
 42
1.25
 43
1.25
 50
0.0000000000001018
  0
MTEXT
  5
C7F0
330
C46A
100
AcDbEntity
  8
AM_5
 62
     2
100
AcDbMText
 10
-60.00000000000021
 20
-18.44999999999995
 30
0.0
 40
1.6
 41
0.0
 71
     5
 72
     1
  1
120
  7
ASAMI
  0
POINT
  5
C7F1
330
C46A
100
AcDbEntity
  8
DEFPOINTS
 62
     0
100
AcDbPoint
 10
-120.0000000000002
 20
-6.428825378414074
 30
0.0
  0
POINT
  5
C7F2
330
C46A
100
AcDbEntity
  8
DEFPOINTS
 62
     0
100
AcDbPoint
 10
-0.0000000000002558
 20
-7.999999999999815
 30
0.0
  0
POINT
  5
C7F3
330
C46A
100
AcDbEntity
  8
DEFPOINTS
 62
     0
100
AcDbPoint
 10
-0.0000000000002565
 20
-19.99999999999983
 30
0.0
  0
ENDBLK
  5
C475
330
C46A
100
AcDbEntity
  8
0
100
AcDbBlockEnd
  0
BLOCK
  5
C509
330
C4FF
100
AcDbEntity
  8
0
100
AcDbBlockBegin
  2
*D11
 70
     1
 10
0.0
 20
0.0
 30
0.0
  3
*D11
  1

  0
LINE
  5
C7F4
330
C4FF
100
AcDbEntity
  8
AM_5
100
AcDbLine
 10
-29.21428488975951
 20
7.942695617680027
 30
0.0
 11
-29.21428488975952
 21
9.192695617680028
 31
0.0
  0
LINE
  5
C7F5
330
C4FF
100
AcDbEntity
  8
AM_5
100
AcDbLine
 10
-29.21428488975949
 20
-7.942695617671975
 30
0.0
 11
-29.21428488975948
 21
-9.192695617671974
 31
0.0
  0
LINE
  5
C7F6
330
C4FF
100
AcDbEntity
  8
AM_5
100
AcDbLine
 10
-29.21428488975951
 20
6.692695617680027
 30
0.0
 11
-29.21428488975949
 21
-6.692695617671975
 31
0.0
  0
INSERT
  5
C7F7
330
C4FF
100
AcDbEntity
  8
AM_5
100
AcDbBlockReference
  2
_OPEN30
 10
-29.21428488975951
 20
6.692695617680027
 30
0.0
 41
1.25
 42
1.25
 43
1.25
 50
270.0000000000001
  0
INSERT
  5
C7F8
330
C4FF
100
AcDbEntity
  8
AM_5
100
AcDbBlockReference
  2
_OPEN30
 10
-29.21428488975949
 20
-6.692695617671975
 30
0.0
 41
1.25
 42
1.25
 43
1.25
 50
90.0000000000001
  0
MTEXT
  5
C7F9
330
C4FF
100
AcDbEntity
  8
AM_5
 62
     2
100
AcDbMText
 10
-30.76428488975951
 20
2.891537706246439
 30
0.0
 40
1.6
 41
0.0
 71
     5
 72
     1
  1
%%c14
  7
ASAMI
 11
-0.000000000000002
 21
1.0
 31
0.0
  0
POINT
  5
C7FA
330
C4FF
100
AcDbEntity
  8
DEFPOINTS
 62
     0
100
AcDbPoint
 10
-36.21428488975924
 20
6.692695617680094
 30
0.0
  0
POINT
  5
C7FB
330
C4FF
100
AcDbEntity
  8
DEFPOINTS
 62
     0
100
AcDbPoint
 10
-36.21428510831618
 20
-6.692695617671908
 30
0.0
  0
POINT
  5
C7FC
330
C4FF
100
AcDbEntity
  8
DEFPOINTS
 62
     0
100
AcDbPoint
 10
-29.2142848897595
 20
-6.69269561767191
 30
0.0
  0
ENDBLK
  5
C50A
330
C4FF
100
AcDbEntity
  8
0
100
AcDbBlockEnd
  0
ENDSEC
  0
SECTION
  2
ENTITIES
  0
TEXT
  5
388D
330
1F
100
AcDbEntity
  8
AM_6
100
AcDbText
 10
-71.29710662292206
 20
-31.24999999999992
 30
0.0
 40
2.5
  1
WRC10016ES
 50
359.9999999999998
 51
359.9999999999998
 72
     4
 11
-59.92805900387445
 21
-29.99999999999995
 31
0.0
100
AcDbText
  0
SPLINE
  5
BFA0
330
1F
100
AcDbEntity
  8
AM_0
100
AcDbSpline
210
0.0
220
0.0
230
1.0
 70
     8
 71
     3
 72
    11
 73
     7
 74
     5
 42
0.0000000001
 43
0.0000000001
 44
0.0000000001
 40
0.0
 40
0.0
 40
0.0
 40
0.0
 40
4.214074330868418
 40
8.429936549769388
 40
12.44507340856311
 40
15.01532467633604
 40
15.01532467633604
 40
15.01532467633604
 40
15.01532467633604
 10
-9.773803710940256
 20
-3.026084899897853
 30
0.0
 10
-11.1901806342987
 20
-2.849538375594087
 30
0.0
 10
-14.02353540144368
 20
-2.496370424316786
 30
0.0
 10
-17.43305338026291
 20
0.1755818804322211
 30
0.0
 10
-19.30987465036963
 20
3.340625018409572
 30
0.0
 10
-19.78189700619745
 20
5.492114818869572
 30
0.0
 10
-19.96612548828027
 20
6.331832885740126
 30
0.0
 11
-9.773803710940256
 21
-3.026084899897853
 31
0.0
 11
-13.89202880860025
 21
-2.132415771479855
 31
0.0
 11
-17.27166748047025
 21
0.3878097534201288
 31
0.0
 11
-19.31103515625025
 21
3.846466064450126
 31
0.0
 11
-19.96612548828027
 21
6.331832885740126
 31
0.0
  0
SPLINE
  5
BFA1
330
1F
100
AcDbEntity
  8
AM_0
100
AcDbSpline
210
0.0
220
0.0
230
1.0
 70
     8
 71
     3
 72
    11
 73
     7
 74
     5
 42
0.0000000001
 43
0.0000000001
 44
0.0000000001
 40
0.0
 40
0.0
 40
0.0
 40
0.0
 40
0.1863000279849975
 40
0.342005580440022
 40
0.4497800659399256
 40
0.5154365980153487
 40
0.5154365980153487
 40
0.5154365980153487
 40
0.5154365980153487
 10
-19.50115966797027
 20
6.487915039060126
 30
0.0
 10
-19.56377183394217
 20
6.485743872267461
 30
0.0
 10
-19.67871390022866
 20
6.481758091013483
 30
0.0
 10
-19.82135236234881
 20
6.452195088697948
 30
0.0
 10
-19.93728486798889
 20
6.417948592734033
 30
0.0
 10
-19.95909096336377
 20
6.361912187147667
 30
0.0
 10
-19.96734619141027
 20
6.340698242190129
 30
0.0
 11
-19.50115966797027
 21
6.487915039060126
 31
0.0
 11
-19.68707275391027
 21
6.475914001460125
 31
0.0
 11
-19.83978271485027
 21
6.445518493650126
 31
0.0
 11
-19.93695068360027
 21
6.398895263670127
 31
0.0
 11
-19.96734619141027
 21
6.340698242190129
 31
0.0
  0
ELLIPSE
  5
BFA2
330
1F
100
AcDbEntity
  8
AM_0
100
AcDbEllipse
 10
-8.293701171880258
 20
-0.3260879516598436
 30
0.0
 11
-1.565124507400017
 21
1.470550418289999
 31
0.0
210
0.0
220
0.0
230
1.0
 40
0.8660868956071999
 41
2.801180051471335
 42
3.020476213107556
  0
ELLIPSE
  5
BFA3
330
1F
100
AcDbEntity
  8
AM_0
100
AcDbEllipse
 10
-8.293701171880258
 20
-0.3260879516598436
 30
0.0
 11
-0.0000000874200094
 21
2.0
 31
0.0
210
0.0
220
0.0
230
1.0
 40
0.8548278808594
 41
0.9221874164597226
 42
1.166456127183605
  0
ELLIPSE
  5
BFA4
330
1F
100
AcDbEntity
  8
AM_0
100
AcDbEllipse
 10
-6.425659179690271
 20
2.959251403810156
 30
0.0
 11
-3.48443613148001
 21
0.7460593013499948
 31
0.0
210
0.0
220
0.0
230
0.9999999999999998
 40
0.9821487043716999
 41
6.105119592056525
 42
6.490321233602566
  0
ELLIPSE
  5
BFA5
330
1F
100
AcDbEntity
  8
AM_0
100
AcDbEllipse
 10
-5.278076171880272
 20
4.108406066890154
 30
0.0
 11
-0.6513060919600164
 21
3.507953719170003
 31
0.0
210
0.0
220
0.0
230
0.9999999999999998
 40
0.9796711953604997
 41
6.10327308018684
 42
6.488552352298994
  0
ELLIPSE
  5
BFA6
330
1F
100
AcDbEntity
  8
AM_0
100
AcDbEllipse
 10
-5.804626464850272
 20
3.890014648440157
 30
0.0
 11
-1.885681256340012
 21
3.027381928669992
 31
0.0
210
0.0
220
0.0
230
1.0
 40
0.9803713648070001
 41
6.122417572454653
 42
6.507648911101679
  0
ELLIPSE
  5
BFA7
330
1F
100
AcDbEntity
  8
AM_0
100
AcDbEllipse
 10
-6.207580566410271
 20
3.486488342280154
 30
0.0
 11
-2.895446929450007
 21
2.079398716120005
 31
0.0
210
0.0
220
0.0
230
1.0
 40
0.981397950706
 41
6.124194571609265
 42
6.509635772076022
  0
ELLIPSE
  5
BFA8
330
1F
100
AcDbEntity
  8
AM_0
100
AcDbEllipse
 10
-6.425659179690271
 20
2.388572692870155
 30
0.0
 11
-3.484436131480007
 21
-0.7460593013500088
 31
0.0
210
0.0
220
0.0
230
1.0
 40
0.9821487043716999
 41
6.076072347091804
 42
6.461199782696344
  0
ELLIPSE
  5
BFA9
330
1F
100
AcDbEntity
  8
AM_0
100
AcDbEllipse
 10
-6.207580566410271
 20
1.861335754390154
 30
0.0
 11
-2.895446929449999
 21
-2.079398716109997
 31
0.0
210
0.0
220
0.0
230
1.0
 40
0.9813962117717
 41
6.056734712255351
 42
6.442119236498708
  0
ELLIPSE
  5
BFAA
330
1F
100
AcDbEntity
  8
AM_0
100
AcDbEllipse
 10
-5.804626464850272
 20
1.457809448240155
 30
0.0
 11
-1.885681256340001
 21
-3.027381928669999
 31
0.0
210
0.0
220
0.0
230
1.0
 40
0.9803725012069
 41
6.058522345388823
 42
6.443904906552449
  0
ELLIPSE
  5
BFAB
330
1F
100
AcDbEntity
  8
AM_0
100
AcDbEllipse
 10
-5.278076171880272
 20
1.239418029780154
 30
0.0
 11
-0.6513060919600024
 21
-3.507953719152995
 31
0.0
210
0.0
220
0.0
230
1.0
 40
0.9796715962993999
 41
6.077842108150679
 42
6.463091963063923
  0
ELLIPSE
  5
BFAC
330
1F
100
AcDbEntity
  8
AM_0
100
AcDbEllipse
 10
-4.70819091797027
 20
1.239418029780154
 30
0.0
 11
-0.6513060919600164
 21
3.507953719170003
 31
0.0
210
0.0
220
0.0
230
0.9999999999999998
 40
0.9796715962993999
 41
2.961679980140313
 42
3.34695993386544
  0
ELLIPSE
  5
BFAD
330
1F
100
AcDbEntity
  8
AM_0
100
AcDbEllipse
 10
-4.181701660160271
 20
1.457809448240155
 30
0.0
 11
-1.885681256350017
 21
3.027381928669991
 31
0.0
210
0.0
220
0.0
230
1.0
 40
0.9803725012069
 41
2.980825525164382
 42
3.366055351636977
  0
ELLIPSE
  5
BFAE
330
1F
100
AcDbEntity
  8
AM_0
100
AcDbEllipse
 10
-3.778686523440271
 20
1.861335754390154
 30
0.0
 11
-2.895446929450007
 21
2.079398716120005
 31
0.0
210
0.0
220
0.0
230
1.0
 40
0.9813962117717
 41
2.982601957569387
 42
3.368042685745375
  0
ELLIPSE
  5
BFAF
330
1F
100
AcDbEntity
  8
AM_0
100
AcDbEllipse
 10
-3.560607910160271
 20
2.388572692870155
 30
0.0
 11
-3.48443613148001
 21
0.7460593013499948
 31
0.0
210
0.0
220
0.0
230
0.9999999999999998
 40
0.9821487043716999
 41
2.963527527499803
 42
3.348728790085613
  0
ELLIPSE
  5
BFB0
330
1F
100
AcDbEntity
  8
AM_0
100
AcDbEllipse
 10
-3.560607910160271
 20
2.959251403810156
 30
0.0
 11
-3.484436131480007
 21
-0.7460593013500088
 31
0.0
210
0.0
220
0.0
230
1.0
 40
0.9821487043716999
 41
2.934478994616992
 42
3.319607521122908
  0
ELLIPSE
  5
BFB1
330
1F
100
AcDbEntity
  8
AM_0
100
AcDbEllipse
 10
-3.778686523440271
 20
3.486488342280154
 30
0.0
 11
-2.895446929449999
 21
-2.079398716109997
 31
0.0
210
0.0
220
0.0
230
1.0
 40
0.981397950706
 41
2.915142944445076
 42
3.300526698402523
  0
ELLIPSE
  5
BFB2
330
1F
100
AcDbEntity
  8
AM_0
100
AcDbEllipse
 10
-4.181701660160271
 20
3.890014648440157
 30
0.0
 11
-1.885681256350006
 21
-3.027381928669998
 31
0.0
210
0.0
220
0.0
230
0.9999999999999998
 40
0.9803713648070001
 41
2.916929877970432
 42
3.302311796303921
  0
ELLIPSE
  5
BFB3
330
1F
100
AcDbEntity
  8
AM_0
100
AcDbEllipse
 10
-4.70819091797027
 20
4.108406066890154
 30
0.0
 11
-0.6513060919600024
 21
-3.50795371916
 31
0.0
210
0.0
220
0.0
230
1.0
 40
0.9796711953604999
 41
2.936248550857312
 42
3.321499744079667
  0
ELLIPSE
  5
BFB4
330
1F
100
AcDbEntity
  8
AM_0
100
AcDbEllipse
 10
11.84754943846975
 20
0.0000076293901827
 30
0.0
 11
-127.70423889159
 21
0.0000497298697475
 31
0.0
210
0.0
220
0.0
230
0.9999999999999998
 40
0.0524078095642
 41
4.903730953337834
 42
4.960409817128253
  0
ELLIPSE
  5
BFB5
330
1F
100
AcDbEntity
  8
AM_0
100
AcDbEllipse
 10
-49.29589843750026
 20
0.000007629390069
 30
0.0
 11
-127.7042236328099
 21
0.0000497298597572
 31
0.0
210
0.0
220
0.0
230
0.9999999999999998
 40
0.0524078158262
 41
4.386368927831276
 42
4.41724286872476
  0
ELLIPSE
  5
BFB6
330
1F
100
AcDbEntity
  8
AM_0
100
AcDbEllipse
 10
-1.109008789070244
 20
0.0000000000001705
 30
0.0
 11
-11.61297630419001
 21
6.690970734619972
 31
0.0
210
0.0
220
0.0
230
1.0
 40
0.0130688247674
 41
6.070038329265393
 42
6.260565930192337
  0
LINE
  5
BFB7
330
1F
100
AcDbEntity
  8
AM_7
100
AcDbLine
 10
-125.2040710449202
 20
-0.0000000000000853
 30
0.0
 11
4.348754882809757
 21
0.0000000000001705
 31
0.0
  0
LINE
  5
BFB8
330
1F
100
AcDbEntity
  8
AM_0
100
AcDbLine
 10
-50.00000000000027
 20
8.000000000000071
 30
0.0
 11
-117.0000000000002
 21
7.999999999999943
 31
0.0
  0
LINE
  5
BFB9
330
1F
100
AcDbEntity
  8
AM_0
100
AcDbLine
 10
-117.0000000000002
 20
-7.999999999996049
 30
0.0
 11
-50.00000000000024
 21
-7.999999999995921
 31
0.0
  0
LINE
  5
BFBC
330
1F
100
AcDbEntity
  8
AM_0
100
AcDbLine
 10
-120.0000000000002
 20
-6.428825378414074
 30
0.0
 11
-120.0000000000002
 21
6.428825378419929
 31
0.0
  0
LINE
  5
BFBD
330
1F
100
AcDbEntity
  8
AM_0
100
AcDbLine
 10
-117.0000000000002
 20
-7.999999999996049
 30
0.0
 11
-117.0000000000002
 21
7.999999999999943
 31
0.0
  0
LINE
  5
BFBF
330
1F
100
AcDbEntity
  8
AM_0
100
AcDbLine
 10
-119.2587890625002
 20
-7.394744873043066
 30
0.0
 11
-116.9999694824202
 21
-7.999999999996049
 31
0.0
  0
ARC
  5
BFC0
330
1F
100
AcDbEntity
  8
AM_0
100
AcDbCircle
 10
-119.0000000000002
 20
-6.428825378414074
 30
0.0
 40
1.0
100
AcDbArc
 50
180.0000086514213
 51
255.0000073233943
  0
LINE
  5
BFC1
330
1F
100
AcDbEntity
  8
AM_0
100
AcDbLine
 10
-117.0000000000002
 20
7.99999237060993
 30
0.0
 11
-119.2587585449202
 21
7.394752502439928
 31
0.0
  0
ARC
  5
BFC2
330
1F
100
AcDbEntity
  8
AM_0
100
AcDbCircle
 10
-119.0000000000002
 20
6.428825378419929
 30
0.0
 40
1.000000119209299
100
AcDbArc
 50
104.9999926766062
 51
180.0000050089577
  0
LINE
  5
BFC3
330
1F
100
AcDbEntity
  8
AM_0
100
AcDbLine
 10
-12.71697998047027
 20
6.692695617680143
 30
0.0
 11
-46.62893676758026
 21
6.692695617680072
 31
0.0
  0
LINE
  5
BFC4
330
1F
100
AcDbEntity
  8
AM_0
100
AcDbLine
 10
-46.62893676758024
 20
-6.69269561767193
 30
0.0
 11
-3.831298828130243
 21
-6.692695617671844
 31
0.0
  0
LINE
  5
BFC7
330
1F
100
AcDbEntity
  8
AM_0
100
AcDbLine
 10
-50.00000000000024
 20
-7.999999999995921
 30
0.0
 11
-50.00000000000027
 21
8.000000000000071
 31
0.0
  0
ARC
  5
BFC8
330
1F
100
AcDbEntity
  8
AM_0
100
AcDbCircle
 10
-46.62893676758023
 20
-11.69269561767193
 30
0.0
 40
5.0
100
AcDbArc
 50
90.00000250447845
 51
132.3928761542941
  0
ARC
  5
BFC9
330
1F
100
AcDbEntity
  8
AM_0
100
AcDbCircle
 10
-46.62893676758028
 20
11.69269561768007
 30
0.0
 40
5.0
100
AcDbArc
 50
227.6071238457063
 51
269.9999974955215
  0
ARC
  5
BFCA
330
1F
100
AcDbEntity
  8
AM_0
100
AcDbCircle
 10
-8.029357910160257
 20
-0.3260879516598436
 30
0.0
 40
1.9976841211319
100
AcDbArc
 50
156.7849979824027
 51
270.0000006832462
  0
CIRCLE
  5
BFCB
330
1F
100
AcDbEntity
  8
AM_0
100
AcDbCircle
 10
-4.99316406250027
 20
2.673912048340156
 30
0.0
 40
2.9927620887756
  0
ARC
  5
BFCC
330
1F
100
AcDbEntity
  8
AM_0
100
AcDbCircle
 10
-10.02661132813027
 20
6.973915100100143
 30
0.0
 40
9.4870147705078
100
AcDbArc
 50
182.9364162586358
 51
270.0000043257106
  0
LINE
  5
BFCE
330
1F
100
AcDbEntity
  8
AM_0
100
AcDbLine
 10
-3.000000000000241
 20
-2.526084899897838
 30
0.0
 11
-10.02661132813025
 21
-2.526084899897853
 31
0.0
  0
LINE
  5
BFCF
330
1F
100
AcDbEntity
  8
AM_0
100
AcDbLine
 10
-8.743530273440256
 20
-0.6416091918898417
 30
0.0
 11
-8.304138183600258
 21
-1.081657409669844
 31
0.0
  0
LINE
  5
BFD0
330
1F
100
AcDbEntity
  8
AM_0
100
AcDbLine
 10
-9.773803710940256
 20
-3.026084899897853
 30
0.0
 11
-3.831298828130243
 21
-3.026084899897838
 31
0.0
  0
LINE
  5
BFD1
330
1F
100
AcDbEntity
  8
AM_0
100
AcDbLine
 10
-3.000000000000241
 20
-3.026084899897838
 30
0.0
 11
-3.000000000000241
 21
-6.125946044917839
 31
0.0
  0
LINE
  5
BFD2
330
1F
100
AcDbEntity
  8
AM_0
100
AcDbLine
 10
-3.500427246100244
 20
-6.567581176753847
 30
0.0
 11
-3.500427246100244
 21
-3.026084899897838
 31
0.0
  0
LINE
  5
BFD3
330
1F
100
AcDbEntity
  8
AM_0
100
AcDbLine
 10
-3.831298828130243
 20
-6.692695617671844
 30
0.0
 11
-3.831298828130243
 21
-3.026084899897838
 31
0.0
  0
ARC
  5
BFD4
330
1F
100
AcDbEntity
  8
AM_0
100
AcDbCircle
 10
-3.831298828130243
 20
-6.192695617671844
 30
0.0
 40
0.5
100
AcDbArc
 50
270.0000043257106
 51
311.4287899439876
  0
LINE
  5
BFD5
330
1F
100
AcDbEntity
  8
AM_0
100
AcDbLine
 10
-3.500411987310243
 20
-6.567588806147838
 30
0.0
 11
-2.99996948242024
 21
-6.125946044917839
 31
0.0
  0
ARC
  5
BFD6
330
1F
100
AcDbEntity
  8
AM_0
100
AcDbCircle
 10
-8.029357910160257
 20
-0.3260879516598436
 30
0.0
 40
2.0
100
AcDbArc
 50
270.0000043257106
 51
293.1580885557171
  0
LINE
  5
BFD7
330
1F
100
AcDbEntity
  8
AM_0
100
AcDbLine
 10
-6.343627929690242
 20
-2.164543151850836
 30
0.0
 11
-7.242980957030255
 21
-2.164543151850836
 31
0.0
  0
LINE
  5
BFD8
330
1F
100
AcDbEntity
  8
AM_0
100
AcDbLine
 10
-7.191009521490258
 20
-1.826408386225836
 30
0.0
 11
-6.616851806640241
 21
-2.064552307124841
 31
0.0
  0
LINE
  5
BFD9
330
1F
100
AcDbEntity
  8
AM_0
100
AcDbLine
 10
-5.303894042970242
 20
-2.326087951655836
 30
0.0
 11
-4.682434082030241
 21
-2.326087951655836
 31
0.0
  0
LINE
  5
BFDA
330
1F
100
AcDbEntity
  8
AM_0
100
AcDbLine
 10
-3.500427246100244
 20
-3.026084899897838
 30
0.0
 11
-3.000000000000241
 21
-3.026084899897838
 31
0.0
  0
LINE
  5
BFDB
330
1F
100
AcDbEntity
  8
AM_0
100
AcDbLine
 10
-3.500427246100244
 20
-3.026084899897838
 30
0.0
 11
-3.831298828130243
 21
-3.026084899897838
 31
0.0
  0
LINE
  5
BFDC
330
1F
100
AcDbEntity
  8
AM_0
100
AcDbLine
 10
-3.000000000000241
 20
-3.026084899897838
 30
0.0
 11
-3.000000000000241
 21
-2.526084899897838
 31
0.0
  0
LINE
  5
BFDD
330
1F
100
AcDbEntity
  8
AM_0
100
AcDbLine
 10
-3.000000000000241
 20
-1.911323547358847
 30
0.0
 11
-3.000000000000241
 21
-2.164543151850836
 31
0.0
  0
LINE
  5
BFDE
330
1F
100
AcDbEntity
  8
AM_0
100
AcDbLine
 10
-3.000000000000241
 20
-2.164543151850836
 30
0.0
 11
-3.000000000000241
 21
-2.526084899897838
 31
0.0
  0
LINE
  5
BFDF
330
1F
100
AcDbEntity
  8
AM_0
100
AcDbLine
 10
-3.000000000000241
 20
-2.164543151850836
 30
0.0
 11
-3.642700195320244
 21
-2.164543151850836
 31
0.0
  0
LINE
  5
BFE0
330
1F
100
AcDbEntity
  8
AM_0
100
AcDbLine
 10
-3.36943054199024
 20
-2.064559936518847
 30
0.0
 11
-2.795288085940242
 21
-1.826408386225836
 31
0.0
  0
LINE
  5
BFE1
330
1F
100
AcDbEntity
  8
AM_0
100
AcDbLine
 10
-1.682189941410243
 20
-1.081642150879844
 30
0.0
 11
-1.242721557620242
 21
-0.6415863037098291
 31
0.0
  0
LINE
  5
BFE3
330
1F
100
AcDbEntity
  8
AM_0
100
AcDbLine
 10
-8.304153442390273
 20
6.42945861816014
 30
0.0
 11
-8.743545532230271
 21
5.989418029780154
 31
0.0
  0
LINE
  5
BFE4
330
1F
100
AcDbEntity
  8
AM_0
100
AcDbLine
 10
-19.96734619141027
 20
6.340705871580126
 30
0.0
 11
-19.96612548828027
 21
6.331832885740126
 31
0.0
  0
LINE
  5
BFE5
330
1F
100
AcDbEntity
  8
AM_0
100
AcDbLine
 10
-12.43849182129027
 20
6.570556640620139
 30
0.0
 11
-9.865295410160271
 21
5.082885742190143
 31
0.0
  0
LINE
  5
BFE6
330
1F
100
AcDbEntity
  8
AM_0
100
AcDbLine
 10
-9.865295410160271
 20
5.082885742190143
 30
0.0
 11
-9.502548217780272
 21
4.837913513180154
 31
0.0
  0
LINE
  5
BFE7
330
1F
100
AcDbEntity
  8
AM_0
100
AcDbLine
 10
-9.865295410160257
 20
0.4613647460901405
 30
0.0
 11
-9.865295410160257
 21
1.458221435550143
 31
0.0
  0
LINE
  5
BFE8
330
1F
100
AcDbEntity
  8
AM_0
100
AcDbLine
 10
-9.865295410160257
 20
3.88960266113014
 30
0.0
 11
-9.865295410160271
 21
5.082885742190143
 31
0.0
  0
LINE
  5
BFE9
330
1F
100
AcDbEntity
  8
AM_0
100
AcDbLine
 10
-9.986267089850258
 20
2.985069274900141
 30
0.0
 11
-9.986267089850258
 21
2.362754821780143
 31
0.0
  0
LINE
  5
BFEA
330
1F
100
AcDbEntity
  8
AM_0
100
AcDbLine
 10
-9.487289428710269
 20
4.874801635740141
 30
0.0
 11
-9.725082397460269
 21
4.299858093260155
 31
0.0
  0
LINE
  5
BFEB
330
1F
100
AcDbEntity
  8
AM_0
100
AcDbLine
 10
-9.725097656250255
 20
1.04797363281014
 30
0.0
 11
-9.487304687500255
 21
0.473014831540155
 31
0.0
  0
LINE
  5
BFED
330
1F
100
AcDbEntity
  8
AM_0
100
AcDbLine
 10
-0.49902343750027
 20
0.4730148315401693
 30
0.0
 11
-0.2611694336002728
 21
1.047966003420171
 31
0.0
  0
LINE
  5
BFEE
330
1F
100
AcDbEntity
  8
AM_0
100
AcDbLine
 10
-0.2611541748102724
 20
4.299858093260169
 30
0.0
 11
-0.4990081787102696
 21
4.874809265140171
 31
0.0
  0
LINE
  5
BFEF
330
1F
100
AcDbEntity
  8
AM_0
100
AcDbLine
 10
-4.682434082030269
 20
7.673912048340156
 30
0.0
 11
-5.30389404297027
 21
7.673912048340156
 31
0.0
  0
LINE
  5
BFF0
330
1F
100
AcDbEntity
  8
AM_0
100
AcDbLine
 10
-6.61688232422027
 20
7.412391662600157
 30
0.0
 11
-7.191040039070273
 21
7.174240112300154
 31
0.0
  0
LINE
  5
BFF1
330
1F
100
AcDbEntity
  8
AM_0
100
AcDbLine
 10
-1.242752075200272
 20
5.989418029780154
 30
0.0
 11
-1.682189941410271
 21
6.429450988770156
 31
0.0
  0
LINE
  5
BFF2
330
1F
100
AcDbEntity
  8
AM_0
100
AcDbLine
 10
-2.79525756836027
 20
7.174217224120155
 30
0.0
 11
-3.369445800780269
 21
7.412376403810156
 31
0.0
  0
LINE
  5
BFF3
330
1F
100
AcDbEntity
  8
AM_0
100
AcDbLine
 10
-0.00000000000027
 20
2.362754821780171
 30
0.0
 11
-0.00000000000027
 21
2.985069274900169
 31
0.0
  0
LINE
  5
C126
330
1F
100
AcDbEntity
  8
AM_11
100
AcDbLine
 10
-0.0000000000002984
 20
8.000000000000156
 30
0.0
 11
-0.0000000000002558
 21
-7.999999999999815
 31
0.0
  0
LINE
  5
C12E
330
1F
100
AcDbEntity
  8
AM_11
100
AcDbLine
 10
-5.000000000000298
 20
8.000000000000156
 30
0.0
 11
-5.000000000000255
 21
-7.999999999999829
 31
0.0
  0
LINE
  5
C137
330
1F
100
AcDbEntity
  8
AM_11
100
AcDbLine
 10
-5.000000000000298
 20
8.000000000000156
 30
0.0
 11
-0.0000000000002842
 21
8.000000000000142
 31
0.0
  0
LINE
  5
C13B
330
1F
100
AcDbEntity
  8
AM_11
100
AcDbLine
 10
-5.000000000000241
 20
-7.999999999999829
 30
0.0
 11
-0.0000000000002558
 21
-7.999999999999829
 31
0.0
  0
DIMENSION
  5
C143
330
1F
100
AcDbEntity
  8
AM_5
100
AcDbDimension
  2
*D5
 10
-0.0000000000002998
 20
15.00000000000017
 30
0.0
 11
-2.500000000000297
 21
16.55000000000017
 31
0.0
 70
    32
  1
<>
 51
359.9999999999998
  3
AM_JIS$0
100
AcDbAlignedDimension
 13
-5.000000000000312
 23
8.000000000000156
 33
0.0
 14
-0.0000000000003126
 24
8.000000000000142
 34
0.0
 50
180.0
100
AcDbRotatedDimension
1001
GENIUS_GENDTOL_13
1000

1000
h7
1000

1040
0.0
1001
ACAD
1000
DSTYLE
1002
{
1070
   287
1070
     3
1070
    40
1040
0.5
1070
    42
1040
1.0
1070
    43
1040
12.0
1070
    48
1040
0.1
1070
    78
1070
     8
1070
   140
1040
3.2
1070
   176
1070
   256
1070
   177
1070
   256
1070
   271
1070
     0
1070
   272
1070
     3
1070
   275
1070
     0
1070
   284
1070
     0
1070
   289
1070
     3
1070
   340
1005
6B
1070
   371
1070
    -1
1070
   372
1070
    -1
1002
}
  0
DIMENSION
  5
C1E9
330
1F
100
AcDbEntity
  8
AM_5
100
AcDbDimension
  2
*D6
 10
6.999999999999742
 20
-7.999999999999817
 30
0.0
 11
5.449999999999743
 21
0.0000000000001632
 31
0.0
 70
    32
  1
%%c<>
 51
359.9999999999998
  3
AM_JIS$0
100
AcDbAlignedDimension
 13
-0.0000000000002984
 23
8.000000000000142
 33
0.0
 14
-0.0000000000002558
 24
-7.999999999999815
 34
0.0
 50
90.0
100
AcDbRotatedDimension
1001
GENIUS_GENDTOL_13
1000

1000
h7
1000

1040
0.0
1001
ACAD
1000
DSTYLE
1002
{
1070
   287
1070
     3
1070
    40
1040
0.5
1070
    42
1040
1.0
1070
    43
1040
12.0
1070
    48
1040
0.1
1070
    78
1070
     8
1070
   140
1040
3.2
1070
   176
1070
   256
1070
   177
1070
   256
1070
   271
1070
     0
1070
   272
1070
     3
1070
   275
1070
     0
1070
   284
1070
     0
1070
   289
1070
     3
1070
   340
1005
6B
1070
   371
1070
    -1
1070
   372
1070
    -1
1002
}
  0
DIMENSION
  5
C279
330
1F
100
AcDbEntity
  8
AM_5
100
AcDbDimension
  2
*D7
 10
-49.99998960182953
 20
-14.99999999999983
 30
0.0
 11
-24.99999480091489
 21
-13.44999999999982
 31
0.0
 70
    32
  1
<>
 51
359.9999999999998
  3
AM_JIS$0
100
AcDbAlignedDimension
 13
-0.0000000000002558
 23
-7.999999999999829
 33
0.0
 14
-49.99998960182953
 24
-7.999999747619867
 34
0.0
100
AcDbRotatedDimension
1001
GENIUS_GENDTOL_13
1000

1000
h7
1000

1040
0.0
1001
ACAD
1000
DSTYLE
1002
{
1070
   287
1070
     3
1070
    40
1040
0.5
1070
    42
1040
1.0
1070
    43
1040
12.0
1070
    48
1040
0.1
1070
    78
1070
     8
1070
   140
1040
3.2
1070
   176
1070
   256
1070
   177
1070
   256
1070
   271
1070
     0
1070
   272
1070
     3
1070
   275
1070
     0
1070
   284
1070
     0
1070
   289
1070
     3
1070
   340
1005
6B
1070
   371
1070
    -1
1070
   372
1070
    -1
1002
}
  0
DIMENSION
  5
C305
330
1F
100
AcDbEntity
  8
AM_5
100
AcDbDimension
  2
*D8
 10
-120.0000000000002
 20
-14.99999999999983
 30
0.0
 11
-85.00000000000024
 21
-13.44999999999982
 31
0.0
 70
    32
  1
<>
 51
359.9999999999998
  3
AM_JIS$0
100
AcDbAlignedDimension
 13
-50.00000000000024
 23
-7.999999999995935
 33
0.0
 14
-120.0000000000002
 24
-6.428825378414074
 34
0.0
100
AcDbRotatedDimension
1001
GENIUS_GENDTOL_13
1000

1000
h7
1000

1040
0.0
1001
ACAD
1000
DSTYLE
1002
{
1070
   287
1070
     3
1070
    40
1040
0.5
1070
    42
1040
1.0
1070
    43
1040
12.0
1070
    48
1040
0.1
1070
    78
1070
     8
1070
   140
1040
3.2
1070
   176
1070
   256
1070
   177
1070
   256
1070
   271
1070
     0
1070
   272
1070
     3
1070
   275
1070
     0
1070
   284
1070
     0
1070
   289
1070
     3
1070
   340
1005
6B
1070
   371
1070
    -1
1070
   372
1070
    -1
1002
}
  0
DIMENSION
  5
C39A
330
1F
100
AcDbEntity
  8
AM_5
100
AcDbDimension
  2
*D9
 10
-127.0000000000002
 20
-7.999991822750754
 30
0.0
 11
-128.5500000000002
 21
0.0000002739295768
 31
0.0
 70
    32
  1
%%c<>
 51
359.9999999999998
  3
AM_JIS$0
100
AcDbAlignedDimension
 13
-117.0000000000002
 23
7.999992370609945
 33
0.0
 14
-117.0000000000002
 24
-7.999991822750757
 34
0.0
 50
270.0
100
AcDbRotatedDimension
1001
GENIUS_GENDTOL_13
1000

1000
h7
1000

1040
0.0
1001
ACAD
1000
DSTYLE
1002
{
1070
   287
1070
     3
1070
    40
1040
0.5
1070
    42
1040
1.0
1070
    43
1040
12.0
1070
    48
1040
0.1
1070
    78
1070
     8
1070
   140
1040
3.2
1070
   176
1070
   256
1070
   177
1070
   256
1070
   271
1070
     0
1070
   272
1070
     3
1070
   275
1070
     0
1070
   284
1070
     0
1070
   289
1070
     3
1070
   340
1005
6B
1070
   371
1070
    -1
1070
   372
1070
    -1
1002
}
  0
DIMENSION
  5
C469
330
1F
100
AcDbEntity
  8
AM_5
100
AcDbDimension
  2
*D10
 10
-0.0000000000002565
 20
-19.99999999999983
 30
0.0
 11
-60.00000000000024
 21
-18.44999999999982
 31
0.0
 70
    32
  1
<>
 51
359.9999999999998
  3
AM_JIS$0
100
AcDbAlignedDimension
 13
-120.0000000000002
 23
-6.428825378414074
 33
0.0
 14
-0.0000000000002558
 24
-7.999999999999815
 34
0.0
100
AcDbRotatedDimension
1001
GENIUS_GENDTOL_13
1000

1000
h7
1000

1040
0.0
1001
ACAD
1000
DSTYLE
1002
{
1070
   287
1070
     3
1070
    40
1040
0.5
1070
    42
1040
1.0
1070
    43
1040
12.0
1070
    48
1040
0.1
1070
    78
1070
     8
1070
   140
1040
3.2
1070
   176
1070
   256
1070
   177
1070
   256
1070
   271
1070
     0
1070
   272
1070
     3
1070
   275
1070
     0
1070
   284
1070
     0
1070
   289
1070
     3
1070
   340
1005
6B
1070
   371
1070
    -1
1070
   372
1070
    -1
1002
}
  0
DIMENSION
  5
C4FE
330
1F
100
AcDbEntity
  8
AM_5
100
AcDbDimension
  2
*D11
 10
-29.2142848897595
 20
-6.69269561767191
 30
0.0
 11
-29.2142848897595
 21
2.891537706246501
 31
0.0
 70
   160
  1
%%c14
 51
359.9999999999998
  3
AM_JIS$0
100
AcDbAlignedDimension
 13
-36.21428488975924
 23
6.692695617680094
 33
0.0
 14
-36.21428510831618
 24
-6.692695617671908
 34
0.0
 50
90.0
100
AcDbRotatedDimension
1001
GENIUS_GENDTOL_13
1000

1000
h7
1000

1040
0.0
1001
ACAD
1000
DSTYLE
1002
{
1070
   287
1070
     3
1070
    40
1040
0.5
1070
    42
1040
1.0
1070
    43
1040
12.0
1070
    48
1040
0.1
1070
    75
1070
     1
1070
    76
1070
     1
1070
    78
1070
     8
1070
   140
1040
3.2
1070
   176
1070
   256
1070
   177
1070
   256
1070
   271
1070
     0
1070
   272
1070
     3
1070
   275
1070
     0
1070
   284
1070
     0
1070
   289
1070
     3
1070
   340
1005
6B
1070
   371
1070
    -1
1070
   372
1070
    -1
1002
}
  0
VIEWPORT
  5
110
330
101
100
AcDbEntity
 67
     1
  8
0
100
AcDbViewport
 10
420.5
 20
297.0
 30
0.0
 40
948.9782706766916
 41
628.452
 68
     1
 69
     1
1001
ACAD
1000
MVIEW
1002
{
1070
    16
1010
0.0
1020
0.0
1030
0.0
1010
0.0
1020
0.0
1030
1.0
1040
0.0
1040
628.452
1040
420.5
1040
297.0
1040
50.0
1040
0.0
1040
0.0
1070
     0
1070
   100
1070
     1
1070
     1
1070
     0
1070
     0
1070
     0
1070
     0
1040
0.0
1040
0.0
1040
0.0
1040
10.0
1040
10.0
1040
10.0
1040
10.0
1070
     0
1002
{
1002
}
1002
}
  0
ENDSEC
  0
SECTION
  2
OBJECTS
  0
DICTIONARY
  5
C
330
0
100
AcDbDictionary
  3
ACAD_GROUP
350
D
  3
ACAD_LAYOUT
350
1A
  3
ACAD_MLINESTYLE
350
17
  3
ACAD_PLOTSETTINGS
350
19
  3
ACAD_PLOTSTYLENAME
350
E
  3
ACDBVARIABLEDICTIONARY
350
34
  3
ACMDICTIONARY
350
43
  3
AMG
350
2B
  3
AMGSNAPSETTINGS
350
6E
  3
DWGPROPS
350
C788
  3
ACDBHEADERROUNDTRIPXREC
350
C794
  0
DICTIONARY
  5
74
330
1F
100
AcDbDictionary
280
     1
  3
ACAD_INDEX
360
C78A
  3
ACAD_LAYOUTSELFREF
360
C7B7
  0
DICTIONARY
  5
C7BC
330
101
100
AcDbDictionary
280
     1
  3
ACAD_LAYOUTSELFREF
360
C7BD
  0
DICTIONARY
  5
D
102
{ACAD_REACTORS
330
C
102
}
330
C
100
AcDbDictionary
  0
DICTIONARY
  5
1A
102
{ACAD_REACTORS
330
C
102
}
330
C
100
AcDbDictionary
  0
DICTIONARY
  5
17
102
{ACAD_REACTORS
330
C
102
}
330
C
100
AcDbDictionary
  3
STANDARD
350
18
  0
DICTIONARY
  5
19
102
{ACAD_REACTORS
330
C
102
}
330
C
100
AcDbDictionary
  3
ASAMI
350
399D
  0
ACDBDICTIONARYWDFLT
  5
E
102
{ACAD_REACTORS
330
C
102
}
330
C
100
AcDbDictionary
281
     1
  3
Normal
350
F
100
AcDbDictionaryWithDefault
340
F
  0
DICTIONARY
  5
34
102
{ACAD_REACTORS
330
C
102
}
330
C
100
AcDbDictionary
  3
INDEXCTL
350
35
  3
SORTENTS
350
B5E
  0
DICTIONARY
  5
43
102
{ACAD_REACTORS
330
C
102
}
330
C
100
AcDbDictionary
  3
ACMSTDDICTIONARY
350
260
  0
DICTIONARY
  5
2B
102
{ACAD_REACTORS
330
C
102
}
330
C
100
AcDbDictionary
  3
ACMGSETTINGS
350
2C
  0
DICTIONARY
  5
6E
102
{ACAD_REACTORS
330
C
102
}
330
C
100
AcDbDictionary
  0
XRECORD
  5
C788
102
{ACAD_REACTORS
330
C
102
}
330
C
100
AcDbXrecord
  1
DWGPROPS COOKIE
  2

  3

  4

  6

  7

  8

  9

300
AmdtFileType=82
301
=
302
=
303
=
304
=
305
=
306
=
307
=
308
=
309
=
 40
0.9987602314814814
 41
2452802.716478761
 42
2453075.687761134
  1

 90
        1
  0
DICTIONARY
  5
C794
102
{ACAD_REACTORS
330
C
102
}
330
C
100
AcDbDictionary
  3
TSTACKALIGN
350
C795
  3
TSTACKSIZE
350
C796
  3
HYPERLINKBASE
350
C797
  3
STYLESHEET
350
C798
  3
LAYOUTDICT
350
C799
  3
PLOTSETDICT
350
C79A
  3
PLOTSTYLNAMDICT
350
C79B
  3
LWETCUNION
350
C79C
  3
INSUNITS
350
C79D
  3
CEPSNTYPE
350
C79E
  3
FINGERPRINTGUID
350
C79F
  3
VERSIONGUID
350
C7A0
  3
PSVPSCALE
350
C7A1
  3
DIMSTYLEDATA
350
C7A2
  3
PUCSORTHOREF
350
C7A3
  3
PUCSORTHOVIEW
350
C7A4
  3
PUCSBASE
350
C7A5
  3
PUCSORGTOP
350
C7A6
  3
PUCSORGBOTTOM
350
C7A7
  3
PUCSORGLEFT
350
C7A8
  3
PUCSORGRIGHT
350
C7A9
  3
PUCSORGFRONT
350
C7AA
  3
PUCSORGBACK
350
C7AB
  3
UCSORTHOREF
350
C7AC
  3
UCSORTHOVIEW
350
C7AD
  3
UCSBASE
350
C7AE
  3
UCSORGTOP
350
C7AF
  3
UCSORGBOTTOM
350
C7B0
  3
UCSORGLEFT
350
C7B1
  3
UCSORGRIGHT
350
C7B2
  3
UCSORGFRONT
350
C7B3
  3
UCSORGBACK
350
C7B4
  0
DICTIONARY
  5
C78A
102
{ACAD_REACTORS
330
74
102
}
330
74
100
AcDbDictionary
  3
*A1
350
C78B
  0
XRECORD
  5
C7B7
102
{ACAD_REACTORS
330
74
102
}
330
74
100
AcDbXrecord
340
1F
  0
XRECORD
  5
C7BD
102
{ACAD_REACTORS
330
C7BC
102
}
330
C7BC
100
AcDbXrecord
340
101
  0
MLINESTYLE
  5
18
102
{ACAD_REACTORS
330
17
102
}
330
17
100
AcDbMlineStyle
  2
STANDARD
 70
     0
  3

 62
   256
 51
90.0
 52
90.0
 71
     2
 49
0.5
 62
   256
  6
BYLAYER
 49
-0.5
 62
   256
  6
BYLAYER
  0
PLOTSETTINGS
  5
399D
102
{ACAD_REACTORS
330
19
102
}
330
19
100
AcDbPlotSettings
  1
asami
  2
RICOH imagio MF1540
  4
A4
  6

 40
5.831416606903076
 41
7.651742935180664
 42
4.90008544921875
 43
5.789077758789062
 44
296.9683227539062
 45
209.9733276367187
 46
0.0
 47
0.0
 48
-156.6707931774246
 49
-74.57609991074048
140
58.59973180214831
141
60.61068161925596
142
1.0
143
1.095343097833084
 70
  1712
 72
     1
 73
     1
 74
     4
  7
asami.ctb
 75
     0
147
0.9129559514076438
148
156.6707931774246
149
74.57609991074048
  0
ACDBPLACEHOLDER
  5
F
102
{ACAD_REACTORS
330
E
102
}
330
E
100
AcDbPlaceHolder
280
     0
  0
DICTIONARYVAR
  5
35
102
{ACAD_REACTORS
330
34
102
}
330
34
100
DictionaryVariables
280
     0
  1
1
  0
DICTIONARYVAR
  5
B5E
102
{ACAD_REACTORS
330
34
102
}
330
34
100
DictionaryVariables
280
     0
  1
96
  0
DICTIONARY
  5
260
102
{ACAD_REACTORS
330
43
102
}
330
43
100
AcDbDictionary
  0
DICTIONARY
  5
2C
102
{ACAD_REACTORS
330
2B
102
}
330
2B
100
AcDbDictionary
  3
DWGSETTINGS
350
2D
  0
XRECORD
  5
C795
102
{ACAD_REACTORS
330
C794
102
}
330
C794
100
AcDbXrecord
 90
        1
  0
XRECORD
  5
C796
102
{ACAD_REACTORS
330
C794
102
}
330
C794
100
AcDbXrecord
 90
       70
  0
XRECORD
  5
C797
102
{ACAD_REACTORS
330
C794
102
}
330
C794
100
AcDbXrecord
  1

  0
XRECORD
  5
C798
102
{ACAD_REACTORS
330
C794
102
}
330
C794
100
AcDbXrecord
  1
ASAMI.ctb
  0
XRECORD
  5
C799
102
{ACAD_REACTORS
330
C794
102
}
330
C794
100
AcDbXrecord
340
1A
  0
XRECORD
  5
C79A
102
{ACAD_REACTORS
330
C794
102
}
330
C794
100
AcDbXrecord
340
19
  0
XRECORD
  5
C79B
102
{ACAD_REACTORS
330
C794
102
}
330
C794
100
AcDbXrecord
340
E
  0
XRECORD
  5
C79C
102
{ACAD_REACTORS
330
C794
102
}
330
C794
100
AcDbXrecord
 90
    10781
  0
XRECORD
  5
C79D
102
{ACAD_REACTORS
330
C794
102
}
330
C794
100
AcDbXrecord
 90
        4
  0
XRECORD
  5
C79E
102
{ACAD_REACTORS
330
C794
102
}
330
C794
100
AcDbXrecord
 90
        0
  0
XRECORD
  5
C79F
102
{ACAD_REACTORS
330
C794
102
}
330
C794
100
AcDbXrecord
  1
{AFB28963-8C59-40AE-9337-C84526B81ACE}
  0
XRECORD
  5
C7A0
102
{ACAD_REACTORS
330
C794
102
}
330
C794
100
AcDbXrecord
  1
{7E934CF4-F4AE-4AB7-A02B-1279A84780B4}
  0
XRECORD
  5
C7A1
102
{ACAD_REACTORS
330
C794
102
}
330
C794
100
AcDbXrecord
 40
0.0
  0
XRECORD
  5
C7A2
102
{ACAD_REACTORS
330
C794
102
}
330
C794
100
AcDbXrecord
1000
DSTYLE
1002
{
1070
    79
 70
     2
1070
   341
340
59
1070
   342
340
59
1070
   371
 70
    -1
1070
   372
 70
    -1
1002
}
  0
XRECORD
  5
C7A3
102
{ACAD_REACTORS
330
C794
102
}
330
C794
100
AcDbXrecord
340
0
  0
XRECORD
  5
C7A4
102
{ACAD_REACTORS
330
C794
102
}
330
C794
100
AcDbXrecord
 70
     0
  0
XRECORD
  5
C7A5
102
{ACAD_REACTORS
330
C794
102
}
330
C794
100
AcDbXrecord
340
0
  0
XRECORD
  5
C7A6
102
{ACAD_REACTORS
330
C794
102
}
330
C794
100
AcDbXrecord
 10
0.0
 20
0.0
 30
0.0
  0
XRECORD
  5
C7A7
102
{ACAD_REACTORS
330
C794
102
}
330
C794
100
AcDbXrecord
 10
0.0
 20
0.0
 30
0.0
  0
XRECORD
  5
C7A8
102
{ACAD_REACTORS
330
C794
102
}
330
C794
100
AcDbXrecord
 10
0.0
 20
0.0
 30
0.0
  0
XRECORD
  5
C7A9
102
{ACAD_REACTORS
330
C794
102
}
330
C794
100
AcDbXrecord
 10
0.0
 20
0.0
 30
0.0
  0
XRECORD
  5
C7AA
102
{ACAD_REACTORS
330
C794
102
}
330
C794
100
AcDbXrecord
 10
0.0
 20
0.0
 30
0.0
  0
XRECORD
  5
C7AB
102
{ACAD_REACTORS
330
C794
102
}
330
C794
100
AcDbXrecord
 10
0.0
 20
0.0
 30
0.0
  0
XRECORD
  5
C7AC
102
{ACAD_REACTORS
330
C794
102
}
330
C794
100
AcDbXrecord
340
0
  0
XRECORD
  5
C7AD
102
{ACAD_REACTORS
330
C794
102
}
330
C794
100
AcDbXrecord
 70
     0
  0
XRECORD
  5
C7AE
102
{ACAD_REACTORS
330
C794
102
}
330
C794
100
AcDbXrecord
340
0
  0
XRECORD
  5
C7AF
102
{ACAD_REACTORS
330
C794
102
}
330
C794
100
AcDbXrecord
 10
0.0
 20
0.0
 30
0.0
  0
XRECORD
  5
C7B0
102
{ACAD_REACTORS
330
C794
102
}
330
C794
100
AcDbXrecord
 10
0.0
 20
0.0
 30
0.0
  0
XRECORD
  5
C7B1
102
{ACAD_REACTORS
330
C794
102
}
330
C794
100
AcDbXrecord
 10
0.0
 20
0.0
 30
0.0
  0
XRECORD
  5
C7B2
102
{ACAD_REACTORS
330
C794
102
}
330
C794
100
AcDbXrecord
 10
0.0
 20
0.0
 30
0.0
  0
XRECORD
  5
C7B3
102
{ACAD_REACTORS
330
C794
102
}
330
C794
100
AcDbXrecord
 10
0.0
 20
0.0
 30
0.0
  0
XRECORD
  5
C7B4
102
{ACAD_REACTORS
330
C794
102
}
330
C794
100
AcDbXrecord
 10
0.0
 20
0.0
 30
0.0
  0
LAYER_INDEX
  5
C78B
102
{ACAD_REACTORS
330
C78A
102
}
330
C78A
100
AcDbIndex
 40
2453152.382547546
100
AcDbLayerIndex
  8
0
360
C78C
 90
        0
  8
AM_0
360
C78D
 90
       75
  8
AM_5
360
C78E
 90
        7
  8
AM_7
360
C78F
 90
        1
  8
AM_6
360
C790
 90
        1
  8
Defpoints
360
C791
 90
        0
  8
AM_11
360
C792
 90
        4
  0
XRECORD
  5
2D
102
{ACAD_REACTORS
330
2C
102
}
330
2C
100
AcDbXrecord
  1
VERSION
140
15.0
  1
PRODUCT
  2
AutoCAD Mechanical 2000
  0
IDBUFFER
  5
C78C
330
0
100
AcDbIdBuffer
  0
IDBUFFER
  5
C78D
330
0
100
AcDbIdBuffer
330
BFD7
330
BFD8
330
BFD9
330
BFDA
330
BFDB
330
BFDC
330
BFDD
330
BFDE
330
BFDF
330
BFE0
330
BFE1
330
BFE3
330
BFE4
330
BFE5
330
BFE6
330
BFE7
330
BFE8
330
BFE9
330
BFEA
330
BFEB
330
BFED
330
BFEE
330
BFEF
330
BFF0
330
BFF1
330
BFF2
330
BFF3
330
BFA0
330
BFA1
330
BFA2
330
BFA3
330
BFA4
330
BFA5
330
BFA6
330
BFA7
330
BFA8
330
BFA9
330
BFAA
330
BFAB
330
BFAC
330
BFAD
330
BFAE
330
BFAF
330
BFB0
330
BFB1
330
BFB2
330
BFB3
330
BFB4
330
BFB5
330
BFB6
330
BFB8
330
BFB9
330
BFBC
330
BFBD
330
BFBF
330
BFC0
330
BFC1
330
BFC2
330
BFC3
330
BFC4
330
BFC7
330
BFC8
330
BFC9
330
BFCA
330
BFCB
330
BFCC
330
BFCE
330
BFCF
330
BFD0
330
BFD1
330
BFD2
330
BFD3
330
BFD4
330
BFD5
330
BFD6
  0
IDBUFFER
  5
C78E
330
0
100
AcDbIdBuffer
330
C143
330
C1E9
330
C279
330
C305
330
C39A
330
C469
330
C4FE
  0
IDBUFFER
  5
C78F
330
0
100
AcDbIdBuffer
330
BFB7
  0
IDBUFFER
  5
C790
330
0
100
AcDbIdBuffer
330
388D
  0
IDBUFFER
  5
C791
330
0
100
AcDbIdBuffer
  0
IDBUFFER
  5
C792
330
0
100
AcDbIdBuffer
330
C126
330
C12E
330
C137
330
C13B
  0
ENDSEC
  0
EOF
