  0
SECTION
  2
HEADER
  9
$ACADVER
  1
AC1014
  9
$ACADMAINTVER
 70
     9
  9
$DWGCODEPAGE
  3
ANSI_932
  9
$INSBASE
 10
0.0
 20
0.0
 30
0.0
  9
$EXTMIN
 10
-189.3500000000002
 20
-35.75000762939541
 30
-0.00000001
  9
$EXTMAX
 10
7.499999999999782
 20
21.85000000000014
 30
0.00000001
  9
$LIMMIN
 10
-202.9551304567548
 20
-96.03745726786849
  9
$LIMMAX
 10
60.10562982171268
 20
69.79679126924224
  9
$ORTHOMODE
 70
     0
  9
$REGENMODE
 70
     1
  9
$FILLMODE
 70
     1
  9
$QTEXTMODE
 70
     0
  9
$MIRRTEXT
 70
     0
  9
$DRAGMODE
 70
     2
  9
$LTSCALE
 40
1.0
  9
$OSMODE
 70
    55
  9
$ATTMODE
 70
     1
  9
$TEXTSIZE
 40
2.5
  9
$TRACEWID
 40
1.0
  9
$TEXTSTYLE
  7
STANDARD
  9
$CLAYER
  8
AM_0
  9
$CELTYPE
  6
BYLAYER
  9
$CECOLOR
 62
   256
  9
$CELTSCALE
 40
1.0
  9
$DELOBJ
 70
     1
  9
$DISPSILH
 70
     0
  9
$DIMSCALE
 40
0.5
  9
$DIMASZ
 40
2.5
  9
$DIMEXO
 40
1.0
  9
$DIMDLI
 40
12.0
  9
$DIMRND
 40
0.0
  9
$DIMDLE
 40
0.0
  9
$DIMEXE
 40
1.0
  9
$DIMTP
 40
0.1
  9
$DIMTM
 40
0.1
  9
$DIMTXT
 40
3.2
  9
$DIMCEN
 40
0.0
  9
$DIMTSZ
 40
0.0
  9
$DIMTOL
 70
     0
  9
$DIMLIM
 70
     0
  9
$DIMTIH
 70
     0
  9
$DIMTOH
 70
     0
  9
$DIMSE1
 70
     0
  9
$DIMSE2
 70
     0
  9
$DIMTAD
 70
     3
  9
$DIMZIN
 70
     8
  9
$DIMBLK
  1
OPEN30
  9
$DIMASO
 70
     1
  9
$DIMSHO
 70
     1
  9
$DIMPOST
  1

  9
$DIMAPOST
  1
"
  9
$DIMALT
 70
     0
  9
$DIMALTD
 70
     2
  9
$DIMALTF
 40
0.0393701
  9
$DIMLFAC
 40
1.0
  9
$DIMTOFL
 70
     1
  9
$DIMTVP
 40
0.0
  9
$DIMTIX
 70
     0
  9
$DIMSOXD
 70
     0
  9
$DIMSAH
 70
     0
  9
$DIMBLK1
  1

  9
$DIMBLK2
  1

  9
$DIMSTYLE
  2
AM_JIS
  9
$DIMCLRD
 70
   256
  9
$DIMCLRE
 70
   256
  9
$DIMCLRT
 70
     2
  9
$DIMTFAC
 40
0.71
  9
$DIMGAP
 40
1.5
  9
$DIMJUST
 70
     0
  9
$DIMSD1
 70
     0
  9
$DIMSD2
 70
     0
  9
$DIMTOLJ
 70
     0
  9
$DIMTZIN
 70
     0
  9
$DIMALTZ
 70
     0
  9
$DIMALTTZ
 70
     0
  9
$DIMFIT
 70
     3
  9
$DIMUPT
 70
     0
  9
$DIMUNIT
 70
     2
  9
$DIMDEC
 70
     3
  9
$DIMTDEC
 70
     3
  9
$DIMALTU
 70
     2
  9
$DIMALTTD
 70
     2
  9
$DIMTXSTY
  7
ASAMI
  9
$DIMAUNIT
 70
     0
  9
$LUNITS
 70
     2
  9
$LUPREC
 70
     2
  9
$SKETCHINC
 40
1.0
  9
$FILLETRAD
 40
0.4
  9
$AUNITS
 70
     0
  9
$AUPREC
 70
     0
  9
$MENU
  1
.
  9
$ELEVATION
 40
0.0
  9
$PELEVATION
 40
0.0
  9
$THICKNESS
 40
0.0
  9
$LIMCHECK
 70
     1
  9
$BLIPMODE
 70
     0
  9
$CHAMFERA
 40
1.0
  9
$CHAMFERB
 40
1.0
  9
$CHAMFERC
 40
20.0
  9
$CHAMFERD
 40
0.0
  9
$SKPOLY
 70
     0
  9
$TDCREATE
 40
2452802.716478761
  9
$TDUPDATE
 40
2453152.382964953
  9
$TDINDWG
 40
1.0057864468
  9
$TDUSRTIMER
 40
1.0057864468
  9
$USRTIMER
 70
     1
  9
$ANGBASE
 50
0.0
  9
$ANGDIR
 70
     0
  9
$PDMODE
 70
     0
  9
$PDSIZE
 40
0.0
  9
$PLINEWID
 40
0.0
  9
$COORDS
 70
     1
  9
$SPLFRAME
 70
     0
  9
$SPLINETYPE
 70
     6
  9
$SPLINESEGS
 70
     8
  9
$ATTDIA
 70
     1
  9
$ATTREQ
 70
     1
  9
$HANDLING
 70
 12289
  9
$HANDSEED
  5
D9B7
  9
$SURFTAB1
 70
     6
  9
$SURFTAB2
 70
     6
  9
$SURFTYPE
 70
     6
  9
$SURFU
 70
     6
  9
$SURFV
 70
     6
  9
$UCSNAME
  2

  9
$UCSORG
 10
-0.0000000000002682
 20
0.000000000000161
 30
0.0
  9
$UCSXDIR
 10
1.0
 20
0.000000000000002
 30
0.0
  9
$UCSYDIR
 10
-0.000000000000002
 20
1.0
 30
0.0
  9
$PUCSNAME
  2

  9
$PUCSORG
 10
0.0
 20
0.0
 30
0.0
  9
$PUCSXDIR
 10
1.0
 20
0.0
 30
0.0
  9
$PUCSYDIR
 10
0.0
 20
1.0
 30
0.0
  9
$USERI1
 70
     0
  9
$USERI2
 70
     0
  9
$USERI3
 70
     0
  9
$USERI4
 70
     0
  9
$USERI5
 70
     0
  9
$USERR1
 40
0.0
  9
$USERR2
 40
0.0
  9
$USERR3
 40
0.0
  9
$USERR4
 40
0.0
  9
$USERR5
 40
0.0
  9
$WORLDVIEW
 70
     1
  9
$SHADEDGE
 70
     3
  9
$SHADEDIF
 70
    70
  9
$TILEMODE
 70
     1
  9
$MAXACTVP
 70
    64
  9
$PINSBASE
 10
0.0
 20
0.0
 30
0.0
  9
$PLIMCHECK
 70
     0
  9
$PEXTMIN
 10
1.000000000000000E+20
 20
1.000000000000000E+20
 30
1.000000000000000E+20
  9
$PEXTMAX
 10
-1.000000000000000E+20
 20
-1.000000000000000E+20
 30
-1.000000000000000E+20
  9
$PLIMMIN
 10
0.0
 20
0.0
  9
$PLIMMAX
 10
841.0
 20
594.0
  9
$UNITMODE
 70
     0
  9
$VISRETAIN
 70
     1
  9
$PLINEGEN
 70
     0
  9
$PSLTSCALE
 70
     0
  9
$TREEDEPTH
 70
  3020
  9
$PICKSTYLE
 70
     0
  9
$CMLSTYLE
  2
STANDARD
  9
$CMLJUST
 70
     0
  9
$CMLSCALE
 40
20.0
  9
$PROXYGRAPHICS
 70
     1
  9
$MEASUREMENT
 70
     1
  0
ENDSEC
  0
SECTION
  2
CLASSES
  0
CLASS
  1
ACDBDICTIONARYWDFLT
  2
AcDbDictionaryWithDefault
  3
AutoCAD 2000
 90
        0
280
     0
281
     0
  0
CLASS
  1
ACDBPLACEHOLDER
  2
AcDbPlaceHolder
  3
AutoCAD 2000
 90
        0
280
     0
281
     0
  0
CLASS
  1
LAYOUT
  2
AcDbLayout
  3
AutoCAD 2000
 90
        0
280
     0
281
     0
  0
CLASS
  1
AMGSETTINGSOBJ
  2
AmgSettingsObj
  3
"AcadM|Product Description: AutoCAD Mechanical 2000|Company: Autodesk"
 90
        0
280
     0
281
     0
  0
CLASS
  1
ACME_DOCUMENT
  2
AcMeDbDoc
  3
AcMeServices
 90
        0
280
     0
281
     0
  0
CLASS
  1
ACMESCOPE
  2
AcMeScope
  3
AcMeServices
 90
        0
280
     0
281
     0
  0
CLASS
  1
ACMECOMMANDHISTORY
  2
AcMeCommandHistory
  3
AcMeServices
 90
        0
280
     0
281
     0
  0
CLASS
  1
DICTIONARYVAR
  2
AcDbDictionaryVar
  3
AutoCAD 2000
 90
        0
280
     0
281
     0
  0
CLASS
  1
ACIMSYSVARMAN
  2
AcImSysVarManager
  3
AcMeServices
 90
        0
280
     0
281
     0
  0
CLASS
  1
ACIMREALSYSVAR
  2
AcImRealSysVar
  3
AcMeServices
 90
        0
280
     0
281
     0
  0
CLASS
  1
ACIMINTSYSVAR
  2
AcImIntSysVar
  3
AcMeServices
 90
        0
280
     0
281
     0
  0
CLASS
  1
ACMEDRAWINGMAN
  2
AcMeDrawingMan
  3
AcMeServices
 90
        0
280
     0
281
     0
  0
CLASS
  1
ACMEVIEW
  2
AcMeView
  3
AcMeServices
 90
        0
280
     0
281
     0
  0
CLASS
  1
ACDBENTITYCACHE
  2
AcMeEntityCache
  3
AcMeServices
 90
        0
280
     0
281
     0
  0
CLASS
  1
GSMANAGER
  2
AcMeGSManager
  3
AcMeServices
 90
        0
280
     0
281
     0
  0
CLASS
  1
AmdtInternalReactor
  2
AmdtInternalReactor
  3
AcMeServices
 90
        0
280
     0
281
     0
  0
CLASS
  1
ACMESTATEMGR
  2
AcMeStateMgr
  3
AcMeServices
 90
        0
280
     0
281
     0
  0
CLASS
  1
ACME_DATABASE
  2
AcMeDbDatabase
  3
AcMeServices
 90
        0
280
     0
281
     0
  0
CLASS
  1
ACRFINSADJUSTERMGR
  2
AcRfInsAdjusterMgr
  3
AcMeServices
 90
        0
280
     0
281
     0
  0
CLASS
  1
ACMDATADICTIONARY
  2
AcmDataDictionary
  3
"AcmSymBB|Product Description: AutoCAD Mechanical 2000|Company: Autodesk"
 90
        0
280
     0
281
     0
  0
CLASS
  1
ACMDATAENTRYBLOCK
  2
AcmDataEntryBlock
  3
"AcmSymBB|Product Description: AutoCAD Mechanical 2000|Company: Autodesk"
 90
        0
280
     0
281
     0
  0
CLASS
  1
AMGOBJPROPCFG
  2
AmgObjPropCfg
  3
"AmgLay|Product Description: AutoCAD Mechanical 2000|Company: Autodesk"
 90
        1
280
     0
281
     0
  0
CLASS
  1
ACAMGFILTERDAT
  2
AcAmgFilterDat
  3
"AcadM|Product Description: AutoCAD Mechanical 2000|Company: Autodesk"
 90
        0
280
     0
281
     0
  0
CLASS
  1
LAYER_INDEX
  2
AcDbLayerIndex
  3
AutoCAD 2000
 90
        0
280
     0
281
     0
  0
CLASS
  1
IDBUFFER
  2
AcDbIdBuffer
  3
AutoCAD 2000
 90
        0
280
     0
281
     0
  0
CLASS
  1
ACIMSTRSYSVAR
  2
AcImStrSysVar
  3
AcMeServices
 90
        0
280
     0
281
     0
  0
CLASS
  1
ACMSTANDARDJIS
  2
AcmStandardJIS
  3
"AcmSymBB|Product Description: AutoCAD Mechanical 2000|Company: Autodesk"
 90
        0
280
     0
281
     0
  0
CLASS
  1
ACMSURFSTANDARDJIS
  2
AcmSurfTextStdJIS
  3
"AcmSymBB|Product Description: AutoCAD Mechanical 2000|Company: Autodesk"
 90
        0
280
     0
281
     0
  0
CLASS
  1
ACMFCFSTANDARDJIS
  2
AcmFCFStdJIS
  3
"AcmSymBB|Product Description: AutoCAD Mechanical 2000|Company: Autodesk"
 90
        0
280
     0
281
     0
  0
CLASS
  1
ACMWELDSTANDARDJIS
  2
AcmWeldingStdJIS
  3
"AcmSymBB|Product Description: AutoCAD Mechanical 2000|Company: Autodesk"
 90
        0
280
     0
281
     0
  0
CLASS
  1
ACMIDSTANDARDJIS
  2
AcmIdStdJIS
  3
"AcmSymBB|Product Description: AutoCAD Mechanical 2000|Company: Autodesk"
 90
        0
280
     0
281
     0
  0
CLASS
  1
ACMDATUMSTANDARDJIS
  2
AcmDatumStdJIS
  3
"AcmSymBB|Product Description: AutoCAD Mechanical 2000|Company: Autodesk"
 90
        0
280
     0
281
     0
  0
CLASS
  1
ACMBOMSTANDARDJIS
  2
AcmBOMStdJIS
  3
"AcmSymBB|Product Description: AutoCAD Mechanical 2000|Company: Autodesk"
 90
        0
280
     0
281
     0
  0
CLASS
  1
ACMSTANDARDANSI
  2
AcmStandardANSI
  3
"AcmSymBB|Product Description: AutoCAD Mechanical 2000|Company: Autodesk"
 90
        0
280
     0
281
     0
  0
CLASS
  1
ACMSURFSTANDARDANSI
  2
AcmSurfTextStdANSI
  3
"AcmSymBB|Product Description: AutoCAD Mechanical 2000|Company: Autodesk"
 90
        0
280
     0
281
     0
  0
CLASS
  1
ACMFCFSTANDARDANSI
  2
AcmFCFStdANSI
  3
"AcmSymBB|Product Description: AutoCAD Mechanical 2000|Company: Autodesk"
 90
        0
280
     0
281
     0
  0
CLASS
  1
ACMWELDSTANDARDANSI
  2
AcmWeldingStdANSI
  3
"AcmSymBB|Product Description: AutoCAD Mechanical 2000|Company: Autodesk"
 90
        0
280
     0
281
     0
  0
CLASS
  1
ACMIDSTANDARDANSI
  2
AcmIdStdANSI
  3
"AcmSymBB|Product Description: AutoCAD Mechanical 2000|Company: Autodesk"
 90
        0
280
     0
281
     0
  0
CLASS
  1
ACMDATUMSTANDARDANSI
  2
AcmDatumStdANSI
  3
"AcmSymBB|Product Description: AutoCAD Mechanical 2000|Company: Autodesk"
 90
        0
280
     0
281
     0
  0
CLASS
  1
ACMBOMSTANDARDANSI
  2
AcmBOMStdANSI
  3
"AcmSymBB|Product Description: AutoCAD Mechanical 2000|Company: Autodesk"
 90
        0
280
     0
281
     0
  0
CLASS
  1
ACMSTANDARDBSI
  2
AcmStandardBSI
  3
"AcmSymBB|Product Description: AutoCAD Mechanical 2000|Company: Autodesk"
 90
        0
280
     0
281
     0
  0
CLASS
  1
ACMSURFSTANDARDBSI
  2
AcmSurfTextStdBSI
  3
"AcmSymBB|Product Description: AutoCAD Mechanical 2000|Company: Autodesk"
 90
        0
280
     0
281
     0
  0
CLASS
  1
ACMFCFSTANDARDBSI
  2
AcmFCFStdBSI
  3
"AcmSymBB|Product Description: AutoCAD Mechanical 2000|Company: Autodesk"
 90
        0
280
     0
281
     0
  0
CLASS
  1
ACMWELDSTANDARDBSI
  2
AcmWeldingStdBSI
  3
"AcmSymBB|Product Description: AutoCAD Mechanical 2000|Company: Autodesk"
 90
        0
280
     0
281
     0
  0
CLASS
  1
ACMIDSTANDARDBSI
  2
AcmIdStdBSI
  3
"AcmSymBB|Product Description: AutoCAD Mechanical 2000|Company: Autodesk"
 90
        0
280
     0
281
     0
  0
CLASS
  1
ACMDATUMSTANDARDBSI
  2
AcmDatumStdBSI
  3
"AcmSymBB|Product Description: AutoCAD Mechanical 2000|Company: Autodesk"
 90
        0
280
     0
281
     0
  0
CLASS
  1
ACMBOMSTANDARDBSI
  2
AcmBOMStdBSI
  3
"AcmSymBB|Product Description: AutoCAD Mechanical 2000|Company: Autodesk"
 90
        0
280
     0
281
     0
  0
CLASS
  1
STDPART2D
  2
AmgStdPart
  3
"AmgStdPart|Product Description: AutoCAD Mechanical 2000|Company: Autodesk"
 90
     1023
280
     0
281
     1
  0
CLASS
  1
PLOTSETTINGS
  2
AcDbPlotSettings
  3
AutoCAD 2000
 90
        0
280
     0
281
     0
  0
CLASS
  1
LONG_TRANSACTION
  2
AcDbLongTransaction
  3
AutoCAD 2000
 90
        0
280
     0
281
     0
  0
CLASS
  1
LWPOLYLINE
  2
AcDbPolyline
  3
AutoCAD 2000
 90
        0
280
     0
281
     1
  0
CLASS
  1
HATCH
  2
AcDbHatch
  3
AutoCAD 2000
 90
        0
280
     0
281
     1
  0
CLASS
  1
XRECORD
  2
AcDbXrecord
  3
AutoCAD 2000
 90
        0
280
     0
281
     0
  0
ENDSEC
  0
SECTION
  2
TABLES
  0
TABLE
  2
VPORT
  5
8
330
0
100
AcDbSymbolTable
 70
     3
  0
VPORT
  5
D94F
330
8
100
AcDbSymbolTableRecord
100
AcDbViewportTableRecord
  2
*ACTIVE
 70
     0
 10
0.0
 20
0.0
 11
1.0
 21
1.0
 12
-89.27159398553937
 22
-3.909799011369898
 13
0.0
 23
0.0
 14
2.5
 24
2.5
 15
10.0
 25
10.0
 16
0.0
 26
0.0
 36
1.0
 17
0.0
 27
0.0
 37
0.0
 40
134.6337991204116
 41
1.56570841889117
 42
50.0
 43
0.0
 44
0.0
 50
0.0
 51
0.0
 71
     0
 72
   100
 73
     1
 74
     3
 75
     0
 76
     0
 77
     0
 78
     0
  0
ENDTAB
  0
TABLE
  2
LTYPE
  5
5
330
0
100
AcDbSymbolTable
 70
    10
  0
LTYPE
  5
14
330
5
100
AcDbSymbolTableRecord
100
AcDbLinetypeTableRecord
  2
BYBLOCK
 70
     0
  3

 72
    65
 73
     0
 40
0.0
  0
LTYPE
  5
15
330
5
100
AcDbSymbolTableRecord
100
AcDbLinetypeTableRecord
  2
BYLAYER
 70
     0
  3

 72
    65
 73
     0
 40
0.0
  0
LTYPE
  5
16
330
5
100
AcDbSymbolTableRecord
100
AcDbLinetypeTableRecord
  2
CONTINUOUS
 70
     0
  3
Solid line
 72
    65
 73
     0
 40
0.0
  0
LTYPE
  5
4B
330
5
100
AcDbSymbolTableRecord
100
AcDbLinetypeTableRecord
  2
AM_ISO02W050
 70
     0
  3
__ __ __ __ __ __ __ __ __ __ __ __ __ __ __
 72
    65
 73
     2
 40
7.5
 49
6.0
 74
     0
 49
-1.5
 74
     0
  0
LTYPE
  5
4C
330
5
100
AcDbSymbolTableRecord
100
AcDbLinetypeTableRecord
  2
AM_ISO08W050
 70
     0
  3
____ . ____ . ____ . ____ . ____ . ____ . ____
 72
    65
 73
     4
 40
18.0
 49
12.0
 74
     0
 49
-1.5
 74
     0
 49
3.0
 74
     0
 49
-1.5
 74
     0
  0
LTYPE
  5
4D
330
5
100
AcDbSymbolTableRecord
100
AcDbLinetypeTableRecord
  2
AM_ISO09W050
 70
     0
  3
_____ . . _____ . . _____ . . ____ .. ____
 72
    65
 73
     6
 40
22.5
 49
12.0
 74
     0
 49
-1.5
 74
     0
 49
3.0
 74
     0
 49
-1.5
 74
     0
 49
3.0
 74
     0
 49
-1.5
 74
     0
  0
LTYPE
  5
4E
330
5
100
AcDbSymbolTableRecord
100
AcDbLinetypeTableRecord
  2
AMCONSTR
 70
     0
  3
_______________________
 72
    65
 73
     2
 40
9999.0
 49
9999.0
 74
     0
 49
0.0
 74
     0
  0
LTYPE
  5
4F
330
5
100
AcDbSymbolTableRecord
100
AcDbLinetypeTableRecord
  2
AM_ISO02W050X2
 70
     0
  3
 _ _ _ _ _ _ _ _ _ _ _ _
 72
    65
 73
     2
 40
3.75
 49
3.0
 74
     0
 49
-0.75
 74
     0
  0
LTYPE
  5
50
330
5
100
AcDbSymbolTableRecord
100
AcDbLinetypeTableRecord
  2
AM_ISO08W050X2
 70
     0
  3
__ . __ . __ . __ . __ . __
 72
    65
 73
     4
 40
9.0
 49
6.0
 74
     0
 49
-0.75
 74
     0
 49
1.5
 74
     0
 49
-0.75
 74
     0
  0
LTYPE
  5
53
330
5
100
AcDbSymbolTableRecord
100
AcDbLinetypeTableRecord
  2
AMZIGZAG
 70
     0
  3
/\/-/\/-/\/-/\/-/\/-/\/
 72
    65
 73
     2
 40
11.00009999999999
 49
0.0001
 74
     4
 75
   135
340
52
 46
0.04
 50
0.0
 44
0.0
 45
0.0
 49
-11.0
 74
     0
  0
LTYPE
  5
166
330
5
100
AcDbSymbolTableRecord
100
AcDbLinetypeTableRecord
  2
ACJISTGL
 70
     0
  3
_ _ _ _ _
 72
    65
 73
     2
 40
3.0
 49
2.0
 74
     0
 49
-1.0
 74
     0
  0
LTYPE
  5
26A
330
5
100
AcDbSymbolTableRecord
100
AcDbLinetypeTableRecord
  2
ACJISTGB
 70
     0
  3
__ . . __ . .
 72
    65
 73
     6
 40
9.0
 49
4.0
 74
     0
 49
-1.0
 74
     0
 49
1.0
 74
     0
 49
-1.0
 74
     0
 49
1.0
 74
     0
 49
-1.0
 74
     0
  0
ENDTAB
  0
TABLE
  2
LAYER
  5
2
330
0
100
AcDbSymbolTable
 70
     7
  0
LAYER
  5
10
330
2
100
AcDbSymbolTableRecord
100
AcDbLayerTableRecord
  2
0
 70
     0
 62
     7
  6
CONTINUOUS
  0
LAYER
  5
3F9
330
2
100
AcDbSymbolTableRecord
100
AcDbLayerTableRecord
  2
AM_0
 70
     0
 62
     7
  6
CONTINUOUS
  0
LAYER
  5
BA4
330
2
100
AcDbSymbolTableRecord
100
AcDbLayerTableRecord
  2
AM_5
 70
     0
 62
     3
  6
CONTINUOUS
  0
LAYER
  5
BA6
330
2
100
AcDbSymbolTableRecord
100
AcDbLayerTableRecord
  2
AM_7
 70
     0
 62
     4
  6
AM_ISO08W050
  0
LAYER
  5
E64
330
2
100
AcDbSymbolTableRecord
100
AcDbLayerTableRecord
  2
AM_6
 70
     0
 62
     2
  6
CONTINUOUS
  0
LAYER
  5
F4D
330
2
100
AcDbSymbolTableRecord
100
AcDbLayerTableRecord
  2
DEFPOINTS
 70
     0
 62
     7
  6
CONTINUOUS
  0
LAYER
  5
4E80
330
2
100
AcDbSymbolTableRecord
100
AcDbLayerTableRecord
  2
AM_11
 70
     0
 62
     3
  6
AM_ISO09W050
  0
ENDTAB
  0
TABLE
  2
STYLE
  5
3
330
0
100
AcDbSymbolTable
 70
     5
  0
STYLE
  5
11
330
3
100
AcDbSymbolTableRecord
100
AcDbTextStyleTableRecord
  2
STANDARD
 70
     0
 40
0.0
 41
1.0
 50
0.0
 71
     0
 42
2.5
  3
simplex.shx
  4
EXTFONT.SHX
  0
STYLE
  5
52
330
3
100
AcDbSymbolTableRecord
100
AcDbTextStyleTableRecord
  2

 70
     1
 40
0.0
 41
1.0
 50
0.0
 71
     0
 42
2.5
  3
ltypeshp.shx
  4

  0
STYLE
  5
6B
330
3
100
AcDbSymbolTableRecord
100
AcDbTextStyleTableRecord
  2
ASAMI
 70
     0
 40
0.0
 41
1.0
 50
0.0
 71
     0
 42
2.5
  3
simplex.shx
  4
EXTFONT.SHX
  0
STYLE
  5
262
330
3
100
AcDbSymbolTableRecord
100
AcDbTextStyleTableRecord
  2
ACJISTS
 70
     0
 40
1.0
 41
1.0
 50
0.0
 71
     0
 42
2.5
  3
simplex.shx
  4
bigfont.shx
  0
STYLE
  5
269
330
3
100
AcDbSymbolTableRecord
100
AcDbTextStyleTableRecord
  2
ACJISGDT
 70
     0
 40
0.0
 41
1.0
 50
0.0
 71
     0
 42
2.5
  3
amgdtans.shx
  4

  0
ENDTAB
  0
TABLE
  2
VIEW
  5
6
330
0
100
AcDbSymbolTable
 70
     0
  0
ENDTAB
  0
TABLE
  2
UCS
  5
7
330
0
100
AcDbSymbolTable
 70
     0
  0
ENDTAB
  0
TABLE
  2
APPID
  5
9
330
0
100
AcDbSymbolTable
 70
    24
  0
APPID
  5
12
330
9
100
AcDbSymbolTableRecord
100
AcDbRegAppTableRecord
  2
ACAD
 70
     0
  0
APPID
  5
30
330
9
100
AcDbSymbolTableRecord
100
AcDbRegAppTableRecord
  2
MCAD_NO_VIS
 70
     0
  0
APPID
  5
31
330
9
100
AcDbSymbolTableRecord
100
AcDbRegAppTableRecord
  2
ACAD_TEMP_GRAPHIC
 70
     0
  0
APPID
  5
2C2
330
9
100
AcDbSymbolTableRecord
100
AcDbRegAppTableRecord
  2
GENIUS_GENDTOL_13
 70
     0
  0
APPID
  5
339
330
9
100
AcDbSymbolTableRecord
100
AcDbRegAppTableRecord
  2
GENIUS_GENODEF_13
 70
     0
  0
APPID
  5
33A
330
9
100
AcDbSymbolTableRecord
100
AcDbRegAppTableRecord
  2
GENIUS_GENOBJ-N-RSBK_13
 70
     0
  0
APPID
  5
33B
330
9
100
AcDbSymbolTableRecord
100
AcDbRegAppTableRecord
  2
GENIUS_GENOBJ-N-LIB_13
 70
     0
  0
APPID
  5
33C
330
9
100
AcDbSymbolTableRecord
100
AcDbRegAppTableRecord
  2
GENIUS_GENSCALE_13
 70
     0
  0
APPID
  5
378
330
9
100
AcDbSymbolTableRecord
100
AcDbRegAppTableRecord
  2
GENIUS_GENDIMSH_14
 70
     0
  0
APPID
  5
BB0
330
9
100
AcDbSymbolTableRecord
100
AcDbRegAppTableRecord
  2
GENIUS_GENOBJ-N-CEN_13
 70
     0
  0
APPID
  5
BB1
330
9
100
AcDbSymbolTableRecord
100
AcDbRegAppTableRecord
  2
GENIUS_GENFIL_13
 70
     0
  0
APPID
  5
BB2
330
9
100
AcDbSymbolTableRecord
100
AcDbRegAppTableRecord
  2
GENIUS_GENOBJ-N-CHA_13
 70
     0
  0
APPID
  5
1FAF
330
9
100
AcDbSymbolTableRecord
100
AcDbRegAppTableRecord
  2
GENIUS_GENOBJ-N-CRS_13
 70
     0
  0
APPID
  5
1FB0
330
9
100
AcDbSymbolTableRecord
100
AcDbRegAppTableRecord
  2
GENIUS_GENOENT_13
 70
     0
  0
APPID
  5
1FB1
330
9
100
AcDbSymbolTableRecord
100
AcDbRegAppTableRecord
  2
GENIUS_GENOREF_13
 70
     0
  0
APPID
  5
1FB2
330
9
100
AcDbSymbolTableRecord
100
AcDbRegAppTableRecord
  2
GENIUS_GENOLIS_13
 70
     0
  0
APPID
  5
1FB7
330
9
100
AcDbSymbolTableRecord
100
AcDbRegAppTableRecord
  2
GENIUS_GENOBJ-N-FIL_13
 70
     0
  0
APPID
  5
22A8
330
9
100
AcDbSymbolTableRecord
100
AcDbRegAppTableRecord
  2
GEVID1056506048
 70
     0
  0
APPID
  5
22A9
330
9
100
AcDbSymbolTableRecord
100
AcDbRegAppTableRecord
  2
GEVDC
 70
     0
  0
APPID
  5
22AC
330
9
100
AcDbSymbolTableRecord
100
AcDbRegAppTableRecord
  2
GENIUS_GENBH_13
 70
     0
  0
APPID
  5
22B8
330
9
100
AcDbSymbolTableRecord
100
AcDbRegAppTableRecord
  2
GENIUS_GENOBJ-NBEHI-BHF_13
 70
     0
  0
APPID
  5
22BA
330
9
100
AcDbSymbolTableRecord
100
AcDbRegAppTableRecord
  2
GENIUS_GENOBJ-NBEHI-BHB_13
 70
     0
  0
APPID
  5
35C9
330
9
100
AcDbSymbolTableRecord
100
AcDbRegAppTableRecord
  2
GENIUS_GENREC_14
 70
     0
  0
APPID
  5
35CA
330
9
100
AcDbSymbolTableRecord
100
AcDbRegAppTableRecord
  2
GENIUS_GENOBJ-N-REC_13
 70
     0
  0
ENDTAB
  0
TABLE
  2
DIMSTYLE
  5
A
330
0
100
AcDbSymbolTable
 70
     9
  0
DIMSTYLE
105
58
330
A
100
AcDbSymbolTableRecord
100
AcDbDimStyleTableRecord
  2
AM_JIS
 70
     0
  3

  4
"
  5
OPEN30
  6

  7

 40
0.5
 41
2.5
 42
1.0
 43
12.0
 44
1.0
 45
0.0
 46
0.0
 47
0.1
 48
0.1
140
3.2
141
0.0
142
0.0
143
0.0393701
144
1.0
145
0.0
146
0.71
147
1.5
 71
     0
 72
     0
 73
     0
 74
     0
 75
     0
 76
     0
 77
     3
 78
     8
170
     0
171
     2
172
     1
173
     0
174
     0
175
     0
176
   256
177
   256
178
     2
270
     2
271
     3
272
     3
273
     2
274
     2
340
6B
275
     0
280
     0
281
     0
282
     0
283
     0
284
     0
285
     0
286
     0
287
     3
288
     0
  0
DIMSTYLE
105
5F
330
A
100
AcDbSymbolTableRecord
100
AcDbDimStyleTableRecord
  2
AM_JIS$3
 70
     0
  3

  4
"
  5
OPEN30
  6

  7

 40
0.5
 41
2.5
 42
1.0
 43
10.0
 44
1.0
 45
0.0
 46
0.0
 47
0.1
 48
0.1
140
3.2
141
0.0
142
0.0
143
0.0393701
144
1.0
145
0.0
146
0.71
147
1.5
 71
     0
 72
     0
 73
     0
 74
     1
 75
     0
 76
     0
 77
     3
 78
     8
170
     0
171
     2
172
     0
173
     0
174
     0
175
     0
176
   256
177
   256
178
     2
270
     2
271
     2
272
     3
273
     2
274
     2
340
6B
275
     0
280
     0
281
     0
282
     0
283
     0
284
     0
285
     0
286
     0
287
     0
288
     1
  0
DIMSTYLE
105
60
330
A
100
AcDbSymbolTableRecord
100
AcDbDimStyleTableRecord
  2
AM_JIS$4
 70
     0
  3

  4
"
  5
OPEN30
  6

  7

 40
0.5
 41
2.5
 42
1.0
 43
10.0
 44
1.0
 45
0.0
 46
0.0
 47
0.1
 48
0.1
140
3.2
141
0.0
142
0.0
143
0.0393701
144
1.0
145
0.0
146
0.71
147
1.5
 71
     0
 72
     0
 73
     0
 74
     1
 75
     0
 76
     0
 77
     3
 78
     8
170
     0
171
     2
172
     0
173
     0
174
     0
175
     0
176
   256
177
   256
178
     2
270
     2
271
     2
272
     3
273
     2
274
     2
340
6B
275
     0
280
     0
281
     0
282
     0
283
     0
284
     0
285
     0
286
     0
287
     0
288
     1
  0
DIMSTYLE
105
61
330
A
100
AcDbSymbolTableRecord
100
AcDbDimStyleTableRecord
  2
AM_JIS$6
 70
     0
  3

  4
"
  5
OPEN30
  6

  7

 40
0.5
 41
2.5
 42
1.0
 43
10.0
 44
1.0
 45
0.0
 46
0.0
 47
0.1
 48
0.1
140
3.2
141
0.0
142
0.0
143
0.0393701
144
1.0
145
0.0
146
0.71
147
1.5
 71
     0
 72
     0
 73
     0
 74
     0
 75
     0
 76
     0
 77
     0
 78
     8
170
     0
171
     2
172
     1
173
     0
174
     0
175
     0
176
   256
177
   256
178
     2
270
     2
271
     2
272
     2
273
     2
274
     2
340
6B
275
     0
280
     0
281
     0
282
     0
283
     0
284
     0
285
     0
286
     0
287
     3
288
     0
  0
DIMSTYLE
105
62
330
A
100
AcDbSymbolTableRecord
100
AcDbDimStyleTableRecord
  2
AM_JIS$7
 70
     0
  3

  4
"
  5
OPEN30
  6

  7

 40
0.5
 41
2.5
 42
1.0
 43
10.0
 44
1.0
 45
0.0
 46
0.0
 47
0.1
 48
0.1
140
3.2
141
0.0
142
0.0
143
0.0393701
144
1.0
145
0.0
146
0.71
147
1.5
 71
     0
 72
     0
 73
     0
 74
     0
 75
     0
 76
     0
 77
     3
 78
     8
170
     0
171
     2
172
     1
173
     0
174
     0
175
     0
176
   256
177
   256
178
     2
270
     2
271
     2
272
     3
273
     2
274
     2
340
6B
275
     0
280
     0
281
     0
282
     0
283
     0
284
     0
285
     0
286
     0
287
     3
288
     0
  0
DIMSTYLE
105
63
330
A
100
AcDbSymbolTableRecord
100
AcDbDimStyleTableRecord
  2
AM_JIS$SF
 70
     0
  3

  4
"
  5
OPEN30
  6

  7

 40
0.5
 41
2.5
 42
1.0
 43
10.0
 44
1.0
 45
0.0
 46
0.0
 47
0.1
 48
0.1
140
3.2
141
0.0
142
0.0
143
0.0393701
144
1.0
145
0.0
146
0.71
147
1.5
 71
     0
 72
     0
 73
     0
 74
     0
 75
     1
 76
     1
 77
     3
 78
     8
170
     0
171
     2
172
     1
173
     0
174
     0
175
     0
176
   256
177
   256
178
     2
270
     2
271
     2
272
     2
273
     2
274
     2
340
6B
275
     0
280
     0
281
     0
282
     0
283
     0
284
     0
285
     0
286
     0
287
     3
288
     0
  0
DIMSTYLE
105
68
330
A
100
AcDbSymbolTableRecord
100
AcDbDimStyleTableRecord
  2
AM_JIS$SH
 70
     0
  3

  4
"
  5

  6
GENAXEH
  7
OPEN30
 40
0.5
 41
2.5
 42
1.0
 43
10.0
 44
1.0
 45
0.0
 46
0.0
 47
0.1
 48
0.1
140
3.2
141
0.0
142
0.0
143
0.0393701
144
2.0
145
0.0
146
0.71
147
1.5
 71
     0
 72
     0
 73
     0
 74
     0
 75
     1
 76
     1
 77
     3
 78
     8
170
     0
171
     2
172
     1
173
     1
174
     0
175
     0
176
   256
177
   256
178
     2
270
     2
271
     2
272
     2
273
     2
274
     2
340
6B
275
     0
280
     0
281
     0
282
     0
283
     0
284
     0
285
     0
286
     0
287
     3
288
     0
  0
DIMSTYLE
105
B34
330
A
100
AcDbSymbolTableRecord
100
AcDbDimStyleTableRecord
  2
AM_JIS$2
 70
     0
  3

  4
"
  5
OPEN30
  6

  7

 40
0.5
 41
2.5
 42
1.0
 43
12.0
 44
1.0
 45
0.0
 46
0.0
 47
0.1
 48
0.1
140
3.2
141
0.0
142
0.0
143
0.0393701
144
1.0
145
0.0
146
0.71
147
1.5
 71
     0
 72
     0
 73
     0
 74
     0
 75
     0
 76
     0
 77
     3
 78
     8
170
     0
171
     2
172
     1
173
     0
174
     0
175
     0
176
   256
177
   256
178
     2
270
     2
271
     3
272
     3
273
     2
274
     2
340
6B
275
     0
280
     0
281
     0
282
     0
283
     0
284
     0
285
     0
286
     0
287
     3
288
     0
  0
DIMSTYLE
105
3B48
102
{ACAD_REACTORS
330
D3D8
330
D34C
330
D2A6
330
D4A5
330
D543
330
D6C7
330
D5D8
102
}
330
A
100
AcDbSymbolTableRecord
100
AcDbDimStyleTableRecord
  2
AM_JIS$0
 70
     0
  3

  4
"
  5
OPEN30
  6

  7

 40
1.0
 41
2.5
 42
0.0
 43
10.0
 44
1.0
 45
0.0
 46
0.0
 47
0.1
 48
0.1000000001
140
3.799999999999999
141
0.0
142
0.0
143
0.0393701
144
1.0
145
0.0
146
0.71
147
1.5
 71
     0
 72
     0
 73
     0
 74
     0
 75
     0
 76
     0
 77
     3
 78
     1
170
     0
171
     2
172
     1
173
     0
174
     0
175
     0
176
     3
177
     3
178
     2
270
     2
271
     2
272
     2
273
     2
274
     2
340
11
275
     1
280
     0
281
     0
282
     0
283
     0
284
     8
285
     0
286
     0
287
     0
288
     0
  0
ENDTAB
  0
TABLE
  2
BLOCK_RECORD
  5
1
330
0
100
AcDbSymbolTable
 70
    12
  0
BLOCK_RECORD
  5
1F
102
{ACAD_XDICTIONARY
360
74
102
}
330
1
100
AcDbSymbolTableRecord
100
AcDbBlockTableRecord
  2
*MODEL_SPACE
  0
BLOCK_RECORD
  5
101
102
{ACAD_XDICTIONARY
360
D978
102
}
330
1
100
AcDbSymbolTableRecord
100
AcDbBlockTableRecord
  2
*PAPER_SPACE
  0
BLOCK_RECORD
  5
59
330
1
100
AcDbSymbolTableRecord
100
AcDbBlockTableRecord
  2
_OPEN30
  0
BLOCK_RECORD
  5
64
330
1
100
AcDbSymbolTableRecord
100
AcDbBlockTableRecord
  2
GENAXEH
  0
BLOCK_RECORD
  5
D2A7
330
1
100
AcDbSymbolTableRecord
100
AcDbBlockTableRecord
  2
*D5
  0
BLOCK_RECORD
  5
D34D
330
1
100
AcDbSymbolTableRecord
100
AcDbBlockTableRecord
  2
*D6
  0
BLOCK_RECORD
  5
D3D9
330
1
100
AcDbSymbolTableRecord
100
AcDbBlockTableRecord
  2
*D7
  0
BLOCK_RECORD
  5
D4A6
330
1
100
AcDbSymbolTableRecord
100
AcDbBlockTableRecord
  2
*D8
  0
BLOCK_RECORD
  5
D544
330
1
100
AcDbSymbolTableRecord
100
AcDbBlockTableRecord
  2
*D9
  0
BLOCK_RECORD
  5
D5D9
330
1
100
AcDbSymbolTableRecord
100
AcDbBlockTableRecord
  2
*D10
  0
BLOCK_RECORD
  5
D6C8
330
1
100
AcDbSymbolTableRecord
100
AcDbBlockTableRecord
  2
*D11
  0
ENDTAB
  0
ENDSEC
  0
SECTION
  2
BLOCKS
  0
BLOCK
  5
20
330
1F
100
AcDbEntity
  8
0
100
AcDbBlockBegin
  2
*MODEL_SPACE
 70
     0
 10
0.0
 20
0.0
 30
0.0
  3
*MODEL_SPACE
  1

  0
ENDBLK
  5
21
330
1F
100
AcDbEntity
  8
0
100
AcDbBlockEnd
  0
BLOCK
  5
103
330
101
100
AcDbEntity
 67
     1
  8
0
100
AcDbBlockBegin
  2
*PAPER_SPACE
 70
     0
 10
0.0
 20
0.0
 30
0.0
  3
*PAPER_SPACE
  1

  0
ENDBLK
  5
104
330
101
100
AcDbEntity
 67
     1
  8
0
100
AcDbBlockEnd
  0
BLOCK
  5
5D
330
59
100
AcDbEntity
  8
0
100
AcDbBlockBegin
  2
_OPEN30
 70
     0
 10
0.0
 20
0.0
 30
0.0
  3
_OPEN30
  1

  0
LINE
  5
5A
330
59
100
AcDbEntity
  8
0
 62
     0
100
AcDbLine
 10
-1.0
 20
0.26794919
 30
0.0
 11
0.0
 21
0.0
 31
0.0
  0
LINE
  5
5B
330
59
100
AcDbEntity
  8
0
 62
     0
100
AcDbLine
 10
0.0
 20
0.0
 30
0.0
 11
-1.0
 21
-0.26794919
 31
0.0
  0
LINE
  5
5C
330
59
100
AcDbEntity
  8
0
 62
     0
100
AcDbLine
 10
0.0
 20
0.0
 30
0.0
 11
-1.0
 21
0.0
 31
0.0
  0
ENDBLK
  5
5E
330
59
100
AcDbEntity
  8
0
100
AcDbBlockEnd
  0
BLOCK
  5
66
330
64
100
AcDbEntity
  8
0
100
AcDbBlockBegin
  2
GENAXEH
 70
     0
 10
0.0
 20
0.0
 30
0.0
  3
GENAXEH
  1

  0
LINE
  5
65
330
64
100
AcDbEntity
  8
0
100
AcDbLine
 10
-1.0
 20
0.0
 30
0.0
 11
1.0
 21
0.0
 31
0.0
  0
ENDBLK
  5
67
330
64
100
AcDbEntity
  8
0
100
AcDbBlockEnd
  0
BLOCK
  5
D2B1
330
D2A7
100
AcDbEntity
  8
0
100
AcDbBlockBegin
  2
*D5
 70
     1
 10
0.0
 20
0.0
 30
0.0
  3
*D5
  1

  0
LINE
  5
D97A
330
D2A7
100
AcDbEntity
  8
AM_5
100
AcDbLine
 10
-5.000000000000324
 20
13.0000000000001
 30
0.0
 11
-5.000000000000325
 21
20.00000000000014
 31
0.0
  0
LINE
  5
D97B
330
D2A7
100
AcDbEntity
  8
AM_5
100
AcDbLine
 10
-0.0000000000003167
 20
13.00000000000014
 30
0.0
 11
-0.000000000000318
 21
20.00000000000014
 31
0.0
  0
LINE
  5
D97C
330
D2A7
100
AcDbEntity
  8
AM_5
100
AcDbLine
 10
-3.750000000000325
 20
19.50000000000014
 30
0.0
 11
-1.250000000000317
 21
19.50000000000014
 31
0.0
  0
INSERT
  5
D97D
330
D2A7
100
AcDbEntity
  8
AM_5
100
AcDbBlockReference
  2
_OPEN30
 10
-5.000000000000325
 20
19.50000000000014
 30
0.0
 41
1.25
 42
1.25
 43
1.25
 50
180.0
  0
INSERT
  5
D97E
330
D2A7
100
AcDbEntity
  8
AM_5
100
AcDbBlockReference
  2
_OPEN30
 10
-0.0000000000003179
 20
19.50000000000014
 30
0.0
 41
1.25
 42
1.25
 43
1.25
  0
MTEXT
  5
D97F
330
D2A7
100
AcDbEntity
  8
AM_5
 62
     2
100
AcDbMText
 10
-2.500000000000322
 20
21.05000000000014
 30
0.0
 40
1.6
 41
0.0
 71
     5
 72
     1
  1
5
  7
ASAMI
  0
POINT
  5
D980
330
D2A7
100
AcDbEntity
  8
DEFPOINTS
 62
     0
100
AcDbPoint
 10
-5.000000000000298
 20
12.50000000000011
 30
0.0
  0
POINT
  5
D981
330
D2A7
100
AcDbEntity
  8
DEFPOINTS
 62
     0
100
AcDbPoint
 10
-0.0000000000002913
 20
12.50000000000014
 30
0.0
  0
POINT
  5
D982
330
D2A7
100
AcDbEntity
  8
DEFPOINTS
 62
     0
100
AcDbPoint
 10
-0.0000000000002785
 20
19.50000000000014
 30
0.0
  0
ENDBLK
  5
D2B2
330
D2A7
100
AcDbEntity
  8
0
100
AcDbBlockEnd
  0
BLOCK
  5
D357
330
D34D
100
AcDbEntity
  8
0
100
AcDbBlockBegin
  2
*D6
 70
     1
 10
0.0
 20
0.0
 30
0.0
  3
*D6
  1

  0
LINE
  5
D983
330
D34D
100
AcDbEntity
  8
AM_5
100
AcDbLine
 10
0.499999999999681
 20
12.50000000000014
 30
0.0
 11
7.499999999999732
 21
12.50000000000015
 31
0.0
  0
LINE
  5
D984
330
D34D
100
AcDbEntity
  8
AM_5
100
AcDbLine
 10
0.4999999999997791
 20
-12.49999999999981
 30
0.0
 11
7.499999999999782
 21
-12.4999999999998
 31
0.0
  0
LINE
  5
D985
330
D34D
100
AcDbEntity
  8
AM_5
100
AcDbLine
 10
6.999999999999735
 20
11.25000000000015
 30
0.0
 11
6.999999999999779
 21
-11.2499999999998
 31
0.0
  0
INSERT
  5
D986
330
D34D
100
AcDbEntity
  8
AM_5
100
AcDbBlockReference
  2
_OPEN30
 10
6.999999999999732
 20
12.50000000000015
 30
0.0
 41
1.25
 42
1.25
 43
1.25
 50
90.0000000000001
  0
INSERT
  5
D987
330
D34D
100
AcDbEntity
  8
AM_5
100
AcDbBlockReference
  2
_OPEN30
 10
6.999999999999782
 20
-12.4999999999998
 30
0.0
 41
1.25
 42
1.25
 43
1.25
 50
270.0000000000001
  0
MTEXT
  5
D988
330
D34D
100
AcDbEntity
  8
AM_5
 62
     2
100
AcDbMText
 10
5.449999999999757
 20
0.0000000000001742
 30
0.0
 40
1.6
 41
0.0
 71
     5
 72
     1
  1
%%c25
  7
ASAMI
 11
-0.000000000000002
 21
1.0
 31
0.0
  0
POINT
  5
D989
330
D34D
100
AcDbEntity
  8
DEFPOINTS
 62
     0
100
AcDbPoint
 10
-0.0000000000002913
 20
12.50000000000014
 30
0.0
  0
POINT
  5
D98A
330
D34D
100
AcDbEntity
  8
DEFPOINTS
 62
     0
100
AcDbPoint
 10
-0.0000000000002487
 20
-12.49999999999981
 30
0.0
  0
POINT
  5
D98B
330
D34D
100
AcDbEntity
  8
DEFPOINTS
 62
     0
100
AcDbPoint
 10
6.999999999999754
 20
-12.49999999999981
 30
0.0
  0
ENDBLK
  5
D358
330
D34D
100
AcDbEntity
  8
0
100
AcDbBlockEnd
  0
BLOCK
  5
D3E3
330
D3D9
100
AcDbEntity
  8
0
100
AcDbBlockBegin
  2
*D7
 70
     1
 10
0.0
 20
0.0
 30
0.0
  3
*D7
  1

  0
LINE
  5
D98C
330
D3D9
100
AcDbEntity
  8
AM_5
100
AcDbLine
 10
-51.07357712874055
 20
9.249999999993933
 30
0.0
 11
-51.07357712874051
 21
-9.250007629395069
 31
0.0
  0
INSERT
  5
D98D
330
D3D9
100
AcDbEntity
  8
AM_5
100
AcDbBlockReference
  2
_OPEN30
 10
-51.07357712874055
 20
10.49999999999393
 30
0.0
 41
1.25
 42
1.25
 43
1.25
 50
90.0000000000001
  0
INSERT
  5
D98E
330
D3D9
100
AcDbEntity
  8
AM_5
100
AcDbBlockReference
  2
_OPEN30
 10
-51.07357712874051
 20
-10.50000762939506
 30
0.0
 41
1.25
 42
1.25
 43
1.25
 50
270.0000000000001
  0
MTEXT
  5
D98F
330
D3D9
100
AcDbEntity
  8
AM_5
 62
     2
100
AcDbMText
 10
-52.62357712874053
 20
4.293486801056994
 30
0.0
 40
1.6
 41
0.0
 71
     5
 72
     1
  1
%%c21
  7
ASAMI
 11
-0.000000000000002
 21
1.0
 31
0.0
  0
POINT
  5
D990
330
D3D9
100
AcDbEntity
  8
DEFPOINTS
 62
     0
100
AcDbPoint
 10
-58.07357712874029
 20
10.49999999999404
 30
0.0
  0
POINT
  5
D991
330
D3D9
100
AcDbEntity
  8
DEFPOINTS
 62
     0
100
AcDbPoint
 10
-58.07357734729721
 20
-10.50000762939495
 30
0.0
  0
POINT
  5
D992
330
D3D9
100
AcDbEntity
  8
DEFPOINTS
 62
     0
100
AcDbPoint
 10
-51.07357712874053
 20
-10.50000762939495
 30
0.0
  0
ENDBLK
  5
D3E4
330
D3D9
100
AcDbEntity
  8
0
100
AcDbBlockEnd
  0
BLOCK
  5
D4B0
330
D4A6
100
AcDbEntity
  8
0
100
AcDbBlockBegin
  2
*D8
 70
     1
 10
0.0
 20
0.0
 30
0.0
  3
*D8
  1

  0
LINE
  5
D993
330
D4A6
100
AcDbEntity
  8
AM_5
100
AcDbLine
 10
-177.5000000000003
 20
12.4999999999934
 30
0.0
 11
-187.5000000000002
 21
12.49999999999338
 31
0.0
  0
LINE
  5
D994
330
D4A6
100
AcDbEntity
  8
AM_5
100
AcDbLine
 10
-177.5000000000002
 20
-12.50000762939559
 30
0.0
 11
-187.5000000000001
 21
-12.50000762939561
 31
0.0
  0
LINE
  5
D995
330
D4A6
100
AcDbEntity
  8
AM_5
100
AcDbLine
 10
-187.0000000000002
 20
11.24999999999338
 30
0.0
 11
-187.0000000000002
 21
-11.25000762939561
 31
0.0
  0
INSERT
  5
D996
330
D4A6
100
AcDbEntity
  8
AM_5
100
AcDbBlockReference
  2
_OPEN30
 10
-187.0000000000002
 20
12.49999999999339
 30
0.0
 41
1.25
 42
1.25
 43
1.25
 50
90.0000000000001
  0
INSERT
  5
D997
330
D4A6
100
AcDbEntity
  8
AM_5
100
AcDbBlockReference
  2
_OPEN30
 10
-187.0000000000002
 20
-12.50000762939561
 30
0.0
 41
1.25
 42
1.25
 43
1.25
 50
270.0000000000001
  0
MTEXT
  5
D998
330
D4A6
100
AcDbEntity
  8
AM_5
 62
     2
100
AcDbMText
 10
-188.5500000000002
 20
-0.0000038147011079
 30
0.0
 40
1.6
 41
0.0
 71
     5
 72
     1
  1
%%c25
  7
ASAMI
 11
-0.000000000000002
 21
1.0
 31
0.0
  0
POINT
  5
D999
330
D4A6
100
AcDbEntity
  8
DEFPOINTS
 62
     0
100
AcDbPoint
 10
-177.0000000000002
 20
12.4999999999938
 30
0.0
  0
POINT
  5
D99A
330
D4A6
100
AcDbEntity
  8
DEFPOINTS
 62
     0
100
AcDbPoint
 10
-177.0000000000002
 20
-12.5000076293952
 30
0.0
  0
POINT
  5
D99B
330
D4A6
100
AcDbEntity
  8
DEFPOINTS
 62
     0
100
AcDbPoint
 10
-187.0000000000002
 20
-12.5000076293952
 30
0.0
  0
ENDBLK
  5
D4B1
330
D4A6
100
AcDbEntity
  8
0
100
AcDbBlockEnd
  0
BLOCK
  5
D54E
330
D544
100
AcDbEntity
  8
0
100
AcDbBlockBegin
  2
*D9
 70
     1
 10
0.0
 20
0.0
 30
0.0
  3
*D9
  1

  0
LINE
  5
D99C
330
D544
100
AcDbEntity
  8
AM_5
100
AcDbLine
 10
-180.0000000000002
 20
-11.42883315880935
 30
0.0
 11
-180.0000000000001
 21
-25.00000762939559
 31
0.0
  0
LINE
  5
D99D
330
D544
100
AcDbEntity
  8
AM_5
100
AcDbLine
 10
-0.0000000000002224
 20
-12.9999999999998
 30
0.0
 11
-0.0000000000001989
 21
-25.00000762939523
 31
0.0
  0
LINE
  5
D99E
330
D544
100
AcDbEntity
  8
AM_5
100
AcDbLine
 10
-178.7500000000001
 20
-24.50000762939559
 30
0.0
 11
-1.250000000000199
 21
-24.50000762939524
 31
0.0
  0
INSERT
  5
D99F
330
D544
100
AcDbEntity
  8
AM_5
100
AcDbBlockReference
  2
_OPEN30
 10
-180.0000000000001
 20
-24.50000762939559
 30
0.0
 41
1.25
 42
1.25
 43
1.25
 50
180.0000000000001
  0
INSERT
  5
D9A0
330
D544
100
AcDbEntity
  8
AM_5
100
AcDbBlockReference
  2
_OPEN30
 10
-0.0000000000001999
 20
-24.50000762939523
 30
0.0
 41
1.25
 42
1.25
 43
1.25
 50
0.0000000000001018
  0
MTEXT
  5
D9A1
330
D544
100
AcDbEntity
  8
AM_5
 62
     2
100
AcDbMText
 10
-90.00000000000019
 20
-22.95000762939541
 30
0.0
 40
1.6
 41
0.0
 71
     5
 72
     1
  1
180
  7
ASAMI
  0
POINT
  5
D9A2
330
D544
100
AcDbEntity
  8
DEFPOINTS
 62
     0
100
AcDbPoint
 10
-180.0000000000002
 20
-10.92883315880898
 30
0.0
  0
POINT
  5
D9A3
330
D544
100
AcDbEntity
  8
DEFPOINTS
 62
     0
100
AcDbPoint
 10
-0.0000000000002487
 20
-12.4999999999998
 30
0.0
  0
POINT
  5
D9A4
330
D544
100
AcDbEntity
  8
DEFPOINTS
 62
     0
100
AcDbPoint
 10
-0.0000000000002494
 20
-24.50000762939523
 30
0.0
  0
ENDBLK
  5
D54F
330
D544
100
AcDbEntity
  8
0
100
AcDbBlockEnd
  0
BLOCK
  5
D5E3
330
D5D9
100
AcDbEntity
  8
0
100
AcDbBlockBegin
  2
*D10
 70
     1
 10
0.0
 20
0.0
 30
0.0
  3
*D10
  1

  0
LINE
  5
D9A5
330
D5D9
100
AcDbEntity
  8
AM_5
100
AcDbLine
 10
-0.0000000000002224
 20
-12.9999999999998
 30
0.0
 11
-0.0000000000002087
 21
-20.00000762939523
 31
0.0
  0
LINE
  5
D9A6
330
D5D9
100
AcDbEntity
  8
AM_5
100
AcDbLine
 10
-99.99999974343353
 20
-13.00000728730636
 30
0.0
 11
-99.99999974343353
 21
-20.00000762939543
 31
0.0
  0
LINE
  5
D9A7
330
D5D9
100
AcDbEntity
  8
AM_5
100
AcDbLine
 10
-1.250000000000209
 20
-19.50000762939524
 30
0.0
 11
-98.74999974343353
 21
-19.50000762939543
 31
0.0
  0
INSERT
  5
D9A8
330
D5D9
100
AcDbEntity
  8
AM_5
100
AcDbBlockReference
  2
_OPEN30
 10
-0.0000000000002097
 20
-19.50000762939523
 30
0.0
 41
1.25
 42
1.25
 43
1.25
 50
0.0000000000001018
  0
INSERT
  5
D9A9
330
D5D9
100
AcDbEntity
  8
AM_5
100
AcDbBlockReference
  2
_OPEN30
 10
-99.99999974343353
 20
-19.50000762939543
 30
0.0
 41
1.25
 42
1.25
 43
1.25
 50
180.0000000000001
  0
MTEXT
  5
D9AA
330
D5D9
100
AcDbEntity
  8
AM_5
 62
     2
100
AcDbMText
 10
-49.99999987171687
 20
-17.95000762939533
 30
0.0
 40
1.6
 41
0.0
 71
     5
 72
     1
  1
100
  7
ASAMI
  0
POINT
  5
D9AB
330
D5D9
100
AcDbEntity
  8
DEFPOINTS
 62
     0
100
AcDbPoint
 10
-0.0000000000002487
 20
-12.4999999999998
 30
0.0
  0
POINT
  5
D9AC
330
D5D9
100
AcDbEntity
  8
DEFPOINTS
 62
     0
100
AcDbPoint
 10
-99.99999974343356
 20
-12.50000728730616
 30
0.0
  0
POINT
  5
D9AD
330
D5D9
100
AcDbEntity
  8
DEFPOINTS
 62
     0
100
AcDbPoint
 10
-99.99999974343356
 20
-19.50000762939523
 30
0.0
  0
ENDBLK
  5
D5E4
330
D5D9
100
AcDbEntity
  8
0
100
AcDbBlockEnd
  0
BLOCK
  5
D6D2
330
D6C8
100
AcDbEntity
  8
0
100
AcDbBlockBegin
  2
*D11
 70
     1
 10
0.0
 20
0.0
 30
0.0
  3
*D11
  1

  0
LINE
  5
D9AE
330
D6C8
100
AcDbEntity
  8
AM_5
100
AcDbLine
 10
-99.99999974343353
 20
-13.00000728730636
 30
0.0
 11
-99.99999974343353
 21
-20.00000762939543
 31
0.0
  0
LINE
  5
D9AF
330
D6C8
100
AcDbEntity
  8
AM_5
100
AcDbLine
 10
-180.0000000000002
 20
-11.42883300781356
 30
0.0
 11
-180.0000000000002
 21
-20.00000762939559
 31
0.0
  0
LINE
  5
D9B0
330
D6C8
100
AcDbEntity
  8
AM_5
100
AcDbLine
 10
-101.2499997434335
 20
-19.50000762939544
 30
0.0
 11
-178.7500000000002
 21
-19.50000762939559
 31
0.0
  0
INSERT
  5
D9B1
330
D6C8
100
AcDbEntity
  8
AM_5
100
AcDbBlockReference
  2
_OPEN30
 10
-99.99999974343353
 20
-19.50000762939543
 30
0.0
 41
1.25
 42
1.25
 43
1.25
 50
0.0000000000001018
  0
INSERT
  5
D9B2
330
D6C8
100
AcDbEntity
  8
AM_5
100
AcDbBlockReference
  2
_OPEN30
 10
-180.0000000000002
 20
-19.50000762939559
 30
0.0
 41
1.25
 42
1.25
 43
1.25
 50
180.0000000000001
  0
MTEXT
  5
D9B3
330
D6C8
100
AcDbEntity
  8
AM_5
 62
     2
100
AcDbMText
 10
-139.9999998717168
 20
-17.95000762939551
 30
0.0
 40
1.6
 41
0.0
 71
     5
 72
     1
  1
80
  7
ASAMI
  0
POINT
  5
D9B4
330
D6C8
100
AcDbEntity
  8
DEFPOINTS
 62
     0
100
AcDbPoint
 10
-99.99999974343356
 20
-12.50000728730616
 30
0.0
  0
POINT
  5
D9B5
330
D6C8
100
AcDbEntity
  8
DEFPOINTS
 62
     0
100
AcDbPoint
 10
-180.0000000000002
 20
-10.92883300781319
 30
0.0
  0
POINT
  5
D9B6
330
D6C8
100
AcDbEntity
  8
DEFPOINTS
 62
     0
100
AcDbPoint
 10
-180.0000000000002
 20
-19.50000762939523
 30
0.0
  0
ENDBLK
  5
D6D3
330
D6C8
100
AcDbEntity
  8
0
100
AcDbBlockEnd
  0
ENDSEC
  0
SECTION
  2
ENTITIES
  0
TEXT
  5
388D
330
1F
100
AcDbEntity
  8
AM_6
100
AcDbText
 10
-101.7261904761906
 20
-35.7500076293954
 30
0.0
 40
2.5
  1
WRC10025EM
 50
359.9999999999998
 51
359.9999999999998
 72
     4
 11
-90.00000000000017
 21
-34.50000762939541
 31
0.0
100
AcDbText
  0
SPLINE
  5
CFF3
330
1F
100
AcDbEntity
  8
AM_0
100
AcDbSpline
210
0.0
220
0.0
230
1.0
 70
     8
 71
     3
 72
    11
 73
     7
 74
     5
 42
0.0000000001
 43
0.0000000001
 44
0.0000000001
 40
0.0
 40
0.0
 40
0.0
 40
0.0
 40
0.177737676804632
 40
0.3286539229625295
 40
0.4324474591443363
 40
0.4756660498892859
 40
0.4756660498892859
 40
0.4756660498892859
 40
0.4756660498892859
 10
-19.44348144532028
 20
10.49707031249413
 30
0.0
 10
-19.5027767377963
 20
10.49711149862895
 30
0.0
 10
-19.61241939114814
 20
10.49718765572195
 30
0.0
 10
-19.75600713315555
 20
10.49185791059433
 30
0.0
 10
-19.85639982388716
 20
10.49269359818252
 30
0.0
 10
-19.90365070184257
 20
10.47918372618056
 30
0.0
 10
-19.91754150391028
 20
10.47521209716413
 30
0.0
 11
-19.44348144532028
 21
10.49707031249413
 31
0.0
 11
-19.62121582032028
 21
10.49598693847413
 31
0.0
 11
-19.77209472657028
 21
10.49263000487413
 31
0.0
 11
-19.87567138672028
 21
10.48592376708413
 31
0.0
 11
-19.91754150391028
 21
10.47521209716413
 31
0.0
  0
SPLINE
  5
CFF4
330
1F
100
AcDbEntity
  8
AM_0
100
AcDbSpline
210
0.0
220
0.0
230
1.0
 70
     8
 71
     3
 72
    11
 73
     7
 74
     5
 42
0.0000000001
 43
0.0000000001
 44
0.0000000001
 40
0.0
 40
0.0
 40
0.0
 40
0.0
 40
4.867926012263599
 40
9.523066537086187
 40
13.08173502929101
 40
14.63917184082238
 40
14.63917184082238
 40
14.63917184082238
 40
14.63917184082238
 10
-9.470275878910257
 20
1.649993896484147
 30
0.0
 10
-11.1064150476126
 20
1.886749941386531
 30
0.0
 10
-14.30717490473297
 20
2.349913013911198
 30
0.0
 10
-17.73385862237921
 20
5.431724524201507
 30
0.0
 10
-19.18882846634398
 20
8.369363213271793
 30
0.0
 10
-19.74715067905369
 20
9.980894000511664
 30
0.0
 10
-19.91711425782028
 20
10.47147369384413
 30
0.0
 11
-9.470275878910257
 21
1.649993896484147
 31
0.0
 11
-14.19415283204026
 21
2.825447082519133
 31
0.0
 11
-17.72283935547028
 21
5.861679077148139
 31
0.0
 11
-19.38836669922028
 21
9.006538391113139
 31
0.0
 11
-19.91711425782028
 21
10.47147369384413
 31
0.0
  0
SPLINE
  5
CFF5
330
1F
100
AcDbEntity
  8
AM_0
100
AcDbSpline
210
0.0
220
0.0
230
1.0
 70
     8
 71
     3
 72
    11
 73
     7
 74
     5
 42
0.0000000001
 43
0.0000000001
 44
0.0000000001
 40
0.0
 40
0.0
 40
0.0
 40
0.0
 40
0.2666613317326634
 40
0.5322193526488254
 40
0.7952726368514903
 40
1.054778345194418
 40
1.054778345194418
 40
1.054778345194418
 40
1.054778345194418
 10
-5.698608398440256
 20
-5.200004577636832
 30
0.0
 10
-5.787569418261361
 20
-5.203513213260841
 30
0.0
 10
-5.965123381832028
 20
-5.210515967534798
 30
0.0
 10
-6.225489411775439
 20
-5.265545496365874
 30
0.0
 10
-6.475272334493539
 20
-5.35026418192928
 30
0.0
 10
-6.628538197210262
 20
-5.433629373101796
 30
0.0
 10
-6.704650878910257
 20
-5.475028991699844
 30
0.0
 11
-5.698608398440256
 21
-5.200004577636832
 31
0.0
 11
-5.964660644540259
 21
-5.218017578124843
 31
0.0
 11
-6.224914550790259
 21
-5.270828247070852
 31
0.0
 11
-6.473266601570259
 21
-5.357536315917855
 31
0.0
 11
-6.704650878910257
 21
-5.475028991699844
 31
0.0
  0
SPLINE
  5
CFF6
330
1F
100
AcDbEntity
  8
AM_0
100
AcDbSpline
210
0.0
220
0.0
230
1.0
 70
     8
 71
     3
 72
    11
 73
     7
 74
     5
 42
0.0000000001
 43
0.0000000001
 44
0.0000000001
 40
0.0
 40
0.0
 40
0.0
 40
0.0
 40
0.6690296555417785
 40
1.391187687858206
 40
2.162226109335315
 40
2.962470853091323
 40
2.962470853091323
 40
2.962470853091323
 40
2.962470853091323
 10
-3.646423339850258
 20
-7.004013061523835
 30
0.0
 10
-3.698270897640463
 20
-6.784914050069515
 30
0.0
 10
-3.806083284499217
 20
-6.329317134996563
 30
0.0
 10
-4.253633936919928
 20
-5.742127755203162
 30
0.0
 10
-4.902379690511502
 20
-5.293095607721872
 30
0.0
 10
-5.429930203284954
 20
-5.231417072186871
 30
0.0
 10
-5.698608398440256
 20
-5.200004577636832
 30
0.0
 11
-3.646423339850258
 21
-7.004013061523835
 31
0.0
 11
-3.843627929690256
 21
-6.364707946777841
 31
0.0
 11
-4.270019531250255
 21
-5.781867980956832
 31
0.0
 11
-4.914123535160257
 21
-5.358039855956832
 31
0.0
 11
-5.698608398440256
 21
-5.200004577636832
 31
0.0
  0
SPLINE
  5
CFF7
330
1F
100
AcDbEntity
  8
AM_0
100
AcDbSpline
210
0.0
220
0.0
230
1.0
 70
     8
 71
     3
 72
    11
 73
     7
 74
     5
 42
0.0000000001
 43
0.0000000001
 44
0.0000000001
 40
0.0
 40
0.0
 40
0.0
 40
0.0
 40
0.3356321161954401
 40
0.6712416465821255
 40
1.00687458967093
 40
1.34248933427604
 40
1.34248933427604
 40
1.34248933427604
 40
1.34248933427604
 10
-7.536376953130258
 20
-7.977027893066846
 30
0.0
 10
-7.467949848569878
 20
-8.065539842832709
 30
0.0
 10
-7.331100244138072
 20
-8.242557786099011
 30
0.0
 10
-7.123746714943006
 20
-8.50647140147937
 30
0.0
 10
-6.915098399497185
 20
-8.769354313112859
 30
0.0
 10
-6.774798784531572
 20
-8.943652923347626
 30
0.0
 10
-6.704650878910257
 20
-9.030799865722855
 30
0.0
 11
-7.536376953130258
 21
-7.977027893066846
 31
0.0
 11
-7.330749511720256
 21
-8.242294311523849
 31
0.0
 11
-7.123535156250255
 21
-8.506294250488849
 31
0.0
 11
-6.914794921880258
 21
-8.769119262695852
 31
0.0
 11
-6.704650878910257
 21
-9.030799865722855
 31
0.0
  0
SPLINE
  5
CFF8
330
1F
100
AcDbEntity
  8
AM_0
100
AcDbSpline
210
0.0
220
0.0
230
1.0
 70
     8
 71
     3
 72
    11
 73
     7
 74
     5
 42
0.0000000001
 43
0.0000000001
 44
0.0000000001
 40
0.0
 40
0.0
 40
0.0
 40
0.0
 40
0.4764947278764406
 40
0.961774565758284
 40
1.469200099074268
 40
2.018368944935901
 40
2.018368944935901
 40
2.018368944935901
 40
2.018368944935901
 10
-6.704650878910257
 20
-5.475028991699844
 30
0.0
 10
-6.832865101008256
 20
-5.570487809432207
 30
0.0
 10
-7.091657424549593
 20
-5.76316541445316
 30
0.0
 10
-7.370376744417373
 20
-6.174781786366462
 30
0.0
 10
-7.557986963156654
 20
-6.661316648670673
 30
0.0
 10
-7.568828145772429
 20
-7.015774036286197
 30
0.0
 10
-7.574462890630258
 20
-7.200004577636846
 30
0.0
 11
-6.704650878910257
 21
-5.475028991699844
 31
0.0
 11
-7.070556640630258
 21
-5.780250549316846
 31
0.0
 11
-7.350036621100258
 21
-6.176971435546846
 31
0.0
 11
-7.525756835940256
 21
-6.652999877929858
 31
0.0
 11
-7.574462890630258
 21
-7.200004577636846
 31
0.0
  0
SPLINE
  5
CFF9
330
1F
100
AcDbEntity
  8
AM_0
100
AcDbSpline
210
0.0
220
0.0
230
1.0
 70
     8
 71
     3
 72
    11
 73
     7
 74
     5
 42
0.0000000001
 43
0.0000000001
 44
0.0000000001
 40
0.0
 40
0.0
 40
0.0
 40
0.0
 40
0.0499177005821964
 40
0.0993653462848132
 40
0.1483675884699955
 40
0.1969645397672826
 40
0.1969645397672826
 40
0.1969645397672826
 40
0.1969645397672826
 10
-3.627685546880258
 20
-7.200004577636832
 30
0.0
 10
-3.628552096767204
 20
-7.183386950746783
 30
0.0
 10
-3.630277036589855
 20
-7.150308178465541
 30
0.0
 10
-3.63444418859708
 20
-7.101021113476656
 30
0.0
 10
-3.639680581473487
 20
-7.052279138406947
 30
0.0
 10
-3.644181984574174
 20
-7.020057152092251
 30
0.0
 10
-3.646423339850258
 20
-7.004013061523835
 30
0.0
 11
-3.627685546880258
 21
-7.200004577636832
 31
0.0
 11
-3.630554199220256
 21
-7.150169372558835
 31
0.0
 11
-3.634643554690256
 21
-7.100891113281832
 31
0.0
 11
-3.639953613290259
 21
-7.052177429199844
 31
0.0
 11
-3.646423339850258
 21
-7.004013061523835
 31
0.0
  0
SPLINE
  5
CFFA
330
1F
100
AcDbEntity
  8
AM_0
100
AcDbSpline
210
0.0
220
0.0
230
1.0
 70
     8
 71
     3
 72
    11
 73
     7
 74
     5
 42
0.0000000001
 43
0.0000000001
 44
0.0000000001
 40
0.0
 40
0.0
 40
0.0
 40
0.0
 40
0.6926423425507117
 40
1.385286663325759
 40
2.077899790937676
 40
2.770539753554791
 40
2.770539753554791
 40
2.770539753554791
 40
2.770539753554791
 10
-3.614135742190256
 20
-10.89938354492183
 30
0.0
 10
-3.449889012557551
 20
-10.73712118018581
 30
0.0
 10
-3.121395084194516
 20
-10.4125959872836
 30
0.0
 10
-2.630878828625339
 20
-9.923579491042197
 30
0.0
 10
-2.142121579577949
 20
-9.432803576266701
 30
0.0
 10
-1.8183313543184
 20
-9.103600225407245
 30
0.0
 10
-1.656433105470256
 20
-8.93899536132784
 30
0.0
 11
-3.614135742190256
 21
-10.89938354492183
 31
0.0
 11
-3.121765136720256
 21
-10.41222381591784
 31
0.0
 11
-2.631164550790259
 21
-9.923278808593835
 31
0.0
 11
-2.142639160160257
 21
-9.432304382324844
 31
0.0
 11
-1.656433105470256
 21
-8.93899536132784
 31
0.0
  0
ELLIPSE
  5
CFFB
330
1F
100
AcDbEntity
  8
AM_0
100
AcDbEllipse
 10
-8.293701171880286
 20
4.34999847412115
 30
0.0
 11
-1.565124507409993
 21
1.47055041828899
 31
0.0
210
0.0
220
0.0
230
1.0
 40
0.8660868956072002
 41
2.801180051471335
 42
3.020476213107556
  0
ELLIPSE
  5
CFFC
330
1F
100
AcDbEntity
  8
AM_0
100
AcDbEllipse
 10
-8.293701171880286
 20
4.34999847412115
 30
0.0
 11
-0.0000000874200015
 21
-2.0
 31
0.0
210
0.0
220
0.0
230
1.0
 40
0.8548278808594
 41
4.063780158678328
 42
4.308048594064604
  0
ELLIPSE
  5
CFFD
330
1F
100
AcDbEntity
  8
AM_0
100
AcDbEllipse
 10
-6.425659179690285
 20
7.635337829589161
 30
0.0
 11
-3.48443613148001
 21
0.7460593013499948
 31
0.0
210
0.0
220
0.0
230
0.9999999999999998
 40
0.9821487043716999
 41
6.105119592056525
 42
6.490321233602566
  0
ELLIPSE
  5
CFFE
330
1F
100
AcDbEntity
  8
AM_0
100
AcDbEllipse
 10
-5.278076171880286
 20
8.784492492675155
 30
0.0
 11
-0.6513060919600164
 21
3.507953719159004
 31
0.0
210
0.0
220
0.0
230
0.9999999999999998
 40
0.9796711953605001
 41
6.10327308018684
 42
6.488552352298994
  0
ELLIPSE
  5
CFFF
330
1F
100
AcDbEntity
  8
AM_0
100
AcDbEllipse
 10
-5.804626464850286
 20
8.566101074218153
 30
0.0
 11
-1.885681256340012
 21
3.027381928665984
 31
0.0
210
0.0
220
0.0
230
1.0
 40
0.9803713648070001
 41
6.122417572454653
 42
6.507648911101679
  0
ELLIPSE
  5
D000
330
1F
100
AcDbEntity
  8
AM_0
100
AcDbEllipse
 10
-6.207580566410285
 20
8.16257476806615
 30
0.0
 11
-2.895446929450006
 21
2.079398716107996
 31
0.0
210
0.0
220
0.0
230
1.0
 40
0.981397950706
 41
6.124194571609265
 42
6.509635772076022
  0
ELLIPSE
  5
D001
330
1F
100
AcDbEntity
  8
AM_0
100
AcDbEllipse
 10
-6.425659179690285
 20
7.064659118652144
 30
0.0
 11
-3.484436131480007
 21
-0.7460593013489999
 31
0.0
210
0.0
220
0.0
230
1.0
 40
0.9821487043716999
 41
6.076072347091804
 42
6.461199782696344
  0
ELLIPSE
  5
D002
330
1F
100
AcDbEntity
  8
AM_0
100
AcDbEllipse
 10
-6.207580566410285
 20
6.537422180175155
 30
0.0
 11
-2.895446929449999
 21
-2.079398716112996
 31
0.0
210
0.0
220
0.0
230
0.9999999999999998
 40
0.9813962117717
 41
6.056734712255351
 42
6.442119236498708
  0
ELLIPSE
  5
D003
330
1F
100
AcDbEntity
  8
AM_0
100
AcDbEllipse
 10
-5.804626464850286
 20
6.133895874023153
 30
0.0
 11
-1.88568125634
 21
-3.027381928669004
 31
0.0
210
0.0
220
0.0
230
1.0
 40
0.9803725012069
 41
6.058522345388823
 42
6.443904906552449
  0
ELLIPSE
  5
D004
330
1F
100
AcDbEntity
  8
AM_0
100
AcDbEllipse
 10
-5.278076171880286
 20
5.915504455566164
 30
0.0
 11
-0.6513060919600021
 21
-3.507953719162004
 31
0.0
210
0.0
220
0.0
230
0.9999999999999998
 40
0.9796715962993999
 41
6.077842108150679
 42
6.463091963063923
  0
ELLIPSE
  5
D005
330
1F
100
AcDbEntity
  8
AM_0
100
AcDbEllipse
 10
-4.708190917970284
 20
5.915504455566164
 30
0.0
 11
-0.651306091960016
 21
3.507953719162001
 31
0.0
210
0.0
220
0.0
230
1.0
 40
0.9796715962993999
 41
2.961679980140313
 42
3.34695993386544
  0
ELLIPSE
  5
D006
330
1F
100
AcDbEntity
  8
AM_0
100
AcDbEllipse
 10
-4.181701660160285
 20
6.133895874023167
 30
0.0
 11
-1.885681256350017
 21
3.027381928669991
 31
0.0
210
0.0
220
0.0
230
0.9999999999999998
 40
0.9803725012069
 41
2.980825525164382
 42
3.366055351636977
  0
ELLIPSE
  5
D007
330
1F
100
AcDbEntity
  8
AM_0
100
AcDbEllipse
 10
-3.778686523440285
 20
6.537422180175155
 30
0.0
 11
-2.895446929450006
 21
2.079398716112999
 31
0.0
210
0.0
220
0.0
230
1.0
 40
0.9813962117717
 41
2.982601957569387
 42
3.368042685745375
  0
ELLIPSE
  5
D008
330
1F
100
AcDbEntity
  8
AM_0
100
AcDbEllipse
 10
-3.560607910160285
 20
7.064659118652159
 30
0.0
 11
-3.484436131480011
 21
0.7460593013489997
 31
0.0
210
0.0
220
0.0
230
1.0
 40
0.9821487043716999
 41
2.963527527499803
 42
3.348728790085613
  0
ELLIPSE
  5
D009
330
1F
100
AcDbEntity
  8
AM_0
100
AcDbEllipse
 10
-3.560607910160285
 20
7.635337829589161
 30
0.0
 11
-3.484436131480007
 21
-0.7460593013489999
 31
0.0
210
0.0
220
0.0
230
1.0
 40
0.9821487043716999
 41
2.934478994616992
 42
3.319607521122908
  0
ELLIPSE
  5
D00A
330
1F
100
AcDbEntity
  8
AM_0
100
AcDbEllipse
 10
-3.778686523440285
 20
8.162574768066164
 30
0.0
 11
-2.895446929449997
 21
-2.07939871611301
 31
0.0
210
0.0
220
0.0
230
1.0
 40
0.981397950706
 41
2.915142944445076
 42
3.300526698402523
  0
ELLIPSE
  5
D00B
330
1F
100
AcDbEntity
  8
AM_0
100
AcDbEllipse
 10
-4.181701660160285
 20
8.566101074218167
 30
0.0
 11
-1.885681256350006
 21
-3.027381928669004
 31
0.0
210
0.0
220
0.0
230
0.9999999999999998
 40
0.9803713648070001
 41
2.916929877970432
 42
3.302311796303921
  0
ELLIPSE
  5
D00C
330
1F
100
AcDbEntity
  8
AM_0
100
AcDbEllipse
 10
-4.708190917970284
 20
8.784492492675155
 30
0.0
 11
-0.6513060919600024
 21
-3.50795371916199
 31
0.0
210
0.0
220
0.0
230
0.9999999999999998
 40
0.9796711953604999
 41
2.936248550857312
 42
3.321499744079667
  0
ELLIPSE
  5
D00D
330
1F
100
AcDbEntity
  8
AM_0
100
AcDbEllipse
 10
-6.207580566410257
 20
-8.162574768066832
 30
0.0
 11
-2.895446929449997
 21
-2.07939871611301
 31
0.0
210
0.0
220
0.0
230
1.0
 40
0.981397950706
 41
6.16878784222685
 42
6.4421190051117
  0
ELLIPSE
  5
D00E
330
1F
100
AcDbEntity
  8
AM_0
100
AcDbEllipse
 10
-5.804626464850258
 20
-8.566108703613835
 30
0.0
 11
-1.88568125634
 21
-3.027381928669004
 31
0.0
210
0.0
220
0.0
230
1.0
 40
0.9803725012069
 41
6.058522254367782
 42
6.443904906552449
  0
ELLIPSE
  5
D00F
330
1F
100
AcDbEntity
  8
AM_0
100
AcDbEllipse
 10
-5.278076171880258
 20
-8.784492492675838
 30
0.0
 11
-0.651306326610005
 21
-3.507957312992006
 31
0.0
210
0.0
220
0.0
230
1.0
 40
0.9796704138601
 41
6.077842049433906
 42
6.463091978071689
  0
ELLIPSE
  5
D010
330
1F
100
AcDbEntity
  8
AM_0
100
AcDbEllipse
 10
-4.708190917970256
 20
-8.784492492675838
 30
0.0
 11
-0.651306326610019
 21
3.507957312990994
 31
0.0
210
0.0
220
0.0
230
1.0
 40
0.9796704138601
 41
2.961679767645585
 42
3.346960174827994
  0
ELLIPSE
  5
D011
330
1F
100
AcDbEntity
  8
AM_0
100
AcDbEllipse
 10
-4.181701660160257
 20
-8.566108703613835
 30
0.0
 11
-1.885681256350017
 21
3.027381928669991
 31
0.0
210
0.0
220
0.0
230
0.9999999999999998
 40
0.9803725012069
 41
2.980825525164382
 42
3.366055594360504
  0
ELLIPSE
  5
D012
330
1F
100
AcDbEntity
  8
AM_0
100
AcDbEllipse
 10
-3.778686523440256
 20
-6.537429809570838
 30
0.0
 11
-2.895446929449997
 21
-2.07939871611301
 31
0.0
210
0.0
220
0.0
230
1.0
 40
0.981397950706
 41
2.915142944445076
 42
3.300526698402523
  0
ELLIPSE
  5
D013
330
1F
100
AcDbEntity
  8
AM_0
100
AcDbEllipse
 10
-3.778686523440256
 20
-8.162574768066832
 30
0.0
 11
-2.895446882920002
 21
2.079402868172985
 31
0.0
210
0.0
220
0.0
230
1.0
 40
0.9813964248603999
 41
2.982601991511908
 42
3.368042638240463
  0
ELLIPSE
  5
D014
330
1F
100
AcDbEntity
  8
AM_0
100
AcDbEllipse
 10
-3.560607910160257
 20
-7.635337829589843
 30
0.0
 11
-3.484436131480011
 21
0.7460593013489997
 31
0.0
210
0.0
220
0.0
230
1.0
 40
0.9821487043716999
 41
2.963527527499803
 42
3.348728790085613
  0
ELLIPSE
  5
D015
330
1F
100
AcDbEntity
  8
AM_0
100
AcDbEllipse
 10
-3.560607910160257
 20
-7.064659118652841
 30
0.0
 11
-3.484436131480007
 21
-0.7460593013489999
 31
0.0
210
0.0
220
0.0
230
1.0
 40
0.9821507785009998
 41
2.934479419603301
 42
3.319607153078779
  0
ELLIPSE
  5
D016
330
1F
100
AcDbEntity
  8
AM_0
100
AcDbEllipse
 10
-3.769531250000255
 20
-5.770568847656832
 30
0.0
 11
-4.907837457059989
 21
-4.805366033530016
 31
0.0
210
0.0
220
0.0
230
0.9999999999999998
 40
0.5095579457468001
 41
6.058798378656136
 42
6.288440366902767
  0
ELLIPSE
  5
D017
330
1F
100
AcDbEntity
  8
AM_0
100
AcDbEllipse
 10
-4.552856445320259
 20
-4.986213684081832
 30
0.0
 11
-3.30834981212
 21
-6.302173641943006
 31
0.0
210
0.0
220
0.0
230
0.9999999999999998
 40
0.4745151314052001
 41
6.136079502904121
 42
6.521704976041607
  0
ELLIPSE
  5
D018
330
1F
100
AcDbEntity
  8
AM_0
100
AcDbEllipse
 10
-6.90783691407023
 20
-12.00131988525384
 30
0.0
 11
-0.3010864646300044
 21
0.4671859630060022
 31
0.0
210
0.0
220
0.0
230
0.9999999999999998
 40
0.7587626727797
 41
5.083773097981263
 42
5.821454742525938
  0
ELLIPSE
  5
D019
330
1F
100
AcDbEntity
  8
AM_0
100
AcDbEllipse
 10
-6.455078125000255
 20
-10.32348632812485
 30
0.0
 11
-0.3136596152399975
 21
-0.6431426955649903
 31
0.0
210
0.0
220
0.0
230
1.0
 40
0.6850187834658001
 41
6.050510153988715
 42
6.197816336666293
  0
ELLIPSE
  5
D01A
330
1F
100
AcDbEntity
  8
AM_0
100
AcDbEllipse
 10
-6.535522460940256
 20
-10.62163543701183
 30
0.0
 11
-0.4760132137600126
 21
0.1535644422539936
 31
0.0
210
0.0
220
0.0
230
1.0
 40
0.8243497861519001
 41
1.251034560687995
 42
1.6951653179247
  0
ELLIPSE
  5
D01B
330
1F
100
AcDbEntity
  8
AM_0
100
AcDbEllipse
 10
-5.576232910160257
 20
-4.56172180175784
 30
0.0
 11
-0.3319700105000303
 21
7.650718681400006
 31
0.0
210
0.0
220
0.0
230
0.9999999999999998
 40
0.4564042977576001
 41
2.736398359329633
 42
3.121823671671395
  0
ELLIPSE
  5
D01C
330
1F
100
AcDbEntity
  8
AM_0
100
AcDbEllipse
 10
-6.683959960940256
 20
-4.561714172363849
 30
0.0
 11
-2.382018798940022
 21
7.585460565096989
 31
0.0
210
0.0
220
0.0
230
0.9999999999999996
 40
0.4234138847878001
 41
3.009409381512247
 42
3.394913833306209
  0
ELLIPSE
  5
D01D
330
1F
100
AcDbEntity
  8
AM_0
100
AcDbEllipse
 10
-3.059875488290231
 20
-12.00131988525383
 30
0.0
 11
-0.5089721863199949
 21
0.350265426991
 31
0.0
210
0.0
220
0.0
230
1.0
 40
0.7552369319808001
 41
5.460912484373455
 42
6.19652464860507
  0
ELLIPSE
  5
D01E
330
1F
100
AcDbEntity
  8
AM_0
100
AcDbEllipse
 10
-6.455078125000255
 20
-10.32348632812485
 30
0.0
 11
-0.1448364536200003
 21
-0.7070159753119897
 31
0.0
210
0.0
220
0.0
230
0.9999999999999998
 40
0.6913984914391999
 41
6.277330057563069
 42
6.422363226408739
  0
ELLIPSE
  5
D01F
330
1F
100
AcDbEntity
  8
AM_0
100
AcDbEllipse
 10
-3.995117187500255
 20
-10.32348632812484
 30
0.0
 11
-0.2344360066500158
 21
0.6967850110650029
 31
0.0
210
0.0
220
0.0
230
1.0
 40
0.6663307536173
 41
2.920705862203231
 42
3.06776571854017
  0
ELLIPSE
  5
D020
330
1F
100
AcDbEntity
  8
AM_0
100
AcDbEllipse
 10
-4.058593750000255
 20
-10.11165618896484
 30
0.0
 11
-0.3514404223699915
 21
0.8506088558530102
 31
0.0
210
0.0
220
0.0
230
1.0
 40
0.5426128264587
 41
2.92131928766412
 42
3.268509600681721
  0
ELLIPSE
  5
D021
330
1F
100
AcDbEntity
  8
AM_0
100
AcDbEllipse
 10
-3.828918457040259
 20
-10.62163543701183
 30
0.0
 11
-0.4468994177699979
 21
-0.2246474884840106
 31
0.0
210
0.0
220
0.0
230
1.0
 40
0.7977107437199001
 41
1.258404728475874
 42
1.701273951956921
  0
ELLIPSE
  5
D022
330
1F
100
AcDbEntity
  8
AM_0
100
AcDbEllipse
 10
-7.707397460940256
 20
-4.986206054687855
 30
0.0
 11
-5.901062466030007
 21
6.014442406423998
 31
0.0
210
0.0
220
0.0
230
0.9999999999999998
 40
0.4153819494788001
 41
2.760492404173076
 42
3.146026791760862
  0
ELLIPSE
  5
D023
330
1F
100
AcDbEntity
  8
AM_0
100
AcDbEllipse
 10
-8.490661621100258
 20
-5.770568847656846
 30
0.0
 11
-7.290833013670019
 21
4.573966766099985
 31
0.0
210
0.0
220
0.0
230
1.0
 40
0.3981039587214
 41
3.050971025789495
 42
3.436392080030671
  0
ELLIPSE
  5
D024
330
1F
100
AcDbEntity
  8
AM_0
100
AcDbEllipse
 10
-8.490661621100258
 20
-8.929435729980852
 30
0.0
 11
-7.290832488469979
 21
-4.573964014198011
 31
0.0
210
0.0
220
0.0
230
1.0
 40
0.3981051549894
 41
2.846832858364266
 42
3.232357781363797
  0
ELLIPSE
  5
D025
330
1F
100
AcDbEntity
  8
AM_0
100
AcDbEllipse
 10
-8.914550781250255
 20
-6.795372009277855
 30
0.0
 11
-8.733154305410012
 21
0.9960126613799896
 31
0.0
210
0.0
220
0.0
230
1.0
 40
0.3963145862854001
 41
2.801129340414902
 42
3.186915095536545
  0
ELLIPSE
  5
D026
330
1F
100
AcDbEntity
  8
AM_0
100
AcDbEllipse
 10
-8.914550781250255
 20
-7.904624938964857
 30
0.0
 11
-8.733154777999997
 21
-0.9960169337380079
 31
0.0
210
0.0
220
0.0
230
1.0
 40
0.3963149772788
 41
3.096655653437858
 42
3.481886538735988
  0
ELLIPSE
  5
D027
330
1F
100
AcDbEntity
  8
AM_0
100
AcDbEllipse
 10
-0.3389282226602575
 20
-5.423362731933835
 30
0.0
 11
-0.6448364146899902
 21
-0.1316757357910076
 31
0.0
210
0.0
220
0.0
230
1.0
 40
0.7536461183768001
 41
6.058787358778211
 42
6.795713900133693
  0
ELLIPSE
  5
D028
330
1F
100
AcDbEntity
  8
AM_0
100
AcDbEllipse
 10
-0.3389282226602575
 20
-9.27664184570284
 30
0.0
 11
-0.6448364146899908
 21
0.1316757357899961
 31
0.0
210
0.0
220
0.0
230
1.0
 40
0.7536347524876001
 41
5.77082494038802
 42
6.506076765701831
  0
ELLIPSE
  5
D029
330
1F
100
AcDbEntity
  8
AM_0
100
AcDbEllipse
 10
-3.995117187500255
 20
-10.32348632812484
 30
0.0
 11
-0.4037476289200028
 21
0.6212844631030086
 31
0.0
210
0.0
220
0.0
230
1.0
 40
0.6729441880887001
 41
3.139111326817384
 42
3.282360141210518
  0
ELLIPSE
  5
D02A
330
1F
100
AcDbEntity
  8
AM_0
100
AcDbEllipse
 10
-2.255676269540259
 20
-8.581665039062841
 30
0.0
 11
-0.6589355214100018
 21
0.3570633600820075
 31
0.0
210
0.0
220
0.0
230
1.0
 40
0.6577481586391
 41
2.949544420039865
 42
3.094154593685037
  0
ELLIPSE
  5
D02B
330
1F
100
AcDbEntity
  8
AM_0
100
AcDbEllipse
 10
-1.915100097660257
 20
-5.994850158691832
 30
0.0
 11
-0.1781005767699933
 21
0.4672279323039984
 31
0.0
210
0.0
220
0.0
230
1.0
 40
0.7793659009273
 41
4.525957406152813
 42
4.821540261210474
  0
ELLIPSE
  5
D02C
330
1F
100
AcDbEntity
  8
AM_0
100
AcDbEllipse
 10
-2.255676269540259
 20
-8.581665039062841
 30
0.0
 11
-0.7294311782499963
 21
0.1818923400140008
 31
0.0
210
0.0
220
0.0
230
1.0
 40
0.6605705784444
 41
3.159820786106116
 42
3.306257420281488
  0
ELLIPSE
  5
D02D
330
1F
100
AcDbEntity
  8
AM_0
100
AcDbEllipse
 10
-2.255676269540259
 20
-6.118347167968835
 30
0.0
 11
-0.7294311782499956
 21
-0.1818923400140036
 31
0.0
210
0.0
220
0.0
230
1.0
 40
0.6605705784444
 41
2.976553243099005
 42
3.124732562571574
  0
ELLIPSE
  5
D02E
330
1F
100
AcDbEntity
  8
AM_0
100
AcDbEllipse
 10
-1.915100097660257
 20
-8.705162048339843
 30
0.0
 11
-0.1781005767699914
 21
-0.4672279323039991
 31
0.0
210
0.0
220
0.0
230
1.0
 40
0.7793659009273
 41
1.313771348461015
 42
1.755168188704112
  0
ELLIPSE
  5
D02F
330
1F
100
AcDbEntity
  8
AM_0
100
AcDbEllipse
 10
-75.85601806641027
 20
-0.0000152587889772
 30
0.0
 11
-220.7265624999799
 21
0.0000859540965666
 31
0.0
210
0.0
220
0.0
230
1.0
 40
0.0524077711327
 41
1.890095830712219
 42
1.90409423052428
  0
ELLIPSE
  5
D030
330
1F
100
AcDbEntity
  8
AM_0
100
AcDbEllipse
 10
-144.6419067382902
 20
-0.0000381469731252
 30
0.0
 11
-220.7261199951
 21
0.0000859539245726
 31
0.0
210
0.0
220
0.0
230
1.0
 40
0.0524077725032
 41
2.245836882452255
 42
2.263855922231889
  0
ELLIPSE
  5
D031
330
1F
100
AcDbEntity
  8
AM_0
100
AcDbEllipse
 10
-14.71264648438025
 20
0.0000000000001279
 30
0.0
 11
-200.3518676757599
 21
0.0000780198976166
 31
0.0
210
0.0
220
0.0
230
1.0
 40
0.0524077588715
 41
4.712389015578826
 42
4.73600435221043
  0
ELLIPSE
  5
D032
330
1F
100
AcDbEntity
  8
AM_0
100
AcDbEllipse
 10
-75.83111572266027
 20
0.0037307739250139
 30
0.0
 11
-200.31005858971
 21
0.0012719446056075
 31
0.0
210
0.0
220
0.0
230
0.9999999999999998
 40
0.0524000915634
 41
4.373915083280958
 42
4.37828570026196
  0
ELLIPSE
  5
D033
330
1F
100
AcDbEntity
  8
AM_0
100
AcDbEllipse
 10
7.074279785149741
 20
-0.0000076293948155
 30
0.0
 11
-18.21929912519997
 21
-10.49729726895902
 31
0.0
210
0.0
220
0.0
230
1.0
 40
0.0130688599222
 41
5.974009846286992
 42
6.290505224589826
  0
ELLIPSE
  5
D034
330
1F
100
AcDbEntity
  8
AM_0
100
AcDbEllipse
 10
-75.85662841797027
 20
0.0000839233390195
 30
0.0
 11
-200.3529052734199
 21
0.0000780203026117
 31
0.0
210
0.0
220
0.0
230
1.0
 40
0.0524079444169
 41
1.904103720480908
 42
1.917345850498604
  0
ELLIPSE
  5
D035
330
1F
100
AcDbEntity
  8
AM_0
100
AcDbEllipse
 10
-14.71266174317025
 20
0.0000000000001279
 30
0.0
 11
-200.35191345213
 21
0.0000780199146128
 31
0.0
210
0.0
220
0.0
230
1.0
 40
0.0524077849773
 41
4.694577419994187
 42
4.712388940608905
  0
ELLIPSE
  5
D036
330
1F
100
AcDbEntity
  8
AM_0
100
AcDbEllipse
 10
-14.71263122559025
 20
0.0000000000001279
 30
0.0
 11
-200.3519439697099
 21
0.0000780199266067
 31
0.0
210
0.0
220
0.0
230
1.0
 40
0.0524077769946
 41
1.570796247868291
 42
1.588608407004892
  0
ELLIPSE
  5
D037
330
1F
100
AcDbEntity
  8
AM_0
100
AcDbEllipse
 10
-7.129211425790259
 20
0.0000076293941618
 30
0.0
 11
-0.0000004864099659
 21
-11.12794113159199
 31
0.0
210
0.0
220
0.0
230
1.0
 40
0.0524791035551
 41
5.416166040194164
 42
5.511931815102935
  0
ELLIPSE
  5
D038
330
1F
100
AcDbEntity
  8
AM_0
100
AcDbEllipse
 10
-3.182312011720256
 20
-0.0000076293948439
 30
0.0
 11
-0.0000004865399952
 21
-11.13060379028298
 31
0.0
210
0.0
220
0.0
230
0.9999999999999998
 40
0.0524665495245
 41
5.41596548675052
 42
5.620029835315014
  0
ELLIPSE
  5
D039
330
1F
100
AcDbEntity
  8
AM_0
100
AcDbEllipse
 10
-4.057739257820259
 20
-10.11312103271484
 30
0.0
 11
-0.350585915079991
 21
0.8491744857190033
 31
0.0
210
0.0
220
0.0
230
0.9999999999999998
 40
0.5430869336701
 41
3.35561629543109
 42
3.364346475111299
  0
LINE
  5
D03A
330
1F
100
AcDbEntity
  8
AM_7
100
AcDbLine
 10
-183.9659127574302
 20
-0.0000000000002109
 30
0.0
 11
4.54071044920974
 21
0.0000000000001705
 31
0.0
  0
LINE
  5
D03B
330
1F
100
AcDbEntity
  8
AM_0
100
AcDbLine
 10
-100.0000000000002
 20
12.49999999999396
 30
0.0
 11
-177.0000000000002
 21
12.49999999999382
 31
0.0
  0
LINE
  5
D03C
330
1F
100
AcDbEntity
  8
AM_0
100
AcDbLine
 10
-177.0000000000002
 20
-12.50000762939517
 30
0.0
 11
-99.99999974343356
 21
-12.50000762939503
 31
0.0
  0
LINE
  5
D040
330
1F
100
AcDbEntity
  8
AM_0
100
AcDbLine
 10
-177.0000000000002
 20
-12.50000762939518
 30
0.0
 11
-177.0000000000002
 21
-0.0000000000001864
 31
0.0
  0
LINE
  5
D041
330
1F
100
AcDbEntity
  8
AM_0
100
AcDbLine
 10
-179.2587890625002
 20
-11.89475250244218
 30
0.0
 11
-177.0000305175802
 21
-12.50000000000018
 31
0.0
  0
LINE
  5
D042
330
1F
100
AcDbEntity
  8
AM_0
100
AcDbLine
 10
-180.0000000000002
 20
-0.0000000000002006
 30
0.0
 11
-180.0000000000002
 21
10.9288253784138
 31
0.0
  0
LINE
  5
D043
330
1F
100
AcDbEntity
  8
AM_0
100
AcDbLine
 10
-177.0000000000002
 20
-0.0000000000001864
 30
0.0
 11
-177.0000000000002
 21
12.49999999999381
 31
0.0
  0
ARC
  5
D044
330
1F
100
AcDbEntity
  8
AM_0
100
AcDbCircle
 10
-179.0000000000002
 20
-10.92883300781319
 30
0.0
 40
1.0
100
AcDbArc
 50
180.0000086514213
 51
255.0000073233939
  0
LINE
  5
D045
330
1F
100
AcDbEntity
  8
AM_0
100
AcDbLine
 10
-180.0000000000002
 20
-10.92883300781319
 30
0.0
 11
-180.0000000000002
 21
-0.0000000000002006
 31
0.0
  0
ARC
  5
D046
330
1F
100
AcDbEntity
  8
AM_0
100
AcDbCircle
 10
-179.0000000000002
 20
10.9288253784138
 30
0.0
 40
1.000000119209299
100
AcDbArc
 50
104.9999926766062
 51
180.0000050089577
  0
LINE
  5
D047
330
1F
100
AcDbEntity
  8
AM_0
100
AcDbLine
 10
-177.0000000000002
 20
12.50000762939381
 30
0.0
 11
-179.2587585449302
 21
11.8947677612238
 31
0.0
  0
LINE
  5
D048
330
1F
100
AcDbEntity
  8
AM_0
100
AcDbLine
 10
-14.71264648438028
 20
10.49999999999413
 30
0.0
 11
-96.00000000000029
 21
10.49999999999398
 31
0.0
  0
LINE
  5
D049
330
1F
100
AcDbEntity
  8
AM_0
100
AcDbLine
 10
-96.00000000000026
 20
-10.50000762939502
 30
0.0
 11
-14.71264648438025
 21
-10.50000762939487
 31
0.0
  0
ARC
  5
D04B
330
1F
100
AcDbEntity
  8
AM_0
100
AcDbCircle
 10
-96.00000000000024
 20
-15.50000762939503
 30
0.0
 40
5.0
100
AcDbArc
 50
90.00000250447845
 51
143.1300974540937
  0
LINE
  5
D04C
330
1F
100
AcDbEntity
  8
AM_0
100
AcDbLine
 10
-100.0000000000002
 20
-12.50000762939504
 30
0.0
 11
-100.0000000000002
 21
-0.0000000000000443
 31
0.0
  0
ARC
  5
D04D
330
1F
100
AcDbEntity
  8
AM_0
100
AcDbCircle
 10
-96.00000000000031
 20
15.49999999999395
 30
0.0
 40
5.0
100
AcDbArc
 50
216.8699025459062
 51
269.9999974955215
  0
LINE
  5
D04E
330
1F
100
AcDbEntity
  8
AM_0
100
AcDbLine
 10
-100.0000000000002
 20
-0.0000000000000443
 30
0.0
 11
-100.0000000000003
 21
12.49999999999396
 31
0.0
  0
ARC
  5
D04F
330
1F
100
AcDbEntity
  8
AM_0
100
AcDbCircle
 10
-8.029357910160285
 20
4.34999847412115
 30
0.0
 40
2.0
100
AcDbArc
 50
270.0000043257106
 51
293.1580885557168
  0
CIRCLE
  5
D050
330
1F
100
AcDbEntity
  8
AM_0
100
AcDbCircle
 10
-4.993164062500284
 20
7.349998474121164
 30
0.0
 40
2.9927620887756
  0
LINE
  5
D052
330
1F
100
AcDbEntity
  8
AM_0
100
AcDbLine
 10
-7.772445678710255
 20
-9.875129699706846
 30
0.0
 11
-6.787704467780258
 21
-10.89936828613285
 31
0.0
  0
LINE
  5
D053
330
1F
100
AcDbEntity
  8
AM_0
100
AcDbLine
 10
-7.772460937500255
 20
1.649993896484147
 30
0.0
 11
-6.704650878910257
 21
1.649993896484147
 31
0.0
  0
LINE
  5
D054
330
1F
100
AcDbEntity
  8
AM_0
100
AcDbLine
 10
-3.000000000000255
 20
2.149993896484161
 30
0.0
 11
-10.02661132813025
 21
2.149993896484147
 31
0.0
  0
LINE
  5
D055
330
1F
100
AcDbEntity
  8
AM_0
100
AcDbLine
 10
-6.861694335940256
 20
-10.89994049072285
 30
0.0
 11
-7.882980346680255
 21
-9.877250671386846
 31
0.0
  0
LINE
  5
D056
330
1F
100
AcDbEntity
  8
AM_0
100
AcDbLine
 10
-7.809844970710258
 20
-9.875869750976846
 30
0.0
 11
-6.787704467780258
 21
-10.89938354492184
 31
0.0
  0
ARC
  5
D058
330
1F
100
AcDbEntity
  8
AM_0
100
AcDbCircle
 10
-10.02661132813028
 20
11.64999389648414
 30
0.0
 40
9.487172126769999
100
AcDbArc
 50
186.9801204737146
 51
270.0000043257106
  0
LINE
  5
D059
330
1F
100
AcDbEntity
  8
AM_0
100
AcDbLine
 10
-19.91801452637028
 20
10.47337341308413
 30
0.0
 11
-19.91709899903028
 21
10.47147369384413
 31
0.0
  0
LINE
  5
D05A
330
1F
100
AcDbEntity
  8
AM_0
100
AcDbLine
 10
-7.772460937500255
 20
-9.875152587890852
 30
0.0
 11
-7.772460937500255
 21
1.649993896484147
 31
0.0
  0
LINE
  5
D05B
330
1F
100
AcDbEntity
  8
AM_0
100
AcDbLine
 10
-8.304138183600258
 20
-11.10556030273485
 30
0.0
 11
-8.743515014650256
 21
-10.66551208496085
 31
0.0
  0
LINE
  5
D05C
330
1F
100
AcDbEntity
  8
AM_0
100
AcDbLine
 10
-8.664993286140258
 20
-10.58843994140684
 30
0.0
 11
-8.743545532230257
 21
-10.66550445556684
 31
0.0
  0
LINE
  5
D05D
330
1F
100
AcDbEntity
  8
AM_0
100
AcDbLine
 10
-8.304122924810258
 20
-11.10554504394585
 30
0.0
 11
-8.263793945320259
 21
-10.99020385742184
 31
0.0
  0
LINE
  5
D05E
330
1F
100
AcDbEntity
  8
AM_0
100
AcDbLine
 10
-11.14410400391025
 20
-10.49832153320285
 30
0.0
 11
-10.14231872559025
 21
-9.919136047363849
 31
0.0
  0
LINE
  5
D05F
330
1F
100
AcDbEntity
  8
AM_0
100
AcDbLine
 10
-8.664993286140258
 20
-10.58843231201184
 30
0.0
 11
-8.263809204110259
 21
-10.99020385742184
 31
0.0
  0
LINE
  5
D060
330
1F
100
AcDbEntity
  8
AM_0
100
AcDbLine
 10
-9.470275878910257
 20
1.649993896484147
 30
0.0
 11
-7.772460937500255
 21
1.649993896484147
 31
0.0
  0
ARC
  5
D061
330
1F
100
AcDbEntity
  8
AM_0
100
AcDbCircle
 10
-8.029357910160285
 20
4.34999847412115
 30
0.0
 40
1.9976841211319
100
AcDbArc
 50
156.7849979824027
 51
270.0000006832462
  0
LINE
  5
D062
330
1F
100
AcDbEntity
  8
AM_0
100
AcDbLine
 10
-9.865295410160285
 20
9.758964538574147
 30
0.0
 11
-9.502563476570287
 21
9.513992309570141
 31
0.0
  0
LINE
  5
D063
330
1F
100
AcDbEntity
  8
AM_0
100
AcDbLine
 10
-9.865295410160285
 20
5.137451171875142
 30
0.0
 11
-9.865295410160285
 21
6.134300231933153
 31
0.0
  0
LINE
  5
D064
330
1F
100
AcDbEntity
  8
AM_0
100
AcDbLine
 10
-9.865295410160285
 20
8.565689086914147
 30
0.0
 11
-9.865295410160285
 21
9.758972167968153
 31
0.0
  0
LINE
  5
D065
330
1F
100
AcDbEntity
  8
AM_0
100
AcDbLine
 10
-11.14408874512028
 20
10.49834442138414
 30
0.0
 11
-9.865295410160285
 21
9.759002685547145
 31
0.0
  0
LINE
  5
D066
330
1F
100
AcDbEntity
  8
AM_0
100
AcDbLine
 10
-9.986267089850286
 20
7.661155700683153
 30
0.0
 11
-9.986267089850286
 21
7.038841247558153
 31
0.0
  0
LINE
  5
D067
330
1F
100
AcDbEntity
  8
AM_0
100
AcDbLine
 10
-8.304122924810286
 20
11.10556030273414
 30
0.0
 11
-8.743515014650284
 21
10.66551208495414
 31
0.0
  0
LINE
  5
D068
330
1F
100
AcDbEntity
  8
AM_0
100
AcDbLine
 10
-9.487289428710283
 20
9.550888061523153
 30
0.0
 11
-9.725082397460283
 21
8.975929260254147
 31
0.0
  0
LINE
  5
D069
330
1F
100
AcDbEntity
  8
AM_0
100
AcDbLine
 10
-9.725082397460283
 20
5.724052429199147
 30
0.0
 11
-9.487304687500284
 21
5.149108886718153
 31
0.0
  0
LINE
  5
D06A
330
1F
100
AcDbEntity
  8
AM_0
100
AcDbLine
 10
-8.743515014650284
 20
4.034492492675141
 30
0.0
 11
-8.304122924810286
 21
3.594444274902144
 31
0.0
  0
LINE
  5
D06D
330
1F
100
AcDbEntity
  8
AM_0
100
AcDbLine
 10
-4.682434082040231
 20
-12.35000610351583
 30
0.0
 11
-5.303894042970227
 21
-12.35000610351583
 31
0.0
  0
LINE
  5
D06E
330
1F
100
AcDbEntity
  8
AM_0
100
AcDbLine
 10
-5.31343078614023
 20
-12.21393585205083
 30
0.0
 11
-5.303848266610231
 21
-12.34999847412083
 31
0.0
  0
LINE
  5
D06F
330
1F
100
AcDbEntity
  8
AM_0
100
AcDbLine
 10
-4.68240356446023
 20
-12.34999084472683
 30
0.0
 11
-4.74606323243023
 21
-12.21392822265683
 31
0.0
  0
LINE
  5
D070
330
1F
100
AcDbEntity
  8
AM_0
100
AcDbLine
 10
-5.313476562500227
 20
-12.21393585205083
 30
0.0
 11
-4.746093750000227
 21
-12.21393585205083
 31
0.0
  0
LINE
  5
D071
330
1F
100
AcDbEntity
  8
AM_0
100
AcDbLine
 10
-3.000000000000255
 20
2.149993896484161
 30
0.0
 11
-3.000000000000255
 21
1.649993896484161
 31
0.0
  0
LINE
  5
D072
330
1F
100
AcDbEntity
  8
AM_0
100
AcDbLine
 10
-1.572509765630286
 20
3.704246520996164
 30
0.0
 11
-1.572509765630258
 21
1.649993896484161
 31
0.0
  0
ARC
  5
D073
330
1F
100
AcDbEntity
  8
AM_0
100
AcDbCircle
 10
-5.539123535160257
 20
-7.200004577636832
 30
0.0
 40
1.75
100
AcDbArc
 50
270.0000043257106
 51
0.0000006832405482
  0
ARC
  5
D074
330
1F
100
AcDbEntity
  8
AM_0
100
AcDbCircle
 10
-5.539123535160257
 20
-7.200004577636832
 30
0.0
 40
1.7476010322571
100
AcDbArc
 50
359.9999974955215
 51
90.00000250447845
  0
LINE
  5
D075
330
1F
100
AcDbEntity
  8
AM_0
100
AcDbLine
 10
-3.646423339850258
 20
-8.900138854980838
 30
0.0
 11
-3.541870117190256
 21
-8.770874023437841
 31
0.0
  0
LINE
  5
D076
330
1F
100
AcDbEntity
  8
AM_0
100
AcDbLine
 10
-3.646408081060258
 20
-10.93128204345683
 30
0.0
 11
-3.617538452150256
 21
-10.90280151367183
 31
0.0
  0
LINE
  5
D077
330
1F
100
AcDbEntity
  8
AM_0
100
AcDbLine
 10
-3.646423339850258
 20
1.649993896484161
 30
0.0
 11
-1.572509765630258
 21
1.649993896484161
 31
0.0
  0
LINE
  5
D078
330
1F
100
AcDbEntity
  8
AM_0
100
AcDbLine
 10
-3.54388427735023
 20
-11.61890411376984
 30
0.0
 11
-3.867919921880258
 21
-11.03755950927784
 31
0.0
  0
ARC
  5
D079
330
1F
100
AcDbEntity
  8
AM_0
100
AcDbCircle
 10
-5.539123535160257
 20
-7.200004577636832
 30
0.0
 40
1.75
100
AcDbArc
 50
90.00000250447845
 51
270.0000006832462
  0
LINE
  5
D07A
330
1F
100
AcDbEntity
  8
AM_0
100
AcDbLine
 10
-6.787734985360259
 20
-10.89939117431684
 30
0.0
 11
-6.704650878910257
 21
-10.98546600341785
 31
0.0
  0
LINE
  5
D07B
330
1F
100
AcDbEntity
  8
AM_0
100
AcDbLine
 10
-6.704650878910257
 20
-10.98545074462885
 30
0.0
 11
-6.704650878910257
 21
-9.030799865722855
 31
0.0
  0
LINE
  5
D07C
330
1F
100
AcDbEntity
  8
AM_0
100
AcDbLine
 10
-6.704650878910257
 20
-5.475028991699844
 30
0.0
 11
-6.704650878910257
 21
1.649993896484147
 31
0.0
  0
LINE
  5
D07D
330
1F
100
AcDbEntity
  8
AM_0
100
AcDbLine
 10
-3.646423339850258
 20
-7.004013061523835
 30
0.0
 11
-3.646423339850258
 21
1.649993896484161
 31
0.0
  0
LINE
  5
D07E
330
1F
100
AcDbEntity
  8
AM_0
100
AcDbLine
 10
-3.646423339850258
 20
-10.93127441406284
 30
0.0
 11
-3.646423339850258
 21
-8.900138854980838
 31
0.0
  0
LINE
  5
D07F
330
1F
100
AcDbEntity
  8
AM_0
100
AcDbLine
 10
-7.061828613290231
 20
-11.48083496093785
 30
0.0
 11
-7.19104003907023
 21
-11.85031127929684
 31
0.0
  0
LINE
  5
D080
330
1F
100
AcDbEntity
  8
AM_0
100
AcDbLine
 10
-6.616867065430227
 20
-12.08847808837885
 30
0.0
 11
-7.19102478028023
 21
-11.85032653808585
 31
0.0
  0
LINE
  5
D081
330
1F
100
AcDbEntity
  8
AM_0
100
AcDbLine
 10
-6.616851806640227
 20
-12.08847808837885
 30
0.0
 11
-6.647613525390227
 21
-11.65265655517583
 31
0.0
  0
LINE
  5
D082
330
1F
100
AcDbEntity
  8
AM_0
100
AcDbLine
 10
-7.061843872070227
 20
-11.48085021972684
 30
0.0
 11
-7.018630981450229
 21
-11.48130035400384
 31
0.0
  0
LINE
  5
D083
330
1F
100
AcDbEntity
  8
AM_0
100
AcDbLine
 10
-7.018615722660229
 20
-11.48129272460985
 30
0.0
 11
-6.861694335940256
 21
-10.89994049072285
 31
0.0
  0
LINE
  5
D084
330
1F
100
AcDbEntity
  8
AM_0
100
AcDbLine
 10
-6.805297851570259
 20
-10.94591522216785
 30
0.0
 11
-6.787704467780258
 21
-10.89937591552785
 31
0.0
  0
LINE
  5
D085
330
1F
100
AcDbEntity
  8
AM_0
100
AcDbLine
 10
-6.529891967780258
 20
-11.03756713867184
 30
0.0
 11
-6.68681335450023
 21
-11.61890411376984
 31
0.0
  0
LINE
  5
D086
330
1F
100
AcDbEntity
  8
AM_0
100
AcDbLine
 10
-6.686828613290231
 20
-11.61890411376984
 30
0.0
 11
-6.647628784180227
 21
-11.65265655517583
 31
0.0
  0
LINE
  5
D087
330
1F
100
AcDbEntity
  8
AM_0
100
AcDbLine
 10
-6.585220336920258
 20
-10.98338317871085
 30
0.0
 11
-6.602783203130258
 21
-11.02989959716785
 31
0.0
  0
LINE
  5
D088
330
1F
100
AcDbEntity
  8
AM_0
100
AcDbLine
 10
-3.867919921880258
 20
-11.03756713867183
 30
0.0
 11
-6.529907226570259
 21
-11.03756713867184
 31
0.0
  0
LINE
  5
D089
330
1F
100
AcDbEntity
  8
AM_0
100
AcDbLine
 10
-6.585205078130258
 20
-10.98338317871085
 30
0.0
 11
-3.816589355470256
 21
-10.98338317871083
 31
0.0
  0
LINE
  5
D08A
330
1F
100
AcDbEntity
  8
AM_0
100
AcDbLine
 10
-3.795623779300257
 20
-11.02987670898484
 30
0.0
 11
-3.816543579110259
 21
-10.98336029052784
 31
0.0
  0
LINE
  5
D08B
330
1F
100
AcDbEntity
  8
AM_0
100
AcDbLine
 10
-6.704650878910257
 20
1.649993896484147
 30
0.0
 11
-3.646423339850258
 21
1.649993896484161
 31
0.0
  0
LINE
  5
D08C
330
1F
100
AcDbEntity
  8
AM_0
100
AcDbLine
 10
-1.656433105470256
 20
-8.93900299072284
 30
0.0
 11
-1.652282714850258
 21
-8.934822082519843
 31
0.0
  0
LINE
  5
D08D
330
1F
100
AcDbEntity
  8
AM_0
100
AcDbLine
 10
-1.652282714850258
 20
-8.934806823730838
 30
0.0
 11
-1.572509765630258
 21
-8.853347778320838
 31
0.0
  0
LINE
  5
D08E
330
1F
100
AcDbEntity
  8
AM_0
100
AcDbLine
 10
-1.572509765630258
 20
-8.853363037109843
 30
0.0
 11
-1.572509765630258
 21
1.649993896484161
 31
0.0
  0
LINE
  5
D08F
330
1F
100
AcDbEntity
  8
AM_0
100
AcDbLine
 10
-1.242736816410257
 20
-10.66550445556683
 30
0.0
 11
-1.682189941410257
 21
-11.10554504394583
 31
0.0
  0
LINE
  5
D090
330
1F
100
AcDbEntity
  8
AM_0
100
AcDbLine
 10
-1.572509765630258
 20
-3.704261779785838
 30
0.0
 11
-1.242736816410257
 21
-4.034500122070838
 31
0.0
  0
LINE
  5
D091
330
1F
100
AcDbEntity
  8
AM_0
100
AcDbLine
 10
-0.0000000000002558
 20
-7.038841247558835
 30
0.0
 11
-0.0000000000002558
 21
-7.66116333007784
 31
0.0
  0
LINE
  5
D092
330
1F
100
AcDbEntity
  8
AM_0
100
AcDbLine
 10
-1.795761108400256
 20
-10.99018859863284
 30
0.0
 11
-1.682159423830256
 21
-11.10554504394583
 31
0.0
  0
LINE
  5
D093
330
1F
100
AcDbEntity
  8
AM_0
100
AcDbLine
 10
-1.394592285160257
 20
-4.111564636230838
 30
0.0
 11
-1.242736816410257
 21
-4.034492492675838
 31
0.0
  0
LINE
  5
D094
330
1F
100
AcDbEntity
  8
AM_0
100
AcDbLine
 10
-1.242736816410257
 20
-10.66551971435583
 30
0.0
 11
-1.394577026370257
 21
-10.58845520019583
 31
0.0
  0
LINE
  5
D095
330
1F
100
AcDbEntity
  8
AM_0
100
AcDbLine
 10
-0.1724700927802587
 20
-7.634101867675838
 30
0.0
 11
-0.0000152587902562
 21
-7.661155700683835
 31
0.0
  0
LINE
  5
D096
330
1F
100
AcDbEntity
  8
AM_0
100
AcDbLine
 10
-0.0000305175802566
 20
-7.03884887695284
 30
0.0
 11
-0.1724853515702591
 21
-7.065910339355838
 31
0.0
  0
LINE
  5
D097
330
1F
100
AcDbEntity
  8
AM_0
100
AcDbLine
 10
-3.57334899903023
 20
-11.65264892578183
 30
0.0
 11
-3.36943054200023
 21
-12.08847045898484
 31
0.0
  0
LINE
  5
D098
330
1F
100
AcDbEntity
  8
AM_0
100
AcDbLine
 10
-2.795257568360227
 20
-11.85031890869183
 30
0.0
 11
-3.369461059570227
 21
-12.08849334716784
 31
0.0
  0
LINE
  5
D099
330
1F
100
AcDbEntity
  8
AM_0
100
AcDbLine
 10
-2.795257568360227
 20
-11.85034179687484
 30
0.0
 11
-3.15914916993023
 21
-11.48086547851583
 31
0.0
  0
LINE
  5
D09A
330
1F
100
AcDbEntity
  8
AM_0
100
AcDbLine
 10
-0.813720703130258
 20
-5.810752868652841
 30
0.0
 11
-0.2611541748102581
 21
-5.724052429199844
 31
0.0
  0
LINE
  5
D09B
330
1F
100
AcDbEntity
  8
AM_0
100
AcDbLine
 10
-0.4989929199302594
 20
-5.149101257324844
 30
0.0
 11
-0.2611389160202577
 21
-5.724052429199844
 31
0.0
  0
LINE
  5
D09C
330
1F
100
AcDbEntity
  8
AM_0
100
AcDbLine
 10
-0.4990081787102554
 20
-5.149131774902841
 30
0.0
 11
-0.9852905273502585
 21
-5.396003723144843
 31
0.0
  0
LINE
  5
D09D
330
1F
100
AcDbEntity
  8
AM_0
100
AcDbLine
 10
-0.9852752685602581
 20
-9.304008483886832
 30
0.0
 11
-0.4990081787102554
 21
-9.550880432128835
 31
0.0
  0
LINE
  5
D09E
330
1F
100
AcDbEntity
  8
AM_0
100
AcDbLine
 10
-0.261184692390259
 20
-8.975921630859843
 30
0.0
 11
-0.4990386962902563
 21
-9.550888061523835
 31
0.0
  0
LINE
  5
D09F
330
1F
100
AcDbEntity
  8
AM_0
100
AcDbLine
 10
-0.261184692390259
 20
-8.975936889648835
 30
0.0
 11
-0.8136901855502571
 21
-8.889259338378835
 31
0.0
  0
LINE
  5
D0A0
330
1F
100
AcDbEntity
  8
AM_0
100
AcDbLine
 10
-3.573379516610231
 20
-11.65264892578183
 30
0.0
 11
-3.54388427735023
 21
-11.61888122558583
 31
0.0
  0
LINE
  5
D0A1
330
1F
100
AcDbEntity
  8
AM_0
100
AcDbLine
 10
-3.536178588870257
 20
-10.89994049072284
 30
0.0
 11
-3.212081909180227
 21
-11.48129272460984
 31
0.0
  0
LINE
  5
D0A2
330
1F
100
AcDbEntity
  8
AM_0
100
AcDbLine
 10
-3.212097167970227
 20
-11.48129272460984
 30
0.0
 11
-3.159179687500227
 21
-11.48084259033183
 31
0.0
  0
LINE
  5
D0A3
330
1F
100
AcDbEntity
  8
AM_0
100
AcDbLine
 10
-1.795761108400256
 20
-10.99021911621083
 30
0.0
 11
-1.394577026370257
 21
-10.58844757080083
 31
0.0
  0
LINE
  5
D0A4
330
1F
100
AcDbEntity
  8
AM_0
100
AcDbLine
 10
-0.9852447509802573
 20
-9.304016113281832
 30
0.0
 11
-0.9896392822302573
 21
-9.255851745605838
 31
0.0
  0
LINE
  5
D0A5
330
1F
100
AcDbEntity
  8
AM_0
100
AcDbLine
 10
-0.9896697998102581
 20
-5.444145202636832
 30
0.0
 11
-0.9852752685602581
 21
-5.395988464355838
 31
0.0
  0
LINE
  5
D0A6
330
1F
100
AcDbEntity
  8
AM_0
100
AcDbLine
 10
-1.394561767580256
 20
-4.111587524413835
 30
0.0
 11
-1.572494506840257
 21
-3.933372497558835
 31
0.0
  0
LINE
  5
D0A7
330
1F
100
AcDbEntity
  8
AM_0
100
AcDbLine
 10
-0.852294921880258
 20
-8.923629760742841
 30
0.0
 11
-0.813720703130258
 21
-8.889259338378835
 31
0.0
  0
LINE
  5
D0A8
330
1F
100
AcDbEntity
  8
AM_0
100
AcDbLine
 10
-0.1724853515702591
 20
-7.634094238281832
 30
0.0
 11
-0.1724853515702591
 21
-7.065910339355838
 31
0.0
  0
LINE
  5
D0A9
330
1F
100
AcDbEntity
  8
AM_0
100
AcDbLine
 10
-0.8137054443402575
 20
-5.810768127441832
 30
0.0
 11
-0.8522796630902575
 21
-5.77639770507784
 31
0.0
  0
LINE
  5
D0AA
330
1F
100
AcDbEntity
  8
AM_0
100
AcDbLine
 10
-0.852294921880258
 20
-5.776374816894843
 30
0.0
 11
-1.516403198250259
 21
-6.017181396484843
 31
0.0
  0
LINE
  5
D0AB
330
1F
100
AcDbEntity
  8
AM_0
100
AcDbLine
 10
-1.572494506840257
 20
-5.655456542968835
 30
0.0
 11
-0.9896850586002585
 21
-5.444145202636832
 31
0.0
  0
LINE
  5
D0AC
330
1F
100
AcDbEntity
  8
AM_0
100
AcDbLine
 10
-0.9897003173902589
 20
-9.255859374999843
 30
0.0
 11
-1.653869628910257
 21
-9.015052795410838
 31
0.0
  0
LINE
  5
D0AD
330
1F
100
AcDbEntity
  8
AM_0
100
AcDbLine
 10
-1.516418457040259
 20
-8.682823181152841
 30
0.0
 11
-0.8522796630902575
 21
-8.923637390136832
 31
0.0
  0
LINE
  5
D0AE
330
1F
100
AcDbEntity
  8
AM_0
100
AcDbLine
 10
-3.614105224610256
 20
-10.89936828613284
 30
0.0
 11
-3.593109130860256
 21
-10.94590759277383
 31
0.0
  0
LINE
  5
D0AF
330
1F
100
AcDbEntity
  8
AM_0
100
AcDbLine
 10
-1.653869628910257
 20
-9.015052795410838
 30
0.0
 11
-3.536178588870257
 21
-10.89994049072284
 31
0.0
  0
LINE
  5
D0B0
330
1F
100
AcDbEntity
  8
AM_0
100
AcDbLine
 10
-1.516418457040259
 20
-6.017181396484843
 30
0.0
 11
-1.516418457040259
 21
-8.682823181152841
 31
0.0
  0
LINE
  5
D0B1
330
1F
100
AcDbEntity
  8
AM_0
100
AcDbLine
 10
-1.524368286140258
 20
-5.94453430175784
 30
0.0
 11
-1.572525024420258
 21
-5.963813781738835
 31
0.0
  0
LINE
  5
D0B2
330
1F
100
AcDbEntity
  8
AM_0
100
AcDbLine
 10
-1.608230590820255
 20
-8.958259582519843
 30
0.0
 11
-1.656433105470256
 21
-8.93899536132784
 31
0.0
  0
LINE
  5
D0B3
330
1F
100
AcDbEntity
  8
AM_0
100
AcDbLine
 10
-1.572494506840257
 20
-8.736206054687841
 30
0.0
 11
-1.524337768560258
 21
-8.755477905273835
 31
0.0
  0
LINE
  5
D0B4
330
1F
100
AcDbEntity
  8
AM_0
100
AcDbLine
 10
-3.000000000000255
 20
2.511543273925155
 30
0.0
 11
-3.642700195320259
 21
2.511543273925155
 31
0.0
  0
LINE
  5
D0B5
330
1F
100
AcDbEntity
  8
AM_0
100
AcDbLine
 10
-6.343627929690256
 20
2.511543273925155
 30
0.0
 11
-7.242980957040259
 21
2.511543273925155
 31
0.0
  0
LINE
  5
D0B6
330
1F
100
AcDbEntity
  8
AM_0
100
AcDbLine
 10
-4.682434082040288
 20
12.34999847411415
 30
0.0
 11
-5.303894042970284
 21
12.34999847411415
 31
0.0
  0
LINE
  5
D0B7
330
1F
100
AcDbEntity
  8
AM_0
100
AcDbLine
 10
-6.616897583010285
 20
12.08845520019414
 30
0.0
 11
-7.191040039070287
 21
11.85031127929414
 31
0.0
  0
LINE
  5
D0B8
330
1F
100
AcDbEntity
  8
AM_0
100
AcDbLine
 10
-7.191040039070259
 20
2.849670410156164
 30
0.0
 11
-6.616867065430255
 21
2.611511230468153
 31
0.0
  0
LINE
  5
D0B9
330
1F
100
AcDbEntity
  8
AM_0
100
AcDbLine
 10
-5.303894042970256
 20
2.349998474121164
 30
0.0
 11
-4.682434082040259
 21
2.349998474121164
 31
0.0
  0
LINE
  5
D0BA
330
1F
100
AcDbEntity
  8
AM_0
100
AcDbLine
 10
-3.000000000000255
 20
2.511543273925155
 30
0.0
 11
-3.000000000000255
 21
2.764755249023167
 31
0.0
  0
LINE
  5
D0BB
330
1F
100
AcDbEntity
  8
AM_0
100
AcDbLine
 10
-3.000000000000255
 20
2.149993896484161
 30
0.0
 11
-3.000000000000255
 21
2.511543273925155
 31
0.0
  0
LINE
  5
D0BC
330
1F
100
AcDbEntity
  8
AM_0
100
AcDbLine
 10
-3.369445800790259
 20
2.611518859863167
 30
0.0
 11
-2.795288085940256
 21
2.849670410156164
 31
0.0
  0
LINE
  5
D0BD
330
1F
100
AcDbEntity
  8
AM_0
100
AcDbLine
 10
-1.682174682620285
 20
3.594436645507158
 30
0.0
 11
-1.242721557620285
 21
4.034500122070156
 31
0.0
  0
LINE
  5
D0BE
330
1F
100
AcDbEntity
  8
AM_0
100
AcDbLine
 10
-0.4990234375002843
 20
5.149116516113167
 30
0.0
 11
-0.2611846923902874
 21
5.724052429199161
 31
0.0
  0
LINE
  5
D0BF
330
1F
100
AcDbEntity
  8
AM_0
100
AcDbLine
 10
-0.0000000000002842
 20
7.038841247558167
 30
0.0
 11
-0.0000000000002842
 21
7.661155700683167
 31
0.0
  0
LINE
  5
D0C0
330
1F
100
AcDbEntity
  8
AM_0
100
AcDbLine
 10
-0.2611389160202862
 20
8.975952148437158
 30
0.0
 11
-0.4989929199302879
 21
9.550903320312158
 31
0.0
  0
LINE
  5
D0C1
330
1F
100
AcDbEntity
  8
AM_0
100
AcDbLine
 10
-1.242736816410285
 20
10.66549682616415
 30
0.0
 11
-1.682205200200286
 21
11.10556030273416
 31
0.0
  0
LINE
  5
D0C2
330
1F
100
AcDbEntity
  8
AM_0
100
AcDbLine
 10
-2.795288085940285
 20
11.85032653808416
 30
0.0
 11
-3.369445800790288
 21
12.08847808837416
 31
0.0
  0
LINE
  5
D289
330
1F
100
AcDbEntity
  8
AM_11
100
AcDbLine
 10
-0.0000000000002913
 20
12.50000000000014
 30
0.0
 11
-0.0000000000002487
 21
-12.49999999999981
 31
0.0
  0
LINE
  5
D291
330
1F
100
AcDbEntity
  8
AM_11
100
AcDbLine
 10
-5.000000000000294
 20
12.50000000000011
 30
0.0
 11
-5.000000000000252
 21
-12.49999999999985
 31
0.0
  0
LINE
  5
D299
330
1F
100
AcDbEntity
  8
AM_11
100
AcDbLine
 10
-5.000000000000301
 20
12.50000000000009
 30
0.0
 11
-0.0000000000002913
 21
12.50000000000014
 31
0.0
  0
LINE
  5
D29D
330
1F
100
AcDbEntity
  8
AM_11
100
AcDbLine
 10
-5.000000000000252
 20
-12.49999999999981
 30
0.0
 11
-0.0000000000002487
 21
-12.49999999999981
 31
0.0
  0
DIMENSION
  5
D2A6
330
1F
100
AcDbEntity
  8
AM_5
100
AcDbDimension
  2
*D5
 10
-0.0000000000002785
 20
19.50000000000014
 30
0.0
 11
-2.500000000000279
 21
21.05000000000014
 31
0.0
 70
    32
  1
<>
 51
359.9999999999998
  3
AM_JIS$0
100
AcDbAlignedDimension
 13
-5.000000000000298
 23
12.50000000000011
 33
0.0
 14
-0.0000000000002913
 24
12.50000000000014
 34
0.0
 50
180.0
100
AcDbRotatedDimension
1001
GENIUS_GENDTOL_13
1000

1000
h7
1000

1040
0.0
1001
ACAD
1000
DSTYLE
1002
{
1070
   287
1070
     3
1070
    40
1040
0.5
1070
    42
1040
1.0
1070
    43
1040
12.0
1070
    48
1040
0.1
1070
    78
1070
     8
1070
   140
1040
3.2
1070
   176
1070
   256
1070
   177
1070
   256
1070
   271
1070
     0
1070
   272
1070
     3
1070
   275
1070
     0
1070
   284
1070
     0
1070
   289
1070
     3
1070
   340
1005
6B
1070
   371
1070
    -1
1070
   372
1070
    -1
1002
}
  0
DIMENSION
  5
D34C
330
1F
100
AcDbEntity
  8
AM_5
100
AcDbDimension
  2
*D6
 10
6.999999999999754
 20
-12.49999999999981
 30
0.0
 11
5.449999999999757
 21
0.0000000000001632
 31
0.0
 70
    32
  1
%%c<>
 51
359.9999999999998
  3
AM_JIS$0
100
AcDbAlignedDimension
 13
-0.0000000000002913
 23
12.50000000000014
 33
0.0
 14
-0.0000000000002487
 24
-12.49999999999981
 34
0.0
 50
90.0
100
AcDbRotatedDimension
1001
GENIUS_GENDTOL_13
1000

1000
h7
1000

1040
0.0
1001
ACAD
1000
DSTYLE
1002
{
1070
   287
1070
     3
1070
    40
1040
0.5
1070
    42
1040
1.0
1070
    43
1040
12.0
1070
    48
1040
0.1
1070
    78
1070
     8
1070
   140
1040
3.2
1070
   176
1070
   256
1070
   177
1070
   256
1070
   271
1070
     0
1070
   272
1070
     3
1070
   275
1070
     0
1070
   284
1070
     0
1070
   289
1070
     3
1070
   340
1005
6B
1070
   371
1070
    -1
1070
   372
1070
    -1
1002
}
  0
DIMENSION
  5
D3D8
330
1F
100
AcDbEntity
  8
AM_5
100
AcDbDimension
  2
*D7
 10
-51.07357712874053
 20
-10.50000762939495
 30
0.0
 11
-51.07357712874053
 21
4.293486801057101
 31
0.0
 70
   160
  1
%%c<>
 51
359.9999999999998
  3
AM_JIS$0
100
AcDbAlignedDimension
 13
-58.07357712874029
 23
10.49999999999404
 33
0.0
 14
-58.07357734729721
 24
-10.50000762939495
 34
0.0
 50
90.0
100
AcDbRotatedDimension
1001
GENIUS_GENDTOL_13
1000

1000
h7
1000

1040
0.0
1001
ACAD
1000
DSTYLE
1002
{
1070
   287
1070
     3
1070
    76
1070
     1
1070
    75
1070
     1
1070
    40
1040
0.5
1070
    42
1040
1.0
1070
    43
1040
12.0
1070
    48
1040
0.1
1070
    78
1070
     8
1070
   140
1040
3.2
1070
   176
1070
   256
1070
   177
1070
   256
1070
   271
1070
     0
1070
   272
1070
     3
1070
   275
1070
     0
1070
   284
1070
     0
1070
   289
1070
     3
1070
   340
1005
6B
1070
   371
1070
    -1
1070
   372
1070
    -1
1002
}
  0
DIMENSION
  5
D4A5
330
1F
100
AcDbEntity
  8
AM_5
100
AcDbDimension
  2
*D8
 10
-187.0000000000002
 20
-12.5000076293952
 30
0.0
 11
-188.5500000000002
 21
-0.0000038147007268
 31
0.0
 70
    32
  1
%%c<>
 51
359.9999999999998
  3
AM_JIS$0
100
AcDbAlignedDimension
 13
-177.0000000000002
 23
12.4999999999938
 33
0.0
 14
-177.0000000000002
 24
-12.5000076293952
 34
0.0
 50
270.0
100
AcDbRotatedDimension
1001
GENIUS_GENDTOL_13
1000

1000
h7
1000

1040
0.0
1001
ACAD
1000
DSTYLE
1002
{
1070
   287
1070
     3
1070
    40
1040
0.5
1070
    42
1040
1.0
1070
    43
1040
12.0
1070
    48
1040
0.1
1070
    78
1070
     8
1070
   140
1040
3.2
1070
   176
1070
   256
1070
   177
1070
   256
1070
   271
1070
     0
1070
   272
1070
     3
1070
   275
1070
     0
1070
   284
1070
     0
1070
   289
1070
     3
1070
   340
1005
6B
1070
   371
1070
    -1
1070
   372
1070
    -1
1002
}
  0
DIMENSION
  5
D543
330
1F
100
AcDbEntity
  8
AM_5
100
AcDbDimension
  2
*D9
 10
-0.0000000000002494
 20
-24.50000762939523
 30
0.0
 11
-90.00000000000024
 21
-22.95000762939523
 31
0.0
 70
    32
  1
<>
 51
359.9999999999998
  3
AM_JIS$0
100
AcDbAlignedDimension
 13
-180.0000000000002
 23
-10.92883315880898
 33
0.0
 14
-0.0000000000002487
 24
-12.4999999999998
 34
0.0
100
AcDbRotatedDimension
1001
GENIUS_GENDTOL_13
1000

1000
h7
1000

1040
0.0
1001
ACAD
1000
DSTYLE
1002
{
1070
   287
1070
     3
1070
    40
1040
0.5
1070
    42
1040
1.0
1070
    43
1040
12.0
1070
    48
1040
0.1
1070
    78
1070
     8
1070
   140
1040
3.2
1070
   176
1070
   256
1070
   177
1070
   256
1070
   271
1070
     0
1070
   272
1070
     3
1070
   275
1070
     0
1070
   284
1070
     0
1070
   289
1070
     3
1070
   340
1005
6B
1070
   371
1070
    -1
1070
   372
1070
    -1
1002
}
  0
DIMENSION
  5
D5D8
330
1F
100
AcDbEntity
  8
AM_5
100
AcDbDimension
  2
*D10
 10
-99.99999974343356
 20
-19.50000762939523
 30
0.0
 11
-49.9999998717169
 21
-17.95000762939523
 31
0.0
 70
    32
  1
<>
 51
359.9999999999998
  3
AM_JIS$0
100
AcDbAlignedDimension
 13
-0.0000000000002487
 23
-12.4999999999998
 33
0.0
 14
-99.99999974343356
 24
-12.50000728730616
 34
0.0
100
AcDbRotatedDimension
1001
GENIUS_GENDTOL_13
1000

1000
h7
1000

1040
0.0
1001
ACAD
1000
DSTYLE
1002
{
1070
   287
1070
     3
1070
    40
1040
0.5
1070
    42
1040
1.0
1070
    43
1040
12.0
1070
    48
1040
0.1
1070
    78
1070
     8
1070
   140
1040
3.2
1070
   176
1070
   256
1070
   177
1070
   256
1070
   271
1070
     0
1070
   272
1070
     3
1070
   275
1070
     0
1070
   284
1070
     0
1070
   289
1070
     3
1070
   340
1005
6B
1070
   371
1070
    -1
1070
   372
1070
    -1
1002
}
  0
DIMENSION
  5
D6C7
330
1F
100
AcDbEntity
  8
AM_5
100
AcDbDimension
  2
*D11
 10
-180.0000000000002
 20
-19.50000762939523
 30
0.0
 11
-139.9999998717169
 21
-17.95000762939523
 31
0.0
 70
    32
  1
<>
 51
359.9999999999998
  3
AM_JIS$0
100
AcDbAlignedDimension
 13
-99.99999974343356
 23
-12.50000728730616
 33
0.0
 14
-180.0000000000002
 24
-10.92883300781319
 34
0.0
100
AcDbRotatedDimension
1001
GENIUS_GENDTOL_13
1000

1000
h7
1000

1040
0.0
1001
ACAD
1000
DSTYLE
1002
{
1070
   287
1070
     3
1070
    40
1040
0.5
1070
    42
1040
1.0
1070
    43
1040
12.0
1070
    48
1040
0.1
1070
    78
1070
     8
1070
   140
1040
3.2
1070
   176
1070
   256
1070
   177
1070
   256
1070
   271
1070
     0
1070
   272
1070
     3
1070
   275
1070
     0
1070
   284
1070
     0
1070
   289
1070
     3
1070
   340
1005
6B
1070
   371
1070
    -1
1070
   372
1070
    -1
1002
}
  0
VIEWPORT
  5
110
330
101
100
AcDbEntity
 67
     1
  8
0
100
AcDbViewport
 10
420.5
 20
297.0
 30
0.0
 40
948.9782706766916
 41
628.452
 68
     1
 69
     1
1001
ACAD
1000
MVIEW
1002
{
1070
    16
1010
0.0
1020
0.0
1030
0.0
1010
0.0
1020
0.0
1030
1.0
1040
0.0
1040
628.452
1040
420.5
1040
297.0
1040
50.0
1040
0.0
1040
0.0
1070
     0
1070
   100
1070
     1
1070
     1
1070
     0
1070
     0
1070
     0
1070
     0
1040
0.0
1040
0.0
1040
0.0
1040
10.0
1040
10.0
1040
10.0
1040
10.0
1070
     0
1002
{
1002
}
1002
}
  0
ENDSEC
  0
SECTION
  2
OBJECTS
  0
DICTIONARY
  5
C
330
0
100
AcDbDictionary
  3
ACAD_GROUP
350
D
  3
ACAD_LAYOUT
350
1A
  3
ACAD_MLINESTYLE
350
17
  3
ACAD_PLOTSETTINGS
350
19
  3
ACAD_PLOTSTYLENAME
350
E
  3
ACDBVARIABLEDICTIONARY
350
34
  3
ACMDICTIONARY
350
43
  3
AMG
350
2B
  3
AMGSNAPSETTINGS
350
6E
  3
DWGPROPS
350
D944
  3
ACDBHEADERROUNDTRIPXREC
350
D950
  0
DICTIONARY
  5
74
330
1F
100
AcDbDictionary
280
     1
  3
ACAD_INDEX
360
D946
  3
ACAD_LAYOUTSELFREF
360
D973
  0
DICTIONARY
  5
D978
330
101
100
AcDbDictionary
280
     1
  3
ACAD_LAYOUTSELFREF
360
D979
  0
DICTIONARY
  5
D
102
{ACAD_REACTORS
330
C
102
}
330
C
100
AcDbDictionary
  0
DICTIONARY
  5
1A
102
{ACAD_REACTORS
330
C
102
}
330
C
100
AcDbDictionary
  0
DICTIONARY
  5
17
102
{ACAD_REACTORS
330
C
102
}
330
C
100
AcDbDictionary
  3
STANDARD
350
18
  0
DICTIONARY
  5
19
102
{ACAD_REACTORS
330
C
102
}
330
C
100
AcDbDictionary
  3
ASAMI
350
399D
  0
ACDBDICTIONARYWDFLT
  5
E
102
{ACAD_REACTORS
330
C
102
}
330
C
100
AcDbDictionary
281
     1
  3
Normal
350
F
100
AcDbDictionaryWithDefault
340
F
  0
DICTIONARY
  5
34
102
{ACAD_REACTORS
330
C
102
}
330
C
100
AcDbDictionary
  3
INDEXCTL
350
35
  3
SORTENTS
350
B5E
  0
DICTIONARY
  5
43
102
{ACAD_REACTORS
330
C
102
}
330
C
100
AcDbDictionary
  3
ACMSTDDICTIONARY
350
260
  0
DICTIONARY
  5
2B
102
{ACAD_REACTORS
330
C
102
}
330
C
100
AcDbDictionary
  3
ACMGSETTINGS
350
2C
  0
DICTIONARY
  5
6E
102
{ACAD_REACTORS
330
C
102
}
330
C
100
AcDbDictionary
  0
XRECORD
  5
D944
102
{ACAD_REACTORS
330
C
102
}
330
C
100
AcDbXrecord
  1
DWGPROPS COOKIE
  2

  3

  4

  6

  7

  8

  9

300
AmdtFileType=82
301
=
302
=
303
=
304
=
305
=
306
=
307
=
308
=
309
=
 40
1.005710844907407
 41
2452802.716478761
 42
2453075.688627558
  1

 90
        1
  0
DICTIONARY
  5
D950
102
{ACAD_REACTORS
330
C
102
}
330
C
100
AcDbDictionary
  3
TSTACKALIGN
350
D951
  3
TSTACKSIZE
350
D952
  3
HYPERLINKBASE
350
D953
  3
STYLESHEET
350
D954
  3
LAYOUTDICT
350
D955
  3
PLOTSETDICT
350
D956
  3
PLOTSTYLNAMDICT
350
D957
  3
LWETCUNION
350
D958
  3
INSUNITS
350
D959
  3
CEPSNTYPE
350
D95A
  3
FINGERPRINTGUID
350
D95B
  3
VERSIONGUID
350
D95C
  3
PSVPSCALE
350
D95D
  3
DIMSTYLEDATA
350
D95E
  3
PUCSORTHOREF
350
D95F
  3
PUCSORTHOVIEW
350
D960
  3
PUCSBASE
350
D961
  3
PUCSORGTOP
350
D962
  3
PUCSORGBOTTOM
350
D963
  3
PUCSORGLEFT
350
D964
  3
PUCSORGRIGHT
350
D965
  3
PUCSORGFRONT
350
D966
  3
PUCSORGBACK
350
D967
  3
UCSORTHOREF
350
D968
  3
UCSORTHOVIEW
350
D969
  3
UCSBASE
350
D96A
  3
UCSORGTOP
350
D96B
  3
UCSORGBOTTOM
350
D96C
  3
UCSORGLEFT
350
D96D
  3
UCSORGRIGHT
350
D96E
  3
UCSORGFRONT
350
D96F
  3
UCSORGBACK
350
D970
  0
DICTIONARY
  5
D946
102
{ACAD_REACTORS
330
74
102
}
330
74
100
AcDbDictionary
  3
*A1
350
D947
  0
XRECORD
  5
D973
102
{ACAD_REACTORS
330
74
102
}
330
74
100
AcDbXrecord
340
1F
  0
XRECORD
  5
D979
102
{ACAD_REACTORS
330
D978
102
}
330
D978
100
AcDbXrecord
340
101
  0
MLINESTYLE
  5
18
102
{ACAD_REACTORS
330
17
102
}
330
17
100
AcDbMlineStyle
  2
STANDARD
 70
     0
  3

 62
   256
 51
90.0
 52
90.0
 71
     2
 49
0.5
 62
   256
  6
BYLAYER
 49
-0.5
 62
   256
  6
BYLAYER
  0
PLOTSETTINGS
  5
399D
102
{ACAD_REACTORS
330
19
102
}
330
19
100
AcDbPlotSettings
  1
asami
  2
RICOH imagio MF1540
  4
A4
  6

 40
5.831416606903076
 41
7.651742935180664
 42
4.90008544921875
 43
5.789077758789062
 44
296.9683227539062
 45
209.9733276367187
 46
0.0
 47
0.0
 48
-156.6707931774246
 49
-74.57609991074048
140
58.59973180214831
141
60.61068161925596
142
1.0
143
1.095343097833084
 70
  1712
 72
     1
 73
     1
 74
     4
  7
asami.ctb
 75
     0
147
0.9129559514076438
148
156.6707931774246
149
74.57609991074048
  0
ACDBPLACEHOLDER
  5
F
102
{ACAD_REACTORS
330
E
102
}
330
E
100
AcDbPlaceHolder
280
     0
  0
DICTIONARYVAR
  5
35
102
{ACAD_REACTORS
330
34
102
}
330
34
100
DictionaryVariables
280
     0
  1
1
  0
DICTIONARYVAR
  5
B5E
102
{ACAD_REACTORS
330
34
102
}
330
34
100
DictionaryVariables
280
     0
  1
96
  0
DICTIONARY
  5
260
102
{ACAD_REACTORS
330
43
102
}
330
43
100
AcDbDictionary
  0
DICTIONARY
  5
2C
102
{ACAD_REACTORS
330
2B
102
}
330
2B
100
AcDbDictionary
  3
DWGSETTINGS
350
2D
  0
XRECORD
  5
D951
102
{ACAD_REACTORS
330
D950
102
}
330
D950
100
AcDbXrecord
 90
        1
  0
XRECORD
  5
D952
102
{ACAD_REACTORS
330
D950
102
}
330
D950
100
AcDbXrecord
 90
       70
  0
XRECORD
  5
D953
102
{ACAD_REACTORS
330
D950
102
}
330
D950
100
AcDbXrecord
  1

  0
XRECORD
  5
D954
102
{ACAD_REACTORS
330
D950
102
}
330
D950
100
AcDbXrecord
  1
ASAMI.ctb
  0
XRECORD
  5
D955
102
{ACAD_REACTORS
330
D950
102
}
330
D950
100
AcDbXrecord
340
1A
  0
XRECORD
  5
D956
102
{ACAD_REACTORS
330
D950
102
}
330
D950
100
AcDbXrecord
340
19
  0
XRECORD
  5
D957
102
{ACAD_REACTORS
330
D950
102
}
330
D950
100
AcDbXrecord
340
E
  0
XRECORD
  5
D958
102
{ACAD_REACTORS
330
D950
102
}
330
D950
100
AcDbXrecord
 90
    10781
  0
XRECORD
  5
D959
102
{ACAD_REACTORS
330
D950
102
}
330
D950
100
AcDbXrecord
 90
        4
  0
XRECORD
  5
D95A
102
{ACAD_REACTORS
330
D950
102
}
330
D950
100
AcDbXrecord
 90
        0
  0
XRECORD
  5
D95B
102
{ACAD_REACTORS
330
D950
102
}
330
D950
100
AcDbXrecord
  1
{AFB28963-8C59-40AE-9337-C84526B81ACE}
  0
XRECORD
  5
D95C
102
{ACAD_REACTORS
330
D950
102
}
330
D950
100
AcDbXrecord
  1
{C65AA66B-4AC9-4EF4-909B-D9826B2F1BAE}
  0
XRECORD
  5
D95D
102
{ACAD_REACTORS
330
D950
102
}
330
D950
100
AcDbXrecord
 40
0.0
  0
XRECORD
  5
D95E
102
{ACAD_REACTORS
330
D950
102
}
330
D950
100
AcDbXrecord
1000
DSTYLE
1002
{
1070
    79
 70
     2
1070
   341
340
59
1070
   342
340
59
1070
   371
 70
    -1
1070
   372
 70
    -1
1002
}
  0
XRECORD
  5
D95F
102
{ACAD_REACTORS
330
D950
102
}
330
D950
100
AcDbXrecord
340
0
  0
XRECORD
  5
D960
102
{ACAD_REACTORS
330
D950
102
}
330
D950
100
AcDbXrecord
 70
     0
  0
XRECORD
  5
D961
102
{ACAD_REACTORS
330
D950
102
}
330
D950
100
AcDbXrecord
340
0
  0
XRECORD
  5
D962
102
{ACAD_REACTORS
330
D950
102
}
330
D950
100
AcDbXrecord
 10
0.0
 20
0.0
 30
0.0
  0
XRECORD
  5
D963
102
{ACAD_REACTORS
330
D950
102
}
330
D950
100
AcDbXrecord
 10
0.0
 20
0.0
 30
0.0
  0
XRECORD
  5
D964
102
{ACAD_REACTORS
330
D950
102
}
330
D950
100
AcDbXrecord
 10
0.0
 20
0.0
 30
0.0
  0
XRECORD
  5
D965
102
{ACAD_REACTORS
330
D950
102
}
330
D950
100
AcDbXrecord
 10
0.0
 20
0.0
 30
0.0
  0
XRECORD
  5
D966
102
{ACAD_REACTORS
330
D950
102
}
330
D950
100
AcDbXrecord
 10
0.0
 20
0.0
 30
0.0
  0
XRECORD
  5
D967
102
{ACAD_REACTORS
330
D950
102
}
330
D950
100
AcDbXrecord
 10
0.0
 20
0.0
 30
0.0
  0
XRECORD
  5
D968
102
{ACAD_REACTORS
330
D950
102
}
330
D950
100
AcDbXrecord
340
0
  0
XRECORD
  5
D969
102
{ACAD_REACTORS
330
D950
102
}
330
D950
100
AcDbXrecord
 70
     0
  0
XRECORD
  5
D96A
102
{ACAD_REACTORS
330
D950
102
}
330
D950
100
AcDbXrecord
340
0
  0
XRECORD
  5
D96B
102
{ACAD_REACTORS
330
D950
102
}
330
D950
100
AcDbXrecord
 10
0.0
 20
0.0
 30
0.0
  0
XRECORD
  5
D96C
102
{ACAD_REACTORS
330
D950
102
}
330
D950
100
AcDbXrecord
 10
0.0
 20
0.0
 30
0.0
  0
XRECORD
  5
D96D
102
{ACAD_REACTORS
330
D950
102
}
330
D950
100
AcDbXrecord
 10
0.0
 20
0.0
 30
0.0
  0
XRECORD
  5
D96E
102
{ACAD_REACTORS
330
D950
102
}
330
D950
100
AcDbXrecord
 10
0.0
 20
0.0
 30
0.0
  0
XRECORD
  5
D96F
102
{ACAD_REACTORS
330
D950
102
}
330
D950
100
AcDbXrecord
 10
0.0
 20
0.0
 30
0.0
  0
XRECORD
  5
D970
102
{ACAD_REACTORS
330
D950
102
}
330
D950
100
AcDbXrecord
 10
0.0
 20
0.0
 30
0.0
  0
LAYER_INDEX
  5
D947
102
{ACAD_REACTORS
330
D946
102
}
330
D946
100
AcDbIndex
 40
2453152.382964953
100
AcDbLayerIndex
  8
0
360
D948
 90
        0
  8
AM_0
360
D949
 90
      199
  8
AM_5
360
D94A
 90
        7
  8
AM_7
360
D94B
 90
        1
  8
AM_6
360
D94C
 90
        1
  8
Defpoints
360
D94D
 90
        0
  8
AM_11
360
D94E
 90
        4
  0
XRECORD
  5
2D
102
{ACAD_REACTORS
330
2C
102
}
330
2C
100
AcDbXrecord
  1
VERSION
140
15.0
  1
PRODUCT
  2
AutoCAD Mechanical 2000
  0
IDBUFFER
  5
D948
330
0
100
AcDbIdBuffer
  0
IDBUFFER
  5
D949
330
0
100
AcDbIdBuffer
330
D06A
330
D06D
330
D06E
330
D06F
330
D070
330
D071
330
D072
330
D073
330
D074
330
D075
330
D076
330
D077
330
D078
330
D079
330
D07A
330
D07B
330
D07C
330
D07D
330
D07E
330
D07F
330
D080
330
D081
330
D082
330
D083
330
D084
330
D085
330
D086
330
D087
330
D088
330
D089
330
D08A
330
D08B
330
D08C
330
D08D
330
D08E
330
D08F
330
D090
330
D091
330
D092
330
D093
330
D094
330
D095
330
D096
330
D097
330
D098
330
D099
330
D09A
330
D09B
330
D09C
330
D09D
330
D09E
330
D09F
330
D0A0
330
D0A1
330
D0A2
330
D0A3
330
D0A4
330
D0A5
330
D0A6
330
D0A7
330
D0A8
330
D0A9
330
D0AA
330
D0AB
330
D0AC
330
D0AD
330
D0AE
330
D0AF
330
D0B0
330
D0B1
330
D0B2
330
D0B3
330
D0B4
330
D0B5
330
D0B6
330
D0B7
330
D0B8
330
D0B9
330
D0BA
330
D0BB
330
D0BC
330
D0BD
330
D0BE
330
D0BF
330
D0C0
330
D0C1
330
D0C2
330
CFF3
330
CFF4
330
CFF5
330
CFF6
330
CFF7
330
CFF8
330
CFF9
330
CFFA
330
CFFB
330
CFFC
330
CFFD
330
CFFE
330
CFFF
330
D000
330
D001
330
D002
330
D003
330
D004
330
D005
330
D006
330
D007
330
D008
330
D009
330
D00A
330
D00B
330
D00C
330
D00D
330
D00E
330
D00F
330
D010
330
D011
330
D012
330
D013
330
D014
330
D015
330
D016
330
D017
330
D018
330
D019
330
D01A
330
D01B
330
D01C
330
D01D
330
D01E
330
D01F
330
D020
330
D021
330
D022
330
D023
330
D024
330
D025
330
D026
330
D027
330
D028
330
D029
330
D02A
330
D02B
330
D02C
330
D02D
330
D02E
330
D02F
330
D030
330
D031
330
D032
330
D033
330
D034
330
D035
330
D036
330
D037
330
D038
330
D039
330
D03B
330
D03C
330
D040
330
D041
330
D042
330
D043
330
D044
330
D045
330
D046
330
D047
330
D048
330
D049
330
D04B
330
D04C
330
D04D
330
D04E
330
D04F
330
D050
330
D052
330
D053
330
D054
330
D055
330
D056
330
D058
330
D059
330
D05A
330
D05B
330
D05C
330
D05D
330
D05E
330
D05F
330
D060
330
D061
330
D062
330
D063
330
D064
330
D065
330
D066
330
D067
330
D068
330
D069
  0
IDBUFFER
  5
D94A
330
0
100
AcDbIdBuffer
330
D2A6
330
D34C
330
D3D8
330
D4A5
330
D543
330
D5D8
330
D6C7
  0
IDBUFFER
  5
D94B
330
0
100
AcDbIdBuffer
330
D03A
  0
IDBUFFER
  5
D94C
330
0
100
AcDbIdBuffer
330
388D
  0
IDBUFFER
  5
D94D
330
0
100
AcDbIdBuffer
  0
IDBUFFER
  5
D94E
330
0
100
AcDbIdBuffer
330
D289
330
D291
330
D299
330
D29D
  0
ENDSEC
  0
EOF
