  0
SECTION
  2
HEADER
  9
$ACADVER
  1
AC1014
  9
$ACADMAINTVER
 70
     9
  9
$DWGCODEPAGE
  3
ANSI_932
  9
$INSBASE
 10
0.0
 20
0.0
 30
0.0
  9
$EXTMIN
 10
-57.72276732416752
 20
-54.95837175138707
 30
-0.00000001
  9
$EXTMAX
 10
12.49999999999982
 20
34.35000000000018
 30
0.00000001
  9
$LIMMIN
 10
-82.70347576826845
 20
-79.49961960719452
  9
$LIMMAX
 10
121.3362009138712
 20
48.48379050054592
  9
$ORTHOMODE
 70
     0
  9
$REGENMODE
 70
     1
  9
$FILLMODE
 70
     1
  9
$QTEXTMODE
 70
     0
  9
$MIRRTEXT
 70
     0
  9
$DRAGMODE
 70
     2
  9
$LTSCALE
 40
1.0
  9
$OSMODE
 70
    55
  9
$ATTMODE
 70
     1
  9
$TEXTSIZE
 40
2.5
  9
$TRACEWID
 40
1.0
  9
$TEXTSTYLE
  7
STANDARD
  9
$CLAYER
  8
AM_0
  9
$CELTYPE
  6
BYLAYER
  9
$CECOLOR
 62
   256
  9
$CELTSCALE
 40
1.0
  9
$DELOBJ
 70
     1
  9
$DISPSILH
 70
     0
  9
$DIMSCALE
 40
0.5
  9
$DIMASZ
 40
2.5
  9
$DIMEXO
 40
1.0
  9
$DIMDLI
 40
12.0
  9
$DIMRND
 40
0.0
  9
$DIMDLE
 40
0.0
  9
$DIMEXE
 40
1.0
  9
$DIMTP
 40
0.1
  9
$DIMTM
 40
0.1
  9
$DIMTXT
 40
3.2
  9
$DIMCEN
 40
0.0
  9
$DIMTSZ
 40
0.0
  9
$DIMTOL
 70
     0
  9
$DIMLIM
 70
     0
  9
$DIMTIH
 70
     0
  9
$DIMTOH
 70
     0
  9
$DIMSE1
 70
     0
  9
$DIMSE2
 70
     0
  9
$DIMTAD
 70
     3
  9
$DIMZIN
 70
     8
  9
$DIMBLK
  1
OPEN30
  9
$DIMASO
 70
     1
  9
$DIMSHO
 70
     1
  9
$DIMPOST
  1

  9
$DIMAPOST
  1
"
  9
$DIMALT
 70
     0
  9
$DIMALTD
 70
     2
  9
$DIMALTF
 40
0.0393701
  9
$DIMLFAC
 40
1.0
  9
$DIMTOFL
 70
     1
  9
$DIMTVP
 40
0.0
  9
$DIMTIX
 70
     0
  9
$DIMSOXD
 70
     0
  9
$DIMSAH
 70
     0
  9
$DIMBLK1
  1

  9
$DIMBLK2
  1

  9
$DIMSTYLE
  2
AM_JIS
  9
$DIMCLRD
 70
   256
  9
$DIMCLRE
 70
   256
  9
$DIMCLRT
 70
     2
  9
$DIMTFAC
 40
0.71
  9
$DIMGAP
 40
1.5
  9
$DIMJUST
 70
     0
  9
$DIMSD1
 70
     0
  9
$DIMSD2
 70
     0
  9
$DIMTOLJ
 70
     0
  9
$DIMTZIN
 70
     0
  9
$DIMALTZ
 70
     0
  9
$DIMALTTZ
 70
     0
  9
$DIMFIT
 70
     3
  9
$DIMUPT
 70
     0
  9
$DIMUNIT
 70
     2
  9
$DIMDEC
 70
     3
  9
$DIMTDEC
 70
     3
  9
$DIMALTU
 70
     2
  9
$DIMALTTD
 70
     2
  9
$DIMTXSTY
  7
ASAMI
  9
$DIMAUNIT
 70
     0
  9
$LUNITS
 70
     2
  9
$LUPREC
 70
     2
  9
$SKETCHINC
 40
1.0
  9
$FILLETRAD
 40
0.4
  9
$AUNITS
 70
     0
  9
$AUPREC
 70
     0
  9
$MENU
  1
.
  9
$ELEVATION
 40
0.0
  9
$PELEVATION
 40
0.0
  9
$THICKNESS
 40
0.0
  9
$LIMCHECK
 70
     1
  9
$BLIPMODE
 70
     0
  9
$CHAMFERA
 40
1.0
  9
$CHAMFERB
 40
1.0
  9
$CHAMFERC
 40
20.0
  9
$CHAMFERD
 40
0.0
  9
$SKPOLY
 70
     0
  9
$TDCREATE
 40
2452802.716478761
  9
$TDUPDATE
 40
2453152.380888067
  9
$TDINDWG
 40
0.9624545486
  9
$TDUSRTIMER
 40
0.9624545486
  9
$USRTIMER
 70
     1
  9
$ANGBASE
 50
0.0
  9
$ANGDIR
 70
     0
  9
$PDMODE
 70
     0
  9
$PDSIZE
 40
0.0
  9
$PLINEWID
 40
0.0
  9
$COORDS
 70
     1
  9
$SPLFRAME
 70
     0
  9
$SPLINETYPE
 70
     6
  9
$SPLINESEGS
 70
     8
  9
$ATTDIA
 70
     1
  9
$ATTREQ
 70
     1
  9
$HANDLING
 70
 12289
  9
$HANDSEED
  5
EFCF
  9
$SURFTAB1
 70
     6
  9
$SURFTAB2
 70
     6
  9
$SURFTYPE
 70
     6
  9
$SURFU
 70
     6
  9
$SURFV
 70
     6
  9
$UCSNAME
  2

  9
$UCSORG
 10
-0.0000000000002682
 20
0.000000000000161
 30
0.0
  9
$UCSXDIR
 10
1.0
 20
0.000000000000002
 30
0.0
  9
$UCSYDIR
 10
-0.000000000000002
 20
1.0
 30
0.0
  9
$PUCSNAME
  2

  9
$PUCSORG
 10
0.0
 20
0.0
 30
0.0
  9
$PUCSXDIR
 10
1.0
 20
0.0
 30
0.0
  9
$PUCSYDIR
 10
0.0
 20
1.0
 30
0.0
  9
$USERI1
 70
     0
  9
$USERI2
 70
     0
  9
$USERI3
 70
     0
  9
$USERI4
 70
     0
  9
$USERI5
 70
     0
  9
$USERR1
 40
0.0
  9
$USERR2
 40
0.0
  9
$USERR3
 40
0.0
  9
$USERR4
 40
0.0
  9
$USERR5
 40
0.0
  9
$WORLDVIEW
 70
     1
  9
$SHADEDGE
 70
     3
  9
$SHADEDIF
 70
    70
  9
$TILEMODE
 70
     1
  9
$MAXACTVP
 70
    64
  9
$PINSBASE
 10
0.0
 20
0.0
 30
0.0
  9
$PLIMCHECK
 70
     0
  9
$PEXTMIN
 10
1.000000000000000E+20
 20
1.000000000000000E+20
 30
1.000000000000000E+20
  9
$PEXTMAX
 10
-1.000000000000000E+20
 20
-1.000000000000000E+20
 30
-1.000000000000000E+20
  9
$PLIMMIN
 10
0.0
 20
0.0
  9
$PLIMMAX
 10
841.0
 20
594.0
  9
$UNITMODE
 70
     0
  9
$VISRETAIN
 70
     1
  9
$PLINEGEN
 70
     0
  9
$PSLTSCALE
 70
     0
  9
$TREEDEPTH
 70
  3020
  9
$PICKSTYLE
 70
     0
  9
$CMLSTYLE
  2
STANDARD
  9
$CMLJUST
 70
     0
  9
$CMLSCALE
 40
20.0
  9
$PROXYGRAPHICS
 70
     1
  9
$MEASUREMENT
 70
     1
  0
ENDSEC
  0
SECTION
  2
CLASSES
  0
CLASS
  1
ACDBDICTIONARYWDFLT
  2
AcDbDictionaryWithDefault
  3
AutoCAD 2000
 90
        0
280
     0
281
     0
  0
CLASS
  1
ACDBPLACEHOLDER
  2
AcDbPlaceHolder
  3
AutoCAD 2000
 90
        0
280
     0
281
     0
  0
CLASS
  1
LAYOUT
  2
AcDbLayout
  3
AutoCAD 2000
 90
        0
280
     0
281
     0
  0
CLASS
  1
AMGSETTINGSOBJ
  2
AmgSettingsObj
  3
"AcadM|Product Description: AutoCAD Mechanical 2000|Company: Autodesk"
 90
        0
280
     0
281
     0
  0
CLASS
  1
ACME_DOCUMENT
  2
AcMeDbDoc
  3
AcMeServices
 90
        0
280
     0
281
     0
  0
CLASS
  1
ACMESCOPE
  2
AcMeScope
  3
AcMeServices
 90
        0
280
     0
281
     0
  0
CLASS
  1
ACMECOMMANDHISTORY
  2
AcMeCommandHistory
  3
AcMeServices
 90
        0
280
     0
281
     0
  0
CLASS
  1
DICTIONARYVAR
  2
AcDbDictionaryVar
  3
AutoCAD 2000
 90
        0
280
     0
281
     0
  0
CLASS
  1
ACIMSYSVARMAN
  2
AcImSysVarManager
  3
AcMeServices
 90
        0
280
     0
281
     0
  0
CLASS
  1
ACIMREALSYSVAR
  2
AcImRealSysVar
  3
AcMeServices
 90
        0
280
     0
281
     0
  0
CLASS
  1
ACIMINTSYSVAR
  2
AcImIntSysVar
  3
AcMeServices
 90
        0
280
     0
281
     0
  0
CLASS
  1
ACMEDRAWINGMAN
  2
AcMeDrawingMan
  3
AcMeServices
 90
        0
280
     0
281
     0
  0
CLASS
  1
ACMEVIEW
  2
AcMeView
  3
AcMeServices
 90
        0
280
     0
281
     0
  0
CLASS
  1
ACDBENTITYCACHE
  2
AcMeEntityCache
  3
AcMeServices
 90
        0
280
     0
281
     0
  0
CLASS
  1
GSMANAGER
  2
AcMeGSManager
  3
AcMeServices
 90
        0
280
     0
281
     0
  0
CLASS
  1
AmdtInternalReactor
  2
AmdtInternalReactor
  3
AcMeServices
 90
        0
280
     0
281
     0
  0
CLASS
  1
ACMESTATEMGR
  2
AcMeStateMgr
  3
AcMeServices
 90
        0
280
     0
281
     0
  0
CLASS
  1
ACME_DATABASE
  2
AcMeDbDatabase
  3
AcMeServices
 90
        0
280
     0
281
     0
  0
CLASS
  1
ACRFINSADJUSTERMGR
  2
AcRfInsAdjusterMgr
  3
AcMeServices
 90
        0
280
     0
281
     0
  0
CLASS
  1
ACMDATADICTIONARY
  2
AcmDataDictionary
  3
"AcmSymBB|Product Description: AutoCAD Mechanical 2000|Company: Autodesk"
 90
        0
280
     0
281
     0
  0
CLASS
  1
ACMDATAENTRYBLOCK
  2
AcmDataEntryBlock
  3
"AcmSymBB|Product Description: AutoCAD Mechanical 2000|Company: Autodesk"
 90
        0
280
     0
281
     0
  0
CLASS
  1
AMGOBJPROPCFG
  2
AmgObjPropCfg
  3
"AmgLay|Product Description: AutoCAD Mechanical 2000|Company: Autodesk"
 90
        1
280
     0
281
     0
  0
CLASS
  1
ACAMGFILTERDAT
  2
AcAmgFilterDat
  3
"AcadM|Product Description: AutoCAD Mechanical 2000|Company: Autodesk"
 90
        0
280
     0
281
     0
  0
CLASS
  1
LAYER_INDEX
  2
AcDbLayerIndex
  3
AutoCAD 2000
 90
        0
280
     0
281
     0
  0
CLASS
  1
IDBUFFER
  2
AcDbIdBuffer
  3
AutoCAD 2000
 90
        0
280
     0
281
     0
  0
CLASS
  1
ACIMSTRSYSVAR
  2
AcImStrSysVar
  3
AcMeServices
 90
        0
280
     0
281
     0
  0
CLASS
  1
ACMSTANDARDJIS
  2
AcmStandardJIS
  3
"AcmSymBB|Product Description: AutoCAD Mechanical 2000|Company: Autodesk"
 90
        0
280
     0
281
     0
  0
CLASS
  1
ACMSURFSTANDARDJIS
  2
AcmSurfTextStdJIS
  3
"AcmSymBB|Product Description: AutoCAD Mechanical 2000|Company: Autodesk"
 90
        0
280
     0
281
     0
  0
CLASS
  1
ACMFCFSTANDARDJIS
  2
AcmFCFStdJIS
  3
"AcmSymBB|Product Description: AutoCAD Mechanical 2000|Company: Autodesk"
 90
        0
280
     0
281
     0
  0
CLASS
  1
ACMWELDSTANDARDJIS
  2
AcmWeldingStdJIS
  3
"AcmSymBB|Product Description: AutoCAD Mechanical 2000|Company: Autodesk"
 90
        0
280
     0
281
     0
  0
CLASS
  1
ACMIDSTANDARDJIS
  2
AcmIdStdJIS
  3
"AcmSymBB|Product Description: AutoCAD Mechanical 2000|Company: Autodesk"
 90
        0
280
     0
281
     0
  0
CLASS
  1
ACMDATUMSTANDARDJIS
  2
AcmDatumStdJIS
  3
"AcmSymBB|Product Description: AutoCAD Mechanical 2000|Company: Autodesk"
 90
        0
280
     0
281
     0
  0
CLASS
  1
ACMBOMSTANDARDJIS
  2
AcmBOMStdJIS
  3
"AcmSymBB|Product Description: AutoCAD Mechanical 2000|Company: Autodesk"
 90
        0
280
     0
281
     0
  0
CLASS
  1
ACMSTANDARDANSI
  2
AcmStandardANSI
  3
"AcmSymBB|Product Description: AutoCAD Mechanical 2000|Company: Autodesk"
 90
        0
280
     0
281
     0
  0
CLASS
  1
ACMSURFSTANDARDANSI
  2
AcmSurfTextStdANSI
  3
"AcmSymBB|Product Description: AutoCAD Mechanical 2000|Company: Autodesk"
 90
        0
280
     0
281
     0
  0
CLASS
  1
ACMFCFSTANDARDANSI
  2
AcmFCFStdANSI
  3
"AcmSymBB|Product Description: AutoCAD Mechanical 2000|Company: Autodesk"
 90
        0
280
     0
281
     0
  0
CLASS
  1
ACMWELDSTANDARDANSI
  2
AcmWeldingStdANSI
  3
"AcmSymBB|Product Description: AutoCAD Mechanical 2000|Company: Autodesk"
 90
        0
280
     0
281
     0
  0
CLASS
  1
ACMIDSTANDARDANSI
  2
AcmIdStdANSI
  3
"AcmSymBB|Product Description: AutoCAD Mechanical 2000|Company: Autodesk"
 90
        0
280
     0
281
     0
  0
CLASS
  1
ACMDATUMSTANDARDANSI
  2
AcmDatumStdANSI
  3
"AcmSymBB|Product Description: AutoCAD Mechanical 2000|Company: Autodesk"
 90
        0
280
     0
281
     0
  0
CLASS
  1
ACMBOMSTANDARDANSI
  2
AcmBOMStdANSI
  3
"AcmSymBB|Product Description: AutoCAD Mechanical 2000|Company: Autodesk"
 90
        0
280
     0
281
     0
  0
CLASS
  1
ACMSTANDARDBSI
  2
AcmStandardBSI
  3
"AcmSymBB|Product Description: AutoCAD Mechanical 2000|Company: Autodesk"
 90
        0
280
     0
281
     0
  0
CLASS
  1
ACMSURFSTANDARDBSI
  2
AcmSurfTextStdBSI
  3
"AcmSymBB|Product Description: AutoCAD Mechanical 2000|Company: Autodesk"
 90
        0
280
     0
281
     0
  0
CLASS
  1
ACMFCFSTANDARDBSI
  2
AcmFCFStdBSI
  3
"AcmSymBB|Product Description: AutoCAD Mechanical 2000|Company: Autodesk"
 90
        0
280
     0
281
     0
  0
CLASS
  1
ACMWELDSTANDARDBSI
  2
AcmWeldingStdBSI
  3
"AcmSymBB|Product Description: AutoCAD Mechanical 2000|Company: Autodesk"
 90
        0
280
     0
281
     0
  0
CLASS
  1
ACMIDSTANDARDBSI
  2
AcmIdStdBSI
  3
"AcmSymBB|Product Description: AutoCAD Mechanical 2000|Company: Autodesk"
 90
        0
280
     0
281
     0
  0
CLASS
  1
ACMDATUMSTANDARDBSI
  2
AcmDatumStdBSI
  3
"AcmSymBB|Product Description: AutoCAD Mechanical 2000|Company: Autodesk"
 90
        0
280
     0
281
     0
  0
CLASS
  1
ACMBOMSTANDARDBSI
  2
AcmBOMStdBSI
  3
"AcmSymBB|Product Description: AutoCAD Mechanical 2000|Company: Autodesk"
 90
        0
280
     0
281
     0
  0
CLASS
  1
STDPART2D
  2
AmgStdPart
  3
"AmgStdPart|Product Description: AutoCAD Mechanical 2000|Company: Autodesk"
 90
     1023
280
     0
281
     1
  0
CLASS
  1
PLOTSETTINGS
  2
AcDbPlotSettings
  3
AutoCAD 2000
 90
        0
280
     0
281
     0
  0
CLASS
  1
LONG_TRANSACTION
  2
AcDbLongTransaction
  3
AutoCAD 2000
 90
        0
280
     0
281
     0
  0
CLASS
  1
LWPOLYLINE
  2
AcDbPolyline
  3
AutoCAD 2000
 90
        0
280
     0
281
     1
  0
CLASS
  1
HATCH
  2
AcDbHatch
  3
AutoCAD 2000
 90
        0
280
     0
281
     1
  0
CLASS
  1
XRECORD
  2
AcDbXrecord
  3
AutoCAD 2000
 90
        0
280
     0
281
     0
  0
ENDSEC
  0
SECTION
  2
TABLES
  0
TABLE
  2
VPORT
  5
8
330
0
100
AcDbSymbolTable
 70
     3
  0
VPORT
  5
EF5C
330
8
100
AcDbSymbolTableRecord
100
AcDbViewportTableRecord
  2
*ACTIVE
 70
     0
 10
0.0
 20
0.0
 11
1.0
 21
1.0
 12
-16.09284879552041
 22
-6.584567307651767
 13
0.0
 23
0.0
 14
2.5
 24
2.5
 15
10.0
 25
10.0
 16
0.0
 26
0.0
 36
1.0
 17
0.0
 27
0.0
 37
0.0
 40
108.9317048293308
 41
1.56570841889117
 42
50.0
 43
0.0
 44
0.0
 50
0.0
 51
0.0
 71
     0
 72
   100
 73
     1
 74
     3
 75
     0
 76
     0
 77
     0
 78
     0
  0
ENDTAB
  0
TABLE
  2
LTYPE
  5
5
330
0
100
AcDbSymbolTable
 70
    10
  0
LTYPE
  5
14
330
5
100
AcDbSymbolTableRecord
100
AcDbLinetypeTableRecord
  2
BYBLOCK
 70
     0
  3

 72
    65
 73
     0
 40
0.0
  0
LTYPE
  5
15
330
5
100
AcDbSymbolTableRecord
100
AcDbLinetypeTableRecord
  2
BYLAYER
 70
     0
  3

 72
    65
 73
     0
 40
0.0
  0
LTYPE
  5
16
330
5
100
AcDbSymbolTableRecord
100
AcDbLinetypeTableRecord
  2
CONTINUOUS
 70
     0
  3
Solid line
 72
    65
 73
     0
 40
0.0
  0
LTYPE
  5
4B
330
5
100
AcDbSymbolTableRecord
100
AcDbLinetypeTableRecord
  2
AM_ISO02W050
 70
     0
  3
__ __ __ __ __ __ __ __ __ __ __ __ __ __ __
 72
    65
 73
     2
 40
7.5
 49
6.0
 74
     0
 49
-1.5
 74
     0
  0
LTYPE
  5
4C
330
5
100
AcDbSymbolTableRecord
100
AcDbLinetypeTableRecord
  2
AM_ISO08W050
 70
     0
  3
____ . ____ . ____ . ____ . ____ . ____ . ____
 72
    65
 73
     4
 40
18.0
 49
12.0
 74
     0
 49
-1.5
 74
     0
 49
3.0
 74
     0
 49
-1.5
 74
     0
  0
LTYPE
  5
4D
330
5
100
AcDbSymbolTableRecord
100
AcDbLinetypeTableRecord
  2
AM_ISO09W050
 70
     0
  3
_____ . . _____ . . _____ . . ____ .. ____
 72
    65
 73
     6
 40
22.5
 49
12.0
 74
     0
 49
-1.5
 74
     0
 49
3.0
 74
     0
 49
-1.5
 74
     0
 49
3.0
 74
     0
 49
-1.5
 74
     0
  0
LTYPE
  5
4E
330
5
100
AcDbSymbolTableRecord
100
AcDbLinetypeTableRecord
  2
AMCONSTR
 70
     0
  3
_______________________
 72
    65
 73
     2
 40
9999.0
 49
9999.0
 74
     0
 49
0.0
 74
     0
  0
LTYPE
  5
4F
330
5
100
AcDbSymbolTableRecord
100
AcDbLinetypeTableRecord
  2
AM_ISO02W050X2
 70
     0
  3
 _ _ _ _ _ _ _ _ _ _ _ _
 72
    65
 73
     2
 40
3.75
 49
3.0
 74
     0
 49
-0.75
 74
     0
  0
LTYPE
  5
50
330
5
100
AcDbSymbolTableRecord
100
AcDbLinetypeTableRecord
  2
AM_ISO08W050X2
 70
     0
  3
__ . __ . __ . __ . __ . __
 72
    65
 73
     4
 40
9.0
 49
6.0
 74
     0
 49
-0.75
 74
     0
 49
1.5
 74
     0
 49
-0.75
 74
     0
  0
LTYPE
  5
53
330
5
100
AcDbSymbolTableRecord
100
AcDbLinetypeTableRecord
  2
AMZIGZAG
 70
     0
  3
/\/-/\/-/\/-/\/-/\/-/\/
 72
    65
 73
     2
 40
11.00009999999999
 49
0.0001
 74
     4
 75
   135
340
52
 46
0.04
 50
0.0
 44
0.0
 45
0.0
 49
-11.0
 74
     0
  0
LTYPE
  5
166
330
5
100
AcDbSymbolTableRecord
100
AcDbLinetypeTableRecord
  2
ACJISTGL
 70
     0
  3
_ _ _ _ _
 72
    65
 73
     2
 40
3.0
 49
2.0
 74
     0
 49
-1.0
 74
     0
  0
LTYPE
  5
26A
330
5
100
AcDbSymbolTableRecord
100
AcDbLinetypeTableRecord
  2
ACJISTGB
 70
     0
  3
__ . . __ . .
 72
    65
 73
     6
 40
9.0
 49
4.0
 74
     0
 49
-1.0
 74
     0
 49
1.0
 74
     0
 49
-1.0
 74
     0
 49
1.0
 74
     0
 49
-1.0
 74
     0
  0
ENDTAB
  0
TABLE
  2
LAYER
  5
2
330
0
100
AcDbSymbolTable
 70
     7
  0
LAYER
  5
10
330
2
100
AcDbSymbolTableRecord
100
AcDbLayerTableRecord
  2
0
 70
     0
 62
     7
  6
CONTINUOUS
  0
LAYER
  5
3F9
330
2
100
AcDbSymbolTableRecord
100
AcDbLayerTableRecord
  2
AM_0
 70
     0
 62
     7
  6
CONTINUOUS
  0
LAYER
  5
BA4
330
2
100
AcDbSymbolTableRecord
100
AcDbLayerTableRecord
  2
AM_5
 70
     0
 62
     3
  6
CONTINUOUS
  0
LAYER
  5
BA6
330
2
100
AcDbSymbolTableRecord
100
AcDbLayerTableRecord
  2
AM_7
 70
     0
 62
     4
  6
AM_ISO08W050
  0
LAYER
  5
E64
330
2
100
AcDbSymbolTableRecord
100
AcDbLayerTableRecord
  2
AM_6
 70
     0
 62
     2
  6
CONTINUOUS
  0
LAYER
  5
F4D
330
2
100
AcDbSymbolTableRecord
100
AcDbLayerTableRecord
  2
DEFPOINTS
 70
     0
 62
     7
  6
CONTINUOUS
  0
LAYER
  5
4E80
330
2
100
AcDbSymbolTableRecord
100
AcDbLayerTableRecord
  2
AM_11
 70
     0
 62
     3
  6
AM_ISO09W050
  0
ENDTAB
  0
TABLE
  2
STYLE
  5
3
330
0
100
AcDbSymbolTable
 70
     5
  0
STYLE
  5
11
330
3
100
AcDbSymbolTableRecord
100
AcDbTextStyleTableRecord
  2
STANDARD
 70
     0
 40
0.0
 41
1.0
 50
0.0
 71
     0
 42
2.5
  3
simplex.shx
  4
EXTFONT.SHX
  0
STYLE
  5
52
330
3
100
AcDbSymbolTableRecord
100
AcDbTextStyleTableRecord
  2

 70
     1
 40
0.0
 41
1.0
 50
0.0
 71
     0
 42
2.5
  3
ltypeshp.shx
  4

  0
STYLE
  5
6B
330
3
100
AcDbSymbolTableRecord
100
AcDbTextStyleTableRecord
  2
ASAMI
 70
     0
 40
0.0
 41
1.0
 50
0.0
 71
     0
 42
2.5
  3
simplex.shx
  4
EXTFONT.SHX
  0
STYLE
  5
262
330
3
100
AcDbSymbolTableRecord
100
AcDbTextStyleTableRecord
  2
ACJISTS
 70
     0
 40
1.0
 41
1.0
 50
0.0
 71
     0
 42
2.5
  3
simplex.shx
  4
bigfont.shx
  0
STYLE
  5
269
330
3
100
AcDbSymbolTableRecord
100
AcDbTextStyleTableRecord
  2
ACJISGDT
 70
     0
 40
0.0
 41
1.0
 50
0.0
 71
     0
 42
2.5
  3
amgdtans.shx
  4

  0
ENDTAB
  0
TABLE
  2
VIEW
  5
6
330
0
100
AcDbSymbolTable
 70
     0
  0
ENDTAB
  0
TABLE
  2
UCS
  5
7
330
0
100
AcDbSymbolTable
 70
     0
  0
ENDTAB
  0
TABLE
  2
APPID
  5
9
330
0
100
AcDbSymbolTable
 70
    24
  0
APPID
  5
12
330
9
100
AcDbSymbolTableRecord
100
AcDbRegAppTableRecord
  2
ACAD
 70
     0
  0
APPID
  5
30
330
9
100
AcDbSymbolTableRecord
100
AcDbRegAppTableRecord
  2
MCAD_NO_VIS
 70
     0
  0
APPID
  5
31
330
9
100
AcDbSymbolTableRecord
100
AcDbRegAppTableRecord
  2
ACAD_TEMP_GRAPHIC
 70
     0
  0
APPID
  5
2C2
330
9
100
AcDbSymbolTableRecord
100
AcDbRegAppTableRecord
  2
GENIUS_GENDTOL_13
 70
     0
  0
APPID
  5
339
330
9
100
AcDbSymbolTableRecord
100
AcDbRegAppTableRecord
  2
GENIUS_GENODEF_13
 70
     0
  0
APPID
  5
33A
330
9
100
AcDbSymbolTableRecord
100
AcDbRegAppTableRecord
  2
GENIUS_GENOBJ-N-RSBK_13
 70
     0
  0
APPID
  5
33B
330
9
100
AcDbSymbolTableRecord
100
AcDbRegAppTableRecord
  2
GENIUS_GENOBJ-N-LIB_13
 70
     0
  0
APPID
  5
33C
330
9
100
AcDbSymbolTableRecord
100
AcDbRegAppTableRecord
  2
GENIUS_GENSCALE_13
 70
     0
  0
APPID
  5
378
330
9
100
AcDbSymbolTableRecord
100
AcDbRegAppTableRecord
  2
GENIUS_GENDIMSH_14
 70
     0
  0
APPID
  5
BB0
330
9
100
AcDbSymbolTableRecord
100
AcDbRegAppTableRecord
  2
GENIUS_GENOBJ-N-CEN_13
 70
     0
  0
APPID
  5
BB1
330
9
100
AcDbSymbolTableRecord
100
AcDbRegAppTableRecord
  2
GENIUS_GENFIL_13
 70
     0
  0
APPID
  5
BB2
330
9
100
AcDbSymbolTableRecord
100
AcDbRegAppTableRecord
  2
GENIUS_GENOBJ-N-CHA_13
 70
     0
  0
APPID
  5
1FAF
330
9
100
AcDbSymbolTableRecord
100
AcDbRegAppTableRecord
  2
GENIUS_GENOBJ-N-CRS_13
 70
     0
  0
APPID
  5
1FB0
330
9
100
AcDbSymbolTableRecord
100
AcDbRegAppTableRecord
  2
GENIUS_GENOENT_13
 70
     0
  0
APPID
  5
1FB1
330
9
100
AcDbSymbolTableRecord
100
AcDbRegAppTableRecord
  2
GENIUS_GENOREF_13
 70
     0
  0
APPID
  5
1FB2
330
9
100
AcDbSymbolTableRecord
100
AcDbRegAppTableRecord
  2
GENIUS_GENOLIS_13
 70
     0
  0
APPID
  5
1FB7
330
9
100
AcDbSymbolTableRecord
100
AcDbRegAppTableRecord
  2
GENIUS_GENOBJ-N-FIL_13
 70
     0
  0
APPID
  5
22A8
330
9
100
AcDbSymbolTableRecord
100
AcDbRegAppTableRecord
  2
GEVID1056506048
 70
     0
  0
APPID
  5
22A9
330
9
100
AcDbSymbolTableRecord
100
AcDbRegAppTableRecord
  2
GEVDC
 70
     0
  0
APPID
  5
22AC
330
9
100
AcDbSymbolTableRecord
100
AcDbRegAppTableRecord
  2
GENIUS_GENBH_13
 70
     0
  0
APPID
  5
22B8
330
9
100
AcDbSymbolTableRecord
100
AcDbRegAppTableRecord
  2
GENIUS_GENOBJ-NBEHI-BHF_13
 70
     0
  0
APPID
  5
22BA
330
9
100
AcDbSymbolTableRecord
100
AcDbRegAppTableRecord
  2
GENIUS_GENOBJ-NBEHI-BHB_13
 70
     0
  0
APPID
  5
35C9
330
9
100
AcDbSymbolTableRecord
100
AcDbRegAppTableRecord
  2
GENIUS_GENREC_14
 70
     0
  0
APPID
  5
35CA
330
9
100
AcDbSymbolTableRecord
100
AcDbRegAppTableRecord
  2
GENIUS_GENOBJ-N-REC_13
 70
     0
  0
ENDTAB
  0
TABLE
  2
DIMSTYLE
  5
A
330
0
100
AcDbSymbolTable
 70
     9
  0
DIMSTYLE
105
58
330
A
100
AcDbSymbolTableRecord
100
AcDbDimStyleTableRecord
  2
AM_JIS
 70
     0
  3

  4
"
  5
OPEN30
  6

  7

 40
0.5
 41
2.5
 42
1.0
 43
12.0
 44
1.0
 45
0.0
 46
0.0
 47
0.1
 48
0.1
140
3.2
141
0.0
142
0.0
143
0.0393701
144
1.0
145
0.0
146
0.71
147
1.5
 71
     0
 72
     0
 73
     0
 74
     0
 75
     0
 76
     0
 77
     3
 78
     8
170
     0
171
     2
172
     1
173
     0
174
     0
175
     0
176
   256
177
   256
178
     2
270
     2
271
     3
272
     3
273
     2
274
     2
340
6B
275
     0
280
     0
281
     0
282
     0
283
     0
284
     0
285
     0
286
     0
287
     3
288
     0
  0
DIMSTYLE
105
5F
330
A
100
AcDbSymbolTableRecord
100
AcDbDimStyleTableRecord
  2
AM_JIS$3
 70
     0
  3

  4
"
  5
OPEN30
  6

  7

 40
0.5
 41
2.5
 42
1.0
 43
10.0
 44
1.0
 45
0.0
 46
0.0
 47
0.1
 48
0.1
140
3.2
141
0.0
142
0.0
143
0.0393701
144
1.0
145
0.0
146
0.71
147
1.5
 71
     0
 72
     0
 73
     0
 74
     1
 75
     0
 76
     0
 77
     3
 78
     8
170
     0
171
     2
172
     0
173
     0
174
     0
175
     0
176
   256
177
   256
178
     2
270
     2
271
     2
272
     3
273
     2
274
     2
340
6B
275
     0
280
     0
281
     0
282
     0
283
     0
284
     0
285
     0
286
     0
287
     0
288
     1
  0
DIMSTYLE
105
60
330
A
100
AcDbSymbolTableRecord
100
AcDbDimStyleTableRecord
  2
AM_JIS$4
 70
     0
  3

  4
"
  5
OPEN30
  6

  7

 40
0.5
 41
2.5
 42
1.0
 43
10.0
 44
1.0
 45
0.0
 46
0.0
 47
0.1
 48
0.1
140
3.2
141
0.0
142
0.0
143
0.0393701
144
1.0
145
0.0
146
0.71
147
1.5
 71
     0
 72
     0
 73
     0
 74
     1
 75
     0
 76
     0
 77
     3
 78
     8
170
     0
171
     2
172
     0
173
     0
174
     0
175
     0
176
   256
177
   256
178
     2
270
     2
271
     2
272
     3
273
     2
274
     2
340
6B
275
     0
280
     0
281
     0
282
     0
283
     0
284
     0
285
     0
286
     0
287
     0
288
     1
  0
DIMSTYLE
105
61
330
A
100
AcDbSymbolTableRecord
100
AcDbDimStyleTableRecord
  2
AM_JIS$6
 70
     0
  3

  4
"
  5
OPEN30
  6

  7

 40
0.5
 41
2.5
 42
1.0
 43
10.0
 44
1.0
 45
0.0
 46
0.0
 47
0.1
 48
0.1
140
3.2
141
0.0
142
0.0
143
0.0393701
144
1.0
145
0.0
146
0.71
147
1.5
 71
     0
 72
     0
 73
     0
 74
     0
 75
     0
 76
     0
 77
     0
 78
     8
170
     0
171
     2
172
     1
173
     0
174
     0
175
     0
176
   256
177
   256
178
     2
270
     2
271
     2
272
     2
273
     2
274
     2
340
6B
275
     0
280
     0
281
     0
282
     0
283
     0
284
     0
285
     0
286
     0
287
     3
288
     0
  0
DIMSTYLE
105
62
330
A
100
AcDbSymbolTableRecord
100
AcDbDimStyleTableRecord
  2
AM_JIS$7
 70
     0
  3

  4
"
  5
OPEN30
  6

  7

 40
0.5
 41
2.5
 42
1.0
 43
10.0
 44
1.0
 45
0.0
 46
0.0
 47
0.1
 48
0.1
140
3.2
141
0.0
142
0.0
143
0.0393701
144
1.0
145
0.0
146
0.71
147
1.5
 71
     0
 72
     0
 73
     0
 74
     0
 75
     0
 76
     0
 77
     3
 78
     8
170
     0
171
     2
172
     1
173
     0
174
     0
175
     0
176
   256
177
   256
178
     2
270
     2
271
     2
272
     3
273
     2
274
     2
340
6B
275
     0
280
     0
281
     0
282
     0
283
     0
284
     0
285
     0
286
     0
287
     3
288
     0
  0
DIMSTYLE
105
63
330
A
100
AcDbSymbolTableRecord
100
AcDbDimStyleTableRecord
  2
AM_JIS$SF
 70
     0
  3

  4
"
  5
OPEN30
  6

  7

 40
0.5
 41
2.5
 42
1.0
 43
10.0
 44
1.0
 45
0.0
 46
0.0
 47
0.1
 48
0.1
140
3.2
141
0.0
142
0.0
143
0.0393701
144
1.0
145
0.0
146
0.71
147
1.5
 71
     0
 72
     0
 73
     0
 74
     0
 75
     1
 76
     1
 77
     3
 78
     8
170
     0
171
     2
172
     1
173
     0
174
     0
175
     0
176
   256
177
   256
178
     2
270
     2
271
     2
272
     2
273
     2
274
     2
340
6B
275
     0
280
     0
281
     0
282
     0
283
     0
284
     0
285
     0
286
     0
287
     3
288
     0
  0
DIMSTYLE
105
68
330
A
100
AcDbSymbolTableRecord
100
AcDbDimStyleTableRecord
  2
AM_JIS$SH
 70
     0
  3

  4
"
  5

  6
GENAXEH
  7
OPEN30
 40
0.5
 41
2.5
 42
1.0
 43
10.0
 44
1.0
 45
0.0
 46
0.0
 47
0.1
 48
0.1
140
3.2
141
0.0
142
0.0
143
0.0393701
144
2.0
145
0.0
146
0.71
147
1.5
 71
     0
 72
     0
 73
     0
 74
     0
 75
     1
 76
     1
 77
     3
 78
     8
170
     0
171
     2
172
     1
173
     1
174
     0
175
     0
176
   256
177
   256
178
     2
270
     2
271
     2
272
     2
273
     2
274
     2
340
6B
275
     0
280
     0
281
     0
282
     0
283
     0
284
     0
285
     0
286
     0
287
     3
288
     0
  0
DIMSTYLE
105
B34
330
A
100
AcDbSymbolTableRecord
100
AcDbDimStyleTableRecord
  2
AM_JIS$2
 70
     0
  3

  4
"
  5
OPEN30
  6

  7

 40
0.5
 41
2.5
 42
1.0
 43
12.0
 44
1.0
 45
0.0
 46
0.0
 47
0.1
 48
0.1
140
3.2
141
0.0
142
0.0
143
0.0393701
144
1.0
145
0.0
146
0.71
147
1.5
 71
     0
 72
     0
 73
     0
 74
     0
 75
     0
 76
     0
 77
     3
 78
     8
170
     0
171
     2
172
     1
173
     0
174
     0
175
     0
176
   256
177
   256
178
     2
270
     2
271
     3
272
     3
273
     2
274
     2
340
6B
275
     0
280
     0
281
     0
282
     0
283
     0
284
     0
285
     0
286
     0
287
     3
288
     0
  0
DIMSTYLE
105
3B48
102
{ACAD_REACTORS
330
E7D0
330
E6F3
330
E9B0
330
E90A
330
EB19
330
EBFF
330
E86E
330
ECB8
102
}
330
A
100
AcDbSymbolTableRecord
100
AcDbDimStyleTableRecord
  2
AM_JIS$0
 70
     0
  3

  4
"
  5
OPEN30
  6

  7

 40
1.0
 41
2.5
 42
0.0
 43
10.0
 44
1.0
 45
0.0
 46
0.0
 47
0.1
 48
0.1000000001
140
3.799999999999999
141
0.0
142
0.0
143
0.0393701
144
1.0
145
0.0
146
0.71
147
1.5
 71
     0
 72
     0
 73
     0
 74
     0
 75
     0
 76
     0
 77
     3
 78
     1
170
     0
171
     2
172
     1
173
     0
174
     0
175
     0
176
     3
177
     3
178
     2
270
     2
271
     2
272
     2
273
     2
274
     2
340
11
275
     1
280
     0
281
     0
282
     0
283
     0
284
     8
285
     0
286
     0
287
     0
288
     0
  0
ENDTAB
  0
TABLE
  2
BLOCK_RECORD
  5
1
330
0
100
AcDbSymbolTable
 70
    13
  0
BLOCK_RECORD
  5
1F
102
{ACAD_XDICTIONARY
360
74
102
}
330
1
100
AcDbSymbolTableRecord
100
AcDbBlockTableRecord
  2
*MODEL_SPACE
  0
BLOCK_RECORD
  5
101
102
{ACAD_XDICTIONARY
360
EF85
102
}
330
1
100
AcDbSymbolTableRecord
100
AcDbBlockTableRecord
  2
*PAPER_SPACE
  0
BLOCK_RECORD
  5
59
330
1
100
AcDbSymbolTableRecord
100
AcDbBlockTableRecord
  2
_OPEN30
  0
BLOCK_RECORD
  5
64
330
1
100
AcDbSymbolTableRecord
100
AcDbBlockTableRecord
  2
GENAXEH
  0
BLOCK_RECORD
  5
E6F4
330
1
100
AcDbSymbolTableRecord
100
AcDbBlockTableRecord
  2
*D5
  0
BLOCK_RECORD
  5
E7D1
330
1
100
AcDbSymbolTableRecord
100
AcDbBlockTableRecord
  2
*D6
  0
BLOCK_RECORD
  5
E86F
330
1
100
AcDbSymbolTableRecord
100
AcDbBlockTableRecord
  2
*D7
  0
BLOCK_RECORD
  5
E90B
330
1
100
AcDbSymbolTableRecord
100
AcDbBlockTableRecord
  2
*D8
  0
BLOCK_RECORD
  5
E9B1
330
1
100
AcDbSymbolTableRecord
100
AcDbBlockTableRecord
  2
*D9
  0
BLOCK_RECORD
  5
EB1A
330
1
100
AcDbSymbolTableRecord
100
AcDbBlockTableRecord
  2
*D10
  0
BLOCK_RECORD
  5
EC00
330
1
100
AcDbSymbolTableRecord
100
AcDbBlockTableRecord
  2
*D11
  0
BLOCK_RECORD
  5
ECB9
330
1
100
AcDbSymbolTableRecord
100
AcDbBlockTableRecord
  2
*D12
  0
ENDTAB
  0
ENDSEC
  0
SECTION
  2
BLOCKS
  0
BLOCK
  5
20
330
1F
100
AcDbEntity
  8
0
100
AcDbBlockBegin
  2
*MODEL_SPACE
 70
     0
 10
0.0
 20
0.0
 30
0.0
  3
*MODEL_SPACE
  1

  0
ENDBLK
  5
21
330
1F
100
AcDbEntity
  8
0
100
AcDbBlockEnd
  0
BLOCK
  5
103
330
101
100
AcDbEntity
 67
     1
  8
0
100
AcDbBlockBegin
  2
*PAPER_SPACE
 70
     0
 10
0.0
 20
0.0
 30
0.0
  3
*PAPER_SPACE
  1

  0
ENDBLK
  5
104
330
101
100
AcDbEntity
 67
     1
  8
0
100
AcDbBlockEnd
  0
BLOCK
  5
5D
330
59
100
AcDbEntity
  8
0
100
AcDbBlockBegin
  2
_OPEN30
 70
     0
 10
0.0
 20
0.0
 30
0.0
  3
_OPEN30
  1

  0
LINE
  5
5A
330
59
100
AcDbEntity
  8
0
 62
     0
100
AcDbLine
 10
-1.0
 20
0.26794919
 30
0.0
 11
0.0
 21
0.0
 31
0.0
  0
LINE
  5
5B
330
59
100
AcDbEntity
  8
0
 62
     0
100
AcDbLine
 10
0.0
 20
0.0
 30
0.0
 11
-1.0
 21
-0.26794919
 31
0.0
  0
LINE
  5
5C
330
59
100
AcDbEntity
  8
0
 62
     0
100
AcDbLine
 10
0.0
 20
0.0
 30
0.0
 11
-1.0
 21
0.0
 31
0.0
  0
ENDBLK
  5
5E
330
59
100
AcDbEntity
  8
0
100
AcDbBlockEnd
  0
BLOCK
  5
66
330
64
100
AcDbEntity
  8
0
100
AcDbBlockBegin
  2
GENAXEH
 70
     0
 10
0.0
 20
0.0
 30
0.0
  3
GENAXEH
  1

  0
LINE
  5
65
330
64
100
AcDbEntity
  8
0
100
AcDbLine
 10
-1.0
 20
0.0
 30
0.0
 11
1.0
 21
0.0
 31
0.0
  0
ENDBLK
  5
67
330
64
100
AcDbEntity
  8
0
100
AcDbBlockEnd
  0
BLOCK
  5
E6FE
330
E6F4
100
AcDbEntity
  8
0
100
AcDbBlockBegin
  2
*D5
 70
     1
 10
0.0
 20
0.0
 30
0.0
  3
*D5
  1

  0
LINE
  5
EF87
330
E6F4
100
AcDbEntity
  8
AM_5
100
AcDbLine
 10
-6.00000000000037
 20
25.50000000000014
 30
0.0
 11
-6.000000000000371
 21
32.50000000000018
 31
0.0
  0
LINE
  5
EF88
330
E6F4
100
AcDbEntity
  8
AM_5
100
AcDbLine
 10
-0.0000000000003704
 20
25.50000000000015
 30
0.0
 11
-0.0000000000003717
 21
32.50000000000018
 31
0.0
  0
LINE
  5
EF89
330
E6F4
100
AcDbEntity
  8
AM_5
100
AcDbLine
 10
-4.750000000000372
 20
32.00000000000018
 30
0.0
 11
-1.250000000000371
 21
32.00000000000018
 31
0.0
  0
INSERT
  5
EF8A
330
E6F4
100
AcDbEntity
  8
AM_5
100
AcDbBlockReference
  2
_OPEN30
 10
-6.000000000000372
 20
32.00000000000018
 30
0.0
 41
1.25
 42
1.25
 43
1.25
 50
180.0
  0
INSERT
  5
EF8B
330
E6F4
100
AcDbEntity
  8
AM_5
100
AcDbBlockReference
  2
_OPEN30
 10
-0.0000000000003716
 20
32.00000000000018
 30
0.0
 41
1.25
 42
1.25
 43
1.25
  0
MTEXT
  5
EF8C
330
E6F4
100
AcDbEntity
  8
AM_5
 62
     2
100
AcDbMText
 10
-3.000000000000372
 20
33.55000000000018
 30
0.0
 40
1.6
 41
0.0
 71
     5
 72
     1
  1
6
  7
ASAMI
  0
POINT
  5
EF8D
330
E6F4
100
AcDbEntity
  8
DEFPOINTS
 62
     0
100
AcDbPoint
 10
-6.000000000000319
 20
25.00000000000015
 30
0.0
  0
POINT
  5
EF8E
330
E6F4
100
AcDbEntity
  8
DEFPOINTS
 62
     0
100
AcDbPoint
 10
-0.0000000000003197
 20
25.00000000000015
 30
0.0
  0
POINT
  5
EF8F
330
E6F4
100
AcDbEntity
  8
DEFPOINTS
 62
     0
100
AcDbPoint
 10
-0.0000000000003069
 20
32.00000000000018
 30
0.0
  0
ENDBLK
  5
E6FF
330
E6F4
100
AcDbEntity
  8
0
100
AcDbBlockEnd
  0
BLOCK
  5
E7DB
330
E7D1
100
AcDbEntity
  8
0
100
AcDbBlockBegin
  2
*D6
 70
     1
 10
0.0
 20
0.0
 30
0.0
  3
*D6
  1

  0
LINE
  5
EF90
330
E7D1
100
AcDbEntity
  8
AM_5
100
AcDbLine
 10
0.4999999999996248
 20
25.00000000000015
 30
0.0
 11
12.49999999999972
 21
25.00000000000018
 31
0.0
  0
LINE
  5
EF91
330
E7D1
100
AcDbEntity
  8
AM_5
100
AcDbLine
 10
0.4999999999998353
 20
-24.99999999999987
 30
0.0
 11
12.49999999999982
 21
-24.99999999999984
 31
0.0
  0
LINE
  5
EF92
330
E7D1
100
AcDbEntity
  8
AM_5
100
AcDbLine
 10
11.99999999999973
 20
23.75000000000018
 30
0.0
 11
11.99999999999982
 21
-23.74999999999984
 31
0.0
  0
INSERT
  5
EF93
330
E7D1
100
AcDbEntity
  8
AM_5
100
AcDbBlockReference
  2
_OPEN30
 10
11.99999999999972
 20
25.00000000000018
 30
0.0
 41
1.25
 42
1.25
 43
1.25
 50
90.0000000000001
  0
INSERT
  5
EF94
330
E7D1
100
AcDbEntity
  8
AM_5
100
AcDbBlockReference
  2
_OPEN30
 10
11.99999999999982
 20
-24.99999999999984
 30
0.0
 41
1.25
 42
1.25
 43
1.25
 50
270.0000000000001
  0
MTEXT
  5
EF95
330
E7D1
100
AcDbEntity
  8
AM_5
 62
     2
100
AcDbMText
 10
10.44999999999977
 20
0.0000000000001627
 30
0.0
 40
1.6
 41
0.0
 71
     5
 72
     1
  1
%%c50
  7
ASAMI
 11
-0.000000000000002
 21
1.0
 31
0.0
  0
POINT
  5
EF96
330
E7D1
100
AcDbEntity
  8
DEFPOINTS
 62
     0
100
AcDbPoint
 10
-0.0000000000003197
 20
25.00000000000015
 30
0.0
  0
POINT
  5
EF97
330
E7D1
100
AcDbEntity
  8
DEFPOINTS
 62
     0
100
AcDbPoint
 10
-0.0000000000002203
 20
-24.99999999999987
 30
0.0
  0
POINT
  5
EF98
330
E7D1
100
AcDbEntity
  8
DEFPOINTS
 62
     0
100
AcDbPoint
 10
11.99999999999977
 20
-24.99999999999987
 30
0.0
  0
ENDBLK
  5
E7DC
330
E7D1
100
AcDbEntity
  8
0
100
AcDbBlockEnd
  0
BLOCK
  5
E879
330
E86F
100
AcDbEntity
  8
0
100
AcDbBlockBegin
  2
*D7
 70
     1
 10
0.0
 20
0.0
 30
0.0
  3
*D7
  1

  0
LINE
  5
EF99
330
E86F
100
AcDbEntity
  8
AM_5
100
AcDbLine
 10
-14.4999944407688
 20
4.500000000000109
 30
0.0
 11
7.499999999999728
 21
4.500000000000151
 31
0.0
  0
LINE
  5
EF9A
330
E86F
100
AcDbEntity
  8
AM_5
100
AcDbLine
 10
-14.49999444076876
 20
-4.499999999999904
 30
0.0
 11
7.499999999999747
 21
-4.499999999999862
 31
0.0
  0
LINE
  5
EF9B
330
E86F
100
AcDbEntity
  8
AM_5
100
AcDbLine
 10
6.999999999999732
 20
3.25000000000015
 30
0.0
 11
6.999999999999745
 21
-3.249999999999863
 31
0.0
  0
INSERT
  5
EF9C
330
E86F
100
AcDbEntity
  8
AM_5
100
AcDbBlockReference
  2
_OPEN30
 10
6.999999999999729
 20
4.50000000000015
 30
0.0
 41
1.25
 42
1.25
 43
1.25
 50
90.0000000000001
  0
INSERT
  5
EF9D
330
E86F
100
AcDbEntity
  8
AM_5
100
AcDbBlockReference
  2
_OPEN30
 10
6.999999999999747
 20
-4.499999999999863
 30
0.0
 41
1.25
 42
1.25
 43
1.25
 50
270.0000000000001
  0
MTEXT
  5
EF9E
330
E86F
100
AcDbEntity
  8
AM_5
 62
     2
100
AcDbMText
 10
5.449999999999738
 20
0.0000000000001405
 30
0.0
 40
1.6
 41
0.0
 71
     5
 72
     1
  1
%%c9
  7
ASAMI
 11
-0.000000000000002
 21
1.0
 31
0.0
  0
POINT
  5
EF9F
330
E86F
100
AcDbEntity
  8
DEFPOINTS
 62
     0
100
AcDbPoint
 10
-14.99999444076879
 20
4.500000000000142
 30
0.0
  0
POINT
  5
EFA0
330
E86F
100
AcDbEntity
  8
DEFPOINTS
 62
     0
100
AcDbPoint
 10
-14.99999444076877
 20
-4.499999999999872
 30
0.0
  0
POINT
  5
EFA1
330
E86F
100
AcDbEntity
  8
DEFPOINTS
 62
     0
100
AcDbPoint
 10
6.999999999999737
 20
-4.499999999999879
 30
0.0
  0
ENDBLK
  5
E87A
330
E86F
100
AcDbEntity
  8
0
100
AcDbBlockEnd
  0
BLOCK
  5
E915
330
E90B
100
AcDbEntity
  8
0
100
AcDbBlockBegin
  2
*D8
 70
     1
 10
0.0
 20
0.0
 30
0.0
  3
*D8
  1

  0
LINE
  5
EFA2
330
E90B
100
AcDbEntity
  8
AM_5
100
AcDbLine
 10
-39.4999944407688
 20
3.999992370600009
 30
0.0
 11
-51.17747184221796
 21
3.999992370599987
 31
0.0
  0
LINE
  5
EFA3
330
E90B
100
AcDbEntity
  8
AM_5
100
AcDbLine
 10
-39.49999444076877
 20
-3.999992370599999
 30
0.0
 11
-51.17747184221794
 21
-3.999992370600022
 31
0.0
  0
LINE
  5
EFA4
330
E90B
100
AcDbEntity
  8
AM_5
100
AcDbLine
 10
-50.67747184221796
 20
2.749992370599988
 30
0.0
 11
-50.67747184221794
 21
-2.749992370600021
 31
0.0
  0
INSERT
  5
EFA5
330
E90B
100
AcDbEntity
  8
AM_5
100
AcDbBlockReference
  2
_OPEN30
 10
-50.67747184221796
 20
3.999992370599988
 30
0.0
 41
1.25
 42
1.25
 43
1.25
 50
90.0000000000001
  0
INSERT
  5
EFA6
330
E90B
100
AcDbEntity
  8
AM_5
100
AcDbBlockReference
  2
_OPEN30
 10
-50.67747184221794
 20
-3.999992370600021
 30
0.0
 41
1.25
 42
1.25
 43
1.25
 50
270.0000000000001
  0
MTEXT
  5
EFA7
330
E90B
100
AcDbEntity
  8
AM_5
 62
     2
100
AcDbMText
 10
-52.22747184221795
 20
-0.0000000000000175
 30
0.0
 40
1.6
 41
0.0
 71
     5
 72
     1
  1
8
  7
ASAMI
 11
-0.000000000000002
 21
1.0
 31
0.0
  0
POINT
  5
EFA8
330
E90B
100
AcDbEntity
  8
DEFPOINTS
 62
     0
100
AcDbPoint
 10
-38.99999444076879
 20
3.999992370600097
 30
0.0
  0
POINT
  5
EFA9
330
E90B
100
AcDbEntity
  8
DEFPOINTS
 62
     0
100
AcDbPoint
 10
-38.99999444076878
 20
-3.999992370599912
 30
0.0
  0
POINT
  5
EFAA
330
E90B
100
AcDbEntity
  8
DEFPOINTS
 62
     0
100
AcDbPoint
 10
-50.67747184221795
 20
-3.999992370599908
 30
0.0
  0
ENDBLK
  5
E916
330
E90B
100
AcDbEntity
  8
0
100
AcDbBlockEnd
  0
BLOCK
  5
E9BB
330
E9B1
100
AcDbEntity
  8
0
100
AcDbBlockBegin
  2
*D9
 70
     1
 10
0.0
 20
0.0
 30
0.0
  3
*D9
  1

  0
LINE
  5
EFAB
330
E9B1
100
AcDbEntity
  8
AM_5
100
AcDbLine
 10
-39.49999444076883
 20
11.11250305176001
 30
0.0
 11
-55.87276732416756
 21
11.11250305175998
 31
0.0
  0
LINE
  5
EFAC
330
E9B1
100
AcDbEntity
  8
AM_5
100
AcDbLine
 10
-39.49999444076874
 20
-11.11251068115002
 30
0.0
 11
-55.87276732416752
 21
-11.11251068115006
 31
0.0
  0
LINE
  5
EFAD
330
E9B1
100
AcDbEntity
  8
AM_5
100
AcDbLine
 10
-55.37276732416756
 20
9.862503051759983
 30
0.0
 11
-55.37276732416752
 21
-9.862510681150059
 31
0.0
  0
INSERT
  5
EFAE
330
E9B1
100
AcDbEntity
  8
AM_5
100
AcDbBlockReference
  2
_OPEN30
 10
-55.37276732416756
 20
11.11250305175998
 30
0.0
 41
1.25
 42
1.25
 43
1.25
 50
90.0000000000001
  0
INSERT
  5
EFAF
330
E9B1
100
AcDbEntity
  8
AM_5
100
AcDbBlockReference
  2
_OPEN30
 10
-55.37276732416752
 20
-11.11251068115006
 30
0.0
 41
1.25
 42
1.25
 43
1.25
 50
270.0000000000001
  0
MTEXT
  5
EFB0
330
E9B1
100
AcDbEntity
  8
AM_5
 62
     2
100
AcDbMText
 10
-56.92276732416754
 20
-0.0000038146950394
 30
0.0
 40
1.6
 41
0.0
 71
     5
 72
     1
  1
%%c22.225
  7
ASAMI
 11
-0.000000000000002
 21
1.0
 31
0.0
  0
POINT
  5
EFB1
330
E9B1
100
AcDbEntity
  8
DEFPOINTS
 62
     0
100
AcDbPoint
 10
-38.99999444076881
 20
11.1125030517601
 30
0.0
  0
POINT
  5
EFB2
330
E9B1
100
AcDbEntity
  8
DEFPOINTS
 62
     0
100
AcDbPoint
 10
-38.99999444076876
 20
-11.11251068114994
 30
0.0
  0
POINT
  5
EFB3
330
E9B1
100
AcDbEntity
  8
DEFPOINTS
 62
     0
100
AcDbPoint
 10
-55.37276732416754
 20
-11.11251068114993
 30
0.0
  0
ENDBLK
  5
E9BC
330
E9B1
100
AcDbEntity
  8
0
100
AcDbBlockEnd
  0
BLOCK
  5
EB24
330
EB1A
100
AcDbEntity
  8
0
100
AcDbBlockBegin
  2
*D10
 70
     1
 10
0.0
 20
0.0
 30
0.0
  3
*D10
  1

  0
LINE
  5
EFB4
330
EB1A
100
AcDbEntity
  8
AM_5
100
AcDbLine
 10
-39.99999444076872
 20
-18.49999982515438
 30
0.0
 11
-39.99999444076868
 21
-34.38495251719233
 31
0.0
  0
LINE
  5
EFB5
330
EB1A
100
AcDbEntity
  8
AM_5
100
AcDbLine
 10
-34.99999444076877
 20
-4.5
 30
0.0
 11
-34.99999444076871
 21
-34.38495251719233
 31
0.0
  0
LINE
  5
EFB6
330
EB1A
100
AcDbEntity
  8
AM_5
100
AcDbLine
 10
-38.74999444076868
 20
-33.88495251719234
 30
0.0
 11
-36.24999444076871
 21
-33.88495251719233
 31
0.0
  0
INSERT
  5
EFB7
330
EB1A
100
AcDbEntity
  8
AM_5
100
AcDbBlockReference
  2
_OPEN30
 10
-39.99999444076868
 20
-33.88495251719234
 30
0.0
 41
1.25
 42
1.25
 43
1.25
 50
180.0000000000001
  0
INSERT
  5
EFB8
330
EB1A
100
AcDbEntity
  8
AM_5
100
AcDbBlockReference
  2
_OPEN30
 10
-34.99999444076871
 20
-33.88495251719233
 30
0.0
 41
1.25
 42
1.25
 43
1.25
 50
0.0000000000001018
  0
MTEXT
  5
EFB9
330
EB1A
100
AcDbEntity
  8
AM_5
 62
     2
100
AcDbMText
 10
-37.49999444076871
 20
-32.33495251719234
 30
0.0
 40
1.6
 41
0.0
 71
     5
 72
     1
  1
5
  7
ASAMI
  0
POINT
  5
EFBA
330
EB1A
100
AcDbEntity
  8
DEFPOINTS
 62
     0
100
AcDbPoint
 10
-39.99999444076875
 20
-17.9999998251543
 30
0.0
  0
POINT
  5
EFBB
330
EB1A
100
AcDbEntity
  8
DEFPOINTS
 62
     0
100
AcDbPoint
 10
-34.99999444076878
 20
-3.999999999999928
 30
0.0
  0
POINT
  5
EFBC
330
EB1A
100
AcDbEntity
  8
DEFPOINTS
 62
     0
100
AcDbPoint
 10
-34.99999444076878
 20
-33.88495251719226
 30
0.0
  0
ENDBLK
  5
EB25
330
EB1A
100
AcDbEntity
  8
0
100
AcDbBlockEnd
  0
BLOCK
  5
EC0A
330
EC00
100
AcDbEntity
  8
0
100
AcDbBlockBegin
  2
*D11
 70
     1
 10
0.0
 20
0.0
 30
0.0
  3
*D11
  1

  0
LINE
  5
EFBD
330
EC00
100
AcDbEntity
  8
AM_5
100
AcDbLine
 10
-39.99999444076873
 20
-18.50000000000001
 30
0.0
 11
-39.99999444076868
 21
-39.19772453669538
 31
0.0
  0
LINE
  5
EFBE
330
EC00
100
AcDbEntity
  8
AM_5
100
AcDbLine
 10
-19.99999444076873
 20
-12.11250305175994
 30
0.0
 11
-19.99999444076868
 21
-39.19772453669534
 31
0.0
  0
LINE
  5
EFBF
330
EC00
100
AcDbEntity
  8
AM_5
100
AcDbLine
 10
-38.74999444076868
 20
-38.69772453669538
 30
0.0
 11
-21.24999444076868
 21
-38.69772453669535
 31
0.0
  0
INSERT
  5
EFC0
330
EC00
100
AcDbEntity
  8
AM_5
100
AcDbBlockReference
  2
_OPEN30
 10
-39.99999444076868
 20
-38.69772453669538
 30
0.0
 41
1.25
 42
1.25
 43
1.25
 50
180.0000000000001
  0
INSERT
  5
EFC1
330
EC00
100
AcDbEntity
  8
AM_5
100
AcDbBlockReference
  2
_OPEN30
 10
-19.99999444076868
 20
-38.69772453669535
 30
0.0
 41
1.25
 42
1.25
 43
1.25
 50
0.0000000000001018
  0
MTEXT
  5
EFC2
330
EC00
100
AcDbEntity
  8
AM_5
 62
     2
100
AcDbMText
 10
-29.99999444076868
 20
-37.14772453669537
 30
0.0
 40
1.6
 41
0.0
 71
     5
 72
     1
  1
20
  7
ASAMI
  0
POINT
  5
EFC3
330
EC00
100
AcDbEntity
  8
DEFPOINTS
 62
     0
100
AcDbPoint
 10
-39.99999444076876
 20
-17.99999999999992
 30
0.0
  0
POINT
  5
EFC4
330
EC00
100
AcDbEntity
  8
DEFPOINTS
 62
     0
100
AcDbPoint
 10
-19.99999444076875
 20
-11.6125030517599
 30
0.0
  0
POINT
  5
EFC5
330
EC00
100
AcDbEntity
  8
DEFPOINTS
 62
     0
100
AcDbPoint
 10
-19.99999444076875
 20
-38.6977245366953
 30
0.0
  0
ENDBLK
  5
EC0B
330
EC00
100
AcDbEntity
  8
0
100
AcDbBlockEnd
  0
BLOCK
  5
ECC3
330
ECB9
100
AcDbEntity
  8
0
100
AcDbBlockBegin
  2
*D12
 70
     1
 10
0.0
 20
0.0
 30
0.0
  3
*D12
  1

  0
LINE
  5
EFC6
330
ECB9
100
AcDbEntity
  8
AM_5
100
AcDbLine
 10
-39.99999444076872
 20
-18.49999982515438
 30
0.0
 11
-39.99999444076866
 21
-44.37145441042371
 31
0.0
  0
LINE
  5
EFC7
330
ECB9
100
AcDbEntity
  8
AM_5
100
AcDbLine
 10
-0.0000000000001688
 20
-25.49999999999986
 30
0.0
 11
-0.0000000000001318
 21
-44.37145441042363
 31
0.0
  0
LINE
  5
EFC8
330
ECB9
100
AcDbEntity
  8
AM_5
100
AcDbLine
 10
-38.74999444076867
 20
-43.87145441042371
 30
0.0
 11
-1.250000000000132
 21
-43.87145441042363
 31
0.0
  0
INSERT
  5
EFC9
330
ECB9
100
AcDbEntity
  8
AM_5
100
AcDbBlockReference
  2
_OPEN30
 10
-39.99999444076867
 20
-43.87145441042371
 30
0.0
 41
1.25
 42
1.25
 43
1.25
 50
180.0000000000001
  0
INSERT
  5
EFCA
330
ECB9
100
AcDbEntity
  8
AM_5
100
AcDbBlockReference
  2
_OPEN30
 10
-0.0000000000001327
 20
-43.87145441042363
 30
0.0
 41
1.25
 42
1.25
 43
1.25
 50
0.0000000000001018
  0
MTEXT
  5
EFCB
330
ECB9
100
AcDbEntity
  8
AM_5
 62
     2
100
AcDbMText
 10
-19.9999972203844
 20
-42.32145441042368
 30
0.0
 40
1.6
 41
0.0
 71
     5
 72
     1
  1
40
  7
ASAMI
  0
POINT
  5
EFCC
330
ECB9
100
AcDbEntity
  8
DEFPOINTS
 62
     0
100
AcDbPoint
 10
-39.99999444076875
 20
-17.9999998251543
 30
0.0
  0
POINT
  5
EFCD
330
ECB9
100
AcDbEntity
  8
DEFPOINTS
 62
     0
100
AcDbPoint
 10
-0.0000000000002203
 20
-24.99999999999985
 30
0.0
  0
POINT
  5
EFCE
330
ECB9
100
AcDbEntity
  8
DEFPOINTS
 62
     0
100
AcDbPoint
 10
-0.0000000000002214
 20
-43.87145441042363
 30
0.0
  0
ENDBLK
  5
ECC4
330
ECB9
100
AcDbEntity
  8
0
100
AcDbBlockEnd
  0
ENDSEC
  0
SECTION
  2
ENTITIES
  0
TEXT
  5
388D
330
1F
100
AcDbEntity
  8
AM_6
100
AcDbText
 10
-31.33705540033153
 20
-54.95837175138705
 30
0.0
 40
2.5
  1
WRC12050R
 50
359.9999999999998
 51
359.9999999999998
 72
     4
 11
-20.86086492414105
 21
-53.70837175138706
 31
0.0
100
AcDbText
  0
ELLIPSE
  5
E1B8
330
1F
100
AcDbEntity
  8
AM_0
100
AcDbEllipse
 10
-4.909509821628814
 20
17.21795654297015
 30
0.0
 11
2.265502854990025
 21
-3.390564063039998
 31
0.0
210
0.0
220
0.0
230
1.0
 40
0.9809227574207
 41
6.090493668323077
 42
6.475874458170753
  0
ELLIPSE
  5
E1B9
330
1F
100
AcDbEntity
  8
AM_0
100
AcDbEllipse
 10
-5.617059870458815
 20
16.92486572265012
 30
0.0
 11
0.7955324433800191
 21
-3.999450779629992
 31
0.0
210
0.0
220
0.0
230
1.0
 40
0.9809169396802001
 41
6.090492720434248
 42
6.475875315026008
  0
ELLIPSE
  5
E1BA
330
1F
100
AcDbEntity
  8
AM_0
100
AcDbEllipse
 10
-6.382929011078813
 20
16.92486572265012
 30
0.0
 11
-0.7955323162499816
 21
-3.999450804909998
 31
0.0
210
0.0
220
0.0
230
1.0
 40
0.9809169396802001
 41
6.090492492884366
 42
6.475875057136049
  0
ELLIPSE
  5
E1BB
330
1F
100
AcDbEntity
  8
AM_0
100
AcDbEllipse
 10
-7.090509577488814
 20
17.21795654297013
 30
0.0
 11
-2.265503151410023
 21
-3.39056386498
 31
0.0
210
0.0
220
0.0
230
1.0
 40
0.9809268501454997
 41
6.090494422197907
 42
6.475873916683512
  0
ELLIPSE
  5
E1BC
330
1F
100
AcDbEntity
  8
AM_0
100
AcDbEllipse
 10
-7.632044001318815
 20
17.75949096679012
 30
0.0
 11
-3.390563891989978
 21
-2.265503110970008
 31
0.0
210
0.0
220
0.0
230
1.0
 40
0.9809206525908001
 41
6.090492991951382
 42
6.47587486147858
  0
ELLIPSE
  5
E1BD
330
1F
100
AcDbEntity
  8
AM_0
100
AcDbEllipse
 10
-7.925134821628814
 20
18.46707153320012
 30
0.0
 11
-3.999450814400006
 21
-0.7955322685600174
 31
0.0
210
0.0
220
0.0
230
1.0
 40
0.9809243065736
 41
6.090494465766228
 42
6.475874206847303
  0
ELLIPSE
  5
E1BE
330
1F
100
AcDbEntity
  8
AM_0
100
AcDbEllipse
 10
-7.925134821628828
 20
19.23292541504015
 30
0.0
 11
-3.999450775380013
 21
0.7955471298600047
 31
0.0
210
0.0
220
0.0
230
1.0
 40
0.9809198764373999
 41
6.090493541047422
 42
6.475874737139128
  0
ELLIPSE
  5
E1BF
330
1F
100
AcDbEntity
  8
AM_0
100
AcDbEllipse
 10
-7.632044001318829
 20
19.94049072265012
 30
0.0
 11
-3.390563891989986
 21
2.265503110979999
 31
0.0
210
0.0
220
0.0
230
0.9999999999999998
 40
0.9809206525908001
 41
6.090493022291342
 42
6.475874831138722
  0
ELLIPSE
  5
E1C0
330
1F
100
AcDbEntity
  8
AM_0
100
AcDbEllipse
 10
-7.090509577488829
 20
20.48205566406012
 30
0.0
 11
-2.265503151410037
 21
3.390563864980006
 31
0.0
210
0.0
220
0.0
230
0.9999999999999998
 40
0.9809206525907999
 41
6.090493007121362
 42
6.47587487664856
  0
ELLIPSE
  5
E1C1
330
1F
100
AcDbEntity
  8
AM_0
100
AcDbEllipse
 10
-6.382929011078827
 20
20.77513122558015
 30
0.0
 11
-0.7955322000600029
 21
3.999435270310014
 31
0.0
210
0.0
220
0.0
230
1.0
 40
0.9809271585751
 41
6.090494299258295
 42
6.475874221662027
  0
ELLIPSE
  5
E1C2
330
1F
100
AcDbEntity
  8
AM_0
100
AcDbEllipse
 10
-5.617059870458829
 20
20.77513122558015
 30
0.0
 11
0.7955323271800047
 21
3.999435245020011
 31
0.0
210
0.0
220
0.0
230
1.0
 40
0.9809271585750998
 41
6.090494193069396
 42
6.475874145812797
  0
ELLIPSE
  5
E1C3
330
1F
100
AcDbEntity
  8
AM_0
100
AcDbEllipse
 10
-4.909509821628828
 20
20.48205566406015
 30
0.0
 11
2.265502854990011
 21
3.390564063039993
 31
0.0
210
0.0
220
0.0
230
1.0
 40
0.9809165013985001
 41
6.090492242033024
 42
6.475875505196137
  0
ELLIPSE
  5
E1C4
330
1F
100
AcDbEntity
  8
AM_0
100
AcDbEllipse
 10
-4.367944880218827
 20
19.94049072265015
 30
0.0
 11
3.390563964000018
 21
2.265503003200002
 31
0.0
210
0.0
220
0.0
230
1.0
 40
0.9809268501454999
 41
6.090494482877368
 42
6.475873916683512
  0
ELLIPSE
  5
E1C5
330
1F
100
AcDbEntity
  8
AM_0
100
AcDbEllipse
 10
-4.074854059908828
 20
19.23292541504015
 30
0.0
 11
3.999435627039984
 21
0.7955475158800112
 31
0.0
210
0.0
220
0.0
230
1.0
 40
0.9809227306510999
 41
6.090493223266362
 42
6.47587459982933
  0
ELLIPSE
  5
E1C6
330
1F
100
AcDbEntity
  8
AM_0
100
AcDbEllipse
 10
-4.074854059908814
 20
18.46707153320015
 30
0.0
 11
3.999435269520007
 21
-0.7955322040199838
 31
0.0
210
0.0
220
0.0
230
1.0
 40
0.9809213118124
 41
6.090492739018928
 42
6.475874917203761
  0
ELLIPSE
  5
E1C7
330
1F
100
AcDbEntity
  8
AM_0
100
AcDbEllipse
 10
-4.367944880218812
 20
17.75949096679015
 30
0.0
 11
3.390563964000028
 21
-2.265503003199988
 31
0.0
210
0.0
220
0.0
230
1.0
 40
0.9809268501454999
 41
6.090494407028118
 42
6.475873916683512
  0
LINE
  5
E1E3
330
1F
100
AcDbEntity
  8
AM_0
100
AcDbLine
 10
-14.9999944407688
 20
7.000000000000127
 30
0.0
 11
-5.320917292328799
 21
7.000000000000156
 31
0.0
  0
LINE
  5
E1E4
330
1F
100
AcDbEntity
  8
AM_0
100
AcDbLine
 10
-15.75734917709882
 20
23.00000000000012
 30
0.0
 11
-10.28832451889883
 21
23.00000000000012
 31
0.0
  0
LINE
  5
E1E5
330
1F
100
AcDbEntity
  8
AM_7
100
AcDbLine
 10
-43.95214287826878
 20
0.0000000000000711
 30
0.0
 11
2.575170354151213
 21
0.0000000000001563
 31
0.0
  0
LINE
  5
E1F5
330
1F
100
AcDbEntity
  8
AM_0
100
AcDbLine
 10
-39.99999444076879
 20
5.000000000000071
 30
0.0
 11
-39.99999444076882
 21
18.00000000000007
 31
0.0
  0
LINE
  5
E1F6
330
1F
100
AcDbEntity
  8
AM_0
100
AcDbLine
 10
-38.99999444076881
 20
11.1125030517601
 30
0.0
 11
-22.99999444076881
 21
11.1125030517601
 31
0.0
  0
LINE
  5
E1F7
330
1F
100
AcDbEntity
  8
AM_0
100
AcDbLine
 10
-34.99999444076879
 20
4.000000000000099
 30
0.0
 11
-34.99999444076879
 21
0.0000000000000995
 31
0.0
  0
LINE
  5
E1FA
330
1F
100
AcDbEntity
  8
AM_0
100
AcDbLine
 10
-38.99999444076879
 20
4.000000000000085
 30
0.0
 11
-34.99999444076879
 21
4.000000000000099
 31
0.0
  0
LINE
  5
E1FB
330
1F
100
AcDbEntity
  8
AM_0
100
AcDbLine
 10
-38.99999444076879
 20
4.000000000000085
 30
0.0
 11
-38.99999444076881
 21
11.1125030517601
 31
0.0
  0
LINE
  5
E1FC
330
1F
100
AcDbEntity
  8
AM_0
100
AcDbLine
 10
-38.99999444076879
 20
3.999992370600082
 30
0.0
 11
-39.99999444076879
 21
4.999992370600082
 31
0.0
  0
LINE
  5
E1FD
330
1F
100
AcDbEntity
  8
AM_0
100
AcDbLine
 10
-38.99999444076881
 20
11.11251068115008
 30
0.0
 11
-39.9999944407688
 21
12.11251068115008
 31
0.0
  0
LINE
  5
E1FE
330
1F
100
AcDbEntity
  8
AM_0
100
AcDbLine
 10
-19.99999444076878
 20
0.0000000000001279
 30
0.0
 11
-19.9999944407688
 21
11.61250305176013
 31
0.0
  0
LINE
  5
E1FF
330
1F
100
AcDbEntity
  8
AM_0
100
AcDbLine
 10
-14.99999444076878
 20
0.0000000000001279
 30
0.0
 11
-14.9999944407688
 21
7.000000000000127
 31
0.0
  0
LINE
  5
E200
330
1F
100
AcDbEntity
  8
AM_0
100
AcDbLine
 10
-22.99999444076878
 20
0.0000000000001137
 30
0.0
 11
-22.99999444076881
 21
11.6125030517601
 31
0.0
  0
LINE
  5
E203
330
1F
100
AcDbEntity
  8
AM_0
100
AcDbLine
 10
-22.99999444076881
 20
11.6125030517601
 30
0.0
 11
-19.9999944407688
 21
11.61250305176013
 31
0.0
  0
LINE
  5
E204
330
1F
100
AcDbEntity
  8
AM_0
100
AcDbLine
 10
-19.99999444076879
 20
4.500000000000127
 30
0.0
 11
-14.99999444076879
 21
4.500000000000127
 31
0.0
  0
LINE
  5
E205
330
1F
100
AcDbEntity
  8
AM_0
100
AcDbLine
 10
-37.99999444076882
 20
20.00000000000007
 30
0.0
 11
-21.24263970443882
 21
20.00000000000012
 31
0.0
  0
ARC
  5
E206
330
1F
100
AcDbEntity
  8
AM_0
100
AcDbCircle
 10
-37.99999444076882
 20
18.00000000000007
 30
0.0
 40
2.0
100
AcDbArc
 50
90.00000250447845
 51
180.0000050089577
  0
ARC
  5
E207
330
1F
100
AcDbEntity
  8
AM_0
100
AcDbCircle
 10
-15.75734917709882
 20
20.00000000000012
 30
0.0
 40
3.0
100
AcDbArc
 50
90.00000250447845
 51
135.0000140020029
  0
LINE
  5
E208
330
1F
100
AcDbEntity
  8
AM_0
100
AcDbLine
 10
-19.12133233139883
 20
20.87869262695012
 30
0.0
 11
-17.87868706771883
 21
22.12133789062012
 31
0.0
  0
ARC
  5
E209
330
1F
100
AcDbEntity
  8
AM_0
100
AcDbCircle
 10
-21.24263970443883
 20
23.00000000000012
 30
0.0
 40
3.0
100
AcDbArc
 50
269.9999974955215
 51
315.0000124081377
  0
LINE
  5
E20F
330
1F
100
AcDbEntity
  8
AM_0
100
AcDbLine
 10
-1.919214411468812
 20
14.44549560547015
 30
0.0
 11
-1.919214411468784
 21
0.0000000000001563
 31
0.0
  0
LINE
  5
E210
330
1F
100
AcDbEntity
  8
AM_0
100
AcDbLine
 10
-4.320917292328784
 20
0.0000000000001563
 30
0.0
 11
-4.320917292328813
 21
13.05993652344015
 31
0.0
  0
LINE
  5
E212
330
1F
100
AcDbEntity
  8
AM_0
100
AcDbLine
 10
-6.412439509128814
 20
12.85000610351015
 30
0.0
 11
-5.587549372408814
 21
12.85000610351015
 31
0.0
  0
ARC
  5
E213
330
1F
100
AcDbEntity
  8
AM_0
100
AcDbCircle
 10
-5.320917292328799
 20
8.000000000000156
 30
0.0
 40
1.0
100
AcDbArc
 50
269.9999974955215
 51
0.0
  0
LINE
  5
E214
330
1F
100
AcDbEntity
  8
AM_0
100
AcDbLine
 10
-7.915064020848829
 20
24.55111694336013
 30
0.0
 11
-8.67714898178883
 21
24.23544311523012
 31
0.0
  0
LINE
  5
E215
330
1F
100
AcDbEntity
  8
AM_0
100
AcDbLine
 10
-3.322870417328827
 20
24.23542785644015
 30
0.0
 11
-4.084955378268828
 21
24.55110168457015
 31
0.0
  0
CIRCLE
  5
E216
330
1F
100
AcDbEntity
  8
AM_0
100
AcDbCircle
 10
-5.999994440768828
 20
18.85000610351012
 30
0.0
 40
3.2200000286102
  0
LINE
  5
E217
330
1F
100
AcDbEntity
  8
AM_0
100
AcDbLine
 10
-11.99999444076882
 20
19.26245117187012
 30
0.0
 11
-11.99999444076882
 21
18.43756103515012
 31
0.0
  0
LINE
  5
E218
330
1F
100
AcDbEntity
  8
AM_0
100
AcDbLine
 10
-10.53429619857881
 20
14.89898681640012
 30
0.0
 11
-9.951013727878814
 21
14.31570434570012
 31
0.0
  0
LINE
  5
E219
330
1F
100
AcDbEntity
  8
AM_0
100
AcDbLine
 10
-11.70110528060881
 20
16.93495178222015
 30
0.0
 11
-11.38543145248881
 21
16.17285156250012
 31
0.0
  0
LINE
  5
E21A
330
1F
100
AcDbEntity
  8
AM_0
100
AcDbLine
 10
-8.677148981788816
 20
13.46454620361014
 30
0.0
 11
-7.915064020848815
 21
13.14887237549014
 31
0.0
  0
LINE
  5
E21B
330
1F
100
AcDbEntity
  8
AM_0
100
AcDbLine
 10
-11.38546197006883
 20
21.52713012695012
 30
0.0
 11
-11.70110528060882
 21
20.76506042480015
 31
0.0
  0
LINE
  5
E21C
330
1F
100
AcDbEntity
  8
AM_0
100
AcDbLine
 10
-9.951013727878828
 20
23.38427734375013
 30
0.0
 11
-10.53429619857882
 21
22.80099487304012
 31
0.0
  0
LINE
  5
E21D
330
1F
100
AcDbEntity
  8
AM_0
100
AcDbLine
 10
0.0000055592311856
 20
18.43756103515015
 30
0.0
 11
0.0000055592311714
 21
19.26245117187015
 31
0.0
  0
LINE
  5
E21E
330
1F
100
AcDbEntity
  8
AM_0
100
AcDbLine
 10
-2.049005671238814
 20
14.31572723388014
 30
0.0
 11
-1.465723200538816
 21
14.89901733398015
 31
0.0
  0
LINE
  5
E21F
330
1F
100
AcDbEntity
  8
AM_0
100
AcDbLine
 10
-4.084955378268814
 20
13.14886474609015
 30
0.0
 11
-3.322839899758816
 21
13.46453857422015
 31
0.0
  0
LINE
  5
E220
330
1F
100
AcDbEntity
  8
AM_0
100
AcDbLine
 10
-0.6145574290488139
 20
16.17285156250015
 30
0.0
 11
-0.298883600928816
 21
16.93495178222015
 31
0.0
  0
LINE
  5
E221
330
1F
100
AcDbEntity
  8
AM_0
100
AcDbLine
 10
-1.46572320053883
 20
22.80101013183015
 30
0.0
 11
-2.049005671238829
 21
23.38429260254015
 31
0.0
  0
LINE
  5
E222
330
1F
100
AcDbEntity
  8
AM_0
100
AcDbLine
 10
-0.2988836009288302
 20
20.76504516601015
 30
0.0
 11
-0.6145574290488281
 21
21.52714538574015
 31
0.0
  0
LINE
  5
E223
330
1F
100
AcDbEntity
  8
AM_0
100
AcDbLine
 10
-5.587549372408828
 20
24.85000610351012
 30
0.0
 11
-6.412439509128828
 21
24.85000610351012
 31
0.0
  0
ELLIPSE
  5
E6A0
330
1F
100
AcDbEntity
  8
AM_0
100
AcDbEllipse
 10
-4.367944880218744
 20
-17.75949096678987
 30
0.0
 11
3.39056396400002
 21
2.2655030032
 31
0.0
210
0.0
220
0.0
230
-1.0
 40
0.9809268501454999
 41
6.090494407028118
 42
6.475873916683512
  0
ELLIPSE
  5
E6A1
330
1F
100
AcDbEntity
  8
AM_0
100
AcDbEllipse
 10
-4.074854059908743
 20
-18.46707153319987
 30
0.0
 11
3.999435269520004
 21
0.7955322040199984
 31
0.0
210
0.0
220
0.0
230
-1.0
 40
0.9809213118124
 41
6.090492739018928
 42
6.475874917203761
  0
ELLIPSE
  5
E6A2
330
1F
100
AcDbEntity
  8
AM_0
100
AcDbEllipse
 10
-4.074854059908754
 20
-19.23292541503987
 30
0.0
 11
3.999435627039987
 21
-0.7955475158799971
 31
0.0
210
0.0
220
0.0
230
-1.0
 40
0.9809227306511001
 41
6.090493223266362
 42
6.47587459982933
  0
ELLIPSE
  5
E6A3
330
1F
100
AcDbEntity
  8
AM_0
100
AcDbEllipse
 10
-4.36794488021875
 20
-19.94049072264987
 30
0.0
 11
3.390563964000027
 21
-2.26550300319999
 31
0.0
210
0.0
220
0.0
230
-0.9999999999999998
 40
0.9809268501454999
 41
6.090494482877368
 42
6.475873916683512
  0
ELLIPSE
  5
E6A4
330
1F
100
AcDbEntity
  8
AM_0
100
AcDbEllipse
 10
-4.90950982162875
 20
-20.48205566405987
 30
0.0
 11
2.265502854990023
 21
-3.390564063039985
 31
0.0
210
0.0
220
0.0
230
-1.0
 40
0.9809165013985001
 41
6.090492242033024
 42
6.475875505196137
  0
ELLIPSE
  5
E6A5
330
1F
100
AcDbEntity
  8
AM_0
100
AcDbEllipse
 10
-5.61705987045875
 20
-20.77513122557987
 30
0.0
 11
0.7955323271800193
 21
-3.999435245020008
 31
0.0
210
0.0
220
0.0
230
-1.0
 40
0.9809271585750998
 41
6.090494193069396
 42
6.475874145812797
  0
ELLIPSE
  5
E6A6
330
1F
100
AcDbEntity
  8
AM_0
100
AcDbEllipse
 10
-6.382929011078748
 20
-20.77513122557987
 30
0.0
 11
-0.795532200059988
 21
-3.999435270310016
 31
0.0
210
0.0
220
0.0
230
-0.9999999999999998
 40
0.9809271585751
 41
6.090494299258295
 42
6.475874221662027
  0
ELLIPSE
  5
E6A7
330
1F
100
AcDbEntity
  8
AM_0
100
AcDbEllipse
 10
-7.09050957748875
 20
-20.48205566405984
 30
0.0
 11
-2.265503151410024
 21
-3.390563864980014
 31
0.0
210
0.0
220
0.0
230
-1.0
 40
0.9809206525908001
 41
6.090493007121362
 42
6.47587487664856
  0
ELLIPSE
  5
E6A8
330
1F
100
AcDbEntity
  8
AM_0
100
AcDbEllipse
 10
-7.632044001318753
 20
-19.94049072264987
 30
0.0
 11
-3.390563891989979
 21
-2.265503110980011
 31
0.0
210
0.0
220
0.0
230
-1.0
 40
0.9809206525908001
 41
6.090493022291342
 42
6.475874831138722
  0
ELLIPSE
  5
E6A9
330
1F
100
AcDbEntity
  8
AM_0
100
AcDbEllipse
 10
-7.925134821628755
 20
-19.2329254150399
 30
0.0
 11
-3.99945077538001
 21
-0.7955471298600186
 31
0.0
210
0.0
220
0.0
230
-1.0
 40
0.9809198764373999
 41
6.090493541047422
 42
6.475874737139128
  0
ELLIPSE
  5
E6AA
330
1F
100
AcDbEntity
  8
AM_0
100
AcDbEllipse
 10
-7.925134821628743
 20
-18.46707153319987
 30
0.0
 11
-3.999450814400008
 21
0.7955322685600028
 31
0.0
210
0.0
220
0.0
230
-1.0
 40
0.9809243065736
 41
6.090494465766228
 42
6.475874206847303
  0
ELLIPSE
  5
E6AB
330
1F
100
AcDbEntity
  8
AM_0
100
AcDbEllipse
 10
-7.632044001318747
 20
-17.75949096678987
 30
0.0
 11
-3.390563891989987
 21
2.265503110969996
 31
0.0
210
0.0
220
0.0
230
-1.0
 40
0.9809206525908001
 41
6.090492991951382
 42
6.47587486147858
  0
ELLIPSE
  5
E6AC
330
1F
100
AcDbEntity
  8
AM_0
100
AcDbEllipse
 10
-7.090509577488748
 20
-17.21795654296984
 30
0.0
 11
-2.265503151410036
 21
3.390563864979992
 31
0.0
210
0.0
220
0.0
230
-0.9999999999999998
 40
0.9809268501454997
 41
6.090494422197907
 42
6.475873916683512
  0
ELLIPSE
  5
E6AD
330
1F
100
AcDbEntity
  8
AM_0
100
AcDbEllipse
 10
-6.382929011078748
 20
-16.92486572264984
 30
0.0
 11
-0.7955323162499962
 21
3.999450804909995
 31
0.0
210
0.0
220
0.0
230
-1.0
 40
0.9809169396802001
 41
6.090492492884366
 42
6.475875057136049
  0
ELLIPSE
  5
E6AE
330
1F
100
AcDbEntity
  8
AM_0
100
AcDbEllipse
 10
-5.61705987045875
 20
-16.92486572264984
 30
0.0
 11
0.7955324433800046
 21
3.999450779629996
 31
0.0
210
0.0
220
0.0
230
-1.0
 40
0.9809169396802001
 41
6.090492720434248
 42
6.475875315026008
  0
ELLIPSE
  5
E6AF
330
1F
100
AcDbEntity
  8
AM_0
100
AcDbEllipse
 10
-4.909509821628748
 20
-17.21795654296987
 30
0.0
 11
2.265502854990012
 21
3.390564063040006
 31
0.0
210
0.0
220
0.0
230
-1.0
 40
0.9809227574207
 41
6.090493668323077
 42
6.475874458170753
  0
LINE
  5
E6B0
330
1F
100
AcDbEntity
  8
AM_0
100
AcDbLine
 10
-15.75734917709874
 20
-22.9999999999999
 30
0.0
 11
-10.28832451889874
 21
-22.99999999999987
 31
0.0
  0
LINE
  5
E6B1
330
1F
100
AcDbEntity
  8
AM_0
100
AcDbLine
 10
-14.99999444076877
 20
-6.999999999999886
 30
0.0
 11
-5.32091729232877
 21
-6.999999999999886
 31
0.0
  0
LINE
  5
E6B2
330
1F
100
AcDbEntity
  8
AM_0
100
AcDbLine
 10
-22.99999444076878
 20
0.0000000000000995
 30
0.0
 11
-22.99999444076875
 21
-11.6125030517599
 31
0.0
  0
LINE
  5
E6B3
330
1F
100
AcDbEntity
  8
AM_0
100
AcDbLine
 10
-14.99999444076878
 20
0.0000000000001137
 30
0.0
 11
-14.99999444076877
 21
-6.999999999999886
 31
0.0
  0
LINE
  5
E6B4
330
1F
100
AcDbEntity
  8
AM_0
100
AcDbLine
 10
-19.99999444076878
 20
0.0000000000000995
 30
0.0
 11
-19.99999444076875
 21
-11.6125030517599
 31
0.0
  0
LINE
  5
E6B5
330
1F
100
AcDbEntity
  8
AM_0
100
AcDbLine
 10
-38.99999444076877
 20
-3.999999999999928
 30
0.0
 11
-38.99999444076876
 21
-11.11250305175995
 31
0.0
  0
LINE
  5
E6B6
330
1F
100
AcDbEntity
  8
AM_0
100
AcDbLine
 10
-39.99999444076877
 20
-4.999999999999914
 30
0.0
 11
-39.99999444076875
 21
-17.99999999999992
 31
0.0
  0
LINE
  5
E6B7
330
1F
100
AcDbEntity
  8
AM_0
100
AcDbLine
 10
-38.99999444076877
 20
-3.999999999999928
 30
0.0
 11
-34.99999444076877
 21
-3.999999999999928
 31
0.0
  0
LINE
  5
E6B8
330
1F
100
AcDbEntity
  8
AM_0
100
AcDbLine
 10
-38.99999444076877
 20
-3.999992370599926
 30
0.0
 11
-39.99999444076877
 21
-4.999992370599926
 31
0.0
  0
LINE
  5
E6B9
330
1F
100
AcDbEntity
  8
AM_0
100
AcDbLine
 10
-34.99999444076877
 20
-3.999999999999928
 30
0.0
 11
-34.99999444076878
 21
0.0000000000000711
 31
0.0
  0
LINE
  5
E6BA
330
1F
100
AcDbEntity
  8
AM_0
100
AcDbLine
 10
-19.99999444076877
 20
-4.4999999999999
 30
0.0
 11
-14.99999444076877
 21
-4.499999999999886
 31
0.0
  0
LINE
  5
E6BB
330
1F
100
AcDbEntity
  8
AM_0
100
AcDbLine
 10
-37.99999444076874
 20
-19.9999999999999
 30
0.0
 11
-21.24263970443874
 21
-19.9999999999999
 31
0.0
  0
LINE
  5
E6BC
330
1F
100
AcDbEntity
  8
AM_0
100
AcDbLine
 10
-38.99999444076876
 20
-11.11250305175995
 30
0.0
 11
-22.99999444076876
 21
-11.1125030517599
 31
0.0
  0
LINE
  5
E6BD
330
1F
100
AcDbEntity
  8
AM_0
100
AcDbLine
 10
-38.99999444076876
 20
-11.11251068114994
 30
0.0
 11
-39.99999444076875
 21
-12.11251068114994
 31
0.0
  0
ARC
  5
E6BE
330
1F
100
AcDbEntity
  8
AM_0
100
AcDbCircle
 10
-37.99999444076875
 20
-17.9999999999999
 30
0.0
 40
2.0
100
AcDbArc
 50
179.9999949910424
 51
269.9999974955217
  0
LINE
  5
E6BF
330
1F
100
AcDbEntity
  8
AM_0
100
AcDbLine
 10
-22.99999444076875
 20
-11.6125030517599
 30
0.0
 11
-19.99999444076875
 21
-11.6125030517599
 31
0.0
  0
ARC
  5
E6C0
330
1F
100
AcDbEntity
  8
AM_0
100
AcDbCircle
 10
-21.24263970443874
 20
-22.9999999999999
 30
0.0
 40
3.0
100
AcDbArc
 50
44.99998759186249
 51
90.00000250447868
  0
LINE
  5
E6C1
330
1F
100
AcDbEntity
  8
AM_0
100
AcDbLine
 10
-19.12133233139875
 20
-20.8786926269499
 30
0.0
 11
-17.87868706771874
 21
-22.1213378906199
 31
0.0
  0
ARC
  5
E6C2
330
1F
100
AcDbEntity
  8
AM_0
100
AcDbCircle
 10
-15.75734917709874
 20
-19.9999999999999
 30
0.0
 40
3.0
100
AcDbArc
 50
224.9999859979972
 51
269.9999974955217
  0
ARC
  5
E6C3
330
1F
100
AcDbEntity
  8
AM_0
100
AcDbCircle
 10
-5.320917292328766
 20
-7.999999999999886
 30
0.0
 40
1.0
100
AcDbArc
 50
0.00000000000021
 51
90.00000250447868
  0
LINE
  5
E6C4
330
1F
100
AcDbEntity
  8
AM_0
100
AcDbLine
 10
-4.320917292328781
 20
0.0000000000001279
 30
0.0
 11
-4.320917292328762
 21
-13.05993652343987
 31
0.0
  0
LINE
  5
E6C5
330
1F
100
AcDbEntity
  8
AM_0
100
AcDbLine
 10
-1.919214411468756
 20
-14.44549560546987
 30
0.0
 11
-1.919214411468781
 21
0.0000000000001279
 31
0.0
  0
CIRCLE
  5
E6C6
330
1F
100
AcDbEntity
  8
AM_0
100
AcDbCircle
 10
-5.999994440768756
 20
-18.85000610350984
 30
0.0
 40
3.2200000286102
  0
LINE
  5
E6C7
330
1F
100
AcDbEntity
  8
AM_0
100
AcDbLine
 10
-6.412439509128764
 20
-12.85000610350986
 30
0.0
 11
-5.587549372408763
 21
-12.85000610350986
 31
0.0
  0
LINE
  5
E6C8
330
1F
100
AcDbEntity
  8
AM_0
100
AcDbLine
 10
-10.53429619857875
 20
-14.89898681639987
 30
0.0
 11
-9.951013727878759
 21
-14.31570434569987
 31
0.0
  0
LINE
  5
E6C9
330
1F
100
AcDbEntity
  8
AM_0
100
AcDbLine
 10
-11.70110528060874
 20
-16.93495178221989
 30
0.0
 11
-11.38543145248875
 21
-16.17285156249987
 31
0.0
  0
LINE
  5
E6CA
330
1F
100
AcDbEntity
  8
AM_0
100
AcDbLine
 10
-8.677148981788764
 20
-13.46454620360988
 30
0.0
 11
-7.915064020848763
 21
-13.14887237548988
 31
0.0
  0
LINE
  5
E6CB
330
1F
100
AcDbEntity
  8
AM_0
100
AcDbLine
 10
-2.049005671238759
 20
-14.31572723387985
 30
0.0
 11
-1.465723200538757
 21
-14.89901733397987
 31
0.0
  0
LINE
  5
E6CC
330
1F
100
AcDbEntity
  8
AM_0
100
AcDbLine
 10
-4.084955378268762
 20
-13.14886474608987
 30
0.0
 11
-3.322839899758764
 21
-13.46453857421987
 31
0.0
  0
LINE
  5
E6CD
330
1F
100
AcDbEntity
  8
AM_0
100
AcDbLine
 10
-0.6145574290487517
 20
-16.17285156249987
 30
0.0
 11
-0.2988836009287503
 21
-16.93495178221986
 31
0.0
  0
LINE
  5
E6CE
330
1F
100
AcDbEntity
  8
AM_0
100
AcDbLine
 10
-5.587549372408734
 20
-24.85000610350984
 30
0.0
 11
-6.412439509128734
 21
-24.85000610350984
 31
0.0
  0
LINE
  5
E6CF
330
1F
100
AcDbEntity
  8
AM_0
100
AcDbLine
 10
-11.99999444076874
 20
-19.26245117186986
 30
0.0
 11
-11.99999444076875
 21
-18.43756103514986
 31
0.0
  0
LINE
  5
E6D0
330
1F
100
AcDbEntity
  8
AM_0
100
AcDbLine
 10
-11.38546197006874
 20
-21.52713012694987
 30
0.0
 11
-11.70110528060874
 21
-20.76506042479989
 31
0.0
  0
LINE
  5
E6D1
330
1F
100
AcDbEntity
  8
AM_0
100
AcDbLine
 10
-9.95101372787874
 20
-23.38427734374987
 30
0.0
 11
-10.53429619857874
 21
-22.80099487303986
 31
0.0
  0
LINE
  5
E6D2
330
1F
100
AcDbEntity
  8
AM_0
100
AcDbLine
 10
-7.915064020848736
 20
-24.55111694335987
 30
0.0
 11
-8.677148981788738
 21
-24.23544311522987
 31
0.0
  0
LINE
  5
E6D3
330
1F
100
AcDbEntity
  8
AM_0
100
AcDbLine
 10
0.0000055592312567
 20
-18.43756103514986
 30
0.0
 11
0.000005559231246
 21
-19.26245117186986
 31
0.0
  0
LINE
  5
E6D4
330
1F
100
AcDbEntity
  8
AM_0
100
AcDbLine
 10
-0.2988836009287503
 20
-20.76504516600987
 30
0.0
 11
-0.6145574290487464
 21
-21.52714538573987
 31
0.0
  0
LINE
  5
E6D5
330
1F
100
AcDbEntity
  8
AM_0
100
AcDbLine
 10
-1.465723200538743
 20
-22.80101013182986
 30
0.0
 11
-2.04900567123874
 21
-23.38429260253987
 31
0.0
  0
LINE
  5
E6D6
330
1F
100
AcDbEntity
  8
AM_0
100
AcDbLine
 10
-3.322870417328735
 20
-24.23542785643987
 30
0.0
 11
-4.084955378268735
 21
-24.55110168456987
 31
0.0
  0
LINE
  5
E6D7
330
1F
100
AcDbEntity
  8
AM_11
100
AcDbLine
 10
-0.0000000000003197
 20
25.00000000000015
 30
0.0
 11
-0.0000000000002203
 21
-24.99999999999985
 31
0.0
  0
LINE
  5
E6DF
330
1F
100
AcDbEntity
  8
AM_11
100
AcDbLine
 10
-6.000000000000319
 20
25.00000000000012
 30
0.0
 11
-6.000000000000222
 21
-24.99999999999985
 31
0.0
  0
LINE
  5
E6E7
330
1F
100
AcDbEntity
  8
AM_11
100
AcDbLine
 10
-6.000000000000319
 20
25.00000000000015
 30
0.0
 11
-0.0000000000003197
 21
25.00000000000015
 31
0.0
  0
LINE
  5
E6EB
330
1F
100
AcDbEntity
  8
AM_11
100
AcDbLine
 10
-6.000000000000222
 20
-24.99999999999987
 30
0.0
 11
-0.0000000000002203
 21
-24.99999999999985
 31
0.0
  0
DIMENSION
  5
E6F3
330
1F
100
AcDbEntity
  8
AM_5
100
AcDbDimension
  2
*D5
 10
-0.0000000000003069
 20
32.00000000000018
 30
0.0
 11
-3.000000000000304
 21
33.55000000000019
 31
0.0
 70
    32
  1
<>
 51
359.9999999999998
  3
AM_JIS$0
100
AcDbAlignedDimension
 13
-6.000000000000319
 23
25.00000000000015
 33
0.0
 14
-0.0000000000003197
 24
25.00000000000015
 34
0.0
 50
180.0
100
AcDbRotatedDimension
1001
GENIUS_GENDTOL_13
1000

1000
h7
1000

1040
0.0
1001
ACAD
1000
DSTYLE
1002
{
1070
   287
1070
     3
1070
    40
1040
0.5
1070
    42
1040
1.0
1070
    43
1040
12.0
1070
    48
1040
0.1
1070
    78
1070
     8
1070
   140
1040
3.2
1070
   176
1070
   256
1070
   177
1070
   256
1070
   271
1070
     0
1070
   272
1070
     3
1070
   275
1070
     0
1070
   284
1070
     0
1070
   289
1070
     3
1070
   340
1005
6B
1070
   371
1070
    -1
1070
   372
1070
    -1
1002
}
  0
DIMENSION
  5
E7D0
330
1F
100
AcDbEntity
  8
AM_5
100
AcDbDimension
  2
*D6
 10
11.99999999999977
 20
-24.99999999999987
 30
0.0
 11
10.44999999999977
 21
0.0000000000001416
 31
0.0
 70
    32
  1
%%c<>
 51
359.9999999999998
  3
AM_JIS$0
100
AcDbAlignedDimension
 13
-0.0000000000003197
 23
25.00000000000015
 33
0.0
 14
-0.0000000000002203
 24
-24.99999999999987
 34
0.0
 50
90.0000000000001
100
AcDbRotatedDimension
1001
GENIUS_GENDTOL_13
1000

1000
h7
1000

1040
0.0
1001
ACAD
1000
DSTYLE
1002
{
1070
   287
1070
     3
1070
    40
1040
0.5
1070
    42
1040
1.0
1070
    43
1040
12.0
1070
    48
1040
0.1
1070
    78
1070
     8
1070
   140
1040
3.2
1070
   176
1070
   256
1070
   177
1070
   256
1070
   271
1070
     0
1070
   272
1070
     3
1070
   275
1070
     0
1070
   284
1070
     0
1070
   289
1070
     3
1070
   340
1005
6B
1070
   371
1070
    -1
1070
   372
1070
    -1
1002
}
  0
DIMENSION
  5
E86E
330
1F
100
AcDbEntity
  8
AM_5
100
AcDbDimension
  2
*D7
 10
6.999999999999737
 20
-4.499999999999879
 30
0.0
 11
5.449999999999738
 21
0.0000000000001294
 31
0.0
 70
    32
  1
%%c<>
 51
359.9999999999998
  3
AM_JIS$0
100
AcDbAlignedDimension
 13
-14.99999444076879
 23
4.500000000000142
 33
0.0
 14
-14.99999444076877
 24
-4.499999999999872
 34
0.0
 50
90.0000000000001
100
AcDbRotatedDimension
1001
GENIUS_GENDTOL_13
1000

1000
h7
1000

1040
0.0
1001
ACAD
1000
DSTYLE
1002
{
1070
   287
1070
     3
1070
    40
1040
0.5
1070
    42
1040
1.0
1070
    43
1040
12.0
1070
    48
1040
0.1
1070
    78
1070
     8
1070
   140
1040
3.2
1070
   176
1070
   256
1070
   177
1070
   256
1070
   271
1070
     0
1070
   272
1070
     3
1070
   275
1070
     0
1070
   284
1070
     0
1070
   289
1070
     3
1070
   340
1005
6B
1070
   371
1070
    -1
1070
   372
1070
    -1
1002
}
  0
DIMENSION
  5
E90A
330
1F
100
AcDbEntity
  8
AM_5
100
AcDbDimension
  2
*D8
 10
-50.67747184221795
 20
-3.999992370599908
 30
0.0
 11
-52.22747184221795
 21
0.0000000000000881
 31
0.0
 70
    32
  1
<>
 51
359.9999999999998
  3
AM_JIS$0
100
AcDbAlignedDimension
 13
-38.99999444076879
 23
3.999992370600097
 33
0.0
 14
-38.99999444076878
 24
-3.999992370599912
 34
0.0
 50
270.0000000000002
100
AcDbRotatedDimension
1001
GENIUS_GENDTOL_13
1000

1000
h7
1000

1040
0.0
1001
ACAD
1000
DSTYLE
1002
{
1070
   287
1070
     3
1070
    40
1040
0.5
1070
    42
1040
1.0
1070
    43
1040
12.0
1070
    48
1040
0.1
1070
    78
1070
     8
1070
   140
1040
3.2
1070
   176
1070
   256
1070
   177
1070
   256
1070
   271
1070
     0
1070
   272
1070
     3
1070
   275
1070
     0
1070
   284
1070
     0
1070
   289
1070
     3
1070
   340
1005
6B
1070
   371
1070
    -1
1070
   372
1070
    -1
1002
}
  0
DIMENSION
  5
E9B0
330
1F
100
AcDbEntity
  8
AM_5
100
AcDbDimension
  2
*D9
 10
-55.37276732416754
 20
-11.11251068114993
 30
0.0
 11
-56.92276732416754
 21
-0.0000038146949244
 31
0.0
 70
    32
  1
%%c<>
 51
359.9999999999998
  3
AM_JIS$0
100
AcDbAlignedDimension
 13
-38.99999444076881
 23
11.1125030517601
 33
0.0
 14
-38.99999444076876
 24
-11.11251068114994
 34
0.0
 50
270.0000000000001
100
AcDbRotatedDimension
1001
GENIUS_GENDTOL_13
1000

1000
h7
1000

1040
0.0
1001
ACAD
1000
DSTYLE
1002
{
1070
   287
1070
     3
1070
    40
1040
0.5
1070
    42
1040
1.0
1070
    43
1040
12.0
1070
    48
1040
0.1
1070
    78
1070
     8
1070
   140
1040
3.2
1070
   176
1070
   256
1070
   177
1070
   256
1070
   271
1070
     3
1070
   272
1070
     3
1070
   275
1070
     0
1070
   284
1070
     0
1070
   289
1070
     3
1070
   340
1005
6B
1070
   371
1070
    -1
1070
   372
1070
    -1
1002
}
  0
DIMENSION
  5
EB19
330
1F
100
AcDbEntity
  8
AM_5
100
AcDbDimension
  2
*D10
 10
-34.99999444076878
 20
-33.88495251719226
 30
0.0
 11
-37.49999444076877
 21
-32.33495251719226
 31
0.0
 70
    32
  1
<>
 51
359.9999999999998
  3
AM_JIS$0
100
AcDbAlignedDimension
 13
-39.99999444076875
 23
-17.9999998251543
 33
0.0
 14
-34.99999444076878
 24
-3.999999999999928
 34
0.0
100
AcDbRotatedDimension
1001
GENIUS_GENDTOL_13
1000

1000
h7
1000

1040
0.0
1001
ACAD
1000
DSTYLE
1002
{
1070
   287
1070
     3
1070
    40
1040
0.5
1070
    42
1040
1.0
1070
    43
1040
12.0
1070
    48
1040
0.1
1070
    78
1070
     8
1070
   140
1040
3.2
1070
   176
1070
   256
1070
   177
1070
   256
1070
   271
1070
     0
1070
   272
1070
     3
1070
   275
1070
     0
1070
   284
1070
     0
1070
   289
1070
     3
1070
   340
1005
6B
1070
   371
1070
    -1
1070
   372
1070
    -1
1002
}
  0
DIMENSION
  5
EBFF
330
1F
100
AcDbEntity
  8
AM_5
100
AcDbDimension
  2
*D11
 10
-19.99999444076875
 20
-38.6977245366953
 30
0.0
 11
-29.99999444076876
 21
-37.1477245366953
 31
0.0
 70
    32
  1
<>
 51
359.9999999999998
  3
AM_JIS$0
100
AcDbAlignedDimension
 13
-39.99999444076876
 23
-17.99999999999992
 33
0.0
 14
-19.99999444076875
 24
-11.6125030517599
 34
0.0
100
AcDbRotatedDimension
1001
GENIUS_GENDTOL_13
1000

1000
h7
1000

1040
0.0
1001
ACAD
1000
DSTYLE
1002
{
1070
   287
1070
     3
1070
    40
1040
0.5
1070
    42
1040
1.0
1070
    43
1040
12.0
1070
    48
1040
0.1
1070
    78
1070
     8
1070
   140
1040
3.2
1070
   176
1070
   256
1070
   177
1070
   256
1070
   271
1070
     0
1070
   272
1070
     3
1070
   275
1070
     0
1070
   284
1070
     0
1070
   289
1070
     3
1070
   340
1005
6B
1070
   371
1070
    -1
1070
   372
1070
    -1
1002
}
  0
DIMENSION
  5
ECB8
330
1F
100
AcDbEntity
  8
AM_5
100
AcDbDimension
  2
*D12
 10
-0.0000000000002214
 20
-43.87145441042363
 30
0.0
 11
-19.99999722038449
 21
-42.32145441042364
 31
0.0
 70
    32
  1
<>
 51
359.9999999999998
  3
AM_JIS$0
100
AcDbAlignedDimension
 13
-39.99999444076875
 23
-17.9999998251543
 33
0.0
 14
-0.0000000000002203
 24
-24.99999999999985
 34
0.0
100
AcDbRotatedDimension
1001
GENIUS_GENDTOL_13
1000

1000
h7
1000

1040
0.0
1001
ACAD
1000
DSTYLE
1002
{
1070
   287
1070
     3
1070
    40
1040
0.5
1070
    42
1040
1.0
1070
    43
1040
12.0
1070
    48
1040
0.1
1070
    78
1070
     8
1070
   140
1040
3.2
1070
   176
1070
   256
1070
   177
1070
   256
1070
   271
1070
     0
1070
   272
1070
     3
1070
   275
1070
     0
1070
   284
1070
     0
1070
   289
1070
     3
1070
   340
1005
6B
1070
   371
1070
    -1
1070
   372
1070
    -1
1002
}
  0
VIEWPORT
  5
110
330
101
100
AcDbEntity
 67
     1
  8
0
100
AcDbViewport
 10
420.5
 20
297.0
 30
0.0
 40
948.9782706766916
 41
628.452
 68
     1
 69
     1
1001
ACAD
1000
MVIEW
1002
{
1070
    16
1010
0.0
1020
0.0
1030
0.0
1010
0.0
1020
0.0
1030
1.0
1040
0.0
1040
628.452
1040
420.5
1040
297.0
1040
50.0
1040
0.0
1040
0.0
1070
     0
1070
   100
1070
     1
1070
     1
1070
     0
1070
     0
1070
     0
1070
     0
1040
0.0
1040
0.0
1040
0.0
1040
10.0
1040
10.0
1040
10.0
1040
10.0
1070
     0
1002
{
1002
}
1002
}
  0
ENDSEC
  0
SECTION
  2
OBJECTS
  0
DICTIONARY
  5
C
330
0
100
AcDbDictionary
  3
ACAD_GROUP
350
D
  3
ACAD_LAYOUT
350
1A
  3
ACAD_MLINESTYLE
350
17
  3
ACAD_PLOTSETTINGS
350
19
  3
ACAD_PLOTSTYLENAME
350
E
  3
ACDBVARIABLEDICTIONARY
350
34
  3
ACMDICTIONARY
350
43
  3
AMG
350
2B
  3
AMGSNAPSETTINGS
350
6E
  3
DWGPROPS
350
EF51
  3
ACDBHEADERROUNDTRIPXREC
350
EF5D
  0
DICTIONARY
  5
74
330
1F
100
AcDbDictionary
280
     1
  3
ACAD_INDEX
360
EF53
  3
ACAD_LAYOUTSELFREF
360
EF80
  0
DICTIONARY
  5
EF85
330
101
100
AcDbDictionary
280
     1
  3
ACAD_LAYOUTSELFREF
360
EF86
  0
DICTIONARY
  5
D
102
{ACAD_REACTORS
330
C
102
}
330
C
100
AcDbDictionary
  0
DICTIONARY
  5
1A
102
{ACAD_REACTORS
330
C
102
}
330
C
100
AcDbDictionary
  0
DICTIONARY
  5
17
102
{ACAD_REACTORS
330
C
102
}
330
C
100
AcDbDictionary
  3
STANDARD
350
18
  0
DICTIONARY
  5
19
102
{ACAD_REACTORS
330
C
102
}
330
C
100
AcDbDictionary
  3
ASAMI
350
399D
  0
ACDBDICTIONARYWDFLT
  5
E
102
{ACAD_REACTORS
330
C
102
}
330
C
100
AcDbDictionary
281
     1
  3
Normal
350
F
100
AcDbDictionaryWithDefault
340
F
  0
DICTIONARY
  5
34
102
{ACAD_REACTORS
330
C
102
}
330
C
100
AcDbDictionary
  3
INDEXCTL
350
35
  3
SORTENTS
350
B5E
  0
DICTIONARY
  5
43
102
{ACAD_REACTORS
330
C
102
}
330
C
100
AcDbDictionary
  3
ACMSTDDICTIONARY
350
260
  0
DICTIONARY
  5
2B
102
{ACAD_REACTORS
330
C
102
}
330
C
100
AcDbDictionary
  3
ACMGSETTINGS
350
2C
  0
DICTIONARY
  5
6E
102
{ACAD_REACTORS
330
C
102
}
330
C
100
AcDbDictionary
  0
XRECORD
  5
EF51
102
{ACAD_REACTORS
330
C
102
}
330
C
100
AcDbXrecord
  1
DWGPROPS COOKIE
  2

  3

  4

  6

  7

  8

  9

300
AmdtFileType=82
301
=
302
=
303
=
304
=
305
=
306
=
307
=
308
=
309
=
 40
0.9623812962962963
 41
2452802.716478761
 42
2453075.640256249
  1

 90
        1
  0
DICTIONARY
  5
EF5D
102
{ACAD_REACTORS
330
C
102
}
330
C
100
AcDbDictionary
  3
TSTACKALIGN
350
EF5E
  3
TSTACKSIZE
350
EF5F
  3
HYPERLINKBASE
350
EF60
  3
STYLESHEET
350
EF61
  3
LAYOUTDICT
350
EF62
  3
PLOTSETDICT
350
EF63
  3
PLOTSTYLNAMDICT
350
EF64
  3
LWETCUNION
350
EF65
  3
INSUNITS
350
EF66
  3
CEPSNTYPE
350
EF67
  3
FINGERPRINTGUID
350
EF68
  3
VERSIONGUID
350
EF69
  3
PSVPSCALE
350
EF6A
  3
DIMSTYLEDATA
350
EF6B
  3
PUCSORTHOREF
350
EF6C
  3
PUCSORTHOVIEW
350
EF6D
  3
PUCSBASE
350
EF6E
  3
PUCSORGTOP
350
EF6F
  3
PUCSORGBOTTOM
350
EF70
  3
PUCSORGLEFT
350
EF71
  3
PUCSORGRIGHT
350
EF72
  3
PUCSORGFRONT
350
EF73
  3
PUCSORGBACK
350
EF74
  3
UCSORTHOREF
350
EF75
  3
UCSORTHOVIEW
350
EF76
  3
UCSBASE
350
EF77
  3
UCSORGTOP
350
EF78
  3
UCSORGBOTTOM
350
EF79
  3
UCSORGLEFT
350
EF7A
  3
UCSORGRIGHT
350
EF7B
  3
UCSORGFRONT
350
EF7C
  3
UCSORGBACK
350
EF7D
  0
DICTIONARY
  5
EF53
102
{ACAD_REACTORS
330
74
102
}
330
74
100
AcDbDictionary
  3
*A1
350
EF54
  0
XRECORD
  5
EF80
102
{ACAD_REACTORS
330
74
102
}
330
74
100
AcDbXrecord
340
1F
  0
XRECORD
  5
EF86
102
{ACAD_REACTORS
330
EF85
102
}
330
EF85
100
AcDbXrecord
340
101
  0
MLINESTYLE
  5
18
102
{ACAD_REACTORS
330
17
102
}
330
17
100
AcDbMlineStyle
  2
STANDARD
 70
     0
  3

 62
   256
 51
90.0
 52
90.0
 71
     2
 49
0.5
 62
   256
  6
BYLAYER
 49
-0.5
 62
   256
  6
BYLAYER
  0
PLOTSETTINGS
  5
399D
102
{ACAD_REACTORS
330
19
102
}
330
19
100
AcDbPlotSettings
  1
asami
  2
RICOH imagio MF1540
  4
A4
  6

 40
5.831416606903076
 41
7.651742935180664
 42
4.90008544921875
 43
5.789077758789062
 44
296.9683227539062
 45
209.9733276367187
 46
0.0
 47
0.0
 48
-156.6707931774246
 49
-74.57609991074048
140
58.59973180214831
141
60.61068161925596
142
1.0
143
1.095343097833084
 70
  1712
 72
     1
 73
     1
 74
     4
  7
asami.ctb
 75
     0
147
0.9129559514076438
148
156.6707931774246
149
74.57609991074048
  0
ACDBPLACEHOLDER
  5
F
102
{ACAD_REACTORS
330
E
102
}
330
E
100
AcDbPlaceHolder
280
     0
  0
DICTIONARYVAR
  5
35
102
{ACAD_REACTORS
330
34
102
}
330
34
100
DictionaryVariables
280
     0
  1
1
  0
DICTIONARYVAR
  5
B5E
102
{ACAD_REACTORS
330
34
102
}
330
34
100
DictionaryVariables
280
     0
  1
96
  0
DICTIONARY
  5
260
102
{ACAD_REACTORS
330
43
102
}
330
43
100
AcDbDictionary
  0
DICTIONARY
  5
2C
102
{ACAD_REACTORS
330
2B
102
}
330
2B
100
AcDbDictionary
  3
DWGSETTINGS
350
2D
  0
XRECORD
  5
EF5E
102
{ACAD_REACTORS
330
EF5D
102
}
330
EF5D
100
AcDbXrecord
 90
        1
  0
XRECORD
  5
EF5F
102
{ACAD_REACTORS
330
EF5D
102
}
330
EF5D
100
AcDbXrecord
 90
       70
  0
XRECORD
  5
EF60
102
{ACAD_REACTORS
330
EF5D
102
}
330
EF5D
100
AcDbXrecord
  1

  0
XRECORD
  5
EF61
102
{ACAD_REACTORS
330
EF5D
102
}
330
EF5D
100
AcDbXrecord
  1
ASAMI.ctb
  0
XRECORD
  5
EF62
102
{ACAD_REACTORS
330
EF5D
102
}
330
EF5D
100
AcDbXrecord
340
1A
  0
XRECORD
  5
EF63
102
{ACAD_REACTORS
330
EF5D
102
}
330
EF5D
100
AcDbXrecord
340
19
  0
XRECORD
  5
EF64
102
{ACAD_REACTORS
330
EF5D
102
}
330
EF5D
100
AcDbXrecord
340
E
  0
XRECORD
  5
EF65
102
{ACAD_REACTORS
330
EF5D
102
}
330
EF5D
100
AcDbXrecord
 90
    10781
  0
XRECORD
  5
EF66
102
{ACAD_REACTORS
330
EF5D
102
}
330
EF5D
100
AcDbXrecord
 90
        4
  0
XRECORD
  5
EF67
102
{ACAD_REACTORS
330
EF5D
102
}
330
EF5D
100
AcDbXrecord
 90
        0
  0
XRECORD
  5
EF68
102
{ACAD_REACTORS
330
EF5D
102
}
330
EF5D
100
AcDbXrecord
  1
{AFB28963-8C59-40AE-9337-C84526B81ACE}
  0
XRECORD
  5
EF69
102
{ACAD_REACTORS
330
EF5D
102
}
330
EF5D
100
AcDbXrecord
  1
{1242DE11-D642-4996-9C4C-4EB4A8EB96FA}
  0
XRECORD
  5
EF6A
102
{ACAD_REACTORS
330
EF5D
102
}
330
EF5D
100
AcDbXrecord
 40
0.0
  0
XRECORD
  5
EF6B
102
{ACAD_REACTORS
330
EF5D
102
}
330
EF5D
100
AcDbXrecord
1000
DSTYLE
1002
{
1070
    79
 70
     2
1070
   341
340
59
1070
   342
340
59
1070
   371
 70
    -1
1070
   372
 70
    -1
1002
}
  0
XRECORD
  5
EF6C
102
{ACAD_REACTORS
330
EF5D
102
}
330
EF5D
100
AcDbXrecord
340
0
  0
XRECORD
  5
EF6D
102
{ACAD_REACTORS
330
EF5D
102
}
330
EF5D
100
AcDbXrecord
 70
     0
  0
XRECORD
  5
EF6E
102
{ACAD_REACTORS
330
EF5D
102
}
330
EF5D
100
AcDbXrecord
340
0
  0
XRECORD
  5
EF6F
102
{ACAD_REACTORS
330
EF5D
102
}
330
EF5D
100
AcDbXrecord
 10
0.0
 20
0.0
 30
0.0
  0
XRECORD
  5
EF70
102
{ACAD_REACTORS
330
EF5D
102
}
330
EF5D
100
AcDbXrecord
 10
0.0
 20
0.0
 30
0.0
  0
XRECORD
  5
EF71
102
{ACAD_REACTORS
330
EF5D
102
}
330
EF5D
100
AcDbXrecord
 10
0.0
 20
0.0
 30
0.0
  0
XRECORD
  5
EF72
102
{ACAD_REACTORS
330
EF5D
102
}
330
EF5D
100
AcDbXrecord
 10
0.0
 20
0.0
 30
0.0
  0
XRECORD
  5
EF73
102
{ACAD_REACTORS
330
EF5D
102
}
330
EF5D
100
AcDbXrecord
 10
0.0
 20
0.0
 30
0.0
  0
XRECORD
  5
EF74
102
{ACAD_REACTORS
330
EF5D
102
}
330
EF5D
100
AcDbXrecord
 10
0.0
 20
0.0
 30
0.0
  0
XRECORD
  5
EF75
102
{ACAD_REACTORS
330
EF5D
102
}
330
EF5D
100
AcDbXrecord
340
0
  0
XRECORD
  5
EF76
102
{ACAD_REACTORS
330
EF5D
102
}
330
EF5D
100
AcDbXrecord
 70
     0
  0
XRECORD
  5
EF77
102
{ACAD_REACTORS
330
EF5D
102
}
330
EF5D
100
AcDbXrecord
340
0
  0
XRECORD
  5
EF78
102
{ACAD_REACTORS
330
EF5D
102
}
330
EF5D
100
AcDbXrecord
 10
0.0
 20
0.0
 30
0.0
  0
XRECORD
  5
EF79
102
{ACAD_REACTORS
330
EF5D
102
}
330
EF5D
100
AcDbXrecord
 10
0.0
 20
0.0
 30
0.0
  0
XRECORD
  5
EF7A
102
{ACAD_REACTORS
330
EF5D
102
}
330
EF5D
100
AcDbXrecord
 10
0.0
 20
0.0
 30
0.0
  0
XRECORD
  5
EF7B
102
{ACAD_REACTORS
330
EF5D
102
}
330
EF5D
100
AcDbXrecord
 10
0.0
 20
0.0
 30
0.0
  0
XRECORD
  5
EF7C
102
{ACAD_REACTORS
330
EF5D
102
}
330
EF5D
100
AcDbXrecord
 10
0.0
 20
0.0
 30
0.0
  0
XRECORD
  5
EF7D
102
{ACAD_REACTORS
330
EF5D
102
}
330
EF5D
100
AcDbXrecord
 10
0.0
 20
0.0
 30
0.0
  0
LAYER_INDEX
  5
EF54
102
{ACAD_REACTORS
330
EF53
102
}
330
EF53
100
AcDbIndex
 40
2453152.380888067
100
AcDbLayerIndex
  8
0
360
EF55
 90
        0
  8
AM_0
360
EF56
 90
      110
  8
AM_5
360
EF57
 90
        8
  8
AM_7
360
EF58
 90
        1
  8
AM_6
360
EF59
 90
        1
  8
Defpoints
360
EF5A
 90
        0
  8
AM_11
360
EF5B
 90
        4
  0
XRECORD
  5
2D
102
{ACAD_REACTORS
330
2C
102
}
330
2C
100
AcDbXrecord
  1
VERSION
140
15.0
  1
PRODUCT
  2
AutoCAD Mechanical 2000
  0
IDBUFFER
  5
EF55
330
0
100
AcDbIdBuffer
  0
IDBUFFER
  5
EF56
330
0
100
AcDbIdBuffer
330
E21D
330
E21E
330
E21F
330
E220
330
E221
330
E222
330
E223
330
E6A0
330
E6A1
330
E6A2
330
E6A3
330
E6A4
330
E6A5
330
E6A6
330
E6A7
330
E6A8
330
E6A9
330
E6AA
330
E6AB
330
E6AC
330
E6AD
330
E6AE
330
E6AF
330
E6B0
330
E6B1
330
E6B2
330
E6B3
330
E6B4
330
E6B5
330
E6B6
330
E6B7
330
E6B8
330
E6B9
330
E6BA
330
E6BB
330
E6BC
330
E6BD
330
E6BE
330
E6BF
330
E6C0
330
E6C1
330
E6C2
330
E6C3
330
E6C4
330
E6C5
330
E6C6
330
E6C7
330
E6C8
330
E6C9
330
E6CA
330
E6CB
330
E6CC
330
E6CD
330
E6CE
330
E6CF
330
E6D0
330
E6D1
330
E6D2
330
E6D3
330
E6D4
330
E6D5
330
E6D6
330
E1B8
330
E1B9
330
E1BA
330
E1BB
330
E1BC
330
E1BD
330
E1BE
330
E1BF
330
E1C0
330
E1C1
330
E1C2
330
E1C3
330
E1C4
330
E1C5
330
E1C6
330
E1C7
330
E1E3
330
E1E4
330
E1F5
330
E1F6
330
E1F7
330
E1FA
330
E1FB
330
E1FC
330
E1FD
330
E1FE
330
E1FF
330
E200
330
E203
330
E204
330
E205
330
E206
330
E207
330
E208
330
E209
330
E20F
330
E210
330
E212
330
E213
330
E214
330
E215
330
E216
330
E217
330
E218
330
E219
330
E21A
330
E21B
330
E21C
  0
IDBUFFER
  5
EF57
330
0
100
AcDbIdBuffer
330
E6F3
330
E7D0
330
E86E
330
E90A
330
E9B0
330
EB19
330
EBFF
330
ECB8
  0
IDBUFFER
  5
EF58
330
0
100
AcDbIdBuffer
330
E1E5
  0
IDBUFFER
  5
EF59
330
0
100
AcDbIdBuffer
330
388D
  0
IDBUFFER
  5
EF5A
330
0
100
AcDbIdBuffer
  0
IDBUFFER
  5
EF5B
330
0
100
AcDbIdBuffer
330
E6D7
330
E6DF
330
E6E7
330
E6EB
  0
ENDSEC
  0
EOF
