  0
SECTION
  2
HEADER
  9
$ACADVER
  1
AC1014
  9
$ACADMAINTVER
 70
     9
  9
$DWGCODEPAGE
  3
ANSI_932
  9
$INSBASE
 10
0.0
 20
0.0
 30
0.0
  9
$EXTMIN
 10
-53.24051260813508
 20
-52.3040920468376
 30
-0.00000001
  9
$EXTMAX
 10
12.49999999999978
 20
34.35000000000016
 30
0.00000001
  9
$LIMMIN
 10
-68.83013330564342
 20
-79.97557731214664
  9
$LIMMAX
 10
124.9201953321389
 20
49.31866641262297
  9
$ORTHOMODE
 70
     0
  9
$REGENMODE
 70
     1
  9
$FILLMODE
 70
     1
  9
$QTEXTMODE
 70
     0
  9
$MIRRTEXT
 70
     0
  9
$DRAGMODE
 70
     2
  9
$LTSCALE
 40
1.0
  9
$OSMODE
 70
    55
  9
$ATTMODE
 70
     1
  9
$TEXTSIZE
 40
2.5
  9
$TRACEWID
 40
1.0
  9
$TEXTSTYLE
  7
STANDARD
  9
$CLAYER
  8
AM_0
  9
$CELTYPE
  6
BYLAYER
  9
$CECOLOR
 62
   256
  9
$CELTSCALE
 40
1.0
  9
$DELOBJ
 70
     1
  9
$DISPSILH
 70
     0
  9
$DIMSCALE
 40
0.5
  9
$DIMASZ
 40
2.5
  9
$DIMEXO
 40
1.0
  9
$DIMDLI
 40
12.0
  9
$DIMRND
 40
0.0
  9
$DIMDLE
 40
0.0
  9
$DIMEXE
 40
1.0
  9
$DIMTP
 40
0.1
  9
$DIMTM
 40
0.1
  9
$DIMTXT
 40
3.2
  9
$DIMCEN
 40
0.0
  9
$DIMTSZ
 40
0.0
  9
$DIMTOL
 70
     0
  9
$DIMLIM
 70
     0
  9
$DIMTIH
 70
     0
  9
$DIMTOH
 70
     0
  9
$DIMSE1
 70
     0
  9
$DIMSE2
 70
     0
  9
$DIMTAD
 70
     3
  9
$DIMZIN
 70
     8
  9
$DIMBLK
  1
OPEN30
  9
$DIMASO
 70
     1
  9
$DIMSHO
 70
     1
  9
$DIMPOST
  1

  9
$DIMAPOST
  1
"
  9
$DIMALT
 70
     0
  9
$DIMALTD
 70
     2
  9
$DIMALTF
 40
0.0393701
  9
$DIMLFAC
 40
1.0
  9
$DIMTOFL
 70
     1
  9
$DIMTVP
 40
0.0
  9
$DIMTIX
 70
     0
  9
$DIMSOXD
 70
     0
  9
$DIMSAH
 70
     0
  9
$DIMBLK1
  1

  9
$DIMBLK2
  1

  9
$DIMSTYLE
  2
AM_JIS
  9
$DIMCLRD
 70
   256
  9
$DIMCLRE
 70
   256
  9
$DIMCLRT
 70
     2
  9
$DIMTFAC
 40
0.71
  9
$DIMGAP
 40
1.5
  9
$DIMJUST
 70
     0
  9
$DIMSD1
 70
     0
  9
$DIMSD2
 70
     0
  9
$DIMTOLJ
 70
     0
  9
$DIMTZIN
 70
     0
  9
$DIMALTZ
 70
     0
  9
$DIMALTTZ
 70
     0
  9
$DIMFIT
 70
     3
  9
$DIMUPT
 70
     0
  9
$DIMUNIT
 70
     2
  9
$DIMDEC
 70
     3
  9
$DIMTDEC
 70
     3
  9
$DIMALTU
 70
     2
  9
$DIMALTTD
 70
     2
  9
$DIMTXSTY
  7
ASAMI
  9
$DIMAUNIT
 70
     0
  9
$LUNITS
 70
     2
  9
$LUPREC
 70
     2
  9
$SKETCHINC
 40
1.0
  9
$FILLETRAD
 40
0.4
  9
$AUNITS
 70
     0
  9
$AUPREC
 70
     0
  9
$MENU
  1
.
  9
$ELEVATION
 40
0.0
  9
$PELEVATION
 40
0.0
  9
$THICKNESS
 40
0.0
  9
$LIMCHECK
 70
     1
  9
$BLIPMODE
 70
     0
  9
$CHAMFERA
 40
1.0
  9
$CHAMFERB
 40
1.0
  9
$CHAMFERC
 40
20.0
  9
$CHAMFERD
 40
0.0
  9
$SKPOLY
 70
     0
  9
$TDCREATE
 40
2452802.716478761
  9
$TDUPDATE
 40
2453152.380990972
  9
$TDINDWG
 40
0.9552395833
  9
$TDUSRTIMER
 40
0.9552395833
  9
$USRTIMER
 70
     1
  9
$ANGBASE
 50
0.0
  9
$ANGDIR
 70
     0
  9
$PDMODE
 70
     0
  9
$PDSIZE
 40
0.0
  9
$PLINEWID
 40
0.0
  9
$COORDS
 70
     1
  9
$SPLFRAME
 70
     0
  9
$SPLINETYPE
 70
     6
  9
$SPLINESEGS
 70
     8
  9
$ATTDIA
 70
     1
  9
$ATTREQ
 70
     1
  9
$HANDLING
 70
 12289
  9
$HANDSEED
  5
DFF6
  9
$SURFTAB1
 70
     6
  9
$SURFTAB2
 70
     6
  9
$SURFTYPE
 70
     6
  9
$SURFU
 70
     6
  9
$SURFV
 70
     6
  9
$UCSNAME
  2

  9
$UCSORG
 10
-0.0000000000002682
 20
0.000000000000161
 30
0.0
  9
$UCSXDIR
 10
1.0
 20
0.000000000000002
 30
0.0
  9
$UCSYDIR
 10
-0.000000000000002
 20
1.0
 30
0.0
  9
$PUCSNAME
  2

  9
$PUCSORG
 10
0.0
 20
0.0
 30
0.0
  9
$PUCSXDIR
 10
1.0
 20
0.0
 30
0.0
  9
$PUCSYDIR
 10
0.0
 20
1.0
 30
0.0
  9
$USERI1
 70
     0
  9
$USERI2
 70
     0
  9
$USERI3
 70
     0
  9
$USERI4
 70
     0
  9
$USERI5
 70
     0
  9
$USERR1
 40
0.0
  9
$USERR2
 40
0.0
  9
$USERR3
 40
0.0
  9
$USERR4
 40
0.0
  9
$USERR5
 40
0.0
  9
$WORLDVIEW
 70
     1
  9
$SHADEDGE
 70
     3
  9
$SHADEDIF
 70
    70
  9
$TILEMODE
 70
     1
  9
$MAXACTVP
 70
    64
  9
$PINSBASE
 10
0.0
 20
0.0
 30
0.0
  9
$PLIMCHECK
 70
     0
  9
$PEXTMIN
 10
1.000000000000000E+20
 20
1.000000000000000E+20
 30
1.000000000000000E+20
  9
$PEXTMAX
 10
-1.000000000000000E+20
 20
-1.000000000000000E+20
 30
-1.000000000000000E+20
  9
$PLIMMIN
 10
0.0
 20
0.0
  9
$PLIMMAX
 10
841.0
 20
594.0
  9
$UNITMODE
 70
     0
  9
$VISRETAIN
 70
     1
  9
$PLINEGEN
 70
     0
  9
$PSLTSCALE
 70
     0
  9
$TREEDEPTH
 70
  3020
  9
$PICKSTYLE
 70
     0
  9
$CMLSTYLE
  2
STANDARD
  9
$CMLJUST
 70
     0
  9
$CMLSCALE
 40
20.0
  9
$PROXYGRAPHICS
 70
     1
  9
$MEASUREMENT
 70
     1
  0
ENDSEC
  0
SECTION
  2
CLASSES
  0
CLASS
  1
ACDBDICTIONARYWDFLT
  2
AcDbDictionaryWithDefault
  3
AutoCAD 2000
 90
        0
280
     0
281
     0
  0
CLASS
  1
ACDBPLACEHOLDER
  2
AcDbPlaceHolder
  3
AutoCAD 2000
 90
        0
280
     0
281
     0
  0
CLASS
  1
LAYOUT
  2
AcDbLayout
  3
AutoCAD 2000
 90
        0
280
     0
281
     0
  0
CLASS
  1
AMGSETTINGSOBJ
  2
AmgSettingsObj
  3
"AcadM|Product Description: AutoCAD Mechanical 2000|Company: Autodesk"
 90
        0
280
     0
281
     0
  0
CLASS
  1
ACME_DOCUMENT
  2
AcMeDbDoc
  3
AcMeServices
 90
        0
280
     0
281
     0
  0
CLASS
  1
ACMESCOPE
  2
AcMeScope
  3
AcMeServices
 90
        0
280
     0
281
     0
  0
CLASS
  1
ACMECOMMANDHISTORY
  2
AcMeCommandHistory
  3
AcMeServices
 90
        0
280
     0
281
     0
  0
CLASS
  1
DICTIONARYVAR
  2
AcDbDictionaryVar
  3
AutoCAD 2000
 90
        0
280
     0
281
     0
  0
CLASS
  1
ACIMSYSVARMAN
  2
AcImSysVarManager
  3
AcMeServices
 90
        0
280
     0
281
     0
  0
CLASS
  1
ACIMREALSYSVAR
  2
AcImRealSysVar
  3
AcMeServices
 90
        0
280
     0
281
     0
  0
CLASS
  1
ACIMINTSYSVAR
  2
AcImIntSysVar
  3
AcMeServices
 90
        0
280
     0
281
     0
  0
CLASS
  1
ACMEDRAWINGMAN
  2
AcMeDrawingMan
  3
AcMeServices
 90
        0
280
     0
281
     0
  0
CLASS
  1
ACMEVIEW
  2
AcMeView
  3
AcMeServices
 90
        0
280
     0
281
     0
  0
CLASS
  1
ACDBENTITYCACHE
  2
AcMeEntityCache
  3
AcMeServices
 90
        0
280
     0
281
     0
  0
CLASS
  1
GSMANAGER
  2
AcMeGSManager
  3
AcMeServices
 90
        0
280
     0
281
     0
  0
CLASS
  1
AmdtInternalReactor
  2
AmdtInternalReactor
  3
AcMeServices
 90
        0
280
     0
281
     0
  0
CLASS
  1
ACMESTATEMGR
  2
AcMeStateMgr
  3
AcMeServices
 90
        0
280
     0
281
     0
  0
CLASS
  1
ACME_DATABASE
  2
AcMeDbDatabase
  3
AcMeServices
 90
        0
280
     0
281
     0
  0
CLASS
  1
ACRFINSADJUSTERMGR
  2
AcRfInsAdjusterMgr
  3
AcMeServices
 90
        0
280
     0
281
     0
  0
CLASS
  1
ACMDATADICTIONARY
  2
AcmDataDictionary
  3
"AcmSymBB|Product Description: AutoCAD Mechanical 2000|Company: Autodesk"
 90
        0
280
     0
281
     0
  0
CLASS
  1
ACMDATAENTRYBLOCK
  2
AcmDataEntryBlock
  3
"AcmSymBB|Product Description: AutoCAD Mechanical 2000|Company: Autodesk"
 90
        0
280
     0
281
     0
  0
CLASS
  1
AMGOBJPROPCFG
  2
AmgObjPropCfg
  3
"AmgLay|Product Description: AutoCAD Mechanical 2000|Company: Autodesk"
 90
        1
280
     0
281
     0
  0
CLASS
  1
ACAMGFILTERDAT
  2
AcAmgFilterDat
  3
"AcadM|Product Description: AutoCAD Mechanical 2000|Company: Autodesk"
 90
        0
280
     0
281
     0
  0
CLASS
  1
LAYER_INDEX
  2
AcDbLayerIndex
  3
AutoCAD 2000
 90
        0
280
     0
281
     0
  0
CLASS
  1
IDBUFFER
  2
AcDbIdBuffer
  3
AutoCAD 2000
 90
        0
280
     0
281
     0
  0
CLASS
  1
ACIMSTRSYSVAR
  2
AcImStrSysVar
  3
AcMeServices
 90
        0
280
     0
281
     0
  0
CLASS
  1
ACMSTANDARDJIS
  2
AcmStandardJIS
  3
"AcmSymBB|Product Description: AutoCAD Mechanical 2000|Company: Autodesk"
 90
        0
280
     0
281
     0
  0
CLASS
  1
ACMSURFSTANDARDJIS
  2
AcmSurfTextStdJIS
  3
"AcmSymBB|Product Description: AutoCAD Mechanical 2000|Company: Autodesk"
 90
        0
280
     0
281
     0
  0
CLASS
  1
ACMFCFSTANDARDJIS
  2
AcmFCFStdJIS
  3
"AcmSymBB|Product Description: AutoCAD Mechanical 2000|Company: Autodesk"
 90
        0
280
     0
281
     0
  0
CLASS
  1
ACMWELDSTANDARDJIS
  2
AcmWeldingStdJIS
  3
"AcmSymBB|Product Description: AutoCAD Mechanical 2000|Company: Autodesk"
 90
        0
280
     0
281
     0
  0
CLASS
  1
ACMIDSTANDARDJIS
  2
AcmIdStdJIS
  3
"AcmSymBB|Product Description: AutoCAD Mechanical 2000|Company: Autodesk"
 90
        0
280
     0
281
     0
  0
CLASS
  1
ACMDATUMSTANDARDJIS
  2
AcmDatumStdJIS
  3
"AcmSymBB|Product Description: AutoCAD Mechanical 2000|Company: Autodesk"
 90
        0
280
     0
281
     0
  0
CLASS
  1
ACMBOMSTANDARDJIS
  2
AcmBOMStdJIS
  3
"AcmSymBB|Product Description: AutoCAD Mechanical 2000|Company: Autodesk"
 90
        0
280
     0
281
     0
  0
CLASS
  1
ACMSTANDARDANSI
  2
AcmStandardANSI
  3
"AcmSymBB|Product Description: AutoCAD Mechanical 2000|Company: Autodesk"
 90
        0
280
     0
281
     0
  0
CLASS
  1
ACMSURFSTANDARDANSI
  2
AcmSurfTextStdANSI
  3
"AcmSymBB|Product Description: AutoCAD Mechanical 2000|Company: Autodesk"
 90
        0
280
     0
281
     0
  0
CLASS
  1
ACMFCFSTANDARDANSI
  2
AcmFCFStdANSI
  3
"AcmSymBB|Product Description: AutoCAD Mechanical 2000|Company: Autodesk"
 90
        0
280
     0
281
     0
  0
CLASS
  1
ACMWELDSTANDARDANSI
  2
AcmWeldingStdANSI
  3
"AcmSymBB|Product Description: AutoCAD Mechanical 2000|Company: Autodesk"
 90
        0
280
     0
281
     0
  0
CLASS
  1
ACMIDSTANDARDANSI
  2
AcmIdStdANSI
  3
"AcmSymBB|Product Description: AutoCAD Mechanical 2000|Company: Autodesk"
 90
        0
280
     0
281
     0
  0
CLASS
  1
ACMDATUMSTANDARDANSI
  2
AcmDatumStdANSI
  3
"AcmSymBB|Product Description: AutoCAD Mechanical 2000|Company: Autodesk"
 90
        0
280
     0
281
     0
  0
CLASS
  1
ACMBOMSTANDARDANSI
  2
AcmBOMStdANSI
  3
"AcmSymBB|Product Description: AutoCAD Mechanical 2000|Company: Autodesk"
 90
        0
280
     0
281
     0
  0
CLASS
  1
ACMSTANDARDBSI
  2
AcmStandardBSI
  3
"AcmSymBB|Product Description: AutoCAD Mechanical 2000|Company: Autodesk"
 90
        0
280
     0
281
     0
  0
CLASS
  1
ACMSURFSTANDARDBSI
  2
AcmSurfTextStdBSI
  3
"AcmSymBB|Product Description: AutoCAD Mechanical 2000|Company: Autodesk"
 90
        0
280
     0
281
     0
  0
CLASS
  1
ACMFCFSTANDARDBSI
  2
AcmFCFStdBSI
  3
"AcmSymBB|Product Description: AutoCAD Mechanical 2000|Company: Autodesk"
 90
        0
280
     0
281
     0
  0
CLASS
  1
ACMWELDSTANDARDBSI
  2
AcmWeldingStdBSI
  3
"AcmSymBB|Product Description: AutoCAD Mechanical 2000|Company: Autodesk"
 90
        0
280
     0
281
     0
  0
CLASS
  1
ACMIDSTANDARDBSI
  2
AcmIdStdBSI
  3
"AcmSymBB|Product Description: AutoCAD Mechanical 2000|Company: Autodesk"
 90
        0
280
     0
281
     0
  0
CLASS
  1
ACMDATUMSTANDARDBSI
  2
AcmDatumStdBSI
  3
"AcmSymBB|Product Description: AutoCAD Mechanical 2000|Company: Autodesk"
 90
        0
280
     0
281
     0
  0
CLASS
  1
ACMBOMSTANDARDBSI
  2
AcmBOMStdBSI
  3
"AcmSymBB|Product Description: AutoCAD Mechanical 2000|Company: Autodesk"
 90
        0
280
     0
281
     0
  0
CLASS
  1
STDPART2D
  2
AmgStdPart
  3
"AmgStdPart|Product Description: AutoCAD Mechanical 2000|Company: Autodesk"
 90
     1023
280
     0
281
     1
  0
CLASS
  1
PLOTSETTINGS
  2
AcDbPlotSettings
  3
AutoCAD 2000
 90
        0
280
     0
281
     0
  0
CLASS
  1
LONG_TRANSACTION
  2
AcDbLongTransaction
  3
AutoCAD 2000
 90
        0
280
     0
281
     0
  0
CLASS
  1
LWPOLYLINE
  2
AcDbPolyline
  3
AutoCAD 2000
 90
        0
280
     0
281
     1
  0
CLASS
  1
HATCH
  2
AcDbHatch
  3
AutoCAD 2000
 90
        0
280
     0
281
     1
  0
CLASS
  1
XRECORD
  2
AcDbXrecord
  3
AutoCAD 2000
 90
        0
280
     0
281
     0
  0
ENDSEC
  0
SECTION
  2
TABLES
  0
TABLE
  2
VPORT
  5
8
330
0
100
AcDbSymbolTable
 70
     3
  0
VPORT
  5
DF83
330
8
100
AcDbSymbolTableRecord
100
AcDbViewportTableRecord
  2
*ACTIVE
 70
     0
 10
0.0
 20
0.0
 11
1.0
 21
1.0
 12
-14.8733026217363
 22
-6.18311922589622
 13
0.0
 23
0.0
 14
2.5
 24
2.5
 15
10.0
 25
10.0
 16
0.0
 26
0.0
 36
1.0
 17
0.0
 27
0.0
 37
0.0
 40
106.7519134602491
 41
1.56570841889117
 42
50.0
 43
0.0
 44
0.0
 50
0.0
 51
0.0
 71
     0
 72
   100
 73
     1
 74
     3
 75
     0
 76
     0
 77
     0
 78
     0
  0
ENDTAB
  0
TABLE
  2
LTYPE
  5
5
330
0
100
AcDbSymbolTable
 70
    10
  0
LTYPE
  5
14
330
5
100
AcDbSymbolTableRecord
100
AcDbLinetypeTableRecord
  2
BYBLOCK
 70
     0
  3

 72
    65
 73
     0
 40
0.0
  0
LTYPE
  5
15
330
5
100
AcDbSymbolTableRecord
100
AcDbLinetypeTableRecord
  2
BYLAYER
 70
     0
  3

 72
    65
 73
     0
 40
0.0
  0
LTYPE
  5
16
330
5
100
AcDbSymbolTableRecord
100
AcDbLinetypeTableRecord
  2
CONTINUOUS
 70
     0
  3
Solid line
 72
    65
 73
     0
 40
0.0
  0
LTYPE
  5
4B
330
5
100
AcDbSymbolTableRecord
100
AcDbLinetypeTableRecord
  2
AM_ISO02W050
 70
     0
  3
__ __ __ __ __ __ __ __ __ __ __ __ __ __ __
 72
    65
 73
     2
 40
7.5
 49
6.0
 74
     0
 49
-1.5
 74
     0
  0
LTYPE
  5
4C
330
5
100
AcDbSymbolTableRecord
100
AcDbLinetypeTableRecord
  2
AM_ISO08W050
 70
     0
  3
____ . ____ . ____ . ____ . ____ . ____ . ____
 72
    65
 73
     4
 40
18.0
 49
12.0
 74
     0
 49
-1.5
 74
     0
 49
3.0
 74
     0
 49
-1.5
 74
     0
  0
LTYPE
  5
4D
330
5
100
AcDbSymbolTableRecord
100
AcDbLinetypeTableRecord
  2
AM_ISO09W050
 70
     0
  3
_____ . . _____ . . _____ . . ____ .. ____
 72
    65
 73
     6
 40
22.5
 49
12.0
 74
     0
 49
-1.5
 74
     0
 49
3.0
 74
     0
 49
-1.5
 74
     0
 49
3.0
 74
     0
 49
-1.5
 74
     0
  0
LTYPE
  5
4E
330
5
100
AcDbSymbolTableRecord
100
AcDbLinetypeTableRecord
  2
AMCONSTR
 70
     0
  3
_______________________
 72
    65
 73
     2
 40
9999.0
 49
9999.0
 74
     0
 49
0.0
 74
     0
  0
LTYPE
  5
4F
330
5
100
AcDbSymbolTableRecord
100
AcDbLinetypeTableRecord
  2
AM_ISO02W050X2
 70
     0
  3
 _ _ _ _ _ _ _ _ _ _ _ _
 72
    65
 73
     2
 40
3.75
 49
3.0
 74
     0
 49
-0.75
 74
     0
  0
LTYPE
  5
50
330
5
100
AcDbSymbolTableRecord
100
AcDbLinetypeTableRecord
  2
AM_ISO08W050X2
 70
     0
  3
__ . __ . __ . __ . __ . __
 72
    65
 73
     4
 40
9.0
 49
6.0
 74
     0
 49
-0.75
 74
     0
 49
1.5
 74
     0
 49
-0.75
 74
     0
  0
LTYPE
  5
53
330
5
100
AcDbSymbolTableRecord
100
AcDbLinetypeTableRecord
  2
AMZIGZAG
 70
     0
  3
/\/-/\/-/\/-/\/-/\/-/\/
 72
    65
 73
     2
 40
11.00009999999999
 49
0.0001
 74
     4
 75
   135
340
52
 46
0.04
 50
0.0
 44
0.0
 45
0.0
 49
-11.0
 74
     0
  0
LTYPE
  5
166
330
5
100
AcDbSymbolTableRecord
100
AcDbLinetypeTableRecord
  2
ACJISTGL
 70
     0
  3
_ _ _ _ _
 72
    65
 73
     2
 40
3.0
 49
2.0
 74
     0
 49
-1.0
 74
     0
  0
LTYPE
  5
26A
330
5
100
AcDbSymbolTableRecord
100
AcDbLinetypeTableRecord
  2
ACJISTGB
 70
     0
  3
__ . . __ . .
 72
    65
 73
     6
 40
9.0
 49
4.0
 74
     0
 49
-1.0
 74
     0
 49
1.0
 74
     0
 49
-1.0
 74
     0
 49
1.0
 74
     0
 49
-1.0
 74
     0
  0
ENDTAB
  0
TABLE
  2
LAYER
  5
2
330
0
100
AcDbSymbolTable
 70
     7
  0
LAYER
  5
10
330
2
100
AcDbSymbolTableRecord
100
AcDbLayerTableRecord
  2
0
 70
     0
 62
     7
  6
CONTINUOUS
  0
LAYER
  5
3F9
330
2
100
AcDbSymbolTableRecord
100
AcDbLayerTableRecord
  2
AM_0
 70
     0
 62
     7
  6
CONTINUOUS
  0
LAYER
  5
BA4
330
2
100
AcDbSymbolTableRecord
100
AcDbLayerTableRecord
  2
AM_5
 70
     0
 62
     3
  6
CONTINUOUS
  0
LAYER
  5
BA6
330
2
100
AcDbSymbolTableRecord
100
AcDbLayerTableRecord
  2
AM_7
 70
     0
 62
     4
  6
AM_ISO08W050
  0
LAYER
  5
E64
330
2
100
AcDbSymbolTableRecord
100
AcDbLayerTableRecord
  2
AM_6
 70
     0
 62
     2
  6
CONTINUOUS
  0
LAYER
  5
F4D
330
2
100
AcDbSymbolTableRecord
100
AcDbLayerTableRecord
  2
DEFPOINTS
 70
     0
 62
     7
  6
CONTINUOUS
  0
LAYER
  5
4E80
330
2
100
AcDbSymbolTableRecord
100
AcDbLayerTableRecord
  2
AM_11
 70
     0
 62
     3
  6
AM_ISO09W050
  0
ENDTAB
  0
TABLE
  2
STYLE
  5
3
330
0
100
AcDbSymbolTable
 70
     5
  0
STYLE
  5
11
330
3
100
AcDbSymbolTableRecord
100
AcDbTextStyleTableRecord
  2
STANDARD
 70
     0
 40
0.0
 41
1.0
 50
0.0
 71
     0
 42
2.5
  3
simplex.shx
  4
EXTFONT.SHX
  0
STYLE
  5
52
330
3
100
AcDbSymbolTableRecord
100
AcDbTextStyleTableRecord
  2

 70
     1
 40
0.0
 41
1.0
 50
0.0
 71
     0
 42
2.5
  3
ltypeshp.shx
  4

  0
STYLE
  5
6B
330
3
100
AcDbSymbolTableRecord
100
AcDbTextStyleTableRecord
  2
ASAMI
 70
     0
 40
0.0
 41
1.0
 50
0.0
 71
     0
 42
2.5
  3
simplex.shx
  4
EXTFONT.SHX
  0
STYLE
  5
262
330
3
100
AcDbSymbolTableRecord
100
AcDbTextStyleTableRecord
  2
ACJISTS
 70
     0
 40
1.0
 41
1.0
 50
0.0
 71
     0
 42
2.5
  3
simplex.shx
  4
bigfont.shx
  0
STYLE
  5
269
330
3
100
AcDbSymbolTableRecord
100
AcDbTextStyleTableRecord
  2
ACJISGDT
 70
     0
 40
0.0
 41
1.0
 50
0.0
 71
     0
 42
2.5
  3
amgdtans.shx
  4

  0
ENDTAB
  0
TABLE
  2
VIEW
  5
6
330
0
100
AcDbSymbolTable
 70
     0
  0
ENDTAB
  0
TABLE
  2
UCS
  5
7
330
0
100
AcDbSymbolTable
 70
     0
  0
ENDTAB
  0
TABLE
  2
APPID
  5
9
330
0
100
AcDbSymbolTable
 70
    24
  0
APPID
  5
12
330
9
100
AcDbSymbolTableRecord
100
AcDbRegAppTableRecord
  2
ACAD
 70
     0
  0
APPID
  5
30
330
9
100
AcDbSymbolTableRecord
100
AcDbRegAppTableRecord
  2
MCAD_NO_VIS
 70
     0
  0
APPID
  5
31
330
9
100
AcDbSymbolTableRecord
100
AcDbRegAppTableRecord
  2
ACAD_TEMP_GRAPHIC
 70
     0
  0
APPID
  5
2C2
330
9
100
AcDbSymbolTableRecord
100
AcDbRegAppTableRecord
  2
GENIUS_GENDTOL_13
 70
     0
  0
APPID
  5
339
330
9
100
AcDbSymbolTableRecord
100
AcDbRegAppTableRecord
  2
GENIUS_GENODEF_13
 70
     0
  0
APPID
  5
33A
330
9
100
AcDbSymbolTableRecord
100
AcDbRegAppTableRecord
  2
GENIUS_GENOBJ-N-RSBK_13
 70
     0
  0
APPID
  5
33B
330
9
100
AcDbSymbolTableRecord
100
AcDbRegAppTableRecord
  2
GENIUS_GENOBJ-N-LIB_13
 70
     0
  0
APPID
  5
33C
330
9
100
AcDbSymbolTableRecord
100
AcDbRegAppTableRecord
  2
GENIUS_GENSCALE_13
 70
     0
  0
APPID
  5
378
330
9
100
AcDbSymbolTableRecord
100
AcDbRegAppTableRecord
  2
GENIUS_GENDIMSH_14
 70
     0
  0
APPID
  5
BB0
330
9
100
AcDbSymbolTableRecord
100
AcDbRegAppTableRecord
  2
GENIUS_GENOBJ-N-CEN_13
 70
     0
  0
APPID
  5
BB1
330
9
100
AcDbSymbolTableRecord
100
AcDbRegAppTableRecord
  2
GENIUS_GENFIL_13
 70
     0
  0
APPID
  5
BB2
330
9
100
AcDbSymbolTableRecord
100
AcDbRegAppTableRecord
  2
GENIUS_GENOBJ-N-CHA_13
 70
     0
  0
APPID
  5
1FAF
330
9
100
AcDbSymbolTableRecord
100
AcDbRegAppTableRecord
  2
GENIUS_GENOBJ-N-CRS_13
 70
     0
  0
APPID
  5
1FB0
330
9
100
AcDbSymbolTableRecord
100
AcDbRegAppTableRecord
  2
GENIUS_GENOENT_13
 70
     0
  0
APPID
  5
1FB1
330
9
100
AcDbSymbolTableRecord
100
AcDbRegAppTableRecord
  2
GENIUS_GENOREF_13
 70
     0
  0
APPID
  5
1FB2
330
9
100
AcDbSymbolTableRecord
100
AcDbRegAppTableRecord
  2
GENIUS_GENOLIS_13
 70
     0
  0
APPID
  5
1FB7
330
9
100
AcDbSymbolTableRecord
100
AcDbRegAppTableRecord
  2
GENIUS_GENOBJ-N-FIL_13
 70
     0
  0
APPID
  5
22A8
330
9
100
AcDbSymbolTableRecord
100
AcDbRegAppTableRecord
  2
GEVID1056506048
 70
     0
  0
APPID
  5
22A9
330
9
100
AcDbSymbolTableRecord
100
AcDbRegAppTableRecord
  2
GEVDC
 70
     0
  0
APPID
  5
22AC
330
9
100
AcDbSymbolTableRecord
100
AcDbRegAppTableRecord
  2
GENIUS_GENBH_13
 70
     0
  0
APPID
  5
22B8
330
9
100
AcDbSymbolTableRecord
100
AcDbRegAppTableRecord
  2
GENIUS_GENOBJ-NBEHI-BHF_13
 70
     0
  0
APPID
  5
22BA
330
9
100
AcDbSymbolTableRecord
100
AcDbRegAppTableRecord
  2
GENIUS_GENOBJ-NBEHI-BHB_13
 70
     0
  0
APPID
  5
35C9
330
9
100
AcDbSymbolTableRecord
100
AcDbRegAppTableRecord
  2
GENIUS_GENREC_14
 70
     0
  0
APPID
  5
35CA
330
9
100
AcDbSymbolTableRecord
100
AcDbRegAppTableRecord
  2
GENIUS_GENOBJ-N-REC_13
 70
     0
  0
ENDTAB
  0
TABLE
  2
DIMSTYLE
  5
A
330
0
100
AcDbSymbolTable
 70
     9
  0
DIMSTYLE
105
58
330
A
100
AcDbSymbolTableRecord
100
AcDbDimStyleTableRecord
  2
AM_JIS
 70
     0
  3

  4
"
  5
OPEN30
  6

  7

 40
0.5
 41
2.5
 42
1.0
 43
12.0
 44
1.0
 45
0.0
 46
0.0
 47
0.1
 48
0.1
140
3.2
141
0.0
142
0.0
143
0.0393701
144
1.0
145
0.0
146
0.71
147
1.5
 71
     0
 72
     0
 73
     0
 74
     0
 75
     0
 76
     0
 77
     3
 78
     8
170
     0
171
     2
172
     1
173
     0
174
     0
175
     0
176
   256
177
   256
178
     2
270
     2
271
     3
272
     3
273
     2
274
     2
340
6B
275
     0
280
     0
281
     0
282
     0
283
     0
284
     0
285
     0
286
     0
287
     3
288
     0
  0
DIMSTYLE
105
5F
330
A
100
AcDbSymbolTableRecord
100
AcDbDimStyleTableRecord
  2
AM_JIS$3
 70
     0
  3

  4
"
  5
OPEN30
  6

  7

 40
0.5
 41
2.5
 42
1.0
 43
10.0
 44
1.0
 45
0.0
 46
0.0
 47
0.1
 48
0.1
140
3.2
141
0.0
142
0.0
143
0.0393701
144
1.0
145
0.0
146
0.71
147
1.5
 71
     0
 72
     0
 73
     0
 74
     1
 75
     0
 76
     0
 77
     3
 78
     8
170
     0
171
     2
172
     0
173
     0
174
     0
175
     0
176
   256
177
   256
178
     2
270
     2
271
     2
272
     3
273
     2
274
     2
340
6B
275
     0
280
     0
281
     0
282
     0
283
     0
284
     0
285
     0
286
     0
287
     0
288
     1
  0
DIMSTYLE
105
60
330
A
100
AcDbSymbolTableRecord
100
AcDbDimStyleTableRecord
  2
AM_JIS$4
 70
     0
  3

  4
"
  5
OPEN30
  6

  7

 40
0.5
 41
2.5
 42
1.0
 43
10.0
 44
1.0
 45
0.0
 46
0.0
 47
0.1
 48
0.1
140
3.2
141
0.0
142
0.0
143
0.0393701
144
1.0
145
0.0
146
0.71
147
1.5
 71
     0
 72
     0
 73
     0
 74
     1
 75
     0
 76
     0
 77
     3
 78
     8
170
     0
171
     2
172
     0
173
     0
174
     0
175
     0
176
   256
177
   256
178
     2
270
     2
271
     2
272
     3
273
     2
274
     2
340
6B
275
     0
280
     0
281
     0
282
     0
283
     0
284
     0
285
     0
286
     0
287
     0
288
     1
  0
DIMSTYLE
105
61
330
A
100
AcDbSymbolTableRecord
100
AcDbDimStyleTableRecord
  2
AM_JIS$6
 70
     0
  3

  4
"
  5
OPEN30
  6

  7

 40
0.5
 41
2.5
 42
1.0
 43
10.0
 44
1.0
 45
0.0
 46
0.0
 47
0.1
 48
0.1
140
3.2
141
0.0
142
0.0
143
0.0393701
144
1.0
145
0.0
146
0.71
147
1.5
 71
     0
 72
     0
 73
     0
 74
     0
 75
     0
 76
     0
 77
     0
 78
     8
170
     0
171
     2
172
     1
173
     0
174
     0
175
     0
176
   256
177
   256
178
     2
270
     2
271
     2
272
     2
273
     2
274
     2
340
6B
275
     0
280
     0
281
     0
282
     0
283
     0
284
     0
285
     0
286
     0
287
     3
288
     0
  0
DIMSTYLE
105
62
330
A
100
AcDbSymbolTableRecord
100
AcDbDimStyleTableRecord
  2
AM_JIS$7
 70
     0
  3

  4
"
  5
OPEN30
  6

  7

 40
0.5
 41
2.5
 42
1.0
 43
10.0
 44
1.0
 45
0.0
 46
0.0
 47
0.1
 48
0.1
140
3.2
141
0.0
142
0.0
143
0.0393701
144
1.0
145
0.0
146
0.71
147
1.5
 71
     0
 72
     0
 73
     0
 74
     0
 75
     0
 76
     0
 77
     3
 78
     8
170
     0
171
     2
172
     1
173
     0
174
     0
175
     0
176
   256
177
   256
178
     2
270
     2
271
     2
272
     3
273
     2
274
     2
340
6B
275
     0
280
     0
281
     0
282
     0
283
     0
284
     0
285
     0
286
     0
287
     3
288
     0
  0
DIMSTYLE
105
63
330
A
100
AcDbSymbolTableRecord
100
AcDbDimStyleTableRecord
  2
AM_JIS$SF
 70
     0
  3

  4
"
  5
OPEN30
  6

  7

 40
0.5
 41
2.5
 42
1.0
 43
10.0
 44
1.0
 45
0.0
 46
0.0
 47
0.1
 48
0.1
140
3.2
141
0.0
142
0.0
143
0.0393701
144
1.0
145
0.0
146
0.71
147
1.5
 71
     0
 72
     0
 73
     0
 74
     0
 75
     1
 76
     1
 77
     3
 78
     8
170
     0
171
     2
172
     1
173
     0
174
     0
175
     0
176
   256
177
   256
178
     2
270
     2
271
     2
272
     2
273
     2
274
     2
340
6B
275
     0
280
     0
281
     0
282
     0
283
     0
284
     0
285
     0
286
     0
287
     3
288
     0
  0
DIMSTYLE
105
68
330
A
100
AcDbSymbolTableRecord
100
AcDbDimStyleTableRecord
  2
AM_JIS$SH
 70
     0
  3

  4
"
  5

  6
GENAXEH
  7
OPEN30
 40
0.5
 41
2.5
 42
1.0
 43
10.0
 44
1.0
 45
0.0
 46
0.0
 47
0.1
 48
0.1
140
3.2
141
0.0
142
0.0
143
0.0393701
144
2.0
145
0.0
146
0.71
147
1.5
 71
     0
 72
     0
 73
     0
 74
     0
 75
     1
 76
     1
 77
     3
 78
     8
170
     0
171
     2
172
     1
173
     1
174
     0
175
     0
176
   256
177
   256
178
     2
270
     2
271
     2
272
     2
273
     2
274
     2
340
6B
275
     0
280
     0
281
     0
282
     0
283
     0
284
     0
285
     0
286
     0
287
     3
288
     0
  0
DIMSTYLE
105
B34
330
A
100
AcDbSymbolTableRecord
100
AcDbDimStyleTableRecord
  2
AM_JIS$2
 70
     0
  3

  4
"
  5
OPEN30
  6

  7

 40
0.5
 41
2.5
 42
1.0
 43
12.0
 44
1.0
 45
0.0
 46
0.0
 47
0.1
 48
0.1
140
3.2
141
0.0
142
0.0
143
0.0393701
144
1.0
145
0.0
146
0.71
147
1.5
 71
     0
 72
     0
 73
     0
 74
     0
 75
     0
 76
     0
 77
     3
 78
     8
170
     0
171
     2
172
     1
173
     0
174
     0
175
     0
176
   256
177
   256
178
     2
270
     2
271
     3
272
     3
273
     2
274
     2
340
6B
275
     0
280
     0
281
     0
282
     0
283
     0
284
     0
285
     0
286
     0
287
     3
288
     0
  0
DIMSTYLE
105
3B48
102
{ACAD_REACTORS
330
D73B
330
D7E1
330
D87F
330
D918
330
DA46
330
DB35
330
DBF7
330
DD10
102
}
330
A
100
AcDbSymbolTableRecord
100
AcDbDimStyleTableRecord
  2
AM_JIS$0
 70
     0
  3

  4
"
  5
OPEN30
  6

  7

 40
1.0
 41
2.5
 42
0.0
 43
10.0
 44
1.0
 45
0.0
 46
0.0
 47
0.1
 48
0.1000000001
140
3.799999999999999
141
0.0
142
0.0
143
0.0393701
144
1.0
145
0.0
146
0.71
147
1.5
 71
     0
 72
     0
 73
     0
 74
     0
 75
     0
 76
     0
 77
     3
 78
     1
170
     0
171
     2
172
     1
173
     0
174
     0
175
     0
176
     3
177
     3
178
     2
270
     2
271
     2
272
     2
273
     2
274
     2
340
11
275
     1
280
     0
281
     0
282
     0
283
     0
284
     8
285
     0
286
     0
287
     0
288
     0
  0
ENDTAB
  0
TABLE
  2
BLOCK_RECORD
  5
1
330
0
100
AcDbSymbolTable
 70
    13
  0
BLOCK_RECORD
  5
1F
102
{ACAD_XDICTIONARY
360
74
102
}
330
1
100
AcDbSymbolTableRecord
100
AcDbBlockTableRecord
  2
*MODEL_SPACE
  0
BLOCK_RECORD
  5
101
102
{ACAD_XDICTIONARY
360
DFAC
102
}
330
1
100
AcDbSymbolTableRecord
100
AcDbBlockTableRecord
  2
*PAPER_SPACE
  0
BLOCK_RECORD
  5
59
330
1
100
AcDbSymbolTableRecord
100
AcDbBlockTableRecord
  2
_OPEN30
  0
BLOCK_RECORD
  5
64
330
1
100
AcDbSymbolTableRecord
100
AcDbBlockTableRecord
  2
GENAXEH
  0
BLOCK_RECORD
  5
D73C
330
1
100
AcDbSymbolTableRecord
100
AcDbBlockTableRecord
  2
*D5
  0
BLOCK_RECORD
  5
D7E2
330
1
100
AcDbSymbolTableRecord
100
AcDbBlockTableRecord
  2
*D6
  0
BLOCK_RECORD
  5
D880
330
1
100
AcDbSymbolTableRecord
100
AcDbBlockTableRecord
  2
*D7
  0
BLOCK_RECORD
  5
D919
330
1
100
AcDbSymbolTableRecord
100
AcDbBlockTableRecord
  2
*D8
  0
BLOCK_RECORD
  5
DA47
330
1
100
AcDbSymbolTableRecord
100
AcDbBlockTableRecord
  2
*D9
  0
BLOCK_RECORD
  5
DB36
330
1
100
AcDbSymbolTableRecord
100
AcDbBlockTableRecord
  2
*D10
  0
BLOCK_RECORD
  5
DBF8
330
1
100
AcDbSymbolTableRecord
100
AcDbBlockTableRecord
  2
*D11
  0
BLOCK_RECORD
  5
DD11
330
1
100
AcDbSymbolTableRecord
100
AcDbBlockTableRecord
  2
*D12
  0
ENDTAB
  0
ENDSEC
  0
SECTION
  2
BLOCKS
  0
BLOCK
  5
20
330
1F
100
AcDbEntity
  8
0
100
AcDbBlockBegin
  2
*MODEL_SPACE
 70
     0
 10
0.0
 20
0.0
 30
0.0
  3
*MODEL_SPACE
  1

  0
ENDBLK
  5
21
330
1F
100
AcDbEntity
  8
0
100
AcDbBlockEnd
  0
BLOCK
  5
103
330
101
100
AcDbEntity
 67
     1
  8
0
100
AcDbBlockBegin
  2
*PAPER_SPACE
 70
     0
 10
0.0
 20
0.0
 30
0.0
  3
*PAPER_SPACE
  1

  0
ENDBLK
  5
104
330
101
100
AcDbEntity
 67
     1
  8
0
100
AcDbBlockEnd
  0
BLOCK
  5
5D
330
59
100
AcDbEntity
  8
0
100
AcDbBlockBegin
  2
_OPEN30
 70
     0
 10
0.0
 20
0.0
 30
0.0
  3
_OPEN30
  1

  0
LINE
  5
5A
330
59
100
AcDbEntity
  8
0
 62
     0
100
AcDbLine
 10
-1.0
 20
0.26794919
 30
0.0
 11
0.0
 21
0.0
 31
0.0
  0
LINE
  5
5B
330
59
100
AcDbEntity
  8
0
 62
     0
100
AcDbLine
 10
0.0
 20
0.0
 30
0.0
 11
-1.0
 21
-0.26794919
 31
0.0
  0
LINE
  5
5C
330
59
100
AcDbEntity
  8
0
 62
     0
100
AcDbLine
 10
0.0
 20
0.0
 30
0.0
 11
-1.0
 21
0.0
 31
0.0
  0
ENDBLK
  5
5E
330
59
100
AcDbEntity
  8
0
100
AcDbBlockEnd
  0
BLOCK
  5
66
330
64
100
AcDbEntity
  8
0
100
AcDbBlockBegin
  2
GENAXEH
 70
     0
 10
0.0
 20
0.0
 30
0.0
  3
GENAXEH
  1

  0
LINE
  5
65
330
64
100
AcDbEntity
  8
0
100
AcDbLine
 10
-1.0
 20
0.0
 30
0.0
 11
1.0
 21
0.0
 31
0.0
  0
ENDBLK
  5
67
330
64
100
AcDbEntity
  8
0
100
AcDbBlockEnd
  0
BLOCK
  5
D746
330
D73C
100
AcDbEntity
  8
0
100
AcDbBlockBegin
  2
*D5
 70
     1
 10
0.0
 20
0.0
 30
0.0
  3
*D5
  1

  0
LINE
  5
DFAE
330
D73C
100
AcDbEntity
  8
AM_5
100
AcDbLine
 10
-6.00000000000037
 20
25.50000000000014
 30
0.0
 11
-6.000000000000371
 21
32.50000000000015
 31
0.0
  0
LINE
  5
DFAF
330
D73C
100
AcDbEntity
  8
AM_5
100
AcDbLine
 10
-0.0000000000003775
 20
25.50000000000015
 30
0.0
 11
-0.0000000000003788
 21
32.50000000000015
 31
0.0
  0
LINE
  5
DFB0
330
D73C
100
AcDbEntity
  8
AM_5
100
AcDbLine
 10
-4.750000000000372
 20
32.00000000000015
 30
0.0
 11
-1.250000000000378
 21
32.00000000000015
 31
0.0
  0
INSERT
  5
DFB1
330
D73C
100
AcDbEntity
  8
AM_5
100
AcDbBlockReference
  2
_OPEN30
 10
-6.000000000000372
 20
32.00000000000015
 30
0.0
 41
1.25
 42
1.25
 43
1.25
 50
180.0
  0
INSERT
  5
DFB2
330
D73C
100
AcDbEntity
  8
AM_5
100
AcDbBlockReference
  2
_OPEN30
 10
-0.0000000000003787
 20
32.00000000000015
 30
0.0
 41
1.25
 42
1.25
 43
1.25
  0
MTEXT
  5
DFB3
330
D73C
100
AcDbEntity
  8
AM_5
 62
     2
100
AcDbMText
 10
-3.000000000000376
 20
33.55000000000015
 30
0.0
 40
1.6
 41
0.0
 71
     5
 72
     1
  1
6
  7
ASAMI
  0
POINT
  5
DFB4
330
D73C
100
AcDbEntity
  8
DEFPOINTS
 62
     0
100
AcDbPoint
 10
-6.000000000000319
 20
25.00000000000015
 30
0.0
  0
POINT
  5
DFB5
330
D73C
100
AcDbEntity
  8
DEFPOINTS
 62
     0
100
AcDbPoint
 10
-0.0000000000003268
 20
25.00000000000015
 30
0.0
  0
POINT
  5
DFB6
330
D73C
100
AcDbEntity
  8
DEFPOINTS
 62
     0
100
AcDbPoint
 10
-0.000000000000314
 20
32.00000000000015
 30
0.0
  0
ENDBLK
  5
D747
330
D73C
100
AcDbEntity
  8
0
100
AcDbBlockEnd
  0
BLOCK
  5
D7EC
330
D7E2
100
AcDbEntity
  8
0
100
AcDbBlockBegin
  2
*D6
 70
     1
 10
0.0
 20
0.0
 30
0.0
  3
*D6
  1

  0
LINE
  5
DFB7
330
D7E2
100
AcDbEntity
  8
AM_5
100
AcDbLine
 10
0.4999999999996248
 20
25.00000000000015
 30
0.0
 11
12.49999999999968
 21
25.00000000000018
 31
0.0
  0
LINE
  5
DFB8
330
D7E2
100
AcDbEntity
  8
AM_5
100
AcDbLine
 10
0.4999999999998282
 20
-24.99999999999985
 30
0.0
 11
12.49999999999978
 21
-24.99999999999983
 31
0.0
  0
LINE
  5
DFB9
330
D7E2
100
AcDbEntity
  8
AM_5
100
AcDbLine
 10
11.99999999999968
 20
23.75000000000018
 30
0.0
 11
11.99999999999978
 21
-23.74999999999983
 31
0.0
  0
INSERT
  5
DFBA
330
D7E2
100
AcDbEntity
  8
AM_5
100
AcDbBlockReference
  2
_OPEN30
 10
11.99999999999968
 20
25.00000000000018
 30
0.0
 41
1.25
 42
1.25
 43
1.25
 50
90.0000000000001
  0
INSERT
  5
DFBB
330
D7E2
100
AcDbEntity
  8
AM_5
100
AcDbBlockReference
  2
_OPEN30
 10
11.99999999999978
 20
-24.99999999999983
 30
0.0
 41
1.25
 42
1.25
 43
1.25
 50
270.0000000000001
  0
MTEXT
  5
DFBC
330
D7E2
100
AcDbEntity
  8
AM_5
 62
     2
100
AcDbMText
 10
10.44999999999973
 20
0.0000000000001698
 30
0.0
 40
1.6
 41
0.0
 71
     5
 72
     1
  1
%%c50
  7
ASAMI
 11
-0.000000000000002
 21
1.0
 31
0.0
  0
POINT
  5
DFBD
330
D7E2
100
AcDbEntity
  8
DEFPOINTS
 62
     0
100
AcDbPoint
 10
-0.0000000000003197
 20
25.00000000000015
 30
0.0
  0
POINT
  5
DFBE
330
D7E2
100
AcDbEntity
  8
DEFPOINTS
 62
     0
100
AcDbPoint
 10
-0.0000000000002274
 20
-24.99999999999985
 30
0.0
  0
POINT
  5
DFBF
330
D7E2
100
AcDbEntity
  8
DEFPOINTS
 62
     0
100
AcDbPoint
 10
11.99999999999973
 20
-24.99999999999986
 30
0.0
  0
ENDBLK
  5
D7ED
330
D7E2
100
AcDbEntity
  8
0
100
AcDbBlockEnd
  0
BLOCK
  5
D88A
330
D880
100
AcDbEntity
  8
0
100
AcDbBlockBegin
  2
*D7
 70
     1
 10
0.0
 20
0.0
 30
0.0
  3
*D7
  1

  0
LINE
  5
DFC0
330
D880
100
AcDbEntity
  8
AM_5
100
AcDbLine
 10
-14.49999788418003
 20
5.500000000000095
 30
0.0
 11
7.499999999999721
 21
5.500000000000137
 31
0.0
  0
LINE
  5
DFC1
330
D880
100
AcDbEntity
  8
AM_5
100
AcDbLine
 10
-14.49999788417998
 20
-5.499999999999904
 30
0.0
 11
7.499999999999742
 21
-5.499999999999862
 31
0.0
  0
LINE
  5
DFC2
330
D880
100
AcDbEntity
  8
AM_5
100
AcDbLine
 10
6.999999999999723
 20
4.250000000000136
 30
0.0
 11
6.999999999999741
 21
-4.249999999999863
 31
0.0
  0
INSERT
  5
DFC3
330
D880
100
AcDbEntity
  8
AM_5
100
AcDbBlockReference
  2
_OPEN30
 10
6.999999999999722
 20
5.500000000000136
 30
0.0
 41
1.25
 42
1.25
 43
1.25
 50
90.0000000000001
  0
INSERT
  5
DFC4
330
D880
100
AcDbEntity
  8
AM_5
100
AcDbBlockReference
  2
_OPEN30
 10
6.999999999999743
 20
-5.499999999999863
 30
0.0
 41
1.25
 42
1.25
 43
1.25
 50
270.0000000000001
  0
MTEXT
  5
DFC5
330
D880
100
AcDbEntity
  8
AM_5
 62
     2
100
AcDbMText
 10
5.449999999999732
 20
0.0000000000001333
 30
0.0
 40
1.6
 41
0.0
 71
     5
 72
     1
  1
%%c11
  7
ASAMI
 11
-0.000000000000002
 21
1.0
 31
0.0
  0
POINT
  5
DFC6
330
D880
100
AcDbEntity
  8
DEFPOINTS
 62
     0
100
AcDbPoint
 10
-14.99999788418001
 20
5.500000000000127
 30
0.0
  0
POINT
  5
DFC7
330
D880
100
AcDbEntity
  8
DEFPOINTS
 62
     0
100
AcDbPoint
 10
-14.99999788417999
 20
-5.499999999999872
 30
0.0
  0
POINT
  5
DFC8
330
D880
100
AcDbEntity
  8
DEFPOINTS
 62
     0
100
AcDbPoint
 10
6.999999999999731
 20
-5.499999999999879
 30
0.0
  0
ENDBLK
  5
D88B
330
D880
100
AcDbEntity
  8
0
100
AcDbBlockEnd
  0
BLOCK
  5
D923
330
D919
100
AcDbEntity
  8
0
100
AcDbBlockBegin
  2
*D8
 70
     1
 10
0.0
 20
0.0
 30
0.0
  3
*D8
  1

  0
LINE
  5
DFC9
330
D919
100
AcDbEntity
  8
AM_5
100
AcDbLine
 10
-39.49999788418003
 20
5.199981689449981
 30
0.0
 11
-46.49999788418003
 21
5.199981689449968
 31
0.0
  0
LINE
  5
DFCA
330
D919
100
AcDbEntity
  8
AM_5
100
AcDbLine
 10
-39.49999788417999
 20
-5.199981689449987
 30
0.0
 11
-46.49999788418001
 21
-5.19998168945
 31
0.0
  0
LINE
  5
DFCB
330
D919
100
AcDbEntity
  8
AM_5
100
AcDbLine
 10
-45.99999788418002
 20
3.949981689449968
 30
0.0
 11
-45.99999788418001
 21
-3.94998168945
 31
0.0
  0
INSERT
  5
DFCC
330
D919
100
AcDbEntity
  8
AM_5
100
AcDbBlockReference
  2
_OPEN30
 10
-45.99999788418002
 20
5.199981689449969
 30
0.0
 41
1.25
 42
1.25
 43
1.25
 50
90.0000000000001
  0
INSERT
  5
DFCD
330
D919
100
AcDbEntity
  8
AM_5
100
AcDbBlockReference
  2
_OPEN30
 10
-45.99999788418001
 20
-5.199981689449999
 30
0.0
 41
1.25
 42
1.25
 43
1.25
 50
270.0000000000001
  0
MTEXT
  5
DFCE
330
D919
100
AcDbEntity
  8
AM_5
 62
     2
100
AcDbMText
 10
-47.54999788418001
 20
-0.0000000000000167
 30
0.0
 40
1.6
 41
0.0
 71
     5
 72
     1
  1
10.4
  7
ASAMI
 11
-0.000000000000002
 21
1.0
 31
0.0
  0
POINT
  5
DFCF
330
D919
100
AcDbEntity
  8
DEFPOINTS
 62
     0
100
AcDbPoint
 10
-38.99999788418002
 20
5.199981689450069
 30
0.0
  0
POINT
  5
DFD0
330
D919
100
AcDbEntity
  8
DEFPOINTS
 62
     0
100
AcDbPoint
 10
-38.99999788418
 20
-5.199981689449899
 30
0.0
  0
POINT
  5
DFD1
330
D919
100
AcDbEntity
  8
DEFPOINTS
 62
     0
100
AcDbPoint
 10
-45.99999788418002
 20
-5.199981689449898
 30
0.0
  0
ENDBLK
  5
D924
330
D919
100
AcDbEntity
  8
0
100
AcDbBlockEnd
  0
BLOCK
  5
DA51
330
DA47
100
AcDbEntity
  8
0
100
AcDbBlockBegin
  2
*D9
 70
     1
 10
0.0
 20
0.0
 30
0.0
  3
*D9
  1

  0
LINE
  5
DFD2
330
DA47
100
AcDbEntity
  8
AM_5
100
AcDbLine
 10
-39.99999788417994
 20
-18.50000000000001
 30
0.0
 11
-39.99999788417992
 21
-31.98760666107507
 31
0.0
  0
LINE
  5
DFD3
330
DA47
100
AcDbEntity
  8
AM_5
100
AcDbLine
 10
-33.70001009120998
 20
-5.700012207029996
 30
0.0
 11
-33.70001009120993
 21
-31.98760666107506
 31
0.0
  0
LINE
  5
DFD4
330
DA47
100
AcDbEntity
  8
AM_5
100
AcDbLine
 10
-38.74999788417992
 20
-31.48760666107507
 30
0.0
 11
-34.95001009120993
 21
-31.48760666107506
 31
0.0
  0
INSERT
  5
DFD5
330
DA47
100
AcDbEntity
  8
AM_5
100
AcDbBlockReference
  2
_OPEN30
 10
-39.99999788417992
 20
-31.48760666107507
 30
0.0
 41
1.25
 42
1.25
 43
1.25
 50
180.0000000000001
  0
INSERT
  5
DFD6
330
DA47
100
AcDbEntity
  8
AM_5
100
AcDbBlockReference
  2
_OPEN30
 10
-33.70001009120993
 20
-31.48760666107506
 30
0.0
 41
1.25
 42
1.25
 43
1.25
 50
0.0000000000001018
  0
MTEXT
  5
DFD7
330
DA47
100
AcDbEntity
  8
AM_5
 62
     2
100
AcDbMText
 10
-36.85000398769492
 20
-29.93760666107506
 30
0.0
 40
1.6
 41
0.0
 71
     5
 72
     1
  1
6.3
  7
ASAMI
  0
POINT
  5
DFD8
330
DA47
100
AcDbEntity
  8
DEFPOINTS
 62
     0
100
AcDbPoint
 10
-39.99999788417998
 20
-17.99999999999992
 30
0.0
  0
POINT
  5
DFD9
330
DA47
100
AcDbEntity
  8
DEFPOINTS
 62
     0
100
AcDbPoint
 10
-33.70001009120999
 20
-5.200012207029928
 30
0.0
  0
POINT
  5
DFDA
330
DA47
100
AcDbEntity
  8
DEFPOINTS
 62
     0
100
AcDbPoint
 10
-33.70001009120999
 20
-31.48760666107499
 30
0.0
  0
ENDBLK
  5
DA52
330
DA47
100
AcDbEntity
  8
0
100
AcDbBlockEnd
  0
BLOCK
  5
DB40
330
DB36
100
AcDbEntity
  8
0
100
AcDbBlockBegin
  2
*D10
 70
     1
 10
0.0
 20
0.0
 30
0.0
  3
*D10
  1

  0
LINE
  5
DFDB
330
DB36
100
AcDbEntity
  8
AM_5
100
AcDbLine
 10
-39.99999788417994
 20
-18.49999982515438
 30
0.0
 11
-39.9999978841799
 21
-36.73033813874276
 31
0.0
  0
LINE
  5
DFDC
330
DB36
100
AcDbEntity
  8
AM_5
100
AcDbLine
 10
-19.99999788417996
 20
-11.99999999999994
 30
0.0
 11
-19.99999788417991
 21
-36.73033813874272
 31
0.0
  0
LINE
  5
DFDD
330
DB36
100
AcDbEntity
  8
AM_5
100
AcDbLine
 10
-38.7499978841799
 20
-36.23033813874275
 30
0.0
 11
-21.24999788417991
 21
-36.23033813874272
 31
0.0
  0
INSERT
  5
DFDE
330
DB36
100
AcDbEntity
  8
AM_5
100
AcDbBlockReference
  2
_OPEN30
 10
-39.9999978841799
 20
-36.23033813874275
 30
0.0
 41
1.25
 42
1.25
 43
1.25
 50
180.0000000000001
  0
INSERT
  5
DFDF
330
DB36
100
AcDbEntity
  8
AM_5
100
AcDbBlockReference
  2
_OPEN30
 10
-19.99999788417991
 20
-36.23033813874272
 30
0.0
 41
1.25
 42
1.25
 43
1.25
 50
0.0000000000001018
  0
MTEXT
  5
DFE0
330
DB36
100
AcDbEntity
  8
AM_5
 62
     2
100
AcDbMText
 10
-29.99999788417991
 20
-34.68033813874274
 30
0.0
 40
1.6
 41
0.0
 71
     5
 72
     1
  1
20
  7
ASAMI
  0
POINT
  5
DFE1
330
DB36
100
AcDbEntity
  8
DEFPOINTS
 62
     0
100
AcDbPoint
 10
-39.99999788417997
 20
-17.9999998251543
 30
0.0
  0
POINT
  5
DFE2
330
DB36
100
AcDbEntity
  8
DEFPOINTS
 62
     0
100
AcDbPoint
 10
-19.99999788417999
 20
-11.4999999999999
 30
0.0
  0
POINT
  5
DFE3
330
DB36
100
AcDbEntity
  8
DEFPOINTS
 62
     0
100
AcDbPoint
 10
-19.99999788417999
 20
-36.23033813874268
 30
0.0
  0
ENDBLK
  5
DB41
330
DB36
100
AcDbEntity
  8
0
100
AcDbBlockEnd
  0
BLOCK
  5
DC02
330
DBF8
100
AcDbEntity
  8
0
100
AcDbBlockBegin
  2
*D11
 70
     1
 10
0.0
 20
0.0
 30
0.0
  3
*D11
  1

  0
LINE
  5
DFE4
330
DBF8
100
AcDbEntity
  8
AM_5
100
AcDbLine
 10
-39.99999788417994
 20
-18.49999982515438
 30
0.0
 11
-39.99999788417989
 21
-41.73655458940152
 31
0.0
  0
LINE
  5
DFE5
330
DBF8
100
AcDbEntity
  8
AM_5
100
AcDbLine
 10
-0.0000000000001759
 20
-25.49999999999986
 30
0.0
 11
-0.000000000000144
 21
-41.73655458940145
 31
0.0
  0
LINE
  5
DFE6
330
DBF8
100
AcDbEntity
  8
AM_5
100
AcDbLine
 10
-38.74999788417989
 20
-41.23655458940152
 30
0.0
 11
-1.250000000000144
 21
-41.23655458940144
 31
0.0
  0
INSERT
  5
DFE7
330
DBF8
100
AcDbEntity
  8
AM_5
100
AcDbBlockReference
  2
_OPEN30
 10
-39.99999788417989
 20
-41.23655458940152
 30
0.0
 41
1.25
 42
1.25
 43
1.25
 50
180.0000000000001
  0
INSERT
  5
DFE8
330
DBF8
100
AcDbEntity
  8
AM_5
100
AcDbBlockReference
  2
_OPEN30
 10
-0.000000000000145
 20
-41.23655458940144
 30
0.0
 41
1.25
 42
1.25
 43
1.25
 50
0.0000000000001018
  0
MTEXT
  5
DFE9
330
DBF8
100
AcDbEntity
  8
AM_5
 62
     2
100
AcDbMText
 10
-19.99999894209001
 20
-39.68655458940149
 30
0.0
 40
1.6
 41
0.0
 71
     5
 72
     1
  1
40
  7
ASAMI
  0
POINT
  5
DFEA
330
DBF8
100
AcDbEntity
  8
DEFPOINTS
 62
     0
100
AcDbPoint
 10
-39.99999788417997
 20
-17.9999998251543
 30
0.0
  0
POINT
  5
DFEB
330
DBF8
100
AcDbEntity
  8
DEFPOINTS
 62
     0
100
AcDbPoint
 10
-0.0000000000002274
 20
-24.99999999999985
 30
0.0
  0
POINT
  5
DFEC
330
DBF8
100
AcDbEntity
  8
DEFPOINTS
 62
     0
100
AcDbPoint
 10
-0.0000000000002284
 20
-41.23655458940144
 30
0.0
  0
ENDBLK
  5
DC03
330
DBF8
100
AcDbEntity
  8
0
100
AcDbBlockEnd
  0
BLOCK
  5
DD1B
330
DD11
100
AcDbEntity
  8
0
100
AcDbBlockBegin
  2
*D12
 70
     1
 10
0.0
 20
0.0
 30
0.0
  3
*D12
  1

  0
LINE
  5
DFED
330
DD11
100
AcDbEntity
  8
AM_5
100
AcDbLine
 10
-39.49999788418005
 20
10.99999999999998
 30
0.0
 11
-51.39051260813511
 21
10.99999999999995
 31
0.0
  0
LINE
  5
DFEE
330
DD11
100
AcDbEntity
  8
AM_5
100
AcDbLine
 10
-39.49999788417997
 20
-10.99999999999998
 30
0.0
 11
-51.39051260813507
 21
-11.00000000000001
 31
0.0
  0
LINE
  5
DFEF
330
DD11
100
AcDbEntity
  8
AM_5
100
AcDbLine
 10
-50.89051260813511
 20
9.74999999999996
 30
0.0
 11
-50.89051260813507
 21
-9.75000000000001
 31
0.0
  0
INSERT
  5
DFF0
330
DD11
100
AcDbEntity
  8
AM_5
100
AcDbBlockReference
  2
_OPEN30
 10
-50.89051260813511
 20
10.99999999999996
 30
0.0
 41
1.25
 42
1.25
 43
1.25
 50
90.0000000000001
  0
INSERT
  5
DFF1
330
DD11
100
AcDbEntity
  8
AM_5
100
AcDbBlockReference
  2
_OPEN30
 10
-50.89051260813507
 20
-11.00000000000001
 30
0.0
 41
1.25
 42
1.25
 43
1.25
 50
270.0000000000001
  0
MTEXT
  5
DFF2
330
DD11
100
AcDbEntity
  8
AM_5
 62
     2
100
AcDbMText
 10
-52.44051260813509
 20
-0.0000000000000263
 30
0.0
 40
1.6
 41
0.0
 71
     5
 72
     1
  1
%%c22
  7
ASAMI
 11
-0.000000000000002
 21
1.0
 31
0.0
  0
POINT
  5
DFF3
330
DD11
100
AcDbEntity
  8
DEFPOINTS
 62
     0
100
AcDbPoint
 10
-38.99999788418003
 20
11.00000000000007
 30
0.0
  0
POINT
  5
DFF4
330
DD11
100
AcDbEntity
  8
DEFPOINTS
 62
     0
100
AcDbPoint
 10
-38.99999788417999
 20
-10.9999999999999
 30
0.0
  0
POINT
  5
DFF5
330
DD11
100
AcDbEntity
  8
DEFPOINTS
 62
     0
100
AcDbPoint
 10
-50.89051260813509
 20
-10.99999999999989
 30
0.0
  0
ENDBLK
  5
DD1C
330
DD11
100
AcDbEntity
  8
0
100
AcDbBlockEnd
  0
ENDSEC
  0
SECTION
  2
ENTITIES
  0
TEXT
  5
388D
330
1F
100
AcDbEntity
  8
AM_6
100
AcDbText
 10
-32.6416816283868
 20
-52.30409204683756
 30
0.0
 40
2.5
  1
WRC12050RS
 50
359.9999999999998
 51
359.9999999999998
 72
     4
 11
-20.91549115219633
 21
-51.05409204683757
 31
0.0
100
AcDbText
  0
ELLIPSE
  5
D228
330
1F
100
AcDbEntity
  8
AM_0
100
AcDbEllipse
 10
-4.90951326504004
 20
17.21795654297015
 30
0.0
 11
2.265502854990025
 21
-3.390564063039998
 31
0.0
210
0.0
220
0.0
230
1.0
 40
0.9809227574207
 41
6.090493668323077
 42
6.475874458170753
  0
ELLIPSE
  5
D229
330
1F
100
AcDbEntity
  8
AM_0
100
AcDbEllipse
 10
-5.61706331387004
 20
16.92486572265012
 30
0.0
 11
0.7955324433800191
 21
-3.999450779629992
 31
0.0
210
0.0
220
0.0
230
1.0
 40
0.9809169396802001
 41
6.090492720434248
 42
6.475875315026008
  0
ELLIPSE
  5
D22A
330
1F
100
AcDbEntity
  8
AM_0
100
AcDbEllipse
 10
-6.382932454490038
 20
16.92486572265012
 30
0.0
 11
-0.7955323162499816
 21
-3.999450804909998
 31
0.0
210
0.0
220
0.0
230
1.0
 40
0.9809169396802001
 41
6.090492492884366
 42
6.475875057136049
  0
ELLIPSE
  5
D22B
330
1F
100
AcDbEntity
  8
AM_0
100
AcDbEllipse
 10
-7.09051302090004
 20
17.21795654297013
 30
0.0
 11
-2.265503151410023
 21
-3.39056386498
 31
0.0
210
0.0
220
0.0
230
1.0
 40
0.9809268501454997
 41
6.090494422197907
 42
6.475873916683512
  0
ELLIPSE
  5
D22C
330
1F
100
AcDbEntity
  8
AM_0
100
AcDbEllipse
 10
-7.632047444730041
 20
17.75949096679012
 30
0.0
 11
-3.390563891989978
 21
-2.265503110970008
 31
0.0
210
0.0
220
0.0
230
1.0
 40
0.9809206525908001
 41
6.090492991951382
 42
6.47587486147858
  0
ELLIPSE
  5
D22D
330
1F
100
AcDbEntity
  8
AM_0
100
AcDbEllipse
 10
-7.92513826504004
 20
18.46707153320012
 30
0.0
 11
-3.999450814400006
 21
-0.7955322685600174
 31
0.0
210
0.0
220
0.0
230
1.0
 40
0.9809243065736
 41
6.090494465766228
 42
6.475874206847303
  0
ELLIPSE
  5
D22E
330
1F
100
AcDbEntity
  8
AM_0
100
AcDbEllipse
 10
-7.925138265040054
 20
19.23292541504015
 30
0.0
 11
-3.999450775380013
 21
0.7955471298600047
 31
0.0
210
0.0
220
0.0
230
1.0
 40
0.9809198764373999
 41
6.090493541047422
 42
6.475874737139128
  0
ELLIPSE
  5
D22F
330
1F
100
AcDbEntity
  8
AM_0
100
AcDbEllipse
 10
-7.632047444730055
 20
19.94049072265012
 30
0.0
 11
-3.390563891989986
 21
2.265503110979999
 31
0.0
210
0.0
220
0.0
230
0.9999999999999998
 40
0.9809206525908001
 41
6.090493022291342
 42
6.475874831138722
  0
ELLIPSE
  5
D230
330
1F
100
AcDbEntity
  8
AM_0
100
AcDbEllipse
 10
-7.090513020900054
 20
20.48205566406012
 30
0.0
 11
-2.265503151410037
 21
3.390563864980006
 31
0.0
210
0.0
220
0.0
230
1.0
 40
0.9809206525907999
 41
6.090493007121362
 42
6.47587487664856
  0
ELLIPSE
  5
D231
330
1F
100
AcDbEntity
  8
AM_0
100
AcDbEllipse
 10
-6.382932454490052
 20
20.77513122558015
 30
0.0
 11
-0.7955322000600029
 21
3.999435270310014
 31
0.0
210
0.0
220
0.0
230
1.0
 40
0.9809271585751
 41
6.090494299258295
 42
6.475874221662027
  0
ELLIPSE
  5
D232
330
1F
100
AcDbEntity
  8
AM_0
100
AcDbEllipse
 10
-5.617063313870055
 20
20.77513122558015
 30
0.0
 11
0.7955323271800047
 21
3.999435245020011
 31
0.0
210
0.0
220
0.0
230
1.0
 40
0.9809271585750998
 41
6.090494193069396
 42
6.475874145812797
  0
ELLIPSE
  5
D233
330
1F
100
AcDbEntity
  8
AM_0
100
AcDbEllipse
 10
-4.909513265040054
 20
20.48205566406015
 30
0.0
 11
2.265502854990011
 21
3.390564063039993
 31
0.0
210
0.0
220
0.0
230
1.0
 40
0.9809165013985001
 41
6.090492242033024
 42
6.475875505196137
  0
ELLIPSE
  5
D234
330
1F
100
AcDbEntity
  8
AM_0
100
AcDbEllipse
 10
-4.367948323630052
 20
19.94049072265015
 30
0.0
 11
3.390563964000018
 21
2.265503003200002
 31
0.0
210
0.0
220
0.0
230
1.0
 40
0.9809268501454999
 41
6.090494482877368
 42
6.475873916683512
  0
ELLIPSE
  5
D235
330
1F
100
AcDbEntity
  8
AM_0
100
AcDbEllipse
 10
-4.074857503320053
 20
19.23292541504015
 30
0.0
 11
3.999435627039984
 21
0.7955475158800112
 31
0.0
210
0.0
220
0.0
230
0.9999999999999998
 40
0.9809227306510999
 41
6.090493223266362
 42
6.47587459982933
  0
ELLIPSE
  5
D236
330
1F
100
AcDbEntity
  8
AM_0
100
AcDbEllipse
 10
-4.074857503320039
 20
18.46707153320015
 30
0.0
 11
3.999435269520007
 21
-0.7955322040199838
 31
0.0
210
0.0
220
0.0
230
1.0
 40
0.9809213118124
 41
6.090492739018928
 42
6.475874917203761
  0
ELLIPSE
  5
D237
330
1F
100
AcDbEntity
  8
AM_0
100
AcDbEllipse
 10
-4.367948323630038
 20
17.75949096679015
 30
0.0
 11
3.390563964000028
 21
-2.265503003199988
 31
0.0
210
0.0
220
0.0
230
1.0
 40
0.9809268501454999
 41
6.090494407028118
 42
6.475873916683512
  0
LINE
  5
D239
330
1F
100
AcDbEntity
  8
AM_0
100
AcDbLine
 10
-14.99999788418002
 20
9.000000000000127
 30
0.0
 11
-5.320920735740024
 21
9.000000000000156
 31
0.0
  0
LINE
  5
D23A
330
1F
100
AcDbEntity
  8
AM_0
100
AcDbLine
 10
-15.75735262051005
 20
23.00000000000012
 30
0.0
 11
-10.28832796231005
 21
23.00000000000012
 31
0.0
  0
LINE
  5
D23B
330
1F
100
AcDbEntity
  8
AM_7
100
AcDbLine
 10
-43.95214632168001
 20
0.0000000000000711
 30
0.0
 11
2.575166910739987
 21
0.0000000000001563
 31
0.0
  0
LINE
  5
D24B
330
1F
100
AcDbEntity
  8
AM_0
100
AcDbLine
 10
-39.99999788418002
 20
6.20001220703007
 30
0.0
 11
-39.99999788418005
 21
18.00000000000007
 31
0.0
  0
LINE
  5
D24C
330
1F
100
AcDbEntity
  8
AM_0
100
AcDbLine
 10
-38.99999788418003
 20
11.00000000000007
 30
0.0
 11
-22.99999788418003
 21
11.00000000000012
 31
0.0
  0
LINE
  5
D24D
330
1F
100
AcDbEntity
  8
AM_0
100
AcDbLine
 10
-33.70001009121001
 20
0.0000000000000995
 30
0.0
 11
-33.70001009121001
 21
5.200012207030098
 31
0.0
  0
LINE
  5
D251
330
1F
100
AcDbEntity
  8
AM_0
100
AcDbLine
 10
-38.99999788418002
 20
5.20001220703007
 30
0.0
 11
-33.70001009121001
 21
5.200012207030098
 31
0.0
  0
LINE
  5
D252
330
1F
100
AcDbEntity
  8
AM_0
100
AcDbLine
 10
-38.99999788418002
 20
5.20001220703007
 30
0.0
 11
-38.99999788418003
 21
11.00000000000007
 31
0.0
  0
LINE
  5
D253
330
1F
100
AcDbEntity
  8
AM_0
100
AcDbLine
 10
-38.99999788418002
 20
5.199981689450069
 30
0.0
 11
-39.99999788418002
 21
6.199981689450069
 31
0.0
  0
LINE
  5
D254
330
1F
100
AcDbEntity
  8
AM_0
100
AcDbLine
 10
-38.99999788418003
 20
11.00000000000007
 30
0.0
 11
-39.99999788418003
 21
12.00000000000007
 31
0.0
  0
LINE
  5
D255
330
1F
100
AcDbEntity
  8
AM_0
100
AcDbLine
 10
-19.99999788418001
 20
0.0000000000001279
 30
0.0
 11
-19.99999788418003
 21
11.50000000000012
 31
0.0
  0
LINE
  5
D256
330
1F
100
AcDbEntity
  8
AM_0
100
AcDbLine
 10
-14.99999788418001
 20
0.0000000000001279
 30
0.0
 11
-14.99999788418002
 21
9.000000000000127
 31
0.0
  0
LINE
  5
D257
330
1F
100
AcDbEntity
  8
AM_0
100
AcDbLine
 10
-22.99999788418001
 20
0.0000000000001137
 30
0.0
 11
-22.99999788418003
 21
11.50000000000012
 31
0.0
  0
LINE
  5
D25A
330
1F
100
AcDbEntity
  8
AM_0
100
AcDbLine
 10
-22.99999788418003
 20
11.50000000000012
 30
0.0
 11
-19.99999788418003
 21
11.50000000000012
 31
0.0
  0
LINE
  5
D25B
330
1F
100
AcDbEntity
  8
AM_0
100
AcDbLine
 10
-19.99999788418001
 20
5.500000000000127
 30
0.0
 11
-14.99999788418001
 21
5.500000000000127
 31
0.0
  0
LINE
  5
D25C
330
1F
100
AcDbEntity
  8
AM_0
100
AcDbLine
 10
-37.99999788418004
 20
20.00000000000007
 30
0.0
 11
-21.24264314785004
 21
20.00000000000012
 31
0.0
  0
ARC
  5
D25D
330
1F
100
AcDbEntity
  8
AM_0
100
AcDbCircle
 10
-37.99999788418004
 20
18.00000000000007
 30
0.0
 40
2.0
100
AcDbArc
 50
90.00000250447845
 51
180.0000050089577
  0
ARC
  5
D25E
330
1F
100
AcDbEntity
  8
AM_0
100
AcDbCircle
 10
-15.75735262051004
 20
20.00000000000012
 30
0.0
 40
3.0
100
AcDbArc
 50
90.00000250447845
 51
135.0000140020029
  0
LINE
  5
D25F
330
1F
100
AcDbEntity
  8
AM_0
100
AcDbLine
 10
-19.12133577481005
 20
20.87869262695012
 30
0.0
 11
-17.87869051113005
 21
22.12133789062012
 31
0.0
  0
ARC
  5
D260
330
1F
100
AcDbEntity
  8
AM_0
100
AcDbCircle
 10
-21.24264314785005
 20
23.00000000000012
 30
0.0
 40
3.0
100
AcDbArc
 50
269.9999974955215
 51
315.0000124081377
  0
LINE
  5
D266
330
1F
100
AcDbEntity
  8
AM_0
100
AcDbLine
 10
-1.919217854880038
 20
14.44549560547015
 30
0.0
 11
-1.91921785488001
 21
0.0000000000001563
 31
0.0
  0
LINE
  5
D267
330
1F
100
AcDbEntity
  8
AM_0
100
AcDbLine
 10
-4.32092073574001
 20
0.0000000000001563
 30
0.0
 11
-4.320920735740038
 21
13.05993652344015
 31
0.0
  0
LINE
  5
D269
330
1F
100
AcDbEntity
  8
AM_0
100
AcDbLine
 10
-6.41244295254004
 20
12.85000610351015
 30
0.0
 11
-5.587552815820039
 21
12.85000610351015
 31
0.0
  0
ARC
  5
D26A
330
1F
100
AcDbEntity
  8
AM_0
100
AcDbCircle
 10
-5.320920735740024
 20
10.00000000000015
 30
0.0
 40
1.0
100
AcDbArc
 50
269.9999974955215
 51
0.0
  0
LINE
  5
D26B
330
1F
100
AcDbEntity
  8
AM_0
100
AcDbLine
 10
-7.915067464260054
 20
24.55111694336013
 30
0.0
 11
-8.677152425200056
 21
24.23544311523012
 31
0.0
  0
LINE
  5
D26C
330
1F
100
AcDbEntity
  8
AM_0
100
AcDbLine
 10
-3.322873860740052
 20
24.23542785644015
 30
0.0
 11
-4.084958821680054
 21
24.55110168457015
 31
0.0
  0
CIRCLE
  5
D26D
330
1F
100
AcDbEntity
  8
AM_0
100
AcDbCircle
 10
-5.999997884180054
 20
18.85000610351012
 30
0.0
 40
3.2200000286102
  0
LINE
  5
D26E
330
1F
100
AcDbEntity
  8
AM_0
100
AcDbLine
 10
-11.99999788418004
 20
19.26245117187012
 30
0.0
 11
-11.99999788418004
 21
18.43756103515012
 31
0.0
  0
LINE
  5
D26F
330
1F
100
AcDbEntity
  8
AM_0
100
AcDbLine
 10
-10.53429964199003
 20
14.89898681640012
 30
0.0
 11
-9.95101717129004
 21
14.31570434570012
 31
0.0
  0
LINE
  5
D270
330
1F
100
AcDbEntity
  8
AM_0
100
AcDbLine
 10
-11.70110872402003
 20
16.93495178222015
 30
0.0
 11
-11.38543489590004
 21
16.17285156250012
 31
0.0
  0
LINE
  5
D271
330
1F
100
AcDbEntity
  8
AM_0
100
AcDbLine
 10
-8.677152425200041
 20
13.46454620361014
 30
0.0
 11
-7.91506746426004
 21
13.14887237549014
 31
0.0
  0
LINE
  5
D272
330
1F
100
AcDbEntity
  8
AM_0
100
AcDbLine
 10
-11.38546541348005
 20
21.52713012695012
 30
0.0
 11
-11.70110872402005
 21
20.76506042480015
 31
0.0
  0
LINE
  5
D273
330
1F
100
AcDbEntity
  8
AM_0
100
AcDbLine
 10
-9.951017171290054
 20
23.38427734375013
 30
0.0
 11
-10.53429964199005
 21
22.80099487304012
 31
0.0
  0
LINE
  5
D274
330
1F
100
AcDbEntity
  8
AM_0
100
AcDbLine
 10
0.0000021158199601
 20
18.43756103515015
 30
0.0
 11
0.0000021158199459
 21
19.26245117187015
 31
0.0
  0
LINE
  5
D275
330
1F
100
AcDbEntity
  8
AM_0
100
AcDbLine
 10
-2.04900911465004
 20
14.31572723388014
 30
0.0
 11
-1.465726643950041
 21
14.89901733398015
 31
0.0
  0
LINE
  5
D276
330
1F
100
AcDbEntity
  8
AM_0
100
AcDbLine
 10
-4.084958821680039
 20
13.14886474609015
 30
0.0
 11
-3.322843343170042
 21
13.46453857422015
 31
0.0
  0
LINE
  5
D277
330
1F
100
AcDbEntity
  8
AM_0
100
AcDbLine
 10
-0.6145608724600394
 20
16.17285156250015
 30
0.0
 11
-0.2988870443400415
 21
16.93495178222015
 31
0.0
  0
LINE
  5
D278
330
1F
100
AcDbEntity
  8
AM_0
100
AcDbLine
 10
-1.465726643950056
 20
22.80101013183015
 30
0.0
 11
-2.049009114650054
 21
23.38429260254015
 31
0.0
  0
LINE
  5
D279
330
1F
100
AcDbEntity
  8
AM_0
100
AcDbLine
 10
-0.2988870443400557
 20
20.76504516601015
 30
0.0
 11
-0.6145608724600536
 21
21.52714538574015
 31
0.0
  0
LINE
  5
D27A
330
1F
100
AcDbEntity
  8
AM_0
100
AcDbLine
 10
-5.587552815820053
 20
24.85000610351012
 30
0.0
 11
-6.412442952540054
 21
24.85000610351012
 31
0.0
  0
ELLIPSE
  5
D6E8
330
1F
100
AcDbEntity
  8
AM_0
100
AcDbEllipse
 10
-4.367948323629972
 20
-17.75949096678987
 30
0.0
 11
3.39056396400002
 21
2.2655030032
 31
0.0
210
0.0
220
0.0
230
-1.0
 40
0.9809268501454999
 41
6.090494407028118
 42
6.475873916683512
  0
ELLIPSE
  5
D6E9
330
1F
100
AcDbEntity
  8
AM_0
100
AcDbEllipse
 10
-4.07485750331997
 20
-18.46707153319987
 30
0.0
 11
3.999435269520004
 21
0.7955322040199984
 31
0.0
210
0.0
220
0.0
230
-1.0
 40
0.9809213118124
 41
6.090492739018928
 42
6.475874917203761
  0
ELLIPSE
  5
D6EA
330
1F
100
AcDbEntity
  8
AM_0
100
AcDbEllipse
 10
-4.07485750331998
 20
-19.23292541503987
 30
0.0
 11
3.999435627039987
 21
-0.7955475158799973
 31
0.0
210
0.0
220
0.0
230
-1.0
 40
0.9809227306511001
 41
6.090493223266362
 42
6.47587459982933
  0
ELLIPSE
  5
D6EB
330
1F
100
AcDbEntity
  8
AM_0
100
AcDbEllipse
 10
-4.367948323629978
 20
-19.94049072264987
 30
0.0
 11
3.390563964000027
 21
-2.26550300319999
 31
0.0
210
0.0
220
0.0
230
-1.0
 40
0.9809268501454999
 41
6.090494482877368
 42
6.475873916683512
  0
ELLIPSE
  5
D6EC
330
1F
100
AcDbEntity
  8
AM_0
100
AcDbEllipse
 10
-4.909513265039977
 20
-20.48205566405987
 30
0.0
 11
2.265502854990023
 21
-3.390564063039985
 31
0.0
210
0.0
220
0.0
230
-1.0
 40
0.9809165013985001
 41
6.090492242033024
 42
6.475875505196137
  0
ELLIPSE
  5
D6ED
330
1F
100
AcDbEntity
  8
AM_0
100
AcDbEllipse
 10
-5.617063313869977
 20
-20.77513122557987
 30
0.0
 11
0.7955323271800193
 21
-3.999435245020008
 31
0.0
210
0.0
220
0.0
230
-1.0
 40
0.9809271585750998
 41
6.090494193069396
 42
6.475874145812797
  0
ELLIPSE
  5
D6EE
330
1F
100
AcDbEntity
  8
AM_0
100
AcDbEllipse
 10
-6.382932454489974
 20
-20.77513122557987
 30
0.0
 11
-0.795532200059988
 21
-3.999435270310016
 31
0.0
210
0.0
220
0.0
230
-0.9999999999999996
 40
0.9809271585751
 41
6.090494299258295
 42
6.475874221662027
  0
ELLIPSE
  5
D6EF
330
1F
100
AcDbEntity
  8
AM_0
100
AcDbEllipse
 10
-7.090513020899978
 20
-20.48205566405984
 30
0.0
 11
-2.265503151410024
 21
-3.390563864980014
 31
0.0
210
0.0
220
0.0
230
-1.0
 40
0.9809206525908001
 41
6.090493007121362
 42
6.47587487664856
  0
ELLIPSE
  5
D6F0
330
1F
100
AcDbEntity
  8
AM_0
100
AcDbEllipse
 10
-7.63204744472998
 20
-19.94049072264984
 30
0.0
 11
-3.390563891989979
 21
-2.265503110980011
 31
0.0
210
0.0
220
0.0
230
-1.0
 40
0.9809206525908001
 41
6.090493022291342
 42
6.475874831138722
  0
ELLIPSE
  5
D6F1
330
1F
100
AcDbEntity
  8
AM_0
100
AcDbEllipse
 10
-7.925138265039981
 20
-19.23292541503987
 30
0.0
 11
-3.99945077538001
 21
-0.7955471298600186
 31
0.0
210
0.0
220
0.0
230
-1.0
 40
0.9809198764373999
 41
6.090493541047422
 42
6.475874737139128
  0
ELLIPSE
  5
D6F2
330
1F
100
AcDbEntity
  8
AM_0
100
AcDbEllipse
 10
-7.92513826503997
 20
-18.46707153319984
 30
0.0
 11
-3.999450814400008
 21
0.7955322685600028
 31
0.0
210
0.0
220
0.0
230
-1.0
 40
0.9809243065736
 41
6.090494465766228
 42
6.475874206847303
  0
ELLIPSE
  5
D6F3
330
1F
100
AcDbEntity
  8
AM_0
100
AcDbEllipse
 10
-7.632047444729975
 20
-17.75949096678984
 30
0.0
 11
-3.390563891989987
 21
2.265503110969996
 31
0.0
210
0.0
220
0.0
230
-1.0
 40
0.9809206525908001
 41
6.090492991951382
 42
6.47587486147858
  0
ELLIPSE
  5
D6F4
330
1F
100
AcDbEntity
  8
AM_0
100
AcDbEllipse
 10
-7.090513020899976
 20
-17.21795654296984
 30
0.0
 11
-2.265503151410036
 21
3.390563864979992
 31
0.0
210
0.0
220
0.0
230
-1.0
 40
0.9809268501454997
 41
6.090494422197907
 42
6.475873916683512
  0
ELLIPSE
  5
D6F5
330
1F
100
AcDbEntity
  8
AM_0
100
AcDbEllipse
 10
-6.382932454489974
 20
-16.92486572264984
 30
0.0
 11
-0.7955323162499962
 21
3.999450804909995
 31
0.0
210
0.0
220
0.0
230
-1.0
 40
0.9809169396802001
 41
6.090492492884366
 42
6.475875057136049
  0
ELLIPSE
  5
D6F6
330
1F
100
AcDbEntity
  8
AM_0
100
AcDbEllipse
 10
-5.617063313869977
 20
-16.92486572264984
 30
0.0
 11
0.7955324433800046
 21
3.999450779629996
 31
0.0
210
0.0
220
0.0
230
-1.0
 40
0.9809169396802001
 41
6.090492720434248
 42
6.475875315026008
  0
ELLIPSE
  5
D6F7
330
1F
100
AcDbEntity
  8
AM_0
100
AcDbEllipse
 10
-4.909513265039976
 20
-17.21795654296987
 30
0.0
 11
2.265502854990012
 21
3.390564063040006
 31
0.0
210
0.0
220
0.0
230
-1.0
 40
0.9809227574207
 41
6.090493668323077
 42
6.475874458170753
  0
LINE
  5
D6F8
330
1F
100
AcDbEntity
  8
AM_0
100
AcDbLine
 10
-37.99999788417997
 20
-19.9999999999999
 30
0.0
 11
-21.24264314784997
 21
-19.9999999999999
 31
0.0
  0
LINE
  5
D6F9
330
1F
100
AcDbEntity
  8
AM_0
100
AcDbLine
 10
-38.99999788417999
 20
-10.9999999999999
 30
0.0
 11
-22.99999788417999
 21
-10.9999999999999
 31
0.0
  0
LINE
  5
D6FA
330
1F
100
AcDbEntity
  8
AM_0
100
AcDbLine
 10
-38.99999788418
 20
-5.200012207029899
 30
0.0
 11
-38.99999788417999
 21
-10.9999999999999
 31
0.0
  0
LINE
  5
D6FB
330
1F
100
AcDbEntity
  8
AM_0
100
AcDbLine
 10
-39.99999788418
 20
-6.200012207029928
 30
0.0
 11
-39.99999788417997
 21
-17.99999999999992
 31
0.0
  0
LINE
  5
D6FC
330
1F
100
AcDbEntity
  8
AM_0
100
AcDbLine
 10
-38.99999788418
 20
-5.200012207029899
 30
0.0
 11
-33.70001009120999
 21
-5.200012207029928
 31
0.0
  0
LINE
  5
D6FD
330
1F
100
AcDbEntity
  8
AM_0
100
AcDbLine
 10
-38.99999788418
 20
-5.199981689449899
 30
0.0
 11
-39.99999788418
 21
-6.199981689449927
 31
0.0
  0
LINE
  5
D6FE
330
1F
100
AcDbEntity
  8
AM_0
100
AcDbLine
 10
-33.70001009121001
 20
0.0000000000000711
 30
0.0
 11
-33.70001009120999
 21
-5.200012207029928
 31
0.0
  0
LINE
  5
D6FF
330
1F
100
AcDbEntity
  8
AM_0
100
AcDbLine
 10
-38.99999788417999
 20
-10.9999999999999
 30
0.0
 11
-39.99999788417999
 21
-11.99999999999992
 31
0.0
  0
ARC
  5
D700
330
1F
100
AcDbEntity
  8
AM_0
100
AcDbCircle
 10
-37.99999788417997
 20
-17.9999999999999
 30
0.0
 40
2.0
100
AcDbArc
 50
179.9999949910424
 51
269.9999974955217
  0
LINE
  5
D701
330
1F
100
AcDbEntity
  8
AM_0
100
AcDbLine
 10
-0.2988870443399776
 20
-20.76504516600987
 30
0.0
 11
-0.6145608724599719
 21
-21.52714538573987
 31
0.0
  0
LINE
  5
D702
330
1F
100
AcDbEntity
  8
AM_0
100
AcDbLine
 10
-11.38546541347997
 20
-21.52713012694987
 30
0.0
 11
-11.70110872401997
 21
-20.76506042479989
 31
0.0
  0
CIRCLE
  5
D703
330
1F
100
AcDbEntity
  8
AM_0
100
AcDbCircle
 10
-5.999997884179983
 20
-18.85000610350984
 30
0.0
 40
3.2200000286102
  0
LINE
  5
D704
330
1F
100
AcDbEntity
  8
AM_0
100
AcDbLine
 10
-19.12133577480997
 20
-20.8786926269499
 30
0.0
 11
-17.87869051112997
 21
-22.1213378906199
 31
0.0
  0
LINE
  5
D705
330
1F
100
AcDbEntity
  8
AM_0
100
AcDbLine
 10
-14.99999788417999
 20
-8.999999999999872
 30
0.0
 11
-5.32092073573999
 21
-8.999999999999872
 31
0.0
  0
LINE
  5
D706
330
1F
100
AcDbEntity
  8
AM_0
100
AcDbLine
 10
-22.99999788418001
 20
0.0000000000000995
 30
0.0
 11
-22.99999788417999
 21
-11.4999999999999
 31
0.0
  0
LINE
  5
D707
330
1F
100
AcDbEntity
  8
AM_0
100
AcDbLine
 10
-19.99999788418001
 20
0.0000000000000995
 30
0.0
 11
-19.99999788417999
 21
-11.4999999999999
 31
0.0
  0
LINE
  5
D708
330
1F
100
AcDbEntity
  8
AM_0
100
AcDbLine
 10
-19.99999788417999
 20
-5.4999999999999
 30
0.0
 11
-14.99999788417999
 21
-5.499999999999872
 31
0.0
  0
LINE
  5
D709
330
1F
100
AcDbEntity
  8
AM_0
100
AcDbLine
 10
-14.99999788418
 20
0.0000000000001137
 30
0.0
 11
-14.99999788417999
 21
-8.999999999999872
 31
0.0
  0
LINE
  5
D70A
330
1F
100
AcDbEntity
  8
AM_0
100
AcDbLine
 10
-22.99999788417999
 20
-11.4999999999999
 30
0.0
 11
-19.99999788417999
 21
-11.4999999999999
 31
0.0
  0
ARC
  5
D70B
330
1F
100
AcDbEntity
  8
AM_0
100
AcDbCircle
 10
-21.24264314784996
 20
-22.9999999999999
 30
0.0
 40
3.0
100
AcDbArc
 50
44.99998759186249
 51
90.00000250447868
  0
LINE
  5
D70C
330
1F
100
AcDbEntity
  8
AM_0
100
AcDbLine
 10
-11.70110872401997
 20
-16.93495178221989
 30
0.0
 11
-11.38543489589997
 21
-16.17285156249987
 31
0.0
  0
LINE
  5
D70D
330
1F
100
AcDbEntity
  8
AM_0
100
AcDbLine
 10
-11.99999788417997
 20
-19.26245117186986
 30
0.0
 11
-11.99999788417997
 21
-18.43756103514986
 31
0.0
  0
ARC
  5
D70E
330
1F
100
AcDbEntity
  8
AM_0
100
AcDbCircle
 10
-5.320920735739987
 20
-9.999999999999872
 30
0.0
 40
1.0
100
AcDbArc
 50
0.00000000000021
 51
90.00000250447868
  0
LINE
  5
D70F
330
1F
100
AcDbEntity
  8
AM_0
100
AcDbLine
 10
-4.320920735740008
 20
0.0000000000001279
 30
0.0
 11
-4.320920735739989
 21
-13.05993652343987
 31
0.0
  0
LINE
  5
D710
330
1F
100
AcDbEntity
  8
AM_0
100
AcDbLine
 10
-1.919217854879985
 20
-14.44549560546987
 30
0.0
 11
-1.91921785488001
 21
0.0000000000001421
 31
0.0
  0
LINE
  5
D711
330
1F
100
AcDbEntity
  8
AM_0
100
AcDbLine
 10
-8.67715242519999
 20
-13.46454620360988
 30
0.0
 11
-7.91506746425999
 21
-13.14887237548985
 31
0.0
  0
LINE
  5
D712
330
1F
100
AcDbEntity
  8
AM_0
100
AcDbLine
 10
-10.53429964198998
 20
-14.89898681639987
 30
0.0
 11
-9.951017171289986
 21
-14.31570434569987
 31
0.0
  0
LINE
  5
D713
330
1F
100
AcDbEntity
  8
AM_0
100
AcDbLine
 10
-6.412442952539992
 20
-12.85000610350986
 30
0.0
 11
-5.587552815819991
 21
-12.85000610350986
 31
0.0
  0
LINE
  5
D714
330
1F
100
AcDbEntity
  8
AM_0
100
AcDbLine
 10
-4.08495882167999
 20
-13.14886474608987
 30
0.0
 11
-3.322843343169992
 21
-13.46453857421987
 31
0.0
  0
LINE
  5
D715
330
1F
100
AcDbEntity
  8
AM_0
100
AcDbLine
 10
-2.049009114649987
 20
-14.31572723387985
 30
0.0
 11
-1.465726643949984
 21
-14.89901733397987
 31
0.0
  0
LINE
  5
D716
330
1F
100
AcDbEntity
  8
AM_0
100
AcDbLine
 10
-0.614560872459979
 20
-16.17285156249987
 30
0.0
 11
-0.2988870443399776
 21
-16.93495178221986
 31
0.0
  0
LINE
  5
D717
330
1F
100
AcDbEntity
  8
AM_0
100
AcDbLine
 10
0.0000021158200276
 20
-18.43756103514984
 30
0.0
 11
0.000002115820017
 21
-19.26245117186984
 31
0.0
  0
LINE
  5
D718
330
1F
100
AcDbEntity
  8
AM_0
100
AcDbLine
 10
-15.75735262050996
 20
-22.9999999999999
 30
0.0
 11
-10.28832796230997
 21
-22.99999999999987
 31
0.0
  0
ARC
  5
D719
330
1F
100
AcDbEntity
  8
AM_0
100
AcDbCircle
 10
-15.75735262050997
 20
-19.9999999999999
 30
0.0
 40
3.0
100
AcDbArc
 50
224.9999859979972
 51
269.9999974955217
  0
LINE
  5
D71A
330
1F
100
AcDbEntity
  8
AM_0
100
AcDbLine
 10
-9.951017171289967
 20
-23.38427734374987
 30
0.0
 11
-10.53429964198996
 21
-22.80099487303986
 31
0.0
  0
LINE
  5
D71B
330
1F
100
AcDbEntity
  8
AM_0
100
AcDbLine
 10
-7.915067464259964
 20
-24.55111694335984
 30
0.0
 11
-8.677152425199965
 21
-24.23544311522987
 31
0.0
  0
LINE
  5
D71C
330
1F
100
AcDbEntity
  8
AM_0
100
AcDbLine
 10
-5.587552815819961
 20
-24.85000610350984
 30
0.0
 11
-6.412442952539961
 21
-24.85000610350984
 31
0.0
  0
LINE
  5
D71D
330
1F
100
AcDbEntity
  8
AM_0
100
AcDbLine
 10
-3.322873860739964
 20
-24.23542785643987
 30
0.0
 11
-4.084958821679963
 21
-24.55110168456987
 31
0.0
  0
LINE
  5
D71E
330
1F
100
AcDbEntity
  8
AM_0
100
AcDbLine
 10
-1.46572664394997
 20
-22.80101013182986
 30
0.0
 11
-2.049009114649965
 21
-23.38429260253987
 31
0.0
  0
LINE
  5
D71F
330
1F
100
AcDbEntity
  8
AM_11
100
AcDbLine
 10
-0.0000000000003162
 20
25.00000000000015
 30
0.0
 11
-0.0000000000002203
 21
-24.99999999999985
 31
0.0
  0
LINE
  5
D727
330
1F
100
AcDbEntity
  8
AM_11
100
AcDbLine
 10
-6.000000000000317
 20
25.00000000000012
 30
0.0
 11
-6.000000000000218
 21
-24.99999999999985
 31
0.0
  0
LINE
  5
D72F
330
1F
100
AcDbEntity
  8
AM_11
100
AcDbLine
 10
-6.000000000000319
 20
25.00000000000015
 30
0.0
 11
-0.0000000000003197
 21
25.00000000000015
 31
0.0
  0
LINE
  5
D733
330
1F
100
AcDbEntity
  8
AM_11
100
AcDbLine
 10
-6.00000000000022
 20
-24.99999999999988
 30
0.0
 11
-0.0000000000002203
 21
-24.99999999999985
 31
0.0
  0
DIMENSION
  5
D73B
330
1F
100
AcDbEntity
  8
AM_5
100
AcDbDimension
  2
*D5
 10
-0.000000000000314
 20
32.00000000000015
 30
0.0
 11
-3.000000000000308
 21
33.55000000000016
 31
0.0
 70
    32
  1
<>
 51
359.9999999999998
  3
AM_JIS$0
100
AcDbAlignedDimension
 13
-6.000000000000319
 23
25.00000000000015
 33
0.0
 14
-0.0000000000003268
 24
25.00000000000015
 34
0.0
 50
180.0
100
AcDbRotatedDimension
1001
GENIUS_GENDTOL_13
1000

1000
h7
1000

1040
0.0
1001
ACAD
1000
DSTYLE
1002
{
1070
   287
1070
     3
1070
    40
1040
0.5
1070
    42
1040
1.0
1070
    43
1040
12.0
1070
    48
1040
0.1
1070
    78
1070
     8
1070
   140
1040
3.2
1070
   176
1070
   256
1070
   177
1070
   256
1070
   271
1070
     0
1070
   272
1070
     3
1070
   275
1070
     0
1070
   284
1070
     0
1070
   289
1070
     3
1070
   340
1005
6B
1070
   371
1070
    -1
1070
   372
1070
    -1
1002
}
  0
DIMENSION
  5
D7E1
330
1F
100
AcDbEntity
  8
AM_5
100
AcDbDimension
  2
*D6
 10
11.99999999999973
 20
-24.99999999999986
 30
0.0
 11
10.44999999999973
 21
0.0000000000001487
 31
0.0
 70
    32
  1
%%c<>
 51
359.9999999999998
  3
AM_JIS$0
100
AcDbAlignedDimension
 13
-0.0000000000003197
 23
25.00000000000015
 33
0.0
 14
-0.0000000000002274
 24
-24.99999999999985
 34
0.0
 50
90.0
100
AcDbRotatedDimension
1001
GENIUS_GENDTOL_13
1000

1000
h7
1000

1040
0.0
1001
ACAD
1000
DSTYLE
1002
{
1070
   287
1070
     3
1070
    40
1040
0.5
1070
    42
1040
1.0
1070
    43
1040
12.0
1070
    48
1040
0.1
1070
    78
1070
     8
1070
   140
1040
3.2
1070
   176
1070
   256
1070
   177
1070
   256
1070
   271
1070
     0
1070
   272
1070
     3
1070
   275
1070
     0
1070
   284
1070
     0
1070
   289
1070
     3
1070
   340
1005
6B
1070
   371
1070
    -1
1070
   372
1070
    -1
1002
}
  0
DIMENSION
  5
D87F
330
1F
100
AcDbEntity
  8
AM_5
100
AcDbDimension
  2
*D7
 10
6.999999999999731
 20
-5.499999999999879
 30
0.0
 11
5.449999999999732
 21
0.0000000000001223
 31
0.0
 70
    32
  1
%%c<>
 51
359.9999999999998
  3
AM_JIS$0
100
AcDbAlignedDimension
 13
-14.99999788418001
 23
5.500000000000127
 33
0.0
 14
-14.99999788417999
 24
-5.499999999999872
 34
0.0
 50
90.0
100
AcDbRotatedDimension
1001
GENIUS_GENDTOL_13
1000

1000
h7
1000

1040
0.0
1001
ACAD
1000
DSTYLE
1002
{
1070
   287
1070
     3
1070
    40
1040
0.5
1070
    42
1040
1.0
1070
    43
1040
12.0
1070
    48
1040
0.1
1070
    78
1070
     8
1070
   140
1040
3.2
1070
   176
1070
   256
1070
   177
1070
   256
1070
   271
1070
     0
1070
   272
1070
     3
1070
   275
1070
     0
1070
   284
1070
     0
1070
   289
1070
     3
1070
   340
1005
6B
1070
   371
1070
    -1
1070
   372
1070
    -1
1002
}
  0
DIMENSION
  5
D918
330
1F
100
AcDbEntity
  8
AM_5
100
AcDbDimension
  2
*D8
 10
-45.99999788418002
 20
-5.199981689449898
 30
0.0
 11
-47.54999788418001
 21
0.0000000000000794
 31
0.0
 70
    32
  1
<>
 51
359.9999999999998
  3
AM_JIS$0
100
AcDbAlignedDimension
 13
-38.99999788418002
 23
5.199981689450069
 33
0.0
 14
-38.99999788418
 24
-5.199981689449899
 34
0.0
 50
270.0000000000002
100
AcDbRotatedDimension
1001
GENIUS_GENDTOL_13
1000

1000
h7
1000

1040
0.0
1001
ACAD
1000
DSTYLE
1002
{
1070
   287
1070
     3
1070
    40
1040
0.5
1070
    42
1040
1.0
1070
    43
1040
12.0
1070
    48
1040
0.1
1070
    78
1070
     8
1070
   140
1040
3.2
1070
   176
1070
   256
1070
   177
1070
   256
1070
   271
1070
     1
1070
   272
1070
     3
1070
   275
1070
     0
1070
   284
1070
     0
1070
   289
1070
     3
1070
   340
1005
6B
1070
   371
1070
    -1
1070
   372
1070
    -1
1002
}
  0
DIMENSION
  5
DA46
330
1F
100
AcDbEntity
  8
AM_5
100
AcDbDimension
  2
*D9
 10
-33.70001009120999
 20
-31.48760666107499
 30
0.0
 11
-36.85000398769499
 21
-29.93760666107499
 31
0.0
 70
    32
  1
<>
 51
359.9999999999998
  3
AM_JIS$0
100
AcDbAlignedDimension
 13
-39.99999788417998
 23
-17.99999999999992
 33
0.0
 14
-33.70001009120999
 24
-5.200012207029928
 34
0.0
100
AcDbRotatedDimension
1001
GENIUS_GENDTOL_13
1000

1000
h7
1000

1040
0.0
1001
ACAD
1000
DSTYLE
1002
{
1070
   287
1070
     3
1070
    40
1040
0.5
1070
    42
1040
1.0
1070
    43
1040
12.0
1070
    48
1040
0.1
1070
    78
1070
     8
1070
   140
1040
3.2
1070
   176
1070
   256
1070
   177
1070
   256
1070
   271
1070
     1
1070
   272
1070
     3
1070
   275
1070
     0
1070
   284
1070
     0
1070
   289
1070
     3
1070
   340
1005
6B
1070
   371
1070
    -1
1070
   372
1070
    -1
1002
}
  0
DIMENSION
  5
DB35
330
1F
100
AcDbEntity
  8
AM_5
100
AcDbDimension
  2
*D10
 10
-19.99999788417999
 20
-36.23033813874268
 30
0.0
 11
-29.99999788417998
 21
-34.68033813874268
 31
0.0
 70
    32
  1
<>
 51
359.9999999999998
  3
AM_JIS$0
100
AcDbAlignedDimension
 13
-39.99999788417997
 23
-17.9999998251543
 33
0.0
 14
-19.99999788417999
 24
-11.4999999999999
 34
0.0
100
AcDbRotatedDimension
1001
GENIUS_GENDTOL_13
1000

1000
h7
1000

1040
0.0
1001
ACAD
1000
DSTYLE
1002
{
1070
   287
1070
     3
1070
    40
1040
0.5
1070
    42
1040
1.0
1070
    43
1040
12.0
1070
    48
1040
0.1
1070
    78
1070
     8
1070
   140
1040
3.2
1070
   176
1070
   256
1070
   177
1070
   256
1070
   271
1070
     1
1070
   272
1070
     3
1070
   275
1070
     0
1070
   284
1070
     0
1070
   289
1070
     3
1070
   340
1005
6B
1070
   371
1070
    -1
1070
   372
1070
    -1
1002
}
  0
DIMENSION
  5
DBF7
330
1F
100
AcDbEntity
  8
AM_5
100
AcDbDimension
  2
*D11
 10
-0.0000000000002284
 20
-41.23655458940144
 30
0.0
 11
-19.9999989420901
 21
-39.68655458940145
 31
0.0
 70
    32
  1
<>
 51
359.9999999999998
  3
AM_JIS$0
100
AcDbAlignedDimension
 13
-39.99999788417997
 23
-17.9999998251543
 33
0.0
 14
-0.0000000000002274
 24
-24.99999999999985
 34
0.0
100
AcDbRotatedDimension
1001
GENIUS_GENDTOL_13
1000

1000
h7
1000

1040
0.0
1001
ACAD
1000
DSTYLE
1002
{
1070
   287
1070
     3
1070
    40
1040
0.5
1070
    42
1040
1.0
1070
    43
1040
12.0
1070
    48
1040
0.1
1070
    78
1070
     8
1070
   140
1040
3.2
1070
   176
1070
   256
1070
   177
1070
   256
1070
   271
1070
     1
1070
   272
1070
     3
1070
   275
1070
     0
1070
   284
1070
     0
1070
   289
1070
     3
1070
   340
1005
6B
1070
   371
1070
    -1
1070
   372
1070
    -1
1002
}
  0
DIMENSION
  5
DD10
330
1F
100
AcDbEntity
  8
AM_5
100
AcDbDimension
  2
*D12
 10
-50.89051260813509
 20
-10.99999999999989
 30
0.0
 11
-52.44051260813509
 21
0.0000000000000797
 31
0.0
 70
    32
  1
%%c<>
 51
359.9999999999998
  3
AM_JIS$0
100
AcDbAlignedDimension
 13
-38.99999788418003
 23
11.00000000000007
 33
0.0
 14
-38.99999788417999
 24
-10.9999999999999
 34
0.0
 50
270.0000000000002
100
AcDbRotatedDimension
1001
GENIUS_GENDTOL_13
1000

1000
h7
1000

1040
0.0
1001
ACAD
1000
DSTYLE
1002
{
1070
   287
1070
     3
1070
    40
1040
0.5
1070
    42
1040
1.0
1070
    43
1040
12.0
1070
    48
1040
0.1
1070
    78
1070
     8
1070
   140
1040
3.2
1070
   176
1070
   256
1070
   177
1070
   256
1070
   271
1070
     0
1070
   272
1070
     3
1070
   275
1070
     0
1070
   284
1070
     0
1070
   289
1070
     3
1070
   340
1005
6B
1070
   371
1070
    -1
1070
   372
1070
    -1
1002
}
  0
VIEWPORT
  5
110
330
101
100
AcDbEntity
 67
     1
  8
0
100
AcDbViewport
 10
420.5
 20
297.0
 30
0.0
 40
948.9782706766916
 41
628.452
 68
     1
 69
     1
1001
ACAD
1000
MVIEW
1002
{
1070
    16
1010
0.0
1020
0.0
1030
0.0
1010
0.0
1020
0.0
1030
1.0
1040
0.0
1040
628.452
1040
420.5
1040
297.0
1040
50.0
1040
0.0
1040
0.0
1070
     0
1070
   100
1070
     1
1070
     1
1070
     0
1070
     0
1070
     0
1070
     0
1040
0.0
1040
0.0
1040
0.0
1040
10.0
1040
10.0
1040
10.0
1040
10.0
1070
     0
1002
{
1002
}
1002
}
  0
ENDSEC
  0
SECTION
  2
OBJECTS
  0
DICTIONARY
  5
C
330
0
100
AcDbDictionary
  3
ACAD_GROUP
350
D
  3
ACAD_LAYOUT
350
1A
  3
ACAD_MLINESTYLE
350
17
  3
ACAD_PLOTSETTINGS
350
19
  3
ACAD_PLOTSTYLENAME
350
E
  3
ACDBVARIABLEDICTIONARY
350
34
  3
ACMDICTIONARY
350
43
  3
AMG
350
2B
  3
AMGSNAPSETTINGS
350
6E
  3
DWGPROPS
350
DF78
  3
ACDBHEADERROUNDTRIPXREC
350
DF84
  0
DICTIONARY
  5
74
330
1F
100
AcDbDictionary
280
     1
  3
ACAD_INDEX
360
DF7A
  3
ACAD_LAYOUTSELFREF
360
DFA7
  0
DICTIONARY
  5
DFAC
330
101
100
AcDbDictionary
280
     1
  3
ACAD_LAYOUTSELFREF
360
DFAD
  0
DICTIONARY
  5
D
102
{ACAD_REACTORS
330
C
102
}
330
C
100
AcDbDictionary
  0
DICTIONARY
  5
1A
102
{ACAD_REACTORS
330
C
102
}
330
C
100
AcDbDictionary
  0
DICTIONARY
  5
17
102
{ACAD_REACTORS
330
C
102
}
330
C
100
AcDbDictionary
  3
STANDARD
350
18
  0
DICTIONARY
  5
19
102
{ACAD_REACTORS
330
C
102
}
330
C
100
AcDbDictionary
  3
ASAMI
350
399D
  0
ACDBDICTIONARYWDFLT
  5
E
102
{ACAD_REACTORS
330
C
102
}
330
C
100
AcDbDictionary
281
     1
  3
Normal
350
F
100
AcDbDictionaryWithDefault
340
F
  0
DICTIONARY
  5
34
102
{ACAD_REACTORS
330
C
102
}
330
C
100
AcDbDictionary
  3
INDEXCTL
350
35
  3
SORTENTS
350
B5E
  0
DICTIONARY
  5
43
102
{ACAD_REACTORS
330
C
102
}
330
C
100
AcDbDictionary
  3
ACMSTDDICTIONARY
350
260
  0
DICTIONARY
  5
2B
102
{ACAD_REACTORS
330
C
102
}
330
C
100
AcDbDictionary
  3
ACMGSETTINGS
350
2C
  0
DICTIONARY
  5
6E
102
{ACAD_REACTORS
330
C
102
}
330
C
100
AcDbDictionary
  0
XRECORD
  5
DF78
102
{ACAD_REACTORS
330
C
102
}
330
C
100
AcDbXrecord
  1
DWGPROPS COOKIE
  2

  3

  4

  6

  7

  8

  9

300
AmdtFileType=82
301
=
302
=
303
=
304
=
305
=
306
=
307
=
308
=
309
=
 40
0.9551667013888888
 41
2452802.716478761
 42
2453075.640095486
  1

 90
        1
  0
DICTIONARY
  5
DF84
102
{ACAD_REACTORS
330
C
102
}
330
C
100
AcDbDictionary
  3
TSTACKALIGN
350
DF85
  3
TSTACKSIZE
350
DF86
  3
HYPERLINKBASE
350
DF87
  3
STYLESHEET
350
DF88
  3
LAYOUTDICT
350
DF89
  3
PLOTSETDICT
350
DF8A
  3
PLOTSTYLNAMDICT
350
DF8B
  3
LWETCUNION
350
DF8C
  3
INSUNITS
350
DF8D
  3
CEPSNTYPE
350
DF8E
  3
FINGERPRINTGUID
350
DF8F
  3
VERSIONGUID
350
DF90
  3
PSVPSCALE
350
DF91
  3
DIMSTYLEDATA
350
DF92
  3
PUCSORTHOREF
350
DF93
  3
PUCSORTHOVIEW
350
DF94
  3
PUCSBASE
350
DF95
  3
PUCSORGTOP
350
DF96
  3
PUCSORGBOTTOM
350
DF97
  3
PUCSORGLEFT
350
DF98
  3
PUCSORGRIGHT
350
DF99
  3
PUCSORGFRONT
350
DF9A
  3
PUCSORGBACK
350
DF9B
  3
UCSORTHOREF
350
DF9C
  3
UCSORTHOVIEW
350
DF9D
  3
UCSBASE
350
DF9E
  3
UCSORGTOP
350
DF9F
  3
UCSORGBOTTOM
350
DFA0
  3
UCSORGLEFT
350
DFA1
  3
UCSORGRIGHT
350
DFA2
  3
UCSORGFRONT
350
DFA3
  3
UCSORGBACK
350
DFA4
  0
DICTIONARY
  5
DF7A
102
{ACAD_REACTORS
330
74
102
}
330
74
100
AcDbDictionary
  3
*A1
350
DF7B
  0
XRECORD
  5
DFA7
102
{ACAD_REACTORS
330
74
102
}
330
74
100
AcDbXrecord
340
1F
  0
XRECORD
  5
DFAD
102
{ACAD_REACTORS
330
DFAC
102
}
330
DFAC
100
AcDbXrecord
340
101
  0
MLINESTYLE
  5
18
102
{ACAD_REACTORS
330
17
102
}
330
17
100
AcDbMlineStyle
  2
STANDARD
 70
     0
  3

 62
   256
 51
90.0
 52
90.0
 71
     2
 49
0.5
 62
   256
  6
BYLAYER
 49
-0.5
 62
   256
  6
BYLAYER
  0
PLOTSETTINGS
  5
399D
102
{ACAD_REACTORS
330
19
102
}
330
19
100
AcDbPlotSettings
  1
asami
  2
RICOH imagio MF1540
  4
A4
  6

 40
5.831416606903076
 41
7.651742935180664
 42
4.90008544921875
 43
5.789077758789062
 44
296.9683227539062
 45
209.9733276367187
 46
0.0
 47
0.0
 48
-156.6707931774246
 49
-74.57609991074048
140
58.59973180214831
141
60.61068161925596
142
1.0
143
1.095343097833084
 70
  1712
 72
     1
 73
     1
 74
     4
  7
asami.ctb
 75
     0
147
0.9129559514076438
148
156.6707931774246
149
74.57609991074048
  0
ACDBPLACEHOLDER
  5
F
102
{ACAD_REACTORS
330
E
102
}
330
E
100
AcDbPlaceHolder
280
     0
  0
DICTIONARYVAR
  5
35
102
{ACAD_REACTORS
330
34
102
}
330
34
100
DictionaryVariables
280
     0
  1
1
  0
DICTIONARYVAR
  5
B5E
102
{ACAD_REACTORS
330
34
102
}
330
34
100
DictionaryVariables
280
     0
  1
96
  0
DICTIONARY
  5
260
102
{ACAD_REACTORS
330
43
102
}
330
43
100
AcDbDictionary
  0
DICTIONARY
  5
2C
102
{ACAD_REACTORS
330
2B
102
}
330
2B
100
AcDbDictionary
  3
DWGSETTINGS
350
2D
  0
XRECORD
  5
DF85
102
{ACAD_REACTORS
330
DF84
102
}
330
DF84
100
AcDbXrecord
 90
        1
  0
XRECORD
  5
DF86
102
{ACAD_REACTORS
330
DF84
102
}
330
DF84
100
AcDbXrecord
 90
       70
  0
XRECORD
  5
DF87
102
{ACAD_REACTORS
330
DF84
102
}
330
DF84
100
AcDbXrecord
  1

  0
XRECORD
  5
DF88
102
{ACAD_REACTORS
330
DF84
102
}
330
DF84
100
AcDbXrecord
  1
ASAMI.ctb
  0
XRECORD
  5
DF89
102
{ACAD_REACTORS
330
DF84
102
}
330
DF84
100
AcDbXrecord
340
1A
  0
XRECORD
  5
DF8A
102
{ACAD_REACTORS
330
DF84
102
}
330
DF84
100
AcDbXrecord
340
19
  0
XRECORD
  5
DF8B
102
{ACAD_REACTORS
330
DF84
102
}
330
DF84
100
AcDbXrecord
340
E
  0
XRECORD
  5
DF8C
102
{ACAD_REACTORS
330
DF84
102
}
330
DF84
100
AcDbXrecord
 90
    10781
  0
XRECORD
  5
DF8D
102
{ACAD_REACTORS
330
DF84
102
}
330
DF84
100
AcDbXrecord
 90
        4
  0
XRECORD
  5
DF8E
102
{ACAD_REACTORS
330
DF84
102
}
330
DF84
100
AcDbXrecord
 90
        0
  0
XRECORD
  5
DF8F
102
{ACAD_REACTORS
330
DF84
102
}
330
DF84
100
AcDbXrecord
  1
{AFB28963-8C59-40AE-9337-C84526B81ACE}
  0
XRECORD
  5
DF90
102
{ACAD_REACTORS
330
DF84
102
}
330
DF84
100
AcDbXrecord
  1
{9985E39A-89C0-4151-BCD1-F02479329931}
  0
XRECORD
  5
DF91
102
{ACAD_REACTORS
330
DF84
102
}
330
DF84
100
AcDbXrecord
 40
0.0
  0
XRECORD
  5
DF92
102
{ACAD_REACTORS
330
DF84
102
}
330
DF84
100
AcDbXrecord
1000
DSTYLE
1002
{
1070
    79
 70
     2
1070
   341
340
59
1070
   342
340
59
1070
   371
 70
    -1
1070
   372
 70
    -1
1002
}
  0
XRECORD
  5
DF93
102
{ACAD_REACTORS
330
DF84
102
}
330
DF84
100
AcDbXrecord
340
0
  0
XRECORD
  5
DF94
102
{ACAD_REACTORS
330
DF84
102
}
330
DF84
100
AcDbXrecord
 70
     0
  0
XRECORD
  5
DF95
102
{ACAD_REACTORS
330
DF84
102
}
330
DF84
100
AcDbXrecord
340
0
  0
XRECORD
  5
DF96
102
{ACAD_REACTORS
330
DF84
102
}
330
DF84
100
AcDbXrecord
 10
0.0
 20
0.0
 30
0.0
  0
XRECORD
  5
DF97
102
{ACAD_REACTORS
330
DF84
102
}
330
DF84
100
AcDbXrecord
 10
0.0
 20
0.0
 30
0.0
  0
XRECORD
  5
DF98
102
{ACAD_REACTORS
330
DF84
102
}
330
DF84
100
AcDbXrecord
 10
0.0
 20
0.0
 30
0.0
  0
XRECORD
  5
DF99
102
{ACAD_REACTORS
330
DF84
102
}
330
DF84
100
AcDbXrecord
 10
0.0
 20
0.0
 30
0.0
  0
XRECORD
  5
DF9A
102
{ACAD_REACTORS
330
DF84
102
}
330
DF84
100
AcDbXrecord
 10
0.0
 20
0.0
 30
0.0
  0
XRECORD
  5
DF9B
102
{ACAD_REACTORS
330
DF84
102
}
330
DF84
100
AcDbXrecord
 10
0.0
 20
0.0
 30
0.0
  0
XRECORD
  5
DF9C
102
{ACAD_REACTORS
330
DF84
102
}
330
DF84
100
AcDbXrecord
340
0
  0
XRECORD
  5
DF9D
102
{ACAD_REACTORS
330
DF84
102
}
330
DF84
100
AcDbXrecord
 70
     0
  0
XRECORD
  5
DF9E
102
{ACAD_REACTORS
330
DF84
102
}
330
DF84
100
AcDbXrecord
340
0
  0
XRECORD
  5
DF9F
102
{ACAD_REACTORS
330
DF84
102
}
330
DF84
100
AcDbXrecord
 10
0.0
 20
0.0
 30
0.0
  0
XRECORD
  5
DFA0
102
{ACAD_REACTORS
330
DF84
102
}
330
DF84
100
AcDbXrecord
 10
0.0
 20
0.0
 30
0.0
  0
XRECORD
  5
DFA1
102
{ACAD_REACTORS
330
DF84
102
}
330
DF84
100
AcDbXrecord
 10
0.0
 20
0.0
 30
0.0
  0
XRECORD
  5
DFA2
102
{ACAD_REACTORS
330
DF84
102
}
330
DF84
100
AcDbXrecord
 10
0.0
 20
0.0
 30
0.0
  0
XRECORD
  5
DFA3
102
{ACAD_REACTORS
330
DF84
102
}
330
DF84
100
AcDbXrecord
 10
0.0
 20
0.0
 30
0.0
  0
XRECORD
  5
DFA4
102
{ACAD_REACTORS
330
DF84
102
}
330
DF84
100
AcDbXrecord
 10
0.0
 20
0.0
 30
0.0
  0
LAYER_INDEX
  5
DF7B
102
{ACAD_REACTORS
330
DF7A
102
}
330
DF7A
100
AcDbIndex
 40
2453152.380990972
100
AcDbLayerIndex
  8
0
360
DF7C
 90
        0
  8
AM_0
360
DF7D
 90
      110
  8
AM_5
360
DF7E
 90
        8
  8
AM_7
360
DF7F
 90
        1
  8
AM_6
360
DF80
 90
        1
  8
Defpoints
360
DF81
 90
        0
  8
AM_11
360
DF82
 90
        4
  0
XRECORD
  5
2D
102
{ACAD_REACTORS
330
2C
102
}
330
2C
100
AcDbXrecord
  1
VERSION
140
15.0
  1
PRODUCT
  2
AutoCAD Mechanical 2000
  0
IDBUFFER
  5
DF7C
330
0
100
AcDbIdBuffer
  0
IDBUFFER
  5
DF7D
330
0
100
AcDbIdBuffer
330
D274
330
D275
330
D276
330
D277
330
D278
330
D279
330
D27A
330
D6E8
330
D6E9
330
D6EA
330
D6EB
330
D6EC
330
D6ED
330
D6EE
330
D6EF
330
D6F0
330
D6F1
330
D6F2
330
D6F3
330
D6F4
330
D6F5
330
D6F6
330
D6F7
330
D6F8
330
D6F9
330
D6FA
330
D6FB
330
D6FC
330
D6FD
330
D6FE
330
D6FF
330
D700
330
D701
330
D702
330
D703
330
D704
330
D705
330
D706
330
D707
330
D708
330
D709
330
D70A
330
D70B
330
D70C
330
D70D
330
D70E
330
D70F
330
D710
330
D711
330
D712
330
D713
330
D714
330
D715
330
D716
330
D717
330
D718
330
D719
330
D71A
330
D71B
330
D71C
330
D71D
330
D71E
330
D228
330
D229
330
D22A
330
D22B
330
D22C
330
D22D
330
D22E
330
D22F
330
D230
330
D231
330
D232
330
D233
330
D234
330
D235
330
D236
330
D237
330
D239
330
D23A
330
D24B
330
D24C
330
D24D
330
D251
330
D252
330
D253
330
D254
330
D255
330
D256
330
D257
330
D25A
330
D25B
330
D25C
330
D25D
330
D25E
330
D25F
330
D260
330
D266
330
D267
330
D269
330
D26A
330
D26B
330
D26C
330
D26D
330
D26E
330
D26F
330
D270
330
D271
330
D272
330
D273
  0
IDBUFFER
  5
DF7E
330
0
100
AcDbIdBuffer
330
D73B
330
D7E1
330
D87F
330
D918
330
DA46
330
DB35
330
DBF7
330
DD10
  0
IDBUFFER
  5
DF7F
330
0
100
AcDbIdBuffer
330
D23B
  0
IDBUFFER
  5
DF80
330
0
100
AcDbIdBuffer
330
388D
  0
IDBUFFER
  5
DF81
330
0
100
AcDbIdBuffer
  0
IDBUFFER
  5
DF82
330
0
100
AcDbIdBuffer
330
D71F
330
D727
330
D72F
330
D733
  0
ENDSEC
  0
EOF
