  0
SECTION
  2
HEADER
  9
$ACADVER
  1
AC1014
  9
$ACADMAINTVER
 70
     9
  9
$DWGCODEPAGE
  3
ANSI_932
  9
$INSBASE
 10
0.0
 20
0.0
 30
0.0
  9
$EXTMIN
 10
-57.10987634077616
 20
-54.28017816208736
 30
-0.00000001
  9
$EXTMAX
 10
12.49999999999979
 20
40.85000000000013
 30
0.00000001
  9
$LIMMIN
 10
-75.79713978389111
 20
-80.32815948638932
  9
$LIMMAX
 10
124.7745285113038
 20
52.75572685589077
  9
$ORTHOMODE
 70
     0
  9
$REGENMODE
 70
     1
  9
$FILLMODE
 70
     1
  9
$QTEXTMODE
 70
     0
  9
$MIRRTEXT
 70
     0
  9
$DRAGMODE
 70
     2
  9
$LTSCALE
 40
1.0
  9
$OSMODE
 70
    55
  9
$ATTMODE
 70
     1
  9
$TEXTSIZE
 40
2.5
  9
$TRACEWID
 40
1.0
  9
$TEXTSTYLE
  7
STANDARD
  9
$CLAYER
  8
AM_0
  9
$CELTYPE
  6
BYLAYER
  9
$CECOLOR
 62
   256
  9
$CELTSCALE
 40
1.0
  9
$DELOBJ
 70
     1
  9
$DISPSILH
 70
     0
  9
$DIMSCALE
 40
0.5
  9
$DIMASZ
 40
2.5
  9
$DIMEXO
 40
1.0
  9
$DIMDLI
 40
12.0
  9
$DIMRND
 40
0.0
  9
$DIMDLE
 40
0.0
  9
$DIMEXE
 40
1.0
  9
$DIMTP
 40
0.1
  9
$DIMTM
 40
0.1
  9
$DIMTXT
 40
3.2
  9
$DIMCEN
 40
0.0
  9
$DIMTSZ
 40
0.0
  9
$DIMTOL
 70
     0
  9
$DIMLIM
 70
     0
  9
$DIMTIH
 70
     0
  9
$DIMTOH
 70
     0
  9
$DIMSE1
 70
     0
  9
$DIMSE2
 70
     0
  9
$DIMTAD
 70
     3
  9
$DIMZIN
 70
     8
  9
$DIMBLK
  1
OPEN30
  9
$DIMASO
 70
     1
  9
$DIMSHO
 70
     1
  9
$DIMPOST
  1

  9
$DIMAPOST
  1
"
  9
$DIMALT
 70
     0
  9
$DIMALTD
 70
     2
  9
$DIMALTF
 40
0.0393701
  9
$DIMLFAC
 40
1.0
  9
$DIMTOFL
 70
     1
  9
$DIMTVP
 40
0.0
  9
$DIMTIX
 70
     0
  9
$DIMSOXD
 70
     0
  9
$DIMSAH
 70
     0
  9
$DIMBLK1
  1

  9
$DIMBLK2
  1

  9
$DIMSTYLE
  2
AM_JIS
  9
$DIMCLRD
 70
   256
  9
$DIMCLRE
 70
   256
  9
$DIMCLRT
 70
     2
  9
$DIMTFAC
 40
0.71
  9
$DIMGAP
 40
1.5
  9
$DIMJUST
 70
     0
  9
$DIMSD1
 70
     0
  9
$DIMSD2
 70
     0
  9
$DIMTOLJ
 70
     0
  9
$DIMTZIN
 70
     0
  9
$DIMALTZ
 70
     0
  9
$DIMALTTZ
 70
     0
  9
$DIMFIT
 70
     3
  9
$DIMUPT
 70
     0
  9
$DIMUNIT
 70
     2
  9
$DIMDEC
 70
     3
  9
$DIMTDEC
 70
     3
  9
$DIMALTU
 70
     2
  9
$DIMALTTD
 70
     2
  9
$DIMTXSTY
  7
ASAMI
  9
$DIMAUNIT
 70
     0
  9
$LUNITS
 70
     2
  9
$LUPREC
 70
     2
  9
$SKETCHINC
 40
1.0
  9
$FILLETRAD
 40
0.4
  9
$AUNITS
 70
     0
  9
$AUPREC
 70
     0
  9
$MENU
  1
.
  9
$ELEVATION
 40
0.0
  9
$PELEVATION
 40
0.0
  9
$THICKNESS
 40
0.0
  9
$LIMCHECK
 70
     1
  9
$BLIPMODE
 70
     0
  9
$CHAMFERA
 40
1.0
  9
$CHAMFERB
 40
1.0
  9
$CHAMFERC
 40
20.0
  9
$CHAMFERD
 40
0.0
  9
$SKPOLY
 70
     0
  9
$TDCREATE
 40
2452802.716478761
  9
$TDUPDATE
 40
2453152.381094063
  9
$TDINDWG
 40
0.9706280208
  9
$TDUSRTIMER
 40
0.9706280208
  9
$USRTIMER
 70
     1
  9
$ANGBASE
 50
0.0
  9
$ANGDIR
 70
     0
  9
$PDMODE
 70
     0
  9
$PDSIZE
 40
0.0
  9
$PLINEWID
 40
0.0
  9
$COORDS
 70
     1
  9
$SPLFRAME
 70
     0
  9
$SPLINETYPE
 70
     6
  9
$SPLINESEGS
 70
     8
  9
$ATTDIA
 70
     1
  9
$ATTREQ
 70
     1
  9
$HANDLING
 70
 12289
  9
$HANDSEED
  5
FF0E
  9
$SURFTAB1
 70
     6
  9
$SURFTAB2
 70
     6
  9
$SURFTYPE
 70
     6
  9
$SURFU
 70
     6
  9
$SURFV
 70
     6
  9
$UCSNAME
  2

  9
$UCSORG
 10
-0.0000000000002682
 20
0.000000000000161
 30
0.0
  9
$UCSXDIR
 10
1.0
 20
0.000000000000002
 30
0.0
  9
$UCSYDIR
 10
-0.000000000000002
 20
1.0
 30
0.0
  9
$PUCSNAME
  2

  9
$PUCSORG
 10
0.0
 20
0.0
 30
0.0
  9
$PUCSXDIR
 10
1.0
 20
0.0
 30
0.0
  9
$PUCSYDIR
 10
0.0
 20
1.0
 30
0.0
  9
$USERI1
 70
     0
  9
$USERI2
 70
     0
  9
$USERI3
 70
     0
  9
$USERI4
 70
     0
  9
$USERI5
 70
     0
  9
$USERR1
 40
0.0
  9
$USERR2
 40
0.0
  9
$USERR3
 40
0.0
  9
$USERR4
 40
0.0
  9
$USERR5
 40
0.0
  9
$WORLDVIEW
 70
     1
  9
$SHADEDGE
 70
     3
  9
$SHADEDIF
 70
    70
  9
$TILEMODE
 70
     1
  9
$MAXACTVP
 70
    64
  9
$PINSBASE
 10
0.0
 20
0.0
 30
0.0
  9
$PLIMCHECK
 70
     0
  9
$PEXTMIN
 10
1.000000000000000E+20
 20
1.000000000000000E+20
 30
1.000000000000000E+20
  9
$PEXTMAX
 10
-1.000000000000000E+20
 20
-1.000000000000000E+20
 30
-1.000000000000000E+20
  9
$PLIMMIN
 10
0.0
 20
0.0
  9
$PLIMMAX
 10
841.0
 20
594.0
  9
$UNITMODE
 70
     0
  9
$VISRETAIN
 70
     1
  9
$PLINEGEN
 70
     0
  9
$PSLTSCALE
 70
     0
  9
$TREEDEPTH
 70
  3020
  9
$PICKSTYLE
 70
     0
  9
$CMLSTYLE
  2
STANDARD
  9
$CMLJUST
 70
     0
  9
$CMLSCALE
 40
20.0
  9
$PROXYGRAPHICS
 70
     1
  9
$MEASUREMENT
 70
     1
  0
ENDSEC
  0
SECTION
  2
CLASSES
  0
CLASS
  1
ACDBDICTIONARYWDFLT
  2
AcDbDictionaryWithDefault
  3
AutoCAD 2000
 90
        0
280
     0
281
     0
  0
CLASS
  1
ACDBPLACEHOLDER
  2
AcDbPlaceHolder
  3
AutoCAD 2000
 90
        0
280
     0
281
     0
  0
CLASS
  1
LAYOUT
  2
AcDbLayout
  3
AutoCAD 2000
 90
        0
280
     0
281
     0
  0
CLASS
  1
AMGSETTINGSOBJ
  2
AmgSettingsObj
  3
"AcadM|Product Description: AutoCAD Mechanical 2000|Company: Autodesk"
 90
        0
280
     0
281
     0
  0
CLASS
  1
ACME_DOCUMENT
  2
AcMeDbDoc
  3
AcMeServices
 90
        0
280
     0
281
     0
  0
CLASS
  1
ACMESCOPE
  2
AcMeScope
  3
AcMeServices
 90
        0
280
     0
281
     0
  0
CLASS
  1
ACMECOMMANDHISTORY
  2
AcMeCommandHistory
  3
AcMeServices
 90
        0
280
     0
281
     0
  0
CLASS
  1
DICTIONARYVAR
  2
AcDbDictionaryVar
  3
AutoCAD 2000
 90
        0
280
     0
281
     0
  0
CLASS
  1
ACIMSYSVARMAN
  2
AcImSysVarManager
  3
AcMeServices
 90
        0
280
     0
281
     0
  0
CLASS
  1
ACIMREALSYSVAR
  2
AcImRealSysVar
  3
AcMeServices
 90
        0
280
     0
281
     0
  0
CLASS
  1
ACIMINTSYSVAR
  2
AcImIntSysVar
  3
AcMeServices
 90
        0
280
     0
281
     0
  0
CLASS
  1
ACMEDRAWINGMAN
  2
AcMeDrawingMan
  3
AcMeServices
 90
        0
280
     0
281
     0
  0
CLASS
  1
ACMEVIEW
  2
AcMeView
  3
AcMeServices
 90
        0
280
     0
281
     0
  0
CLASS
  1
ACDBENTITYCACHE
  2
AcMeEntityCache
  3
AcMeServices
 90
        0
280
     0
281
     0
  0
CLASS
  1
GSMANAGER
  2
AcMeGSManager
  3
AcMeServices
 90
        0
280
     0
281
     0
  0
CLASS
  1
AmdtInternalReactor
  2
AmdtInternalReactor
  3
AcMeServices
 90
        0
280
     0
281
     0
  0
CLASS
  1
ACMESTATEMGR
  2
AcMeStateMgr
  3
AcMeServices
 90
        0
280
     0
281
     0
  0
CLASS
  1
ACME_DATABASE
  2
AcMeDbDatabase
  3
AcMeServices
 90
        0
280
     0
281
     0
  0
CLASS
  1
ACRFINSADJUSTERMGR
  2
AcRfInsAdjusterMgr
  3
AcMeServices
 90
        0
280
     0
281
     0
  0
CLASS
  1
ACMDATADICTIONARY
  2
AcmDataDictionary
  3
"AcmSymBB|Product Description: AutoCAD Mechanical 2000|Company: Autodesk"
 90
        0
280
     0
281
     0
  0
CLASS
  1
ACMDATAENTRYBLOCK
  2
AcmDataEntryBlock
  3
"AcmSymBB|Product Description: AutoCAD Mechanical 2000|Company: Autodesk"
 90
        0
280
     0
281
     0
  0
CLASS
  1
AMGOBJPROPCFG
  2
AmgObjPropCfg
  3
"AmgLay|Product Description: AutoCAD Mechanical 2000|Company: Autodesk"
 90
        1
280
     0
281
     0
  0
CLASS
  1
ACAMGFILTERDAT
  2
AcAmgFilterDat
  3
"AcadM|Product Description: AutoCAD Mechanical 2000|Company: Autodesk"
 90
        0
280
     0
281
     0
  0
CLASS
  1
LAYER_INDEX
  2
AcDbLayerIndex
  3
AutoCAD 2000
 90
        0
280
     0
281
     0
  0
CLASS
  1
IDBUFFER
  2
AcDbIdBuffer
  3
AutoCAD 2000
 90
        0
280
     0
281
     0
  0
CLASS
  1
ACIMSTRSYSVAR
  2
AcImStrSysVar
  3
AcMeServices
 90
        0
280
     0
281
     0
  0
CLASS
  1
ACMSTANDARDJIS
  2
AcmStandardJIS
  3
"AcmSymBB|Product Description: AutoCAD Mechanical 2000|Company: Autodesk"
 90
        0
280
     0
281
     0
  0
CLASS
  1
ACMSURFSTANDARDJIS
  2
AcmSurfTextStdJIS
  3
"AcmSymBB|Product Description: AutoCAD Mechanical 2000|Company: Autodesk"
 90
        0
280
     0
281
     0
  0
CLASS
  1
ACMFCFSTANDARDJIS
  2
AcmFCFStdJIS
  3
"AcmSymBB|Product Description: AutoCAD Mechanical 2000|Company: Autodesk"
 90
        0
280
     0
281
     0
  0
CLASS
  1
ACMWELDSTANDARDJIS
  2
AcmWeldingStdJIS
  3
"AcmSymBB|Product Description: AutoCAD Mechanical 2000|Company: Autodesk"
 90
        0
280
     0
281
     0
  0
CLASS
  1
ACMIDSTANDARDJIS
  2
AcmIdStdJIS
  3
"AcmSymBB|Product Description: AutoCAD Mechanical 2000|Company: Autodesk"
 90
        0
280
     0
281
     0
  0
CLASS
  1
ACMDATUMSTANDARDJIS
  2
AcmDatumStdJIS
  3
"AcmSymBB|Product Description: AutoCAD Mechanical 2000|Company: Autodesk"
 90
        0
280
     0
281
     0
  0
CLASS
  1
ACMBOMSTANDARDJIS
  2
AcmBOMStdJIS
  3
"AcmSymBB|Product Description: AutoCAD Mechanical 2000|Company: Autodesk"
 90
        0
280
     0
281
     0
  0
CLASS
  1
ACMSTANDARDANSI
  2
AcmStandardANSI
  3
"AcmSymBB|Product Description: AutoCAD Mechanical 2000|Company: Autodesk"
 90
        0
280
     0
281
     0
  0
CLASS
  1
ACMSURFSTANDARDANSI
  2
AcmSurfTextStdANSI
  3
"AcmSymBB|Product Description: AutoCAD Mechanical 2000|Company: Autodesk"
 90
        0
280
     0
281
     0
  0
CLASS
  1
ACMFCFSTANDARDANSI
  2
AcmFCFStdANSI
  3
"AcmSymBB|Product Description: AutoCAD Mechanical 2000|Company: Autodesk"
 90
        0
280
     0
281
     0
  0
CLASS
  1
ACMWELDSTANDARDANSI
  2
AcmWeldingStdANSI
  3
"AcmSymBB|Product Description: AutoCAD Mechanical 2000|Company: Autodesk"
 90
        0
280
     0
281
     0
  0
CLASS
  1
ACMIDSTANDARDANSI
  2
AcmIdStdANSI
  3
"AcmSymBB|Product Description: AutoCAD Mechanical 2000|Company: Autodesk"
 90
        0
280
     0
281
     0
  0
CLASS
  1
ACMDATUMSTANDARDANSI
  2
AcmDatumStdANSI
  3
"AcmSymBB|Product Description: AutoCAD Mechanical 2000|Company: Autodesk"
 90
        0
280
     0
281
     0
  0
CLASS
  1
ACMBOMSTANDARDANSI
  2
AcmBOMStdANSI
  3
"AcmSymBB|Product Description: AutoCAD Mechanical 2000|Company: Autodesk"
 90
        0
280
     0
281
     0
  0
CLASS
  1
ACMSTANDARDBSI
  2
AcmStandardBSI
  3
"AcmSymBB|Product Description: AutoCAD Mechanical 2000|Company: Autodesk"
 90
        0
280
     0
281
     0
  0
CLASS
  1
ACMSURFSTANDARDBSI
  2
AcmSurfTextStdBSI
  3
"AcmSymBB|Product Description: AutoCAD Mechanical 2000|Company: Autodesk"
 90
        0
280
     0
281
     0
  0
CLASS
  1
ACMFCFSTANDARDBSI
  2
AcmFCFStdBSI
  3
"AcmSymBB|Product Description: AutoCAD Mechanical 2000|Company: Autodesk"
 90
        0
280
     0
281
     0
  0
CLASS
  1
ACMWELDSTANDARDBSI
  2
AcmWeldingStdBSI
  3
"AcmSymBB|Product Description: AutoCAD Mechanical 2000|Company: Autodesk"
 90
        0
280
     0
281
     0
  0
CLASS
  1
ACMIDSTANDARDBSI
  2
AcmIdStdBSI
  3
"AcmSymBB|Product Description: AutoCAD Mechanical 2000|Company: Autodesk"
 90
        0
280
     0
281
     0
  0
CLASS
  1
ACMDATUMSTANDARDBSI
  2
AcmDatumStdBSI
  3
"AcmSymBB|Product Description: AutoCAD Mechanical 2000|Company: Autodesk"
 90
        0
280
     0
281
     0
  0
CLASS
  1
ACMBOMSTANDARDBSI
  2
AcmBOMStdBSI
  3
"AcmSymBB|Product Description: AutoCAD Mechanical 2000|Company: Autodesk"
 90
        0
280
     0
281
     0
  0
CLASS
  1
STDPART2D
  2
AmgStdPart
  3
"AmgStdPart|Product Description: AutoCAD Mechanical 2000|Company: Autodesk"
 90
     1023
280
     0
281
     1
  0
CLASS
  1
PLOTSETTINGS
  2
AcDbPlotSettings
  3
AutoCAD 2000
 90
        0
280
     0
281
     0
  0
CLASS
  1
LONG_TRANSACTION
  2
AcDbLongTransaction
  3
AutoCAD 2000
 90
        0
280
     0
281
     0
  0
CLASS
  1
LWPOLYLINE
  2
AcDbPolyline
  3
AutoCAD 2000
 90
        0
280
     0
281
     1
  0
CLASS
  1
HATCH
  2
AcDbHatch
  3
AutoCAD 2000
 90
        0
280
     0
281
     1
  0
CLASS
  1
XRECORD
  2
AcDbXrecord
  3
AutoCAD 2000
 90
        0
280
     0
281
     0
  0
ENDSEC
  0
SECTION
  2
TABLES
  0
TABLE
  2
VPORT
  5
8
330
0
100
AcDbSymbolTable
 70
     3
  0
VPORT
  5
FE9B
330
8
100
AcDbSymbolTableRecord
100
AcDbViewportTableRecord
  2
*ACTIVE
 70
     0
 10
0.0
 20
0.0
 11
1.0
 21
1.0
 12
-19.79276090429346
 22
-4.452480198493653
 13
0.0
 23
0.0
 14
2.5
 24
2.5
 15
10.0
 25
10.0
 16
0.0
 26
0.0
 36
1.0
 17
0.0
 27
0.0
 37
0.0
 40
115.8337394425494
 41
1.56570841889117
 42
50.0
 43
0.0
 44
0.0
 50
0.0
 51
0.0
 71
     0
 72
   100
 73
     1
 74
     3
 75
     0
 76
     0
 77
     0
 78
     0
  0
ENDTAB
  0
TABLE
  2
LTYPE
  5
5
330
0
100
AcDbSymbolTable
 70
    10
  0
LTYPE
  5
14
330
5
100
AcDbSymbolTableRecord
100
AcDbLinetypeTableRecord
  2
BYBLOCK
 70
     0
  3

 72
    65
 73
     0
 40
0.0
  0
LTYPE
  5
15
330
5
100
AcDbSymbolTableRecord
100
AcDbLinetypeTableRecord
  2
BYLAYER
 70
     0
  3

 72
    65
 73
     0
 40
0.0
  0
LTYPE
  5
16
330
5
100
AcDbSymbolTableRecord
100
AcDbLinetypeTableRecord
  2
CONTINUOUS
 70
     0
  3
Solid line
 72
    65
 73
     0
 40
0.0
  0
LTYPE
  5
4B
330
5
100
AcDbSymbolTableRecord
100
AcDbLinetypeTableRecord
  2
AM_ISO02W050
 70
     0
  3
__ __ __ __ __ __ __ __ __ __ __ __ __ __ __
 72
    65
 73
     2
 40
7.5
 49
6.0
 74
     0
 49
-1.5
 74
     0
  0
LTYPE
  5
4C
330
5
100
AcDbSymbolTableRecord
100
AcDbLinetypeTableRecord
  2
AM_ISO08W050
 70
     0
  3
____ . ____ . ____ . ____ . ____ . ____ . ____
 72
    65
 73
     4
 40
18.0
 49
12.0
 74
     0
 49
-1.5
 74
     0
 49
3.0
 74
     0
 49
-1.5
 74
     0
  0
LTYPE
  5
4D
330
5
100
AcDbSymbolTableRecord
100
AcDbLinetypeTableRecord
  2
AM_ISO09W050
 70
     0
  3
_____ . . _____ . . _____ . . ____ .. ____
 72
    65
 73
     6
 40
22.5
 49
12.0
 74
     0
 49
-1.5
 74
     0
 49
3.0
 74
     0
 49
-1.5
 74
     0
 49
3.0
 74
     0
 49
-1.5
 74
     0
  0
LTYPE
  5
4E
330
5
100
AcDbSymbolTableRecord
100
AcDbLinetypeTableRecord
  2
AMCONSTR
 70
     0
  3
_______________________
 72
    65
 73
     2
 40
9999.0
 49
9999.0
 74
     0
 49
0.0
 74
     0
  0
LTYPE
  5
4F
330
5
100
AcDbSymbolTableRecord
100
AcDbLinetypeTableRecord
  2
AM_ISO02W050X2
 70
     0
  3
 _ _ _ _ _ _ _ _ _ _ _ _
 72
    65
 73
     2
 40
3.75
 49
3.0
 74
     0
 49
-0.75
 74
     0
  0
LTYPE
  5
50
330
5
100
AcDbSymbolTableRecord
100
AcDbLinetypeTableRecord
  2
AM_ISO08W050X2
 70
     0
  3
__ . __ . __ . __ . __ . __
 72
    65
 73
     4
 40
9.0
 49
6.0
 74
     0
 49
-0.75
 74
     0
 49
1.5
 74
     0
 49
-0.75
 74
     0
  0
LTYPE
  5
53
330
5
100
AcDbSymbolTableRecord
100
AcDbLinetypeTableRecord
  2
AMZIGZAG
 70
     0
  3
/\/-/\/-/\/-/\/-/\/-/\/
 72
    65
 73
     2
 40
11.00009999999999
 49
0.0001
 74
     4
 75
   135
340
52
 46
0.04
 50
0.0
 44
0.0
 45
0.0
 49
-11.0
 74
     0
  0
LTYPE
  5
166
330
5
100
AcDbSymbolTableRecord
100
AcDbLinetypeTableRecord
  2
ACJISTGL
 70
     0
  3
_ _ _ _ _
 72
    65
 73
     2
 40
3.0
 49
2.0
 74
     0
 49
-1.0
 74
     0
  0
LTYPE
  5
26A
330
5
100
AcDbSymbolTableRecord
100
AcDbLinetypeTableRecord
  2
ACJISTGB
 70
     0
  3
__ . . __ . .
 72
    65
 73
     6
 40
9.0
 49
4.0
 74
     0
 49
-1.0
 74
     0
 49
1.0
 74
     0
 49
-1.0
 74
     0
 49
1.0
 74
     0
 49
-1.0
 74
     0
  0
ENDTAB
  0
TABLE
  2
LAYER
  5
2
330
0
100
AcDbSymbolTable
 70
     7
  0
LAYER
  5
10
330
2
100
AcDbSymbolTableRecord
100
AcDbLayerTableRecord
  2
0
 70
     0
 62
     7
  6
CONTINUOUS
  0
LAYER
  5
3F9
330
2
100
AcDbSymbolTableRecord
100
AcDbLayerTableRecord
  2
AM_0
 70
     0
 62
     7
  6
CONTINUOUS
  0
LAYER
  5
BA4
330
2
100
AcDbSymbolTableRecord
100
AcDbLayerTableRecord
  2
AM_5
 70
     0
 62
     3
  6
CONTINUOUS
  0
LAYER
  5
BA6
330
2
100
AcDbSymbolTableRecord
100
AcDbLayerTableRecord
  2
AM_7
 70
     0
 62
     4
  6
AM_ISO08W050
  0
LAYER
  5
E64
330
2
100
AcDbSymbolTableRecord
100
AcDbLayerTableRecord
  2
AM_6
 70
     0
 62
     2
  6
CONTINUOUS
  0
LAYER
  5
F4D
330
2
100
AcDbSymbolTableRecord
100
AcDbLayerTableRecord
  2
DEFPOINTS
 70
     0
 62
     7
  6
CONTINUOUS
  0
LAYER
  5
4E80
330
2
100
AcDbSymbolTableRecord
100
AcDbLayerTableRecord
  2
AM_11
 70
     0
 62
     3
  6
AM_ISO09W050
  0
ENDTAB
  0
TABLE
  2
STYLE
  5
3
330
0
100
AcDbSymbolTable
 70
     5
  0
STYLE
  5
11
330
3
100
AcDbSymbolTableRecord
100
AcDbTextStyleTableRecord
  2
STANDARD
 70
     0
 40
0.0
 41
1.0
 50
0.0
 71
     0
 42
2.5
  3
simplex.shx
  4
EXTFONT.SHX
  0
STYLE
  5
52
330
3
100
AcDbSymbolTableRecord
100
AcDbTextStyleTableRecord
  2

 70
     1
 40
0.0
 41
1.0
 50
0.0
 71
     0
 42
2.5
  3
ltypeshp.shx
  4

  0
STYLE
  5
6B
330
3
100
AcDbSymbolTableRecord
100
AcDbTextStyleTableRecord
  2
ASAMI
 70
     0
 40
0.0
 41
1.0
 50
0.0
 71
     0
 42
2.5
  3
simplex.shx
  4
EXTFONT.SHX
  0
STYLE
  5
262
330
3
100
AcDbSymbolTableRecord
100
AcDbTextStyleTableRecord
  2
ACJISTS
 70
     0
 40
1.0
 41
1.0
 50
0.0
 71
     0
 42
2.5
  3
simplex.shx
  4
bigfont.shx
  0
STYLE
  5
269
330
3
100
AcDbSymbolTableRecord
100
AcDbTextStyleTableRecord
  2
ACJISGDT
 70
     0
 40
0.0
 41
1.0
 50
0.0
 71
     0
 42
2.5
  3
amgdtans.shx
  4

  0
ENDTAB
  0
TABLE
  2
VIEW
  5
6
330
0
100
AcDbSymbolTable
 70
     0
  0
ENDTAB
  0
TABLE
  2
UCS
  5
7
330
0
100
AcDbSymbolTable
 70
     0
  0
ENDTAB
  0
TABLE
  2
APPID
  5
9
330
0
100
AcDbSymbolTable
 70
    24
  0
APPID
  5
12
330
9
100
AcDbSymbolTableRecord
100
AcDbRegAppTableRecord
  2
ACAD
 70
     0
  0
APPID
  5
30
330
9
100
AcDbSymbolTableRecord
100
AcDbRegAppTableRecord
  2
MCAD_NO_VIS
 70
     0
  0
APPID
  5
31
330
9
100
AcDbSymbolTableRecord
100
AcDbRegAppTableRecord
  2
ACAD_TEMP_GRAPHIC
 70
     0
  0
APPID
  5
2C2
330
9
100
AcDbSymbolTableRecord
100
AcDbRegAppTableRecord
  2
GENIUS_GENDTOL_13
 70
     0
  0
APPID
  5
339
330
9
100
AcDbSymbolTableRecord
100
AcDbRegAppTableRecord
  2
GENIUS_GENODEF_13
 70
     0
  0
APPID
  5
33A
330
9
100
AcDbSymbolTableRecord
100
AcDbRegAppTableRecord
  2
GENIUS_GENOBJ-N-RSBK_13
 70
     0
  0
APPID
  5
33B
330
9
100
AcDbSymbolTableRecord
100
AcDbRegAppTableRecord
  2
GENIUS_GENOBJ-N-LIB_13
 70
     0
  0
APPID
  5
33C
330
9
100
AcDbSymbolTableRecord
100
AcDbRegAppTableRecord
  2
GENIUS_GENSCALE_13
 70
     0
  0
APPID
  5
378
330
9
100
AcDbSymbolTableRecord
100
AcDbRegAppTableRecord
  2
GENIUS_GENDIMSH_14
 70
     0
  0
APPID
  5
BB0
330
9
100
AcDbSymbolTableRecord
100
AcDbRegAppTableRecord
  2
GENIUS_GENOBJ-N-CEN_13
 70
     0
  0
APPID
  5
BB1
330
9
100
AcDbSymbolTableRecord
100
AcDbRegAppTableRecord
  2
GENIUS_GENFIL_13
 70
     0
  0
APPID
  5
BB2
330
9
100
AcDbSymbolTableRecord
100
AcDbRegAppTableRecord
  2
GENIUS_GENOBJ-N-CHA_13
 70
     0
  0
APPID
  5
1FAF
330
9
100
AcDbSymbolTableRecord
100
AcDbRegAppTableRecord
  2
GENIUS_GENOBJ-N-CRS_13
 70
     0
  0
APPID
  5
1FB0
330
9
100
AcDbSymbolTableRecord
100
AcDbRegAppTableRecord
  2
GENIUS_GENOENT_13
 70
     0
  0
APPID
  5
1FB1
330
9
100
AcDbSymbolTableRecord
100
AcDbRegAppTableRecord
  2
GENIUS_GENOREF_13
 70
     0
  0
APPID
  5
1FB2
330
9
100
AcDbSymbolTableRecord
100
AcDbRegAppTableRecord
  2
GENIUS_GENOLIS_13
 70
     0
  0
APPID
  5
1FB7
330
9
100
AcDbSymbolTableRecord
100
AcDbRegAppTableRecord
  2
GENIUS_GENOBJ-N-FIL_13
 70
     0
  0
APPID
  5
22A8
330
9
100
AcDbSymbolTableRecord
100
AcDbRegAppTableRecord
  2
GEVID1056506048
 70
     0
  0
APPID
  5
22A9
330
9
100
AcDbSymbolTableRecord
100
AcDbRegAppTableRecord
  2
GEVDC
 70
     0
  0
APPID
  5
22AC
330
9
100
AcDbSymbolTableRecord
100
AcDbRegAppTableRecord
  2
GENIUS_GENBH_13
 70
     0
  0
APPID
  5
22B8
330
9
100
AcDbSymbolTableRecord
100
AcDbRegAppTableRecord
  2
GENIUS_GENOBJ-NBEHI-BHF_13
 70
     0
  0
APPID
  5
22BA
330
9
100
AcDbSymbolTableRecord
100
AcDbRegAppTableRecord
  2
GENIUS_GENOBJ-NBEHI-BHB_13
 70
     0
  0
APPID
  5
35C9
330
9
100
AcDbSymbolTableRecord
100
AcDbRegAppTableRecord
  2
GENIUS_GENREC_14
 70
     0
  0
APPID
  5
35CA
330
9
100
AcDbSymbolTableRecord
100
AcDbRegAppTableRecord
  2
GENIUS_GENOBJ-N-REC_13
 70
     0
  0
ENDTAB
  0
TABLE
  2
DIMSTYLE
  5
A
330
0
100
AcDbSymbolTable
 70
     9
  0
DIMSTYLE
105
58
330
A
100
AcDbSymbolTableRecord
100
AcDbDimStyleTableRecord
  2
AM_JIS
 70
     0
  3

  4
"
  5
OPEN30
  6

  7

 40
0.5
 41
2.5
 42
1.0
 43
12.0
 44
1.0
 45
0.0
 46
0.0
 47
0.1
 48
0.1
140
3.2
141
0.0
142
0.0
143
0.0393701
144
1.0
145
0.0
146
0.71
147
1.5
 71
     0
 72
     0
 73
     0
 74
     0
 75
     0
 76
     0
 77
     3
 78
     8
170
     0
171
     2
172
     1
173
     0
174
     0
175
     0
176
   256
177
   256
178
     2
270
     2
271
     3
272
     3
273
     2
274
     2
340
6B
275
     0
280
     0
281
     0
282
     0
283
     0
284
     0
285
     0
286
     0
287
     3
288
     0
  0
DIMSTYLE
105
5F
330
A
100
AcDbSymbolTableRecord
100
AcDbDimStyleTableRecord
  2
AM_JIS$3
 70
     0
  3

  4
"
  5
OPEN30
  6

  7

 40
0.5
 41
2.5
 42
1.0
 43
10.0
 44
1.0
 45
0.0
 46
0.0
 47
0.1
 48
0.1
140
3.2
141
0.0
142
0.0
143
0.0393701
144
1.0
145
0.0
146
0.71
147
1.5
 71
     0
 72
     0
 73
     0
 74
     1
 75
     0
 76
     0
 77
     3
 78
     8
170
     0
171
     2
172
     0
173
     0
174
     0
175
     0
176
   256
177
   256
178
     2
270
     2
271
     2
272
     3
273
     2
274
     2
340
6B
275
     0
280
     0
281
     0
282
     0
283
     0
284
     0
285
     0
286
     0
287
     0
288
     1
  0
DIMSTYLE
105
60
330
A
100
AcDbSymbolTableRecord
100
AcDbDimStyleTableRecord
  2
AM_JIS$4
 70
     0
  3

  4
"
  5
OPEN30
  6

  7

 40
0.5
 41
2.5
 42
1.0
 43
10.0
 44
1.0
 45
0.0
 46
0.0
 47
0.1
 48
0.1
140
3.2
141
0.0
142
0.0
143
0.0393701
144
1.0
145
0.0
146
0.71
147
1.5
 71
     0
 72
     0
 73
     0
 74
     1
 75
     0
 76
     0
 77
     3
 78
     8
170
     0
171
     2
172
     0
173
     0
174
     0
175
     0
176
   256
177
   256
178
     2
270
     2
271
     2
272
     3
273
     2
274
     2
340
6B
275
     0
280
     0
281
     0
282
     0
283
     0
284
     0
285
     0
286
     0
287
     0
288
     1
  0
DIMSTYLE
105
61
330
A
100
AcDbSymbolTableRecord
100
AcDbDimStyleTableRecord
  2
AM_JIS$6
 70
     0
  3

  4
"
  5
OPEN30
  6

  7

 40
0.5
 41
2.5
 42
1.0
 43
10.0
 44
1.0
 45
0.0
 46
0.0
 47
0.1
 48
0.1
140
3.2
141
0.0
142
0.0
143
0.0393701
144
1.0
145
0.0
146
0.71
147
1.5
 71
     0
 72
     0
 73
     0
 74
     0
 75
     0
 76
     0
 77
     0
 78
     8
170
     0
171
     2
172
     1
173
     0
174
     0
175
     0
176
   256
177
   256
178
     2
270
     2
271
     2
272
     2
273
     2
274
     2
340
6B
275
     0
280
     0
281
     0
282
     0
283
     0
284
     0
285
     0
286
     0
287
     3
288
     0
  0
DIMSTYLE
105
62
330
A
100
AcDbSymbolTableRecord
100
AcDbDimStyleTableRecord
  2
AM_JIS$7
 70
     0
  3

  4
"
  5
OPEN30
  6

  7

 40
0.5
 41
2.5
 42
1.0
 43
10.0
 44
1.0
 45
0.0
 46
0.0
 47
0.1
 48
0.1
140
3.2
141
0.0
142
0.0
143
0.0393701
144
1.0
145
0.0
146
0.71
147
1.5
 71
     0
 72
     0
 73
     0
 74
     0
 75
     0
 76
     0
 77
     3
 78
     8
170
     0
171
     2
172
     1
173
     0
174
     0
175
     0
176
   256
177
   256
178
     2
270
     2
271
     2
272
     3
273
     2
274
     2
340
6B
275
     0
280
     0
281
     0
282
     0
283
     0
284
     0
285
     0
286
     0
287
     3
288
     0
  0
DIMSTYLE
105
63
330
A
100
AcDbSymbolTableRecord
100
AcDbDimStyleTableRecord
  2
AM_JIS$SF
 70
     0
  3

  4
"
  5
OPEN30
  6

  7

 40
0.5
 41
2.5
 42
1.0
 43
10.0
 44
1.0
 45
0.0
 46
0.0
 47
0.1
 48
0.1
140
3.2
141
0.0
142
0.0
143
0.0393701
144
1.0
145
0.0
146
0.71
147
1.5
 71
     0
 72
     0
 73
     0
 74
     0
 75
     1
 76
     1
 77
     3
 78
     8
170
     0
171
     2
172
     1
173
     0
174
     0
175
     0
176
   256
177
   256
178
     2
270
     2
271
     2
272
     2
273
     2
274
     2
340
6B
275
     0
280
     0
281
     0
282
     0
283
     0
284
     0
285
     0
286
     0
287
     3
288
     0
  0
DIMSTYLE
105
68
330
A
100
AcDbSymbolTableRecord
100
AcDbDimStyleTableRecord
  2
AM_JIS$SH
 70
     0
  3

  4
"
  5

  6
GENAXEH
  7
OPEN30
 40
0.5
 41
2.5
 42
1.0
 43
10.0
 44
1.0
 45
0.0
 46
0.0
 47
0.1
 48
0.1
140
3.2
141
0.0
142
0.0
143
0.0393701
144
2.0
145
0.0
146
0.71
147
1.5
 71
     0
 72
     0
 73
     0
 74
     0
 75
     1
 76
     1
 77
     3
 78
     8
170
     0
171
     2
172
     1
173
     1
174
     0
175
     0
176
   256
177
   256
178
     2
270
     2
271
     2
272
     2
273
     2
274
     2
340
6B
275
     0
280
     0
281
     0
282
     0
283
     0
284
     0
285
     0
286
     0
287
     3
288
     0
  0
DIMSTYLE
105
B34
330
A
100
AcDbSymbolTableRecord
100
AcDbDimStyleTableRecord
  2
AM_JIS$2
 70
     0
  3

  4
"
  5
OPEN30
  6

  7

 40
0.5
 41
2.5
 42
1.0
 43
12.0
 44
1.0
 45
0.0
 46
0.0
 47
0.1
 48
0.1
140
3.2
141
0.0
142
0.0
143
0.0393701
144
1.0
145
0.0
146
0.71
147
1.5
 71
     0
 72
     0
 73
     0
 74
     0
 75
     0
 76
     0
 77
     3
 78
     8
170
     0
171
     2
172
     1
173
     0
174
     0
175
     0
176
   256
177
   256
178
     2
270
     2
271
     3
272
     3
273
     2
274
     2
340
6B
275
     0
280
     0
281
     0
282
     0
283
     0
284
     0
285
     0
286
     0
287
     3
288
     0
  0
DIMSTYLE
105
3B48
102
{ACAD_REACTORS
330
F69E
330
F744
330
F7E2
330
F87B
330
F914
330
FAB3
330
FB62
330
FBF7
102
}
330
A
100
AcDbSymbolTableRecord
100
AcDbDimStyleTableRecord
  2
AM_JIS$0
 70
     0
  3

  4
"
  5
OPEN30
  6

  7

 40
1.0
 41
2.5
 42
0.0
 43
10.0
 44
1.0
 45
0.0
 46
0.0
 47
0.1
 48
0.1000000001
140
3.799999999999999
141
0.0
142
0.0
143
0.0393701
144
1.0
145
0.0
146
0.71
147
1.5
 71
     0
 72
     0
 73
     0
 74
     0
 75
     0
 76
     0
 77
     3
 78
     1
170
     0
171
     2
172
     1
173
     0
174
     0
175
     0
176
     3
177
     3
178
     2
270
     2
271
     2
272
     2
273
     2
274
     2
340
11
275
     1
280
     0
281
     0
282
     0
283
     0
284
     8
285
     0
286
     0
287
     0
288
     0
  0
ENDTAB
  0
TABLE
  2
BLOCK_RECORD
  5
1
330
0
100
AcDbSymbolTable
 70
    13
  0
BLOCK_RECORD
  5
1F
102
{ACAD_XDICTIONARY
360
74
102
}
330
1
100
AcDbSymbolTableRecord
100
AcDbBlockTableRecord
  2
*MODEL_SPACE
  0
BLOCK_RECORD
  5
101
102
{ACAD_XDICTIONARY
360
FEC4
102
}
330
1
100
AcDbSymbolTableRecord
100
AcDbBlockTableRecord
  2
*PAPER_SPACE
  0
BLOCK_RECORD
  5
59
330
1
100
AcDbSymbolTableRecord
100
AcDbBlockTableRecord
  2
_OPEN30
  0
BLOCK_RECORD
  5
64
330
1
100
AcDbSymbolTableRecord
100
AcDbBlockTableRecord
  2
GENAXEH
  0
BLOCK_RECORD
  5
F69F
330
1
100
AcDbSymbolTableRecord
100
AcDbBlockTableRecord
  2
*D5
  0
BLOCK_RECORD
  5
F745
330
1
100
AcDbSymbolTableRecord
100
AcDbBlockTableRecord
  2
*D6
  0
BLOCK_RECORD
  5
F7E3
330
1
100
AcDbSymbolTableRecord
100
AcDbBlockTableRecord
  2
*D7
  0
BLOCK_RECORD
  5
F87C
330
1
100
AcDbSymbolTableRecord
100
AcDbBlockTableRecord
  2
*D8
  0
BLOCK_RECORD
  5
F915
330
1
100
AcDbSymbolTableRecord
100
AcDbBlockTableRecord
  2
*D9
  0
BLOCK_RECORD
  5
FAB4
330
1
100
AcDbSymbolTableRecord
100
AcDbBlockTableRecord
  2
*D10
  0
BLOCK_RECORD
  5
FB63
330
1
100
AcDbSymbolTableRecord
100
AcDbBlockTableRecord
  2
*D11
  0
BLOCK_RECORD
  5
FBF8
330
1
100
AcDbSymbolTableRecord
100
AcDbBlockTableRecord
  2
*D12
  0
ENDTAB
  0
ENDSEC
  0
SECTION
  2
BLOCKS
  0
BLOCK
  5
20
330
1F
100
AcDbEntity
  8
0
100
AcDbBlockBegin
  2
*MODEL_SPACE
 70
     0
 10
0.0
 20
0.0
 30
0.0
  3
*MODEL_SPACE
  1

  0
ENDBLK
  5
21
330
1F
100
AcDbEntity
  8
0
100
AcDbBlockEnd
  0
BLOCK
  5
103
330
101
100
AcDbEntity
 67
     1
  8
0
100
AcDbBlockBegin
  2
*PAPER_SPACE
 70
     0
 10
0.0
 20
0.0
 30
0.0
  3
*PAPER_SPACE
  1

  0
ENDBLK
  5
104
330
101
100
AcDbEntity
 67
     1
  8
0
100
AcDbBlockEnd
  0
BLOCK
  5
5D
330
59
100
AcDbEntity
  8
0
100
AcDbBlockBegin
  2
_OPEN30
 70
     0
 10
0.0
 20
0.0
 30
0.0
  3
_OPEN30
  1

  0
LINE
  5
5A
330
59
100
AcDbEntity
  8
0
 62
     0
100
AcDbLine
 10
-1.0
 20
0.26794919
 30
0.0
 11
0.0
 21
0.0
 31
0.0
  0
LINE
  5
5B
330
59
100
AcDbEntity
  8
0
 62
     0
100
AcDbLine
 10
0.0
 20
0.0
 30
0.0
 11
-1.0
 21
-0.26794919
 31
0.0
  0
LINE
  5
5C
330
59
100
AcDbEntity
  8
0
 62
     0
100
AcDbLine
 10
0.0
 20
0.0
 30
0.0
 11
-1.0
 21
0.0
 31
0.0
  0
ENDBLK
  5
5E
330
59
100
AcDbEntity
  8
0
100
AcDbBlockEnd
  0
BLOCK
  5
66
330
64
100
AcDbEntity
  8
0
100
AcDbBlockBegin
  2
GENAXEH
 70
     0
 10
0.0
 20
0.0
 30
0.0
  3
GENAXEH
  1

  0
LINE
  5
65
330
64
100
AcDbEntity
  8
0
100
AcDbLine
 10
-1.0
 20
0.0
 30
0.0
 11
1.0
 21
0.0
 31
0.0
  0
ENDBLK
  5
67
330
64
100
AcDbEntity
  8
0
100
AcDbBlockEnd
  0
BLOCK
  5
F6A9
330
F69F
100
AcDbEntity
  8
0
100
AcDbBlockBegin
  2
*D5
 70
     1
 10
0.0
 20
0.0
 30
0.0
  3
*D5
  1

  0
LINE
  5
FEC6
330
F69F
100
AcDbEntity
  8
AM_5
100
AcDbLine
 10
-0.0000000000003835
 20
32.00000000000014
 30
0.0
 11
-0.0000000000003848
 21
39.00000000000012
 31
0.0
  0
LINE
  5
FEC7
330
F69F
100
AcDbEntity
  8
AM_5
100
AcDbLine
 10
-6.00000000000039
 20
32.00000000000013
 30
0.0
 11
-6.000000000000391
 21
39.00000000000012
 31
0.0
  0
LINE
  5
FEC8
330
F69F
100
AcDbEntity
  8
AM_5
100
AcDbLine
 10
-1.250000000000384
 20
38.50000000000012
 30
0.0
 11
-4.750000000000392
 21
38.50000000000012
 31
0.0
  0
INSERT
  5
FEC9
330
F69F
100
AcDbEntity
  8
AM_5
100
AcDbBlockReference
  2
_OPEN30
 10
-0.0000000000003847
 20
38.50000000000012
 30
0.0
 41
1.25
 42
1.25
 43
1.25
  0
INSERT
  5
FECA
330
F69F
100
AcDbEntity
  8
AM_5
100
AcDbBlockReference
  2
_OPEN30
 10
-6.000000000000392
 20
38.50000000000012
 30
0.0
 41
1.25
 42
1.25
 43
1.25
 50
180.0
  0
MTEXT
  5
FECB
330
F69F
100
AcDbEntity
  8
AM_5
 62
     2
100
AcDbMText
 10
-3.000000000000389
 20
40.05000000000012
 30
0.0
 40
1.6
 41
0.0
 71
     5
 72
     1
  1
6
  7
ASAMI
  0
POINT
  5
FECC
330
F69F
100
AcDbEntity
  8
DEFPOINTS
 62
     0
100
AcDbPoint
 10
-0.0000000000003197
 20
31.50000000000014
 30
0.0
  0
POINT
  5
FECD
330
F69F
100
AcDbEntity
  8
DEFPOINTS
 62
     0
100
AcDbPoint
 10
-6.000000000000326
 20
31.50000000000014
 30
0.0
  0
POINT
  5
FECE
330
F69F
100
AcDbEntity
  8
DEFPOINTS
 62
     0
100
AcDbPoint
 10
-6.000000000000314
 20
38.50000000000014
 30
0.0
  0
ENDBLK
  5
F6AA
330
F69F
100
AcDbEntity
  8
0
100
AcDbBlockEnd
  0
BLOCK
  5
F74F
330
F745
100
AcDbEntity
  8
0
100
AcDbBlockBegin
  2
*D6
 70
     1
 10
0.0
 20
0.0
 30
0.0
  3
*D6
  1

  0
LINE
  5
FECF
330
F745
100
AcDbEntity
  8
AM_5
100
AcDbLine
 10
0.4999999999995961
 20
31.50000000000017
 30
0.0
 11
12.49999999999967
 21
31.50000000000019
 31
0.0
  0
LINE
  5
FED0
330
F745
100
AcDbEntity
  8
AM_5
100
AcDbLine
 10
0.499999999999864
 20
-31.49999999999987
 30
0.0
 11
12.49999999999979
 21
-31.49999999999984
 31
0.0
  0
LINE
  5
FED1
330
F745
100
AcDbEntity
  8
AM_5
100
AcDbLine
 10
11.99999999999967
 20
30.25000000000019
 30
0.0
 11
11.99999999999979
 21
-30.24999999999984
 31
0.0
  0
INSERT
  5
FED2
330
F745
100
AcDbEntity
  8
AM_5
100
AcDbBlockReference
  2
_OPEN30
 10
11.99999999999967
 20
31.50000000000019
 30
0.0
 41
1.25
 42
1.25
 43
1.25
 50
90.0000000000001
  0
INSERT
  5
FED3
330
F745
100
AcDbEntity
  8
AM_5
100
AcDbBlockReference
  2
_OPEN30
 10
11.99999999999979
 20
-31.49999999999984
 30
0.0
 41
1.25
 42
1.25
 43
1.25
 50
270.0000000000001
  0
MTEXT
  5
FED4
330
F745
100
AcDbEntity
  8
AM_5
 62
     2
100
AcDbMText
 10
10.44999999999973
 20
0.0000000000001698
 30
0.0
 40
1.6
 41
0.0
 71
     5
 72
     1
  1
%%c63
  7
ASAMI
 11
-0.000000000000002
 21
1.0
 31
0.0
  0
POINT
  5
FED5
330
F745
100
AcDbEntity
  8
DEFPOINTS
 62
     0
100
AcDbPoint
 10
-0.000000000000334
 20
31.50000000000017
 30
0.0
  0
POINT
  5
FED6
330
F745
100
AcDbEntity
  8
DEFPOINTS
 62
     0
100
AcDbPoint
 10
-0.0000000000002061
 20
-31.49999999999987
 30
0.0
  0
POINT
  5
FED7
330
F745
100
AcDbEntity
  8
DEFPOINTS
 62
     0
100
AcDbPoint
 10
11.99999999999972
 20
-31.49999999999987
 30
0.0
  0
ENDBLK
  5
F750
330
F745
100
AcDbEntity
  8
0
100
AcDbBlockEnd
  0
BLOCK
  5
F7ED
330
F7E3
100
AcDbEntity
  8
0
100
AcDbBlockBegin
  2
*D7
 70
     1
 10
0.0
 20
0.0
 30
0.0
  3
*D7
  1

  0
LINE
  5
FED8
330
F7E3
100
AcDbEntity
  8
AM_5
100
AcDbLine
 10
-14.50001525879028
 20
4.500000000000109
 30
0.0
 11
7.499999999999722
 21
4.500000000000151
 31
0.0
  0
LINE
  5
FED9
330
F7E3
100
AcDbEntity
  8
AM_5
100
AcDbLine
 10
-14.50001525879025
 20
-4.499999999999904
 30
0.0
 11
7.49999999999974
 21
-4.499999999999862
 31
0.0
  0
LINE
  5
FEDA
330
F7E3
100
AcDbEntity
  8
AM_5
100
AcDbLine
 10
6.999999999999724
 20
3.25000000000015
 30
0.0
 11
6.999999999999737
 21
-3.249999999999863
 31
0.0
  0
INSERT
  5
FEDB
330
F7E3
100
AcDbEntity
  8
AM_5
100
AcDbBlockReference
  2
_OPEN30
 10
6.999999999999722
 20
4.50000000000015
 30
0.0
 41
1.25
 42
1.25
 43
1.25
 50
90.0000000000001
  0
INSERT
  5
FEDC
330
F7E3
100
AcDbEntity
  8
AM_5
100
AcDbBlockReference
  2
_OPEN30
 10
6.999999999999739
 20
-4.499999999999863
 30
0.0
 41
1.25
 42
1.25
 43
1.25
 50
270.0000000000001
  0
MTEXT
  5
FEDD
330
F7E3
100
AcDbEntity
  8
AM_5
 62
     2
100
AcDbMText
 10
5.449999999999731
 20
0.0000000000001405
 30
0.0
 40
1.6
 41
0.0
 71
     5
 72
     1
  1
%%c9
  7
ASAMI
 11
-0.000000000000002
 21
1.0
 31
0.0
  0
POINT
  5
FEDE
330
F7E3
100
AcDbEntity
  8
DEFPOINTS
 62
     0
100
AcDbPoint
 10
-15.00001525879027
 20
4.500000000000142
 30
0.0
  0
POINT
  5
FEDF
330
F7E3
100
AcDbEntity
  8
DEFPOINTS
 62
     0
100
AcDbPoint
 10
-15.00001525879026
 20
-4.499999999999872
 30
0.0
  0
POINT
  5
FEE0
330
F7E3
100
AcDbEntity
  8
DEFPOINTS
 62
     0
100
AcDbPoint
 10
6.999999999999729
 20
-4.499999999999879
 30
0.0
  0
ENDBLK
  5
F7EE
330
F7E3
100
AcDbEntity
  8
0
100
AcDbBlockEnd
  0
BLOCK
  5
F886
330
F87C
100
AcDbEntity
  8
0
100
AcDbBlockBegin
  2
*D8
 70
     1
 10
0.0
 20
0.0
 30
0.0
  3
*D8
  1

  0
LINE
  5
FEE1
330
F87C
100
AcDbEntity
  8
AM_5
100
AcDbLine
 10
-39.50001525879028
 20
3.999999999999997
 30
0.0
 11
-50.91652084923673
 21
3.999999999999975
 31
0.0
  0
LINE
  5
FEE2
330
F87C
100
AcDbEntity
  8
AM_5
100
AcDbLine
 10
-39.50001525879025
 20
-4.000007629390014
 30
0.0
 11
-50.91652084923671
 21
-4.000007629390037
 31
0.0
  0
LINE
  5
FEE3
330
F87C
100
AcDbEntity
  8
AM_5
100
AcDbLine
 10
-50.41652084923672
 20
2.749999999999976
 30
0.0
 11
-50.41652084923671
 21
-2.750007629390035
 31
0.0
  0
INSERT
  5
FEE4
330
F87C
100
AcDbEntity
  8
AM_5
100
AcDbBlockReference
  2
_OPEN30
 10
-50.41652084923672
 20
3.999999999999976
 30
0.0
 41
1.25
 42
1.25
 43
1.25
 50
90.0000000000001
  0
INSERT
  5
FEE5
330
F87C
100
AcDbEntity
  8
AM_5
100
AcDbBlockReference
  2
_OPEN30
 10
-50.41652084923671
 20
-4.000007629390035
 30
0.0
 41
1.25
 42
1.25
 43
1.25
 50
270.0000000000001
  0
MTEXT
  5
FEE6
330
F87C
100
AcDbEntity
  8
AM_5
 62
     2
100
AcDbMText
 10
-51.96652084923671
 20
-0.0000038146950306
 30
0.0
 40
1.6
 41
0.0
 71
     5
 72
     1
  1
8
  7
ASAMI
 11
-0.000000000000002
 21
1.0
 31
0.0
  0
POINT
  5
FEE7
330
F87C
100
AcDbEntity
  8
DEFPOINTS
 62
     0
100
AcDbPoint
 10
-39.00001525879027
 20
4.000000000000085
 30
0.0
  0
POINT
  5
FEE8
330
F87C
100
AcDbEntity
  8
DEFPOINTS
 62
     0
100
AcDbPoint
 10
-39.00001525879026
 20
-4.000007629389926
 30
0.0
  0
POINT
  5
FEE9
330
F87C
100
AcDbEntity
  8
DEFPOINTS
 62
     0
100
AcDbPoint
 10
-50.41652084923672
 20
-4.000007629389923
 30
0.0
  0
ENDBLK
  5
F887
330
F87C
100
AcDbEntity
  8
0
100
AcDbBlockEnd
  0
BLOCK
  5
F91F
330
F915
100
AcDbEntity
  8
0
100
AcDbBlockBegin
  2
*D9
 70
     1
 10
0.0
 20
0.0
 30
0.0
  3
*D9
  1

  0
LINE
  5
FEEA
330
F915
100
AcDbEntity
  8
AM_5
100
AcDbLine
 10
-39.50001525879031
 20
11.11250305174996
 30
0.0
 11
-55.25987634077619
 21
11.11250305174993
 31
0.0
  0
LINE
  5
FEEB
330
F915
100
AcDbEntity
  8
AM_5
100
AcDbLine
 10
-39.50001525879022
 20
-11.11250305174999
 30
0.0
 11
-55.25987634077615
 21
-11.11250305175002
 31
0.0
  0
LINE
  5
FEEC
330
F915
100
AcDbEntity
  8
AM_5
100
AcDbLine
 10
-54.75987634077619
 20
9.862503051749936
 30
0.0
 11
-54.75987634077615
 21
-9.862503051750028
 31
0.0
  0
INSERT
  5
FEED
330
F915
100
AcDbEntity
  8
AM_5
100
AcDbBlockReference
  2
_OPEN30
 10
-54.75987634077619
 20
11.11250305174993
 30
0.0
 41
1.25
 42
1.25
 43
1.25
 50
90.0000000000001
  0
INSERT
  5
FEEE
330
F915
100
AcDbEntity
  8
AM_5
100
AcDbBlockReference
  2
_OPEN30
 10
-54.75987634077615
 20
-11.11250305175002
 30
0.0
 41
1.25
 42
1.25
 43
1.25
 50
270.0000000000001
  0
MTEXT
  5
FEEF
330
F915
100
AcDbEntity
  8
AM_5
 62
     2
100
AcDbMText
 10
-56.30987634077617
 20
-0.0000000000000463
 30
0.0
 40
1.6
 41
0.0
 71
     5
 72
     1
  1
%%c22.225
  7
ASAMI
 11
-0.000000000000002
 21
1.0
 31
0.0
  0
POINT
  5
FEF0
330
F915
100
AcDbEntity
  8
DEFPOINTS
 62
     0
100
AcDbPoint
 10
-39.00001525879029
 20
11.11250305175005
 30
0.0
  0
POINT
  5
FEF1
330
F915
100
AcDbEntity
  8
DEFPOINTS
 62
     0
100
AcDbPoint
 10
-39.00001525879024
 20
-11.11250305174991
 30
0.0
  0
POINT
  5
FEF2
330
F915
100
AcDbEntity
  8
DEFPOINTS
 62
     0
100
AcDbPoint
 10
-54.75987634077617
 20
-11.1125030517499
 30
0.0
  0
ENDBLK
  5
F920
330
F915
100
AcDbEntity
  8
0
100
AcDbBlockEnd
  0
BLOCK
  5
FABE
330
FAB4
100
AcDbEntity
  8
0
100
AcDbBlockBegin
  2
*D10
 70
     1
 10
0.0
 20
0.0
 30
0.0
  3
*D10
  1

  0
LINE
  5
FEF3
330
FAB4
100
AcDbEntity
  8
AM_5
100
AcDbLine
 10
-40.00001525879018
 20
-18.50000745454441
 30
0.0
 11
-40.00001525879016
 21
-33.18689582180381
 31
0.0
  0
LINE
  5
FEF4
330
FAB4
100
AcDbEntity
  8
AM_5
100
AcDbLine
 10
-35.00001525879025
 20
-4.5
 30
0.0
 11
-35.0000152587902
 21
-33.1868958218038
 31
0.0
  0
LINE
  5
FEF5
330
FAB4
100
AcDbEntity
  8
AM_5
100
AcDbLine
 10
-38.75001525879016
 20
-32.6868958218038
 30
0.0
 11
-36.2500152587902
 21
-32.6868958218038
 31
0.0
  0
INSERT
  5
FEF6
330
FAB4
100
AcDbEntity
  8
AM_5
100
AcDbBlockReference
  2
_OPEN30
 10
-40.00001525879016
 20
-32.6868958218038
 30
0.0
 41
1.25
 42
1.25
 43
1.25
 50
180.0000000000001
  0
INSERT
  5
FEF7
330
FAB4
100
AcDbEntity
  8
AM_5
100
AcDbBlockReference
  2
_OPEN30
 10
-35.0000152587902
 20
-32.6868958218038
 30
0.0
 41
1.25
 42
1.25
 43
1.25
 50
0.0000000000001018
  0
MTEXT
  5
FEF8
330
FAB4
100
AcDbEntity
  8
AM_5
 62
     2
100
AcDbMText
 10
-37.50001525879017
 20
-31.1368958218038
 30
0.0
 40
1.6
 41
0.0
 71
     5
 72
     1
  1
5
  7
ASAMI
  0
POINT
  5
FEF9
330
FAB4
100
AcDbEntity
  8
DEFPOINTS
 62
     0
100
AcDbPoint
 10
-40.00001525879022
 20
-18.00000745454433
 30
0.0
  0
POINT
  5
FEFA
330
FAB4
100
AcDbEntity
  8
DEFPOINTS
 62
     0
100
AcDbPoint
 10
-35.00001525879026
 20
-3.999999999999928
 30
0.0
  0
POINT
  5
FEFB
330
FAB4
100
AcDbEntity
  8
DEFPOINTS
 62
     0
100
AcDbPoint
 10
-35.00001525879026
 20
-32.68689582180373
 30
0.0
  0
ENDBLK
  5
FABF
330
FAB4
100
AcDbEntity
  8
0
100
AcDbBlockEnd
  0
BLOCK
  5
FB6D
330
FB63
100
AcDbEntity
  8
0
100
AcDbBlockBegin
  2
*D11
 70
     1
 10
0.0
 20
0.0
 30
0.0
  3
*D11
  1

  0
LINE
  5
FEFC
330
FB63
100
AcDbEntity
  8
AM_5
100
AcDbLine
 10
-40.00001525879019
 20
-18.50000762939
 30
0.0
 11
-40.00001525879015
 21
-38.01469855684792
 31
0.0
  0
LINE
  5
FEFD
330
FB63
100
AcDbEntity
  8
AM_5
100
AcDbLine
 10
-20.00001525879021
 20
-12.11250305174992
 30
0.0
 11
-20.00001525879016
 21
-38.01469855684789
 31
0.0
  0
LINE
  5
FEFE
330
FB63
100
AcDbEntity
  8
AM_5
100
AcDbLine
 10
-38.75001525879015
 20
-37.51469855684792
 30
0.0
 11
-21.25001525879016
 21
-37.51469855684788
 31
0.0
  0
INSERT
  5
FEFF
330
FB63
100
AcDbEntity
  8
AM_5
100
AcDbBlockReference
  2
_OPEN30
 10
-40.00001525879015
 20
-37.51469855684792
 30
0.0
 41
1.25
 42
1.25
 43
1.25
 50
180.0000000000001
  0
INSERT
  5
FF00
330
FB63
100
AcDbEntity
  8
AM_5
100
AcDbBlockReference
  2
_OPEN30
 10
-20.00001525879016
 20
-37.51469855684788
 30
0.0
 41
1.25
 42
1.25
 43
1.25
 50
0.0000000000001018
  0
MTEXT
  5
FF01
330
FB63
100
AcDbEntity
  8
AM_5
 62
     2
100
AcDbMText
 10
-30.00001525879016
 20
-35.96469855684791
 30
0.0
 40
1.6
 41
0.0
 71
     5
 72
     1
  1
20
  7
ASAMI
  0
POINT
  5
FF02
330
FB63
100
AcDbEntity
  8
DEFPOINTS
 62
     0
100
AcDbPoint
 10
-40.00001525879023
 20
-18.00000762938992
 30
0.0
  0
POINT
  5
FF03
330
FB63
100
AcDbEntity
  8
DEFPOINTS
 62
     0
100
AcDbPoint
 10
-20.00001525879024
 20
-11.61250305174988
 30
0.0
  0
POINT
  5
FF04
330
FB63
100
AcDbEntity
  8
DEFPOINTS
 62
     0
100
AcDbPoint
 10
-20.00001525879024
 20
-37.51469855684784
 30
0.0
  0
ENDBLK
  5
FB6E
330
FB63
100
AcDbEntity
  8
0
100
AcDbBlockEnd
  0
BLOCK
  5
FC02
330
FBF8
100
AcDbEntity
  8
0
100
AcDbBlockBegin
  2
*D12
 70
     1
 10
0.0
 20
0.0
 30
0.0
  3
*D12
  1

  0
LINE
  5
FF05
330
FBF8
100
AcDbEntity
  8
AM_5
100
AcDbLine
 10
-40.00001525879018
 20
-18.50000745454441
 30
0.0
 11
-40.00001525879013
 21
-43.37892367836604
 31
0.0
  0
LINE
  5
FF06
330
FBF8
100
AcDbEntity
  8
AM_5
100
AcDbLine
 10
-0.0000000000001414
 20
-31.99999999999987
 30
0.0
 11
-0.0000000000001191
 21
-43.37892367836596
 31
0.0
  0
LINE
  5
FF07
330
FBF8
100
AcDbEntity
  8
AM_5
100
AcDbLine
 10
-38.75001525879013
 20
-42.87892367836604
 30
0.0
 11
-1.25000000000012
 21
-42.87892367836596
 31
0.0
  0
INSERT
  5
FF08
330
FBF8
100
AcDbEntity
  8
AM_5
100
AcDbBlockReference
  2
_OPEN30
 10
-40.00001525879013
 20
-42.87892367836604
 30
0.0
 41
1.25
 42
1.25
 43
1.25
 50
180.0000000000001
  0
INSERT
  5
FF09
330
FBF8
100
AcDbEntity
  8
AM_5
100
AcDbBlockReference
  2
_OPEN30
 10
-0.0000000000001201
 20
-42.87892367836596
 30
0.0
 41
1.25
 42
1.25
 43
1.25
 50
0.0000000000001018
  0
MTEXT
  5
FF0A
330
FBF8
100
AcDbEntity
  8
AM_5
 62
     2
100
AcDbMText
 10
-20.00000762939512
 20
-41.32892367836601
 30
0.0
 40
1.6
 41
0.0
 71
     5
 72
     1
  1
40
  7
ASAMI
  0
POINT
  5
FF0B
330
FBF8
100
AcDbEntity
  8
DEFPOINTS
 62
     0
100
AcDbPoint
 10
-40.00001525879022
 20
-18.00000745454433
 30
0.0
  0
POINT
  5
FF0C
330
FBF8
100
AcDbEntity
  8
DEFPOINTS
 62
     0
100
AcDbPoint
 10
-0.0000000000002061
 20
-31.49999999999987
 30
0.0
  0
POINT
  5
FF0D
330
FBF8
100
AcDbEntity
  8
DEFPOINTS
 62
     0
100
AcDbPoint
 10
-0.0000000000002068
 20
-42.87892367836596
 30
0.0
  0
ENDBLK
  5
FC03
330
FBF8
100
AcDbEntity
  8
0
100
AcDbBlockEnd
  0
ENDSEC
  0
SECTION
  2
ENTITIES
  0
TEXT
  5
388D
330
1F
100
AcDbEntity
  8
AM_6
100
AcDbText
 10
-31.01060422796327
 20
-54.28017816208733
 30
0.0
 40
2.5
  1
WRC12063R
 50
359.9999999999998
 51
359.9999999999998
 72
     4
 11
-20.53441375177279
 21
-53.03017816208735
 31
0.0
100
AcDbText
  0
ELLIPSE
  5
F12C
330
1F
100
AcDbEntity
  8
AM_0
100
AcDbEllipse
 10
-4.90953063965032
 20
23.71794891357015
 30
0.0
 11
2.265502854990024
 21
-3.390564063039984
 31
0.0
210
0.0
220
0.0
230
1.0
 40
0.9809227574207
 41
6.090493668323077
 42
6.475874458170753
  0
ELLIPSE
  5
F12D
330
1F
100
AcDbEntity
  8
AM_0
100
AcDbEllipse
 10
-5.617080688480321
 20
23.42485809326015
 30
0.0
 11
0.7955324433800191
 21
-3.999450779629992
 31
0.0
210
0.0
220
0.0
230
1.0
 40
0.9809169396802001
 41
6.090492720434248
 42
6.475875315026008
  0
ELLIPSE
  5
F12E
330
1F
100
AcDbEntity
  8
AM_0
100
AcDbEllipse
 10
-6.382949829110323
 20
23.42485809326015
 30
0.0
 11
-0.7955323162399772
 21
-3.999450804920006
 31
0.0
210
0.0
220
0.0
230
1.0
 40
0.9809169396802001
 41
6.090492492884366
 42
6.475875057136049
  0
ELLIPSE
  5
F12F
330
1F
100
AcDbEntity
  8
AM_0
100
AcDbEllipse
 10
-7.09053039551032
 20
23.71794891357015
 30
0.0
 11
-2.265503151410023
 21
-3.390563864980014
 31
0.0
210
0.0
220
0.0
230
1.0
 40
0.9809268501454999
 41
6.090494422197907
 42
6.475873916683512
  0
ELLIPSE
  5
F130
330
1F
100
AcDbEntity
  8
AM_0
100
AcDbEllipse
 10
-7.632064819340321
 20
24.25948333740015
 30
0.0
 11
-3.390563891989979
 21
-2.265503110980013
 31
0.0
210
0.0
220
0.0
230
1.0
 40
0.9809206525908001
 41
6.090492991951382
 42
6.47587486147858
  0
ELLIPSE
  5
F131
330
1F
100
AcDbEntity
  8
AM_0
100
AcDbEllipse
 10
-7.92515563965032
 20
24.96706390380015
 30
0.0
 11
-3.999450814410009
 21
-0.7955322685500134
 31
0.0
210
0.0
220
0.0
230
1.0
 40
0.9809243065736
 41
6.090494465766228
 42
6.475874206847303
  0
ELLIPSE
  5
F132
330
1F
100
AcDbEntity
  8
AM_0
100
AcDbEllipse
 10
-7.92515563965032
 20
25.73291778564012
 30
0.0
 11
-3.999450775380013
 21
0.7955471298600047
 31
0.0
210
0.0
220
0.0
230
1.0
 40
0.9809198764373999
 41
6.090493541047422
 42
6.475874737139128
  0
ELLIPSE
  5
F133
330
1F
100
AcDbEntity
  8
AM_0
100
AcDbEllipse
 10
-7.632064819340321
 20
26.44048309326015
 30
0.0
 11
-3.390563891989988
 21
2.265503110969994
 31
0.0
210
0.0
220
0.0
230
1.0
 40
0.9809206525908001
 41
6.090493022291342
 42
6.475874831138722
  0
ELLIPSE
  5
F134
330
1F
100
AcDbEntity
  8
AM_0
100
AcDbEllipse
 10
-7.09053039551032
 20
26.98204803466015
 30
0.0
 11
-2.265503151410037
 21
3.390563864980006
 31
0.0
210
0.0
220
0.0
230
1.0
 40
0.9809206525907999
 41
6.090493007121362
 42
6.47587487664856
  0
ELLIPSE
  5
F135
330
1F
100
AcDbEntity
  8
AM_0
100
AcDbEllipse
 10
-6.382949829110323
 20
27.27512359619012
 30
0.0
 11
-0.7955322000499984
 21
3.99943527030001
 31
0.0
210
0.0
220
0.0
230
1.0
 40
0.9809271585751
 41
6.090494299258295
 42
6.475874221662027
  0
ELLIPSE
  5
F136
330
1F
100
AcDbEntity
  8
AM_0
100
AcDbEllipse
 10
-5.617080688480321
 20
27.27512359619012
 30
0.0
 11
0.7955323271800047
 21
3.999435245020011
 31
0.0
210
0.0
220
0.0
230
1.0
 40
0.9809271585750998
 41
6.090494193069396
 42
6.475874145812797
  0
ELLIPSE
  5
F137
330
1F
100
AcDbEntity
  8
AM_0
100
AcDbEllipse
 10
-4.90953063965032
 20
26.98204803466015
 30
0.0
 11
2.265502854990011
 21
3.390564063040021
 31
0.0
210
0.0
220
0.0
230
1.0
 40
0.9809165013984999
 41
6.090492242033024
 42
6.475875505196137
  0
ELLIPSE
  5
F138
330
1F
100
AcDbEntity
  8
AM_0
100
AcDbEllipse
 10
-4.367965698250323
 20
26.44048309326015
 30
0.0
 11
3.390563964010022
 21
2.265503003200004
 31
0.0
210
0.0
220
0.0
230
1.0
 40
0.9809268501454999
 41
6.090494482877368
 42
6.475873916683512
  0
ELLIPSE
  5
F139
330
1F
100
AcDbEntity
  8
AM_0
100
AcDbEllipse
 10
-4.074874877930319
 20
25.73291778564012
 30
0.0
 11
3.999442926669982
 21
0.7955474809799988
 31
0.0
210
0.0
220
0.0
230
1.0
 40
0.9809213608937
 41
6.090493324880889
 42
6.475874574060721
  0
ELLIPSE
  5
F13A
330
1F
100
AcDbEntity
  8
AM_0
100
AcDbEllipse
 10
-4.074874877930319
 20
24.96706390380015
 30
0.0
 11
3.999443048670004
 21
-0.7955322025199996
 31
0.0
210
0.0
220
0.0
230
1.0
 40
0.9809191257422
 41
6.090492608366199
 42
6.475874972000562
  0
ELLIPSE
  5
F13B
330
1F
100
AcDbEntity
  8
AM_0
100
AcDbEllipse
 10
-4.367965698250323
 20
24.25948333740015
 30
0.0
 11
3.390563964010032
 21
-2.26550300319999
 31
0.0
210
0.0
220
0.0
230
1.0
 40
0.9809268501454999
 41
6.090494407028118
 42
6.475873916683512
  0
LINE
  5
F13C
330
1F
100
AcDbEntity
  8
AM_0
100
AcDbLine
 10
-20.00001525879028
 20
4.500000000000113
 30
0.0
 11
-15.00001525879027
 21
4.500000000000142
 31
0.0
  0
LINE
  5
F13E
330
1F
100
AcDbEntity
  8
AM_7
100
AcDbLine
 10
-44.30790710450027
 20
0.0000000000000568
 30
0.0
 11
1.890792846679737
 21
0.0000000000001563
 31
0.0
  0
LINE
  5
F13F
330
1F
100
AcDbEntity
  8
AM_0
100
AcDbLine
 10
-25.12132263184031
 20
20.8786697387701
 30
0.0
 11
-17.08576965332032
 21
28.91420745849012
 31
0.0
  0
LINE
  5
F14D
330
1F
100
AcDbEntity
  8
AM_0
100
AcDbLine
 10
-40.00001525879027
 20
5.000000000000085
 30
0.0
 11
-40.00001525879031
 21
18.00000762939006
 31
0.0
  0
LINE
  5
F14F
330
1F
100
AcDbEntity
  8
AM_0
100
AcDbLine
 10
-39.00001525879027
 20
4.000000000000085
 30
0.0
 11
-35.00001525879028
 21
4.000000000000085
 31
0.0
  0
LINE
  5
F150
330
1F
100
AcDbEntity
  8
AM_0
100
AcDbLine
 10
-39.00001525879029
 20
11.11250305175005
 30
0.0
 11
-23.00001525879029
 21
11.11250305175011
 31
0.0
  0
LINE
  5
F153
330
1F
100
AcDbEntity
  8
AM_0
100
AcDbLine
 10
-39.00001525879027
 20
4.000000000000085
 30
0.0
 11
-39.00001525879029
 21
11.11250305175005
 31
0.0
  0
LINE
  5
F154
330
1F
100
AcDbEntity
  8
AM_0
100
AcDbLine
 10
-39.00001525879027
 20
4.000007629390069
 30
0.0
 11
-40.00001525879027
 21
5.000007629390069
 31
0.0
  0
LINE
  5
F155
330
1F
100
AcDbEntity
  8
AM_0
100
AcDbLine
 10
-40.00001525879029
 20
12.11250305175005
 30
0.0
 11
-39.00001525879029
 21
11.11250305175005
 31
0.0
  0
LINE
  5
F156
330
1F
100
AcDbEntity
  8
AM_0
100
AcDbLine
 10
-35.00001525879028
 20
4.000000000000085
 30
0.0
 11
-35.00001525879027
 21
0.0000000000000711
 31
0.0
  0
LINE
  5
F157
330
1F
100
AcDbEntity
  8
AM_0
100
AcDbLine
 10
-23.00001525879026
 20
0.0000000000001137
 30
0.0
 11
-23.00001525879029
 21
11.61250305175011
 31
0.0
  0
LINE
  5
F158
330
1F
100
AcDbEntity
  8
AM_0
100
AcDbLine
 10
-20.00001525879027
 20
0.0000000000001137
 30
0.0
 11
-20.00001525879029
 21
11.61250305175011
 31
0.0
  0
LINE
  5
F159
330
1F
100
AcDbEntity
  8
AM_0
100
AcDbLine
 10
-23.00001525879029
 20
11.61250305175011
 30
0.0
 11
-20.00001525879029
 21
11.61250305175011
 31
0.0
  0
LINE
  5
F15A
330
1F
100
AcDbEntity
  8
AM_0
100
AcDbLine
 10
-38.0000152587903
 20
20.00000762939007
 30
0.0
 11
-27.24263000489031
 21
20.00000762939009
 31
0.0
  0
ARC
  5
F15B
330
1F
100
AcDbEntity
  8
AM_0
100
AcDbCircle
 10
-38.0000152587903
 20
18.00000762939006
 30
0.0
 40
2.0
100
AcDbArc
 50
90.00000250447845
 51
180.0000050089577
  0
ARC
  5
F15C
330
1F
100
AcDbEntity
  8
AM_0
100
AcDbCircle
 10
-27.24263000489031
 20
23.0000076293901
 30
0.0
 40
3.0
100
AcDbArc
 50
269.9999974955215
 51
315.0000124081377
  0
LINE
  5
F161
330
1F
100
AcDbEntity
  8
AM_0
100
AcDbLine
 10
-4.400741577150263
 20
0.0000000000001421
 30
0.0
 11
-4.400741577150306
 21
19.53383636474015
 31
0.0
  0
LINE
  5
F162
330
1F
100
AcDbEntity
  8
AM_0
100
AcDbLine
 10
-2.000015258790263
 20
0.0000000000001421
 30
0.0
 11
-2.000015258790305
 21
20.86472320556015
 31
0.0
  0
LINE
  5
F164
330
1F
100
AcDbEntity
  8
AM_0
100
AcDbLine
 10
-15.00001525879027
 20
0.0000000000001279
 30
0.0
 11
-15.00001525879028
 21
7.000000000000142
 31
0.0
  0
LINE
  5
F168
330
1F
100
AcDbEntity
  8
AM_0
100
AcDbLine
 10
-15.00001525879028
 20
7.000000000000142
 30
0.0
 11
-6.400741577150277
 21
7.000000000000142
 31
0.0
  0
ARC
  5
F169
330
1F
100
AcDbEntity
  8
AM_0
100
AcDbCircle
 10
-6.400741577150292
 20
9.000000000000142
 30
0.0
 40
2.0
100
AcDbArc
 50
269.9999974955215
 51
0.0
  0
CIRCLE
  5
F16A
330
1F
100
AcDbEntity
  8
AM_0
100
AcDbCircle
 10
-6.00001525879032
 20
25.34999847412015
 30
0.0
 40
3.2200000286102
  0
LINE
  5
F16B
330
1F
100
AcDbEntity
  8
AM_0
100
AcDbLine
 10
-4.084945678710305
 20
19.64885711669015
 30
0.0
 11
-3.322830200200307
 21
19.96453094482015
 31
0.0
  0
LINE
  5
F16C
330
1F
100
AcDbEntity
  8
AM_0
100
AcDbLine
 10
-3.322860717780336
 20
30.73542022705012
 30
0.0
 11
-4.084945678710333
 21
31.05109405517012
 31
0.0
  0
LINE
  5
F16D
330
1F
100
AcDbEntity
  8
AM_0
100
AcDbLine
 10
-11.70109558106031
 20
23.43492889404012
 30
0.0
 11
-11.38542175293031
 21
22.67284393310012
 31
0.0
  0
LINE
  5
F16E
330
1F
100
AcDbEntity
  8
AM_0
100
AcDbLine
 10
-8.677139282230307
 20
19.96451568603012
 30
0.0
 11
-7.915023803710305
 21
19.64884185791012
 31
0.0
  0
LINE
  5
F16F
330
1F
100
AcDbEntity
  8
AM_0
100
AcDbLine
 10
-10.53428649903031
 20
21.39897918701012
 30
0.0
 11
-9.951004028320312
 21
20.81569671630015
 31
0.0
  0
LINE
  5
F170
330
1F
100
AcDbEntity
  8
AM_0
100
AcDbLine
 10
-6.412460327150306
 20
19.34999847412015
 30
0.0
 11
-5.587570190430305
 21
19.34999847412015
 31
0.0
  0
LINE
  5
F171
330
1F
100
AcDbEntity
  8
AM_0
100
AcDbLine
 10
-15.67158508301032
 20
29.50000762939012
 30
0.0
 11
-10.31999206543032
 21
29.50000762939012
 31
0.0
  0
LINE
  5
F172
330
1F
100
AcDbEntity
  8
AM_0
100
AcDbLine
 10
-11.38542175293032
 20
28.02710723877012
 30
0.0
 11
-11.70109558106032
 21
27.26503753662012
 31
0.0
  0
ARC
  5
F173
330
1F
100
AcDbEntity
  8
AM_0
100
AcDbCircle
 10
-15.67158508301032
 20
27.50000762939012
 30
0.0
 40
2.0
100
AcDbArc
 50
90.00000250447845
 51
134.9999730208651
  0
LINE
  5
F174
330
1F
100
AcDbEntity
  8
AM_0
100
AcDbLine
 10
-12.00001525879032
 20
25.76244354248013
 30
0.0
 11
-12.00001525879032
 21
24.93755340576012
 31
0.0
  0
LINE
  5
F175
330
1F
100
AcDbEntity
  8
AM_0
100
AcDbLine
 10
-9.951004028320326
 20
29.88425445556012
 30
0.0
 11
-10.53428649903032
 21
29.30097198486012
 31
0.0
  0
LINE
  5
F176
330
1F
100
AcDbEntity
  8
AM_0
100
AcDbLine
 10
-7.915054321290327
 20
31.05109405517012
 30
0.0
 11
-8.677139282230328
 21
30.73542022705012
 31
0.0
  0
LINE
  5
F177
330
1F
100
AcDbEntity
  8
AM_0
100
AcDbLine
 10
-5.587570190430334
 20
31.34999847412015
 30
0.0
 11
-6.412460327150334
 21
31.34999847412015
 31
0.0
  0
LINE
  5
F178
330
1F
100
AcDbEntity
  8
AM_0
100
AcDbLine
 10
-2.049026489260306
 20
20.81572723388015
 30
0.0
 11
-1.465713500980307
 21
21.39900970459015
 31
0.0
  0
LINE
  5
F179
330
1F
100
AcDbEntity
  8
AM_0
100
AcDbLine
 10
-0.6145324707103228
 20
22.67282867431015
 30
0.0
 11
-0.2988586425803206
 21
23.43492889404015
 31
0.0
  0
LINE
  5
F17A
330
1F
100
AcDbEntity
  8
AM_0
100
AcDbLine
 10
-1.465713500980321
 20
29.30100250244015
 30
0.0
 11
-2.049026489260334
 21
29.88428497314015
 31
0.0
  0
LINE
  5
F17B
330
1F
100
AcDbEntity
  8
AM_0
100
AcDbLine
 10
-0.2989044189503218
 20
27.26503753662015
 30
0.0
 11
-0.6145782470703196
 21
28.02713775634015
 31
0.0
  0
LINE
  5
F17C
330
1F
100
AcDbEntity
  8
AM_0
100
AcDbLine
 10
-0.0000000000003197
 20
24.93755340576015
 30
0.0
 11
-0.0000000000003197
 21
25.76244354248015
 31
0.0
  0
LINE
  5
F63A
330
1F
100
AcDbEntity
  8
AM_0
100
AcDbLine
 10
-15.67158508301019
 20
-29.50000762938987
 30
0.0
 11
-10.31999206543019
 21
-29.50000762938987
 31
0.0
  0
LINE
  5
F63B
330
1F
100
AcDbEntity
  8
AM_0
100
AcDbLine
 10
-15.00001525879025
 20
-6.999999999999886
 30
0.0
 11
-6.400741577150245
 21
-6.999999999999857
 31
0.0
  0
ELLIPSE
  5
F63C
330
1F
100
AcDbEntity
  8
AM_0
100
AcDbEllipse
 10
-7.925155639650206
 20
-25.73291778563984
 30
0.0
 11
-3.99945077538001
 21
-0.7955471298600225
 31
0.0
210
0.0
220
0.0
230
-1.0
 40
0.9809198764373999
 41
6.090493541047422
 42
6.475874737139128
  0
ELLIPSE
  5
F63D
330
1F
100
AcDbEntity
  8
AM_0
100
AcDbEllipse
 10
-7.92515563965021
 20
-24.96706390379987
 30
0.0
 11
-3.999450814410013
 21
0.795532268549996
 31
0.0
210
0.0
220
0.0
230
-1.0
 40
0.9809243065736
 41
6.090494465766228
 42
6.475874206847303
  0
LINE
  5
F63E
330
1F
100
AcDbEntity
  8
AM_0
100
AcDbLine
 10
-25.12132263184022
 20
-20.8786697387699
 30
0.0
 11
-17.08576965332019
 21
-28.91420745848989
 31
0.0
  0
LINE
  5
F63F
330
1F
100
AcDbEntity
  8
AM_0
100
AcDbLine
 10
-35.00001525879026
 20
-3.999999999999914
 30
0.0
 11
-35.00001525879027
 21
0.0000000000000853
 31
0.0
  0
LINE
  5
F640
330
1F
100
AcDbEntity
  8
AM_0
100
AcDbLine
 10
-15.00001525879027
 20
0.0000000000001137
 30
0.0
 11
-15.00001525879025
 21
-6.999999999999886
 31
0.0
  0
LINE
  5
F641
330
1F
100
AcDbEntity
  8
AM_0
100
AcDbLine
 10
-20.00001525879027
 20
0.0000000000001137
 30
0.0
 11
-20.00001525879024
 21
-11.61250305174988
 31
0.0
  0
LINE
  5
F642
330
1F
100
AcDbEntity
  8
AM_0
100
AcDbLine
 10
-23.00001525879026
 20
0.0000000000000995
 30
0.0
 11
-23.00001525879024
 21
-11.61250305174991
 31
0.0
  0
LINE
  5
F643
330
1F
100
AcDbEntity
  8
AM_0
100
AcDbLine
 10
-38.00001525879022
 20
-20.00000762938992
 30
0.0
 11
-27.24263000489022
 21
-20.00000762938989
 31
0.0
  0
LINE
  5
F644
330
1F
100
AcDbEntity
  8
AM_0
100
AcDbLine
 10
-39.00001525879024
 20
-11.11250305174991
 30
0.0
 11
-23.00001525879024
 21
-11.11250305174991
 31
0.0
  0
LINE
  5
F645
330
1F
100
AcDbEntity
  8
AM_0
100
AcDbLine
 10
-40.00001525879025
 20
-4.999999999999943
 30
0.0
 11
-40.00001525879023
 21
-18.00000762938992
 31
0.0
  0
LINE
  5
F646
330
1F
100
AcDbEntity
  8
AM_0
100
AcDbLine
 10
-39.00001525879026
 20
-3.999999999999943
 30
0.0
 11
-35.00001525879026
 21
-3.999999999999914
 31
0.0
  0
LINE
  5
F647
330
1F
100
AcDbEntity
  8
AM_0
100
AcDbLine
 10
-39.00001525879026
 20
-3.999999999999943
 30
0.0
 11
-39.00001525879024
 21
-11.11250305174991
 31
0.0
  0
LINE
  5
F648
330
1F
100
AcDbEntity
  8
AM_0
100
AcDbLine
 10
-39.00001525879026
 20
-4.000007629389926
 30
0.0
 11
-40.00001525879025
 21
-5.000007629389926
 31
0.0
  0
LINE
  5
F649
330
1F
100
AcDbEntity
  8
AM_0
100
AcDbLine
 10
-40.00001525879024
 20
-12.11250305174991
 30
0.0
 11
-39.00001525879024
 21
-11.11250305174991
 31
0.0
  0
ARC
  5
F64A
330
1F
100
AcDbEntity
  8
AM_0
100
AcDbCircle
 10
-38.00001525879022
 20
-18.00000762938992
 30
0.0
 40
2.0
100
AcDbArc
 50
179.9999949910424
 51
269.9999974955217
  0
LINE
  5
F64B
330
1F
100
AcDbEntity
  8
AM_0
100
AcDbLine
 10
-20.00001525879025
 20
-4.499999999999886
 30
0.0
 11
-15.00001525879025
 21
-4.499999999999886
 31
0.0
  0
LINE
  5
F64C
330
1F
100
AcDbEntity
  8
AM_0
100
AcDbLine
 10
-23.00001525879024
 20
-11.61250305174991
 30
0.0
 11
-20.00001525879024
 21
-11.61250305174988
 31
0.0
  0
ARC
  5
F64D
330
1F
100
AcDbEntity
  8
AM_0
100
AcDbCircle
 10
-27.24263000489021
 20
-23.0000076293899
 30
0.0
 40
3.0
100
AcDbArc
 50
44.99998759186254
 51
90.00000250447873
  0
LINE
  5
F64E
330
1F
100
AcDbEntity
  8
AM_0
100
AcDbLine
 10
-12.0000152587902
 20
-25.76244354247987
 30
0.0
 11
-12.00001525879021
 21
-24.93755340575987
 31
0.0
  0
ARC
  5
F64F
330
1F
100
AcDbEntity
  8
AM_0
100
AcDbCircle
 10
-15.67158508301019
 20
-27.50000762938987
 30
0.0
 40
2.0
100
AcDbArc
 50
225.0000269791351
 51
269.9999974955217
  0
ELLIPSE
  5
F650
330
1F
100
AcDbEntity
  8
AM_0
100
AcDbEllipse
 10
-4.367965698250216
 20
-24.25948333739987
 30
0.0
 11
3.390563964010023
 21
2.265503003200005
 31
0.0
210
0.0
220
0.0
230
-0.9999999999999998
 40
0.9809268501454999
 41
6.090494407028118
 42
6.475873916683512
  0
ELLIPSE
  5
F651
330
1F
100
AcDbEntity
  8
AM_0
100
AcDbEllipse
 10
-4.074874877930209
 20
-24.96706390379987
 30
0.0
 11
3.99944304867
 21
0.7955322025200182
 31
0.0
210
0.0
220
0.0
230
-1.0
 40
0.9809191257422
 41
6.090492608366199
 42
6.475874972000562
  0
ELLIPSE
  5
F652
330
1F
100
AcDbEntity
  8
AM_0
100
AcDbEllipse
 10
-4.074874877930206
 20
-25.73291778563984
 30
0.0
 11
3.999442926669983
 21
-0.7955474809799808
 31
0.0
210
0.0
220
0.0
230
-1.0
 40
0.9809213608937001
 41
6.090493324880889
 42
6.475874574060721
  0
ELLIPSE
  5
F653
330
1F
100
AcDbEntity
  8
AM_0
100
AcDbEllipse
 10
-4.367965698250205
 20
-26.44048309325987
 30
0.0
 11
3.390563964010032
 21
-2.265503003199988
 31
0.0
210
0.0
220
0.0
230
-0.9999999999999998
 40
0.9809268501454999
 41
6.090494482877368
 42
6.475873916683512
  0
ELLIPSE
  5
F654
330
1F
100
AcDbEntity
  8
AM_0
100
AcDbEllipse
 10
-4.909530639650203
 20
-26.98204803465987
 30
0.0
 11
2.265502854990026
 21
-3.390564063040011
 31
0.0
210
0.0
220
0.0
230
-1.0
 40
0.9809165013984999
 41
6.090492242033024
 42
6.475875505196137
  0
ELLIPSE
  5
F655
330
1F
100
AcDbEntity
  8
AM_0
100
AcDbEllipse
 10
-5.6170806884802
 20
-27.27512359618984
 30
0.0
 11
0.7955323271800224
 21
-3.999435245020007
 31
0.0
210
0.0
220
0.0
230
-1.0
 40
0.9809271585750998
 41
6.090494193069396
 42
6.475874145812797
  0
ELLIPSE
  5
F656
330
1F
100
AcDbEntity
  8
AM_0
100
AcDbEllipse
 10
-6.382949829110202
 20
-27.27512359618984
 30
0.0
 11
-0.7955322000499807
 21
-3.999435270300014
 31
0.0
210
0.0
220
0.0
230
-1.0
 40
0.9809271585751
 41
6.090494299258295
 42
6.475874221662027
  0
ELLIPSE
  5
F657
330
1F
100
AcDbEntity
  8
AM_0
100
AcDbEllipse
 10
-7.090530395510203
 20
-26.98204803465987
 30
0.0
 11
-2.265503151410022
 21
-3.390563864980017
 31
0.0
210
0.0
220
0.0
230
-1.0
 40
0.9809206525907999
 41
6.090493007121362
 42
6.47587487664856
  0
ELLIPSE
  5
F658
330
1F
100
AcDbEntity
  8
AM_0
100
AcDbEllipse
 10
-7.632064819340204
 20
-26.44048309325987
 30
0.0
 11
-3.390563891989978
 21
-2.265503110970009
 31
0.0
210
0.0
220
0.0
230
-1.0
 40
0.9809206525908001
 41
6.090493022291342
 42
6.475874831138722
  0
ELLIPSE
  5
F659
330
1F
100
AcDbEntity
  8
AM_0
100
AcDbEllipse
 10
-7.632064819340214
 20
-24.25948333739987
 30
0.0
 11
-3.390563891989987
 21
2.265503110979998
 31
0.0
210
0.0
220
0.0
230
-1.0
 40
0.9809206525908001
 41
6.090492991951382
 42
6.47587486147858
  0
ELLIPSE
  5
F65A
330
1F
100
AcDbEntity
  8
AM_0
100
AcDbEllipse
 10
-7.090530395510217
 20
-23.71794891356987
 30
0.0
 11
-2.265503151410038
 21
3.390563864980005
 31
0.0
210
0.0
220
0.0
230
-1.0
 40
0.9809268501454999
 41
6.090494422197907
 42
6.475873916683512
  0
ELLIPSE
  5
F65B
330
1F
100
AcDbEntity
  8
AM_0
100
AcDbEllipse
 10
-6.38294982911022
 20
-23.42485809325987
 30
0.0
 11
-0.7955323162399948
 21
3.99945080492
 31
0.0
210
0.0
220
0.0
230
-1.0
 40
0.9809169396802001
 41
6.090492492884366
 42
6.475875057136049
  0
ELLIPSE
  5
F65C
330
1F
100
AcDbEntity
  8
AM_0
100
AcDbEllipse
 10
-5.617080688480218
 20
-23.42485809325987
 30
0.0
 11
0.7955324433800012
 21
3.999450779629997
 31
0.0
210
0.0
220
0.0
230
-1.0
 40
0.9809169396802001
 41
6.090492720434248
 42
6.475875315026008
  0
ELLIPSE
  5
F65D
330
1F
100
AcDbEntity
  8
AM_0
100
AcDbEllipse
 10
-4.909530639650217
 20
-23.71794891356987
 30
0.0
 11
2.26550285499001
 21
3.390564063039994
 31
0.0
210
0.0
220
0.0
230
-1.0
 40
0.9809227574207
 41
6.090493668323077
 42
6.475874458170753
  0
CIRCLE
  5
F65E
330
1F
100
AcDbEntity
  8
AM_0
100
AcDbCircle
 10
-6.00001525879021
 20
-25.34999847411987
 30
0.0
 40
3.2200000286102
  0
LINE
  5
F65F
330
1F
100
AcDbEntity
  8
AM_0
100
AcDbLine
 10
-2.000015258790263
 20
0.0000000000001563
 30
0.0
 11
-2.000015258790213
 21
-20.86472320555984
 31
0.0
  0
LINE
  5
F660
330
1F
100
AcDbEntity
  8
AM_0
100
AcDbLine
 10
-4.400741577150263
 20
0.0000000000001563
 30
0.0
 11
-4.40074157715022
 21
-19.53383636473986
 31
0.0
  0
ARC
  5
F661
330
1F
100
AcDbEntity
  8
AM_0
100
AcDbCircle
 10
-6.400741577150252
 20
-8.999999999999857
 30
0.0
 40
2.0
100
AcDbArc
 50
0.0000000000002534
 51
90.00000250447873
  0
LINE
  5
F662
330
1F
100
AcDbEntity
  8
AM_0
100
AcDbLine
 10
-4.084945678710219
 20
-19.64885711668986
 30
0.0
 11
-3.322830200200218
 21
-19.96453094481987
 31
0.0
  0
LINE
  5
F663
330
1F
100
AcDbEntity
  8
AM_0
100
AcDbLine
 10
-8.677139282230218
 20
-19.96451568602984
 30
0.0
 11
-7.915023803710219
 21
-19.64884185790984
 31
0.0
  0
LINE
  5
F664
330
1F
100
AcDbEntity
  8
AM_0
100
AcDbLine
 10
-10.53428649903022
 20
-21.39897918700987
 30
0.0
 11
-9.95100402832022
 21
-20.81569671629989
 31
0.0
  0
LINE
  5
F665
330
1F
100
AcDbEntity
  8
AM_0
100
AcDbLine
 10
-6.41246032715022
 20
-19.34999847411987
 30
0.0
 11
-5.58757019043022
 21
-19.34999847411987
 31
0.0
  0
LINE
  5
F666
330
1F
100
AcDbEntity
  8
AM_0
100
AcDbLine
 10
-2.049026489260214
 20
-20.81572723387984
 30
0.0
 11
-1.465713500980214
 21
-21.39900970458984
 31
0.0
  0
LINE
  5
F667
330
1F
100
AcDbEntity
  8
AM_0
100
AcDbLine
 10
-3.322860717780201
 20
-30.73542022704984
 30
0.0
 11
-4.084945678710198
 21
-31.05109405516984
 31
0.0
  0
LINE
  5
F668
330
1F
100
AcDbEntity
  8
AM_0
100
AcDbLine
 10
-11.3854217529302
 20
-28.02710723876987
 30
0.0
 11
-11.7010955810602
 21
-27.26503753661987
 31
0.0
  0
LINE
  5
F669
330
1F
100
AcDbEntity
  8
AM_0
100
AcDbLine
 10
-11.70109558106021
 20
-23.43492889403987
 30
0.0
 11
-11.38542175293021
 21
-22.67284393309986
 31
0.0
  0
LINE
  5
F66A
330
1F
100
AcDbEntity
  8
AM_0
100
AcDbLine
 10
-9.951004028320195
 20
-29.88425445555987
 30
0.0
 11
-10.5342864990302
 21
-29.30097198485987
 31
0.0
  0
LINE
  5
F66B
330
1F
100
AcDbEntity
  8
AM_0
100
AcDbLine
 10
-7.915054321290192
 20
-31.05109405516984
 30
0.0
 11
-8.677139282230193
 21
-30.73542022704984
 31
0.0
  0
LINE
  5
F66C
330
1F
100
AcDbEntity
  8
AM_0
100
AcDbLine
 10
-5.587570190430195
 20
-31.34999847411987
 30
0.0
 11
-6.412460327150196
 21
-31.34999847411987
 31
0.0
  0
LINE
  5
F66D
330
1F
100
AcDbEntity
  8
AM_0
100
AcDbLine
 10
-0.298904418950201
 20
-27.26503753661984
 30
0.0
 11
-0.6145782470701953
 21
-28.02713775633984
 31
0.0
  0
LINE
  5
F66E
330
1F
100
AcDbEntity
  8
AM_0
100
AcDbLine
 10
-0.6145324707102234
 20
-22.67282867430984
 30
0.0
 11
-0.2988586425802175
 21
-23.43492889403984
 31
0.0
  0
LINE
  5
F66F
330
1F
100
AcDbEntity
  8
AM_0
100
AcDbLine
 10
-0.0000000000002061
 20
-24.93755340575984
 30
0.0
 11
-0.0000000000002061
 21
-25.76244354247984
 31
0.0
  0
LINE
  5
F670
330
1F
100
AcDbEntity
  8
AM_0
100
AcDbLine
 10
-1.465713500980193
 20
-29.30100250243984
 30
0.0
 11
-2.049026489260203
 21
-29.88428497313984
 31
0.0
  0
LINE
  5
F671
330
1F
100
AcDbEntity
  8
AM_11
100
AcDbLine
 10
-0.000000000000334
 20
31.50000000000014
 30
0.0
 11
-0.0000000000002061
 21
-31.49999999999987
 31
0.0
  0
LINE
  5
F679
330
1F
100
AcDbEntity
  8
AM_11
100
AcDbLine
 10
-6.000000000000326
 20
31.50000000000011
 30
0.0
 11
-6.000000000000206
 21
-31.49999999999987
 31
0.0
  0
LINE
  5
F692
330
1F
100
AcDbEntity
  8
AM_11
100
AcDbLine
 10
-6.000000000000323
 20
31.50000000000014
 30
0.0
 11
-0.0000000000003268
 21
31.50000000000014
 31
0.0
  0
LINE
  5
F696
330
1F
100
AcDbEntity
  8
AM_11
100
AcDbLine
 10
-6.000000000000202
 20
-31.49999999999988
 30
0.0
 11
-0.0000000000002061
 21
-31.49999999999987
 31
0.0
  0
DIMENSION
  5
F69E
330
1F
100
AcDbEntity
  8
AM_5
100
AcDbDimension
  2
*D5
 10
-6.000000000000314
 20
38.50000000000014
 30
0.0
 11
-3.000000000000308
 21
40.05000000000013
 31
0.0
 70
    32
  1
<>
 51
359.9999999999998
  3
AM_JIS$0
100
AcDbAlignedDimension
 13
-0.0000000000003197
 23
31.50000000000014
 33
0.0
 14
-6.000000000000326
 24
31.50000000000014
 34
0.0
 50
180.0
100
AcDbRotatedDimension
1001
GENIUS_GENDTOL_13
1000

1000
h7
1000

1040
0.0
1001
ACAD
1000
DSTYLE
1002
{
1070
   287
1070
     3
1070
    40
1040
0.5
1070
    42
1040
1.0
1070
    43
1040
12.0
1070
    48
1040
0.1
1070
    78
1070
     8
1070
   140
1040
3.2
1070
   176
1070
   256
1070
   177
1070
   256
1070
   271
1070
     0
1070
   272
1070
     3
1070
   275
1070
     0
1070
   284
1070
     0
1070
   289
1070
     3
1070
   340
1005
6B
1070
   371
1070
    -1
1070
   372
1070
    -1
1002
}
  0
DIMENSION
  5
F744
330
1F
100
AcDbEntity
  8
AM_5
100
AcDbDimension
  2
*D6
 10
11.99999999999972
 20
-31.49999999999987
 30
0.0
 11
10.44999999999973
 21
0.0000000000001487
 31
0.0
 70
    32
  1
%%c<>
 51
359.9999999999998
  3
AM_JIS$0
100
AcDbAlignedDimension
 13
-0.000000000000334
 23
31.50000000000017
 33
0.0
 14
-0.0000000000002061
 24
-31.49999999999987
 34
0.0
 50
90.0
100
AcDbRotatedDimension
1001
GENIUS_GENDTOL_13
1000

1000
h7
1000

1040
0.0
1001
ACAD
1000
DSTYLE
1002
{
1070
   287
1070
     3
1070
    40
1040
0.5
1070
    42
1040
1.0
1070
    43
1040
12.0
1070
    48
1040
0.1
1070
    78
1070
     8
1070
   140
1040
3.2
1070
   176
1070
   256
1070
   177
1070
   256
1070
   271
1070
     0
1070
   272
1070
     3
1070
   275
1070
     0
1070
   284
1070
     0
1070
   289
1070
     3
1070
   340
1005
6B
1070
   371
1070
    -1
1070
   372
1070
    -1
1002
}
  0
DIMENSION
  5
F7E2
330
1F
100
AcDbEntity
  8
AM_5
100
AcDbDimension
  2
*D7
 10
6.999999999999729
 20
-4.499999999999879
 30
0.0
 11
5.449999999999731
 21
0.0000000000001294
 31
0.0
 70
    32
  1
%%c<>
 51
359.9999999999998
  3
AM_JIS$0
100
AcDbAlignedDimension
 13
-15.00001525879027
 23
4.500000000000142
 33
0.0
 14
-15.00001525879026
 24
-4.499999999999872
 34
0.0
 50
90.0
100
AcDbRotatedDimension
1001
GENIUS_GENDTOL_13
1000

1000
h7
1000

1040
0.0
1001
ACAD
1000
DSTYLE
1002
{
1070
   287
1070
     3
1070
    40
1040
0.5
1070
    42
1040
1.0
1070
    43
1040
12.0
1070
    48
1040
0.1
1070
    78
1070
     8
1070
   140
1040
3.2
1070
   176
1070
   256
1070
   177
1070
   256
1070
   271
1070
     0
1070
   272
1070
     3
1070
   275
1070
     0
1070
   284
1070
     0
1070
   289
1070
     3
1070
   340
1005
6B
1070
   371
1070
    -1
1070
   372
1070
    -1
1002
}
  0
DIMENSION
  5
F87B
330
1F
100
AcDbEntity
  8
AM_5
100
AcDbDimension
  2
*D8
 10
-50.41652084923672
 20
-4.000007629389923
 30
0.0
 11
-51.96652084923671
 21
-0.0000038146949256
 31
0.0
 70
    32
  1
<>
 51
359.9999999999998
  3
AM_JIS$0
100
AcDbAlignedDimension
 13
-39.00001525879027
 23
4.000000000000085
 33
0.0
 14
-39.00001525879026
 24
-4.000007629389926
 34
0.0
 50
270.0
100
AcDbRotatedDimension
1001
GENIUS_GENDTOL_13
1000

1000
h7
1000

1040
0.0
1001
ACAD
1000
DSTYLE
1002
{
1070
   287
1070
     3
1070
    40
1040
0.5
1070
    42
1040
1.0
1070
    43
1040
12.0
1070
    48
1040
0.1
1070
    78
1070
     8
1070
   140
1040
3.2
1070
   176
1070
   256
1070
   177
1070
   256
1070
   271
1070
     0
1070
   272
1070
     3
1070
   275
1070
     0
1070
   284
1070
     0
1070
   289
1070
     3
1070
   340
1005
6B
1070
   371
1070
    -1
1070
   372
1070
    -1
1002
}
  0
DIMENSION
  5
F914
330
1F
100
AcDbEntity
  8
AM_5
100
AcDbDimension
  2
*D9
 10
-54.75987634077617
 20
-11.1125030517499
 30
0.0
 11
-56.30987634077617
 21
0.0000000000000675
 31
0.0
 70
    32
  1
%%c<>
 51
359.9999999999998
  3
AM_JIS$0
100
AcDbAlignedDimension
 13
-39.00001525879029
 23
11.11250305175005
 33
0.0
 14
-39.00001525879024
 24
-11.11250305174991
 34
0.0
 50
270.0000000000004
100
AcDbRotatedDimension
1001
GENIUS_GENDTOL_13
1000

1000
h7
1000

1040
0.0
1001
ACAD
1000
DSTYLE
1002
{
1070
   287
1070
     3
1070
    40
1040
0.5
1070
    42
1040
1.0
1070
    43
1040
12.0
1070
    48
1040
0.1
1070
    78
1070
     8
1070
   140
1040
3.2
1070
   176
1070
   256
1070
   177
1070
   256
1070
   271
1070
     3
1070
   272
1070
     3
1070
   275
1070
     0
1070
   284
1070
     0
1070
   289
1070
     3
1070
   340
1005
6B
1070
   371
1070
    -1
1070
   372
1070
    -1
1002
}
  0
DIMENSION
  5
FAB3
330
1F
100
AcDbEntity
  8
AM_5
100
AcDbDimension
  2
*D10
 10
-35.00001525879026
 20
-32.68689582180373
 30
0.0
 11
-37.50001525879024
 21
-31.13689582180373
 31
0.0
 70
    32
  1
<>
 51
359.9999999999998
  3
AM_JIS$0
100
AcDbAlignedDimension
 13
-40.00001525879022
 23
-18.00000745454433
 33
0.0
 14
-35.00001525879026
 24
-3.999999999999928
 34
0.0
100
AcDbRotatedDimension
1001
GENIUS_GENDTOL_13
1000

1000
h7
1000

1040
0.0
1001
ACAD
1000
DSTYLE
1002
{
1070
   287
1070
     3
1070
    40
1040
0.5
1070
    42
1040
1.0
1070
    43
1040
12.0
1070
    48
1040
0.1
1070
    78
1070
     8
1070
   140
1040
3.2
1070
   176
1070
   256
1070
   177
1070
   256
1070
   271
1070
     0
1070
   272
1070
     3
1070
   275
1070
     0
1070
   284
1070
     0
1070
   289
1070
     3
1070
   340
1005
6B
1070
   371
1070
    -1
1070
   372
1070
    -1
1002
}
  0
DIMENSION
  5
FB62
330
1F
100
AcDbEntity
  8
AM_5
100
AcDbDimension
  2
*D11
 10
-20.00001525879024
 20
-37.51469855684784
 30
0.0
 11
-30.00001525879023
 21
-35.96469855684785
 31
0.0
 70
    32
  1
<>
 51
359.9999999999998
  3
AM_JIS$0
100
AcDbAlignedDimension
 13
-40.00001525879023
 23
-18.00000762938992
 33
0.0
 14
-20.00001525879024
 24
-11.61250305174988
 34
0.0
100
AcDbRotatedDimension
1001
GENIUS_GENDTOL_13
1000

1000
h7
1000

1040
0.0
1001
ACAD
1000
DSTYLE
1002
{
1070
   287
1070
     3
1070
    40
1040
0.5
1070
    42
1040
1.0
1070
    43
1040
12.0
1070
    48
1040
0.1
1070
    78
1070
     8
1070
   140
1040
3.2
1070
   176
1070
   256
1070
   177
1070
   256
1070
   271
1070
     0
1070
   272
1070
     3
1070
   275
1070
     0
1070
   284
1070
     0
1070
   289
1070
     3
1070
   340
1005
6B
1070
   371
1070
    -1
1070
   372
1070
    -1
1002
}
  0
DIMENSION
  5
FBF7
330
1F
100
AcDbEntity
  8
AM_5
100
AcDbDimension
  2
*D12
 10
-0.0000000000002068
 20
-42.87892367836596
 30
0.0
 11
-20.00000762939521
 21
-41.32892367836596
 31
0.0
 70
    32
  1
<>
 51
359.9999999999998
  3
AM_JIS$0
100
AcDbAlignedDimension
 13
-40.00001525879022
 23
-18.00000745454433
 33
0.0
 14
-0.0000000000002061
 24
-31.49999999999987
 34
0.0
100
AcDbRotatedDimension
1001
GENIUS_GENDTOL_13
1000

1000
h7
1000

1040
0.0
1001
ACAD
1000
DSTYLE
1002
{
1070
   287
1070
     3
1070
    40
1040
0.5
1070
    42
1040
1.0
1070
    43
1040
12.0
1070
    48
1040
0.1
1070
    78
1070
     8
1070
   140
1040
3.2
1070
   176
1070
   256
1070
   177
1070
   256
1070
   271
1070
     0
1070
   272
1070
     3
1070
   275
1070
     0
1070
   284
1070
     0
1070
   289
1070
     3
1070
   340
1005
6B
1070
   371
1070
    -1
1070
   372
1070
    -1
1002
}
  0
VIEWPORT
  5
110
330
101
100
AcDbEntity
 67
     1
  8
0
100
AcDbViewport
 10
420.5
 20
297.0
 30
0.0
 40
948.9782706766916
 41
628.452
 68
     1
 69
     1
1001
ACAD
1000
MVIEW
1002
{
1070
    16
1010
0.0
1020
0.0
1030
0.0
1010
0.0
1020
0.0
1030
1.0
1040
0.0
1040
628.452
1040
420.5
1040
297.0
1040
50.0
1040
0.0
1040
0.0
1070
     0
1070
   100
1070
     1
1070
     1
1070
     0
1070
     0
1070
     0
1070
     0
1040
0.0
1040
0.0
1040
0.0
1040
10.0
1040
10.0
1040
10.0
1040
10.0
1070
     0
1002
{
1002
}
1002
}
  0
ENDSEC
  0
SECTION
  2
OBJECTS
  0
DICTIONARY
  5
C
330
0
100
AcDbDictionary
  3
ACAD_GROUP
350
D
  3
ACAD_LAYOUT
350
1A
  3
ACAD_MLINESTYLE
350
17
  3
ACAD_PLOTSETTINGS
350
19
  3
ACAD_PLOTSTYLENAME
350
E
  3
ACDBVARIABLEDICTIONARY
350
34
  3
ACMDICTIONARY
350
43
  3
AMG
350
2B
  3
AMGSNAPSETTINGS
350
6E
  3
DWGPROPS
350
FE90
  3
ACDBHEADERROUNDTRIPXREC
350
FE9C
  0
DICTIONARY
  5
74
330
1F
100
AcDbDictionary
280
     1
  3
ACAD_INDEX
360
FE92
  3
ACAD_LAYOUTSELFREF
360
FEBF
  0
DICTIONARY
  5
FEC4
330
101
100
AcDbDictionary
280
     1
  3
ACAD_LAYOUTSELFREF
360
FEC5
  0
DICTIONARY
  5
D
102
{ACAD_REACTORS
330
C
102
}
330
C
100
AcDbDictionary
  0
DICTIONARY
  5
1A
102
{ACAD_REACTORS
330
C
102
}
330
C
100
AcDbDictionary
  0
DICTIONARY
  5
17
102
{ACAD_REACTORS
330
C
102
}
330
C
100
AcDbDictionary
  3
STANDARD
350
18
  0
DICTIONARY
  5
19
102
{ACAD_REACTORS
330
C
102
}
330
C
100
AcDbDictionary
  3
ASAMI
350
399D
  0
ACDBDICTIONARYWDFLT
  5
E
102
{ACAD_REACTORS
330
C
102
}
330
C
100
AcDbDictionary
281
     1
  3
Normal
350
F
100
AcDbDictionaryWithDefault
340
F
  0
DICTIONARY
  5
34
102
{ACAD_REACTORS
330
C
102
}
330
C
100
AcDbDictionary
  3
INDEXCTL
350
35
  3
SORTENTS
350
B5E
  0
DICTIONARY
  5
43
102
{ACAD_REACTORS
330
C
102
}
330
C
100
AcDbDictionary
  3
ACMSTDDICTIONARY
350
260
  0
DICTIONARY
  5
2B
102
{ACAD_REACTORS
330
C
102
}
330
C
100
AcDbDictionary
  3
ACMGSETTINGS
350
2C
  0
DICTIONARY
  5
6E
102
{ACAD_REACTORS
330
C
102
}
330
C
100
AcDbDictionary
  0
XRECORD
  5
FE90
102
{ACAD_REACTORS
330
C
102
}
330
C
100
AcDbXrecord
  1
DWGPROPS COOKIE
  2

  3

  4

  6

  7

  8

  9

300
AmdtFileType=82
301
=
302
=
303
=
304
=
305
=
306
=
307
=
308
=
309
=
 40
0.9705554976851852
 41
2452802.716478761
 42
2453075.639929826
  1

 90
        1
  0
DICTIONARY
  5
FE9C
102
{ACAD_REACTORS
330
C
102
}
330
C
100
AcDbDictionary
  3
TSTACKALIGN
350
FE9D
  3
TSTACKSIZE
350
FE9E
  3
HYPERLINKBASE
350
FE9F
  3
STYLESHEET
350
FEA0
  3
LAYOUTDICT
350
FEA1
  3
PLOTSETDICT
350
FEA2
  3
PLOTSTYLNAMDICT
350
FEA3
  3
LWETCUNION
350
FEA4
  3
INSUNITS
350
FEA5
  3
CEPSNTYPE
350
FEA6
  3
FINGERPRINTGUID
350
FEA7
  3
VERSIONGUID
350
FEA8
  3
PSVPSCALE
350
FEA9
  3
DIMSTYLEDATA
350
FEAA
  3
PUCSORTHOREF
350
FEAB
  3
PUCSORTHOVIEW
350
FEAC
  3
PUCSBASE
350
FEAD
  3
PUCSORGTOP
350
FEAE
  3
PUCSORGBOTTOM
350
FEAF
  3
PUCSORGLEFT
350
FEB0
  3
PUCSORGRIGHT
350
FEB1
  3
PUCSORGFRONT
350
FEB2
  3
PUCSORGBACK
350
FEB3
  3
UCSORTHOREF
350
FEB4
  3
UCSORTHOVIEW
350
FEB5
  3
UCSBASE
350
FEB6
  3
UCSORGTOP
350
FEB7
  3
UCSORGBOTTOM
350
FEB8
  3
UCSORGLEFT
350
FEB9
  3
UCSORGRIGHT
350
FEBA
  3
UCSORGFRONT
350
FEBB
  3
UCSORGBACK
350
FEBC
  0
DICTIONARY
  5
FE92
102
{ACAD_REACTORS
330
74
102
}
330
74
100
AcDbDictionary
  3
*A1
350
FE93
  0
XRECORD
  5
FEBF
102
{ACAD_REACTORS
330
74
102
}
330
74
100
AcDbXrecord
340
1F
  0
XRECORD
  5
FEC5
102
{ACAD_REACTORS
330
FEC4
102
}
330
FEC4
100
AcDbXrecord
340
101
  0
MLINESTYLE
  5
18
102
{ACAD_REACTORS
330
17
102
}
330
17
100
AcDbMlineStyle
  2
STANDARD
 70
     0
  3

 62
   256
 51
90.0
 52
90.0
 71
     2
 49
0.5
 62
   256
  6
BYLAYER
 49
-0.5
 62
   256
  6
BYLAYER
  0
PLOTSETTINGS
  5
399D
102
{ACAD_REACTORS
330
19
102
}
330
19
100
AcDbPlotSettings
  1
asami
  2
RICOH imagio MF1540
  4
A4
  6

 40
5.831416606903076
 41
7.651742935180664
 42
4.90008544921875
 43
5.789077758789062
 44
296.9683227539062
 45
209.9733276367187
 46
0.0
 47
0.0
 48
-156.6707931774246
 49
-74.57609991074048
140
58.59973180214831
141
60.61068161925596
142
1.0
143
1.095343097833084
 70
  1712
 72
     1
 73
     1
 74
     4
  7
asami.ctb
 75
     0
147
0.9129559514076438
148
156.6707931774246
149
74.57609991074048
  0
ACDBPLACEHOLDER
  5
F
102
{ACAD_REACTORS
330
E
102
}
330
E
100
AcDbPlaceHolder
280
     0
  0
DICTIONARYVAR
  5
35
102
{ACAD_REACTORS
330
34
102
}
330
34
100
DictionaryVariables
280
     0
  1
1
  0
DICTIONARYVAR
  5
B5E
102
{ACAD_REACTORS
330
34
102
}
330
34
100
DictionaryVariables
280
     0
  1
96
  0
DICTIONARY
  5
260
102
{ACAD_REACTORS
330
43
102
}
330
43
100
AcDbDictionary
  0
DICTIONARY
  5
2C
102
{ACAD_REACTORS
330
2B
102
}
330
2B
100
AcDbDictionary
  3
DWGSETTINGS
350
2D
  0
XRECORD
  5
FE9D
102
{ACAD_REACTORS
330
FE9C
102
}
330
FE9C
100
AcDbXrecord
 90
        1
  0
XRECORD
  5
FE9E
102
{ACAD_REACTORS
330
FE9C
102
}
330
FE9C
100
AcDbXrecord
 90
       70
  0
XRECORD
  5
FE9F
102
{ACAD_REACTORS
330
FE9C
102
}
330
FE9C
100
AcDbXrecord
  1

  0
XRECORD
  5
FEA0
102
{ACAD_REACTORS
330
FE9C
102
}
330
FE9C
100
AcDbXrecord
  1
ASAMI.ctb
  0
XRECORD
  5
FEA1
102
{ACAD_REACTORS
330
FE9C
102
}
330
FE9C
100
AcDbXrecord
340
1A
  0
XRECORD
  5
FEA2
102
{ACAD_REACTORS
330
FE9C
102
}
330
FE9C
100
AcDbXrecord
340
19
  0
XRECORD
  5
FEA3
102
{ACAD_REACTORS
330
FE9C
102
}
330
FE9C
100
AcDbXrecord
340
E
  0
XRECORD
  5
FEA4
102
{ACAD_REACTORS
330
FE9C
102
}
330
FE9C
100
AcDbXrecord
 90
    10781
  0
XRECORD
  5
FEA5
102
{ACAD_REACTORS
330
FE9C
102
}
330
FE9C
100
AcDbXrecord
 90
        4
  0
XRECORD
  5
FEA6
102
{ACAD_REACTORS
330
FE9C
102
}
330
FE9C
100
AcDbXrecord
 90
        0
  0
XRECORD
  5
FEA7
102
{ACAD_REACTORS
330
FE9C
102
}
330
FE9C
100
AcDbXrecord
  1
{AFB28963-8C59-40AE-9337-C84526B81ACE}
  0
XRECORD
  5
FEA8
102
{ACAD_REACTORS
330
FE9C
102
}
330
FE9C
100
AcDbXrecord
  1
{AAF71F8D-AD83-48C5-8D9A-3474D7AE5F0E}
  0
XRECORD
  5
FEA9
102
{ACAD_REACTORS
330
FE9C
102
}
330
FE9C
100
AcDbXrecord
 40
0.0
  0
XRECORD
  5
FEAA
102
{ACAD_REACTORS
330
FE9C
102
}
330
FE9C
100
AcDbXrecord
1000
DSTYLE
1002
{
1070
    79
 70
     2
1070
   341
340
59
1070
   342
340
59
1070
   371
 70
    -1
1070
   372
 70
    -1
1002
}
  0
XRECORD
  5
FEAB
102
{ACAD_REACTORS
330
FE9C
102
}
330
FE9C
100
AcDbXrecord
340
0
  0
XRECORD
  5
FEAC
102
{ACAD_REACTORS
330
FE9C
102
}
330
FE9C
100
AcDbXrecord
 70
     0
  0
XRECORD
  5
FEAD
102
{ACAD_REACTORS
330
FE9C
102
}
330
FE9C
100
AcDbXrecord
340
0
  0
XRECORD
  5
FEAE
102
{ACAD_REACTORS
330
FE9C
102
}
330
FE9C
100
AcDbXrecord
 10
0.0
 20
0.0
 30
0.0
  0
XRECORD
  5
FEAF
102
{ACAD_REACTORS
330
FE9C
102
}
330
FE9C
100
AcDbXrecord
 10
0.0
 20
0.0
 30
0.0
  0
XRECORD
  5
FEB0
102
{ACAD_REACTORS
330
FE9C
102
}
330
FE9C
100
AcDbXrecord
 10
0.0
 20
0.0
 30
0.0
  0
XRECORD
  5
FEB1
102
{ACAD_REACTORS
330
FE9C
102
}
330
FE9C
100
AcDbXrecord
 10
0.0
 20
0.0
 30
0.0
  0
XRECORD
  5
FEB2
102
{ACAD_REACTORS
330
FE9C
102
}
330
FE9C
100
AcDbXrecord
 10
0.0
 20
0.0
 30
0.0
  0
XRECORD
  5
FEB3
102
{ACAD_REACTORS
330
FE9C
102
}
330
FE9C
100
AcDbXrecord
 10
0.0
 20
0.0
 30
0.0
  0
XRECORD
  5
FEB4
102
{ACAD_REACTORS
330
FE9C
102
}
330
FE9C
100
AcDbXrecord
340
0
  0
XRECORD
  5
FEB5
102
{ACAD_REACTORS
330
FE9C
102
}
330
FE9C
100
AcDbXrecord
 70
     0
  0
XRECORD
  5
FEB6
102
{ACAD_REACTORS
330
FE9C
102
}
330
FE9C
100
AcDbXrecord
340
0
  0
XRECORD
  5
FEB7
102
{ACAD_REACTORS
330
FE9C
102
}
330
FE9C
100
AcDbXrecord
 10
0.0
 20
0.0
 30
0.0
  0
XRECORD
  5
FEB8
102
{ACAD_REACTORS
330
FE9C
102
}
330
FE9C
100
AcDbXrecord
 10
0.0
 20
0.0
 30
0.0
  0
XRECORD
  5
FEB9
102
{ACAD_REACTORS
330
FE9C
102
}
330
FE9C
100
AcDbXrecord
 10
0.0
 20
0.0
 30
0.0
  0
XRECORD
  5
FEBA
102
{ACAD_REACTORS
330
FE9C
102
}
330
FE9C
100
AcDbXrecord
 10
0.0
 20
0.0
 30
0.0
  0
XRECORD
  5
FEBB
102
{ACAD_REACTORS
330
FE9C
102
}
330
FE9C
100
AcDbXrecord
 10
0.0
 20
0.0
 30
0.0
  0
XRECORD
  5
FEBC
102
{ACAD_REACTORS
330
FE9C
102
}
330
FE9C
100
AcDbXrecord
 10
0.0
 20
0.0
 30
0.0
  0
LAYER_INDEX
  5
FE93
102
{ACAD_REACTORS
330
FE92
102
}
330
FE92
100
AcDbIndex
 40
2453152.381094063
100
AcDbLayerIndex
  8
0
360
FE94
 90
        0
  8
AM_0
360
FE95
 90
      110
  8
AM_5
360
FE96
 90
        8
  8
AM_7
360
FE97
 90
        1
  8
AM_6
360
FE98
 90
        1
  8
Defpoints
360
FE99
 90
        0
  8
AM_11
360
FE9A
 90
        4
  0
XRECORD
  5
2D
102
{ACAD_REACTORS
330
2C
102
}
330
2C
100
AcDbXrecord
  1
VERSION
140
15.0
  1
PRODUCT
  2
AutoCAD Mechanical 2000
  0
IDBUFFER
  5
FE94
330
0
100
AcDbIdBuffer
  0
IDBUFFER
  5
FE95
330
0
100
AcDbIdBuffer
330
F176
330
F177
330
F178
330
F179
330
F17A
330
F17B
330
F17C
330
F63A
330
F63B
330
F63C
330
F63D
330
F63E
330
F63F
330
F640
330
F641
330
F642
330
F643
330
F644
330
F645
330
F646
330
F647
330
F648
330
F649
330
F64A
330
F64B
330
F64C
330
F64D
330
F64E
330
F64F
330
F650
330
F651
330
F652
330
F653
330
F654
330
F655
330
F656
330
F657
330
F658
330
F659
330
F65A
330
F65B
330
F65C
330
F65D
330
F65E
330
F65F
330
F660
330
F661
330
F662
330
F663
330
F664
330
F665
330
F666
330
F667
330
F668
330
F669
330
F66A
330
F66B
330
F66C
330
F66D
330
F66E
330
F66F
330
F670
330
F12C
330
F12D
330
F12E
330
F12F
330
F130
330
F131
330
F132
330
F133
330
F134
330
F135
330
F136
330
F137
330
F138
330
F139
330
F13A
330
F13B
330
F13C
330
F13F
330
F14D
330
F14F
330
F150
330
F153
330
F154
330
F155
330
F156
330
F157
330
F158
330
F159
330
F15A
330
F15B
330
F15C
330
F161
330
F162
330
F164
330
F168
330
F169
330
F16A
330
F16B
330
F16C
330
F16D
330
F16E
330
F16F
330
F170
330
F171
330
F172
330
F173
330
F174
330
F175
  0
IDBUFFER
  5
FE96
330
0
100
AcDbIdBuffer
330
F69E
330
F744
330
F7E2
330
F87B
330
F914
330
FAB3
330
FB62
330
FBF7
  0
IDBUFFER
  5
FE97
330
0
100
AcDbIdBuffer
330
F13E
  0
IDBUFFER
  5
FE98
330
0
100
AcDbIdBuffer
330
388D
  0
IDBUFFER
  5
FE99
330
0
100
AcDbIdBuffer
  0
IDBUFFER
  5
FE9A
330
0
100
AcDbIdBuffer
330
F671
330
F679
330
F692
330
F696
  0
ENDSEC
  0
EOF
