  0
SECTION
  2
HEADER
  9
$ACADVER
  1
AC1014
  9
$ACADMAINTVER
 70
     9
  9
$DWGCODEPAGE
  3
ANSI_932
  9
$INSBASE
 10
0.0
 20
0.0
 30
0.0
  9
$EXTMIN
 10
-368.7000152587902
 20
-71.50000000000023
 30
-0.00000001
  9
$EXTMAX
 10
14.66987297499983
 20
43.70000000000026
 30
0.00000001
  9
$LIMMIN
 10
-391.2168458341914
 20
-169.1414022304527
  9
$LIMMAX
 10
132.336931277028
 20
139.3827049396327
  9
$ORTHOMODE
 70
     0
  9
$REGENMODE
 70
     1
  9
$FILLMODE
 70
     1
  9
$QTEXTMODE
 70
     0
  9
$MIRRTEXT
 70
     0
  9
$DRAGMODE
 70
     2
  9
$LTSCALE
 40
1.0
  9
$OSMODE
 70
    55
  9
$ATTMODE
 70
     1
  9
$TEXTSIZE
 40
2.5
  9
$TRACEWID
 40
1.0
  9
$TEXTSTYLE
  7
STANDARD
  9
$CLAYER
  8
AM_0
  9
$CELTYPE
  6
BYLAYER
  9
$CECOLOR
 62
   256
  9
$CELTSCALE
 40
1.0
  9
$DELOBJ
 70
     1
  9
$DISPSILH
 70
     0
  9
$DIMSCALE
 40
0.5
  9
$DIMASZ
 40
2.5
  9
$DIMEXO
 40
1.0
  9
$DIMDLI
 40
12.0
  9
$DIMRND
 40
0.0
  9
$DIMDLE
 40
0.0
  9
$DIMEXE
 40
1.0
  9
$DIMTP
 40
0.1
  9
$DIMTM
 40
0.1
  9
$DIMTXT
 40
3.2
  9
$DIMCEN
 40
0.0
  9
$DIMTSZ
 40
0.0
  9
$DIMTOL
 70
     0
  9
$DIMLIM
 70
     0
  9
$DIMTIH
 70
     0
  9
$DIMTOH
 70
     0
  9
$DIMSE1
 70
     0
  9
$DIMSE2
 70
     0
  9
$DIMTAD
 70
     3
  9
$DIMZIN
 70
     8
  9
$DIMBLK
  1
OPEN30
  9
$DIMASO
 70
     1
  9
$DIMSHO
 70
     1
  9
$DIMPOST
  1

  9
$DIMAPOST
  1
"
  9
$DIMALT
 70
     0
  9
$DIMALTD
 70
     2
  9
$DIMALTF
 40
0.0393701
  9
$DIMLFAC
 40
1.0
  9
$DIMTOFL
 70
     1
  9
$DIMTVP
 40
0.0
  9
$DIMTIX
 70
     0
  9
$DIMSOXD
 70
     0
  9
$DIMSAH
 70
     0
  9
$DIMBLK1
  1

  9
$DIMBLK2
  1

  9
$DIMSTYLE
  2
AM_JIS
  9
$DIMCLRD
 70
   256
  9
$DIMCLRE
 70
   256
  9
$DIMCLRT
 70
     2
  9
$DIMTFAC
 40
0.71
  9
$DIMGAP
 40
1.5
  9
$DIMJUST
 70
     0
  9
$DIMSD1
 70
     0
  9
$DIMSD2
 70
     0
  9
$DIMTOLJ
 70
     0
  9
$DIMTZIN
 70
     0
  9
$DIMALTZ
 70
     0
  9
$DIMALTTZ
 70
     0
  9
$DIMFIT
 70
     3
  9
$DIMUPT
 70
     0
  9
$DIMUNIT
 70
     2
  9
$DIMDEC
 70
     3
  9
$DIMTDEC
 70
     3
  9
$DIMALTU
 70
     2
  9
$DIMALTTD
 70
     2
  9
$DIMTXSTY
  7
ASAMI
  9
$DIMAUNIT
 70
     0
  9
$LUNITS
 70
     2
  9
$LUPREC
 70
     2
  9
$SKETCHINC
 40
1.0
  9
$FILLETRAD
 40
0.4
  9
$AUNITS
 70
     0
  9
$AUPREC
 70
     0
  9
$MENU
  1
.
  9
$ELEVATION
 40
0.0
  9
$PELEVATION
 40
0.0
  9
$THICKNESS
 40
0.0
  9
$LIMCHECK
 70
     1
  9
$BLIPMODE
 70
     0
  9
$CHAMFERA
 40
1.0
  9
$CHAMFERB
 40
1.0
  9
$CHAMFERC
 40
20.0
  9
$CHAMFERD
 40
0.0
  9
$SKPOLY
 70
     0
  9
$TDCREATE
 40
2452802.716478761
  9
$TDUPDATE
 40
2453152.379660289
  9
$TDINDWG
 40
0.9566815509
  9
$TDUSRTIMER
 40
0.9566815509
  9
$USRTIMER
 70
     1
  9
$ANGBASE
 50
0.0
  9
$ANGDIR
 70
     0
  9
$PDMODE
 70
     0
  9
$PDSIZE
 40
0.0
  9
$PLINEWID
 40
0.0
  9
$COORDS
 70
     1
  9
$SPLFRAME
 70
     0
  9
$SPLINETYPE
 70
     6
  9
$SPLINESEGS
 70
     8
  9
$ATTDIA
 70
     1
  9
$ATTREQ
 70
     1
  9
$HANDLING
 70
 12289
  9
$HANDSEED
  5
DD26
  9
$SURFTAB1
 70
     6
  9
$SURFTAB2
 70
     6
  9
$SURFTYPE
 70
     6
  9
$SURFU
 70
     6
  9
$SURFV
 70
     6
  9
$UCSNAME
  2

  9
$UCSORG
 10
-0.0000000000002682
 20
0.000000000000161
 30
0.0
  9
$UCSXDIR
 10
1.0
 20
0.000000000000002
 30
0.0
  9
$UCSYDIR
 10
-0.000000000000002
 20
1.0
 30
0.0
  9
$PUCSNAME
  2

  9
$PUCSORG
 10
0.0
 20
0.0
 30
0.0
  9
$PUCSXDIR
 10
1.0
 20
0.0
 30
0.0
  9
$PUCSYDIR
 10
0.0
 20
1.0
 30
0.0
  9
$USERI1
 70
     0
  9
$USERI2
 70
     0
  9
$USERI3
 70
     0
  9
$USERI4
 70
     0
  9
$USERI5
 70
     0
  9
$USERR1
 40
0.0
  9
$USERR2
 40
0.0
  9
$USERR3
 40
0.0
  9
$USERR4
 40
0.0
  9
$USERR5
 40
0.0
  9
$WORLDVIEW
 70
     1
  9
$SHADEDGE
 70
     3
  9
$SHADEDIF
 70
    70
  9
$TILEMODE
 70
     1
  9
$MAXACTVP
 70
    64
  9
$PINSBASE
 10
0.0
 20
0.0
 30
0.0
  9
$PLIMCHECK
 70
     0
  9
$PEXTMIN
 10
1.000000000000000E+20
 20
1.000000000000000E+20
 30
1.000000000000000E+20
  9
$PEXTMAX
 10
-1.000000000000000E+20
 20
-1.000000000000000E+20
 30
-1.000000000000000E+20
  9
$PLIMMIN
 10
0.0
 20
0.0
  9
$PLIMMAX
 10
841.0
 20
594.0
  9
$UNITMODE
 70
     0
  9
$VISRETAIN
 70
     1
  9
$PLINEGEN
 70
     0
  9
$PSLTSCALE
 70
     0
  9
$TREEDEPTH
 70
  3020
  9
$PICKSTYLE
 70
     0
  9
$CMLSTYLE
  2
STANDARD
  9
$CMLJUST
 70
     0
  9
$CMLSCALE
 40
20.0
  9
$PROXYGRAPHICS
 70
     1
  9
$MEASUREMENT
 70
     1
  0
ENDSEC
  0
SECTION
  2
CLASSES
  0
CLASS
  1
ACDBDICTIONARYWDFLT
  2
AcDbDictionaryWithDefault
  3
AutoCAD 2000
 90
        0
280
     0
281
     0
  0
CLASS
  1
ACDBPLACEHOLDER
  2
AcDbPlaceHolder
  3
AutoCAD 2000
 90
        0
280
     0
281
     0
  0
CLASS
  1
LAYOUT
  2
AcDbLayout
  3
AutoCAD 2000
 90
        0
280
     0
281
     0
  0
CLASS
  1
AMGSETTINGSOBJ
  2
AmgSettingsObj
  3
"AcadM|Product Description: AutoCAD Mechanical 2000|Company: Autodesk"
 90
        0
280
     0
281
     0
  0
CLASS
  1
ACME_DOCUMENT
  2
AcMeDbDoc
  3
AcMeServices
 90
        0
280
     0
281
     0
  0
CLASS
  1
ACMESCOPE
  2
AcMeScope
  3
AcMeServices
 90
        0
280
     0
281
     0
  0
CLASS
  1
ACMECOMMANDHISTORY
  2
AcMeCommandHistory
  3
AcMeServices
 90
        0
280
     0
281
     0
  0
CLASS
  1
DICTIONARYVAR
  2
AcDbDictionaryVar
  3
AutoCAD 2000
 90
        0
280
     0
281
     0
  0
CLASS
  1
ACIMSYSVARMAN
  2
AcImSysVarManager
  3
AcMeServices
 90
        0
280
     0
281
     0
  0
CLASS
  1
ACIMREALSYSVAR
  2
AcImRealSysVar
  3
AcMeServices
 90
        0
280
     0
281
     0
  0
CLASS
  1
ACIMINTSYSVAR
  2
AcImIntSysVar
  3
AcMeServices
 90
        0
280
     0
281
     0
  0
CLASS
  1
ACMEDRAWINGMAN
  2
AcMeDrawingMan
  3
AcMeServices
 90
        0
280
     0
281
     0
  0
CLASS
  1
ACMEVIEW
  2
AcMeView
  3
AcMeServices
 90
        0
280
     0
281
     0
  0
CLASS
  1
ACDBENTITYCACHE
  2
AcMeEntityCache
  3
AcMeServices
 90
        0
280
     0
281
     0
  0
CLASS
  1
GSMANAGER
  2
AcMeGSManager
  3
AcMeServices
 90
        0
280
     0
281
     0
  0
CLASS
  1
AmdtInternalReactor
  2
AmdtInternalReactor
  3
AcMeServices
 90
        0
280
     0
281
     0
  0
CLASS
  1
ACMESTATEMGR
  2
AcMeStateMgr
  3
AcMeServices
 90
        0
280
     0
281
     0
  0
CLASS
  1
ACME_DATABASE
  2
AcMeDbDatabase
  3
AcMeServices
 90
        0
280
     0
281
     0
  0
CLASS
  1
ACRFINSADJUSTERMGR
  2
AcRfInsAdjusterMgr
  3
AcMeServices
 90
        0
280
     0
281
     0
  0
CLASS
  1
ACMDATADICTIONARY
  2
AcmDataDictionary
  3
"AcmSymBB|Product Description: AutoCAD Mechanical 2000|Company: Autodesk"
 90
        0
280
     0
281
     0
  0
CLASS
  1
ACMDATAENTRYBLOCK
  2
AcmDataEntryBlock
  3
"AcmSymBB|Product Description: AutoCAD Mechanical 2000|Company: Autodesk"
 90
        0
280
     0
281
     0
  0
CLASS
  1
AMGOBJPROPCFG
  2
AmgObjPropCfg
  3
"AmgLay|Product Description: AutoCAD Mechanical 2000|Company: Autodesk"
 90
        1
280
     0
281
     0
  0
CLASS
  1
ACAMGFILTERDAT
  2
AcAmgFilterDat
  3
"AcadM|Product Description: AutoCAD Mechanical 2000|Company: Autodesk"
 90
        0
280
     0
281
     0
  0
CLASS
  1
LAYER_INDEX
  2
AcDbLayerIndex
  3
AutoCAD 2000
 90
        0
280
     0
281
     0
  0
CLASS
  1
IDBUFFER
  2
AcDbIdBuffer
  3
AutoCAD 2000
 90
        0
280
     0
281
     0
  0
CLASS
  1
ACIMSTRSYSVAR
  2
AcImStrSysVar
  3
AcMeServices
 90
        0
280
     0
281
     0
  0
CLASS
  1
ACMSTANDARDJIS
  2
AcmStandardJIS
  3
"AcmSymBB|Product Description: AutoCAD Mechanical 2000|Company: Autodesk"
 90
        0
280
     0
281
     0
  0
CLASS
  1
ACMSURFSTANDARDJIS
  2
AcmSurfTextStdJIS
  3
"AcmSymBB|Product Description: AutoCAD Mechanical 2000|Company: Autodesk"
 90
        0
280
     0
281
     0
  0
CLASS
  1
ACMFCFSTANDARDJIS
  2
AcmFCFStdJIS
  3
"AcmSymBB|Product Description: AutoCAD Mechanical 2000|Company: Autodesk"
 90
        0
280
     0
281
     0
  0
CLASS
  1
ACMWELDSTANDARDJIS
  2
AcmWeldingStdJIS
  3
"AcmSymBB|Product Description: AutoCAD Mechanical 2000|Company: Autodesk"
 90
        0
280
     0
281
     0
  0
CLASS
  1
ACMIDSTANDARDJIS
  2
AcmIdStdJIS
  3
"AcmSymBB|Product Description: AutoCAD Mechanical 2000|Company: Autodesk"
 90
        0
280
     0
281
     0
  0
CLASS
  1
ACMDATUMSTANDARDJIS
  2
AcmDatumStdJIS
  3
"AcmSymBB|Product Description: AutoCAD Mechanical 2000|Company: Autodesk"
 90
        0
280
     0
281
     0
  0
CLASS
  1
ACMBOMSTANDARDJIS
  2
AcmBOMStdJIS
  3
"AcmSymBB|Product Description: AutoCAD Mechanical 2000|Company: Autodesk"
 90
        0
280
     0
281
     0
  0
CLASS
  1
ACMSTANDARDANSI
  2
AcmStandardANSI
  3
"AcmSymBB|Product Description: AutoCAD Mechanical 2000|Company: Autodesk"
 90
        0
280
     0
281
     0
  0
CLASS
  1
ACMSURFSTANDARDANSI
  2
AcmSurfTextStdANSI
  3
"AcmSymBB|Product Description: AutoCAD Mechanical 2000|Company: Autodesk"
 90
        0
280
     0
281
     0
  0
CLASS
  1
ACMFCFSTANDARDANSI
  2
AcmFCFStdANSI
  3
"AcmSymBB|Product Description: AutoCAD Mechanical 2000|Company: Autodesk"
 90
        0
280
     0
281
     0
  0
CLASS
  1
ACMWELDSTANDARDANSI
  2
AcmWeldingStdANSI
  3
"AcmSymBB|Product Description: AutoCAD Mechanical 2000|Company: Autodesk"
 90
        0
280
     0
281
     0
  0
CLASS
  1
ACMIDSTANDARDANSI
  2
AcmIdStdANSI
  3
"AcmSymBB|Product Description: AutoCAD Mechanical 2000|Company: Autodesk"
 90
        0
280
     0
281
     0
  0
CLASS
  1
ACMDATUMSTANDARDANSI
  2
AcmDatumStdANSI
  3
"AcmSymBB|Product Description: AutoCAD Mechanical 2000|Company: Autodesk"
 90
        0
280
     0
281
     0
  0
CLASS
  1
ACMBOMSTANDARDANSI
  2
AcmBOMStdANSI
  3
"AcmSymBB|Product Description: AutoCAD Mechanical 2000|Company: Autodesk"
 90
        0
280
     0
281
     0
  0
CLASS
  1
ACMSTANDARDBSI
  2
AcmStandardBSI
  3
"AcmSymBB|Product Description: AutoCAD Mechanical 2000|Company: Autodesk"
 90
        0
280
     0
281
     0
  0
CLASS
  1
ACMSURFSTANDARDBSI
  2
AcmSurfTextStdBSI
  3
"AcmSymBB|Product Description: AutoCAD Mechanical 2000|Company: Autodesk"
 90
        0
280
     0
281
     0
  0
CLASS
  1
ACMFCFSTANDARDBSI
  2
AcmFCFStdBSI
  3
"AcmSymBB|Product Description: AutoCAD Mechanical 2000|Company: Autodesk"
 90
        0
280
     0
281
     0
  0
CLASS
  1
ACMWELDSTANDARDBSI
  2
AcmWeldingStdBSI
  3
"AcmSymBB|Product Description: AutoCAD Mechanical 2000|Company: Autodesk"
 90
        0
280
     0
281
     0
  0
CLASS
  1
ACMIDSTANDARDBSI
  2
AcmIdStdBSI
  3
"AcmSymBB|Product Description: AutoCAD Mechanical 2000|Company: Autodesk"
 90
        0
280
     0
281
     0
  0
CLASS
  1
ACMDATUMSTANDARDBSI
  2
AcmDatumStdBSI
  3
"AcmSymBB|Product Description: AutoCAD Mechanical 2000|Company: Autodesk"
 90
        0
280
     0
281
     0
  0
CLASS
  1
ACMBOMSTANDARDBSI
  2
AcmBOMStdBSI
  3
"AcmSymBB|Product Description: AutoCAD Mechanical 2000|Company: Autodesk"
 90
        0
280
     0
281
     0
  0
CLASS
  1
STDPART2D
  2
AmgStdPart
  3
"AmgStdPart|Product Description: AutoCAD Mechanical 2000|Company: Autodesk"
 90
     1023
280
     0
281
     1
  0
CLASS
  1
PLOTSETTINGS
  2
AcDbPlotSettings
  3
AutoCAD 2000
 90
        0
280
     0
281
     0
  0
CLASS
  1
LONG_TRANSACTION
  2
AcDbLongTransaction
  3
AutoCAD 2000
 90
        0
280
     0
281
     0
  0
CLASS
  1
LWPOLYLINE
  2
AcDbPolyline
  3
AutoCAD 2000
 90
        0
280
     0
281
     1
  0
CLASS
  1
HATCH
  2
AcDbHatch
  3
AutoCAD 2000
 90
        0
280
     0
281
     1
  0
CLASS
  1
XRECORD
  2
AcDbXrecord
  3
AutoCAD 2000
 90
        0
280
     0
281
     0
  0
ENDSEC
  0
SECTION
  2
TABLES
  0
TABLE
  2
VPORT
  5
8
330
0
100
AcDbSymbolTable
 70
     3
  0
VPORT
  5
DCBC
330
8
100
AcDbSymbolTableRecord
100
AcDbViewportTableRecord
  2
*ACTIVE
 70
     0
 10
0.0
 20
0.0
 11
1.0
 21
1.0
 12
-177.0070157295749
 22
-18.54903649720307
 13
0.0
 23
0.0
 14
2.5
 24
2.5
 15
10.0
 25
10.0
 16
0.0
 26
0.0
 36
1.0
 17
0.0
 27
0.0
 37
0.0
 40
276.0100230634769
 41
1.56570841889117
 42
50.0
 43
0.0
 44
0.0
 50
0.0
 51
0.0
 71
     0
 72
   100
 73
     1
 74
     3
 75
     0
 76
     0
 77
     0
 78
     0
  0
ENDTAB
  0
TABLE
  2
LTYPE
  5
5
330
0
100
AcDbSymbolTable
 70
    10
  0
LTYPE
  5
14
330
5
100
AcDbSymbolTableRecord
100
AcDbLinetypeTableRecord
  2
BYBLOCK
 70
     0
  3

 72
    65
 73
     0
 40
0.0
  0
LTYPE
  5
15
330
5
100
AcDbSymbolTableRecord
100
AcDbLinetypeTableRecord
  2
BYLAYER
 70
     0
  3

 72
    65
 73
     0
 40
0.0
  0
LTYPE
  5
16
330
5
100
AcDbSymbolTableRecord
100
AcDbLinetypeTableRecord
  2
CONTINUOUS
 70
     0
  3
Solid line
 72
    65
 73
     0
 40
0.0
  0
LTYPE
  5
4B
330
5
100
AcDbSymbolTableRecord
100
AcDbLinetypeTableRecord
  2
AM_ISO02W050
 70
     0
  3
__ __ __ __ __ __ __ __ __ __ __ __ __ __ __
 72
    65
 73
     2
 40
7.5
 49
6.0
 74
     0
 49
-1.5
 74
     0
  0
LTYPE
  5
4C
330
5
100
AcDbSymbolTableRecord
100
AcDbLinetypeTableRecord
  2
AM_ISO08W050
 70
     0
  3
____ . ____ . ____ . ____ . ____ . ____ . ____
 72
    65
 73
     4
 40
18.0
 49
12.0
 74
     0
 49
-1.5
 74
     0
 49
3.0
 74
     0
 49
-1.5
 74
     0
  0
LTYPE
  5
4D
330
5
100
AcDbSymbolTableRecord
100
AcDbLinetypeTableRecord
  2
AM_ISO09W050
 70
     0
  3
_____ . . _____ . . _____ . . ____ .. ____
 72
    65
 73
     6
 40
22.5
 49
12.0
 74
     0
 49
-1.5
 74
     0
 49
3.0
 74
     0
 49
-1.5
 74
     0
 49
3.0
 74
     0
 49
-1.5
 74
     0
  0
LTYPE
  5
4E
330
5
100
AcDbSymbolTableRecord
100
AcDbLinetypeTableRecord
  2
AMCONSTR
 70
     0
  3
_______________________
 72
    65
 73
     2
 40
9999.0
 49
9999.0
 74
     0
 49
0.0
 74
     0
  0
LTYPE
  5
4F
330
5
100
AcDbSymbolTableRecord
100
AcDbLinetypeTableRecord
  2
AM_ISO02W050X2
 70
     0
  3
 _ _ _ _ _ _ _ _ _ _ _ _
 72
    65
 73
     2
 40
3.75
 49
3.0
 74
     0
 49
-0.75
 74
     0
  0
LTYPE
  5
50
330
5
100
AcDbSymbolTableRecord
100
AcDbLinetypeTableRecord
  2
AM_ISO08W050X2
 70
     0
  3
__ . __ . __ . __ . __ . __
 72
    65
 73
     4
 40
9.0
 49
6.0
 74
     0
 49
-0.75
 74
     0
 49
1.5
 74
     0
 49
-0.75
 74
     0
  0
LTYPE
  5
53
330
5
100
AcDbSymbolTableRecord
100
AcDbLinetypeTableRecord
  2
AMZIGZAG
 70
     0
  3
/\/-/\/-/\/-/\/-/\/-/\/
 72
    65
 73
     2
 40
11.00009999999999
 49
0.0001
 74
     4
 75
   135
340
52
 46
0.04
 50
0.0
 44
0.0
 45
0.0
 49
-11.0
 74
     0
  0
LTYPE
  5
166
330
5
100
AcDbSymbolTableRecord
100
AcDbLinetypeTableRecord
  2
ACJISTGL
 70
     0
  3
_ _ _ _ _
 72
    65
 73
     2
 40
3.0
 49
2.0
 74
     0
 49
-1.0
 74
     0
  0
LTYPE
  5
26A
330
5
100
AcDbSymbolTableRecord
100
AcDbLinetypeTableRecord
  2
ACJISTGB
 70
     0
  3
__ . . __ . .
 72
    65
 73
     6
 40
9.0
 49
4.0
 74
     0
 49
-1.0
 74
     0
 49
1.0
 74
     0
 49
-1.0
 74
     0
 49
1.0
 74
     0
 49
-1.0
 74
     0
  0
ENDTAB
  0
TABLE
  2
LAYER
  5
2
330
0
100
AcDbSymbolTable
 70
     7
  0
LAYER
  5
10
330
2
100
AcDbSymbolTableRecord
100
AcDbLayerTableRecord
  2
0
 70
     0
 62
     7
  6
CONTINUOUS
  0
LAYER
  5
3F9
330
2
100
AcDbSymbolTableRecord
100
AcDbLayerTableRecord
  2
AM_0
 70
     0
 62
     7
  6
CONTINUOUS
  0
LAYER
  5
BA4
330
2
100
AcDbSymbolTableRecord
100
AcDbLayerTableRecord
  2
AM_5
 70
     0
 62
     3
  6
CONTINUOUS
  0
LAYER
  5
BA6
330
2
100
AcDbSymbolTableRecord
100
AcDbLayerTableRecord
  2
AM_7
 70
     0
 62
     4
  6
AM_ISO08W050
  0
LAYER
  5
E64
330
2
100
AcDbSymbolTableRecord
100
AcDbLayerTableRecord
  2
AM_6
 70
     0
 62
     2
  6
CONTINUOUS
  0
LAYER
  5
F4D
330
2
100
AcDbSymbolTableRecord
100
AcDbLayerTableRecord
  2
DEFPOINTS
 70
     0
 62
     7
  6
CONTINUOUS
  0
LAYER
  5
4E80
330
2
100
AcDbSymbolTableRecord
100
AcDbLayerTableRecord
  2
AM_11
 70
     0
 62
     3
  6
AM_ISO09W050
  0
ENDTAB
  0
TABLE
  2
STYLE
  5
3
330
0
100
AcDbSymbolTable
 70
     5
  0
STYLE
  5
11
330
3
100
AcDbSymbolTableRecord
100
AcDbTextStyleTableRecord
  2
STANDARD
 70
     0
 40
0.0
 41
1.0
 50
0.0
 71
     0
 42
2.5
  3
simplex.shx
  4
EXTFONT.SHX
  0
STYLE
  5
52
330
3
100
AcDbSymbolTableRecord
100
AcDbTextStyleTableRecord
  2

 70
     1
 40
0.0
 41
1.0
 50
0.0
 71
     0
 42
2.5
  3
ltypeshp.shx
  4

  0
STYLE
  5
6B
330
3
100
AcDbSymbolTableRecord
100
AcDbTextStyleTableRecord
  2
ASAMI
 70
     0
 40
0.0
 41
1.0
 50
0.0
 71
     0
 42
2.5
  3
simplex.shx
  4
EXTFONT.SHX
  0
STYLE
  5
262
330
3
100
AcDbSymbolTableRecord
100
AcDbTextStyleTableRecord
  2
ACJISTS
 70
     0
 40
1.0
 41
1.0
 50
0.0
 71
     0
 42
2.5
  3
simplex.shx
  4
bigfont.shx
  0
STYLE
  5
269
330
3
100
AcDbSymbolTableRecord
100
AcDbTextStyleTableRecord
  2
ACJISGDT
 70
     0
 40
0.0
 41
1.0
 50
0.0
 71
     0
 42
2.5
  3
amgdtans.shx
  4

  0
ENDTAB
  0
TABLE
  2
VIEW
  5
6
330
0
100
AcDbSymbolTable
 70
     0
  0
ENDTAB
  0
TABLE
  2
UCS
  5
7
330
0
100
AcDbSymbolTable
 70
     0
  0
ENDTAB
  0
TABLE
  2
APPID
  5
9
330
0
100
AcDbSymbolTable
 70
    24
  0
APPID
  5
12
330
9
100
AcDbSymbolTableRecord
100
AcDbRegAppTableRecord
  2
ACAD
 70
     0
  0
APPID
  5
30
330
9
100
AcDbSymbolTableRecord
100
AcDbRegAppTableRecord
  2
MCAD_NO_VIS
 70
     0
  0
APPID
  5
31
330
9
100
AcDbSymbolTableRecord
100
AcDbRegAppTableRecord
  2
ACAD_TEMP_GRAPHIC
 70
     0
  0
APPID
  5
2C2
330
9
100
AcDbSymbolTableRecord
100
AcDbRegAppTableRecord
  2
GENIUS_GENDTOL_13
 70
     0
  0
APPID
  5
339
330
9
100
AcDbSymbolTableRecord
100
AcDbRegAppTableRecord
  2
GENIUS_GENODEF_13
 70
     0
  0
APPID
  5
33A
330
9
100
AcDbSymbolTableRecord
100
AcDbRegAppTableRecord
  2
GENIUS_GENOBJ-N-RSBK_13
 70
     0
  0
APPID
  5
33B
330
9
100
AcDbSymbolTableRecord
100
AcDbRegAppTableRecord
  2
GENIUS_GENOBJ-N-LIB_13
 70
     0
  0
APPID
  5
33C
330
9
100
AcDbSymbolTableRecord
100
AcDbRegAppTableRecord
  2
GENIUS_GENSCALE_13
 70
     0
  0
APPID
  5
378
330
9
100
AcDbSymbolTableRecord
100
AcDbRegAppTableRecord
  2
GENIUS_GENDIMSH_14
 70
     0
  0
APPID
  5
BB0
330
9
100
AcDbSymbolTableRecord
100
AcDbRegAppTableRecord
  2
GENIUS_GENOBJ-N-CEN_13
 70
     0
  0
APPID
  5
BB1
330
9
100
AcDbSymbolTableRecord
100
AcDbRegAppTableRecord
  2
GENIUS_GENFIL_13
 70
     0
  0
APPID
  5
BB2
330
9
100
AcDbSymbolTableRecord
100
AcDbRegAppTableRecord
  2
GENIUS_GENOBJ-N-CHA_13
 70
     0
  0
APPID
  5
1FAF
330
9
100
AcDbSymbolTableRecord
100
AcDbRegAppTableRecord
  2
GENIUS_GENOBJ-N-CRS_13
 70
     0
  0
APPID
  5
1FB0
330
9
100
AcDbSymbolTableRecord
100
AcDbRegAppTableRecord
  2
GENIUS_GENOENT_13
 70
     0
  0
APPID
  5
1FB1
330
9
100
AcDbSymbolTableRecord
100
AcDbRegAppTableRecord
  2
GENIUS_GENOREF_13
 70
     0
  0
APPID
  5
1FB2
330
9
100
AcDbSymbolTableRecord
100
AcDbRegAppTableRecord
  2
GENIUS_GENOLIS_13
 70
     0
  0
APPID
  5
1FB7
330
9
100
AcDbSymbolTableRecord
100
AcDbRegAppTableRecord
  2
GENIUS_GENOBJ-N-FIL_13
 70
     0
  0
APPID
  5
22A8
330
9
100
AcDbSymbolTableRecord
100
AcDbRegAppTableRecord
  2
GEVID1056506048
 70
     0
  0
APPID
  5
22A9
330
9
100
AcDbSymbolTableRecord
100
AcDbRegAppTableRecord
  2
GEVDC
 70
     0
  0
APPID
  5
22AC
330
9
100
AcDbSymbolTableRecord
100
AcDbRegAppTableRecord
  2
GENIUS_GENBH_13
 70
     0
  0
APPID
  5
22B8
330
9
100
AcDbSymbolTableRecord
100
AcDbRegAppTableRecord
  2
GENIUS_GENOBJ-NBEHI-BHF_13
 70
     0
  0
APPID
  5
22BA
330
9
100
AcDbSymbolTableRecord
100
AcDbRegAppTableRecord
  2
GENIUS_GENOBJ-NBEHI-BHB_13
 70
     0
  0
APPID
  5
35C9
330
9
100
AcDbSymbolTableRecord
100
AcDbRegAppTableRecord
  2
GENIUS_GENREC_14
 70
     0
  0
APPID
  5
35CA
330
9
100
AcDbSymbolTableRecord
100
AcDbRegAppTableRecord
  2
GENIUS_GENOBJ-N-REC_13
 70
     0
  0
ENDTAB
  0
TABLE
  2
DIMSTYLE
  5
A
330
0
100
AcDbSymbolTable
 70
     9
  0
DIMSTYLE
105
58
330
A
100
AcDbSymbolTableRecord
100
AcDbDimStyleTableRecord
  2
AM_JIS
 70
     0
  3

  4
"
  5
OPEN30
  6

  7

 40
1.0
 41
2.5
 42
1.0
 43
12.0
 44
1.0
 45
0.0
 46
0.0
 47
0.1
 48
0.1
140
3.2
141
0.0
142
0.0
143
0.0393701
144
1.0
145
0.0
146
0.71
147
1.5
 71
     0
 72
     0
 73
     0
 74
     0
 75
     0
 76
     0
 77
     3
 78
     8
170
     0
171
     2
172
     1
173
     0
174
     0
175
     0
176
   256
177
   256
178
     2
270
     2
271
     3
272
     3
273
     2
274
     2
340
6B
275
     0
280
     0
281
     0
282
     0
283
     0
284
     0
285
     0
286
     0
287
     3
288
     0
  0
DIMSTYLE
105
5F
330
A
100
AcDbSymbolTableRecord
100
AcDbDimStyleTableRecord
  2
AM_JIS$3
 70
     0
  3

  4
"
  5
OPEN30
  6

  7

 40
1.0
 41
2.5
 42
1.0
 43
10.0
 44
1.0
 45
0.0
 46
0.0
 47
0.1
 48
0.1
140
3.2
141
0.0
142
0.0
143
0.0393701
144
1.0
145
0.0
146
0.71
147
1.5
 71
     0
 72
     0
 73
     0
 74
     1
 75
     0
 76
     0
 77
     3
 78
     8
170
     0
171
     2
172
     0
173
     0
174
     0
175
     0
176
   256
177
   256
178
     2
270
     2
271
     2
272
     3
273
     2
274
     2
340
6B
275
     0
280
     0
281
     0
282
     0
283
     0
284
     0
285
     0
286
     0
287
     0
288
     1
  0
DIMSTYLE
105
60
330
A
100
AcDbSymbolTableRecord
100
AcDbDimStyleTableRecord
  2
AM_JIS$4
 70
     0
  3

  4
"
  5
OPEN30
  6

  7

 40
1.0
 41
2.5
 42
1.0
 43
10.0
 44
1.0
 45
0.0
 46
0.0
 47
0.1
 48
0.1
140
3.2
141
0.0
142
0.0
143
0.0393701
144
1.0
145
0.0
146
0.71
147
1.5
 71
     0
 72
     0
 73
     0
 74
     1
 75
     0
 76
     0
 77
     3
 78
     8
170
     0
171
     2
172
     0
173
     0
174
     0
175
     0
176
   256
177
   256
178
     2
270
     2
271
     2
272
     3
273
     2
274
     2
340
6B
275
     0
280
     0
281
     0
282
     0
283
     0
284
     0
285
     0
286
     0
287
     0
288
     1
  0
DIMSTYLE
105
61
330
A
100
AcDbSymbolTableRecord
100
AcDbDimStyleTableRecord
  2
AM_JIS$6
 70
     0
  3

  4
"
  5
OPEN30
  6

  7

 40
1.0
 41
2.5
 42
1.0
 43
10.0
 44
1.0
 45
0.0
 46
0.0
 47
0.1
 48
0.1
140
3.2
141
0.0
142
0.0
143
0.0393701
144
1.0
145
0.0
146
0.71
147
1.5
 71
     0
 72
     0
 73
     0
 74
     0
 75
     0
 76
     0
 77
     0
 78
     8
170
     0
171
     2
172
     1
173
     0
174
     0
175
     0
176
   256
177
   256
178
     2
270
     2
271
     2
272
     2
273
     2
274
     2
340
6B
275
     0
280
     0
281
     0
282
     0
283
     0
284
     0
285
     0
286
     0
287
     3
288
     0
  0
DIMSTYLE
105
62
330
A
100
AcDbSymbolTableRecord
100
AcDbDimStyleTableRecord
  2
AM_JIS$7
 70
     0
  3

  4
"
  5
OPEN30
  6

  7

 40
1.0
 41
2.5
 42
1.0
 43
10.0
 44
1.0
 45
0.0
 46
0.0
 47
0.1
 48
0.1
140
3.2
141
0.0
142
0.0
143
0.0393701
144
1.0
145
0.0
146
0.71
147
1.5
 71
     0
 72
     0
 73
     0
 74
     0
 75
     0
 76
     0
 77
     3
 78
     8
170
     0
171
     2
172
     1
173
     0
174
     0
175
     0
176
   256
177
   256
178
     2
270
     2
271
     2
272
     3
273
     2
274
     2
340
6B
275
     0
280
     0
281
     0
282
     0
283
     0
284
     0
285
     0
286
     0
287
     3
288
     0
  0
DIMSTYLE
105
63
330
A
100
AcDbSymbolTableRecord
100
AcDbDimStyleTableRecord
  2
AM_JIS$SF
 70
     0
  3

  4
"
  5
OPEN30
  6

  7

 40
1.0
 41
2.5
 42
1.0
 43
10.0
 44
1.0
 45
0.0
 46
0.0
 47
0.1
 48
0.1
140
3.2
141
0.0
142
0.0
143
0.0393701
144
1.0
145
0.0
146
0.71
147
1.5
 71
     0
 72
     0
 73
     0
 74
     0
 75
     1
 76
     1
 77
     3
 78
     8
170
     0
171
     2
172
     1
173
     0
174
     0
175
     0
176
   256
177
   256
178
     2
270
     2
271
     2
272
     2
273
     2
274
     2
340
6B
275
     0
280
     0
281
     0
282
     0
283
     0
284
     0
285
     0
286
     0
287
     3
288
     0
  0
DIMSTYLE
105
68
330
A
100
AcDbSymbolTableRecord
100
AcDbDimStyleTableRecord
  2
AM_JIS$SH
 70
     0
  3

  4
"
  5

  6
GENAXEH
  7
OPEN30
 40
1.0
 41
2.5
 42
1.0
 43
10.0
 44
1.0
 45
0.0
 46
0.0
 47
0.1
 48
0.1
140
3.2
141
0.0
142
0.0
143
0.0393701
144
2.0
145
0.0
146
0.71
147
1.5
 71
     0
 72
     0
 73
     0
 74
     0
 75
     1
 76
     1
 77
     3
 78
     8
170
     0
171
     2
172
     1
173
     1
174
     0
175
     0
176
   256
177
   256
178
     2
270
     2
271
     2
272
     2
273
     2
274
     2
340
6B
275
     0
280
     0
281
     0
282
     0
283
     0
284
     0
285
     0
286
     0
287
     3
288
     0
  0
DIMSTYLE
105
B34
330
A
100
AcDbSymbolTableRecord
100
AcDbDimStyleTableRecord
  2
AM_JIS$2
 70
     0
  3

  4
"
  5
OPEN30
  6

  7

 40
1.0
 41
2.5
 42
1.0
 43
12.0
 44
1.0
 45
0.0
 46
0.0
 47
0.1
 48
0.1
140
3.2
141
0.0
142
0.0
143
0.0393701
144
1.0
145
0.0
146
0.71
147
1.5
 71
     0
 72
     0
 73
     0
 74
     0
 75
     0
 76
     0
 77
     3
 78
     8
170
     0
171
     2
172
     1
173
     0
174
     0
175
     0
176
   256
177
   256
178
     2
270
     2
271
     3
272
     3
273
     2
274
     2
340
6B
275
     0
280
     0
281
     0
282
     0
283
     0
284
     0
285
     0
286
     0
287
     3
288
     0
  0
DIMSTYLE
105
3B48
102
{ACAD_REACTORS
330
D670
330
D6FC
330
D5E4
330
D53E
330
D7FF
330
D8CD
330
D962
102
}
330
A
100
AcDbSymbolTableRecord
100
AcDbDimStyleTableRecord
  2
AM_JIS$0
 70
     0
  3

  4
"
  5
OPEN30
  6

  7

 40
1.0
 41
2.5
 42
0.0
 43
10.0
 44
1.0
 45
0.0
 46
0.0
 47
0.1
 48
0.1000000001
140
3.799999999999999
141
0.0
142
0.0
143
0.0393701
144
1.0
145
0.0
146
0.71
147
1.5
 71
     0
 72
     0
 73
     0
 74
     0
 75
     0
 76
     0
 77
     3
 78
     1
170
     0
171
     2
172
     1
173
     0
174
     0
175
     0
176
     3
177
     3
178
     2
270
     2
271
     2
272
     2
273
     2
274
     2
340
11
275
     1
280
     0
281
     0
282
     0
283
     0
284
     8
285
     0
286
     0
287
     0
288
     0
  0
ENDTAB
  0
TABLE
  2
BLOCK_RECORD
  5
1
330
0
100
AcDbSymbolTable
 70
    12
  0
BLOCK_RECORD
  5
1F
102
{ACAD_XDICTIONARY
360
74
102
}
330
1
100
AcDbSymbolTableRecord
100
AcDbBlockTableRecord
  2
*MODEL_SPACE
  0
BLOCK_RECORD
  5
101
102
{ACAD_XDICTIONARY
360
DCE5
102
}
330
1
100
AcDbSymbolTableRecord
100
AcDbBlockTableRecord
  2
*PAPER_SPACE
  0
BLOCK_RECORD
  5
59
330
1
100
AcDbSymbolTableRecord
100
AcDbBlockTableRecord
  2
_OPEN30
  0
BLOCK_RECORD
  5
64
330
1
100
AcDbSymbolTableRecord
100
AcDbBlockTableRecord
  2
GENAXEH
  0
BLOCK_RECORD
  5
D53F
330
1
100
AcDbSymbolTableRecord
100
AcDbBlockTableRecord
  2
*D5
  0
BLOCK_RECORD
  5
D5E5
330
1
100
AcDbSymbolTableRecord
100
AcDbBlockTableRecord
  2
*D6
  0
BLOCK_RECORD
  5
D671
330
1
100
AcDbSymbolTableRecord
100
AcDbBlockTableRecord
  2
*D7
  0
BLOCK_RECORD
  5
D6FD
330
1
100
AcDbSymbolTableRecord
100
AcDbBlockTableRecord
  2
*D8
  0
BLOCK_RECORD
  5
D800
330
1
100
AcDbSymbolTableRecord
100
AcDbBlockTableRecord
  2
*D9
  0
BLOCK_RECORD
  5
D8CE
330
1
100
AcDbSymbolTableRecord
100
AcDbBlockTableRecord
  2
*D10
  0
BLOCK_RECORD
  5
D963
330
1
100
AcDbSymbolTableRecord
100
AcDbBlockTableRecord
  2
*D11
  0
ENDTAB
  0
ENDSEC
  0
SECTION
  2
BLOCKS
  0
BLOCK
  5
20
330
1F
100
AcDbEntity
  8
0
100
AcDbBlockBegin
  2
*MODEL_SPACE
 70
     0
 10
0.0
 20
0.0
 30
0.0
  3
*MODEL_SPACE
  1

  0
ENDBLK
  5
21
330
1F
100
AcDbEntity
  8
0
100
AcDbBlockEnd
  0
BLOCK
  5
103
330
101
100
AcDbEntity
 67
     1
  8
0
100
AcDbBlockBegin
  2
*PAPER_SPACE
 70
     0
 10
0.0
 20
0.0
 30
0.0
  3
*PAPER_SPACE
  1

  0
ENDBLK
  5
104
330
101
100
AcDbEntity
 67
     1
  8
0
100
AcDbBlockEnd
  0
BLOCK
  5
5D
330
59
100
AcDbEntity
  8
0
100
AcDbBlockBegin
  2
_OPEN30
 70
     0
 10
0.0
 20
0.0
 30
0.0
  3
_OPEN30
  1

  0
LINE
  5
5A
330
59
100
AcDbEntity
  8
0
 62
     0
100
AcDbLine
 10
-1.0
 20
0.26794919
 30
0.0
 11
0.0
 21
0.0
 31
0.0
  0
LINE
  5
5B
330
59
100
AcDbEntity
  8
0
 62
     0
100
AcDbLine
 10
0.0
 20
0.0
 30
0.0
 11
-1.0
 21
-0.26794919
 31
0.0
  0
LINE
  5
5C
330
59
100
AcDbEntity
  8
0
 62
     0
100
AcDbLine
 10
0.0
 20
0.0
 30
0.0
 11
-1.0
 21
0.0
 31
0.0
  0
ENDBLK
  5
5E
330
59
100
AcDbEntity
  8
0
100
AcDbBlockEnd
  0
BLOCK
  5
66
330
64
100
AcDbEntity
  8
0
100
AcDbBlockBegin
  2
GENAXEH
 70
     0
 10
0.0
 20
0.0
 30
0.0
  3
GENAXEH
  1

  0
LINE
  5
65
330
64
100
AcDbEntity
  8
0
100
AcDbLine
 10
-1.0
 20
0.0
 30
0.0
 11
1.0
 21
0.0
 31
0.0
  0
ENDBLK
  5
67
330
64
100
AcDbEntity
  8
0
100
AcDbBlockEnd
  0
BLOCK
  5
D549
330
D53F
100
AcDbEntity
  8
0
100
AcDbBlockBegin
  2
*D5
 70
     1
 10
0.0
 20
0.0
 30
0.0
  3
*D5
  1

  0
LINE
  5
DCE7
330
D53F
100
AcDbEntity
  8
AM_5
100
AcDbLine
 10
-8.000000000000392
 20
25.50000000000012
 30
0.0
 11
-8.000000000000394
 21
39.50000000000026
 31
0.0
  0
LINE
  5
DCE8
330
D53F
100
AcDbEntity
  8
AM_5
100
AcDbLine
 10
-0.0000000000003917
 20
25.5000000000002
 30
0.0
 11
-0.0000000000003943
 21
39.50000000000026
 31
0.0
  0
LINE
  5
DCE9
330
D53F
100
AcDbEntity
  8
AM_5
100
AcDbLine
 10
-10.50000000000039
 20
39.00000000000026
 30
0.0
 11
-13.00000000000039
 21
39.00000000000026
 31
0.0
  0
LINE
  5
DCEA
330
D53F
100
AcDbEntity
  8
AM_5
100
AcDbLine
 10
2.499999999999605
 20
39.00000000000026
 30
0.0
 11
4.999999999999605
 21
39.00000000000026
 31
0.0
  0
LINE
  5
DCEB
330
D53F
100
AcDbEntity
  8
AM_5
100
AcDbLine
 10
-8.000000000000394
 20
39.00000000000026
 30
0.0
 11
-0.0000000000003942
 21
39.00000000000026
 31
0.0
  0
INSERT
  5
DCEC
330
D53F
100
AcDbEntity
  8
AM_5
100
AcDbBlockReference
  2
_OPEN30
 10
-8.000000000000394
 20
39.00000000000026
 30
0.0
 41
2.5
 42
2.5
 43
2.5
  0
INSERT
  5
DCED
330
D53F
100
AcDbEntity
  8
AM_5
100
AcDbBlockReference
  2
_OPEN30
 10
-0.0000000000003942
 20
39.00000000000026
 30
0.0
 41
2.5
 42
2.5
 43
2.5
 50
180.0
  0
MTEXT
  5
DCEE
330
D53F
100
AcDbEntity
  8
AM_5
 62
     2
100
AcDbMText
 10
-4.000000000000396
 20
42.10000000000026
 30
0.0
 40
3.2
 41
0.0
 71
     5
 72
     1
  1
8
  7
ASAMI
  0
POINT
  5
DCEF
330
D53F
100
AcDbEntity
  8
DEFPOINTS
 62
     0
100
AcDbPoint
 10
-8.000000000000341
 20
25.00000000000014
 30
0.0
  0
POINT
  5
DCF0
330
D53F
100
AcDbEntity
  8
DEFPOINTS
 62
     0
100
AcDbPoint
 10
-0.0000000000003411
 20
25.00000000000019
 30
0.0
  0
POINT
  5
DCF1
330
D53F
100
AcDbEntity
  8
DEFPOINTS
 62
     0
100
AcDbPoint
 10
-0.0000000000003153
 20
39.00000000000026
 30
0.0
  0
ENDBLK
  5
D54A
330
D53F
100
AcDbEntity
  8
0
100
AcDbBlockEnd
  0
BLOCK
  5
D5EF
330
D5E5
100
AcDbEntity
  8
0
100
AcDbBlockBegin
  2
*D6
 70
     1
 10
0.0
 20
0.0
 30
0.0
  3
*D6
  1

  0
LINE
  5
DCF2
330
D5E5
100
AcDbEntity
  8
AM_5
100
AcDbLine
 10
0.4999999999996603
 20
25.00000000000017
 30
0.0
 11
14.49999999999973
 21
25.00000000000019
 31
0.0
  0
LINE
  5
DCF3
330
D5E5
100
AcDbEntity
  8
AM_5
100
AcDbLine
 10
0.4999999999998282
 20
-24.99999999999983
 30
0.0
 11
14.49999999999983
 21
-24.9999999999998
 31
0.0
  0
LINE
  5
DCF4
330
D5E5
100
AcDbEntity
  8
AM_5
100
AcDbLine
 10
13.99999999999974
 20
22.50000000000019
 30
0.0
 11
13.99999999999983
 21
-22.4999999999998
 31
0.0
  0
INSERT
  5
DCF5
330
D5E5
100
AcDbEntity
  8
AM_5
100
AcDbBlockReference
  2
_OPEN30
 10
13.99999999999973
 20
25.00000000000019
 30
0.0
 41
2.5
 42
2.5
 43
2.5
 50
90.0000000000001
  0
INSERT
  5
DCF6
330
D5E5
100
AcDbEntity
  8
AM_5
100
AcDbBlockReference
  2
_OPEN30
 10
13.99999999999983
 20
-24.9999999999998
 30
0.0
 41
2.5
 42
2.5
 43
2.5
 50
270.0000000000001
  0
MTEXT
  5
DCF7
330
D5E5
100
AcDbEntity
  8
AM_5
 62
     2
100
AcDbMText
 10
10.89999999999978
 20
0.0000000000001921
 30
0.0
 40
3.2
 41
0.0
 71
     5
 72
     1
  1
%%c50
  7
ASAMI
 11
-0.000000000000002
 21
1.0
 31
0.0
  0
POINT
  5
DCF8
330
D5E5
100
AcDbEntity
  8
DEFPOINTS
 62
     0
100
AcDbPoint
 10
-0.0000000000002842
 20
25.00000000000017
 30
0.0
  0
POINT
  5
DCF9
330
D5E5
100
AcDbEntity
  8
DEFPOINTS
 62
     0
100
AcDbPoint
 10
-0.0000000000002274
 20
-24.99999999999983
 30
0.0
  0
POINT
  5
DCFA
330
D5E5
100
AcDbEntity
  8
DEFPOINTS
 62
     0
100
AcDbPoint
 10
13.99999999999978
 20
-24.99999999999983
 30
0.0
  0
ENDBLK
  5
D5F0
330
D5E5
100
AcDbEntity
  8
0
100
AcDbBlockEnd
  0
BLOCK
  5
D67B
330
D671
100
AcDbEntity
  8
0
100
AcDbBlockBegin
  2
*D7
 70
     1
 10
0.0
 20
0.0
 30
0.0
  3
*D7
  1

  0
LINE
  5
DCFB
330
D671
100
AcDbEntity
  8
AM_5
100
AcDbLine
 10
-0.0000000000001759
 20
-25.49999999999982
 30
0.0
 11
-0.0000000000001484
 21
-39.49999999999983
 31
0.0
  0
LINE
  5
DCFC
330
D671
100
AcDbEntity
  8
AM_5
100
AcDbLine
 10
-50.00000762939119
 20
-21.50000000000001
 30
0.0
 11
-50.00000762939116
 21
-39.49999999999993
 31
0.0
  0
LINE
  5
DCFD
330
D671
100
AcDbEntity
  8
AM_5
100
AcDbLine
 10
-2.500000000000149
 20
-38.99999999999984
 30
0.0
 11
-47.50000762939115
 21
-38.99999999999993
 31
0.0
  0
INSERT
  5
DCFE
330
D671
100
AcDbEntity
  8
AM_5
100
AcDbBlockReference
  2
_OPEN30
 10
-0.0000000000001494
 20
-38.99999999999982
 30
0.0
 41
2.5
 42
2.5
 43
2.5
 50
0.0000000000001018
  0
INSERT
  5
DCFF
330
D671
100
AcDbEntity
  8
AM_5
100
AcDbBlockReference
  2
_OPEN30
 10
-50.00000762939116
 20
-38.99999999999993
 30
0.0
 41
2.5
 42
2.5
 43
2.5
 50
180.0000000000001
  0
MTEXT
  5
DD00
330
D671
100
AcDbEntity
  8
AM_5
 62
     2
100
AcDbMText
 10
-25.00000381469566
 20
-35.89999999999987
 30
0.0
 40
3.2
 41
0.0
 71
     5
 72
     1
  1
50
  7
ASAMI
  0
POINT
  5
DD01
330
D671
100
AcDbEntity
  8
DEFPOINTS
 62
     0
100
AcDbPoint
 10
-0.0000000000002274
 20
-24.99999999999983
 30
0.0
  0
POINT
  5
DD02
330
D671
100
AcDbEntity
  8
DEFPOINTS
 62
     0
100
AcDbPoint
 10
-50.00000762939123
 20
-20.99999999999991
 30
0.0
  0
POINT
  5
DD03
330
D671
100
AcDbEntity
  8
DEFPOINTS
 62
     0
100
AcDbPoint
 10
-50.00000762939123
 20
-38.99999999999982
 30
0.0
  0
ENDBLK
  5
D67C
330
D671
100
AcDbEntity
  8
0
100
AcDbBlockEnd
  0
BLOCK
  5
D707
330
D6FD
100
AcDbEntity
  8
0
100
AcDbBlockBegin
  2
*D8
 70
     1
 10
0.0
 20
0.0
 30
0.0
  3
*D8
  1

  0
LINE
  5
DD04
330
D6FD
100
AcDbEntity
  8
AM_5
100
AcDbLine
 10
-38.25544809574072
 20
17.896331787104
 30
0.0
 11
-38.25544809574065
 21
-17.89633178711
 31
0.0
  0
INSERT
  5
DD05
330
D6FD
100
AcDbEntity
  8
AM_5
100
AcDbBlockReference
  2
_OPEN30
 10
-38.25544809574073
 20
20.396331787104
 30
0.0
 41
2.5
 42
2.5
 43
2.5
 50
90.0000000000001
  0
INSERT
  5
DD06
330
D6FD
100
AcDbEntity
  8
AM_5
100
AcDbBlockReference
  2
_OPEN30
 10
-38.25544809574065
 20
-20.39633178711
 30
0.0
 41
2.5
 42
2.5
 43
2.5
 50
270.0000000000001
  0
MTEXT
  5
DD07
330
D6FD
100
AcDbEntity
  8
AM_5
 62
     2
100
AcDbMText
 10
-41.3554480957407
 20
6.082717536884162
 30
0.0
 40
3.2
 41
0.0
 71
     5
 72
     1
  1
%%c40.8
  7
ASAMI
 11
-0.000000000000002
 21
1.0
 31
0.0
  0
POINT
  5
DD08
330
D6FD
100
AcDbEntity
  8
DEFPOINTS
 62
     0
100
AcDbPoint
 10
-49.39633178710531
 20
20.39633178710408
 30
0.0
  0
POINT
  5
DD09
330
D6FD
100
AcDbEntity
  8
DEFPOINTS
 62
     0
100
AcDbPoint
 10
-49.39633178710522
 20
-20.39633178710991
 30
0.0
  0
POINT
  5
DD0A
330
D6FD
100
AcDbEntity
  8
DEFPOINTS
 62
     0
100
AcDbPoint
 10
-38.25544809574069
 20
-20.39633178710992
 30
0.0
  0
ENDBLK
  5
D708
330
D6FD
100
AcDbEntity
  8
0
100
AcDbBlockEnd
  0
BLOCK
  5
D80A
330
D800
100
AcDbEntity
  8
0
100
AcDbBlockBegin
  2
*D9
 70
     1
 10
0.0
 20
0.0
 30
0.0
  3
*D9
  1

  0
LINE
  5
DD0B
330
D800
100
AcDbEntity
  8
AM_5
100
AcDbLine
 10
-348.5000000000003
 20
20.99999999999368
 30
0.0
 11
-364.5000152587903
 21
20.99999999999365
 31
0.0
  0
LINE
  5
DD0C
330
D800
100
AcDbEntity
  8
AM_5
100
AcDbLine
 10
-348.5000152587901
 20
-21.00001525879131
 30
0.0
 11
-364.5000152587901
 21
-21.00001525879134
 31
0.0
  0
LINE
  5
DD0D
330
D800
100
AcDbEntity
  8
AM_5
100
AcDbLine
 10
-364.0000152587903
 20
18.49999999999365
 30
0.0
 11
-364.0000152587901
 21
-18.50001525879134
 31
0.0
  0
INSERT
  5
DD0E
330
D800
100
AcDbEntity
  8
AM_5
100
AcDbBlockReference
  2
_OPEN30
 10
-364.0000152587903
 20
20.99999999999365
 30
0.0
 41
2.5
 42
2.5
 43
2.5
 50
90.0000000000001
  0
INSERT
  5
DD0F
330
D800
100
AcDbEntity
  8
AM_5
100
AcDbBlockReference
  2
_OPEN30
 10
-364.0000152587901
 20
-21.00001525879134
 30
0.0
 41
2.5
 42
2.5
 43
2.5
 50
270.0000000000001
  0
MTEXT
  5
DD10
330
D800
100
AcDbEntity
  8
AM_5
 62
     2
100
AcDbMText
 10
-367.1000152587903
 20
-0.0000076293988388
 30
0.0
 40
3.2
 41
0.0
 71
     5
 72
     1
  1
%%C42
  7
ASAMI
 11
-0.000000000000002
 21
1.0
 31
0.0
  0
POINT
  5
DD11
330
D800
100
AcDbEntity
  8
DEFPOINTS
 62
     0
100
AcDbPoint
 10
-348.0000000000003
 20
20.99999999999445
 30
0.0
  0
POINT
  5
DD12
330
D800
100
AcDbEntity
  8
DEFPOINTS
 62
     0
100
AcDbPoint
 10
-348.0000152587901
 20
-21.00001525879054
 30
0.0
  0
POINT
  5
DD13
330
D800
100
AcDbEntity
  8
DEFPOINTS
 62
     0
100
AcDbPoint
 10
-364.0000152587902
 20
-21.00001525879053
 30
0.0
  0
ENDBLK
  5
D80B
330
D800
100
AcDbEntity
  8
0
100
AcDbBlockEnd
  0
BLOCK
  5
D8D8
330
D8CE
100
AcDbEntity
  8
0
100
AcDbBlockBegin
  2
*D10
 70
     1
 10
0.0
 20
0.0
 30
0.0
  3
*D10
  1

  0
LINE
  5
DD14
330
D8CE
100
AcDbEntity
  8
AM_5
100
AcDbLine
 10
-0.0000000000001759
 20
-25.49999999999982
 30
0.0
 11
-0.0000000000001288
 21
-49.49999999999983
 31
0.0
  0
LINE
  5
DD15
330
D8CE
100
AcDbEntity
  8
AM_5
100
AcDbLine
 10
-350.0000152587901
 20
-20.96411132813125
 30
0.0
 11
-350.0000152587901
 21
-49.50000000000054
 31
0.0
  0
LINE
  5
DD16
330
D8CE
100
AcDbEntity
  8
AM_5
100
AcDbLine
 10
-2.500000000000129
 20
-48.99999999999984
 30
0.0
 11
-347.5000152587901
 21
-49.00000000000053
 31
0.0
  0
INSERT
  5
DD17
330
D8CE
100
AcDbEntity
  8
AM_5
100
AcDbBlockReference
  2
_OPEN30
 10
-0.0000000000001298
 20
-48.99999999999983
 30
0.0
 41
2.5
 42
2.5
 43
2.5
 50
0.0000000000001018
  0
INSERT
  5
DD18
330
D8CE
100
AcDbEntity
  8
AM_5
100
AcDbBlockReference
  2
_OPEN30
 10
-350.0000152587901
 20
-49.00000000000054
 30
0.0
 41
2.5
 42
2.5
 43
2.5
 50
180.0000000000001
  0
MTEXT
  5
DD19
330
D8CE
100
AcDbEntity
  8
AM_5
 62
     2
100
AcDbMText
 10
-175.0000076293951
 20
-45.90000000000018
 30
0.0
 40
3.2
 41
0.0
 71
     5
 72
     1
  1
350
  7
ASAMI
  0
POINT
  5
DD1A
330
D8CE
100
AcDbEntity
  8
DEFPOINTS
 62
     0
100
AcDbPoint
 10
-0.0000000000002274
 20
-24.99999999999983
 30
0.0
  0
POINT
  5
DD1B
330
D8CE
100
AcDbEntity
  8
DEFPOINTS
 62
     0
100
AcDbPoint
 10
-350.0000152587902
 20
-20.46411132813054
 30
0.0
  0
POINT
  5
DD1C
330
D8CE
100
AcDbEntity
  8
DEFPOINTS
 62
     0
100
AcDbPoint
 10
-350.0000152587902
 20
-48.99999999999983
 30
0.0
  0
ENDBLK
  5
D8D9
330
D8CE
100
AcDbEntity
  8
0
100
AcDbBlockEnd
  0
BLOCK
  5
D96D
330
D963
100
AcDbEntity
  8
0
100
AcDbBlockBegin
  2
*D11
 70
     1
 10
0.0
 20
0.0
 30
0.0
  3
*D11
  1

  0
LINE
  5
DD1D
330
D963
100
AcDbEntity
  8
AM_5
100
AcDbLine
 10
-50.00000762939119
 20
-21.50000000000001
 30
0.0
 11
-50.00000762939116
 21
-39.49999999999993
 31
0.0
  0
LINE
  5
DD1E
330
D963
100
AcDbEntity
  8
AM_5
100
AcDbLine
 10
-350.0000152587901
 20
-20.96411132813125
 30
0.0
 11
-350.0000152587901
 21
-39.50000000000054
 31
0.0
  0
LINE
  5
DD1F
330
D963
100
AcDbEntity
  8
AM_5
100
AcDbLine
 10
-52.50000762939116
 20
-38.99999999999993
 30
0.0
 11
-347.5000152587901
 21
-39.00000000000053
 31
0.0
  0
INSERT
  5
DD20
330
D963
100
AcDbEntity
  8
AM_5
100
AcDbBlockReference
  2
_OPEN30
 10
-50.00000762939116
 20
-38.99999999999993
 30
0.0
 41
2.5
 42
2.5
 43
2.5
 50
0.0000000000001018
  0
INSERT
  5
DD21
330
D963
100
AcDbEntity
  8
AM_5
100
AcDbBlockReference
  2
_OPEN30
 10
-350.0000152587901
 20
-39.00000000000054
 30
0.0
 41
2.5
 42
2.5
 43
2.5
 50
180.0000000000001
  0
MTEXT
  5
DD22
330
D963
100
AcDbEntity
  8
AM_5
 62
     2
100
AcDbMText
 10
-200.0000114440906
 20
-35.90000000000023
 30
0.0
 40
3.2
 41
0.0
 71
     5
 72
     1
  1
300
  7
ASAMI
  0
POINT
  5
DD23
330
D963
100
AcDbEntity
  8
DEFPOINTS
 62
     0
100
AcDbPoint
 10
-50.00000762939123
 20
-20.99999999999991
 30
0.0
  0
POINT
  5
DD24
330
D963
100
AcDbEntity
  8
DEFPOINTS
 62
     0
100
AcDbPoint
 10
-350.0000152587902
 20
-20.46411132813054
 30
0.0
  0
POINT
  5
DD25
330
D963
100
AcDbEntity
  8
DEFPOINTS
 62
     0
100
AcDbPoint
 10
-350.0000152587902
 20
-38.99999999999982
 30
0.0
  0
ENDBLK
  5
D96E
330
D963
100
AcDbEntity
  8
0
100
AcDbBlockEnd
  0
ENDSEC
  0
SECTION
  2
ENTITIES
  0
TEXT
  5
388D
330
1F
100
AcDbEntity
  8
AM_6
100
AcDbText
 10
-205.000007629395
 20
-71.50000000000012
 30
0.0
 40
5.0
  1
WRC16050ELS42
 50
359.9999999999998
 51
359.9999999999998
 72
     4
 11
-175.000007629395
 21
-69.00000000000019
 31
0.0
100
AcDbText
  0
LINE
  5
D3EB
330
1F
100
AcDbEntity
  8
AM_0
100
AcDbLine
 10
-348.0000000000003
 20
20.99999999999445
 30
0.0
 11
-50.00000762939134
 21
20.99999999999508
 31
0.0
  0
LINE
  5
D3EC
330
1F
100
AcDbEntity
  8
AM_0
100
AcDbLine
 10
-348.0000000000002
 20
-21.00000000000054
 30
0.0
 11
-50.00000762939126
 21
-20.99999999999991
 31
0.0
  0
LINE
  5
D3EE
330
1F
100
AcDbEntity
  8
AM_0
100
AcDbLine
 10
-348.0000000000002
 20
-21.00000000000054
 30
0.0
 11
-348.0000000000003
 21
20.99999999999445
 31
0.0
  0
LINE
  5
D3EF
330
1F
100
AcDbEntity
  8
AM_0
100
AcDbLine
 10
-350.0000000000002
 20
-20.46411132813054
 30
0.0
 11
-350.0000000000003
 21
20.46411132811945
 31
0.0
  0
LINE
  5
D3F0
330
1F
100
AcDbEntity
  8
AM_7
100
AcDbLine
 10
-355.4160306754496
 20
-0.00000000000054
 30
0.0
 11
1.890541076659701
 21
0.0000000000001705
 31
0.0
  0
LINE
  5
D3F1
330
1F
100
AcDbEntity
  8
AM_0
100
AcDbLine
 10
-350.0000152587902
 20
-20.46411132813054
 30
0.0
 11
-348.0000152587901
 21
-21.00001525879054
 31
0.0
  0
LINE
  5
D3F2
330
1F
100
AcDbEntity
  8
AM_0
100
AcDbLine
 10
-348.0000000000003
 20
20.99999999999445
 30
0.0
 11
-350.0000000000003
 21
20.46411895751347
 31
0.0
  0
SPLINE
  5
D3F5
330
1F
100
AcDbEntity
  8
AM_0
100
AcDbSpline
210
0.0
220
0.0
230
1.0
 70
     8
 71
     3
 72
    11
 73
     7
 74
     5
 42
0.0000000001
 43
0.0000000001
 44
0.0000000001
 40
0.0
 40
0.0
 40
0.0
 40
0.0
 40
0.1017286498824693
 40
0.2034572997550996
 40
0.3051859496375688
 40
0.4069069705650133
 40
0.4069069705650133
 40
0.4069069705650133
 40
0.4069069705650133
 10
-15.03606414795024
 20
-19.48614501952985
 30
0.0
 10
-15.00215657551493
 20
-19.48651122997491
 30
0.0
 10
-14.9343414306476
 20
-19.48724365086497
 30
0.0
 10
-14.83261871344054
 20
-19.48834229104917
 30
0.0
 10
-14.73089853868854
 20
-19.48944086843505
 30
0.0
 10
-14.66308593741743
 20
-19.4901733324869
 30
0.0
 10
-14.62918090820022
 20
-19.49053955077985
 30
0.0
 11
-15.03606414795024
 21
-19.48614501952985
 31
0.0
 11
-14.93434143066025
 21
-19.48724365233985
 31
0.0
 11
-14.83261871338021
 21
-19.48834228515986
 31
0.0
 11
-14.73089599609022
 21
-19.48944091796986
 31
0.0
 11
-14.62918090820022
 21
-19.49053955077985
 31
0.0
  0
SPLINE
  5
D3F6
330
1F
100
AcDbEntity
  8
AM_0
100
AcDbSpline
210
0.0
220
0.0
230
1.0
 70
     8
 71
     3
 72
    11
 73
     7
 74
     5
 42
0.0000000001
 43
0.0000000001
 44
0.0000000001
 40
0.0
 40
0.0
 40
0.0
 40
0.0
 40
0.8438767671138865
 40
1.674589955629957
 40
2.489589891072457
 40
3.285512429400846
 40
3.285512429400846
 40
3.285512429400846
 40
3.285512429400846
 10
-2.730873107910269
 20
3.546997070310169
 30
0.0
 10
-2.964934459775966
 20
3.703035086296841
 30
0.0
 10
-3.429406055760273
 20
4.012677091445732
 30
0.0
 10
-4.107348846103032
 20
4.491390843059442
 30
0.0
 10
-4.76200349382575
 20
4.975294667208444
 30
0.0
 10
-5.179089183500378
 20
5.313595942159498
 30
0.0
 10
-5.385162353520286
 20
5.480743408200169
 30
0.0
 11
-2.730873107910269
 21
3.546997070310169
 31
0.0
 11
-3.430908203130286
 21
4.018249511720171
 31
0.0
 11
-4.109870910650272
 21
4.496887207030169
 31
0.0
 11
-4.763320922850311
 21
4.983947753910172
 31
0.0
 11
-5.385162353520286
 21
5.480743408200169
 31
0.0
  0
SPLINE
  5
D3F7
330
1F
100
AcDbEntity
  8
AM_0
100
AcDbSpline
210
0.0
220
0.0
230
1.0
 70
     8
 71
     3
 72
    11
 73
     7
 74
     5
 42
0.0000000001
 43
0.0000000001
 44
0.0000000001
 40
0.0
 40
0.0
 40
0.0
 40
0.0
 40
0.1367728281759946
 40
0.2834565825195561
 40
0.4473620813148206
 40
0.6344945516789351
 40
0.6344945516789351
 40
0.6344945516789351
 40
0.6344945516789351
 10
-2.400009155270254
 20
3.03353881836017
 30
0.0
 10
-2.404264703485637
 20
3.079280053135219
 30
0.0
 10
-2.413084168360104
 20
3.174077055306413
 30
0.0
 10
-2.480978201859636
 20
3.309922932271099
 30
0.0
 10
-2.585611031770794
 20
3.440408332121141
 30
0.0
 10
-2.680362620596494
 20
3.509934064939663
 30
0.0
 10
-2.730873107910269
 20
3.546997070310169
 30
0.0
 11
-2.400009155270254
 21
3.03353881836017
 31
0.0
 11
-2.4207382202203
 21
3.168731689450169
 31
0.0
 11
-2.4824142456103
 21
3.301818847660172
 31
0.0
 11
-2.585296630860284
 21
3.429412841800171
 31
0.0
 11
-2.730873107910269
 21
3.546997070310169
 31
0.0
  0
SPLINE
  5
D3F8
330
1F
100
AcDbEntity
  8
AM_0
100
AcDbSpline
210
0.0
220
0.0
230
1.0
 70
     8
 71
     3
 72
    11
 73
     7
 74
     5
 42
0.0000000001
 43
0.0000000001
 44
0.0000000001
 40
0.0
 40
0.0
 40
0.0
 40
0.0
 40
0.1601556017905458
 40
0.2986286865076018
 40
0.4208892577758867
 40
0.534908210729312
 40
0.534908210729312
 40
0.534908210729312
 40
0.534908210729312
 10
-2.705352783200282
 20
0.1997375488301713
 30
0.0
 10
-2.659098158118328
 20
0.2268944638945971
 30
0.0
 10
-2.57285104731673
 20
0.2775316803554619
 30
0.0
 10
-2.474811575042098
 20
0.379760728041251
 30
0.0
 10
-2.411641915080549
 20
0.4909948202505953
 30
0.0
 10
-2.403795512277068
 20
0.5701228798736758
 30
0.0
 10
-2.400009155270254
 20
0.6083068847601681
 30
0.0
 11
-2.705352783200282
 21
0.1997375488301713
 31
0.0
 11
-2.57138824463027
 21
0.287506103510168
 31
0.0
 11
-2.475769042970284
 21
0.3876647949201697
 31
0.0
 11
-2.418815612790297
 21
0.4958496093701683
 31
0.0
 11
-2.400009155270254
 21
0.6083068847601681
 31
0.0
  0
SPLINE
  5
D3F9
330
1F
100
AcDbEntity
  8
AM_0
100
AcDbSpline
210
0.0
220
0.0
230
1.0
 70
     8
 71
     3
 72
    11
 73
     7
 74
     5
 42
0.0000000001
 43
0.0000000001
 44
0.0000000001
 40
0.0
 40
0.0
 40
0.0
 40
0.0
 40
0.7843254510624728
 40
1.566862088100552
 40
2.347387990058932
 40
3.125699582587922
 40
3.125699582587922
 40
3.125699582587922
 40
3.125699582587922
 10
-5.484909057620257
 20
-1.229919433589827
 30
0.0
 10
-5.251744317194054
 20
-1.111656347349212
 30
0.0
 10
-4.785946616047514
 20
-0.875399897936318
 30
0.0
 10
-4.08953265072165
 20
-0.5186678796398932
 30
0.0
 10
-3.395904404922516
 20
-0.1608989777516421
 30
0.0
 10
-2.935318571609717
 20
0.0796392671726906
 30
0.0
 10
-2.705352783200282
 20
0.1997375488301713
 30
0.0
 11
-5.484909057620257
 21
-1.229919433589827
 31
0.0
 11
-4.785652160650272
 21
-0.8746643066398291
 31
0.0
 11
-4.089103698730298
 21
-0.5180358886698287
 31
0.0
 11
-3.395553588870257
 21
-0.1599731445298289
 31
0.0
 11
-2.705352783200282
 21
0.1997375488301713
 31
0.0
  0
SPLINE
  5
D3FA
330
1F
100
AcDbEntity
  8
AM_0
100
AcDbSpline
210
0.0
220
0.0
230
1.0
 70
     8
 71
     3
 72
    11
 73
     7
 74
     5
 42
0.0000000001
 43
0.0000000001
 44
0.0000000001
 40
0.0
 40
0.0
 40
0.0
 40
0.0
 40
0.1939626762111086
 40
0.3810808401954268
 40
0.5556474591384105
 40
0.7139171626764357
 40
0.7139171626764357
 40
0.7139171626764357
 40
0.7139171626764357
 10
-6.179565429690285
 20
-1.362792968749829
 30
0.0
 10
-6.114831082908508
 20
-1.363065095105534
 30
0.0
 10
-5.987646720726102
 20
-1.363599745081999
 30
0.0
 10
-5.803772189692736
 20
-1.337970523272333
 30
0.0
 10
-5.6346344173954
 20
-1.296834553983084
 30
0.0
 10
-5.533161343375794
 20
-1.251484300860345
 30
0.0
 10
-5.484909057620257
 20
-1.229919433589827
 30
0.0
 11
-6.179565429690285
 21
-1.362792968749829
 31
0.0
 11
-5.985641479490254
 21
-1.35891723632983
 31
0.0
 11
-5.800163269040297
 21
-1.33419799804983
 31
0.0
 11
-5.631202697750268
 21
-1.290313720699828
 31
0.0
 11
-5.484909057620257
 21
-1.229919433589827
 31
0.0
  0
SPLINE
  5
D3FB
330
1F
100
AcDbEntity
  8
AM_0
100
AcDbSpline
210
0.0
220
0.0
230
1.0
 70
     8
 71
     3
 72
    11
 73
     7
 74
     5
 42
0.0000000001
 43
0.0000000001
 44
0.0000000001
 40
0.0
 40
0.0
 40
0.0
 40
0.0
 40
0.1615205895975406
 40
0.3387981060054618
 40
0.5283045003915026
 40
0.7245362225552137
 40
0.7245362225552137
 40
0.7245362225552137
 40
0.7245362225552137
 10
-11.04872894287029
 20
-1.034851074219858
 30
0.0
 10
-11.00087238597904
 20
-1.059711785856431
 30
0.0
 10
-10.90049068928575
 20
-1.111858462867738
 30
0.0
 10
-10.73191977953744
 20
-1.165136811699869
 30
0.0
 10
-10.54788024533086
 20
-1.204110537371627
 30
0.0
 10
-10.41942168549968
 20
-1.212600137391132
 30
0.0
 10
-10.35407257080027
 20
-1.216918945309856
 30
0.0
 11
-11.04872894287029
 21
-1.034851074219858
 31
0.0
 11
-10.90340423584029
 21
-1.105346679689859
 31
0.0
 11
-10.73515319824025
 21
-1.161193847659859
 31
0.0
 11
-10.54950714111026
 21
-1.199249267579858
 31
0.0
 11
-10.35407257080027
 21
-1.216918945309856
 31
0.0
  0
SPLINE
  5
D3FC
330
1F
100
AcDbEntity
  8
AM_0
100
AcDbSpline
210
0.0
220
0.0
230
1.0
 70
     8
 71
     3
 72
    11
 73
     7
 74
     5
 42
0.0000000001
 43
0.0000000001
 44
0.0000000001
 40
0.0
 40
0.0
 40
0.0
 40
0.0
 40
0.8421730333147701
 40
1.681683701988797
 40
2.518226912822401
 40
3.351440678416644
 40
3.351440678416644
 40
3.351440678416644
 40
3.351440678416644
 10
-11.04872894287029
 20
-1.034851074219858
 30
0.0
 10
-11.29154523440039
 20
-0.8939728765199257
 30
0.0
 10
-11.77641020144439
 20
-0.6126618398733931
 30
0.0
 10
-12.50022468776228
 20
-0.1875678416520652
 30
0.0
 10
-13.21976827747287
 20
0.2388926760005297
 30
0.0
 10
-13.69658428258019
 20
0.5260090630565136
 30
0.0
 10
-13.93451690674027
 20
0.6692810058601424
 30
0.0
 11
-11.04872894287029
 21
-1.034851074219858
 31
0.0
 11
-11.77680206299027
 21
-0.6115722656298602
 31
0.0
 11
-12.50079345703028
 21
-0.1865844726598595
 31
0.0
 11
-13.22022247315027
 21
0.2402954101601438
 31
0.0
 11
-13.93451690674027
 21
0.6692810058601424
 31
0.0
  0
SPLINE
  5
D3FD
330
1F
100
AcDbEntity
  8
AM_0
100
AcDbSpline
210
0.0
220
0.0
230
1.0
 70
     8
 71
     3
 72
    11
 73
     7
 74
     5
 42
0.0000000001
 43
0.0000000001
 44
0.0000000001
 40
0.0
 40
0.0
 40
0.0
 40
0.0
 40
0.1611239085823172
 40
0.33849198076138
 40
0.5291234079448856
 40
0.7274082808334068
 40
0.7274082808334068
 40
0.7274082808334068
 40
0.7274082808334068
 10
-13.93451690674027
 20
0.6692810058601424
 30
0.0
 10
-13.98176968768672
 20
0.6949997128729441
 30
0.0
 10
-14.08103917264264
 20
0.7490300312532683
 30
0.0
 10
-14.24897650917794
 20
0.8052236442209043
 30
0.0
 10
-14.433656760917
 20
0.8466824393505831
 30
0.0
 10
-14.56315672010945
 20
0.8557560138429391
 30
0.0
 10
-14.62918090820028
 20
0.8603820800801429
 30
0.0
 11
-13.93451690674027
 21
0.6692810058601424
 31
0.0
 11
-14.07812500000028
 21
0.7423400878901419
 31
0.0
 11
-14.24551391602028
 21
0.8009948730501434
 31
0.0
 11
-14.43180084229027
 21
0.8414611816401418
 31
0.0
 11
-14.62918090820028
 21
0.8603820800801429
 31
0.0
  0
SPLINE
  5
D3FE
330
1F
100
AcDbEntity
  8
AM_0
100
AcDbSpline
210
0.0
220
0.0
230
1.0
 70
     8
 71
     3
 72
    11
 73
     7
 74
     5
 42
0.0000000001
 43
0.0000000001
 44
0.0000000001
 40
0.0
 40
0.0
 40
0.0
 40
0.0
 40
0.1775110134519221
 40
0.3786200797975137
 40
0.6077415365252562
 40
0.869213616227555
 40
0.869213616227555
 40
0.869213616227555
 40
0.869213616227555
 10
-11.04872894287029
 20
-14.84274291991985
 30
0.0
 10
-11.00717266346609
 20
-14.80057818374433
 30
0.0
 10
-10.91853567403011
 20
-14.71064339341797
 30
0.0
 10
-10.76253193093364
 20
-14.5809846792328
 30
0.0
 10
-10.57453027145381
 20
-14.44676538027695
 30
0.0
 10
-10.4307195178748
 20
-14.36859653463306
 30
0.0
 10
-10.35407257080027
 20
-14.32693481444985
 30
0.0
 11
-11.04872894287029
 21
-14.84274291991985
 31
0.0
 11
-10.92218017578028
 21
-14.71826171874985
 31
0.0
 11
-10.76830291748029
 21
-14.58877563476986
 31
0.0
 11
-10.58103942871025
 21
-14.45675659179985
 31
0.0
 11
-10.35407257080027
 21
-14.32693481444985
 31
0.0
  0
SPLINE
  5
D3FF
330
1F
100
AcDbEntity
  8
AM_0
100
AcDbSpline
210
0.0
220
0.0
230
1.0
 70
     8
 71
     3
 72
    11
 73
     7
 74
     5
 42
0.0000000001
 43
0.0000000001
 44
0.0000000001
 40
0.0
 40
0.0
 40
0.0
 40
0.0
 40
0.1937488380952919
 40
0.3875417826178244
 40
0.5813856247402179
 40
0.7752535066195734
 40
0.7752535066195734
 40
0.7752535066195734
 40
0.7752535066195734
 10
-6.179565429690228
 20
-22.92507934569982
 30
0.0
 10
-6.114919329213854
 20
-22.92037315696327
 30
0.0
 10
-5.985612411741744
 20
-22.91095970813835
 30
0.0
 10
-5.80041441416872
 20
-22.84841438819603
 30
0.0
 10
-5.628685242673251
 20
-22.75526296617955
 30
0.0
 10
-5.532836433647598
 20
-22.66793451239017
 30
0.0
 10
-5.4849090576202
 20
-22.62426757812983
 30
0.0
 11
-6.179565429690228
 21
-22.92507934569982
 31
0.0
 11
-5.987091064450225
 21
-22.90289306640983
 31
0.0
 11
-5.802680969240213
 21
-22.84332275390983
 31
0.0
 11
-5.63335418701024
 21
-22.74896240233982
 31
0.0
 11
-5.4849090576202
 21
-22.62426757812983
 31
0.0
  0
SPLINE
  5
D400
330
1F
100
AcDbEntity
  8
AM_0
100
AcDbSpline
210
0.0
220
0.0
230
1.0
 70
     8
 71
     3
 72
    11
 73
     7
 74
     5
 42
0.0000000001
 43
0.0000000001
 44
0.0000000001
 40
0.0
 40
0.0
 40
0.0
 40
0.0
 40
0.1140464811087411
 40
0.2280744602598932
 40
0.3420595428252992
 40
0.4560339380517327
 40
0.4560339380517327
 40
0.4560339380517327
 40
0.4560339380517327
 10
-5.750114440920242
 20
-18.89550781249982
 30
0.0
 10
-5.78292144188955
 20
-18.91482219655147
 30
0.0
 10
-5.848530121491743
 20
-18.95344783124889
 30
0.0
 10
-5.955062892346758
 20
-18.99514454630385
 30
0.0
 10
-6.065748134661342
 20
-19.02437473955487
 30
0.0
 10
-6.141627517155507
 20
-19.03046387552974
 30
0.0
 10
-6.179565429690228
 20
-19.03350830077982
 30
0.0
 11
-5.750114440920242
 21
-18.89550781249982
 31
0.0
 11
-5.849891662600214
 21
-18.95074462890983
 31
0.0
 11
-5.95577239990024
 21
-18.99307250976983
 31
0.0
 11
-6.06627655029024
 21
-19.02102661132983
 31
0.0
 11
-6.179565429690228
 21
-19.03350830077982
 31
0.0
  0
SPLINE
  5
D401
330
1F
100
AcDbEntity
  8
AM_0
100
AcDbSpline
210
0.0
220
0.0
230
1.0
 70
     8
 71
     3
 72
    11
 73
     7
 74
     5
 42
0.0000000001
 43
0.0000000001
 44
0.0000000001
 40
0.0
 40
0.0
 40
0.0
 40
0.0
 40
0.5054877750555403
 40
0.9922658640550498
 40
1.45973113536684
 40
1.907190312554002
 40
1.907190312554002
 40
1.907190312554002
 40
1.907190312554002
 10
-5.881767272950241
 20
-16.99288940429983
 30
0.0
 10
-5.871309351660269
 20
-17.1610607317329
 30
0.0
 10
-5.850780589507959
 20
-17.49117883895384
 30
0.0
 10
-5.818124988420443
 20
-17.97666037594489
 30
0.0
 10
-5.785059973686569
 20
-18.44272550143547
 30
0.0
 10
-5.761591897815037
 20
-18.74679668845668
 30
0.0
 10
-5.750114440920242
 20
-18.89550781249982
 30
0.0
 11
-5.881767272950241
 21
-16.99288940429983
 31
0.0
 11
-5.849960327150199
 21
-17.49737548827982
 31
0.0
 11
-5.817390441900215
 21
-17.98306274413983
 31
0.0
 11
-5.784095764160213
 21
-18.44934082030983
 31
0.0
 11
-5.750114440920242
 21
-18.89550781249982
 31
0.0
  0
SPLINE
  5
D402
330
1F
100
AcDbEntity
  8
AM_0
100
AcDbSpline
210
0.0
220
0.0
230
1.0
 70
     8
 71
     3
 72
    11
 73
     7
 74
     5
 42
0.0000000001
 43
0.0000000001
 44
0.0000000001
 40
0.0
 40
0.0
 40
0.0
 40
0.0
 40
0.3145766178671099
 40
0.6144741919059803
 40
0.9061738153344908
 40
1.194094100881361
 40
1.194094100881361
 40
1.194094100881361
 40
1.194094100881361
 10
-6.179565429690228
 20
-15.84341430663982
 30
0.0
 10
-6.137473139342722
 20
-15.9395560400478
 30
0.0
 10
-6.055252705185464
 20
-16.12735325887752
 30
0.0
 10
-5.968660434685831
 20
-16.41733086325263
 30
0.0
 10
-5.907320919857051
 20
-16.70459402382183
 30
0.0
 10
-5.890248048089684
 20
-16.89720958589697
 30
0.0
 10
-5.881767272950241
 20
-16.99288940429983
 30
0.0
 11
-6.179565429690228
 21
-15.84341430663982
 31
0.0
 11
-6.059448242190228
 21
-16.13415527343983
 31
0.0
 11
-5.971801757810226
 21
-16.42095947265983
 31
0.0
 11
-5.912971496580212
 21
-16.70666503905982
 31
0.0
 11
-5.881767272950241
 21
-16.99288940429983
 31
0.0
  0
SPLINE
  5
D403
330
1F
100
AcDbEntity
  8
AM_0
100
AcDbSpline
210
0.0
220
0.0
230
1.0
 70
     8
 71
     3
 72
    11
 73
     7
 74
     5
 42
0.0000000001
 43
0.0000000001
 44
0.0000000001
 40
0.0
 40
0.0
 40
0.0
 40
0.0
 40
0.7984638469207122
 40
1.664680909632751
 40
2.597663364255953
 40
3.575262805169869
 40
3.575262805169869
 40
3.575262805169869
 40
3.575262805169869
 10
-6.179565429690228
 20
-15.84341430663982
 30
0.0
 10
-6.310690375388817
 20
-15.61000634455112
 30
0.0
 10
-6.584066802791109
 20
-15.12338471460031
 30
0.0
 10
-7.238224577989262
 20
-14.53685755259321
 30
0.0
 10
-8.07430530165363
 20
-14.09688172613678
 30
0.0
 10
-8.714568036996812
 20
-14.04022193832216
 30
0.0
 10
-9.042175292970284
 20
-14.01123046874985
 30
0.0
 11
-6.179565429690228
 21
-15.84341430663982
 31
0.0
 11
-6.606491088870257
 21
-15.16867065429983
 31
0.0
 11
-7.24195861816031
 21
-14.58001708983982
 31
0.0
 11
-8.076370239260313
 21
-14.16262817382983
 31
0.0
 11
-9.042175292970284
 21
-14.01123046874985
 31
0.0
  0
SPLINE
  5
D404
330
1F
100
AcDbEntity
  8
AM_0
100
AcDbSpline
210
0.0
220
0.0
230
1.0
 70
     8
 71
     3
 72
    11
 73
     7
 74
     5
 42
0.0000000001
 43
0.0000000001
 44
0.0000000001
 40
0.0
 40
0.0
 40
0.0
 40
0.0
 40
0.8539409984975581
 40
1.70790997905796
 40
2.561843373207412
 40
3.415813305321879
 40
3.415813305321879
 40
3.415813305321879
 40
3.415813305321879
 10
-11.53552246094022
 20
-22.22296142577985
 30
0.0
 10
-11.73591132859549
 20
-22.02080245900226
 30
0.0
 10
-12.13669563027758
 20
-21.61647790107266
 30
0.0
 10
-12.73676336655586
 20
-21.00890393876566
 30
0.0
 10
-13.33619060007301
 20
-20.40068451746411
 30
0.0
 10
-13.7350719600334
 20
-19.99448562644813
 30
0.0
 10
-13.93451690674021
 20
-19.79138183593986
 30
0.0
 11
-11.53552246094022
 21
-22.22296142577985
 31
0.0
 11
-12.13650512695022
 21
-21.61630249023986
 31
0.0
 11
-12.73666381836022
 21
-21.00878906249985
 31
0.0
 11
-13.33599853516022
 21
-20.40051269530985
 31
0.0
 11
-13.93451690674021
 21
-19.79138183593986
 31
0.0
  0
SPLINE
  5
D405
330
1F
100
AcDbEntity
  8
AM_0
100
AcDbSpline
210
0.0
220
0.0
230
1.0
 70
     8
 71
     3
 72
    11
 73
     7
 74
     5
 42
0.0000000001
 43
0.0000000001
 44
0.0000000001
 40
0.0
 40
0.0
 40
0.0
 40
0.0
 40
0.559249199990822
 40
1.131216017102631
 40
1.729998139771307
 40
2.37598339777682
 40
2.37598339777682
 40
2.37598339777682
 40
2.37598339777682
 10
-11.04872894287029
 20
-14.84274291991985
 30
0.0
 10
-11.16878021835849
 20
-14.98629465547094
 30
0.0
 10
-11.41161279765958
 20
-15.27666256755905
 30
0.0
 10
-11.65709212965555
 20
-15.80423242977343
 30
0.0
 10
-11.81435184776052
 20
-16.39453602273465
 30
0.0
 10
-11.81342401404517
 20
-16.81118195282556
 30
0.0
 10
-11.81294250488025
 20
-17.02740478515986
 30
0.0
 11
-11.04872894287029
 21
-14.84274291991985
 31
0.0
 11
-11.38876342773028
 21
-15.28674316405985
 31
0.0
 11
-11.63782501221021
 21
-15.80163574218985
 31
0.0
 11
-11.78511810303024
 21
-16.38201904296986
 31
0.0
 11
-11.81294250488025
 21
-17.02740478515986
 31
0.0
  0
SPLINE
  5
D406
330
1F
100
AcDbEntity
  8
AM_0
100
AcDbSpline
210
0.0
220
0.0
230
1.0
 70
     8
 71
     3
 72
    11
 73
     7
 74
     5
 42
0.0000000001
 43
0.0000000001
 44
0.0000000001
 40
0.0
 40
0.0
 40
0.0
 40
0.0
 40
0.9942070088088254
 40
1.988393184765501
 40
2.982589360326862
 40
3.976786006992039
 40
3.976786006992039
 40
3.976786006992039
 40
3.976786006992039
 10
-5.4849090576202
 20
-22.62426757812983
 30
0.0
 10
-5.252531790358492
 20
-22.38798727222972
 30
0.0
 10
-4.787782125124077
 20
-21.91543161150371
 30
0.0
 10
-4.092280898627883
 20
-21.2050050873632
 30
0.0
 10
-3.397846512591847
 20
-20.49354011020816
 30
0.0
 10
-2.936184062790855
 20
-20.01796799747455
 30
0.0
 10
-2.705352783200225
 20
-19.78018188476983
 30
0.0
 11
-5.4849090576202
 21
-22.62426757812983
 31
0.0
 11
-4.788047790530242
 21
-21.91516113280982
 31
0.0
 11
-4.092460632320239
 21
-21.20483398437983
 31
0.0
 11
-3.398170471190212
 21
-20.49322509765983
 31
0.0
 11
-2.705352783200225
 21
-19.78018188476983
 31
0.0
  0
SPLINE
  5
D407
330
1F
100
AcDbEntity
  8
AM_0
100
AcDbSpline
210
0.0
220
0.0
230
1.0
 70
     8
 71
     3
 72
    11
 73
     7
 74
     5
 42
0.0000000001
 43
0.0000000001
 44
0.0000000001
 40
0.0
 40
0.0
 40
0.0
 40
0.0
 40
0.21005622841709
 40
0.4202040839729292
 40
0.6303975875369728
 40
0.8406026381072669
 40
0.8406026381072669
 40
0.8406026381072669
 40
0.8406026381072669
 10
-2.705352783200225
 20
-19.78018188476983
 30
0.0
 10
-2.659471083014725
 20
-19.72696309287596
 30
0.0
 10
-2.567687668912445
 20
-19.62050229489617
 30
0.0
 10
-2.47320395677156
 20
-19.43085478220302
 30
0.0
 10
-2.41158869060269
 20
-19.22821351602856
 30
0.0
 10
-2.403869071058796
 20
-19.08783189739438
 30
0.0
 10
-2.400009155270197
 20
-19.01763916015983
 30
0.0
 11
-2.705352783200225
 21
-19.78018188476983
 31
0.0
 11
-2.574905395510256
 21
-19.61553955077983
 31
0.0
 11
-2.478691101070239
 21
-19.42871093749983
 31
0.0
 11
-2.419929504400215
 21
-19.22689819335983
 31
0.0
 11
-2.400009155270197
 21
-19.01763916015983
 31
0.0
  0
SPLINE
  5
D408
330
1F
100
AcDbEntity
  8
AM_0
100
AcDbSpline
210
0.0
220
0.0
230
1.0
 70
     8
 71
     3
 72
    11
 73
     7
 74
     5
 42
0.0000000001
 43
0.0000000001
 44
0.0000000001
 40
0.0
 40
0.0
 40
0.0
 40
0.0
 40
0.1939461365437359
 40
0.3878361053714045
 40
0.5817204147134389
 40
0.7755621614508527
 40
0.7755621614508527
 40
0.7755621614508527
 40
0.7755621614508527
 10
-13.93451690674021
 20
-19.79138183593986
 30
0.0
 10
-13.98235671307728
 20
-19.74757070100739
 30
0.0
 10
-14.07802247111783
 20
-19.65996111905382
 30
0.0
 10
-14.24982124265191
 20
-19.56677529728747
 30
0.0
 10
-14.43505565192251
 20
-19.50398686908233
 30
0.0
 10
-14.56447722518947
 20
-19.49502166216233
 30
0.0
 10
-14.62918090820022
 20
-19.49053955077985
 30
0.0
 11
-13.93451690674021
 21
-19.79138183593986
 31
0.0
 11
-14.08275604248024
 21
-19.66632080077985
 31
0.0
 11
-14.25206756592024
 21
-19.57183837890985
 31
0.0
 11
-14.43655395508022
 21
-19.51220703124985
 31
0.0
 11
-14.62918090820022
 21
-19.49053955077985
 31
0.0
  0
SPLINE
  5
D409
330
1F
100
AcDbEntity
  8
AM_0
100
AcDbSpline
210
0.0
220
0.0
230
1.0
 70
     8
 71
     3
 72
    11
 73
     7
 74
     5
 42
0.0000000001
 43
0.0000000001
 44
0.0000000001
 40
0.0
 40
0.0
 40
0.0
 40
0.0
 40
0.3664175462442896
 40
0.6731598020567106
 40
0.8766124322954457
 40
0.9495253200447127
 40
0.9495253200447127
 40
0.9495253200447127
 40
0.9495253200447127
 10
-34.40644073485936
 20
20.3960571289011
 30
0.0
 10
-34.52868074763333
 20
20.39655715592262
 30
0.0
 10
-34.75325258827185
 20
20.39747577484323
 30
0.0
 10
-35.04436575820257
 20
20.38912811552842
 30
0.0
 10
-35.24090279377526
 20
20.39604979400424
 30
0.0
 10
-35.33024280014644
 20
20.37260891458887
 30
0.0
 10
-35.35381317138336
 20
20.3664245605421
 30
0.0
 11
-34.40644073485936
 21
20.3960571289011
 31
0.0
 11
-34.77285766601232
 21
20.3953857421821
 31
0.0
 11
-35.07958221435234
 21
20.39208984374511
 31
0.0
 11
-35.28283691405937
 21
20.3831176757761
 31
0.0
 11
-35.35381317138336
 21
20.3664245605421
 31
0.0
  0
SPLINE
  5
D40A
330
1F
100
AcDbEntity
  8
AM_0
100
AcDbSpline
210
0.0
220
0.0
230
1.0
 70
     8
 71
     3
 72
    11
 73
     7
 74
     5
 42
0.0000000001
 43
0.0000000001
 44
0.0000000001
 40
0.0
 40
0.0
 40
0.0
 40
0.0
 40
0.6853195783941639
 40
2.166132512934543
 40
4.419200697633274
 40
7.379669280650814
 40
7.379669280650814
 40
7.379669280650814
 40
7.379669280650814
 10
-35.35240173339531
 20
20.36352539062011
 30
0.0
 10
-35.26969195674967
 20
20.15023297623052
 30
0.0
 10
-35.00826598559985
 20
19.47606628358444
 30
0.0
 10
-34.74250885554552
 20
18.02136891336821
 30
0.0
 10
-34.06944026693782
 20
15.88449687885289
 30
0.0
 10
-33.27183707043367
 20
14.33691365581197
 30
0.0
 10
-32.81892395019127
 20
13.45812988281011
 30
0.0
 11
-35.35240173339531
 21
20.36352539062011
 31
0.0
 11
-35.11740112304335
 21
19.71975708007309
 31
0.0
 11
-34.76522064208632
 21
18.28143310546411
 31
0.0
 11
-34.08950042724234
 21
16.13208007812011
 31
0.0
 11
-32.81892395019127
 21
13.45812988281011
 31
0.0
  0
SPLINE
  5
D40B
330
1F
100
AcDbEntity
  8
AM_0
100
AcDbSpline
210
0.0
220
0.0
230
1.0
 70
     8
 71
     3
 72
    11
 73
     7
 74
     5
 42
0.0000000001
 43
0.0000000001
 44
0.0000000001
 40
0.0
 40
0.0
 40
0.0
 40
0.0
 40
4.350932913357971
 40
9.261577756117018
 40
14.38207232854561
 40
24.29592471126712
 40
24.29592471126712
 40
24.29592471126712
 40
24.29592471126712
 10
-32.81892395019127
 20
13.45812988281011
 30
0.0
 10
-32.3750640443162
 20
12.07212202285444
 30
0.0
 10
-31.43024528637488
 20
9.121807729071935
 30
0.0
 10
-28.73264994082703
 20
5.076543135742443
 30
0.0
 10
-23.24736930060331
 20
0.9003660087429382
 30
0.0
 10
-18.05385482440832
 20
0.8762707925710076
 30
0.0
 10
-14.62918090820028
 20
0.8603820800801429
 30
0.0
 11
-32.81892395019127
 21
13.45812988281011
 31
0.0
 11
-31.31247711181231
 21
9.376312255860113
 31
0.0
 11
-28.56177520751629
 21
5.308380126950112
 31
0.0
 11
-24.44282531737929
 21
2.266387939450112
 31
0.0
 11
-14.62918090820028
 21
0.8603820800801429
 31
0.0
  0
SPLINE
  5
D40C
330
1F
100
AcDbEntity
  8
AM_0
100
AcDbSpline
210
0.0
220
0.0
230
1.0
 70
     8
 71
     3
 72
    11
 73
     7
 74
     5
 42
0.0000000001
 43
0.0000000001
 44
0.0000000001
 40
0.0
 40
0.0
 40
0.0
 40
0.0
 40
0.3462923156561377
 40
0.6899935992980293
 40
1.028807650407465
 40
1.360795164635098
 40
1.360795164635098
 40
1.360795164635098
 40
1.360795164635098
 10
-9.042175292970284
 20
-14.01123046874985
 30
0.0
 10
-9.157665405205159
 20
-14.01572116059103
 30
0.0
 10
-9.387781508339841
 20
-14.02466894397155
 30
0.0
 10
-9.725674642375395
 20
-14.08887257270292
 30
0.0
 10
-10.05086430208823
 20
-14.18524517460252
 30
0.0
 10
-10.25369118305453
 20
-14.28002645427391
 30
0.0
 10
-10.35407257080027
 20
-14.32693481444985
 30
0.0
 11
-9.042175292970284
 21
-14.01123046874985
 31
0.0
 11
-9.387763977050269
 21
-14.03329467773986
 31
0.0
 11
-9.7259140014703
 21
-14.09481811523986
 31
0.0
 11
-10.04994201660031
 21
-14.19381713866985
 31
0.0
 11
-10.35407257080027
 21
-14.32693481444985
 31
0.0
  0
SPLINE
  5
D40D
330
1F
100
AcDbEntity
  8
AM_0
100
AcDbSpline
210
0.0
220
0.0
230
1.0
 70
     8
 71
     3
 72
    11
 73
     7
 74
     5
 42
0.0000000001
 43
0.0000000001
 44
0.0000000001
 40
0.0
 40
0.0
 40
0.0
 40
0.0
 40
0.19752974639245
 40
0.3951171534274266
 40
0.5928127782054595
 40
0.7906151771154161
 40
0.7906151771154161
 40
0.7906151771154161
 40
0.7906151771154161
 10
-10.35407257080021
 20
-19.19476318358985
 30
0.0
 10
-10.42024324100954
 20
-19.19259800012248
 30
0.0
 10
-10.55260389721952
 20
-19.18826700115195
 30
0.0
 10
-10.74105214623712
 20
-19.12055159725029
 30
0.0
 10
-10.91145953325173
 20
-19.01676972860943
 30
0.0
 10
-11.00296423837095
 20
-18.92116654684336
 30
0.0
 10
-11.04872894287024
 20
-18.87335205077985
 30
0.0
 11
-10.35407257080021
 21
-19.19476318358985
 31
0.0
 11
-10.55089569092024
 21
-19.17807006835985
 31
0.0
 11
-10.73799896240024
 21
-19.11456298827985
 31
0.0
 11
-10.90589904785025
 21
-19.01019287108985
 31
0.0
 11
-11.04872894287024
 21
-18.87335205077985
 31
0.0
  0
SPLINE
  5
D40E
330
1F
100
AcDbEntity
  8
AM_0
100
AcDbSpline
210
0.0
220
0.0
230
1.0
 70
     8
 71
     3
 72
    11
 73
     7
 74
     5
 42
0.0000000001
 43
0.0000000001
 44
0.0000000001
 40
0.0
 40
0.0
 40
0.0
 40
0.0
 40
0.2367663046544488
 40
0.4829744511285377
 40
0.7372529454789899
 40
0.9961202087113182
 40
0.9961202087113182
 40
0.9961202087113182
 40
0.9961202087113182
 10
-9.85015106201024
 20
-19.17550659179985
 30
0.0
 10
-9.775985566896313
 20
-19.20265797735094
 30
0.0
 10
-9.624696981522632
 20
-19.25804350002088
 30
0.0
 10
-9.385328010776373
 20
-19.31562699775055
 30
0.0
 10
-9.134566701434987
 20
-19.35392670664388
 30
0.0
 10
-8.963415865349327
 20
-19.35819721431238
 30
0.0
 10
-8.877075195310226
 20
-19.36035156249985
 30
0.0
 11
-9.85015106201024
 21
-19.17550659179985
 31
0.0
 11
-9.626327514650199
 21
-19.25271606444985
 31
0.0
 11
-9.387275695800212
 21
-19.31164550780985
 31
0.0
 11
-9.135665893560201
 21
-19.34838867187986
 31
0.0
 11
-8.877075195310226
 21
-19.36035156249985
 31
0.0
  0
SPLINE
  5
D40F
330
1F
100
AcDbEntity
  8
AM_0
100
AcDbSpline
210
0.0
220
0.0
230
1.0
 70
     8
 71
     3
 72
    11
 73
     7
 74
     5
 42
0.0000000001
 43
0.0000000001
 44
0.0000000001
 40
0.0
 40
0.0
 40
0.0
 40
0.0
 40
0.2985854679025346
 40
0.5889772540954166
 40
0.8659298839680158
 40
1.128113397747652
 40
1.128113397747652
 40
1.128113397747652
 40
1.128113397747652
 10
-8.877075195310226
 20
-19.36035156249985
 30
0.0
 10
-8.777496015982883
 20
-19.35630916532948
 30
0.0
 10
-8.581070275583359
 20
-19.34833530108856
 30
0.0
 10
-8.296911863548164
 20
-19.29268481281053
 30
0.0
 10
-8.03181862485197
 20
-19.21120418109085
 30
0.0
 10
-7.869388094932463
 20
-19.13382239802408
 30
0.0
 10
-7.79039764404024
 20
-19.09619140624982
 30
0.0
 11
-8.877075195310226
 21
-19.36035156249985
 31
0.0
 11
-8.5791473388702
 21
-19.34054565429986
 31
0.0
 11
-8.293777465820255
 21
-19.28677368163983
 31
0.0
 11
-8.029701232910213
 21
-19.20330810546983
 31
0.0
 11
-7.79039764404024
 21
-19.09619140624982
 31
0.0
  0
SPLINE
  5
D410
330
1F
100
AcDbEntity
  8
AM_0
100
AcDbSpline
210
0.0
220
0.0
230
1.0
 70
     8
 71
     3
 72
    11
 73
     7
 74
     5
 42
0.0000000001
 43
0.0000000001
 44
0.0000000001
 40
0.0
 40
0.0
 40
0.0
 40
0.0
 40
0.1920423304014698
 40
0.3840316658865489
 40
0.5759764102870218
 40
0.7678855338094353
 40
0.7678855338094353
 40
0.7678855338094353
 40
0.7678855338094353
 10
-11.04872894287024
 20
-22.70242309569985
 30
0.0
 10
-11.00051329679291
 20
-22.74487870469936
 30
0.0
 10
-10.90409530995553
 20
-22.82977820688839
 30
0.0
 10
-10.73158122479705
 20
-22.91765798817759
 30
0.0
 10
-10.5465198090551
 20
-22.9745756169407
 30
0.0
 10
-10.4182176814908
 20
-22.98017283972386
 30
0.0
 10
-10.35407257080021
 20
-22.98297119140986
 30
0.0
 11
-11.04872894287024
 21
-22.70242309569985
 31
0.0
 11
-10.89942932129025
 21
-22.82321166991985
 31
0.0
 11
-10.72946929932021
 21
-22.91250610351986
 31
0.0
 11
-10.5452728271502
 21
-22.96649169921985
 31
0.0
 11
-10.35407257080021
 21
-22.98297119140986
 31
0.0
  0
SPLINE
  5
D411
330
1F
100
AcDbEntity
  8
AM_0
100
AcDbSpline
210
0.0
220
0.0
230
1.0
 70
     8
 71
     3
 72
    11
 73
     7
 74
     5
 42
0.0000000001
 43
0.0000000001
 44
0.0000000001
 40
0.0
 40
0.0
 40
0.0
 40
0.0
 40
0.1877978964709258
 40
0.6131020849821704
 40
1.189058137868817
 40
1.85137672768348
 40
1.85137672768348
 40
1.85137672768348
 40
1.85137672768348
 10
-15.16661834717029
 20
10.16955566406014
 30
0.0
 10
-15.11350111490613
 20
10.20281619361075
 30
0.0
 10
-14.94008976972268
 20
10.31140154200014
 30
0.0
 10
-14.64549362972905
 20
10.57899219190354
 30
0.0
 10
-14.22325836474119
 20
10.93750112118498
 30
0.0
 10
-13.90678399818499
 20
11.20263772534508
 30
0.0
 10
-13.73751068115029
 20
11.34445190430014
 30
0.0
 11
-15.16661834717029
 21
10.16955566406014
 31
0.0
 11
-15.00928497315027
 21
10.27209472656014
 31
0.0
 11
-14.6817245483403
 21
10.54336547851014
 31
0.0
 11
-14.24470520020031
 21
10.91851806641014
 31
0.0
 11
-13.73751068115029
 21
11.34445190430014
 31
0.0
  0
ELLIPSE
  5
D412
330
1F
100
AcDbEntity
  8
AM_0
100
AcDbEllipse
 10
-15.49983215332036
 20
14.67156982422014
 30
0.0
 11
0.0174523083999899
 21
2.999938983546996
 31
0.0
210
0.0
220
0.0
230
1.0
 40
0.2079115859825
 41
3.141592233109105
 42
3.733020620385023
  0
ELLIPSE
  5
D413
330
1F
100
AcDbEntity
  8
AM_0
100
AcDbEllipse
 10
-15.16297149658027
 20
12.66958618164014
 30
0.0
 11
0.0145416218599998
 21
2.4999693906
 31
0.0
210
0.0
220
0.0
230
1.0
 40
0.0349003561623
 41
3.141590148663876
 42
4.712384464774493
  0
ELLIPSE
  5
D414
330
1F
100
AcDbEntity
  8
AM_0
100
AcDbEllipse
 10
-10.55461120606025
 20
9.661590576170141
 30
0.0
 11
-2.999412574199994
 21
0.0595094599899907
 31
0.0
210
0.0
220
0.0
230
1.0
 40
0.2584632951769
 41
5.755980969939249
 42
6.095621016052012
  0
ELLIPSE
  5
D415
330
1F
100
AcDbEntity
  8
AM_0
100
AcDbEllipse
 10
-11.06023406982029
 20
-0.1317749023398562
 30
0.0
 11
-0.1369929500300523
 21
23.42257683171899
 31
0.0
210
0.0
220
0.0
230
0.9999999999999998
 40
0.0524735185441
 41
2.375825745909508
 42
2.442029443911733
  0
ELLIPSE
  5
D416
330
1F
100
AcDbEntity
  8
AM_0
100
AcDbEllipse
 10
-32.51501464843431
 20
0.0031127929701142
 30
0.0
 11
389.1619872548838
 21
0.0062255858807717
 31
0.0
210
0.0
220
0.0
230
1.0
 40
0.0524029058834
 41
1.570490264350596
 42
1.575653272077988
  0
ELLIPSE
  5
D417
330
1F
100
AcDbEntity
  8
AM_0
100
AcDbEllipse
 10
-15.98092651367028
 20
0.0000000000001421
 30
0.0
 11
0.1242831242299639
 21
20.396302181121
 31
0.0
210
0.0
220
0.0
230
1.0
 40
0.2125527002493
 41
6.149324531413641
 42
6.241536268131162
  0
ELLIPSE
  5
D418
330
1F
100
AcDbEntity
  8
AM_0
100
AcDbEllipse
 10
-32.51495361327727
 20
0.0000000000001137
 30
0.0
 11
389.191802928717
 21
0.0062255857107673
 31
0.0
210
0.0
220
0.0
230
1.0
 40
0.0524068894335
 41
1.527522292172091
 42
1.570490515978845
  0
ELLIPSE
  5
D419
330
1F
100
AcDbEntity
  8
AM_0
100
AcDbEllipse
 10
-15.35983276367028
 20
0.0000000000001421
 30
0.0
 11
-0.1188020089900424
 21
20.396331028568
 31
0.0
210
0.0
220
0.0
230
1.0
 40
0.0349202980615
 41
3.314217779363658
 42
3.441324939066832
  0
ELLIPSE
  5
D41A
330
1F
100
AcDbEntity
  8
AM_0
100
AcDbEllipse
 10
-15.98092651367028
 20
0.0000000000001421
 30
0.0
 11
-0.1242703071400347
 21
20.39630035183299
 31
0.0
210
0.0
220
0.0
230
0.9999999999999998
 40
0.2125525331002
 41
3.183282665476635
 42
3.312598122777018
  0
ELLIPSE
  5
D41B
330
1F
100
AcDbEntity
  8
AM_0
100
AcDbEllipse
 10
-32.51495361327727
 20
0.0000000000001137
 30
0.0
 11
-389.1916808605529
 21
0.0060901505992333
 31
0.0
210
0.0
220
0.0
230
0.9999999999999998
 40
0.0524069058709
 41
1.571104522625635
 42
1.61407689904318
  0
ELLIPSE
  5
D41C
330
1F
100
AcDbEntity
  8
AM_0
100
AcDbEllipse
 10
-19.52602386475035
 20
20.56326293944812
 30
0.0
 11
10.24576550774998
 21
11.08630351395102
 31
0.0
210
0.0
220
0.0
230
0.9999999999999998
 40
0.9860002310940998
 41
2.803231839063657
 42
3.874761191118976
  0
ELLIPSE
  5
D41D
330
1F
100
AcDbEntity
  8
AM_0
100
AcDbEllipse
 10
-124.3105926513631
 20
0.0005798339799128
 30
0.0
 11
-453.0845031113872
 21
0.0075220535391056
 31
0.0
210
0.0
220
0.0
230
1.0
 40
0.052407498973
 41
1.825046136302481
 42
1.834576640792385
  0
ELLIPSE
  5
D41E
330
1F
100
AcDbEntity
  8
AM_0
100
AcDbEllipse
 10
-15.21160888672034
 20
14.66989135742014
 30
0.0
 11
0.0174523083999899
 21
2.999938983549994
 31
0.0
210
0.0
220
0.0
230
1.0
 40
0.0354379707641
 41
3.141590186665057
 42
3.72560629969189
  0
ARC
  5
D420
330
1F
100
AcDbEntity
  8
AM_0
100
AcDbCircle
 10
-7.998168945310339
 20
16.91021728515116
 30
0.0
 40
3.894654989242599
100
AcDbArc
 50
359.6666674785541
 51
89.66666878241106
  0
ARC
  5
D421
330
1F
100
AcDbEntity
  8
AM_0
100
AcDbCircle
 10
-7.998168945310339
 20
16.91021728515116
 30
0.0
 40
3.9000000953674
100
AcDbArc
 50
89.66666878241106
 51
269.6666601309897
  0
LINE
  5
D422
330
1F
100
AcDbEntity
  8
AM_0
100
AcDbLine
 10
-0.0000076294003293
 20
18.45500183105016
 30
0.0
 11
-0.0185241699203402
 21
15.27246856689018
 31
0.0
  0
LINE
  5
D423
330
1F
100
AcDbEntity
  8
AM_0
100
AcDbLine
 10
-15.99633026123035
 20
15.36542510986012
 30
0.0
 11
-15.97781372070033
 21
18.54795837401812
 31
0.0
  0
LINE
  5
D424
330
1F
100
AcDbEntity
  8
AM_0
100
AcDbLine
 10
-50.00000762939126
 20
-20.99999999999991
 30
0.0
 11
-50.00000762939134
 21
20.99999999999508
 31
0.0
  0
LINE
  5
D425
330
1F
100
AcDbEntity
  8
AM_0
100
AcDbLine
 10
-49.39633178710526
 20
-20.39633178710991
 30
0.0
 11
-49.39633178710531
 21
20.39633178710408
 31
0.0
  0
LINE
  5
D429
330
1F
100
AcDbEntity
  8
AM_0
100
AcDbLine
 10
-49.39633178710526
 20
-20.39633178710991
 30
0.0
 11
-32.39629364013325
 21
-20.39633178710988
 31
0.0
  0
LINE
  5
D42A
330
1F
100
AcDbEntity
  8
AM_0
100
AcDbLine
 10
-50.00000762939126
 20
-20.99999999999991
 30
0.0
 11
-49.39633941650024
 21
-20.39633178710991
 31
0.0
  0
LINE
  5
D42B
330
1F
100
AcDbEntity
  8
AM_0
100
AcDbLine
 10
-10.35407257080027
 20
-14.32693481444985
 30
0.0
 11
-10.35407257080027
 21
-1.216918945309856
 31
0.0
  0
LINE
  5
D42C
330
1F
100
AcDbEntity
  8
AM_0
100
AcDbLine
 10
-11.04872894287029
 20
-14.84274291991985
 30
0.0
 11
-11.04872894287029
 21
-1.034851074219858
 31
0.0
  0
LINE
  5
D42D
330
1F
100
AcDbEntity
  8
AM_0
100
AcDbLine
 10
-5.4849090576202
 20
-22.62426757812983
 30
0.0
 11
-5.484909057620257
 21
-1.229919433589827
 31
0.0
  0
LINE
  5
D42E
330
1F
100
AcDbEntity
  8
AM_0
100
AcDbLine
 10
-6.179565429690228
 20
-15.84341430663982
 30
0.0
 11
-6.179565429690285
 21
-1.362792968749829
 31
0.0
  0
LINE
  5
D42F
330
1F
100
AcDbEntity
  8
AM_0
100
AcDbLine
 10
-13.93451690674021
 20
-19.79138183593986
 30
0.0
 11
-13.93451690674027
 21
0.6692810058601424
 31
0.0
  0
LINE
  5
D430
330
1F
100
AcDbEntity
  8
AM_0
100
AcDbLine
 10
-2.705352783200225
 20
-19.78018188476983
 30
0.0
 11
-2.705352783200282
 21
0.1997375488301713
 31
0.0
  0
LINE
  5
D431
330
1F
100
AcDbEntity
  8
AM_0
100
AcDbLine
 10
-2.400009155270197
 20
-19.01763916015983
 30
0.0
 11
-2.400009155270254
 21
0.5727233886701697
 31
0.0
  0
LINE
  5
D432
330
1F
100
AcDbEntity
  8
AM_0
100
AcDbLine
 10
-14.62918090820022
 20
-19.49053955077985
 30
0.0
 11
-14.62918090820028
 21
0.8603820800801429
 31
0.0
  0
LINE
  5
D433
330
1F
100
AcDbEntity
  8
AM_0
100
AcDbLine
 10
-5.467613220220243
 20
-23.01116943358982
 30
0.0
 11
-2.21471405029024
 21
-19.71569824218983
 31
0.0
  0
LINE
  5
D434
330
1F
100
AcDbEntity
  8
AM_0
100
AcDbLine
 10
-3.596611022950241
 20
-23.50199890136983
 30
0.0
 11
-5.467628479000211
 21
-23.01118469237982
 31
0.0
  0
LINE
  5
D435
330
1F
100
AcDbEntity
  8
AM_0
100
AcDbLine
 10
-6.3625335693402
 20
-24.90081787108982
 30
0.0
 11
-3.433364868160253
 21
-23.66583251952982
 31
0.0
  0
ARC
  5
D436
330
1F
100
AcDbEntity
  8
AM_0
100
AcDbCircle
 10
-8.757026672360211
 20
-17.00961303710985
 30
0.0
 40
2.999989509582499
100
AcDbArc
 50
93.19856643241413
 51
180.3333319008288
  0
ARC
  5
D437
330
1F
100
AcDbEntity
  8
AM_0
100
AcDbCircle
 10
-8.907691955570214
 20
-16.86050415038985
 30
0.0
 40
2.4993305206299
100
AcDbArc
 50
296.5536829506421
 51
90.33332256616608
  0
ARC
  5
D438
330
1F
100
AcDbEntity
  8
AM_0
100
AcDbCircle
 10
-8.489006042480241
 20
-16.85806274413983
 30
0.0
 40
2.499972820282
100
AcDbArc
 50
95.41822764851133
 51
180.0000050089585
  0
ARC
  5
D439
330
1F
100
AcDbEntity
  8
AM_0
100
AcDbCircle
 10
-8.907691955570214
 20
-16.86050415038985
 30
0.0
 40
2.500000238418599
100
AcDbArc
 50
90.33332256616608
 51
247.8482765255485
  0
ARC
  5
D43A
330
1F
100
AcDbEntity
  8
AM_0
100
AcDbCircle
 10
-8.076667785650215
 20
-16.91067504882983
 30
0.0
 40
2.8965563774109
100
AcDbArc
 50
158.896400700154
 51
186.8064934225477
  0
LINE
  5
D43B
330
1F
100
AcDbEntity
  8
AM_0
100
AcDbLine
 10
-14.4289398193402
 20
-19.78672790526985
 30
0.0
 11
-11.13790893555022
 21
-23.04414367675986
 31
0.0
  0
LINE
  5
D43C
330
1F
100
AcDbEntity
  8
AM_0
100
AcDbLine
 10
-12.48406982422022
 20
-23.71852111815985
 30
0.0
 11
-9.540718078610211
 21
-24.91932678222986
 31
0.0
  0
LINE
  5
D43D
330
1F
100
AcDbEntity
  8
AM_0
100
AcDbLine
 10
-11.13790130615024
 20
-23.04415893554986
 30
0.0
 11
-12.42739868164022
 21
-23.55337524413986
 31
0.0
  0
LINE
  5
D43E
330
1F
100
AcDbEntity
  8
AM_0
100
AcDbLine
 10
-12.42739105225024
 20
-23.55335998534985
 30
0.0
 11
-14.63287353516022
 21
-21.37040710448985
 31
0.0
  0
LINE
  5
D43F
330
1F
100
AcDbEntity
  8
AM_0
100
AcDbLine
 10
-14.74446868897024
 20
-21.48115539550985
 30
0.0
 11
-12.4840545654302
 21
-23.71850585937985
 31
0.0
  0
LINE
  5
D440
330
1F
100
AcDbEntity
  8
AM_0
100
AcDbLine
 10
-12.42739868164022
 20
-23.55337524413986
 30
0.0
 11
-12.4840545654302
 21
-23.71849060058985
 31
0.0
  0
LINE
  5
D441
330
1F
100
AcDbEntity
  8
AM_0
100
AcDbLine
 10
-14.55166625977023
 20
-19.49484252929986
 30
0.0
 11
-14.42893218994021
 21
-19.78672790526985
 31
0.0
  0
LINE
  5
D442
330
1F
100
AcDbEntity
  8
AM_0
100
AcDbLine
 10
-14.63288116455021
 20
-21.37042236327985
 30
0.0
 11
-14.42892456055022
 21
-19.78675842284985
 31
0.0
  0
LINE
  5
D443
330
1F
100
AcDbEntity
  8
AM_0
100
AcDbLine
 10
-15.27890014648022
 20
-20.21012878417985
 30
0.0
 11
-14.74446868897024
 21
-21.48115539550985
 31
0.0
  0
LINE
  5
D444
330
1F
100
AcDbEntity
  8
AM_0
100
AcDbLine
 10
-14.74447631836022
 20
-21.48117065429985
 30
0.0
 11
-14.63289642334024
 21
-21.37042236327985
 31
0.0
  0
LINE
  5
D445
330
1F
100
AcDbEntity
  8
AM_0
100
AcDbLine
 10
-6.179565429690228
 20
-22.92507934569982
 30
0.0
 11
-6.179565429690228
 21
-19.03350830077982
 31
0.0
  0
LINE
  5
D446
330
1F
100
AcDbEntity
  8
AM_0
100
AcDbLine
 10
-11.04872894287024
 20
-22.70242309569985
 30
0.0
 11
-11.04872894287024
 21
-18.87335205077985
 31
0.0
  0
LINE
  5
D447
330
1F
100
AcDbEntity
  8
AM_0
100
AcDbLine
 10
-10.35407257080021
 20
-22.98297119140986
 30
0.0
 11
-10.35407257080021
 21
-19.19476318358985
 31
0.0
  0
LINE
  5
D448
330
1F
100
AcDbEntity
  8
AM_0
100
AcDbLine
 10
-10.61512756348025
 20
-23.25743103026985
 30
0.0
 11
-5.987884521480225
 21
-23.23051452636982
 31
0.0
  0
LINE
  5
D449
330
1F
100
AcDbEntity
  8
AM_0
100
AcDbLine
 10
-6.454605102540256
 20
-24.70698547362982
 30
0.0
 11
-9.555572509770229
 21
-24.72502136230986
 31
0.0
  0
LINE
  5
D44A
330
1F
100
AcDbEntity
  8
AM_0
100
AcDbLine
 10
-9.540718078610211
 20
-24.91931152343985
 30
0.0
 11
-6.3625335693402
 21
-24.90081787108982
 31
0.0
  0
LINE
  5
D44B
330
1F
100
AcDbEntity
  8
AM_0
100
AcDbLine
 10
-11.04872131348025
 20
-22.70242309569985
 30
0.0
 11
-11.53552246094022
 21
-22.22296142577985
 31
0.0
  0
LINE
  5
D44C
330
1F
100
AcDbEntity
  8
AM_0
100
AcDbLine
 10
-11.13790893555022
 20
-23.04415893554986
 30
0.0
 11
-10.61514282227022
 21
-23.25744628905985
 31
0.0
  0
LINE
  5
D44D
330
1F
100
AcDbEntity
  8
AM_0
100
AcDbLine
 10
-9.555572509770229
 20
-24.72499084472985
 30
0.0
 11
-10.61512756348025
 21
-23.25744628905985
 31
0.0
  0
LINE
  5
D44E
330
1F
100
AcDbEntity
  8
AM_0
100
AcDbLine
 10
-9.555572509770229
 20
-24.72500610351985
 30
0.0
 11
-9.540718078610211
 21
-24.91929626464985
 31
0.0
  0
LINE
  5
D44F
330
1F
100
AcDbEntity
  8
AM_0
100
AcDbLine
 10
-5.987884521480225
 20
-23.23052978515983
 30
0.0
 11
-5.467628479000211
 21
-23.01116943358982
 31
0.0
  0
LINE
  5
D450
330
1F
100
AcDbEntity
  8
AM_0
100
AcDbLine
 10
-6.454627990720211
 20
-24.70695495605983
 30
0.0
 11
-6.362541198730241
 21
-24.90081787108982
 31
0.0
  0
LINE
  5
D451
330
1F
100
AcDbEntity
  8
AM_0
100
AcDbLine
 10
-5.987876892090241
 20
-23.23054504394983
 30
0.0
 11
-6.454597473150215
 21
-24.70695495605983
 31
0.0
  0
ARC
  5
D452
330
1F
100
AcDbEntity
  8
AM_0
100
AcDbCircle
 10
-8.489006042480241
 20
-16.85806274413983
 30
0.0
 40
2.496573925018299
100
AcDbArc
 50
180.0000086514213
 51
265.5464682698641
  0
LINE
  5
D453
330
1F
100
AcDbEntity
  8
AM_0
100
AcDbLine
 10
-11.74686431885021
 20
-18.05633544921986
 30
0.0
 11
-11.04872131348025
 21
-18.87335205077985
 31
0.0
  0
LINE
  5
D454
330
1F
100
AcDbEntity
  8
AM_0
100
AcDbLine
 10
-11.81294250488025
 20
-17.02742004394986
 30
0.0
 11
-11.75286102295024
 21
-17.02705383300985
 31
0.0
  0
LINE
  5
D455
330
1F
100
AcDbEntity
  8
AM_0
100
AcDbLine
 10
-11.75286102295024
 20
-17.02703857421985
 30
0.0
 11
-11.74687957764024
 21
-18.05635070800986
 31
0.0
  0
LINE
  5
D456
330
1F
100
AcDbEntity
  8
AM_0
100
AcDbLine
 10
-2.001754760740197
 20
-19.19221496581982
 30
0.0
 11
-2.028709411620297
 21
-14.55859374999983
 31
0.0
  0
LINE
  5
D457
330
1F
100
AcDbEntity
  8
AM_0
100
AcDbLine
 10
-0.2647399902302254
 20
-15.31256103515983
 30
0.0
 11
-0.2466812133802136
 21
-18.41775512694982
 31
0.0
  0
LINE
  5
D458
330
1F
100
AcDbEntity
  8
AM_0
100
AcDbLine
 10
-0.0000076294002156
 20
-18.45500183105983
 30
0.0
 11
-0.0185241699202834
 21
-15.27246093749982
 31
0.0
  0
LINE
  5
D459
330
1F
100
AcDbEntity
  8
AM_0
100
AcDbLine
 10
-1.416679382320239
 20
-21.29351806640983
 30
0.0
 11
-3.596611022950241
 21
-23.50198364257983
 31
0.0
  0
LINE
  5
D45A
330
1F
100
AcDbEntity
  8
AM_0
100
AcDbLine
 10
-3.433364868160253
 20
-23.66581726073982
 30
0.0
 11
-1.199150085450241
 21
-21.40235900878983
 31
0.0
  0
LINE
  5
D45B
330
1F
100
AcDbEntity
  8
AM_0
100
AcDbLine
 10
-3.596603393560201
 20
-23.50198364257983
 30
0.0
 11
-3.433357238770213
 21
-23.66583251952982
 31
0.0
  0
LINE
  5
D45C
330
1F
100
AcDbEntity
  8
AM_0
100
AcDbLine
 10
-2.214721679690228
 20
-19.71569824218983
 30
0.0
 11
-2.001747131350214
 21
-19.19219970702982
 31
0.0
  0
LINE
  5
D45D
330
1F
100
AcDbEntity
  8
AM_0
100
AcDbLine
 10
-0.2466735839802254
 20
-18.41775512694982
 30
0.0
 11
-2.001754760740197
 21
-19.19219970702982
 31
0.0
  0
LINE
  5
D45E
330
1F
100
AcDbEntity
  8
AM_0
100
AcDbLine
 10
-0.2466812133802136
 20
-18.41773986815982
 30
0.0
 11
-0.0000076294002156
 21
-18.45497131347983
 31
0.0
  0
LINE
  5
D45F
330
1F
100
AcDbEntity
  8
AM_0
100
AcDbLine
 10
-1.199134826660213
 20
-21.40237426757983
 30
0.0
 11
-0.0000076294002156
 21
-18.45500183105983
 31
0.0
  0
LINE
  5
D460
330
1F
100
AcDbEntity
  8
AM_0
100
AcDbLine
 10
-1.416671752930199
 20
-21.29350280761983
 30
0.0
 11
-1.199142456060201
 21
-21.40235900878983
 31
0.0
  0
LINE
  5
D461
330
1F
100
AcDbEntity
  8
AM_0
100
AcDbLine
 10
-2.214729309080212
 20
-19.71571350097983
 30
0.0
 11
-1.416671752930199
 21
-21.29353332519983
 31
0.0
  0
LINE
  5
D462
330
1F
100
AcDbEntity
  8
AM_0
100
AcDbLine
 10
-2.247749328610268
 20
-14.03762817382983
 30
0.0
 11
-2.399993896480282
 21
-13.88693237304983
 31
0.0
  0
LINE
  5
D463
330
1F
100
AcDbEntity
  8
AM_0
100
AcDbLine
 10
-2.028701782230314
 20
-14.55859374999983
 30
0.0
 11
-2.247764587400297
 21
-14.03762817382983
 31
0.0
  0
LINE
  5
D464
330
1F
100
AcDbEntity
  8
AM_0
100
AcDbLine
 10
-2.028724670410269
 20
-14.55860900878983
 30
0.0
 11
-0.2647476196302136
 21
-15.31257629394983
 31
0.0
  0
LINE
  5
D465
330
1F
100
AcDbEntity
  8
AM_0
100
AcDbLine
 10
-1.468109130860284
 20
-12.45060729980983
 30
0.0
 11
-2.247764587400297
 21
-14.03762817382983
 31
0.0
  0
LINE
  5
D466
330
1F
100
AcDbEntity
  8
AM_0
100
AcDbLine
 10
-1.468116760250268
 20
-12.45062255858982
 30
0.0
 11
-1.251861572270286
 21
-12.33923339843983
 31
0.0
  0
LINE
  5
D467
330
1F
100
AcDbEntity
  8
AM_0
100
AcDbLine
 10
-0.0185317993202716
 20
-15.27246093749982
 30
0.0
 11
-1.251876831060258
 21
-12.33923339843983
 31
0.0
  0
LINE
  5
D468
330
1F
100
AcDbEntity
  8
AM_0
100
AcDbLine
 10
-0.2647476196302136
 20
-15.31254577636983
 30
0.0
 11
-0.0185241699202834
 21
-15.27244567870982
 31
0.0
  0
LINE
  5
D469
330
1F
100
AcDbEntity
  8
AM_0
100
AcDbLine
 10
-2.400009155270254
 20
-11.52822875976983
 30
0.0
 11
-1.468124389650256
 21
-12.45062255858982
 31
0.0
  0
LINE
  5
D46A
330
1F
100
AcDbEntity
  8
AM_0
100
AcDbLine
 10
-1.251869201660269
 20
-12.33921813964983
 30
0.0
 11
-2.400009155270254
 21
-11.20280456542982
 31
0.0
  0
ARC
  5
D46B
330
1F
100
AcDbEntity
  8
AM_0
100
AcDbCircle
 10
-7.998168945310339
 20
16.91021728515116
 30
0.0
 40
3.9000000953674
100
AcDbArc
 50
269.6666706036496
 51
359.6666674785541
  0
LINE
  5
D46C
330
1F
100
AcDbEntity
  8
AM_0
100
AcDbLine
 10
-3.512283325200314
 20
10.10192871094017
 30
0.0
 11
-6.455619812010297
 21
8.901092529300171
 31
0.0
  0
LINE
  5
D46D
330
1F
100
AcDbEntity
  8
AM_0
100
AcDbLine
 10
-6.000007629400272
 20
9.086975097660172
 30
0.0
 11
-6.000007629400272
 21
6.484344482420169
 31
0.0
  0
LINE
  5
D46E
330
1F
100
AcDbEntity
  8
AM_0
100
AcDbLine
 10
-5.385162353520286
 20
5.480743408200169
 30
0.0
 11
-19.82363891602028
 21
5.564758300780141
 31
0.0
  0
LINE
  5
D46F
330
1F
100
AcDbEntity
  8
AM_0
100
AcDbLine
 10
-6.000007629400272
 20
6.484344482420169
 30
0.0
 11
-6.000007629400272
 21
5.484313964840168
 31
0.0
  0
LINE
  5
D470
330
1F
100
AcDbEntity
  8
AM_0
100
AcDbLine
 10
-10.7783126831103
 20
9.40213012695014
 30
0.0
 11
-13.50103759766028
 21
9.417968750000142
 31
0.0
  0
LINE
  5
D471
330
1F
100
AcDbEntity
  8
AM_0
100
AcDbLine
 10
-9.633804321290313
 20
8.919593811030154
 30
0.0
 11
-12.56296539307027
 21
10.15457153320014
 31
0.0
  0
LINE
  5
D472
330
1F
100
AcDbEntity
  8
AM_0
100
AcDbLine
 10
-15.70938110352034
 20
14.66012573242014
 30
0.0
 11
-15.72676086426031
 21
11.67284393310015
 31
0.0
  0
LINE
  5
D473
330
1F
100
AcDbEntity
  8
AM_0
100
AcDbLine
 10
-15.16028594971027
 20
13.31051635742014
 30
0.0
 11
-15.16687774658026
 21
12.17817687988014
 31
0.0
  0
LINE
  5
D474
330
1F
100
AcDbEntity
  8
AM_0
100
AcDbLine
 10
-14.79719543457031
 20
12.41807556152014
 30
0.0
 11
-15.99632263184031
 21
15.36542510986012
 31
0.0
  0
LINE
  5
D475
330
1F
100
AcDbEntity
  8
AM_0
100
AcDbLine
 10
-15.72676086426031
 20
11.67286682129014
 30
0.0
 11
-15.26048278809025
 21
11.67015075684014
 31
0.0
  0
LINE
  5
D476
330
1F
100
AcDbEntity
  8
AM_0
100
AcDbLine
 10
-15.26047515869026
 20
11.67012786865015
 30
0.0
 11
-15.26920318604027
 21
10.17012023926014
 31
0.0
  0
LINE
  5
D477
330
1F
100
AcDbEntity
  8
AM_0
100
AcDbLine
 10
-15.04926300049027
 20
10.16889190674012
 30
0.0
 11
-15.26921081543025
 21
10.17014312744012
 31
0.0
  0
LINE
  5
D478
330
1F
100
AcDbEntity
  8
AM_0
100
AcDbLine
 10
-15.04925537109028
 20
10.16888427734013
 30
0.0
 11
-15.04957580566031
 21
10.11422729492014
 31
0.0
  0
LINE
  5
D479
330
1F
100
AcDbEntity
  8
AM_0
100
AcDbLine
 10
-13.4970321655303
 20
10.10519409180014
 30
0.0
 11
-15.0495834350603
 21
10.11422729492014
 31
0.0
  0
LINE
  5
D47A
330
1F
100
AcDbEntity
  8
AM_0
100
AcDbLine
 10
-13.50103759766028
 20
9.417976379390154
 30
0.0
 11
-13.49703979492028
 21
10.10518646240015
 31
0.0
  0
LINE
  5
D47B
330
1F
100
AcDbEntity
  8
AM_0
100
AcDbLine
 10
-15.22906494141028
 20
11.66996765137014
 30
0.0
 11
-15.26048278809025
 21
11.67015075684014
 31
0.0
  0
LINE
  5
D47C
330
1F
100
AcDbEntity
  8
AM_0
100
AcDbLine
 10
-13.13894653320028
 20
10.10309600830015
 30
0.0
 11
-12.43110656738031
 21
10.09897613525015
 31
0.0
  0
LINE
  5
D47D
330
1F
100
AcDbEntity
  8
AM_0
100
AcDbLine
 10
-12.80446624756029
 20
10.10117340088015
 30
0.0
 11
-12.80274200440027
 21
10.39749145508014
 31
0.0
  0
LINE
  5
D47E
330
1F
100
AcDbEntity
  8
AM_0
100
AcDbLine
 10
-12.5629806518603
 20
10.15457916260015
 30
0.0
 11
-14.79719543457031
 21
12.41806030273014
 31
0.0
  0
LINE
  5
D47F
330
1F
100
AcDbEntity
  8
AM_0
100
AcDbLine
 10
-13.49703979492028
 20
10.10520172119015
 30
0.0
 11
-13.13895416260027
 21
10.10309600830015
 31
0.0
  0
LINE
  5
D480
330
1F
100
AcDbEntity
  8
AM_0
100
AcDbLine
 10
-15.07572174072026
 20
12.66908264160014
 30
0.0
 11
-15.0732345581103
 21
13.09653472900012
 31
0.0
  0
LINE
  5
D481
330
1F
100
AcDbEntity
  8
AM_0
100
AcDbLine
 10
-14.89889526367028
 20
12.66804504394014
 30
0.0
 11
-15.07572174072026
 21
12.66908264160014
 31
0.0
  0
LINE
  5
D482
330
1F
100
AcDbEntity
  8
AM_0
100
AcDbLine
 10
-6.455612182620257
 20
8.901092529300171
 30
0.0
 11
-9.633796691900272
 21
8.919586181640141
 31
0.0
  0
LINE
  5
D483
330
1F
100
AcDbEntity
  8
AM_0
100
AcDbLine
 10
-2.730873107910269
 20
10.87533569336017
 30
0.0
 11
-2.730873107910269
 21
3.54702758789017
 31
0.0
  0
LINE
  5
D484
330
1F
100
AcDbEntity
  8
AM_0
100
AcDbLine
 10
-2.400009155270254
 20
11.20281982422017
 30
0.0
 11
-2.400009155270254
 21
3.066375732420169
 31
0.0
  0
LINE
  5
D485
330
1F
100
AcDbEntity
  8
AM_0
100
AcDbLine
 10
-2.400009155270254
 20
0.6083068847601681
 30
0.0
 11
-2.400009155270254
 21
3.03353881836017
 31
0.0
  0
LINE
  5
D486
330
1F
100
AcDbEntity
  8
AM_0
100
AcDbLine
 10
-0.0185089111303682
 20
15.27247619629017
 30
0.0
 11
-1.251853942870297
 21
12.33924865723017
 31
0.0
  0
LINE
  5
D487
330
1F
100
AcDbEntity
  8
AM_0
100
AcDbLine
 10
-1.251869201660269
 20
12.33923339844017
 30
0.0
 11
-3.512283325200314
 21
10.10192871094017
 31
0.0
  0
LINE
  5
D488
330
1F
100
AcDbEntity
  8
AM_0
100
AcDbLine
 10
-32.39629364013336
 20
20.39633178710411
 30
0.0
 11
-49.39633178710531
 21
20.39633178710408
 31
0.0
  0
LINE
  5
D489
330
1F
100
AcDbEntity
  8
AM_0
100
AcDbLine
 10
-49.3963546752893
 20
20.39633941649907
 30
0.0
 11
-50.00001525878534
 21
20.99999237060007
 31
0.0
  0
LINE
  5
D48A
330
1F
100
AcDbEntity
  8
AM_0
100
AcDbLine
 10
-35.35382080077733
 20
20.3664398193311
 30
0.0
 11
-35.35240173339531
 21
20.36352539062011
 31
0.0
  0
LINE
  5
D48B
330
1F
100
AcDbEntity
  8
AM_0
100
AcDbLine
 10
-6.362525939940326
 20
24.90080261230017
 30
0.0
 11
-3.433364868160367
 21
23.66582489013217
 31
0.0
  0
LINE
  5
D48C
330
1F
100
AcDbEntity
  8
AM_0
100
AcDbLine
 10
-12.48405456543031
 20
23.71849822997515
 30
0.0
 11
-9.540710449220341
 21
24.91930389403816
 31
0.0
  0
LINE
  5
D48D
330
1F
100
AcDbEntity
  8
AM_0
100
AcDbLine
 10
-15.67612457275032
 20
20.37748718261215
 30
0.0
 11
-15.68267822266034
 21
19.24985504149915
 31
0.0
  0
LINE
  5
D48E
330
1F
100
AcDbEntity
  8
AM_0
100
AcDbLine
 10
-15.97780609131035
 20
18.54793548583515
 30
0.0
 11
-14.74446105957037
 21
21.48116302489714
 31
0.0
  0
LINE
  5
D48F
330
1F
100
AcDbEntity
  8
AM_0
100
AcDbLine
 10
-14.74446868897035
 20
21.48117828368615
 30
0.0
 11
-12.48406982422034
 21
23.71851348876416
 31
0.0
  0
LINE
  5
D490
330
1F
100
AcDbEntity
  8
AM_0
100
AcDbLine
 10
-9.540710449220341
 20
24.91931152343215
 30
0.0
 11
-6.362525939940326
 21
24.90081787108917
 31
0.0
  0
LINE
  5
D491
330
1F
100
AcDbEntity
  8
AM_0
100
AcDbLine
 10
-3.433357238770327
 20
23.66583251952616
 30
0.0
 11
-1.199134826660326
 21
21.40237426757315
 31
0.0
  0
LINE
  5
D492
330
1F
100
AcDbEntity
  8
AM_0
100
AcDbLine
 10
-1.199134826660326
 20
21.40238189696717
 30
0.0
 11
-0.0000000000003411
 21
18.45499420165518
 31
0.0
  0
LINE
  5
D522
330
1F
100
AcDbEntity
  8
AM_11
100
AcDbLine
 10
-0.0000000000003411
 20
25.00000000000019
 30
0.0
 11
-0.0000000000002274
 21
-24.99999999999983
 31
0.0
  0
LINE
  5
D52A
330
1F
100
AcDbEntity
  8
AM_11
100
AcDbLine
 10
-8.000000000000341
 20
25.00000000000014
 30
0.0
 11
-8.000000000000227
 21
-24.99999999999985
 31
0.0
  0
LINE
  5
D532
330
1F
100
AcDbEntity
  8
AM_11
100
AcDbLine
 10
-8.000000000000341
 20
25.00000000000014
 30
0.0
 11
-0.0000000000002842
 21
25.00000000000017
 31
0.0
  0
LINE
  5
D536
330
1F
100
AcDbEntity
  8
AM_11
100
AcDbLine
 10
-8.000000000000227
 20
-24.99999999999983
 30
0.0
 11
-0.0000000000002274
 21
-24.99999999999983
 31
0.0
  0
DIMENSION
  5
D53E
330
1F
100
AcDbEntity
  8
AM_5
100
AcDbDimension
  2
*D5
 10
-0.0000000000003153
 20
39.00000000000026
 30
0.0
 11
-4.00000000000031
 21
42.10000000000027
 31
0.0
 70
    32
  1
<>
 51
359.9999999999998
  3
AM_JIS$0
100
AcDbAlignedDimension
 13
-8.000000000000341
 23
25.00000000000014
 33
0.0
 14
-0.0000000000003411
 24
25.00000000000019
 34
0.0
 50
180.0
100
AcDbRotatedDimension
1001
GENIUS_GENDTOL_13
1000

1000
h7
1000

1040
0.0
1001
ACAD
1000
DSTYLE
1002
{
1070
   287
1070
     3
1070
   147
1040
3.0
1070
    41
1040
5.0
1070
    40
1040
0.5
1070
    42
1040
1.0
1070
    43
1040
12.0
1070
    48
1040
0.1
1070
    78
1070
     8
1070
   140
1040
6.4
1070
   176
1070
   256
1070
   177
1070
   256
1070
   271
1070
     1
1070
   272
1070
     3
1070
   275
1070
     0
1070
   284
1070
     0
1070
   289
1070
     3
1070
   340
1005
6B
1070
   371
1070
    -1
1070
   372
1070
    -1
1002
}
  0
DIMENSION
  5
D5E4
330
1F
100
AcDbEntity
  8
AM_5
100
AcDbDimension
  2
*D6
 10
13.99999999999978
 20
-24.99999999999983
 30
0.0
 11
10.89999999999978
 21
0.0000000000001701
 31
0.0
 70
    32
  1
%%c<>
 51
359.9999999999998
  3
AM_JIS$0
100
AcDbAlignedDimension
 13
-0.0000000000002842
 23
25.00000000000017
 33
0.0
 14
-0.0000000000002274
 24
-24.99999999999983
 34
0.0
 50
90.0
100
AcDbRotatedDimension
1001
GENIUS_GENDTOL_13
1000

1000
h7
1000

1040
0.0
1001
ACAD
1000
DSTYLE
1002
{
1070
   287
1070
     3
1070
   147
1040
3.0
1070
    41
1040
5.0
1070
    40
1040
0.5
1070
    42
1040
1.0
1070
    43
1040
12.0
1070
    48
1040
0.1
1070
    78
1070
     8
1070
   140
1040
6.4
1070
   176
1070
   256
1070
   177
1070
   256
1070
   271
1070
     1
1070
   272
1070
     3
1070
   275
1070
     0
1070
   284
1070
     0
1070
   289
1070
     3
1070
   340
1005
6B
1070
   371
1070
    -1
1070
   372
1070
    -1
1002
}
  0
DIMENSION
  5
D670
330
1F
100
AcDbEntity
  8
AM_5
100
AcDbDimension
  2
*D7
 10
-50.00000762939123
 20
-38.99999999999982
 30
0.0
 11
-25.00000381469573
 21
-35.89999999999982
 31
0.0
 70
    32
  1
<>
 51
359.9999999999998
  3
AM_JIS$0
100
AcDbAlignedDimension
 13
-0.0000000000002274
 23
-24.99999999999983
 33
0.0
 14
-50.00000762939123
 24
-20.99999999999991
 34
0.0
100
AcDbRotatedDimension
1001
GENIUS_GENDTOL_13
1000

1000
h7
1000

1040
0.0
1001
ACAD
1000
DSTYLE
1002
{
1070
   287
1070
     3
1070
   147
1040
3.0
1070
    41
1040
5.0
1070
    40
1040
0.5
1070
    42
1040
1.0
1070
    43
1040
12.0
1070
    48
1040
0.1
1070
    78
1070
     8
1070
   140
1040
6.4
1070
   176
1070
   256
1070
   177
1070
   256
1070
   271
1070
     1
1070
   272
1070
     3
1070
   275
1070
     0
1070
   284
1070
     0
1070
   289
1070
     3
1070
   340
1005
6B
1070
   371
1070
    -1
1070
   372
1070
    -1
1002
}
  0
DIMENSION
  5
D6FC
330
1F
100
AcDbEntity
  8
AM_5
100
AcDbDimension
  2
*D8
 10
-38.25544809574069
 20
-20.39633178710992
 30
0.0
 11
-38.25544809574068
 21
6.082717536884246
 31
0.0
 70
   160
  1
%%c<>
 51
359.9999999999998
  3
AM_JIS$0
100
AcDbAlignedDimension
 13
-49.39633178710531
 23
20.39633178710408
 33
0.0
 14
-49.39633178710522
 24
-20.39633178710991
 34
0.0
 50
90.0
100
AcDbRotatedDimension
1001
GENIUS_GENDTOL_13
1000

1000
h7
1000

1040
0.0
1001
ACAD
1000
DSTYLE
1002
{
1070
   287
1070
     3
1070
   147
1040
3.0
1070
    41
1040
5.0
1070
    76
1070
     1
1070
    75
1070
     1
1070
    40
1040
0.5
1070
    42
1040
1.0
1070
    43
1040
12.0
1070
    48
1040
0.1
1070
    78
1070
     8
1070
   140
1040
6.4
1070
   176
1070
   256
1070
   177
1070
   256
1070
   271
1070
     1
1070
   272
1070
     3
1070
   275
1070
     0
1070
   284
1070
     0
1070
   289
1070
     3
1070
   340
1005
6B
1070
   371
1070
    -1
1070
   372
1070
    -1
1002
}
  0
DIMENSION
  5
D7FF
330
1F
100
AcDbEntity
  8
AM_5
100
AcDbDimension
  2
*D9
 10
-364.0000152587902
 20
-21.00001525879053
 30
0.0
 11
-367.1000152587903
 21
-0.0000076293980968
 31
0.0
 70
    32
  1
%%C<>
 51
359.9999999999998
  3
AM_JIS$0
100
AcDbAlignedDimension
 13
-348.0000000000003
 23
20.99999999999445
 33
0.0
 14
-348.0000152587901
 24
-21.00001525879054
 34
0.0
 50
270.0
100
AcDbRotatedDimension
1001
GENIUS_GENDTOL_13
1000

1000
h7
1000

1040
0.0
1001
ACAD
1000
DSTYLE
1002
{
1070
   287
1070
     3
1070
   147
1040
3.0
1070
    41
1040
5.0
1070
    40
1040
0.5
1070
    42
1040
1.0
1070
    43
1040
12.0
1070
    48
1040
0.1
1070
    78
1070
     8
1070
   140
1040
6.4
1070
   176
1070
   256
1070
   177
1070
   256
1070
   271
1070
     1
1070
   272
1070
     3
1070
   275
1070
     0
1070
   284
1070
     0
1070
   289
1070
     3
1070
   340
1005
6B
1070
   371
1070
    -1
1070
   372
1070
    -1
1002
}
  0
DIMENSION
  5
D8CD
330
1F
100
AcDbEntity
  8
AM_5
100
AcDbDimension
  2
*D10
 10
-350.0000152587902
 20
-48.99999999999983
 30
0.0
 11
-175.0000076293952
 21
-45.89999999999982
 31
0.0
 70
    32
  1
<>
 51
359.9999999999998
  3
AM_JIS$0
100
AcDbAlignedDimension
 13
-0.0000000000002274
 23
-24.99999999999983
 33
0.0
 14
-350.0000152587902
 24
-20.46411132813054
 34
0.0
100
AcDbRotatedDimension
1001
GENIUS_GENDTOL_13
1000

1000
h7
1000

1040
0.0
1001
ACAD
1000
DSTYLE
1002
{
1070
   287
1070
     3
1070
   147
1040
3.0
1070
    41
1040
5.0
1070
    40
1040
0.5
1070
    42
1040
1.0
1070
    43
1040
12.0
1070
    48
1040
0.1
1070
    78
1070
     8
1070
   140
1040
6.4
1070
   176
1070
   256
1070
   177
1070
   256
1070
   271
1070
     1
1070
   272
1070
     3
1070
   275
1070
     0
1070
   284
1070
     0
1070
   289
1070
     3
1070
   340
1005
6B
1070
   371
1070
    -1
1070
   372
1070
    -1
1002
}
  0
DIMENSION
  5
D962
330
1F
100
AcDbEntity
  8
AM_5
100
AcDbDimension
  2
*D11
 10
-350.0000152587902
 20
-38.99999999999982
 30
0.0
 11
-200.0000114440907
 21
-35.89999999999982
 31
0.0
 70
    32
  1
<>
 51
359.9999999999998
  3
AM_JIS$0
100
AcDbAlignedDimension
 13
-50.00000762939123
 23
-20.99999999999991
 33
0.0
 14
-350.0000152587902
 24
-20.46411132813054
 34
0.0
100
AcDbRotatedDimension
1001
GENIUS_GENDTOL_13
1000

1000
h7
1000

1040
0.0
1001
ACAD
1000
DSTYLE
1002
{
1070
   287
1070
     3
1070
   147
1040
3.0
1070
    41
1040
5.0
1070
    40
1040
0.5
1070
    42
1040
1.0
1070
    43
1040
12.0
1070
    48
1040
0.1
1070
    78
1070
     8
1070
   140
1040
6.4
1070
   176
1070
   256
1070
   177
1070
   256
1070
   271
1070
     1
1070
   272
1070
     3
1070
   275
1070
     0
1070
   284
1070
     0
1070
   289
1070
     3
1070
   340
1005
6B
1070
   371
1070
    -1
1070
   372
1070
    -1
1002
}
  0
VIEWPORT
  5
110
330
101
100
AcDbEntity
 67
     1
  8
0
100
AcDbViewport
 10
420.5
 20
297.0
 30
0.0
 40
948.9782706766916
 41
628.452
 68
     1
 69
     1
1001
ACAD
1000
MVIEW
1002
{
1070
    16
1010
0.0
1020
0.0
1030
0.0
1010
0.0
1020
0.0
1030
1.0
1040
0.0
1040
628.452
1040
420.5
1040
297.0
1040
50.0
1040
0.0
1040
0.0
1070
     0
1070
   100
1070
     1
1070
     1
1070
     0
1070
     0
1070
     0
1070
     0
1040
0.0
1040
0.0
1040
0.0
1040
10.0
1040
10.0
1040
10.0
1040
10.0
1070
     0
1002
{
1002
}
1002
}
  0
ENDSEC
  0
SECTION
  2
OBJECTS
  0
DICTIONARY
  5
C
330
0
100
AcDbDictionary
  3
ACAD_GROUP
350
D
  3
ACAD_LAYOUT
350
1A
  3
ACAD_MLINESTYLE
350
17
  3
ACAD_PLOTSETTINGS
350
19
  3
ACAD_PLOTSTYLENAME
350
E
  3
ACDBVARIABLEDICTIONARY
350
34
  3
ACMDICTIONARY
350
43
  3
AMG
350
2B
  3
AMGSNAPSETTINGS
350
6E
  3
DWGPROPS
350
DCB1
  3
ACDBHEADERROUNDTRIPXREC
350
DCBD
  0
DICTIONARY
  5
74
330
1F
100
AcDbDictionary
280
     1
  3
ACAD_INDEX
360
DCB3
  3
ACAD_LAYOUTSELFREF
360
DCE0
  0
DICTIONARY
  5
DCE5
330
101
100
AcDbDictionary
280
     1
  3
ACAD_LAYOUTSELFREF
360
DCE6
  0
DICTIONARY
  5
D
102
{ACAD_REACTORS
330
C
102
}
330
C
100
AcDbDictionary
  0
DICTIONARY
  5
1A
102
{ACAD_REACTORS
330
C
102
}
330
C
100
AcDbDictionary
  0
DICTIONARY
  5
17
102
{ACAD_REACTORS
330
C
102
}
330
C
100
AcDbDictionary
  3
STANDARD
350
18
  0
DICTIONARY
  5
19
102
{ACAD_REACTORS
330
C
102
}
330
C
100
AcDbDictionary
  3
ASAMI
350
399D
  0
ACDBDICTIONARYWDFLT
  5
E
102
{ACAD_REACTORS
330
C
102
}
330
C
100
AcDbDictionary
281
     1
  3
Normal
350
F
100
AcDbDictionaryWithDefault
340
F
  0
DICTIONARY
  5
34
102
{ACAD_REACTORS
330
C
102
}
330
C
100
AcDbDictionary
  3
INDEXCTL
350
35
  3
SORTENTS
350
B5E
  0
DICTIONARY
  5
43
102
{ACAD_REACTORS
330
C
102
}
330
C
100
AcDbDictionary
  3
ACMSTDDICTIONARY
350
260
  0
DICTIONARY
  5
2B
102
{ACAD_REACTORS
330
C
102
}
330
C
100
AcDbDictionary
  3
ACMGSETTINGS
350
2C
  0
DICTIONARY
  5
6E
102
{ACAD_REACTORS
330
C
102
}
330
C
100
AcDbDictionary
  0
XRECORD
  5
DCB1
102
{ACAD_REACTORS
330
C
102
}
330
C
100
AcDbXrecord
  1
DWGPROPS COOKIE
  2

  3

  4

  6

  7

  8

  9

300
AmdtFileType=82
301
=
302
=
303
=
304
=
305
=
306
=
307
=
308
=
309
=
 40
0.956610474537037
 41
2452802.716478761
 42
2453075.692098333
  1

 90
        1
  0
DICTIONARY
  5
DCBD
102
{ACAD_REACTORS
330
C
102
}
330
C
100
AcDbDictionary
  3
TSTACKALIGN
350
DCBE
  3
TSTACKSIZE
350
DCBF
  3
HYPERLINKBASE
350
DCC0
  3
STYLESHEET
350
DCC1
  3
LAYOUTDICT
350
DCC2
  3
PLOTSETDICT
350
DCC3
  3
PLOTSTYLNAMDICT
350
DCC4
  3
LWETCUNION
350
DCC5
  3
INSUNITS
350
DCC6
  3
CEPSNTYPE
350
DCC7
  3
FINGERPRINTGUID
350
DCC8
  3
VERSIONGUID
350
DCC9
  3
PSVPSCALE
350
DCCA
  3
DIMSTYLEDATA
350
DCCB
  3
PUCSORTHOREF
350
DCCC
  3
PUCSORTHOVIEW
350
DCCD
  3
PUCSBASE
350
DCCE
  3
PUCSORGTOP
350
DCCF
  3
PUCSORGBOTTOM
350
DCD0
  3
PUCSORGLEFT
350
DCD1
  3
PUCSORGRIGHT
350
DCD2
  3
PUCSORGFRONT
350
DCD3
  3
PUCSORGBACK
350
DCD4
  3
UCSORTHOREF
350
DCD5
  3
UCSORTHOVIEW
350
DCD6
  3
UCSBASE
350
DCD7
  3
UCSORGTOP
350
DCD8
  3
UCSORGBOTTOM
350
DCD9
  3
UCSORGLEFT
350
DCDA
  3
UCSORGRIGHT
350
DCDB
  3
UCSORGFRONT
350
DCDC
  3
UCSORGBACK
350
DCDD
  0
DICTIONARY
  5
DCB3
102
{ACAD_REACTORS
330
74
102
}
330
74
100
AcDbDictionary
  3
*A1
350
DCB4
  0
XRECORD
  5
DCE0
102
{ACAD_REACTORS
330
74
102
}
330
74
100
AcDbXrecord
340
1F
  0
XRECORD
  5
DCE6
102
{ACAD_REACTORS
330
DCE5
102
}
330
DCE5
100
AcDbXrecord
340
101
  0
MLINESTYLE
  5
18
102
{ACAD_REACTORS
330
17
102
}
330
17
100
AcDbMlineStyle
  2
STANDARD
 70
     0
  3

 62
   256
 51
90.0
 52
90.0
 71
     2
 49
0.5
 62
   256
  6
BYLAYER
 49
-0.5
 62
   256
  6
BYLAYER
  0
PLOTSETTINGS
  5
399D
102
{ACAD_REACTORS
330
19
102
}
330
19
100
AcDbPlotSettings
  1
asami
  2
RICOH imagio MF1540
  4
A4
  6

 40
5.831416606903076
 41
7.651742935180664
 42
4.90008544921875
 43
5.789077758789062
 44
296.9683227539062
 45
209.9733276367187
 46
0.0
 47
0.0
 48
-156.6707931774246
 49
-74.57609991074048
140
58.59973180214831
141
60.61068161925596
142
1.0
143
1.095343097833084
 70
  1712
 72
     1
 73
     1
 74
     4
  7
asami.ctb
 75
     0
147
0.9129559514076438
148
156.6707931774246
149
74.57609991074048
  0
ACDBPLACEHOLDER
  5
F
102
{ACAD_REACTORS
330
E
102
}
330
E
100
AcDbPlaceHolder
280
     0
  0
DICTIONARYVAR
  5
35
102
{ACAD_REACTORS
330
34
102
}
330
34
100
DictionaryVariables
280
     0
  1
1
  0
DICTIONARYVAR
  5
B5E
102
{ACAD_REACTORS
330
34
102
}
330
34
100
DictionaryVariables
280
     0
  1
96
  0
DICTIONARY
  5
260
102
{ACAD_REACTORS
330
43
102
}
330
43
100
AcDbDictionary
  0
DICTIONARY
  5
2C
102
{ACAD_REACTORS
330
2B
102
}
330
2B
100
AcDbDictionary
  3
DWGSETTINGS
350
2D
  0
XRECORD
  5
DCBE
102
{ACAD_REACTORS
330
DCBD
102
}
330
DCBD
100
AcDbXrecord
 90
        1
  0
XRECORD
  5
DCBF
102
{ACAD_REACTORS
330
DCBD
102
}
330
DCBD
100
AcDbXrecord
 90
       70
  0
XRECORD
  5
DCC0
102
{ACAD_REACTORS
330
DCBD
102
}
330
DCBD
100
AcDbXrecord
  1

  0
XRECORD
  5
DCC1
102
{ACAD_REACTORS
330
DCBD
102
}
330
DCBD
100
AcDbXrecord
  1
ASAMI.ctb
  0
XRECORD
  5
DCC2
102
{ACAD_REACTORS
330
DCBD
102
}
330
DCBD
100
AcDbXrecord
340
1A
  0
XRECORD
  5
DCC3
102
{ACAD_REACTORS
330
DCBD
102
}
330
DCBD
100
AcDbXrecord
340
19
  0
XRECORD
  5
DCC4
102
{ACAD_REACTORS
330
DCBD
102
}
330
DCBD
100
AcDbXrecord
340
E
  0
XRECORD
  5
DCC5
102
{ACAD_REACTORS
330
DCBD
102
}
330
DCBD
100
AcDbXrecord
 90
    10781
  0
XRECORD
  5
DCC6
102
{ACAD_REACTORS
330
DCBD
102
}
330
DCBD
100
AcDbXrecord
 90
        4
  0
XRECORD
  5
DCC7
102
{ACAD_REACTORS
330
DCBD
102
}
330
DCBD
100
AcDbXrecord
 90
        0
  0
XRECORD
  5
DCC8
102
{ACAD_REACTORS
330
DCBD
102
}
330
DCBD
100
AcDbXrecord
  1
{AFB28963-8C59-40AE-9337-C84526B81ACE}
  0
XRECORD
  5
DCC9
102
{ACAD_REACTORS
330
DCBD
102
}
330
DCBD
100
AcDbXrecord
  1
{E02B8001-4F9E-46DA-B6AC-15D2A10F498E}
  0
XRECORD
  5
DCCA
102
{ACAD_REACTORS
330
DCBD
102
}
330
DCBD
100
AcDbXrecord
 40
0.0
  0
XRECORD
  5
DCCB
102
{ACAD_REACTORS
330
DCBD
102
}
330
DCBD
100
AcDbXrecord
1000
DSTYLE
1002
{
1070
    79
 70
     2
1070
   341
340
59
1070
   342
340
59
1070
   371
 70
    -1
1070
   372
 70
    -1
1002
}
  0
XRECORD
  5
DCCC
102
{ACAD_REACTORS
330
DCBD
102
}
330
DCBD
100
AcDbXrecord
340
0
  0
XRECORD
  5
DCCD
102
{ACAD_REACTORS
330
DCBD
102
}
330
DCBD
100
AcDbXrecord
 70
     0
  0
XRECORD
  5
DCCE
102
{ACAD_REACTORS
330
DCBD
102
}
330
DCBD
100
AcDbXrecord
340
0
  0
XRECORD
  5
DCCF
102
{ACAD_REACTORS
330
DCBD
102
}
330
DCBD
100
AcDbXrecord
 10
0.0
 20
0.0
 30
0.0
  0
XRECORD
  5
DCD0
102
{ACAD_REACTORS
330
DCBD
102
}
330
DCBD
100
AcDbXrecord
 10
0.0
 20
0.0
 30
0.0
  0
XRECORD
  5
DCD1
102
{ACAD_REACTORS
330
DCBD
102
}
330
DCBD
100
AcDbXrecord
 10
0.0
 20
0.0
 30
0.0
  0
XRECORD
  5
DCD2
102
{ACAD_REACTORS
330
DCBD
102
}
330
DCBD
100
AcDbXrecord
 10
0.0
 20
0.0
 30
0.0
  0
XRECORD
  5
DCD3
102
{ACAD_REACTORS
330
DCBD
102
}
330
DCBD
100
AcDbXrecord
 10
0.0
 20
0.0
 30
0.0
  0
XRECORD
  5
DCD4
102
{ACAD_REACTORS
330
DCBD
102
}
330
DCBD
100
AcDbXrecord
 10
0.0
 20
0.0
 30
0.0
  0
XRECORD
  5
DCD5
102
{ACAD_REACTORS
330
DCBD
102
}
330
DCBD
100
AcDbXrecord
340
0
  0
XRECORD
  5
DCD6
102
{ACAD_REACTORS
330
DCBD
102
}
330
DCBD
100
AcDbXrecord
 70
     0
  0
XRECORD
  5
DCD7
102
{ACAD_REACTORS
330
DCBD
102
}
330
DCBD
100
AcDbXrecord
340
0
  0
XRECORD
  5
DCD8
102
{ACAD_REACTORS
330
DCBD
102
}
330
DCBD
100
AcDbXrecord
 10
0.0
 20
0.0
 30
0.0
  0
XRECORD
  5
DCD9
102
{ACAD_REACTORS
330
DCBD
102
}
330
DCBD
100
AcDbXrecord
 10
0.0
 20
0.0
 30
0.0
  0
XRECORD
  5
DCDA
102
{ACAD_REACTORS
330
DCBD
102
}
330
DCBD
100
AcDbXrecord
 10
0.0
 20
0.0
 30
0.0
  0
XRECORD
  5
DCDB
102
{ACAD_REACTORS
330
DCBD
102
}
330
DCBD
100
AcDbXrecord
 10
0.0
 20
0.0
 30
0.0
  0
XRECORD
  5
DCDC
102
{ACAD_REACTORS
330
DCBD
102
}
330
DCBD
100
AcDbXrecord
 10
0.0
 20
0.0
 30
0.0
  0
XRECORD
  5
DCDD
102
{ACAD_REACTORS
330
DCBD
102
}
330
DCBD
100
AcDbXrecord
 10
0.0
 20
0.0
 30
0.0
  0
LAYER_INDEX
  5
DCB4
102
{ACAD_REACTORS
330
DCB3
102
}
330
DCB3
100
AcDbIndex
 40
2453152.379660289
100
AcDbLayerIndex
  8
0
360
DCB5
 90
        0
  8
AM_0
360
DCB6
 90
      160
  8
AM_5
360
DCB7
 90
        7
  8
AM_7
360
DCB8
 90
        1
  8
AM_6
360
DCB9
 90
        1
  8
Defpoints
360
DCBA
 90
        0
  8
AM_11
360
DCBB
 90
        4
  0
XRECORD
  5
2D
102
{ACAD_REACTORS
330
2C
102
}
330
2C
100
AcDbXrecord
  1
VERSION
140
15.0
  1
PRODUCT
  2
AutoCAD Mechanical 2000
  0
IDBUFFER
  5
DCB5
330
0
100
AcDbIdBuffer
  0
IDBUFFER
  5
DCB6
330
0
100
AcDbIdBuffer
330
D463
330
D464
330
D465
330
D466
330
D467
330
D468
330
D469
330
D46A
330
D46B
330
D46C
330
D46D
330
D46E
330
D46F
330
D470
330
D471
330
D472
330
D473
330
D474
330
D475
330
D476
330
D477
330
D478
330
D479
330
D47A
330
D47B
330
D47C
330
D47D
330
D47E
330
D47F
330
D480
330
D481
330
D482
330
D483
330
D484
330
D485
330
D486
330
D487
330
D488
330
D489
330
D48A
330
D48B
330
D48C
330
D48D
330
D48E
330
D48F
330
D490
330
D491
330
D492
330
D3EB
330
D3EC
330
D3EE
330
D3EF
330
D3F1
330
D3F2
330
D3F5
330
D3F6
330
D3F7
330
D3F8
330
D3F9
330
D3FA
330
D3FB
330
D3FC
330
D3FD
330
D3FE
330
D3FF
330
D400
330
D401
330
D402
330
D403
330
D404
330
D405
330
D406
330
D407
330
D408
330
D409
330
D40A
330
D40B
330
D40C
330
D40D
330
D40E
330
D40F
330
D410
330
D411
330
D412
330
D413
330
D414
330
D415
330
D416
330
D417
330
D418
330
D419
330
D41A
330
D41B
330
D41C
330
D41D
330
D41E
330
D420
330
D421
330
D422
330
D423
330
D424
330
D425
330
D429
330
D42A
330
D42B
330
D42C
330
D42D
330
D42E
330
D42F
330
D430
330
D431
330
D432
330
D433
330
D434
330
D435
330
D436
330
D437
330
D438
330
D439
330
D43A
330
D43B
330
D43C
330
D43D
330
D43E
330
D43F
330
D440
330
D441
330
D442
330
D443
330
D444
330
D445
330
D446
330
D447
330
D448
330
D449
330
D44A
330
D44B
330
D44C
330
D44D
330
D44E
330
D44F
330
D450
330
D451
330
D452
330
D453
330
D454
330
D455
330
D456
330
D457
330
D458
330
D459
330
D45A
330
D45B
330
D45C
330
D45D
330
D45E
330
D45F
330
D460
330
D461
330
D462
  0
IDBUFFER
  5
DCB7
330
0
100
AcDbIdBuffer
330
D53E
330
D5E4
330
D670
330
D6FC
330
D7FF
330
D8CD
330
D962
  0
IDBUFFER
  5
DCB8
330
0
100
AcDbIdBuffer
330
D3F0
  0
IDBUFFER
  5
DCB9
330
0
100
AcDbIdBuffer
330
388D
  0
IDBUFFER
  5
DCBA
330
0
100
AcDbIdBuffer
  0
IDBUFFER
  5
DCBB
330
0
100
AcDbIdBuffer
330
D522
330
D52A
330
D532
330
D536
  0
ENDSEC
  0
EOF
