  0
SECTION
  2
HEADER
  9
$ACADVER
  1
AC1014
  9
$ACADMAINTVER
 70
     9
  9
$DWGCODEPAGE
  3
ANSI_932
  9
$INSBASE
 10
0.0
 20
0.0
 30
0.0
  9
$EXTMIN
 10
-179.3499999562399
 20
-48.25000000000003
 30
-0.00000001
  9
$EXTMAX
 10
11.14576655447677
 20
34.3500000000002
 30
0.00000001
  9
$LIMMIN
 10
-206.2551042866156
 20
-105.4390639484252
  9
$LIMMAX
 10
117.1919518923887
 20
90.12094086171783
  9
$ORTHOMODE
 70
     0
  9
$REGENMODE
 70
     1
  9
$FILLMODE
 70
     1
  9
$QTEXTMODE
 70
     0
  9
$MIRRTEXT
 70
     0
  9
$DRAGMODE
 70
     2
  9
$LTSCALE
 40
1.0
  9
$OSMODE
 70
    55
  9
$ATTMODE
 70
     1
  9
$TEXTSIZE
 40
2.5
  9
$TRACEWID
 40
1.0
  9
$TEXTSTYLE
  7
STANDARD
  9
$CLAYER
  8
AM_0
  9
$CELTYPE
  6
BYLAYER
  9
$CECOLOR
 62
   256
  9
$CELTSCALE
 40
1.0
  9
$DELOBJ
 70
     1
  9
$DISPSILH
 70
     0
  9
$DIMSCALE
 40
0.5
  9
$DIMASZ
 40
2.5
  9
$DIMEXO
 40
1.0
  9
$DIMDLI
 40
12.0
  9
$DIMRND
 40
0.0
  9
$DIMDLE
 40
0.0
  9
$DIMEXE
 40
1.0
  9
$DIMTP
 40
0.1
  9
$DIMTM
 40
0.1
  9
$DIMTXT
 40
3.2
  9
$DIMCEN
 40
0.0
  9
$DIMTSZ
 40
0.0
  9
$DIMTOL
 70
     0
  9
$DIMLIM
 70
     0
  9
$DIMTIH
 70
     0
  9
$DIMTOH
 70
     0
  9
$DIMSE1
 70
     0
  9
$DIMSE2
 70
     0
  9
$DIMTAD
 70
     3
  9
$DIMZIN
 70
     8
  9
$DIMBLK
  1
OPEN30
  9
$DIMASO
 70
     1
  9
$DIMSHO
 70
     1
  9
$DIMPOST
  1

  9
$DIMAPOST
  1
"
  9
$DIMALT
 70
     0
  9
$DIMALTD
 70
     2
  9
$DIMALTF
 40
0.0393701
  9
$DIMLFAC
 40
1.0
  9
$DIMTOFL
 70
     1
  9
$DIMTVP
 40
0.0
  9
$DIMTIX
 70
     0
  9
$DIMSOXD
 70
     0
  9
$DIMSAH
 70
     0
  9
$DIMBLK1
  1

  9
$DIMBLK2
  1

  9
$DIMSTYLE
  2
AM_JIS
  9
$DIMCLRD
 70
   256
  9
$DIMCLRE
 70
   256
  9
$DIMCLRT
 70
     2
  9
$DIMTFAC
 40
0.71
  9
$DIMGAP
 40
1.5
  9
$DIMJUST
 70
     0
  9
$DIMSD1
 70
     0
  9
$DIMSD2
 70
     0
  9
$DIMTOLJ
 70
     0
  9
$DIMTZIN
 70
     0
  9
$DIMALTZ
 70
     0
  9
$DIMALTTZ
 70
     0
  9
$DIMFIT
 70
     3
  9
$DIMUPT
 70
     0
  9
$DIMUNIT
 70
     2
  9
$DIMDEC
 70
     3
  9
$DIMTDEC
 70
     3
  9
$DIMALTU
 70
     2
  9
$DIMALTTD
 70
     2
  9
$DIMTXSTY
  7
ASAMI
  9
$DIMAUNIT
 70
     0
  9
$LUNITS
 70
     2
  9
$LUPREC
 70
     2
  9
$SKETCHINC
 40
1.0
  9
$FILLETRAD
 40
0.4
  9
$AUNITS
 70
     0
  9
$AUPREC
 70
     0
  9
$MENU
  1
.
  9
$ELEVATION
 40
0.0
  9
$PELEVATION
 40
0.0
  9
$THICKNESS
 40
0.0
  9
$LIMCHECK
 70
     1
  9
$BLIPMODE
 70
     0
  9
$CHAMFERA
 40
1.0
  9
$CHAMFERB
 40
1.0
  9
$CHAMFERC
 40
20.0
  9
$CHAMFERD
 40
0.0
  9
$SKPOLY
 70
     0
  9
$TDCREATE
 40
2452802.716478761
  9
$TDUPDATE
 40
2453152.380066295
  9
$TDINDWG
 40
0.9465886806
  9
$TDUSRTIMER
 40
0.9465886806
  9
$USRTIMER
 70
     1
  9
$ANGBASE
 50
0.0
  9
$ANGDIR
 70
     0
  9
$PDMODE
 70
     0
  9
$PDSIZE
 40
0.0
  9
$PLINEWID
 40
0.0
  9
$COORDS
 70
     1
  9
$SPLFRAME
 70
     0
  9
$SPLINETYPE
 70
     6
  9
$SPLINESEGS
 70
     8
  9
$ATTDIA
 70
     1
  9
$ATTREQ
 70
     1
  9
$HANDLING
 70
 12289
  9
$HANDSEED
  5
CA4C
  9
$SURFTAB1
 70
     6
  9
$SURFTAB2
 70
     6
  9
$SURFTYPE
 70
     6
  9
$SURFU
 70
     6
  9
$SURFV
 70
     6
  9
$UCSNAME
  2

  9
$UCSORG
 10
-0.0000000000002682
 20
0.000000000000161
 30
0.0
  9
$UCSXDIR
 10
1.0
 20
0.000000000000002
 30
0.0
  9
$UCSYDIR
 10
-0.000000000000002
 20
1.0
 30
0.0
  9
$PUCSNAME
  2

  9
$PUCSORG
 10
0.0
 20
0.0
 30
0.0
  9
$PUCSXDIR
 10
1.0
 20
0.0
 30
0.0
  9
$PUCSYDIR
 10
0.0
 20
1.0
 30
0.0
  9
$USERI1
 70
     0
  9
$USERI2
 70
     0
  9
$USERI3
 70
     0
  9
$USERI4
 70
     0
  9
$USERI5
 70
     0
  9
$USERR1
 40
0.0
  9
$USERR2
 40
0.0
  9
$USERR3
 40
0.0
  9
$USERR4
 40
0.0
  9
$USERR5
 40
0.0
  9
$WORLDVIEW
 70
     1
  9
$SHADEDGE
 70
     3
  9
$SHADEDIF
 70
    70
  9
$TILEMODE
 70
     1
  9
$MAXACTVP
 70
    64
  9
$PINSBASE
 10
0.0
 20
0.0
 30
0.0
  9
$PLIMCHECK
 70
     0
  9
$PEXTMIN
 10
1.000000000000000E+20
 20
1.000000000000000E+20
 30
1.000000000000000E+20
  9
$PEXTMAX
 10
-1.000000000000000E+20
 20
-1.000000000000000E+20
 30
-1.000000000000000E+20
  9
$PLIMMIN
 10
0.0
 20
0.0
  9
$PLIMMAX
 10
841.0
 20
594.0
  9
$UNITMODE
 70
     0
  9
$VISRETAIN
 70
     1
  9
$PLINEGEN
 70
     0
  9
$PSLTSCALE
 70
     0
  9
$TREEDEPTH
 70
  3020
  9
$PICKSTYLE
 70
     0
  9
$CMLSTYLE
  2
STANDARD
  9
$CMLJUST
 70
     0
  9
$CMLSCALE
 40
20.0
  9
$PROXYGRAPHICS
 70
     1
  9
$MEASUREMENT
 70
     1
  0
ENDSEC
  0
SECTION
  2
CLASSES
  0
CLASS
  1
ACDBDICTIONARYWDFLT
  2
AcDbDictionaryWithDefault
  3
AutoCAD 2000
 90
        0
280
     0
281
     0
  0
CLASS
  1
ACDBPLACEHOLDER
  2
AcDbPlaceHolder
  3
AutoCAD 2000
 90
        0
280
     0
281
     0
  0
CLASS
  1
LAYOUT
  2
AcDbLayout
  3
AutoCAD 2000
 90
        0
280
     0
281
     0
  0
CLASS
  1
AMGSETTINGSOBJ
  2
AmgSettingsObj
  3
"AcadM|Product Description: AutoCAD Mechanical 2000|Company: Autodesk"
 90
        0
280
     0
281
     0
  0
CLASS
  1
ACME_DOCUMENT
  2
AcMeDbDoc
  3
AcMeServices
 90
        0
280
     0
281
     0
  0
CLASS
  1
ACMESCOPE
  2
AcMeScope
  3
AcMeServices
 90
        0
280
     0
281
     0
  0
CLASS
  1
ACMECOMMANDHISTORY
  2
AcMeCommandHistory
  3
AcMeServices
 90
        0
280
     0
281
     0
  0
CLASS
  1
DICTIONARYVAR
  2
AcDbDictionaryVar
  3
AutoCAD 2000
 90
        0
280
     0
281
     0
  0
CLASS
  1
ACIMSYSVARMAN
  2
AcImSysVarManager
  3
AcMeServices
 90
        0
280
     0
281
     0
  0
CLASS
  1
ACIMREALSYSVAR
  2
AcImRealSysVar
  3
AcMeServices
 90
        0
280
     0
281
     0
  0
CLASS
  1
ACIMINTSYSVAR
  2
AcImIntSysVar
  3
AcMeServices
 90
        0
280
     0
281
     0
  0
CLASS
  1
ACMEDRAWINGMAN
  2
AcMeDrawingMan
  3
AcMeServices
 90
        0
280
     0
281
     0
  0
CLASS
  1
ACMEVIEW
  2
AcMeView
  3
AcMeServices
 90
        0
280
     0
281
     0
  0
CLASS
  1
ACDBENTITYCACHE
  2
AcMeEntityCache
  3
AcMeServices
 90
        0
280
     0
281
     0
  0
CLASS
  1
GSMANAGER
  2
AcMeGSManager
  3
AcMeServices
 90
        0
280
     0
281
     0
  0
CLASS
  1
AmdtInternalReactor
  2
AmdtInternalReactor
  3
AcMeServices
 90
        0
280
     0
281
     0
  0
CLASS
  1
ACMESTATEMGR
  2
AcMeStateMgr
  3
AcMeServices
 90
        0
280
     0
281
     0
  0
CLASS
  1
ACME_DATABASE
  2
AcMeDbDatabase
  3
AcMeServices
 90
        0
280
     0
281
     0
  0
CLASS
  1
ACRFINSADJUSTERMGR
  2
AcRfInsAdjusterMgr
  3
AcMeServices
 90
        0
280
     0
281
     0
  0
CLASS
  1
ACMDATADICTIONARY
  2
AcmDataDictionary
  3
"AcmSymBB|Product Description: AutoCAD Mechanical 2000|Company: Autodesk"
 90
        0
280
     0
281
     0
  0
CLASS
  1
ACMDATAENTRYBLOCK
  2
AcmDataEntryBlock
  3
"AcmSymBB|Product Description: AutoCAD Mechanical 2000|Company: Autodesk"
 90
        0
280
     0
281
     0
  0
CLASS
  1
AMGOBJPROPCFG
  2
AmgObjPropCfg
  3
"AmgLay|Product Description: AutoCAD Mechanical 2000|Company: Autodesk"
 90
        1
280
     0
281
     0
  0
CLASS
  1
ACAMGFILTERDAT
  2
AcAmgFilterDat
  3
"AcadM|Product Description: AutoCAD Mechanical 2000|Company: Autodesk"
 90
        0
280
     0
281
     0
  0
CLASS
  1
LAYER_INDEX
  2
AcDbLayerIndex
  3
AutoCAD 2000
 90
        0
280
     0
281
     0
  0
CLASS
  1
IDBUFFER
  2
AcDbIdBuffer
  3
AutoCAD 2000
 90
        0
280
     0
281
     0
  0
CLASS
  1
ACIMSTRSYSVAR
  2
AcImStrSysVar
  3
AcMeServices
 90
        0
280
     0
281
     0
  0
CLASS
  1
ACMSTANDARDJIS
  2
AcmStandardJIS
  3
"AcmSymBB|Product Description: AutoCAD Mechanical 2000|Company: Autodesk"
 90
        0
280
     0
281
     0
  0
CLASS
  1
ACMSURFSTANDARDJIS
  2
AcmSurfTextStdJIS
  3
"AcmSymBB|Product Description: AutoCAD Mechanical 2000|Company: Autodesk"
 90
        0
280
     0
281
     0
  0
CLASS
  1
ACMFCFSTANDARDJIS
  2
AcmFCFStdJIS
  3
"AcmSymBB|Product Description: AutoCAD Mechanical 2000|Company: Autodesk"
 90
        0
280
     0
281
     0
  0
CLASS
  1
ACMWELDSTANDARDJIS
  2
AcmWeldingStdJIS
  3
"AcmSymBB|Product Description: AutoCAD Mechanical 2000|Company: Autodesk"
 90
        0
280
     0
281
     0
  0
CLASS
  1
ACMIDSTANDARDJIS
  2
AcmIdStdJIS
  3
"AcmSymBB|Product Description: AutoCAD Mechanical 2000|Company: Autodesk"
 90
        0
280
     0
281
     0
  0
CLASS
  1
ACMDATUMSTANDARDJIS
  2
AcmDatumStdJIS
  3
"AcmSymBB|Product Description: AutoCAD Mechanical 2000|Company: Autodesk"
 90
        0
280
     0
281
     0
  0
CLASS
  1
ACMBOMSTANDARDJIS
  2
AcmBOMStdJIS
  3
"AcmSymBB|Product Description: AutoCAD Mechanical 2000|Company: Autodesk"
 90
        0
280
     0
281
     0
  0
CLASS
  1
ACMSTANDARDANSI
  2
AcmStandardANSI
  3
"AcmSymBB|Product Description: AutoCAD Mechanical 2000|Company: Autodesk"
 90
        0
280
     0
281
     0
  0
CLASS
  1
ACMSURFSTANDARDANSI
  2
AcmSurfTextStdANSI
  3
"AcmSymBB|Product Description: AutoCAD Mechanical 2000|Company: Autodesk"
 90
        0
280
     0
281
     0
  0
CLASS
  1
ACMFCFSTANDARDANSI
  2
AcmFCFStdANSI
  3
"AcmSymBB|Product Description: AutoCAD Mechanical 2000|Company: Autodesk"
 90
        0
280
     0
281
     0
  0
CLASS
  1
ACMWELDSTANDARDANSI
  2
AcmWeldingStdANSI
  3
"AcmSymBB|Product Description: AutoCAD Mechanical 2000|Company: Autodesk"
 90
        0
280
     0
281
     0
  0
CLASS
  1
ACMIDSTANDARDANSI
  2
AcmIdStdANSI
  3
"AcmSymBB|Product Description: AutoCAD Mechanical 2000|Company: Autodesk"
 90
        0
280
     0
281
     0
  0
CLASS
  1
ACMDATUMSTANDARDANSI
  2
AcmDatumStdANSI
  3
"AcmSymBB|Product Description: AutoCAD Mechanical 2000|Company: Autodesk"
 90
        0
280
     0
281
     0
  0
CLASS
  1
ACMBOMSTANDARDANSI
  2
AcmBOMStdANSI
  3
"AcmSymBB|Product Description: AutoCAD Mechanical 2000|Company: Autodesk"
 90
        0
280
     0
281
     0
  0
CLASS
  1
ACMSTANDARDBSI
  2
AcmStandardBSI
  3
"AcmSymBB|Product Description: AutoCAD Mechanical 2000|Company: Autodesk"
 90
        0
280
     0
281
     0
  0
CLASS
  1
ACMSURFSTANDARDBSI
  2
AcmSurfTextStdBSI
  3
"AcmSymBB|Product Description: AutoCAD Mechanical 2000|Company: Autodesk"
 90
        0
280
     0
281
     0
  0
CLASS
  1
ACMFCFSTANDARDBSI
  2
AcmFCFStdBSI
  3
"AcmSymBB|Product Description: AutoCAD Mechanical 2000|Company: Autodesk"
 90
        0
280
     0
281
     0
  0
CLASS
  1
ACMWELDSTANDARDBSI
  2
AcmWeldingStdBSI
  3
"AcmSymBB|Product Description: AutoCAD Mechanical 2000|Company: Autodesk"
 90
        0
280
     0
281
     0
  0
CLASS
  1
ACMIDSTANDARDBSI
  2
AcmIdStdBSI
  3
"AcmSymBB|Product Description: AutoCAD Mechanical 2000|Company: Autodesk"
 90
        0
280
     0
281
     0
  0
CLASS
  1
ACMDATUMSTANDARDBSI
  2
AcmDatumStdBSI
  3
"AcmSymBB|Product Description: AutoCAD Mechanical 2000|Company: Autodesk"
 90
        0
280
     0
281
     0
  0
CLASS
  1
ACMBOMSTANDARDBSI
  2
AcmBOMStdBSI
  3
"AcmSymBB|Product Description: AutoCAD Mechanical 2000|Company: Autodesk"
 90
        0
280
     0
281
     0
  0
CLASS
  1
STDPART2D
  2
AmgStdPart
  3
"AmgStdPart|Product Description: AutoCAD Mechanical 2000|Company: Autodesk"
 90
     1023
280
     0
281
     1
  0
CLASS
  1
PLOTSETTINGS
  2
AcDbPlotSettings
  3
AutoCAD 2000
 90
        0
280
     0
281
     0
  0
CLASS
  1
LONG_TRANSACTION
  2
AcDbLongTransaction
  3
AutoCAD 2000
 90
        0
280
     0
281
     0
  0
CLASS
  1
LWPOLYLINE
  2
AcDbPolyline
  3
AutoCAD 2000
 90
        0
280
     0
281
     1
  0
CLASS
  1
HATCH
  2
AcDbHatch
  3
AutoCAD 2000
 90
        0
280
     0
281
     1
  0
CLASS
  1
XRECORD
  2
AcDbXrecord
  3
AutoCAD 2000
 90
        0
280
     0
281
     0
  0
ENDSEC
  0
SECTION
  2
TABLES
  0
TABLE
  2
VPORT
  5
8
330
0
100
AcDbSymbolTable
 70
     3
  0
VPORT
  5
C9E4
330
8
100
AcDbSymbolTableRecord
100
AcDbViewportTableRecord
  2
*ACTIVE
 70
     0
 10
0.0
 20
0.0
 11
1.0
 21
1.0
 12
-75.71561223147613
 22
-7.08315605869609
 13
0.0
 23
0.0
 14
2.5
 24
2.5
 15
10.0
 25
10.0
 16
0.0
 26
0.0
 36
1.0
 17
0.0
 27
0.0
 37
0.0
 40
148.957612223201
 41
1.56570841889117
 42
50.0
 43
0.0
 44
0.0
 50
0.0
 51
0.0
 71
     0
 72
   100
 73
     1
 74
     3
 75
     0
 76
     0
 77
     0
 78
     0
  0
ENDTAB
  0
TABLE
  2
LTYPE
  5
5
330
0
100
AcDbSymbolTable
 70
    10
  0
LTYPE
  5
14
330
5
100
AcDbSymbolTableRecord
100
AcDbLinetypeTableRecord
  2
BYBLOCK
 70
     0
  3

 72
    65
 73
     0
 40
0.0
  0
LTYPE
  5
15
330
5
100
AcDbSymbolTableRecord
100
AcDbLinetypeTableRecord
  2
BYLAYER
 70
     0
  3

 72
    65
 73
     0
 40
0.0
  0
LTYPE
  5
16
330
5
100
AcDbSymbolTableRecord
100
AcDbLinetypeTableRecord
  2
CONTINUOUS
 70
     0
  3
Solid line
 72
    65
 73
     0
 40
0.0
  0
LTYPE
  5
4B
330
5
100
AcDbSymbolTableRecord
100
AcDbLinetypeTableRecord
  2
AM_ISO02W050
 70
     0
  3
__ __ __ __ __ __ __ __ __ __ __ __ __ __ __
 72
    65
 73
     2
 40
7.5
 49
6.0
 74
     0
 49
-1.5
 74
     0
  0
LTYPE
  5
4C
330
5
100
AcDbSymbolTableRecord
100
AcDbLinetypeTableRecord
  2
AM_ISO08W050
 70
     0
  3
____ . ____ . ____ . ____ . ____ . ____ . ____
 72
    65
 73
     4
 40
18.0
 49
12.0
 74
     0
 49
-1.5
 74
     0
 49
3.0
 74
     0
 49
-1.5
 74
     0
  0
LTYPE
  5
4D
330
5
100
AcDbSymbolTableRecord
100
AcDbLinetypeTableRecord
  2
AM_ISO09W050
 70
     0
  3
_____ . . _____ . . _____ . . ____ .. ____
 72
    65
 73
     6
 40
22.5
 49
12.0
 74
     0
 49
-1.5
 74
     0
 49
3.0
 74
     0
 49
-1.5
 74
     0
 49
3.0
 74
     0
 49
-1.5
 74
     0
  0
LTYPE
  5
4E
330
5
100
AcDbSymbolTableRecord
100
AcDbLinetypeTableRecord
  2
AMCONSTR
 70
     0
  3
_______________________
 72
    65
 73
     2
 40
9999.0
 49
9999.0
 74
     0
 49
0.0
 74
     0
  0
LTYPE
  5
4F
330
5
100
AcDbSymbolTableRecord
100
AcDbLinetypeTableRecord
  2
AM_ISO02W050X2
 70
     0
  3
 _ _ _ _ _ _ _ _ _ _ _ _
 72
    65
 73
     2
 40
3.75
 49
3.0
 74
     0
 49
-0.75
 74
     0
  0
LTYPE
  5
50
330
5
100
AcDbSymbolTableRecord
100
AcDbLinetypeTableRecord
  2
AM_ISO08W050X2
 70
     0
  3
__ . __ . __ . __ . __ . __
 72
    65
 73
     4
 40
9.0
 49
6.0
 74
     0
 49
-0.75
 74
     0
 49
1.5
 74
     0
 49
-0.75
 74
     0
  0
LTYPE
  5
53
330
5
100
AcDbSymbolTableRecord
100
AcDbLinetypeTableRecord
  2
AMZIGZAG
 70
     0
  3
/\/-/\/-/\/-/\/-/\/-/\/
 72
    65
 73
     2
 40
11.00009999999999
 49
0.0001
 74
     4
 75
   135
340
52
 46
0.04
 50
0.0
 44
0.0
 45
0.0
 49
-11.0
 74
     0
  0
LTYPE
  5
166
330
5
100
AcDbSymbolTableRecord
100
AcDbLinetypeTableRecord
  2
ACJISTGL
 70
     0
  3
_ _ _ _ _
 72
    65
 73
     2
 40
3.0
 49
2.0
 74
     0
 49
-1.0
 74
     0
  0
LTYPE
  5
26A
330
5
100
AcDbSymbolTableRecord
100
AcDbLinetypeTableRecord
  2
ACJISTGB
 70
     0
  3
__ . . __ . .
 72
    65
 73
     6
 40
9.0
 49
4.0
 74
     0
 49
-1.0
 74
     0
 49
1.0
 74
     0
 49
-1.0
 74
     0
 49
1.0
 74
     0
 49
-1.0
 74
     0
  0
ENDTAB
  0
TABLE
  2
LAYER
  5
2
330
0
100
AcDbSymbolTable
 70
     7
  0
LAYER
  5
10
330
2
100
AcDbSymbolTableRecord
100
AcDbLayerTableRecord
  2
0
 70
     0
 62
     7
  6
CONTINUOUS
  0
LAYER
  5
3F9
330
2
100
AcDbSymbolTableRecord
100
AcDbLayerTableRecord
  2
AM_0
 70
     0
 62
     7
  6
CONTINUOUS
  0
LAYER
  5
BA4
330
2
100
AcDbSymbolTableRecord
100
AcDbLayerTableRecord
  2
AM_5
 70
     0
 62
     3
  6
CONTINUOUS
  0
LAYER
  5
BA6
330
2
100
AcDbSymbolTableRecord
100
AcDbLayerTableRecord
  2
AM_7
 70
     0
 62
     4
  6
AM_ISO08W050
  0
LAYER
  5
E64
330
2
100
AcDbSymbolTableRecord
100
AcDbLayerTableRecord
  2
AM_6
 70
     0
 62
     2
  6
CONTINUOUS
  0
LAYER
  5
F4D
330
2
100
AcDbSymbolTableRecord
100
AcDbLayerTableRecord
  2
DEFPOINTS
 70
     0
 62
     7
  6
CONTINUOUS
  0
LAYER
  5
4E80
330
2
100
AcDbSymbolTableRecord
100
AcDbLayerTableRecord
  2
AM_11
 70
     0
 62
     3
  6
AM_ISO09W050
  0
ENDTAB
  0
TABLE
  2
STYLE
  5
3
330
0
100
AcDbSymbolTable
 70
     5
  0
STYLE
  5
11
330
3
100
AcDbSymbolTableRecord
100
AcDbTextStyleTableRecord
  2
STANDARD
 70
     0
 40
0.0
 41
1.0
 50
0.0
 71
     0
 42
2.5
  3
simplex.shx
  4
EXTFONT.SHX
  0
STYLE
  5
52
330
3
100
AcDbSymbolTableRecord
100
AcDbTextStyleTableRecord
  2

 70
     1
 40
0.0
 41
1.0
 50
0.0
 71
     0
 42
2.5
  3
ltypeshp.shx
  4

  0
STYLE
  5
6B
330
3
100
AcDbSymbolTableRecord
100
AcDbTextStyleTableRecord
  2
ASAMI
 70
     0
 40
0.0
 41
1.0
 50
0.0
 71
     0
 42
2.5
  3
simplex.shx
  4
EXTFONT.SHX
  0
STYLE
  5
262
330
3
100
AcDbSymbolTableRecord
100
AcDbTextStyleTableRecord
  2
ACJISTS
 70
     0
 40
1.0
 41
1.0
 50
0.0
 71
     0
 42
2.5
  3
simplex.shx
  4
bigfont.shx
  0
STYLE
  5
269
330
3
100
AcDbSymbolTableRecord
100
AcDbTextStyleTableRecord
  2
ACJISGDT
 70
     0
 40
0.0
 41
1.0
 50
0.0
 71
     0
 42
2.5
  3
amgdtans.shx
  4

  0
ENDTAB
  0
TABLE
  2
VIEW
  5
6
330
0
100
AcDbSymbolTable
 70
     0
  0
ENDTAB
  0
TABLE
  2
UCS
  5
7
330
0
100
AcDbSymbolTable
 70
     0
  0
ENDTAB
  0
TABLE
  2
APPID
  5
9
330
0
100
AcDbSymbolTable
 70
    24
  0
APPID
  5
12
330
9
100
AcDbSymbolTableRecord
100
AcDbRegAppTableRecord
  2
ACAD
 70
     0
  0
APPID
  5
30
330
9
100
AcDbSymbolTableRecord
100
AcDbRegAppTableRecord
  2
MCAD_NO_VIS
 70
     0
  0
APPID
  5
31
330
9
100
AcDbSymbolTableRecord
100
AcDbRegAppTableRecord
  2
ACAD_TEMP_GRAPHIC
 70
     0
  0
APPID
  5
2C2
330
9
100
AcDbSymbolTableRecord
100
AcDbRegAppTableRecord
  2
GENIUS_GENDTOL_13
 70
     0
  0
APPID
  5
339
330
9
100
AcDbSymbolTableRecord
100
AcDbRegAppTableRecord
  2
GENIUS_GENODEF_13
 70
     0
  0
APPID
  5
33A
330
9
100
AcDbSymbolTableRecord
100
AcDbRegAppTableRecord
  2
GENIUS_GENOBJ-N-RSBK_13
 70
     0
  0
APPID
  5
33B
330
9
100
AcDbSymbolTableRecord
100
AcDbRegAppTableRecord
  2
GENIUS_GENOBJ-N-LIB_13
 70
     0
  0
APPID
  5
33C
330
9
100
AcDbSymbolTableRecord
100
AcDbRegAppTableRecord
  2
GENIUS_GENSCALE_13
 70
     0
  0
APPID
  5
378
330
9
100
AcDbSymbolTableRecord
100
AcDbRegAppTableRecord
  2
GENIUS_GENDIMSH_14
 70
     0
  0
APPID
  5
BB0
330
9
100
AcDbSymbolTableRecord
100
AcDbRegAppTableRecord
  2
GENIUS_GENOBJ-N-CEN_13
 70
     0
  0
APPID
  5
BB1
330
9
100
AcDbSymbolTableRecord
100
AcDbRegAppTableRecord
  2
GENIUS_GENFIL_13
 70
     0
  0
APPID
  5
BB2
330
9
100
AcDbSymbolTableRecord
100
AcDbRegAppTableRecord
  2
GENIUS_GENOBJ-N-CHA_13
 70
     0
  0
APPID
  5
1FAF
330
9
100
AcDbSymbolTableRecord
100
AcDbRegAppTableRecord
  2
GENIUS_GENOBJ-N-CRS_13
 70
     0
  0
APPID
  5
1FB0
330
9
100
AcDbSymbolTableRecord
100
AcDbRegAppTableRecord
  2
GENIUS_GENOENT_13
 70
     0
  0
APPID
  5
1FB1
330
9
100
AcDbSymbolTableRecord
100
AcDbRegAppTableRecord
  2
GENIUS_GENOREF_13
 70
     0
  0
APPID
  5
1FB2
330
9
100
AcDbSymbolTableRecord
100
AcDbRegAppTableRecord
  2
GENIUS_GENOLIS_13
 70
     0
  0
APPID
  5
1FB7
330
9
100
AcDbSymbolTableRecord
100
AcDbRegAppTableRecord
  2
GENIUS_GENOBJ-N-FIL_13
 70
     0
  0
APPID
  5
22A8
330
9
100
AcDbSymbolTableRecord
100
AcDbRegAppTableRecord
  2
GEVID1056506048
 70
     0
  0
APPID
  5
22A9
330
9
100
AcDbSymbolTableRecord
100
AcDbRegAppTableRecord
  2
GEVDC
 70
     0
  0
APPID
  5
22AC
330
9
100
AcDbSymbolTableRecord
100
AcDbRegAppTableRecord
  2
GENIUS_GENBH_13
 70
     0
  0
APPID
  5
22B8
330
9
100
AcDbSymbolTableRecord
100
AcDbRegAppTableRecord
  2
GENIUS_GENOBJ-NBEHI-BHF_13
 70
     0
  0
APPID
  5
22BA
330
9
100
AcDbSymbolTableRecord
100
AcDbRegAppTableRecord
  2
GENIUS_GENOBJ-NBEHI-BHB_13
 70
     0
  0
APPID
  5
35C9
330
9
100
AcDbSymbolTableRecord
100
AcDbRegAppTableRecord
  2
GENIUS_GENREC_14
 70
     0
  0
APPID
  5
35CA
330
9
100
AcDbSymbolTableRecord
100
AcDbRegAppTableRecord
  2
GENIUS_GENOBJ-N-REC_13
 70
     0
  0
ENDTAB
  0
TABLE
  2
DIMSTYLE
  5
A
330
0
100
AcDbSymbolTable
 70
     9
  0
DIMSTYLE
105
58
330
A
100
AcDbSymbolTableRecord
100
AcDbDimStyleTableRecord
  2
AM_JIS
 70
     0
  3

  4
"
  5
OPEN30
  6

  7

 40
0.5
 41
2.5
 42
1.0
 43
12.0
 44
1.0
 45
0.0
 46
0.0
 47
0.1
 48
0.1
140
3.2
141
0.0
142
0.0
143
0.0393701
144
1.0
145
0.0
146
0.71
147
1.5
 71
     0
 72
     0
 73
     0
 74
     0
 75
     0
 76
     0
 77
     3
 78
     8
170
     0
171
     2
172
     1
173
     0
174
     0
175
     0
176
   256
177
   256
178
     2
270
     2
271
     3
272
     3
273
     2
274
     2
340
6B
275
     0
280
     0
281
     0
282
     0
283
     0
284
     0
285
     0
286
     0
287
     3
288
     0
  0
DIMSTYLE
105
5F
330
A
100
AcDbSymbolTableRecord
100
AcDbDimStyleTableRecord
  2
AM_JIS$3
 70
     0
  3

  4
"
  5
OPEN30
  6

  7

 40
0.5
 41
2.5
 42
1.0
 43
10.0
 44
1.0
 45
0.0
 46
0.0
 47
0.1
 48
0.1
140
3.2
141
0.0
142
0.0
143
0.0393701
144
1.0
145
0.0
146
0.71
147
1.5
 71
     0
 72
     0
 73
     0
 74
     1
 75
     0
 76
     0
 77
     3
 78
     8
170
     0
171
     2
172
     0
173
     0
174
     0
175
     0
176
   256
177
   256
178
     2
270
     2
271
     2
272
     3
273
     2
274
     2
340
6B
275
     0
280
     0
281
     0
282
     0
283
     0
284
     0
285
     0
286
     0
287
     0
288
     1
  0
DIMSTYLE
105
60
330
A
100
AcDbSymbolTableRecord
100
AcDbDimStyleTableRecord
  2
AM_JIS$4
 70
     0
  3

  4
"
  5
OPEN30
  6

  7

 40
0.5
 41
2.5
 42
1.0
 43
10.0
 44
1.0
 45
0.0
 46
0.0
 47
0.1
 48
0.1
140
3.2
141
0.0
142
0.0
143
0.0393701
144
1.0
145
0.0
146
0.71
147
1.5
 71
     0
 72
     0
 73
     0
 74
     1
 75
     0
 76
     0
 77
     3
 78
     8
170
     0
171
     2
172
     0
173
     0
174
     0
175
     0
176
   256
177
   256
178
     2
270
     2
271
     2
272
     3
273
     2
274
     2
340
6B
275
     0
280
     0
281
     0
282
     0
283
     0
284
     0
285
     0
286
     0
287
     0
288
     1
  0
DIMSTYLE
105
61
330
A
100
AcDbSymbolTableRecord
100
AcDbDimStyleTableRecord
  2
AM_JIS$6
 70
     0
  3

  4
"
  5
OPEN30
  6

  7

 40
0.5
 41
2.5
 42
1.0
 43
10.0
 44
1.0
 45
0.0
 46
0.0
 47
0.1
 48
0.1
140
3.2
141
0.0
142
0.0
143
0.0393701
144
1.0
145
0.0
146
0.71
147
1.5
 71
     0
 72
     0
 73
     0
 74
     0
 75
     0
 76
     0
 77
     0
 78
     8
170
     0
171
     2
172
     1
173
     0
174
     0
175
     0
176
   256
177
   256
178
     2
270
     2
271
     2
272
     2
273
     2
274
     2
340
6B
275
     0
280
     0
281
     0
282
     0
283
     0
284
     0
285
     0
286
     0
287
     3
288
     0
  0
DIMSTYLE
105
62
330
A
100
AcDbSymbolTableRecord
100
AcDbDimStyleTableRecord
  2
AM_JIS$7
 70
     0
  3

  4
"
  5
OPEN30
  6

  7

 40
0.5
 41
2.5
 42
1.0
 43
10.0
 44
1.0
 45
0.0
 46
0.0
 47
0.1
 48
0.1
140
3.2
141
0.0
142
0.0
143
0.0393701
144
1.0
145
0.0
146
0.71
147
1.5
 71
     0
 72
     0
 73
     0
 74
     0
 75
     0
 76
     0
 77
     3
 78
     8
170
     0
171
     2
172
     1
173
     0
174
     0
175
     0
176
   256
177
   256
178
     2
270
     2
271
     2
272
     3
273
     2
274
     2
340
6B
275
     0
280
     0
281
     0
282
     0
283
     0
284
     0
285
     0
286
     0
287
     3
288
     0
  0
DIMSTYLE
105
63
330
A
100
AcDbSymbolTableRecord
100
AcDbDimStyleTableRecord
  2
AM_JIS$SF
 70
     0
  3

  4
"
  5
OPEN30
  6

  7

 40
0.5
 41
2.5
 42
1.0
 43
10.0
 44
1.0
 45
0.0
 46
0.0
 47
0.1
 48
0.1
140
3.2
141
0.0
142
0.0
143
0.0393701
144
1.0
145
0.0
146
0.71
147
1.5
 71
     0
 72
     0
 73
     0
 74
     0
 75
     1
 76
     1
 77
     3
 78
     8
170
     0
171
     2
172
     1
173
     0
174
     0
175
     0
176
   256
177
   256
178
     2
270
     2
271
     2
272
     2
273
     2
274
     2
340
6B
275
     0
280
     0
281
     0
282
     0
283
     0
284
     0
285
     0
286
     0
287
     3
288
     0
  0
DIMSTYLE
105
68
330
A
100
AcDbSymbolTableRecord
100
AcDbDimStyleTableRecord
  2
AM_JIS$SH
 70
     0
  3

  4
"
  5

  6
GENAXEH
  7
OPEN30
 40
0.5
 41
2.5
 42
1.0
 43
10.0
 44
1.0
 45
0.0
 46
0.0
 47
0.1
 48
0.1
140
3.2
141
0.0
142
0.0
143
0.0393701
144
2.0
145
0.0
146
0.71
147
1.5
 71
     0
 72
     0
 73
     0
 74
     0
 75
     1
 76
     1
 77
     3
 78
     8
170
     0
171
     2
172
     1
173
     1
174
     0
175
     0
176
   256
177
   256
178
     2
270
     2
271
     2
272
     2
273
     2
274
     2
340
6B
275
     0
280
     0
281
     0
282
     0
283
     0
284
     0
285
     0
286
     0
287
     3
288
     0
  0
DIMSTYLE
105
B34
330
A
100
AcDbSymbolTableRecord
100
AcDbDimStyleTableRecord
  2
AM_JIS$2
 70
     0
  3

  4
"
  5
OPEN30
  6

  7

 40
0.5
 41
2.5
 42
1.0
 43
12.0
 44
1.0
 45
0.0
 46
0.0
 47
0.1
 48
0.1
140
3.2
141
0.0
142
0.0
143
0.0393701
144
1.0
145
0.0
146
0.71
147
1.5
 71
     0
 72
     0
 73
     0
 74
     0
 75
     0
 76
     0
 77
     3
 78
     8
170
     0
171
     2
172
     1
173
     0
174
     0
175
     0
176
   256
177
   256
178
     2
270
     2
271
     3
272
     3
273
     2
274
     2
340
6B
275
     0
280
     0
281
     0
282
     0
283
     0
284
     0
285
     0
286
     0
287
     3
288
     0
  0
DIMSTYLE
105
3B48
102
{ACAD_REACTORS
330
C348
330
C425
330
C4B1
330
C5A2
330
C664
330
C6F9
330
C797
102
}
330
A
100
AcDbSymbolTableRecord
100
AcDbDimStyleTableRecord
  2
AM_JIS$0
 70
     0
  3

  4
"
  5
OPEN30
  6

  7

 40
1.0
 41
2.5
 42
0.0
 43
10.0
 44
1.0
 45
0.0
 46
0.0
 47
0.1
 48
0.1000000001
140
3.799999999999999
141
0.0
142
0.0
143
0.0393701
144
1.0
145
0.0
146
0.71
147
1.5
 71
     0
 72
     0
 73
     0
 74
     0
 75
     0
 76
     0
 77
     3
 78
     1
170
     0
171
     2
172
     1
173
     0
174
     0
175
     0
176
     3
177
     3
178
     2
270
     2
271
     2
272
     2
273
     2
274
     2
340
11
275
     1
280
     0
281
     0
282
     0
283
     0
284
     8
285
     0
286
     0
287
     0
288
     0
  0
ENDTAB
  0
TABLE
  2
BLOCK_RECORD
  5
1
330
0
100
AcDbSymbolTable
 70
    12
  0
BLOCK_RECORD
  5
1F
102
{ACAD_XDICTIONARY
360
74
102
}
330
1
100
AcDbSymbolTableRecord
100
AcDbBlockTableRecord
  2
*MODEL_SPACE
  0
BLOCK_RECORD
  5
101
102
{ACAD_XDICTIONARY
360
CA0D
102
}
330
1
100
AcDbSymbolTableRecord
100
AcDbBlockTableRecord
  2
*PAPER_SPACE
  0
BLOCK_RECORD
  5
59
330
1
100
AcDbSymbolTableRecord
100
AcDbBlockTableRecord
  2
_OPEN30
  0
BLOCK_RECORD
  5
64
330
1
100
AcDbSymbolTableRecord
100
AcDbBlockTableRecord
  2
GENAXEH
  0
BLOCK_RECORD
  5
C349
330
1
100
AcDbSymbolTableRecord
100
AcDbBlockTableRecord
  2
*D5
  0
BLOCK_RECORD
  5
C426
330
1
100
AcDbSymbolTableRecord
100
AcDbBlockTableRecord
  2
*D6
  0
BLOCK_RECORD
  5
C4B2
330
1
100
AcDbSymbolTableRecord
100
AcDbBlockTableRecord
  2
*D7
  0
BLOCK_RECORD
  5
C5A3
330
1
100
AcDbSymbolTableRecord
100
AcDbBlockTableRecord
  2
*D8
  0
BLOCK_RECORD
  5
C665
330
1
100
AcDbSymbolTableRecord
100
AcDbBlockTableRecord
  2
*D9
  0
BLOCK_RECORD
  5
C6FA
330
1
100
AcDbSymbolTableRecord
100
AcDbBlockTableRecord
  2
*D10
  0
BLOCK_RECORD
  5
C798
330
1
100
AcDbSymbolTableRecord
100
AcDbBlockTableRecord
  2
*D11
  0
ENDTAB
  0
ENDSEC
  0
SECTION
  2
BLOCKS
  0
BLOCK
  5
20
330
1F
100
AcDbEntity
  8
0
100
AcDbBlockBegin
  2
*MODEL_SPACE
 70
     0
 10
0.0
 20
0.0
 30
0.0
  3
*MODEL_SPACE
  1

  0
ENDBLK
  5
21
330
1F
100
AcDbEntity
  8
0
100
AcDbBlockEnd
  0
BLOCK
  5
103
330
101
100
AcDbEntity
 67
     1
  8
0
100
AcDbBlockBegin
  2
*PAPER_SPACE
 70
     0
 10
0.0
 20
0.0
 30
0.0
  3
*PAPER_SPACE
  1

  0
ENDBLK
  5
104
330
101
100
AcDbEntity
 67
     1
  8
0
100
AcDbBlockEnd
  0
BLOCK
  5
5D
330
59
100
AcDbEntity
  8
0
100
AcDbBlockBegin
  2
_OPEN30
 70
     0
 10
0.0
 20
0.0
 30
0.0
  3
_OPEN30
  1

  0
LINE
  5
5A
330
59
100
AcDbEntity
  8
0
 62
     0
100
AcDbLine
 10
-1.0
 20
0.26794919
 30
0.0
 11
0.0
 21
0.0
 31
0.0
  0
LINE
  5
5B
330
59
100
AcDbEntity
  8
0
 62
     0
100
AcDbLine
 10
0.0
 20
0.0
 30
0.0
 11
-1.0
 21
-0.26794919
 31
0.0
  0
LINE
  5
5C
330
59
100
AcDbEntity
  8
0
 62
     0
100
AcDbLine
 10
0.0
 20
0.0
 30
0.0
 11
-1.0
 21
0.0
 31
0.0
  0
ENDBLK
  5
5E
330
59
100
AcDbEntity
  8
0
100
AcDbBlockEnd
  0
BLOCK
  5
66
330
64
100
AcDbEntity
  8
0
100
AcDbBlockBegin
  2
GENAXEH
 70
     0
 10
0.0
 20
0.0
 30
0.0
  3
GENAXEH
  1

  0
LINE
  5
65
330
64
100
AcDbEntity
  8
0
100
AcDbLine
 10
-1.0
 20
0.0
 30
0.0
 11
1.0
 21
0.0
 31
0.0
  0
ENDBLK
  5
67
330
64
100
AcDbEntity
  8
0
100
AcDbBlockEnd
  0
BLOCK
  5
C353
330
C349
100
AcDbEntity
  8
0
100
AcDbBlockBegin
  2
*D5
 70
     1
 10
0.0
 20
0.0
 30
0.0
  3
*D5
  1

  0
LINE
  5
CA0F
330
C349
100
AcDbEntity
  8
AM_5
100
AcDbLine
 10
-8.000000000000364
 20
25.50000000000018
 30
0.0
 11
-8.000000000000364
 21
32.50000000000019
 31
0.0
  0
LINE
  5
CA10
330
C349
100
AcDbEntity
  8
AM_5
100
AcDbLine
 10
-0.0000000000003917
 20
25.5000000000002
 30
0.0
 11
-0.000000000000393
 21
32.50000000000019
 31
0.0
  0
LINE
  5
CA11
330
C349
100
AcDbEntity
  8
AM_5
100
AcDbLine
 10
-6.750000000000365
 20
32.0000000000002
 30
0.0
 11
-1.250000000000392
 21
32.0000000000002
 31
0.0
  0
INSERT
  5
CA12
330
C349
100
AcDbEntity
  8
AM_5
100
AcDbBlockReference
  2
_OPEN30
 10
-8.000000000000364
 20
32.0000000000002
 30
0.0
 41
1.25
 42
1.25
 43
1.25
 50
180.0
  0
INSERT
  5
CA13
330
C349
100
AcDbEntity
  8
AM_5
100
AcDbBlockReference
  2
_OPEN30
 10
-0.0000000000003929
 20
32.0000000000002
 30
0.0
 41
1.25
 42
1.25
 43
1.25
  0
MTEXT
  5
CA14
330
C349
100
AcDbEntity
  8
AM_5
 62
     2
100
AcDbMText
 10
-4.000000000000379
 20
33.55000000000019
 30
0.0
 40
1.6
 41
0.0
 71
     5
 72
     1
  1
8
  7
ASAMI
  0
POINT
  5
CA15
330
C349
100
AcDbEntity
  8
DEFPOINTS
 62
     0
100
AcDbPoint
 10
-8.000000000000312
 20
25.00000000000019
 30
0.0
  0
POINT
  5
CA16
330
C349
100
AcDbEntity
  8
DEFPOINTS
 62
     0
100
AcDbPoint
 10
-0.0000000000003411
 20
25.00000000000019
 30
0.0
  0
POINT
  5
CA17
330
C349
100
AcDbEntity
  8
DEFPOINTS
 62
     0
100
AcDbPoint
 10
-0.0000000000003282
 20
32.0000000000002
 30
0.0
  0
ENDBLK
  5
C354
330
C349
100
AcDbEntity
  8
0
100
AcDbBlockEnd
  0
BLOCK
  5
C430
330
C426
100
AcDbEntity
  8
0
100
AcDbBlockBegin
  2
*D6
 70
     1
 10
0.0
 20
0.0
 30
0.0
  3
*D6
  1

  0
LINE
  5
CA18
330
C426
100
AcDbEntity
  8
AM_5
100
AcDbLine
 10
0.4999999999996319
 20
25.00000000000017
 30
0.0
 11
11.14576655447667
 21
25.00000000000019
 31
0.0
  0
LINE
  5
CA19
330
C426
100
AcDbEntity
  8
AM_5
100
AcDbLine
 10
0.4999999999998282
 20
-24.99999999999983
 30
0.0
 11
11.14576655447677
 21
-24.9999999999998
 31
0.0
  0
LINE
  5
CA1A
330
C426
100
AcDbEntity
  8
AM_5
100
AcDbLine
 10
10.64576655447667
 20
23.75000000000019
 30
0.0
 11
10.64576655447677
 21
-23.7499999999998
 31
0.0
  0
INSERT
  5
CA1B
330
C426
100
AcDbEntity
  8
AM_5
100
AcDbBlockReference
  2
_OPEN30
 10
10.64576655447667
 20
25.00000000000019
 30
0.0
 41
1.25
 42
1.25
 43
1.25
 50
90.0000000000001
  0
INSERT
  5
CA1C
330
C426
100
AcDbEntity
  8
AM_5
100
AcDbBlockReference
  2
_OPEN30
 10
10.64576655447677
 20
-24.9999999999998
 30
0.0
 41
1.25
 42
1.25
 43
1.25
 50
270.0000000000001
  0
MTEXT
  5
CA1D
330
C426
100
AcDbEntity
  8
AM_5
 62
     2
100
AcDbMText
 10
9.095766554476723
 20
0.0000000000001885
 30
0.0
 40
1.6
 41
0.0
 71
     5
 72
     1
  1
%%c50
  7
ASAMI
 11
-0.000000000000002
 21
1.0
 31
0.0
  0
POINT
  5
CA1E
330
C426
100
AcDbEntity
  8
DEFPOINTS
 62
     0
100
AcDbPoint
 10
-0.0000000000003126
 20
25.00000000000017
 30
0.0
  0
POINT
  5
CA1F
330
C426
100
AcDbEntity
  8
DEFPOINTS
 62
     0
100
AcDbPoint
 10
-0.0000000000002274
 20
-24.99999999999983
 30
0.0
  0
POINT
  5
CA20
330
C426
100
AcDbEntity
  8
DEFPOINTS
 62
     0
100
AcDbPoint
 10
10.64576655447671
 20
-24.99999999999983
 30
0.0
  0
ENDBLK
  5
C431
330
C426
100
AcDbEntity
  8
0
100
AcDbBlockEnd
  0
BLOCK
  5
C4BC
330
C4B2
100
AcDbEntity
  8
0
100
AcDbBlockBegin
  2
*D7
 70
     1
 10
0.0
 20
0.0
 30
0.0
  3
*D7
  1

  0
LINE
  5
CA21
330
C4B2
100
AcDbEntity
  8
AM_5
100
AcDbLine
 10
-38.53430054336157
 20
19.14632415771398
 30
0.0
 11
-38.5343005433615
 21
-19.14633178711003
 31
0.0
  0
INSERT
  5
CA22
330
C4B2
100
AcDbEntity
  8
AM_5
100
AcDbBlockReference
  2
_OPEN30
 10
-38.53430054336158
 20
20.39632415771398
 30
0.0
 41
1.25
 42
1.25
 43
1.25
 50
90.0000000000001
  0
INSERT
  5
CA23
330
C4B2
100
AcDbEntity
  8
AM_5
100
AcDbBlockReference
  2
_OPEN30
 10
-38.53430054336149
 20
-20.39633178711003
 30
0.0
 41
1.25
 42
1.25
 43
1.25
 50
270.0000000000001
  0
MTEXT
  5
CA24
330
C4B2
100
AcDbEntity
  8
AM_5
 62
     2
100
AcDbMText
 10
-40.08430054336154
 20
5.496112854595399
 30
0.0
 40
1.6
 41
0.0
 71
     5
 72
     1
  1
%%c40.8
  7
ASAMI
 11
-0.000000000000002
 21
1.0
 31
0.0
  0
POINT
  5
CA25
330
C4B2
100
AcDbEntity
  8
DEFPOINTS
 62
     0
100
AcDbPoint
 10
-49.39632792865808
 20
20.39632415771407
 30
0.0
  0
POINT
  5
CA26
330
C4B2
100
AcDbEntity
  8
DEFPOINTS
 62
     0
100
AcDbPoint
 10
-49.396327928658
 20
-20.39633178710994
 30
0.0
  0
POINT
  5
CA27
330
C4B2
100
AcDbEntity
  8
DEFPOINTS
 62
     0
100
AcDbPoint
 10
-38.53430054336154
 20
-20.39633178710994
 30
0.0
  0
ENDBLK
  5
C4BD
330
C4B2
100
AcDbEntity
  8
0
100
AcDbBlockEnd
  0
BLOCK
  5
C5AD
330
C5A3
100
AcDbEntity
  8
0
100
AcDbBlockBegin
  2
*D8
 70
     1
 10
0.0
 20
0.0
 30
0.0
  3
*D8
  1

  0
LINE
  5
CA28
330
C5A3
100
AcDbEntity
  8
AM_5
100
AcDbLine
 10
-0.0000000000001759
 20
-25.4999999999998
 30
0.0
 11
-0.0000000000001621
 21
-32.49999999999983
 31
0.0
  0
LINE
  5
CA29
330
C5A3
100
AcDbEntity
  8
AM_5
100
AcDbLine
 10
-49.99999804889696
 20
-21.50000000000004
 30
0.0
 11
-49.99999804889695
 21
-32.49999999999992
 31
0.0
  0
LINE
  5
CA2A
330
C5A3
100
AcDbEntity
  8
AM_5
100
AcDbLine
 10
-1.250000000000163
 20
-31.99999999999983
 30
0.0
 11
-48.74999804889695
 21
-31.99999999999993
 31
0.0
  0
INSERT
  5
CA2B
330
C5A3
100
AcDbEntity
  8
AM_5
100
AcDbBlockReference
  2
_OPEN30
 10
-0.0000000000001631
 20
-31.99999999999983
 30
0.0
 41
1.25
 42
1.25
 43
1.25
 50
0.0000000000001018
  0
INSERT
  5
CA2C
330
C5A3
100
AcDbEntity
  8
AM_5
100
AcDbBlockReference
  2
_OPEN30
 10
-49.99999804889695
 20
-31.99999999999993
 30
0.0
 41
1.25
 42
1.25
 43
1.25
 50
180.0000000000001
  0
MTEXT
  5
CA2D
330
C5A3
100
AcDbEntity
  8
AM_5
 62
     2
100
AcDbMText
 10
-24.99999902444856
 20
-30.44999999999987
 30
0.0
 40
1.6
 41
0.0
 71
     5
 72
     1
  1
50
  7
ASAMI
  0
POINT
  5
CA2E
330
C5A3
100
AcDbEntity
  8
DEFPOINTS
 62
     0
100
AcDbPoint
 10
-0.0000000000002274
 20
-24.9999999999998
 30
0.0
  0
POINT
  5
CA2F
330
C5A3
100
AcDbEntity
  8
DEFPOINTS
 62
     0
100
AcDbPoint
 10
-49.99999804889701
 20
-20.99999999999994
 30
0.0
  0
POINT
  5
CA30
330
C5A3
100
AcDbEntity
  8
DEFPOINTS
 62
     0
100
AcDbPoint
 10
-49.99999804889701
 20
-31.99999999999983
 30
0.0
  0
ENDBLK
  5
C5AE
330
C5A3
100
AcDbEntity
  8
0
100
AcDbBlockEnd
  0
BLOCK
  5
C66F
330
C665
100
AcDbEntity
  8
0
100
AcDbBlockBegin
  2
*D9
 70
     1
 10
0.0
 20
0.0
 30
0.0
  3
*D9
  1

  0
LINE
  5
CA31
330
C665
100
AcDbEntity
  8
AM_5
100
AcDbLine
 10
-0.0000000000001759
 20
-25.4999999999998
 30
0.0
 11
-0.0000000000001523
 21
-37.49999999999983
 31
0.0
  0
LINE
  5
CA32
330
C665
100
AcDbEntity
  8
AM_5
100
AcDbLine
 10
-169.9999999562399
 20
-20.96411132812051
 30
0.0
 11
-169.9999999562399
 21
-37.50000000000017
 31
0.0
  0
LINE
  5
CA33
330
C665
100
AcDbEntity
  8
AM_5
100
AcDbLine
 10
-1.250000000000153
 20
-36.99999999999983
 30
0.0
 11
-168.7499999562399
 21
-37.00000000000017
 31
0.0
  0
INSERT
  5
CA34
330
C665
100
AcDbEntity
  8
AM_5
100
AcDbBlockReference
  2
_OPEN30
 10
-0.0000000000001533
 20
-36.99999999999983
 30
0.0
 41
1.25
 42
1.25
 43
1.25
 50
0.0000000000001018
  0
INSERT
  5
CA35
330
C665
100
AcDbEntity
  8
AM_5
100
AcDbBlockReference
  2
_OPEN30
 10
-169.9999999562399
 20
-37.00000000000017
 30
0.0
 41
1.25
 42
1.25
 43
1.25
 50
180.0000000000001
  0
MTEXT
  5
CA36
330
C665
100
AcDbEntity
  8
AM_5
 62
     2
100
AcDbMText
 10
-84.99999997812004
 20
-35.45
 30
0.0
 40
1.6
 41
0.0
 71
     5
 72
     1
  1
170
  7
ASAMI
  0
POINT
  5
CA37
330
C665
100
AcDbEntity
  8
DEFPOINTS
 62
     0
100
AcDbPoint
 10
-0.0000000000002274
 20
-24.9999999999998
 30
0.0
  0
POINT
  5
CA38
330
C665
100
AcDbEntity
  8
DEFPOINTS
 62
     0
100
AcDbPoint
 10
-169.9999999562399
 20
-20.46411132812016
 30
0.0
  0
POINT
  5
CA39
330
C665
100
AcDbEntity
  8
DEFPOINTS
 62
     0
100
AcDbPoint
 10
-169.9999999562399
 20
-36.99999999999983
 30
0.0
  0
ENDBLK
  5
C670
330
C665
100
AcDbEntity
  8
0
100
AcDbBlockEnd
  0
BLOCK
  5
C704
330
C6FA
100
AcDbEntity
  8
0
100
AcDbBlockBegin
  2
*D10
 70
     1
 10
0.0
 20
0.0
 30
0.0
  3
*D10
  1

  0
LINE
  5
CA3A
330
C6FA
100
AcDbEntity
  8
AM_5
100
AcDbLine
 10
-169.9999999562399
 20
-20.96409606933051
 30
0.0
 11
-169.9999999562399
 21
-32.50000000000017
 31
0.0
  0
LINE
  5
CA3B
330
C6FA
100
AcDbEntity
  8
AM_5
100
AcDbLine
 10
-49.99999995624498
 20
-21.50000000000004
 30
0.0
 11
-49.99999995624495
 21
-32.49999999999992
 31
0.0
  0
LINE
  5
CA3C
330
C6FA
100
AcDbEntity
  8
AM_5
100
AcDbLine
 10
-168.7499999562399
 20
-32.00000000000017
 30
0.0
 11
-51.24999995624495
 21
-31.99999999999993
 31
0.0
  0
INSERT
  5
CA3D
330
C6FA
100
AcDbEntity
  8
AM_5
100
AcDbBlockReference
  2
_OPEN30
 10
-169.9999999562399
 20
-32.00000000000017
 30
0.0
 41
1.25
 42
1.25
 43
1.25
 50
180.0000000000001
  0
INSERT
  5
CA3E
330
C6FA
100
AcDbEntity
  8
AM_5
100
AcDbBlockReference
  2
_OPEN30
 10
-49.99999995624495
 20
-31.99999999999993
 30
0.0
 41
1.25
 42
1.25
 43
1.25
 50
0.0000000000001018
  0
MTEXT
  5
CA3F
330
C6FA
100
AcDbEntity
  8
AM_5
 62
     2
100
AcDbMText
 10
-109.9999999562424
 20
-30.45000000000005
 30
0.0
 40
1.6
 41
0.0
 71
     5
 72
     1
  1
120
  7
ASAMI
  0
POINT
  5
CA40
330
C6FA
100
AcDbEntity
  8
DEFPOINTS
 62
     0
100
AcDbPoint
 10
-169.9999999562399
 20
-20.46409606933016
 30
0.0
  0
POINT
  5
CA41
330
C6FA
100
AcDbEntity
  8
DEFPOINTS
 62
     0
100
AcDbPoint
 10
-49.99999995624502
 20
-20.99999999999994
 30
0.0
  0
POINT
  5
CA42
330
C6FA
100
AcDbEntity
  8
DEFPOINTS
 62
     0
100
AcDbPoint
 10
-49.99999995624502
 20
-31.99999999999983
 30
0.0
  0
ENDBLK
  5
C705
330
C6FA
100
AcDbEntity
  8
0
100
AcDbBlockEnd
  0
BLOCK
  5
C7A2
330
C798
100
AcDbEntity
  8
0
100
AcDbBlockBegin
  2
*D11
 70
     1
 10
0.0
 20
0.0
 30
0.0
  3
*D11
  1

  0
LINE
  5
CA43
330
C798
100
AcDbEntity
  8
AM_5
100
AcDbLine
 10
-168.4999999562401
 20
20.99999999999942
 30
0.0
 11
-177.49999995624
 21
20.99999999999941
 31
0.0
  0
LINE
  5
CA44
330
C798
100
AcDbEntity
  8
AM_5
100
AcDbLine
 10
-168.4999999562399
 20
-21.00000000000057
 30
0.0
 11
-177.4999999562399
 21
-21.00000000000059
 31
0.0
  0
LINE
  5
CA45
330
C798
100
AcDbEntity
  8
AM_5
100
AcDbLine
 10
-176.99999995624
 20
19.74999999999941
 30
0.0
 11
-176.9999999562399
 21
-19.75000000000059
 31
0.0
  0
INSERT
  5
CA46
330
C798
100
AcDbEntity
  8
AM_5
100
AcDbBlockReference
  2
_OPEN30
 10
-176.99999995624
 20
20.99999999999941
 30
0.0
 41
1.25
 42
1.25
 43
1.25
 50
90.0000000000001
  0
INSERT
  5
CA47
330
C798
100
AcDbEntity
  8
AM_5
100
AcDbBlockReference
  2
_OPEN30
 10
-176.9999999562399
 20
-21.00000000000059
 30
0.0
 41
1.25
 42
1.25
 43
1.25
 50
270.0000000000001
  0
MTEXT
  5
CA48
330
C798
100
AcDbEntity
  8
AM_5
 62
     2
100
AcDbMText
 10
-178.54999995624
 20
-0.0000000000005844
 30
0.0
 40
1.6
 41
0.0
 71
     5
 72
     1
  1
%%c42
  7
ASAMI
 11
-0.000000000000002
 21
1.0
 31
0.0
  0
POINT
  5
CA49
330
C798
100
AcDbEntity
  8
DEFPOINTS
 62
     0
100
AcDbPoint
 10
-167.99999995624
 20
20.9999999999998
 30
0.0
  0
POINT
  5
CA4A
330
C798
100
AcDbEntity
  8
DEFPOINTS
 62
     0
100
AcDbPoint
 10
-167.9999999562399
 20
-21.0000000000002
 30
0.0
  0
POINT
  5
CA4B
330
C798
100
AcDbEntity
  8
DEFPOINTS
 62
     0
100
AcDbPoint
 10
-176.99999995624
 20
-21.00000000000019
 30
0.0
  0
ENDBLK
  5
C7A3
330
C798
100
AcDbEntity
  8
0
100
AcDbBlockEnd
  0
ENDSEC
  0
SECTION
  2
ENTITIES
  0
TEXT
  5
388D
330
1F
100
AcDbEntity
  8
AM_6
100
AcDbText
 10
-100.1785714066914
 20
-48.24999999999997
 30
0.0
 40
2.5
  1
WRC16050ESS42
 50
359.9999999999998
 51
359.9999999999998
 72
     4
 11
-84.99999997812002
 21
-47.0
 31
0.0
100
AcDbText
  0
SPLINE
  5
C0C5
330
1F
100
AcDbEntity
  8
AM_0
100
AcDbSpline
210
0.0
220
0.0
230
1.0
 70
     8
 71
     3
 72
    11
 73
     7
 74
     5
 42
0.0000000001
 43
0.0000000001
 44
0.0000000001
 40
0.0
 40
0.0
 40
0.0
 40
0.0
 40
4.011688310890588
 40
7.281431010459511
 40
10.00138040045544
 40
13.10156156533987
 40
13.10156156533987
 40
13.10156156533987
 40
13.10156156533987
 10
-35.38882060443933
 20
-9.805473327629897
 30
0.0
 10
-35.27521396518227
 20
-11.13691888057245
 30
0.0
 10
-35.06901177748122
 20
-13.55356448876081
 30
0.0
 10
-34.41886809354707
 20
-16.85078496669592
 30
0.0
 10
-32.48379998017453
 20
-19.44423124239334
 30
0.0
 10
-30.52870579534323
 20
-19.87594979430153
 30
0.0
 10
-29.4872951070028
 20
-20.10591125487988
 30
0.0
 11
-35.38882060443933
 21
-9.805473327629897
 31
0.0
 11
-34.9669150868612
 21
-13.79491424559989
 31
0.0
 11
-34.11917872821859
 21
-16.95285034178988
 31
0.0
 11
-32.408348039742
 21
-19.06736755370988
 31
0.0
 11
-29.4872951070028
 21
-20.10591125487988
 31
0.0
  0
SPLINE
  5
C0C6
330
1F
100
AcDbEntity
  8
AM_0
100
AcDbSpline
210
0.0
220
0.0
230
1.0
 70
     8
 71
     3
 72
    11
 73
     7
 74
     5
 42
0.0000000001
 43
0.0000000001
 44
0.0000000001
 40
0.0
 40
0.0
 40
0.0
 40
0.0
 40
2.619970886015572
 40
5.402560346002141
 40
8.272496127746896
 40
11.17841672141246
 40
11.17841672141246
 40
11.17841672141246
 40
11.17841672141246
 10
-29.48729510700286
 20
13.0231094360401
 30
0.0
 10
-28.84347636762145
 20
12.42939463927226
 30
0.0
 10
-27.5158778015607
 20
11.20511385242324
 30
0.0
 10
-25.10211053836824
 20
9.831448389450113
 30
0.0
 10
-22.39164749788015
 20
8.856728942192734
 30
0.0
 10
-20.4643728489707
 20
8.706339479854571
 30
0.0
 10
-19.49473185932305
 20
8.630676269540117
 30
0.0
 11
-29.48729510700286
 21
13.0231094360401
 31
0.0
 11
-27.49733348285735
 21
11.31890869141011
 31
0.0
 11
-25.09346385395105
 21
9.917404174810116
 31
0.0
 11
-22.37883372699806
 21
8.986106872560128
 31
0.0
 11
-19.49473185932305
 21
8.630676269540117
 31
0.0
  0
SPLINE
  5
C0C7
330
1F
100
AcDbEntity
  8
AM_0
100
AcDbSpline
210
0.0
220
0.0
230
1.0
 70
     8
 71
     3
 72
    11
 73
     7
 74
     5
 42
0.0000000001
 43
0.0000000001
 44
0.0000000001
 40
0.0
 40
0.0
 40
0.0
 40
0.0
 40
0.7103979469918386
 40
2.5571661129772
 40
5.550066280147866
 40
9.502376358972631
 40
9.502376358972631
 40
9.502376358972631
 40
9.502376358972631
 10
-35.3589591542441
 20
20.3963241577141
 30
0.0
 10
-35.20940501090271
 20
20.21183139288483
 30
0.0
 10
-34.67106619809033
 20
19.54772664946794
 30
0.0
 10
-33.96697724747621
 20
17.81509518527033
 30
0.0
 10
-32.23967209716178
 20
15.40878154395109
 30
0.0
 10
-30.48552653898783
 20
13.88834442857252
 30
0.0
 10
-29.48729510700286
 20
13.0231094360401
 30
0.0
 11
-35.3589591542441
 21
20.3963241577141
 31
0.0
 11
-34.92680735981048
 21
19.83248901367107
 31
0.0
 11
-34.0633277455527
 21
18.2000198364251
 31
0.0
 11
-32.35580058490805
 21
15.7420120239251
 31
0.0
 11
-29.48729510700286
 21
13.0231094360401
 31
0.0
  0
ELLIPSE
  5
C0C8
330
1F
100
AcDbEntity
  8
AM_0
100
AcDbEllipse
 10
4.41365055644897
 20
0.0000000000001705
 30
0.0
 11
387.5937205267009
 21
19.17204244544777
 31
0.0
210
0.0
220
0.0
230
1.0
 40
0.0179573363471
 41
4.611069007900342
 42
4.6605428353934
  0
ELLIPSE
  5
C0C9
330
1F
100
AcDbEntity
  8
AM_0
100
AcDbEllipse
 10
4.41365055644897
 20
0.0000000000001705
 30
0.0
 11
-387.593850600389
 21
3.549979205479233
 31
0.0
210
0.0
220
0.0
230
1.0
 40
0.0518197265174
 41
4.763822335412568
 42
4.813304195258788
  0
LINE
  5
C0CB
330
1F
100
AcDbEntity
  8
AM_0
100
AcDbLine
 10
-49.396327928658
 20
-20.39633178710994
 30
0.0
 11
-25.66787524616291
 21
-20.39633178710988
 31
0.0
  0
SPLINE
  5
C0CF
330
1F
100
AcDbEntity
  8
AM_0
100
AcDbSpline
210
0.0
220
0.0
230
1.0
 70
     8
 71
     3
 72
    11
 73
     7
 74
     5
 42
0.0000000001
 43
0.0000000001
 44
0.0000000001
 40
0.0
 40
0.0
 40
0.0
 40
0.0
 40
0.0610672228745319
 40
0.1218776157819201
 40
0.1825040478438333
 40
0.242988805651033
 40
0.242988805651033
 40
0.242988805651033
 40
0.242988805651033
 10
-35.36917109882412
 20
-9.564178466789883
 30
0.0
 10
-35.37344358400077
 20
-9.584091736313219
 30
0.0
 10
-35.38197058559479
 20
-9.62383452626968
 30
0.0
 10
-35.38898227013445
 20
-9.68433814687839
 30
0.0
 10
-35.39195528798406
 20
-9.74498763337467
 30
0.0
 10
-35.38986468376727
 20
-9.785327159091218
 30
0.0
 10
-35.38882060443933
 20
-9.805473327629897
 30
0.0
 11
-35.36917109882412
 21
-9.564178466789883
 31
0.0
 11
-35.38102336322842
 21
-9.624084472649883
 31
0.0
 11
-35.38831706440024
 21
-9.684455871579899
 31
0.0
 11
-35.39093776142172
 21
-9.745025634759883
 31
0.0
 11
-35.38882060443933
 21
-9.805473327629897
 31
0.0
  0
SPLINE
  5
C0D0
330
1F
100
AcDbEntity
  8
AM_0
100
AcDbSpline
210
0.0
220
0.0
230
1.0
 70
     8
 71
     3
 72
    11
 73
     7
 74
     5
 42
0.0000000001
 43
0.0000000001
 44
0.0000000001
 40
0.0
 40
0.0
 40
0.0
 40
0.0
 40
0.32204137282325
 40
0.6369845564901084
 40
0.9406174363687913
 40
1.232539329194311
 40
1.232539329194311
 40
1.232539329194311
 40
1.232539329194311
 10
-34.45042796527914
 20
-8.863777160639898
 30
0.0
 10
-34.55774106687143
 20
-8.877957336621838
 30
0.0
 10
-34.77000195690576
 20
-8.906005140013128
 30
0.0
 10
-35.04883147808341
 20
-9.061851197690373
 30
0.0
 10
-35.26863647598311
 20
-9.282515032776299
 30
0.0
 10
-35.33610177031764
 20
-9.471529582610033
 30
0.0
 10
-35.36917109882412
 20
-9.564178466789883
 30
0.0
 11
-34.45042796527914
 21
-8.863777160639898
 31
0.0
 11
-34.76637645160733
 21
-8.926124572749898
 31
0.0
 11
-35.04336162006433
 21
-9.076019287109886
 31
0.0
 11
-35.25162883197842
 21
-9.296966552729884
 31
0.0
 11
-35.36917109882412
 21
-9.564178466789883
 31
0.0
  0
SPLINE
  5
C0D1
330
1F
100
AcDbEntity
  8
AM_0
100
AcDbSpline
210
0.0
220
0.0
230
1.0
 70
     8
 71
     3
 72
    11
 73
     7
 74
     5
 42
0.0000000001
 43
0.0000000001
 44
0.0000000001
 40
0.0
 40
0.0
 40
0.0
 40
0.0
 40
0.2606369460924037
 40
0.4991471087088241
 40
0.6983838937027807
 40
0.8441220824470287
 40
0.8441220824470287
 40
0.8441220824470287
 40
0.8441220824470287
 10
-34.4504279652792
 20
20.34046173095708
 30
0.0
 10
-34.53730709414894
 20
20.34126655885243
 30
0.0
 10
-34.70368974493053
 20
20.34280788874828
 30
0.0
 10
-34.93635699944045
 20
20.3508969242636
 30
0.0
 10
-35.1306383517879
 20
20.36062220334169
 30
0.0
 10
-35.24523246023286
 20
20.37025254713488
 30
0.0
 10
-35.2936439076621
 20
20.37432098388609
 30
0.0
 11
-34.4504279652792
 21
20.34046173095708
 31
0.0
 11
-34.7110404530722
 21
20.34403228759708
 31
0.0
 11
-34.9494170705039
 21
20.35201263427711
 31
0.0
 11
-35.14836116230068
 21
20.36280822753912
 31
0.0
 11
-35.2936439076621
 21
20.37432098388609
 31
0.0
  0
ELLIPSE
  5
C0D2
330
1F
100
AcDbEntity
  8
AM_0
100
AcDbEllipse
 10
-20.51663871204508
 20
21.34115600585914
 30
0.0
 11
-13.3978814232488
 21
4.061618724801962
 31
0.0
210
0.0
220
0.0
230
1.0
 40
0.9834583134962999
 41
0.3716512662593379
 42
0.5207450157898318
  0
ELLIPSE
  5
C0D3
330
1F
100
AcDbEntity
  8
AM_0
100
AcDbEllipse
 10
-20.46408934986203
 20
-9.504959106439855
 30
0.0
 11
14.97653495285399
 21
0.8387069906500254
 31
0.0
210
0.0
220
0.0
230
1.0
 40
0.3416074853511
 41
2.902126147203554
 42
3.037100062240125
  0
LINE
  5
C0D4
330
1F
100
AcDbEntity
  8
AM_7
100
AcDbLine
 10
-173.96334834491
 20
-0.0000000000001705
 30
0.0
 11
4.961238904837955
 21
0.0000000000001705
 31
0.0
  0
LINE
  5
C0D5
330
1F
100
AcDbEntity
  8
AM_0
100
AcDbLine
 10
-167.99999995624
 20
20.99999999999983
 30
0.0
 11
-49.99999995624509
 21
21.00000000000005
 31
0.0
  0
LINE
  5
C0D6
330
1F
100
AcDbEntity
  8
AM_0
100
AcDbLine
 10
-167.9999999562399
 20
-21.00000000000016
 30
0.0
 11
-49.999999956245
 21
-20.99999999999994
 31
0.0
  0
LINE
  5
C0D7
330
1F
100
AcDbEntity
  8
AM_0
100
AcDbLine
 10
-169.9999999562399
 20
-20.46409606933016
 30
0.0
 11
-169.99999995624
 21
20.46410369872984
 31
0.0
  0
LINE
  5
C0D8
330
1F
100
AcDbEntity
  8
AM_0
100
AcDbLine
 10
-167.9999999562399
 20
-21.00000000000016
 30
0.0
 11
-167.99999995624
 21
20.99999999999983
 31
0.0
  0
LINE
  5
C0DA
330
1F
100
AcDbEntity
  8
AM_0
100
AcDbLine
 10
-169.9999999562399
 20
-20.46411132812016
 30
0.0
 11
-167.9999999562399
 21
-21.00000000000016
 31
0.0
  0
LINE
  5
C0DB
330
1F
100
AcDbEntity
  8
AM_0
100
AcDbLine
 10
-167.99999995624
 20
21.00000762939385
 30
0.0
 11
-170.00001521503
 21
20.46410369872984
 31
0.0
  0
LINE
  5
C0E1
330
1F
100
AcDbEntity
  8
AM_0
100
AcDbLine
 10
-49.396327928658
 20
-20.39633178710994
 30
0.0
 11
-49.39632792865808
 21
20.39632415771407
 31
0.0
  0
LINE
  5
C0E2
330
1F
100
AcDbEntity
  8
AM_0
100
AcDbLine
 10
-49.999999956245
 20
-20.99999999999994
 30
0.0
 11
-49.99999995624509
 21
21.00000000000005
 31
0.0
  0
LINE
  5
C0E4
330
1F
100
AcDbEntity
  8
AM_0
100
AcDbLine
 10
-49.999998048897
 20
-20.99999999999994
 30
0.0
 11
-49.396327928658
 21
-20.39633178710994
 31
0.0
  0
LINE
  5
C0E5
330
1F
100
AcDbEntity
  8
AM_0
100
AcDbLine
 10
-35.35889811908779
 20
20.3963241577141
 30
0.0
 11
-49.39632792865808
 21
20.39632415771407
 31
0.0
  0
LINE
  5
C0E6
330
1F
100
AcDbEntity
  8
AM_0
100
AcDbLine
 10
-49.39632983600609
 20
20.39632415771407
 30
0.0
 11
-50.00000186359409
 21
21.00000000000005
 31
0.0
  0
SPLINE
  5
C0E7
330
1F
100
AcDbEntity
  8
AM_0
100
AcDbSpline
210
0.0
220
0.0
230
1.0
 70
     8
 71
     3
 72
    11
 73
     7
 74
     5
 42
0.0000000001
 43
0.0000000001
 44
0.0000000001
 40
0.0
 40
0.0
 40
0.0
 40
0.0
 40
0.1878062283233184
 40
0.6130924215939089
 40
1.189059860721508
 40
1.851367701622534
 40
1.851367701622534
 40
1.851367701622534
 40
1.851367701622534
 10
-15.16661067402006
 20
10.16955566407014
 30
0.0
 10
-15.11349426925868
 20
10.20282239349881
 30
0.0
 10
-14.94009605178607
 20
10.31142145267814
 30
0.0
 10
-14.64546397543468
 20
10.57896739497847
 30
0.0
 10
-14.22325903561504
 20
10.93750435816782
 30
0.0
 10
-13.90677987148548
 20
11.20263542968466
 30
0.0
 10
-13.73750682270107
 20
11.34444427491013
 30
0.0
 11
-15.16661067402006
 21
10.16955566407014
 31
0.0
 11
-15.00927729999605
 21
10.27210998536014
 31
0.0
 11
-14.68171496784307
 21
10.54335021973014
 31
0.0
 11
-14.24469371235005
 21
10.91851806641014
 31
0.0
 11
-13.73750682270107
 21
11.34444427491013
 31
0.0
  0
SPLINE
  5
C0E8
330
1F
100
AcDbEntity
  8
AM_0
100
AcDbSpline
210
0.0
220
0.0
230
1.0
 70
     8
 71
     3
 72
    11
 73
     7
 74
     5
 42
0.0000000001
 43
0.0000000001
 44
0.0000000001
 40
0.0
 40
0.0
 40
0.0
 40
0.0
 40
0.1778095690171415
 40
0.3642024959750898
 40
0.5582629358859196
 40
0.757194419039656
 40
0.757194419039656
 40
0.757194419039656
 40
0.757194419039656
 10
-13.93451304828701
 20
-20.57164001463985
 30
0.0
 10
-13.98087248235133
 20
-20.53442982831207
 30
0.0
 10
-14.07582924812914
 20
-20.45821321741095
 30
0.0
 10
-14.2449688587124
 20
-20.37747895591356
 30
0.0
 10
-14.43148030157122
 20
-20.32214023298418
 30
0.0
 10
-14.56273077442768
 20
-20.31537515059418
 30
0.0
 10
-14.62916942035801
 20
-20.31195068358985
 30
0.0
 11
-13.93451304828701
 21
-20.57164001463985
 31
0.0
 11
-14.07725901996701
 21
-20.46562194823985
 31
0.0
 11
-14.244375185128
 21
-20.38307189940985
 31
0.0
 11
-14.43106837665701
 21
-20.33010864256985
 31
0.0
 11
-14.62916942035801
 21
-20.31195068358985
 31
0.0
  0
SPLINE
  5
C0E9
330
1F
100
AcDbEntity
  8
AM_0
100
AcDbSpline
210
0.0
220
0.0
230
1.0
 70
     8
 71
     3
 72
    11
 73
     7
 74
     5
 42
0.0000000001
 43
0.0000000001
 44
0.0000000001
 40
0.0
 40
0.0
 40
0.0
 40
0.0
 40
0.9030870821607502
 40
1.804848170620158
 40
2.705164754181081
 40
3.603860038524286
 40
3.603860038524286
 40
3.603860038524286
 40
3.603860038524286
 10
-11.21489329731102
 20
-22.93614196776985
 30
0.0
 10
-11.4440241737387
 20
-22.74090360814189
 30
0.0
 10
-11.90194949602725
 20
-22.35071355541041
 30
0.0
 10
-12.58426399936573
 20
-21.76117272029514
 30
0.0
 10
-13.26241535267587
 20
-21.16906519860469
 30
0.0
 10
-13.71061512476314
 20
-20.77066206013126
 30
0.0
 10
-13.93451304828701
 20
-20.57164001463985
 30
0.0
 11
-11.21489329731102
 21
-22.93614196776985
 31
0.0
 11
-11.901611284371
 21
-22.34963989256985
 31
0.0
 11
-12.584117845651
 21
-21.76026916503985
 31
0.0
 11
-13.261939958688
 21
-21.16770935057985
 31
0.0
 11
-13.93451304828701
 21
-20.57164001463985
 31
0.0
  0
SPLINE
  5
C0EA
330
1F
100
AcDbEntity
  8
AM_0
100
AcDbSpline
210
0.0
220
0.0
230
1.0
 70
     8
 71
     3
 72
    11
 73
     7
 74
     5
 42
0.0000000001
 43
0.0000000001
 44
0.0000000001
 40
0.0
 40
0.0
 40
0.0
 40
0.0
 40
0.0354673086624018
 40
0.0709365738953714
 40
0.1064038825567786
 40
0.1418712404540946
 40
0.1418712404540946
 40
0.1418712404540946
 40
0.1418712404540946
 10
-6.321428255196991
 20
-23.30877685545982
 30
0.0
 10
-6.309605866729055
 20
-23.30874306734839
 30
0.0
 10
-6.285960437605623
 20
-23.30867548926157
 30
0.0
 10
-6.250492725474304
 20
-23.30854143844687
 30
0.0
 10
-6.215024870373436
 20
-23.30844661095146
 30
0.0
 10
-6.191380133287765
 20
-23.3083615981967
 30
0.0
 10
-6.179557756538997
 20
-23.30831909178982
 30
0.0
 11
-6.321428255196991
 21
-23.30877685545982
 31
0.0
 11
-6.28596110736899
 21
-23.30867004393985
 31
0.0
 11
-6.250492052194005
 21
-23.30854797362985
 31
0.0
 11
-6.215024904366998
 21
-23.30844116210982
 31
0.0
 11
-6.179557756538997
 21
-23.30831909178982
 31
0.0
  0
SPLINE
  5
C0EB
330
1F
100
AcDbEntity
  8
AM_0
100
AcDbSpline
210
0.0
220
0.0
230
1.0
 70
     8
 71
     3
 72
    11
 73
     7
 74
     5
 42
0.0000000001
 43
0.0000000001
 44
0.0000000001
 40
0.0
 40
0.0
 40
0.0
 40
0.0
 40
0.1958489615244949
 40
0.3882839255951529
 40
0.574215721139256
 40
0.7519804898710545
 40
0.7519804898710545
 40
0.7519804898710545
 40
0.7519804898710545
 10
-6.179557756538997
 20
-23.30831909178982
 30
0.0
 10
-6.114185002375391
 20
-23.30486045604046
 30
0.0
 10
-5.984579057998522
 20
-23.29800347474473
 30
0.0
 10
-5.799046716354753
 20
-23.2462643586485
 30
0.0
 10
-5.628808417338913
 20
-23.16964218745064
 30
0.0
 10
-5.532145583013378
 20
-23.09589200795489
 30
0.0
 10
-5.484899477119995
 20
-23.05984497069982
 30
0.0
 11
-6.179557756538997
 21
-23.30831909178982
 31
0.0
 11
-5.984495119210009
 21
-23.29078674315985
 31
0.0
 11
-5.798608736153994
 21
-23.24101257323982
 31
0.0
 11
-5.630142168160006
 21
-23.16233825682982
 31
0.0
 11
-5.484899477119995
 21
-23.05984497069982
 31
0.0
  0
SPLINE
  5
C0EC
330
1F
100
AcDbEntity
  8
AM_0
100
AcDbSpline
210
0.0
220
0.0
230
1.0
 70
     8
 71
     3
 72
    11
 73
     7
 74
     5
 42
0.0000000001
 43
0.0000000001
 44
0.0000000001
 40
0.0
 40
0.0
 40
0.0
 40
0.0
 40
0.922432466505025
 40
1.843711859690108
 40
2.7636986181196
 40
3.682250738542835
 40
3.682250738542835
 40
3.682250738542835
 40
3.682250738542835
 10
-5.484899477119995
 20
-23.05984497069982
 30
0.0
 10
-5.251076574626146
 20
-22.86017111286578
 30
0.0
 10
-4.783723056564861
 20
-22.46107299660633
 30
0.0
 10
-4.086737417979586
 20
-21.85867077473238
 30
0.0
 10
-3.393374021281075
 20
-21.25406465045705
 30
0.0
 10
-2.934566199245179
 20
-20.84776613039648
 30
0.0
 10
-2.70534129535801
 20
-20.64477539061982
 30
0.0
 11
-5.484899477119995
 21
-23.05984497069982
 31
0.0
 11
-4.784027055856
 21
-22.46012878417983
 31
0.0
 11
-4.086852983590006
 21
-21.85787963866983
 31
0.0
 11
-3.393789247628006
 21
-21.25286865233982
 31
0.0
 11
-2.70534129535801
 21
-20.64477539061982
 31
0.0
  0
SPLINE
  5
C0ED
330
1F
100
AcDbEntity
  8
AM_0
100
AcDbSpline
210
0.0
220
0.0
230
1.0
 70
     8
 71
     3
 72
    11
 73
     7
 74
     5
 42
0.0000000001
 43
0.0000000001
 44
0.0000000001
 40
0.0
 40
0.0
 40
0.0
 40
0.0
 40
0.2000597769134849
 40
0.3904333444939503
 40
0.5740250137497397
 40
0.7540257643034032
 40
0.7540257643034032
 40
0.7540257643034032
 40
0.7540257643034032
 10
-2.70534129535801
 20
-20.64477539061982
 30
0.0
 10
-2.658019395583688
 20
-20.59737950605251
 30
0.0
 10
-2.565666760377633
 20
-20.50488248335079
 30
0.0
 10
-2.470856720573031
 20
-20.33654302397763
 30
0.0
 10
-2.410854493666817
 20
-20.16001377736496
 30
0.0
 10
-2.403593978926827
 20
-20.03854391373894
 30
0.0
 10
-2.399999574777012
 20
-19.97840881346982
 30
0.0
 11
-2.70534129535801
 21
-20.64477539061982
 31
0.0
 11
-2.570692018624015
 21
-20.49681091307982
 31
0.0
 11
-2.475246385690013
 21
-20.33209228514982
 31
0.0
 11
-2.418655351754011
 21
-20.15744018553982
 31
0.0
 11
-2.399999574777012
 21
-19.97840881346982
 31
0.0
  0
SPLINE
  5
C0EE
330
1F
100
AcDbEntity
  8
AM_0
100
AcDbSpline
210
0.0
220
0.0
230
1.0
 70
     8
 71
     3
 72
    11
 73
     7
 74
     5
 42
0.0000000001
 43
0.0000000001
 44
0.0000000001
 40
0.0
 40
0.0
 40
0.0
 40
0.0
 40
0.1139749467815903
 40
0.240638757961389
 40
0.387299795977049
 40
0.5571367467062199
 40
0.5571367467062199
 40
0.5571367467062199
 40
0.5571367467062199
 10
-2.399999574777012
 20
-12.93707275389982
 30
0.0
 10
-2.404450316298918
 20
-12.89892319565091
 30
0.0
 10
-2.413847301707393
 20
-12.81837687759572
 30
0.0
 10
-2.484469518645409
 20
-12.70625723207767
 30
0.0
 10
-2.590307970943657
 20
-12.60185156342811
 30
0.0
 10
-2.681782710541073
 20
-12.54840808314918
 30
0.0
 10
-2.730869249459004
 20
-12.51972961424982
 30
0.0
 11
-2.399999574777012
 21
-12.93707275389982
 31
0.0
 11
-2.421087221261018
 21
-12.82506561278984
 31
0.0
 11
-2.484138445016014
 21
-12.71520996092982
 31
0.0
 11
-2.588184312936022
 21
-12.61184692381982
 31
0.0
 11
-2.730869249459004
 21
-12.51972961424982
 31
0.0
  0
SPLINE
  5
C0EF
330
1F
100
AcDbEntity
  8
AM_0
100
AcDbSpline
210
0.0
220
0.0
230
1.0
 70
     8
 71
     3
 72
    11
 73
     7
 74
     5
 42
0.0000000001
 43
0.0000000001
 44
0.0000000001
 40
0.0
 40
0.0
 40
0.0
 40
0.0
 40
0.255630298934685
 40
0.5110814040265951
 40
0.7663606628749776
 40
1.021464715520873
 40
1.021464715520873
 40
1.021464715520873
 40
1.021464715520873
 10
-2.730869249459004
 20
-12.51972961424982
 30
0.0
 10
-2.806221961833802
 20
-12.4799460649072
 30
0.0
 10
-2.956874565215389
 20
-12.40040685402365
 30
0.0
 10
-3.182644149932987
 20
-12.28088850486371
 30
0.0
 10
-3.408159222334594
 20
-12.16126449032181
 30
0.0
 10
-3.558359762504482
 20
-12.08136918232512
 30
0.0
 10
-3.633434251901007
 20
-12.04143524169984
 30
0.0
 11
-2.730869249459004
 21
-12.51972961424982
 31
0.0
 11
-2.956905321237002
 21
-12.40033721922984
 31
0.0
 11
-3.182678178903017
 21
-12.28083038329984
 31
0.0
 11
-3.408187822456994
 21
-12.16119384764982
 31
0.0
 11
-3.633434251901007
 21
-12.04143524169984
 31
0.0
  0
SPLINE
  5
C0F0
330
1F
100
AcDbEntity
  8
AM_0
100
AcDbSpline
210
0.0
220
0.0
230
1.0
 70
     8
 71
     3
 72
    11
 73
     7
 74
     5
 42
0.0000000001
 43
0.0000000001
 44
0.0000000001
 40
0.0
 40
0.0
 40
0.0
 40
0.0
 40
0.2119313405556717
 40
0.4248655365354529
 40
0.639676484220436
 40
0.8570273341496202
 40
0.8570273341496202
 40
0.8570273341496202
 40
0.8570273341496202
 10
-2.399999574777012
 20
-16.09873962401982
 30
0.0
 10
-2.404097190646324
 20
-16.02794612055041
 30
0.0
 10
-2.412311812232101
 20
-15.88602411998223
 30
0.0
 10
-2.479004320334509
 20
-15.68153990389904
 30
0.0
 10
-2.581321352496932
 20
-15.49011463408585
 30
0.0
 10
-2.680825016089924
 20
-15.38512467176577
 30
0.0
 10
-2.730869249459004
 20
-15.33232116698982
 30
0.0
 11
-2.399999574777012
 21
-16.09873962401982
 31
0.0
 11
-2.421270326729995
 21
-15.88787841795982
 31
0.0
 11
-2.484569505807002
 21
-15.68457031249983
 31
0.0
 11
-2.588567690011018
 21
-15.49661254881982
 31
0.0
 11
-2.730869249459004
 21
-15.33232116698982
 31
0.0
  0
SPLINE
  5
C0F1
330
1F
100
AcDbEntity
  8
AM_0
100
AcDbSpline
210
0.0
220
0.0
230
1.0
 70
     8
 71
     3
 72
    11
 73
     7
 74
     5
 42
0.0000000001
 43
0.0000000001
 44
0.0000000001
 40
0.0
 40
0.0
 40
0.0
 40
0.0
 40
1.005900097985153
 40
2.011479484636164
 40
3.016663628816185
 40
4.021384757472287
 40
4.021384757472287
 40
4.021384757472287
 40
4.021384757472287
 10
-2.730869249459004
 20
-15.33232116698982
 30
0.0
 10
-2.97574104141054
 20
-15.10326980961762
 30
0.0
 10
-3.465406552790059
 20
-14.64524012336435
 30
0.0
 10
-4.195148180113944
 20
-13.95341087703099
 30
0.0
 10
-4.921013370947577
 20
-13.25807366886714
 30
0.0
 10
-5.400295320725073
 20
-12.78993758321889
 30
0.0
 10
-5.639881090279999
 20
-12.55592346190985
 30
0.0
 11
-2.730869249459004
 21
-15.33232116698982
 31
0.0
 11
-3.464714006538997
 21
-14.64434814452983
 31
0.0
 11
-4.194644884224999
 21
-13.95269012450984
 31
0.0
 11
-4.919992403146011
 21
-13.25679779051984
 31
0.0
 11
-5.639881090279999
 21
-12.55592346190985
 31
0.0
  0
SPLINE
  5
C0F2
330
1F
100
AcDbEntity
  8
AM_0
100
AcDbSpline
210
0.0
220
0.0
230
1.0
 70
     8
 71
     3
 72
    11
 73
     7
 74
     5
 42
0.0000000001
 43
0.0000000001
 44
0.0000000001
 40
0.0
 40
0.0
 40
0.0
 40
0.0
 40
0.1017872502591441
 40
0.2035725943795887
 40
0.3053579384990383
 40
0.4071451887581834
 40
0.4071451887581834
 40
0.4071451887581834
 40
0.4071451887581834
 10
-15.03605647480102
 20
-4.525321960449872
 30
0.0
 10
-15.00214890217121
 20
-4.526529942260969
 30
0.0
 10
-14.93433439188832
 20
-4.528945883261658
 30
0.0
 10
-14.83261294757936
 20
-4.532569885249857
 30
0.0
 10
-14.73089150327041
 20
-4.53619388723806
 30
0.0
 10
-14.66307699298785
 20
-4.538609828238759
 30
0.0
 10
-14.62916942035803
 20
-4.539817810049868
 30
0.0
 11
-15.03605647480102
 21
-4.525321960449872
 31
0.0
 11
-14.93433375751604
 21
-4.528945922849857
 31
0.0
 11
-14.83261294757903
 21
-4.53256988524987
 31
0.0
 11
-14.73089213764302
 21
-4.536193847649855
 31
0.0
 11
-14.62916942035803
 21
-4.539817810049868
 31
0.0
  0
SPLINE
  5
C0F3
330
1F
100
AcDbEntity
  8
AM_0
100
AcDbSpline
210
0.0
220
0.0
230
1.0
 70
     8
 71
     3
 72
    11
 73
     7
 74
     5
 42
0.0000000001
 43
0.0000000001
 44
0.0000000001
 40
0.0
 40
0.0
 40
0.0
 40
0.0
 40
0.8397185882835257
 40
1.759814832534245
 40
2.760530091875858
 40
3.836980020902677
 40
3.836980020902677
 40
3.836980020902677
 40
3.836980020902677
 10
-29.4872951070028
 20
-20.10591125487988
 30
0.0
 10
-29.21214058409187
 20
-20.15813482093799
 30
0.0
 10
-28.63549381526499
 20
-20.26758077990474
 30
0.0
 10
-27.71752968361111
 20
-20.34679680639871
 30
0.0
 10
-26.719385061068
 20
-20.39118871485442
 30
0.0
 10
-26.02691778168466
 20
-20.39457625907038
 30
0.0
 10
-25.66806025898031
 20
-20.39633178710988
 30
0.0
 11
-29.4872951070028
 21
-20.10591125487988
 31
0.0
 11
-28.65988536274011
 21
-20.24916076659988
 31
0.0
 11
-27.74412341510822
 21
-20.33836364745988
 31
0.0
 11
-26.744436220284
 21
-20.38371276854988
 31
0.0
 11
-25.66806025898031
 21
-20.39633178710988
 31
0.0
  0
SPLINE
  5
C0F4
330
1F
100
AcDbEntity
  8
AM_0
100
AcDbSpline
210
0.0
220
0.0
230
1.0
 70
     8
 71
     3
 72
    11
 73
     7
 74
     5
 42
0.0000000001
 43
0.0000000001
 44
0.0000000001
 40
0.0
 40
0.0
 40
0.0
 40
0.0
 40
1.444194134505868
 40
2.971675018672465
 40
4.557135039282931
 40
11.03941531113159
 40
11.03941531113159
 40
11.03941531113159
 40
11.03941531113159
 10
-25.66806025898031
 20
-20.39633178710988
 30
0.0
 10
-25.18666773705072
 20
-20.39295723453165
 30
0.0
 10
-24.19612076181088
 20
-20.38601351875525
 30
0.0
 10
-22.67738999873334
 20
-20.35401103392401
 30
0.0
 10
-19.47935249827365
 20
-20.30339851751766
 30
0.0
 10
-16.79000802136672
 20
-20.30814054894665
 30
0.0
 10
-14.62916942035801
 20
-20.31195068358985
 30
0.0
 11
-25.66806025898031
 21
-20.39633178710988
 31
0.0
 11
-24.223928407784
 21
-20.38291931151988
 31
0.0
 11
-22.6966895619588
 21
-20.35572814940988
 31
0.0
 11
-21.111421541329
 21
-20.33105468749988
 31
0.0
 11
-14.62916942035801
 21
-20.31195068358985
 31
0.0
  0
SPLINE
  5
C0F5
330
1F
100
AcDbEntity
  8
AM_0
100
AcDbSpline
210
0.0
220
0.0
230
1.0
 70
     8
 71
     3
 72
    11
 73
     7
 74
     5
 42
0.0000000001
 43
0.0000000001
 44
0.0000000001
 40
0.0
 40
0.0
 40
0.0
 40
0.0
 40
0.1626679004975575
 40
0.3398923638739029
 40
0.5277382893243243
 40
0.7210788717770904
 40
0.7210788717770904
 40
0.7210788717770904
 40
0.7210788717770904
 10
-13.93451304828704
 20
-4.711196899409856
 30
0.0
 10
-13.98339501797152
 20
-4.687543935031774
 30
0.0
 10
-14.08553322825182
 20
-4.638121387925059
 30
0.0
 10
-14.25489383789423
 20
-4.58831592265098
 30
0.0
 10
-14.43785256282847
 20
-4.552099073461663
 30
0.0
 10
-14.56478722970296
 20
-4.543950716332531
 30
0.0
 10
-14.62916942035803
 20
-4.539817810049868
 30
0.0
 11
-13.93451304828704
 21
-4.711196899409856
 31
0.0
 11
-14.08274836933202
 21
-4.644210815429858
 31
0.0
 11
-14.25206370746704
 21
-4.591857910149855
 31
0.0
 11
-14.43654818927902
 21
-4.556480407709869
 31
0.0
 11
-14.62916942035803
 21
-4.539817810049868
 31
0.0
  0
SPLINE
  5
C0F6
330
1F
100
AcDbEntity
  8
AM_0
100
AcDbSpline
210
0.0
220
0.0
230
1.0
 70
     8
 71
     3
 72
    11
 73
     7
 74
     5
 42
0.0000000001
 43
0.0000000001
 44
0.0000000001
 40
0.0
 40
0.0
 40
0.0
 40
0.0
 40
0.1575723294252919
 40
0.2947485198144029
 40
0.4139158540422615
 40
0.5213520065360271
 40
0.5213520065360271
 40
0.5213520065360271
 40
0.5213520065360271
 10
-2.705341295358039
 20
-4.376304626459841
 30
0.0
 10
-2.660450844176516
 20
-4.348645010067051
 30
0.0
 10
-2.576480555180899
 20
-4.296906033940063
 30
0.0
 10
-2.478903633221025
 20
-4.198277258856941
 30
0.0
 10
-2.413055756767072
 20
-4.092760866736053
 30
0.0
 10
-2.404198794853323
 20
-4.016926509728267
 30
0.0
 10
-2.399999574777041
 20
-3.980972290039829
 30
0.0
 11
-2.705341295358039
 21
-4.376304626459841
 31
0.0
 11
-2.574809984323024
 21
-4.288040161129828
 31
0.0
 11
-2.478675798532037
 21
-4.190185546869827
 31
0.0
 11
-2.419826463815041
 21
-4.086563110349828
 31
0.0
 11
-2.399999574777041
 21
-3.980972290039829
 31
0.0
  0
SPLINE
  5
C0F7
330
1F
100
AcDbEntity
  8
AM_0
100
AcDbSpline
210
0.0
220
0.0
230
1.0
 70
     8
 71
     3
 72
    11
 73
     7
 74
     5
 42
0.0000000001
 43
0.0000000001
 44
0.0000000001
 40
0.0
 40
0.0
 40
0.0
 40
0.0
 40
0.1382227301884693
 40
0.2401149777613623
 40
0.3086081891756628
 40
0.352941705370341
 40
0.352941705370341
 40
0.352941705370341
 40
0.352941705370341
 10
-2.705341295358067
 20
8.275886535650158
 30
0.0
 10
-2.65986898740657
 20
8.285023806819861
 30
0.0
 10
-2.580876319575136
 20
8.300896707468842
 30
0.0
 10
-2.486214136756916
 20
8.336124740944512
 30
0.0
 10
-2.417830697006185
 20
8.370736986880345
 30
0.0
 10
-2.405029576811817
 20
8.407252238778195
 30
0.0
 10
-2.399999574777069
 20
8.421600341800171
 30
0.0
 11
-2.705341295358067
 21
8.275886535650158
 31
0.0
 11
-2.570693925973074
 21
8.307121276860158
 31
0.0
 11
-2.475254015084061
 21
8.342803955080171
 31
0.0
 11
-2.418661073800052
 21
8.381385803230159
 31
0.0
 11
-2.399999574777069
 21
8.421600341800171
 31
0.0
  0
SPLINE
  5
C0F8
330
1F
100
AcDbEntity
  8
AM_0
100
AcDbSpline
210
0.0
220
0.0
230
1.0
 70
     8
 71
     3
 72
    11
 73
     7
 74
     5
 42
0.0000000001
 43
0.0000000001
 44
0.0000000001
 40
0.0
 40
0.0
 40
0.0
 40
0.0
 40
0.1451686522809613
 40
0.3136582766901051
 40
0.5009546380636817
 40
0.6992007246470394
 40
0.6992007246470394
 40
0.6992007246470394
 40
0.6992007246470394
 10
-13.93451304828707
 20
8.480522155770131
 30
0.0
 10
-13.9820072036995
 20
8.489860565751147
 30
0.0
 10
-14.08462532893141
 20
8.510037577355575
 30
0.0
 10
-14.25051349230647
 20
8.530145740835564
 30
0.0
 10
-14.4346121503396
 20
8.545480942028465
 30
0.0
 10
-14.56310060414215
 20
8.549087152414529
 30
0.0
 10
-14.62916942035806
 20
8.550941467290158
 30
0.0
 11
-13.93451304828707
 21
8.480522155770131
 31
0.0
 11
-14.07726283466405
 21
8.506912231450144
 31
0.0
 11
-14.24437709247706
 21
8.528396606450144
 31
0.0
 11
-14.43106265461105
 21
8.543510437020131
 31
0.0
 11
-14.62916942035806
 21
8.550941467290158
 31
0.0
  0
SPLINE
  5
C0F9
330
1F
100
AcDbEntity
  8
AM_0
100
AcDbSpline
210
0.0
220
0.0
230
1.0
 70
     8
 71
     3
 72
    11
 73
     7
 74
     5
 42
0.0000000001
 43
0.0000000001
 44
0.0000000001
 40
0.0
 40
0.0
 40
0.0
 40
0.0
 40
0.035471641069993
 40
0.070945311490447
 40
0.106416952559605
 40
0.1418887158812399
 40
0.1418887158812399
 40
0.1418887158812399
 40
0.1418887158812399
 10
-6.321428255197048
 20
7.733444213870143
 30
0.0
 10
-6.309605858092236
 20
7.733256926671567
 30
0.0
 10
-6.285960387517314
 20
7.732882341559621
 30
0.0
 10
-6.250492780768916
 20
7.732304186907413
 30
0.0
 10
-6.215024820010393
 20
7.731745579557029
 30
0.0
 10
-6.191380124611324
 20
7.73136229627262
 30
0.0
 10
-6.179557756539054
 20
7.731170654300171
 30
0.0
 11
-6.321428255197048
 21
7.733444213870143
 31
0.0
 11
-6.285961107369047
 21
7.732879638680174
 31
0.0
 11
-6.250492052194061
 21
7.732307434090159
 31
0.0
 11
-6.215024904367055
 21
7.731742858890157
 31
0.0
 11
-6.179557756539054
 21
7.731170654300171
 31
0.0
  0
SPLINE
  5
C0FA
330
1F
100
AcDbEntity
  8
AM_0
100
AcDbSpline
210
0.0
220
0.0
230
1.0
 70
     8
 71
     3
 72
    11
 73
     7
 74
     5
 42
0.0000000001
 43
0.0000000001
 44
0.0000000001
 40
0.0
 40
0.0
 40
0.0
 40
0.0
 40
0.0919178889053462
 40
0.1838046256086389
 40
0.2756678891773952
 40
0.3675061135084143
 40
0.3675061135084143
 40
0.3675061135084143
 40
0.3675061135084143
 10
-6.179557756539054
 20
7.394546508790142
 30
0.0
 10
-6.190323785926855
 20
7.423233470457223
 30
0.0
 10
-6.211852195951088
 20
7.480597671396355
 30
0.0
 10
-6.246513744846209
 20
7.56570881398419
 30
0.0
 10
-6.282758034373538
 20
7.650130233507674
 30
0.0
 10
-6.308539352954365
 20
7.705675410758271
 30
0.0
 10
-6.321428255197048
 20
7.733444213870143
 30
0.0
 11
-6.179557756539054
 21
7.394546508790142
 31
0.0
 11
-6.212251619454065
 21
7.480453491210141
 31
0.0
 11
-6.246782259103071
 21
7.565605163580158
 31
0.0
 11
-6.283166841622062
 21
7.649955749520159
 31
0.0
 11
-6.321428255197048
 21
7.733444213870143
 31
0.0
  0
SPLINE
  5
C0FB
330
1F
100
AcDbEntity
  8
AM_0
100
AcDbSpline
210
0.0
220
0.0
230
1.0
 70
     8
 71
     3
 72
    11
 73
     7
 74
     5
 42
0.0000000001
 43
0.0000000001
 44
0.0000000001
 40
0.0
 40
0.0
 40
0.0
 40
0.0
 40
0.8697151683339184
 40
1.737493018836418
 40
2.599972676750802
 40
3.452178697574122
 40
3.452178697574122
 40
3.452178697574122
 40
3.452178697574122
 10
-11.21489329731107
 20
7.899757385260159
 30
0.0
 10
-11.31006327848017
 20
7.625688224412192
 30
0.0
 10
-11.50019124669862
 20
7.078160400373061
 30
0.0
 10
-11.69177478843167
 20
6.231658699600783
 30
0.0
 10
-11.81550959360751
 20
5.377418062091313
 30
0.0
 10
-11.81378965064708
 20
4.805144040244477
 30
0.0
 10
-11.81293483173507
 20
4.520721435550143
 30
0.0
 11
-11.21489329731107
 21
7.899757385260159
 31
0.0
 11
-11.48484416401007
 21
7.072998046880144
 31
0.0
 11
-11.68094821369305
 21
6.227668762210157
 31
0.0
 11
-11.79478068744805
 21
5.37273406983013
 31
0.0
 11
-11.81293483173507
 21
4.520721435550143
 31
0.0
  0
SPLINE
  5
C0FC
330
1F
100
AcDbEntity
  8
AM_0
100
AcDbSpline
210
0.0
220
0.0
230
1.0
 70
     8
 71
     3
 72
    11
 73
     7
 74
     5
 42
0.0000000001
 43
0.0000000001
 44
0.0000000001
 40
0.0
 40
0.0
 40
0.0
 40
0.0
 40
0.7017061764204264
 40
1.399413139630084
 40
2.092670999491174
 40
2.780947942091121
 40
2.780947942091121
 40
2.780947942091121
 40
2.780947942091121
 10
-11.21489329731107
 20
7.899757385260159
 30
0.0
 10
-11.44382036262878
 20
7.947742967603833
 30
0.0
 10
-11.90036977602688
 20
8.043440649484157
 30
0.0
 10
-12.5827141100466
 20
8.188329517055503
 30
0.0
 10
-13.26040068043565
 20
8.333598485738173
 30
0.0
 10
-13.7103496669454
 20
8.43166545435926
 30
0.0
 10
-13.93451304828707
 20
8.480522155770131
 30
0.0
 11
-11.21489329731107
 21
7.899757385260159
 31
0.0
 11
-11.90161128437105
 21
8.044013977050155
 31
0.0
 11
-12.58411784565106
 21
8.188858032230143
 31
0.0
 11
-13.26193995868806
 21
8.334335327150142
 31
0.0
 11
-13.93451304828707
 21
8.480522155770131
 31
0.0
  0
SPLINE
  5
C0FD
330
1F
100
AcDbEntity
  8
AM_0
100
AcDbSpline
210
0.0
220
0.0
230
1.0
 70
     8
 71
     3
 72
    11
 73
     7
 74
     5
 42
0.0000000001
 43
0.0000000001
 44
0.0000000001
 40
0.0
 40
0.0
 40
0.0
 40
0.0
 40
0.68152988825301
 40
1.362511550131908
 40
2.042951034762894
 40
2.722852732649901
 40
2.722852732649901
 40
2.722852732649901
 40
2.722852732649901
 10
-11.53551669513802
 20
-5.999114990229855
 30
0.0
 10
-11.73586778586914
 20
-5.892023103553656
 30
0.0
 10
-12.13640880381686
 20
-5.677925475501326
 30
0.0
 10
-12.73654580613087
 20
-5.356095442266409
 30
0.0
 10
-13.33591127638718
 20
-5.033975666199443
 30
0.0
 10
-13.73503171938168
 20
-4.818761461300915
 30
0.0
 10
-13.93451304828704
 20
-4.711196899409856
 30
0.0
 11
-11.53551669513802
 21
-5.999114990229855
 31
0.0
 11
-12.13649745380502
 21
-5.677703857419857
 31
0.0
 11
-12.73665614521104
 21
-5.35591888426984
 31
0.0
 11
-13.33599467670504
 21
-5.033752441399855
 31
0.0
 11
-13.93451304828704
 21
-4.711196899409856
 31
0.0
  0
SPLINE
  5
C0FE
330
1F
100
AcDbEntity
  8
AM_0
100
AcDbSpline
210
0.0
220
0.0
230
1.0
 70
     8
 71
     3
 72
    11
 73
     7
 74
     5
 42
0.0000000001
 43
0.0000000001
 44
0.0000000001
 40
0.0
 40
0.0
 40
0.0
 40
0.0
 40
0.7967980591285757
 40
1.592756348522098
 40
2.387865539475145
 40
3.182011047572613
 40
3.182011047572613
 40
3.182011047572613
 40
3.182011047572613
 10
-5.484899477120023
 20
-5.925247192379856
 30
0.0
 10
-5.252574232753097
 20
-5.796530352855377
 30
0.0
 10
-4.788168598668014
 20
-5.539232332402704
 30
0.0
 10
-4.092627283495582
 20
-5.152234390097525
 30
0.0
 10
-3.39830732588873
 20
-4.764860686500754
 30
0.0
 10
-2.936236576293085
 20
-4.505770944705564
 30
0.0
 10
-2.705341295358039
 20
-4.376304626459841
 30
0.0
 11
-5.484899477120023
 21
-5.925247192379856
 31
0.0
 11
-4.78804011737904
 21
-5.538887023919841
 31
0.0
 11
-4.092454866525031
 21
-5.151962280269827
 31
0.0
 11
-3.398164705392048
 21
-4.76445770262984
 31
0.0
 11
-2.705341295358039
 21
-4.376304626459841
 31
0.0
  0
SPLINE
  5
C0FF
330
1F
100
AcDbEntity
  8
AM_0
100
AcDbSpline
210
0.0
220
0.0
230
1.0
 70
     8
 71
     3
 72
    11
 73
     7
 74
     5
 42
0.0000000001
 43
0.0000000001
 44
0.0000000001
 40
0.0
 40
0.0
 40
0.0
 40
0.0
 40
0.7117585119093594
 40
1.419986702701833
 40
2.12429366040289
 40
2.824197437103121
 40
2.824197437103121
 40
2.824197437103121
 40
2.824197437103121
 10
-5.484899477120052
 20
7.77577972413016
 30
0.0
 10
-5.251259692275684
 20
7.817027674159334
 30
0.0
 10
-4.785138975557977
 20
7.899318984449408
 30
0.0
 10
-4.088103956121524
 20
8.024000313023584
 30
0.0
 10
-3.395171060192572
 20
8.149168844163588
 30
0.0
 10
-2.934803358919971
 20
8.233735697196143
 30
0.0
 10
-2.705341295358067
 20
8.275886535650158
 30
0.0
 11
-5.484899477120052
 21
7.77577972413016
 31
0.0
 11
-4.784027055856057
 21
7.899787902840159
 31
0.0
 11
-4.086852983590063
 21
8.02442932129017
 31
0.0
 11
-3.393789247628063
 21
8.149772644050159
 31
0.0
 11
-2.705341295358067
 21
8.275886535650158
 31
0.0
  0
SPLINE
  5
C100
330
1F
100
AcDbEntity
  8
AM_0
100
AcDbSpline
210
0.0
220
0.0
230
1.0
 70
     8
 71
     3
 72
    11
 73
     7
 74
     5
 42
0.0000000001
 43
0.0000000001
 44
0.0000000001
 40
0.0
 40
0.0
 40
0.0
 40
0.0
 40
0.1262421325190952
 40
0.2524842650375201
 40
0.3787230820631731
 40
0.5049647237618222
 40
0.5049647237618222
 40
0.5049647237618222
 40
0.5049647237618222
 10
-9.85014338886404
 20
2.539627075200144
 30
0.0
 10
-9.892136829951738
 20
2.536918361489044
 30
0.0
 10
-9.976123712126907
 20
2.531500934066859
 30
0.0
 10
-10.10210325611794
 20
2.523379879748403
 30
0.0
 10
-10.22808134246079
 20
2.515238773599945
 30
0.0
 10
-10.31206752291985
 20
2.50983018103663
 30
0.0
 10
-10.35406108295504
 20
2.507125854500145
 30
0.0
 11
-9.85014338886404
 21
2.539627075200144
 31
0.0
 11
-9.97612376606105
 21
2.531501770020156
 31
0.0
 11
-10.10210414325803
 21
2.523376464850144
 31
0.0
 11
-10.22808070575803
 21
2.515243530280145
 31
0.0
 11
-10.35406108295504
 21
2.507125854500145
 31
0.0
  0
SPLINE
  5
C101
330
1F
100
AcDbEntity
  8
AM_0
100
AcDbSpline
210
0.0
220
0.0
230
1.0
 70
     8
 71
     3
 72
    11
 73
     7
 74
     5
 42
0.0000000001
 43
0.0000000001
 44
0.0000000001
 40
0.0
 40
0.0
 40
0.0
 40
0.0
 40
0.3757981834725474
 40
0.7544251084097741
 40
1.13436553686348
 40
1.514706944509734
 40
1.514706944509734
 40
1.514706944509734
 40
1.514706944509734
 10
-6.179557756539054
 20
7.394546508790142
 30
0.0
 10
-6.139632402903735
 20
7.275726326877586
 30
0.0
 10
-6.059481165965078
 20
7.037191569225687
 30
0.0
 10
-5.977674630775103
 20
6.667477145267423
 30
0.0
 10
-5.916899962159805
 20
6.292434719273369
 30
0.0
 10
-5.897058542831824
 20
6.039681691392955
 30
0.0
 10
-5.887132600900059
 20
5.91323852539017
 30
0.0
 11
-6.179557756539054
 21
7.394546508790142
 31
0.0
 11
-6.066169695016071
 21
7.036262512210157
 31
0.0
 11
-5.981313661691075
 21
6.667266845710173
 31
0.0
 11
-5.922098116036067
 21
6.291969299320157
 31
0.0
 11
-5.887132600900059
 21
5.91323852539017
 31
0.0
  0
SPLINE
  5
C102
330
1F
100
AcDbEntity
  8
AM_0
100
AcDbSpline
210
0.0
220
0.0
230
1.0
 70
     8
 71
     3
 72
    11
 73
     7
 74
     5
 42
0.0000000001
 43
0.0000000001
 44
0.0000000001
 40
0.0
 40
0.0
 40
0.0
 40
0.0
 40
0.730017586030442
 40
1.46503808823304
 40
2.20425263074773
 40
2.946836751333181
 40
2.946836751333181
 40
2.946836751333181
 40
2.946836751333181
 10
-5.881759599801057
 20
5.809669494630156
 30
0.0
 10
-5.871195552305097
 20
5.566559702740244
 30
0.0
 10
-5.849995060366759
 20
5.078674052371438
 30
0.0
 10
-5.817401770594738
 20
4.34464635719037
 30
0.0
 10
-5.784155651415902
 20
3.606454828746873
 30
0.0
 10
-5.761473588491956
 20
3.113042986876837
 30
0.0
 10
-5.750106767770034
 20
2.865776062020159
 30
0.0
 11
-5.881759599801057
 21
5.809669494630156
 31
0.0
 11
-5.849952654000077
 21
5.080345153810156
 31
0.0
 11
-5.817386583444061
 21
4.346046447760159
 31
0.0
 11
-5.784091905709033
 21
3.607582092290158
 31
0.0
 11
-5.750106767770034
 21
2.865776062020159
 31
0.0
  0
SPLINE
  5
C103
330
1F
100
AcDbEntity
  8
AM_0
100
AcDbSpline
210
0.0
220
0.0
230
1.0
 70
     8
 71
     3
 72
    11
 73
     7
 74
     5
 42
0.0000000001
 43
0.0000000001
 44
0.0000000001
 40
0.0
 40
0.0
 40
0.0
 40
0.0
 40
0.1048236228514124
 40
0.2138372736223313
 40
0.3259694062013283
 40
0.4398363148369818
 40
0.4398363148369818
 40
0.4398363148369818
 40
0.4398363148369818
 10
-5.750106767770034
 20
2.865776062020159
 30
0.0
 10
-5.783214924071991
 20
2.854555867419465
 30
0.0
 10
-5.850754641605965
 20
2.831666982665638
 30
0.0
 10
-5.956546705543007
 20
2.806356580186601
 30
0.0
 10
-6.066625052168297
 20
2.786883544406424
 30
0.0
 10
-6.141721374470675
 20
2.780484106673592
 30
0.0
 10
-6.179557756539026
 20
2.777259826660156
 30
0.0
 11
-5.750106767770034
 21
2.865776062020159
 31
0.0
 11
-5.849878267404022
 21
2.833625793460157
 31
0.0
 11
-5.955751375314036
 21
2.807647705080171
 31
0.0
 11
-6.066261247750048
 21
2.788642883300155
 31
0.0
 11
-6.179557756539026
 21
2.777259826660156
 31
0.0
  0
SPLINE
  5
C104
330
1F
100
AcDbEntity
  8
AM_0
100
AcDbSpline
210
0.0
220
0.0
230
1.0
 70
     8
 71
     3
 72
    11
 73
     7
 74
     5
 42
0.0000000001
 43
0.0000000001
 44
0.0000000001
 40
0.0
 40
0.0
 40
0.0
 40
0.0
 40
0.1935051089773787
 40
0.3818149710536155
 40
0.5598546043152633
 40
0.7235768425967006
 40
0.7235768425967006
 40
0.7235768425967006
 40
0.7235768425967006
 10
-6.179557756539026
 20
-6.107269287109829
 30
0.0
 10
-6.115199523656807
 20
-6.102070400039265
 30
0.0
 10
-5.988210954957779
 20
-6.091812206202166
 30
0.0
 10
-5.805347907943144
 20
-6.052784522951934
 30
0.0
 10
-5.635946537284318
 20
-6.000468923402884
 30
0.0
 10
-5.533822405250274
 20
-5.949610906156675
 30
0.0
 10
-5.484899477120023
 20
-5.925247192379856
 30
0.0
 11
-6.179557756539026
 21
-6.107269287109829
 31
0.0
 11
-5.987068132516043
 21
-6.087471008299843
 31
0.0
 11
-5.802675203439036
 21
-6.04926300047984
 31
0.0
 11
-5.633296922799047
 21
-5.994407653799839
 31
0.0
 11
-5.484899477120023
 21
-5.925247192379856
 31
0.0
  0
SPLINE
  5
C105
330
1F
100
AcDbEntity
  8
AM_0
100
AcDbSpline
210
0.0
220
0.0
230
1.0
 70
     8
 71
     3
 72
    11
 73
     7
 74
     5
 42
0.0000000001
 43
0.0000000001
 44
0.0000000001
 40
0.0
 40
0.0
 40
0.0
 40
0.0
 40
0.195058233670406
 40
0.3811323097257927
 40
0.5502025991541074
 40
0.6969788306061185
 40
0.6969788306061185
 40
0.6969788306061185
 40
0.6969788306061185
 10
-6.179557756539054
 20
7.731170654300171
 30
0.0
 10
-6.114528565115859
 20
7.730848356933763
 30
0.0
 10
-5.987465351939214
 20
7.73021860684649
 30
0.0
 10
-5.804205875464574
 20
7.738591170192316
 30
0.0
 10
-5.637350306266521
 20
7.752296143980405
 30
0.0
 10
-5.533267522295181
 20
7.768329093183012
 30
0.0
 10
-5.484899477120052
 20
7.77577972413016
 30
0.0
 11
-6.179557756539054
 21
7.731170654300171
 31
0.0
 11
-5.98450084125605
 21
7.731887817390145
 31
0.0
 11
-5.798604921456075
 21
7.740028381350157
 31
0.0
 11
-5.630201295968078
 21
7.755027771000158
 31
0.0
 11
-5.484899477120052
 21
7.77577972413016
 31
0.0
  0
SPLINE
  5
C106
330
1F
100
AcDbEntity
  8
AM_0
100
AcDbSpline
210
0.0
220
0.0
230
1.0
 70
     8
 71
     3
 72
    11
 73
     7
 74
     5
 42
0.0000000001
 43
0.0000000001
 44
0.0000000001
 40
0.0
 40
0.0
 40
0.0
 40
0.0
 40
0.1968106454435614
 40
0.3853771262833808
 40
0.5590853973566876
 40
0.7147927271933234
 40
0.7147927271933234
 40
0.7147927271933234
 40
0.7147927271933234
 10
-10.35406108295504
 20
2.507125854500145
 30
0.0
 10
-10.41973725474415
 20
2.505137075840862
 30
0.0
 10
-10.54833850135019
 20
2.501242826102485
 30
0.0
 10
-10.73368983374568
 20
2.52551301244936
 30
0.0
 10
-10.90213910128943
 20
2.5673019800741
 30
0.0
 10
-11.00167356984759
 20
2.614215651124188
 30
0.0
 10
-11.04872126972304
 20
2.636390686040158
 30
0.0
 11
-10.35406108295504
 21
2.507125854500145
 31
0.0
 11
-10.55087085163202
 21
2.506538391120159
 31
0.0
 11
-10.73799510395105
 21
2.529815673830142
 31
0.0
 11
-10.90588183796003
 21
2.574409484870159
 31
0.0
 11
-11.04872126972304
 21
2.636390686040158
 31
0.0
  0
SPLINE
  5
C107
330
1F
100
AcDbEntity
  8
AM_0
100
AcDbSpline
210
0.0
220
0.0
230
1.0
 70
     8
 71
     3
 72
    11
 73
     7
 74
     5
 42
0.0000000001
 43
0.0000000001
 44
0.0000000001
 40
0.0
 40
0.0
 40
0.0
 40
0.0
 40
0.1586454180425023
 40
0.3325770516847987
 40
0.5177175655353903
 40
0.7089240559696022
 40
0.7089240559696022
 40
0.7089240559696022
 40
0.7089240559696022
 10
-11.04872126972304
 20
-6.216865539549843
 30
0.0
 10
-10.99938664020578
 20
-6.23615025248984
 30
0.0
 10
-10.8959637627394
 20
-6.276577849147273
 30
0.0
 10
-10.72612873749527
 20
-6.310801180571509
 30
0.0
 10
-10.54338941044295
 20
-6.330323488152012
 30
0.0
 10
-10.41784503526189
 20
-6.327251814597704
 30
0.0
 10
-10.35406108295504
 20
-6.325691223139841
 30
0.0
 11
-11.04872126972304
 21
-6.216865539549843
 31
0.0
 11
-10.89942546283802
 21
-6.270523071289858
 31
0.0
 11
-10.72946544086602
 21
-6.307479858389854
 31
0.0
 11
-10.54526706134902
 21
-6.32613372801984
 31
0.0
 11
-10.35406108295504
 21
-6.325691223139841
 31
0.0
  0
SPLINE
  5
C108
330
1F
100
AcDbEntity
  8
AM_0
100
AcDbSpline
210
0.0
220
0.0
230
1.0
 70
     8
 71
     3
 72
    11
 73
     7
 74
     5
 42
0.0000000001
 43
0.0000000001
 44
0.0000000001
 40
0.0
 40
0.0
 40
0.0
 40
0.0
 40
0.5576569540719127
 40
1.114640182634277
 40
1.671523940713672
 40
2.228824572406914
 40
2.228824572406914
 40
2.228824572406914
 40
2.228824572406914
 10
-9.85014338886404
 20
2.539627075200144
 30
0.0
 10
-9.687482863200871
 20
2.446633973670047
 30
0.0
 10
-9.362358327931112
 20
2.26076011893485
 30
0.0
 10
-8.793423772844359
 20
2.193078394091499
 30
0.0
 10
-8.238769307068686
 20
2.334862914928808
 30
0.0
 10
-7.939887025357794
 20
2.560119896473772
 30
0.0
 10
-7.790389970895034
 20
2.672790527350173
 30
0.0
 11
-9.85014338886404
 21
2.539627075200144
 31
0.0
 11
-9.348579362985049
 21
2.295875549320157
 31
0.0
 11
-8.795749620553038
 21
2.227981567390145
 31
0.0
 11
-8.256622270700034
 21
2.367485046390157
 31
0.0
 11
-7.790389970895034
 21
2.672790527350173
 31
0.0
  0
ELLIPSE
  5
C109
330
1F
100
AcDbEntity
  8
AM_0
100
AcDbEllipse
 10
-10.55460353290706
 20
9.661598205570157
 30
0.0
 11
-2.999408604180998
 21
0.0595172505799949
 31
0.0
210
0.0
220
0.0
230
1.0
 40
0.2584636436983
 41
5.755982172722902
 42
6.07763038288576
  0
ELLIPSE
  5
C10A
330
1F
100
AcDbEntity
  8
AM_0
100
AcDbEllipse
 10
-15.49983020221807
 20
14.67156982421812
 30
0.0
 11
0.0174523749779934
 21
2.999950427452006
 31
0.0
210
0.0
220
0.0
230
1.0
 40
0.2079114286457
 41
3.141592233108787
 42
3.733020970642559
  0
ELLIPSE
  5
C10B
330
1F
100
AcDbEntity
  8
AM_0
100
AcDbEllipse
 10
-15.21159930622206
 20
14.66989135742113
 30
0.0
 11
0.0174523527859923
 21
2.999946612819002
 31
0.0
210
0.0
220
0.0
230
1.0
 40
0.0354378955417
 41
3.141590186659821
 42
3.725602591083514
  0
ELLIPSE
  5
C10C
330
1F
100
AcDbEntity
  8
AM_0
100
AcDbEllipse
 10
-15.16296191608506
 20
12.66957092286014
 30
0.0
 11
0.0145436414229949
 21
2.499957934554998
 31
0.0
210
0.0
220
0.0
230
1.0
 40
0.034899726162
 41
3.141590148618658
 42
4.712389066226977
  0
ELLIPSE
  5
C10D
330
1F
100
AcDbEntity
  8
AM_0
100
AcDbEllipse
 10
-8.988956407662016
 20
-24.51586914061985
 30
0.0
 11
2.999882619965997
 21
0.2574920671399982
 31
0.0
210
0.0
220
0.0
230
0.9999999999999998
 40
0.8113974653734999
 41
0.4101263835126544
 42
2.334880395698752
  0
ELLIPSE
  5
C10E
330
1F
100
AcDbEntity
  8
AM_0
100
AcDbEllipse
 10
-19.57561583911999
 20
-25.37016296385985
 30
0.0
 11
14.97227773617999
 21
0.9138565120200336
 31
0.0
210
0.0
220
0.0
230
1.0
 40
0.5072755129003001
 41
1.545755730382189
 42
2.262923341049621
  0
ELLIPSE
  5
C10F
330
1F
100
AcDbEntity
  8
AM_0
100
AcDbEllipse
 10
-19.5756148854461
 20
24.44528198242113
 30
0.0
 11
0.0886061700489692
 21
15.231139900637
 31
0.0
210
0.0
220
0.0
230
1.0
 40
0.9834583055908
 41
2.424434561553032
 42
3.141592742483044
  0
ELLIPSE
  5
C110
330
1F
100
AcDbEntity
  8
AM_0
100
AcDbEllipse
 10
-15.98092265522103
 20
0.0000000000001421
 30
0.0
 11
3.73940932391096
 21
20.392349552038
 31
0.0
210
0.0
220
0.0
230
1.0
 40
0.107739052352
 41
4.331883508784077
 42
4.380840244248933
  0
ELLIPSE
  5
C111
330
1F
100
AcDbEntity
  8
AM_0
100
AcDbEllipse
 10
-15.35982127582605
 20
0.0000000000001421
 30
0.0
 11
0.55780135437796
 21
20.396319934529
 31
0.0
210
0.0
220
0.0
230
0.9999999999999998
 40
0.0224822968127
 41
4.361469432189583
 42
4.489427047733636
  0
ELLIPSE
  5
C112
330
1F
100
AcDbEntity
  8
AM_0
100
AcDbEllipse
 10
-15.98092265522103
 20
-0.0000762939398555
 30
0.0
 11
0.1242836123549603
 21
20.396382288276
 31
0.0
210
0.0
220
0.0
230
1.0
 40
0.2125522862502
 41
6.149324308246405
 42
6.161002980956594
  0
ELLIPSE
  5
C113
330
1F
100
AcDbEntity
  8
AM_0
100
AcDbEllipse
 10
-8.988956407662072
 20
7.504898071290142
 30
0.0
 11
-3.007143918056002
 21
0.0315743369099917
 31
0.0
210
0.0
220
0.0
230
1.0
 40
0.1841026621248
 41
3.623852527639563
 42
5.548872717290173
  0
ELLIPSE
  5
C114
330
1F
100
AcDbEntity
  8
AM_0
100
AcDbEllipse
 10
-11.06023021137303
 20
-1.093811035149855
 30
0.0
 11
-1.133422986134046
 21
23.44773886345798
 31
0.0
210
0.0
220
0.0
230
0.9999999999999998
 40
0.0210980375775
 41
1.328451089598891
 42
1.393751075150758
  0
ELLIPSE
  5
C115
330
1F
100
AcDbEntity
  8
AM_0
100
AcDbEllipse
 10
-8.757017091867055
 20
3.67275238038016
 30
0.0
 11
2.994520103439998
 21
0.1812438967000022
 31
0.0
210
0.0
220
0.0
230
1.0
 40
0.4995799064636001
 41
0.1382086390853774
 42
3.117205770773901
  0
ELLIPSE
  5
C116
330
1F
100
AcDbEntity
  8
AM_0
100
AcDbEllipse
 10
-124.307327226753
 20
-0.0000152587900857
 30
0.0
 11
453.077339314943
 21
20.5738685745919
 31
0.0
210
0.0
220
0.0
230
1.0
 40
0.0261633448365
 41
4.965445585059232
 42
4.97497658443952
  0
ELLIPSE
  5
C117
330
1F
100
AcDbEntity
  8
AM_0
100
AcDbEllipse
 10
-8.907682375070066
 20
3.740524292000145
 30
0.0
 11
2.495433735725
 21
0.1510353028199965
 31
0.0
210
0.0
220
0.0
230
0.9999999999999998
 40
0.4995773315833
 41
5.146173682014831
 42
6.283185307179586
  0
ELLIPSE
  5
C118
330
1F
100
AcDbEntity
  8
AM_0
100
AcDbEllipse
 10
-8.907682375070066
 20
3.740524292000145
 30
0.0
 11
2.495433735725
 21
0.1510353028199965
 31
0.0
210
0.0
220
0.0
230
0.9999999999999998
 40
0.4995773315833
 41
0.0
 42
3.141592828583334
  0
ELLIPSE
  5
C119
330
1F
100
AcDbEntity
  8
AM_0
100
AcDbEllipse
 10
-8.907682375070066
 20
3.740524292000145
 30
0.0
 11
2.495433735725
 21
0.1510353028199965
 31
0.0
210
0.0
220
0.0
230
0.9999999999999998
 40
0.4995773315833
 41
3.141592478596251
 42
4.295075538373632
  0
ARC
  5
C15E
330
1F
100
AcDbEntity
  8
AM_0
100
AcDbCircle
 10
-7.998159364816075
 20
16.91020202636716
 30
0.0
 40
3.9000000953674
100
AcDbArc
 50
89.66666878241106
 51
269.6666601309897
  0
ARC
  5
C15F
330
1F
100
AcDbEntity
  8
AM_0
100
AcDbCircle
 10
-7.998159364816075
 20
16.91020202636716
 30
0.0
 40
3.9000000953674
100
AcDbArc
 50
269.6666706036496
 51
359.6666674785541
  0
LINE
  5
C160
330
1F
100
AcDbEntity
  8
AM_0
100
AcDbLine
 10
-15.99631686603606
 20
15.36540985107413
 30
0.0
 11
-15.97780223285809
 21
18.54795074462813
 31
0.0
  0
LINE
  5
C161
330
1F
100
AcDbEntity
  8
AM_0
100
AcDbLine
 10
0.0000000437539143
 20
18.45500183105417
 30
0.0
 11
-0.0185126820760786
 21
15.27245330810518
 31
0.0
  0
LINE
  5
C163
330
1F
100
AcDbEntity
  8
AM_0
100
AcDbLine
 10
-0.2647361317830246
 20
-6.800247192379828
 30
0.0
 11
-0.0185164967740264
 21
-7.636222839349841
 31
0.0
  0
LINE
  5
C164
330
1F
100
AcDbEntity
  8
AM_0
100
AcDbLine
 10
-0.2647361317830246
 20
-6.800247192379828
 30
0.0
 11
-0.2466697255330246
 21
-8.352859497069829
 31
0.0
  0
LINE
  5
C165
330
1F
100
AcDbEntity
  8
AM_0
100
AcDbLine
 10
-0.2466697255330246
 20
-8.352859497069829
 30
0.0
 11
-2.001743272897044
 21
-4.05025482176984
 31
0.0
  0
LINE
  5
C166
330
1F
100
AcDbEntity
  8
AM_0
100
AcDbLine
 10
-14.63287539875102
 20
-10.48287963866985
 30
0.0
 11
-14.42891688739902
 21
-4.911697387689855
 31
0.0
  0
LINE
  5
C167
330
1F
100
AcDbEntity
  8
AM_0
100
AcDbLine
 10
-2.214723543283042
 20
-4.321800231929842
 30
0.0
 11
-1.416665987130045
 21
-9.844596862789842
 31
0.0
  0
LINE
  5
C168
330
1F
100
AcDbEntity
  8
AM_0
100
AcDbLine
 10
-11.13789554035304
 20
-6.391906738279857
 30
0.0
 11
-12.42739100849201
 21
-11.47484588622984
 31
0.0
  0
LINE
  5
C169
330
1F
100
AcDbEntity
  8
AM_0
100
AcDbLine
 10
-9.555562929269001
 20
-11.93063354491985
 30
0.0
 11
-10.61512370502603
 21
-6.474868774409856
 31
0.0
  0
LINE
  5
C16A
330
1F
100
AcDbEntity
  8
AM_0
100
AcDbLine
 10
-3.596601442451998
 20
-11.04835510253983
 30
0.0
 11
-5.467620805856029
 21
-6.118049621579842
 31
0.0
  0
LINE
  5
C16B
330
1F
100
AcDbEntity
  8
AM_0
100
AcDbLine
 10
-5.987873033639033
 20
-6.251396179199844
 30
0.0
 11
-6.454601244087996
 21
-11.78086853026985
 31
0.0
  0
LINE
  5
C16C
330
1F
100
AcDbEntity
  8
AM_0
100
AcDbLine
 10
-14.74445910846802
 20
-11.41057586669987
 30
0.0
 11
-12.48405261432699
 21
-12.42723846434984
 31
0.0
  0
LINE
  5
C16D
330
1F
100
AcDbEntity
  8
AM_0
100
AcDbLine
 10
-12.427387193795
 20
-11.47484588622984
 30
0.0
 11
-14.63287539875102
 21
-10.48288726805987
 31
0.0
  0
LINE
  5
C16E
330
1F
100
AcDbEntity
  8
AM_0
100
AcDbLine
 10
-2.399999574777012
 20
-16.92079162596982
 30
0.0
 11
-19.66422744190299
 21
-17.75459289549985
 31
0.0
  0
LINE
  5
C16F
330
1F
100
AcDbEntity
  8
AM_0
100
AcDbLine
 10
-15.99631686603603
 20
-8.407897949209854
 30
0.0
 11
-15.97780223285804
 21
-9.999168395989869
 31
0.0
  0
LINE
  5
C170
330
1F
100
AcDbEntity
  8
AM_0
100
AcDbLine
 10
-15.92410273945003
 20
-7.973236083979855
 30
0.0
 11
-15.99631495868803
 21
-8.40789031981987
 31
0.0
  0
LINE
  5
C171
330
1F
100
AcDbEntity
  8
AM_0
100
AcDbLine
 10
-15.83625216877104
 20
-9.105773925779857
 30
0.0
 11
-15.84947009479603
 21
-7.969619750969854
 31
0.0
  0
LINE
  5
C172
330
1F
100
AcDbEntity
  8
AM_0
100
AcDbLine
 10
-15.97780604755502
 20
-9.999168395989869
 30
0.0
 11
-14.744462923165
 21
-11.41056823729985
 31
0.0
  0
LINE
  5
C173
330
1F
100
AcDbEntity
  8
AM_0
100
AcDbLine
 10
-15.52834124958104
 20
-7.954040527339856
 30
0.0
 11
-15.83625216877104
 21
-9.105773925779857
 31
0.0
  0
LINE
  5
C174
330
1F
100
AcDbEntity
  8
AM_0
100
AcDbLine
 10
-15.83625407611902
 20
-9.105773925779857
 30
0.0
 11
-15.97780223285804
 21
-9.999160766599857
 31
0.0
  0
LINE
  5
C175
330
1F
100
AcDbEntity
  8
AM_0
100
AcDbLine
 10
-14.74445720111899
 20
-11.41056823729985
 30
0.0
 11
-14.63287539875102
 21
-10.48288726805987
 31
0.0
  0
LINE
  5
C176
330
1F
100
AcDbEntity
  8
AM_0
100
AcDbLine
 10
-2.399999574777012
 20
-19.97840881346982
 30
0.0
 11
-2.399999574777012
 21
-16.92080688475982
 31
0.0
  0
LINE
  5
C177
330
1F
100
AcDbEntity
  8
AM_0
100
AcDbLine
 10
-6.362525896188003
 20
-12.74088287352984
 30
0.0
 11
-3.433353380319005
 21
-11.99011993407984
 31
0.0
  0
LINE
  5
C178
330
1F
100
AcDbEntity
  8
AM_0
100
AcDbLine
 10
-9.540708498116998
 20
-12.89437866210985
 30
0.0
 11
-6.362525896188003
 21
-12.74088287352984
 31
0.0
  0
LINE
  5
C179
330
1F
100
AcDbEntity
  8
AM_0
100
AcDbLine
 10
-6.454601244087996
 20
-11.78087615965984
 30
0.0
 11
-9.555561021919999
 21
-11.93064117430984
 31
0.0
  0
LINE
  5
C17A
330
1F
100
AcDbEntity
  8
AM_0
100
AcDbLine
 10
-12.427389101144
 20
-11.47484588622984
 30
0.0
 11
-12.48405070697899
 21
-12.42723083495985
 31
0.0
  0
LINE
  5
C17B
330
1F
100
AcDbEntity
  8
AM_0
100
AcDbLine
 10
-12.48405261432699
 20
-12.42723846434984
 30
0.0
 11
-9.540708498116998
 21
-12.89437866210985
 31
0.0
  0
LINE
  5
C17C
330
1F
100
AcDbEntity
  8
AM_0
100
AcDbLine
 10
-9.555562929269001
 20
-11.93063354491985
 30
0.0
 11
-9.540708498116998
 21
-12.89437103270984
 31
0.0
  0
LINE
  5
C17D
330
1F
100
AcDbEntity
  8
AM_0
100
AcDbLine
 10
-6.454603151436998
 20
-11.78086853026985
 30
0.0
 11
-6.362525896188003
 21
-12.74088287352984
 31
0.0
  0
LINE
  5
C17E
330
1F
100
AcDbEntity
  8
AM_0
100
AcDbLine
 10
-0.2466735402310292
 20
-10.06491088866982
 30
0.0
 11
-2.001747087593997
 21
-15.14193725585982
 31
0.0
  0
LINE
  5
C17F
330
1F
100
AcDbEntity
  8
AM_0
100
AcDbLine
 10
-2.001743272897016
 20
-15.14195251463982
 30
0.0
 11
-2.028699831124015
 21
-12.82514190672984
 31
0.0
  0
LINE
  5
C180
330
1F
100
AcDbEntity
  8
AM_0
100
AcDbLine
 10
-2.399999574777012
 20
-12.93707275389982
 30
0.0
 11
-2.399999574777012
 21
-16.04896545409983
 31
0.0
  0
LINE
  5
C181
330
1F
100
AcDbEntity
  8
AM_0
100
AcDbLine
 10
-2.730869249459004
 20
-12.51972961424982
 30
0.0
 11
-2.730869249459004
 21
-15.33331298827983
 31
0.0
  0
LINE
  5
C182
330
1F
100
AcDbEntity
  8
AM_0
100
AcDbLine
 10
-2.399999574777012
 20
-15.47927856444982
 30
0.0
 11
-2.214721635934012
 21
-15.39389038085983
 31
0.0
  0
LINE
  5
C183
330
1F
100
AcDbEntity
  8
AM_0
100
AcDbLine
 10
-2.214717821237002
 20
-15.39387512206983
 30
0.0
 11
-2.001741365548014
 21
-15.14195251463982
 31
0.0
  0
LINE
  5
C184
330
1F
100
AcDbEntity
  8
AM_0
100
AcDbLine
 10
-2.399999574777012
 20
-16.92080688475982
 30
0.0
 11
-2.399999574777012
 21
-16.09873962401982
 31
0.0
  0
LINE
  5
C185
330
1F
100
AcDbEntity
  8
AM_0
100
AcDbLine
 10
-3.433353380319005
 20
-11.99011230467982
 30
0.0
 11
-1.199132875558007
 21
-10.75637817381982
 31
0.0
  0
LINE
  5
C186
330
1F
100
AcDbEntity
  8
AM_0
100
AcDbLine
 10
-1.416665987130045
 20
-9.844596862789842
 30
0.0
 11
-1.199130968209004
 21
-10.75639343260982
 31
0.0
  0
LINE
  5
C187
330
1F
100
AcDbEntity
  8
AM_0
100
AcDbLine
 10
-2.028699831124015
 20
-12.82514953612982
 30
0.0
 11
-1.164522127267048
 21
-10.71225738524984
 31
0.0
  0
LINE
  5
C188
330
1F
100
AcDbEntity
  8
AM_0
100
AcDbLine
 10
-1.416667894479019
 20
-9.844589233389825
 30
0.0
 11
-3.596603349801
 21
-11.04834747313984
 31
0.0
  0
LINE
  5
C189
330
1F
100
AcDbEntity
  8
AM_0
100
AcDbLine
 10
-3.596601442451998
 20
-11.04834747313984
 30
0.0
 11
-3.433353380319005
 21
-11.99011993407984
 31
0.0
  0
LINE
  5
C18A
330
1F
100
AcDbEntity
  8
AM_0
100
AcDbLine
 10
-2.061227754707999
 20
-11.23242950438984
 30
0.0
 11
-2.247756914254011
 21
-12.55484771727984
 31
0.0
  0
LINE
  5
C18B
330
1F
100
AcDbEntity
  8
AM_0
100
AcDbLine
 10
-2.028701738473017
 20
-12.82514190672984
 30
0.0
 11
-2.247756914254011
 21
-12.55485534667982
 31
0.0
  0
LINE
  5
C18C
330
1F
100
AcDbEntity
  8
AM_0
100
AcDbLine
 10
-2.247756914254011
 20
-12.55485534667982
 30
0.0
 11
-3.364217714424995
 21
-11.95195007323982
 31
0.0
  0
LINE
  5
C18D
330
1F
100
AcDbEntity
  8
AM_0
100
AcDbLine
 10
0.0000000437539711
 20
-9.22750091551984
 30
0.0
 11
-0.0185164967740264
 21
-7.636230468749829
 31
0.0
  0
LINE
  5
C18E
330
1F
100
AcDbEntity
  8
AM_0
100
AcDbLine
 10
-1.199130968209004
 20
-10.75638580321984
 30
0.0
 11
0.0000000437539711
 21
-9.22750091551984
 31
0.0
  0
LINE
  5
C18F
330
1F
100
AcDbEntity
  8
AM_0
100
AcDbLine
 10
-0.2466697255330246
 20
-8.352859497069829
 30
0.0
 11
0.0000000437539711
 21
-9.22750091551984
 31
0.0
  0
LINE
  5
C190
330
1F
100
AcDbEntity
  8
AM_0
100
AcDbLine
 10
-0.2466735402310292
 20
-10.06491851805984
 30
0.0
 11
0.0000000437539711
 21
-9.227493286129828
 31
0.0
  0
LINE
  5
C191
330
1F
100
AcDbEntity
  8
AM_0
100
AcDbLine
 10
-0.2526664296350418
 20
-9.549644470209841
 30
0.0
 11
-0.2466697255330246
 21
-10.06491088866982
 31
0.0
  0
LINE
  5
C192
330
1F
100
AcDbEntity
  8
AM_0
100
AcDbLine
 10
-14.42891688739902
 20
-4.911697387689855
 30
0.0
 11
-11.13789744770105
 21
-6.39189910887984
 31
0.0
  0
LINE
  5
C193
330
1F
100
AcDbEntity
  8
AM_0
100
AcDbLine
 10
-13.48817248737407
 20
10.10513305664014
 30
0.0
 11
-15.04071612751107
 21
10.11415863038013
 31
0.0
  0
LINE
  5
C194
330
1F
100
AcDbEntity
  8
AM_0
100
AcDbLine
 10
-2.399999574777069
 20
9.113700866700156
 30
0.0
 11
-19.66422648822907
 21
9.214141845710116
 31
0.0
  0
LINE
  5
C195
330
1F
100
AcDbEntity
  8
AM_0
100
AcDbLine
 10
-12.56296344196405
 20
10.15457916260015
 30
0.0
 11
-14.79718203937605
 21
12.41804504395014
 31
0.0
  0
LINE
  5
C196
330
1F
100
AcDbEntity
  8
AM_0
100
AcDbLine
 10
-14.62916942035803
 20
-4.539817810049868
 30
0.0
 11
-14.62916942035806
 21
8.550941467290158
 31
0.0
  0
LINE
  5
C197
330
1F
100
AcDbEntity
  8
AM_0
100
AcDbLine
 10
-13.93451304828704
 20
-4.711196899409856
 30
0.0
 11
-13.93451304828707
 21
8.480522155770131
 31
0.0
  0
LINE
  5
C198
330
1F
100
AcDbEntity
  8
AM_0
100
AcDbLine
 10
-14.64797397052902
 20
-4.661018371579871
 30
0.0
 11
-15.09696956073904
 21
-6.340492248529869
 31
0.0
  0
LINE
  5
C199
330
1F
100
AcDbEntity
  8
AM_0
100
AcDbLine
 10
-14.64797015583104
 20
-4.661018371579871
 30
0.0
 11
-14.42891688739902
 21
-4.911697387689855
 31
0.0
  0
LINE
  5
C19A
330
1F
100
AcDbEntity
  8
AM_0
100
AcDbLine
 10
-14.64939113056303
 20
-4.53910064696987
 30
0.0
 11
-14.64797397052902
 21
-4.661018371579871
 31
0.0
  0
LINE
  5
C19B
330
1F
100
AcDbEntity
  8
AM_0
100
AcDbLine
 10
-15.04090114032806
 20
10.16882324219014
 30
0.0
 11
-15.04071422016207
 21
10.11416625977014
 31
0.0
  0
LINE
  5
C19C
330
1F
100
AcDbEntity
  8
AM_0
100
AcDbLine
 10
-19.49472995197405
 20
8.630668640140129
 30
0.0
 11
-19.66422458088007
 21
9.214141845710116
 31
0.0
  0
LINE
  5
C19D
330
1F
100
AcDbEntity
  8
AM_0
100
AcDbLine
 10
-14.89889331257006
 20
12.66804504395014
 30
0.0
 11
-15.07571406757506
 21
12.66907501221015
 31
0.0
  0
LINE
  5
C19E
330
1F
100
AcDbEntity
  8
AM_0
100
AcDbLine
 10
-15.16028399860505
 20
13.31050872803013
 30
0.0
 11
-15.16687198078307
 21
12.17816925049015
 31
0.0
  0
LINE
  5
C19F
330
1F
100
AcDbEntity
  8
AM_0
100
AcDbLine
 10
-15.22905154621204
 20
11.66994476319013
 30
0.0
 11
-15.25679965412206
 21
11.67010498047014
 31
0.0
  0
LINE
  5
C1A0
330
1F
100
AcDbEntity
  8
AM_0
100
AcDbLine
 10
-15.07571597492307
 20
12.66906738282014
 30
0.0
 11
-15.07322879230605
 21
13.09653472901016
 31
0.0
  0
LINE
  5
C1A1
330
1F
100
AcDbEntity
  8
AM_0
100
AcDbLine
 10
-15.04090114032806
 20
10.16882324219014
 30
0.0
 11
-15.27478976642706
 21
10.17018127442014
 31
0.0
  0
LINE
  5
C1A2
330
1F
100
AcDbEntity
  8
AM_0
100
AcDbLine
 10
-15.25679965412206
 20
11.67009735108013
 30
0.0
 11
-15.27479167377606
 21
10.17018890381012
 31
0.0
  0
LINE
  5
C1A3
330
1F
100
AcDbEntity
  8
AM_0
100
AcDbLine
 10
-15.70417781269205
 20
11.67270660401013
 30
0.0
 11
-15.25679774677405
 21
11.67009735108013
 31
0.0
  0
LINE
  5
C1A4
330
1F
100
AcDbEntity
  8
AM_0
100
AcDbLine
 10
-15.58659739887306
 20
14.35835266113213
 30
0.0
 11
-15.70417781269205
 21
11.67270660401013
 31
0.0
  0
LINE
  5
C1A5
330
1F
100
AcDbEntity
  8
AM_0
100
AcDbLine
 10
-14.79718585407406
 20
12.41804504395014
 30
0.0
 11
-15.99631877338507
 21
15.36540985107413
 31
0.0
  0
LINE
  5
C1A6
330
1F
100
AcDbEntity
  8
AM_0
100
AcDbLine
 10
-2.399999574777041
 20
-3.980972290039829
 30
0.0
 11
-2.399999574777069
 21
8.421600341800171
 31
0.0
  0
LINE
  5
C1A7
330
1F
100
AcDbEntity
  8
AM_0
100
AcDbLine
 10
-11.81293483173507
 20
4.520721435550143
 30
0.0
 11
-11.75285525715003
 21
3.528068542480127
 31
0.0
  0
LINE
  5
C1A8
330
1F
100
AcDbEntity
  8
AM_0
100
AcDbLine
 10
-2.705341295358039
 20
-4.376304626459841
 30
0.0
 11
-2.705341295358067
 21
8.275886535650158
 31
0.0
  0
LINE
  5
C1A9
330
1F
100
AcDbEntity
  8
AM_0
100
AcDbLine
 10
-5.484899477120023
 20
-5.925247192379856
 30
0.0
 11
-5.484899477120052
 21
7.77577972413016
 31
0.0
  0
LINE
  5
C1AA
330
1F
100
AcDbEntity
  8
AM_0
100
AcDbLine
 10
-5.467622713204036
 20
-6.118049621579842
 30
0.0
 11
-2.214723543283042
 21
-4.321800231929842
 31
0.0
  0
LINE
  5
C1AB
330
1F
100
AcDbEntity
  8
AM_0
100
AcDbLine
 10
-6.179557756539026
 20
-6.107269287109829
 30
0.0
 11
-6.179557756539026
 21
2.777259826660156
 31
0.0
  0
LINE
  5
C1AC
330
1F
100
AcDbEntity
  8
AM_0
100
AcDbLine
 10
-10.35406108295504
 20
-6.325691223139841
 30
0.0
 11
-10.35406108295504
 21
2.507125854500145
 31
0.0
  0
LINE
  5
C1AD
330
1F
100
AcDbEntity
  8
AM_0
100
AcDbLine
 10
-11.04872126972304
 20
-6.216865539549843
 30
0.0
 11
-11.04872126972304
 21
2.636390686040158
 31
0.0
  0
LINE
  5
C1AE
330
1F
100
AcDbEntity
  8
AM_0
100
AcDbLine
 10
-10.61512370502603
 20
-6.474868774409856
 30
0.0
 11
-5.987876848336043
 21
-6.251396179199844
 31
0.0
  0
LINE
  5
C1AF
330
1F
100
AcDbEntity
  8
AM_0
100
AcDbLine
 10
-11.04871936237404
 20
-6.216873168939855
 30
0.0
 11
-11.53551478778902
 21
-5.999114990229855
 31
0.0
  0
LINE
  5
C1B0
330
1F
100
AcDbEntity
  8
AM_0
100
AcDbLine
 10
-11.13789554035304
 20
-6.39189910887984
 30
0.0
 11
-10.61512179767703
 21
-6.474868774409856
 31
0.0
  0
LINE
  5
C1B1
330
1F
100
AcDbEntity
  8
AM_0
100
AcDbLine
 10
-5.987874940988035
 20
-6.251396179199844
 30
0.0
 11
-5.467620805856029
 21
-6.118049621579842
 31
0.0
  0
LINE
  5
C1B2
330
1F
100
AcDbEntity
  8
AM_0
100
AcDbLine
 10
-11.74687190448904
 20
3.013420104980127
 30
0.0
 11
-11.04871936237404
 21
2.636383056640141
 31
0.0
  0
LINE
  5
C1B3
330
1F
100
AcDbEntity
  8
AM_0
100
AcDbLine
 10
-11.75285525715003
 20
3.528068542480127
 30
0.0
 11
-11.74686808979103
 21
3.013427734380144
 31
0.0
  0
LINE
  5
C1B4
330
1F
100
AcDbEntity
  8
AM_0
100
AcDbLine
 10
-2.247755006906032
 20
-1.482772827139825
 30
0.0
 11
-2.399995760079036
 21
-1.414299011229843
 31
0.0
  0
LINE
  5
C1B5
330
1F
100
AcDbEntity
  8
AM_0
100
AcDbLine
 10
-2.028701738473046
 20
-1.733451843259842
 30
0.0
 11
-0.2647361317830246
 21
-6.800247192379828
 31
0.0
  0
LINE
  5
C1B6
330
1F
100
AcDbEntity
  8
AM_0
100
AcDbLine
 10
-2.214725450631021
 20
-4.321800231929842
 30
0.0
 11
-2.001745180245023
 21
-4.05025482176984
 31
0.0
  0
LINE
  5
C1B7
330
1F
100
AcDbEntity
  8
AM_0
100
AcDbLine
 10
-2.001743272897044
 20
-4.05025482176984
 30
0.0
 11
-2.028701738473046
 21
-1.733459472649826
 31
0.0
  0
LINE
  5
C1B8
330
1F
100
AcDbEntity
  8
AM_0
100
AcDbLine
 10
-2.028701738473046
 20
-1.733451843259842
 30
0.0
 11
-2.247755006906032
 21
-1.482772827139825
 31
0.0
  0
LINE
  5
C1B9
330
1F
100
AcDbEntity
  8
AM_0
100
AcDbLine
 10
-3.512266115304072
 20
10.10192108155016
 30
0.0
 11
-5.884796098825063
 21
9.133979797370159
 31
0.0
  0
LINE
  5
C1BA
330
1F
100
AcDbEntity
  8
AM_0
100
AcDbLine
 10
-12.80445666706205
 20
10.10115051270014
 30
0.0
 11
-12.80273433124605
 21
10.39748382569013
 31
0.0
  0
LINE
  5
C1BB
330
1F
100
AcDbEntity
  8
AM_0
100
AcDbLine
 10
-10.20185656940606
 20
9.159095764160156
 30
0.0
 11
-12.56296344196405
 21
10.15457916260015
 31
0.0
  0
LINE
  5
C1BC
330
1F
100
AcDbEntity
  8
AM_0
100
AcDbLine
 10
-13.48817248737407
 20
10.10512542725013
 30
0.0
 11
-13.13894458210106
 21
10.10309600830015
 31
0.0
  0
LINE
  5
C1BD
330
1F
100
AcDbEntity
  8
AM_0
100
AcDbLine
 10
-13.13894458210106
 20
10.10309600830015
 30
0.0
 11
-12.43109889423507
 21
10.09898376465014
 31
0.0
  0
LINE
  5
C1BE
330
1F
100
AcDbEntity
  8
AM_0
100
AcDbLine
 10
-10.58185954486904
 20
9.319305419930145
 30
0.0
 11
-13.48554988300406
 21
9.336196899420144
 31
0.0
  0
LINE
  5
C1BF
330
1F
100
AcDbEntity
  8
AM_0
100
AcDbLine
 10
-13.48554988300406
 20
9.336204528810128
 30
0.0
 11
-13.48817058002606
 21
10.10513305664014
 31
0.0
  0
LINE
  5
C1C0
330
1F
100
AcDbEntity
  8
AM_0
100
AcDbLine
 10
-5.887134508248067
 20
5.91323852539017
 30
0.0
 11
-5.881759599801057
 21
5.809669494630156
 31
0.0
  0
LINE
  5
C1C1
330
1F
100
AcDbEntity
  8
AM_0
100
AcDbLine
 10
-6.179557756539054
 20
7.394546508790142
 30
0.0
 11
-6.179557756539054
 21
7.731170654300171
 31
0.0
  0
LINE
  5
C1C2
330
1F
100
AcDbEntity
  8
AM_0
100
AcDbLine
 10
-2.399999574777069
 20
11.20282745362015
 30
0.0
 11
-2.399999574777069
 21
9.113700866700156
 31
0.0
  0
LINE
  5
C1C3
330
1F
100
AcDbEntity
  8
AM_0
100
AcDbLine
 10
-2.730869249459061
 20
10.87533569336017
 30
0.0
 11
-2.730869249459061
 21
9.115631103520172
 31
0.0
  0
LINE
  5
C1C4
330
1F
100
AcDbEntity
  8
AM_0
100
AcDbLine
 10
-1.251855806466068
 20
12.33924102784015
 30
0.0
 11
-3.51226420795507
 21
10.10192108155016
 31
0.0
  0
LINE
  5
C1C5
330
1F
100
AcDbEntity
  8
AM_0
100
AcDbLine
 10
-2.399999574777069
 20
8.421600341800171
 30
0.0
 11
-2.399999574777069
 21
9.113700866700156
 31
0.0
  0
LINE
  5
C1C6
330
1F
100
AcDbEntity
  8
AM_0
100
AcDbLine
 10
-0.0185164967740548
 20
15.27245330810518
 30
0.0
 11
-1.25185771381507
 21
12.33924865723017
 31
0.0
  0
LINE
  5
C1C7
330
1F
100
AcDbEntity
  8
AM_0
100
AcDbLine
 10
-14.74445529377109
 20
21.48117065429613
 30
0.0
 11
-12.4840487996301
 21
23.71849060058514
 31
0.0
  0
LINE
  5
C1C8
330
1F
100
AcDbEntity
  8
AM_0
100
AcDbLine
 10
-15.32905002033308
 20
20.24095916748013
 30
0.0
 11
-15.33638568317508
 21
20.07341003417914
 31
0.0
  0
LINE
  5
C1C9
330
1F
100
AcDbEntity
  8
AM_0
100
AcDbLine
 10
-15.9778041402061
 20
18.54795837402312
 30
0.0
 11
-14.7444591084681
 21
21.48117065429613
 31
0.0
  0
ARC
  5
C1CA
330
1F
100
AcDbEntity
  8
AM_0
100
AcDbCircle
 10
-7.998159364816075
 20
16.91020202636716
 30
0.0
 40
3.894654989242599
100
AcDbArc
 50
359.6666674785541
 51
89.66666878241106
  0
LINE
  5
C1CB
330
1F
100
AcDbEntity
  8
AM_0
100
AcDbLine
 10
-6.362523988839086
 20
24.90082550048816
 30
0.0
 11
-3.43335338031909
 21
23.66583251953116
 31
0.0
  0
LINE
  5
C1CC
330
1F
100
AcDbEntity
  8
AM_0
100
AcDbLine
 10
-9.540706590768081
 20
24.91931152343715
 30
0.0
 11
-6.362525896188088
 21
24.90082550048816
 31
0.0
  0
LINE
  5
C1CD
330
1F
100
AcDbEntity
  8
AM_0
100
AcDbLine
 10
-12.48405070697907
 20
23.71849060058514
 30
0.0
 11
-9.540706590768081
 21
24.91931152343715
 31
0.0
  0
LINE
  5
C1CE
330
1F
100
AcDbEntity
  8
AM_0
100
AcDbLine
 10
-3.433355287667097
 20
23.66583251953116
 30
0.0
 11
-1.19913096820909
 21
21.40235900878917
 31
0.0
  0
LINE
  5
C1CF
330
1F
100
AcDbEntity
  8
AM_0
100
AcDbLine
 10
-1.19913096820909
 20
21.40235900878917
 30
0.0
 11
0.0000000437539143
 21
18.45499420166015
 31
0.0
  0
LINE
  5
C32C
330
1F
100
AcDbEntity
  8
AM_11
100
AcDbLine
 10
-0.0000000000003126
 20
25.00000000000017
 30
0.0
 11
-0.0000000000002274
 21
-24.99999999999983
 31
0.0
  0
LINE
  5
C334
330
1F
100
AcDbEntity
  8
AM_11
100
AcDbLine
 10
-8.000000000000312
 20
25.00000000000019
 30
0.0
 11
-0.0000000000003411
 21
25.00000000000019
 31
0.0
  0
LINE
  5
C338
330
1F
100
AcDbEntity
  8
AM_11
100
AcDbLine
 10
-8.000000000000227
 20
-24.99999999999985
 30
0.0
 11
-0.0000000000002274
 21
-24.99999999999983
 31
0.0
  0
LINE
  5
C340
330
1F
100
AcDbEntity
  8
AM_11
100
AcDbLine
 10
-8.000000000000312
 20
25.00000000000017
 30
0.0
 11
-8.000000000000227
 21
-24.99999999999985
 31
0.0
  0
DIMENSION
  5
C348
330
1F
100
AcDbEntity
  8
AM_5
100
AcDbDimension
  2
*D5
 10
-0.0000000000003282
 20
32.0000000000002
 30
0.0
 11
-4.000000000000311
 21
33.5500000000002
 31
0.0
 70
    32
  1
<>
 51
359.9999999999998
  3
AM_JIS$0
100
AcDbAlignedDimension
 13
-8.000000000000312
 23
25.00000000000019
 33
0.0
 14
-0.0000000000003411
 24
25.00000000000019
 34
0.0
 50
180.0
100
AcDbRotatedDimension
1001
GENIUS_GENDTOL_13
1000

1000
h7
1000

1040
0.0
1001
ACAD
1000
DSTYLE
1002
{
1070
   287
1070
     3
1070
    40
1040
0.5
1070
    42
1040
1.0
1070
    43
1040
12.0
1070
    48
1040
0.1
1070
    78
1070
     8
1070
   140
1040
3.2
1070
   176
1070
   256
1070
   177
1070
   256
1070
   271
1070
     1
1070
   272
1070
     3
1070
   275
1070
     0
1070
   284
1070
     0
1070
   289
1070
     3
1070
   340
1005
6B
1070
   371
1070
    -1
1070
   372
1070
    -1
1002
}
  0
DIMENSION
  5
C425
330
1F
100
AcDbEntity
  8
AM_5
100
AcDbDimension
  2
*D6
 10
10.64576655447671
 20
-24.99999999999983
 30
0.0
 11
9.095766554476723
 21
0.0000000000001701
 31
0.0
 70
    32
  1
%%c<>
 51
359.9999999999998
  3
AM_JIS$0
100
AcDbAlignedDimension
 13
-0.0000000000003126
 23
25.00000000000017
 33
0.0
 14
-0.0000000000002274
 24
-24.99999999999983
 34
0.0
 50
90.0
100
AcDbRotatedDimension
1001
GENIUS_GENDTOL_13
1000

1000
h7
1000

1040
0.0
1001
ACAD
1000
DSTYLE
1002
{
1070
   287
1070
     3
1070
    40
1040
0.5
1070
    42
1040
1.0
1070
    43
1040
12.0
1070
    48
1040
0.1
1070
    78
1070
     8
1070
   140
1040
3.2
1070
   176
1070
   256
1070
   177
1070
   256
1070
   271
1070
     1
1070
   272
1070
     3
1070
   275
1070
     0
1070
   284
1070
     0
1070
   289
1070
     3
1070
   340
1005
6B
1070
   371
1070
    -1
1070
   372
1070
    -1
1002
}
  0
DIMENSION
  5
C4B1
330
1F
100
AcDbEntity
  8
AM_5
100
AcDbDimension
  2
*D7
 10
-38.53430054336154
 20
-20.39633178710994
 30
0.0
 11
-38.53430054336154
 21
5.49611285459548
 31
0.0
 70
   160
  1
%%c<>
 51
359.9999999999998
  3
AM_JIS$0
100
AcDbAlignedDimension
 13
-49.39632792865808
 23
20.39632415771407
 33
0.0
 14
-49.396327928658
 24
-20.39633178710994
 34
0.0
 50
90.0
100
AcDbRotatedDimension
1001
GENIUS_GENDTOL_13
1000

1000
h7
1000

1040
0.0
1001
ACAD
1000
DSTYLE
1002
{
1070
   287
1070
     3
1070
    76
1070
     1
1070
    75
1070
     1
1070
    40
1040
0.5
1070
    42
1040
1.0
1070
    43
1040
12.0
1070
    48
1040
0.1
1070
    78
1070
     8
1070
   140
1040
3.2
1070
   176
1070
   256
1070
   177
1070
   256
1070
   271
1070
     1
1070
   272
1070
     3
1070
   275
1070
     0
1070
   284
1070
     0
1070
   289
1070
     3
1070
   340
1005
6B
1070
   371
1070
    -1
1070
   372
1070
    -1
1002
}
  0
DIMENSION
  5
C5A2
330
1F
100
AcDbEntity
  8
AM_5
100
AcDbDimension
  2
*D8
 10
-49.99999804889701
 20
-31.99999999999983
 30
0.0
 11
-24.99999902444862
 21
-30.44999999999983
 31
0.0
 70
    32
  1
<>
 51
359.9999999999998
  3
AM_JIS$0
100
AcDbAlignedDimension
 13
-0.0000000000002274
 23
-24.9999999999998
 33
0.0
 14
-49.99999804889701
 24
-20.99999999999994
 34
0.0
100
AcDbRotatedDimension
1001
GENIUS_GENDTOL_13
1000

1000
h7
1000

1040
0.0
1001
ACAD
1000
DSTYLE
1002
{
1070
   287
1070
     3
1070
    40
1040
0.5
1070
    42
1040
1.0
1070
    43
1040
12.0
1070
    48
1040
0.1
1070
    78
1070
     8
1070
   140
1040
3.2
1070
   176
1070
   256
1070
   177
1070
   256
1070
   271
1070
     1
1070
   272
1070
     3
1070
   275
1070
     0
1070
   284
1070
     0
1070
   289
1070
     3
1070
   340
1005
6B
1070
   371
1070
    -1
1070
   372
1070
    -1
1002
}
  0
DIMENSION
  5
C664
330
1F
100
AcDbEntity
  8
AM_5
100
AcDbDimension
  2
*D9
 10
-169.9999999562399
 20
-36.99999999999983
 30
0.0
 11
-84.99999997812011
 21
-35.44999999999983
 31
0.0
 70
    32
  1
<>
 51
359.9999999999998
  3
AM_JIS$0
100
AcDbAlignedDimension
 13
-0.0000000000002274
 23
-24.9999999999998
 33
0.0
 14
-169.9999999562399
 24
-20.46411132812016
 34
0.0
100
AcDbRotatedDimension
1001
GENIUS_GENDTOL_13
1000

1000
h7
1000

1040
0.0
1001
ACAD
1000
DSTYLE
1002
{
1070
   287
1070
     3
1070
    40
1040
0.5
1070
    42
1040
1.0
1070
    43
1040
12.0
1070
    48
1040
0.1
1070
    78
1070
     8
1070
   140
1040
3.2
1070
   176
1070
   256
1070
   177
1070
   256
1070
   271
1070
     1
1070
   272
1070
     3
1070
   275
1070
     0
1070
   284
1070
     0
1070
   289
1070
     3
1070
   340
1005
6B
1070
   371
1070
    -1
1070
   372
1070
    -1
1002
}
  0
DIMENSION
  5
C6F9
330
1F
100
AcDbEntity
  8
AM_5
100
AcDbDimension
  2
*D10
 10
-49.99999995624502
 20
-31.99999999999983
 30
0.0
 11
-109.9999999562425
 21
-30.44999999999983
 31
0.0
 70
    32
  1
<>
 51
359.9999999999998
  3
AM_JIS$0
100
AcDbAlignedDimension
 13
-169.9999999562399
 23
-20.46409606933016
 33
0.0
 14
-49.99999995624502
 24
-20.99999999999994
 34
0.0
100
AcDbRotatedDimension
1001
GENIUS_GENDTOL_13
1000

1000
h7
1000

1040
0.0
1001
ACAD
1000
DSTYLE
1002
{
1070
   287
1070
     3
1070
    40
1040
0.5
1070
    42
1040
1.0
1070
    43
1040
12.0
1070
    48
1040
0.1
1070
    78
1070
     8
1070
   140
1040
3.2
1070
   176
1070
   256
1070
   177
1070
   256
1070
   271
1070
     1
1070
   272
1070
     3
1070
   275
1070
     0
1070
   284
1070
     0
1070
   289
1070
     3
1070
   340
1005
6B
1070
   371
1070
    -1
1070
   372
1070
    -1
1002
}
  0
DIMENSION
  5
C797
330
1F
100
AcDbEntity
  8
AM_5
100
AcDbDimension
  2
*D11
 10
-176.99999995624
 20
-21.00000000000019
 30
0.0
 11
-178.54999995624
 21
-0.0000000000002235
 31
0.0
 70
    32
  1
%%c<>
 51
359.9999999999998
  3
AM_JIS$0
100
AcDbAlignedDimension
 13
-167.99999995624
 23
20.9999999999998
 33
0.0
 14
-167.9999999562399
 24
-21.0000000000002
 34
0.0
 50
270.0
100
AcDbRotatedDimension
1001
GENIUS_GENDTOL_13
1000

1000
h7
1000

1040
0.0
1001
ACAD
1000
DSTYLE
1002
{
1070
   287
1070
     3
1070
    40
1040
0.5
1070
    42
1040
1.0
1070
    43
1040
12.0
1070
    48
1040
0.1
1070
    78
1070
     8
1070
   140
1040
3.2
1070
   176
1070
   256
1070
   177
1070
   256
1070
   271
1070
     1
1070
   272
1070
     3
1070
   275
1070
     0
1070
   284
1070
     0
1070
   289
1070
     3
1070
   340
1005
6B
1070
   371
1070
    -1
1070
   372
1070
    -1
1002
}
  0
LINE
  5
C9A5
330
1F
100
AcDbEntity
  8
AM_0
100
AcDbLine
 10
-19.49472995197405
 20
8.630668640140129
 30
0.0
 11
-14.62916942035806
 21
8.550941467290158
 31
0.0
  0
VIEWPORT
  5
110
330
101
100
AcDbEntity
 67
     1
  8
0
100
AcDbViewport
 10
420.5
 20
297.0
 30
0.0
 40
948.9782706766916
 41
628.452
 68
     1
 69
     1
1001
ACAD
1000
MVIEW
1002
{
1070
    16
1010
0.0
1020
0.0
1030
0.0
1010
0.0
1020
0.0
1030
1.0
1040
0.0
1040
628.452
1040
420.5
1040
297.0
1040
50.0
1040
0.0
1040
0.0
1070
     0
1070
   100
1070
     1
1070
     1
1070
     0
1070
     0
1070
     0
1070
     0
1040
0.0
1040
0.0
1040
0.0
1040
10.0
1040
10.0
1040
10.0
1040
10.0
1070
     0
1002
{
1002
}
1002
}
  0
ENDSEC
  0
SECTION
  2
OBJECTS
  0
DICTIONARY
  5
C
330
0
100
AcDbDictionary
  3
ACAD_GROUP
350
D
  3
ACAD_LAYOUT
350
1A
  3
ACAD_MLINESTYLE
350
17
  3
ACAD_PLOTSETTINGS
350
19
  3
ACAD_PLOTSTYLENAME
350
E
  3
ACDBVARIABLEDICTIONARY
350
34
  3
ACMDICTIONARY
350
43
  3
AMG
350
2B
  3
AMGSNAPSETTINGS
350
6E
  3
DWGPROPS
350
C9D9
  3
ACDBHEADERROUNDTRIPXREC
350
C9E5
  0
DICTIONARY
  5
74
330
1F
100
AcDbDictionary
280
     1
  3
ACAD_INDEX
360
C9DB
  3
ACAD_LAYOUTSELFREF
360
CA08
  0
DICTIONARY
  5
CA0D
330
101
100
AcDbDictionary
280
     1
  3
ACAD_LAYOUTSELFREF
360
CA0E
  0
DICTIONARY
  5
D
102
{ACAD_REACTORS
330
C
102
}
330
C
100
AcDbDictionary
  0
DICTIONARY
  5
1A
102
{ACAD_REACTORS
330
C
102
}
330
C
100
AcDbDictionary
  0
DICTIONARY
  5
17
102
{ACAD_REACTORS
330
C
102
}
330
C
100
AcDbDictionary
  3
STANDARD
350
18
  0
DICTIONARY
  5
19
102
{ACAD_REACTORS
330
C
102
}
330
C
100
AcDbDictionary
  3
ASAMI
350
399D
  0
ACDBDICTIONARYWDFLT
  5
E
102
{ACAD_REACTORS
330
C
102
}
330
C
100
AcDbDictionary
281
     1
  3
Normal
350
F
100
AcDbDictionaryWithDefault
340
F
  0
DICTIONARY
  5
34
102
{ACAD_REACTORS
330
C
102
}
330
C
100
AcDbDictionary
  3
INDEXCTL
350
35
  3
SORTENTS
350
B5E
  0
DICTIONARY
  5
43
102
{ACAD_REACTORS
330
C
102
}
330
C
100
AcDbDictionary
  3
ACMSTDDICTIONARY
350
260
  0
DICTIONARY
  5
2B
102
{ACAD_REACTORS
330
C
102
}
330
C
100
AcDbDictionary
  3
ACMGSETTINGS
350
2C
  0
DICTIONARY
  5
6E
102
{ACAD_REACTORS
330
C
102
}
330
C
100
AcDbDictionary
  0
XRECORD
  5
C9D9
102
{ACAD_REACTORS
330
C
102
}
330
C
100
AcDbXrecord
  1
DWGPROPS COOKIE
  2

  3

  4

  6

  7

  8

  9

300
AmdtFileType=82
301
=
302
=
303
=
304
=
305
=
306
=
307
=
308
=
309
=
 40
0.9465163310185184
 41
2452802.716478761
 42
2453075.692957893
  1

 90
        1
  0
DICTIONARY
  5
C9E5
102
{ACAD_REACTORS
330
C
102
}
330
C
100
AcDbDictionary
  3
TSTACKALIGN
350
C9E6
  3
TSTACKSIZE
350
C9E7
  3
HYPERLINKBASE
350
C9E8
  3
STYLESHEET
350
C9E9
  3
LAYOUTDICT
350
C9EA
  3
PLOTSETDICT
350
C9EB
  3
PLOTSTYLNAMDICT
350
C9EC
  3
LWETCUNION
350
C9ED
  3
INSUNITS
350
C9EE
  3
CEPSNTYPE
350
C9EF
  3
FINGERPRINTGUID
350
C9F0
  3
VERSIONGUID
350
C9F1
  3
PSVPSCALE
350
C9F2
  3
DIMSTYLEDATA
350
C9F3
  3
PUCSORTHOREF
350
C9F4
  3
PUCSORTHOVIEW
350
C9F5
  3
PUCSBASE
350
C9F6
  3
PUCSORGTOP
350
C9F7
  3
PUCSORGBOTTOM
350
C9F8
  3
PUCSORGLEFT
350
C9F9
  3
PUCSORGRIGHT
350
C9FA
  3
PUCSORGFRONT
350
C9FB
  3
PUCSORGBACK
350
C9FC
  3
UCSORTHOREF
350
C9FD
  3
UCSORTHOVIEW
350
C9FE
  3
UCSBASE
350
C9FF
  3
UCSORGTOP
350
CA00
  3
UCSORGBOTTOM
350
CA01
  3
UCSORGLEFT
350
CA02
  3
UCSORGRIGHT
350
CA03
  3
UCSORGFRONT
350
CA04
  3
UCSORGBACK
350
CA05
  0
DICTIONARY
  5
C9DB
102
{ACAD_REACTORS
330
74
102
}
330
74
100
AcDbDictionary
  3
*A1
350
C9DC
  0
XRECORD
  5
CA08
102
{ACAD_REACTORS
330
74
102
}
330
74
100
AcDbXrecord
340
1F
  0
XRECORD
  5
CA0E
102
{ACAD_REACTORS
330
CA0D
102
}
330
CA0D
100
AcDbXrecord
340
101
  0
MLINESTYLE
  5
18
102
{ACAD_REACTORS
330
17
102
}
330
17
100
AcDbMlineStyle
  2
STANDARD
 70
     0
  3

 62
   256
 51
90.0
 52
90.0
 71
     2
 49
0.5
 62
   256
  6
BYLAYER
 49
-0.5
 62
   256
  6
BYLAYER
  0
PLOTSETTINGS
  5
399D
102
{ACAD_REACTORS
330
19
102
}
330
19
100
AcDbPlotSettings
  1
asami
  2
RICOH imagio MF1540
  4
A4
  6

 40
5.831416606903076
 41
7.651742935180664
 42
4.90008544921875
 43
5.789077758789062
 44
296.9683227539062
 45
209.9733276367187
 46
0.0
 47
0.0
 48
-156.6707931774246
 49
-74.57609991074048
140
58.59973180214831
141
60.61068161925596
142
1.0
143
1.095343097833084
 70
  1712
 72
     1
 73
     1
 74
     4
  7
asami.ctb
 75
     0
147
0.9129559514076438
148
156.6707931774246
149
74.57609991074048
  0
ACDBPLACEHOLDER
  5
F
102
{ACAD_REACTORS
330
E
102
}
330
E
100
AcDbPlaceHolder
280
     0
  0
DICTIONARYVAR
  5
35
102
{ACAD_REACTORS
330
34
102
}
330
34
100
DictionaryVariables
280
     0
  1
1
  0
DICTIONARYVAR
  5
B5E
102
{ACAD_REACTORS
330
34
102
}
330
34
100
DictionaryVariables
280
     0
  1
96
  0
DICTIONARY
  5
260
102
{ACAD_REACTORS
330
43
102
}
330
43
100
AcDbDictionary
  0
DICTIONARY
  5
2C
102
{ACAD_REACTORS
330
2B
102
}
330
2B
100
AcDbDictionary
  3
DWGSETTINGS
350
2D
  0
XRECORD
  5
C9E6
102
{ACAD_REACTORS
330
C9E5
102
}
330
C9E5
100
AcDbXrecord
 90
        1
  0
XRECORD
  5
C9E7
102
{ACAD_REACTORS
330
C9E5
102
}
330
C9E5
100
AcDbXrecord
 90
       70
  0
XRECORD
  5
C9E8
102
{ACAD_REACTORS
330
C9E5
102
}
330
C9E5
100
AcDbXrecord
  1

  0
XRECORD
  5
C9E9
102
{ACAD_REACTORS
330
C9E5
102
}
330
C9E5
100
AcDbXrecord
  1
ASAMI.ctb
  0
XRECORD
  5
C9EA
102
{ACAD_REACTORS
330
C9E5
102
}
330
C9E5
100
AcDbXrecord
340
1A
  0
XRECORD
  5
C9EB
102
{ACAD_REACTORS
330
C9E5
102
}
330
C9E5
100
AcDbXrecord
340
19
  0
XRECORD
  5
C9EC
102
{ACAD_REACTORS
330
C9E5
102
}
330
C9E5
100
AcDbXrecord
340
E
  0
XRECORD
  5
C9ED
102
{ACAD_REACTORS
330
C9E5
102
}
330
C9E5
100
AcDbXrecord
 90
    10781
  0
XRECORD
  5
C9EE
102
{ACAD_REACTORS
330
C9E5
102
}
330
C9E5
100
AcDbXrecord
 90
        4
  0
XRECORD
  5
C9EF
102
{ACAD_REACTORS
330
C9E5
102
}
330
C9E5
100
AcDbXrecord
 90
        0
  0
XRECORD
  5
C9F0
102
{ACAD_REACTORS
330
C9E5
102
}
330
C9E5
100
AcDbXrecord
  1
{AFB28963-8C59-40AE-9337-C84526B81ACE}
  0
XRECORD
  5
C9F1
102
{ACAD_REACTORS
330
C9E5
102
}
330
C9E5
100
AcDbXrecord
  1
{A7E5CEB8-8B48-4E8F-A270-8600583951D6}
  0
XRECORD
  5
C9F2
102
{ACAD_REACTORS
330
C9E5
102
}
330
C9E5
100
AcDbXrecord
 40
0.0
  0
XRECORD
  5
C9F3
102
{ACAD_REACTORS
330
C9E5
102
}
330
C9E5
100
AcDbXrecord
1000
DSTYLE
1002
{
1070
    79
 70
     2
1070
   341
340
59
1070
   342
340
59
1070
   371
 70
    -1
1070
   372
 70
    -1
1002
}
  0
XRECORD
  5
C9F4
102
{ACAD_REACTORS
330
C9E5
102
}
330
C9E5
100
AcDbXrecord
340
0
  0
XRECORD
  5
C9F5
102
{ACAD_REACTORS
330
C9E5
102
}
330
C9E5
100
AcDbXrecord
 70
     0
  0
XRECORD
  5
C9F6
102
{ACAD_REACTORS
330
C9E5
102
}
330
C9E5
100
AcDbXrecord
340
0
  0
XRECORD
  5
C9F7
102
{ACAD_REACTORS
330
C9E5
102
}
330
C9E5
100
AcDbXrecord
 10
0.0
 20
0.0
 30
0.0
  0
XRECORD
  5
C9F8
102
{ACAD_REACTORS
330
C9E5
102
}
330
C9E5
100
AcDbXrecord
 10
0.0
 20
0.0
 30
0.0
  0
XRECORD
  5
C9F9
102
{ACAD_REACTORS
330
C9E5
102
}
330
C9E5
100
AcDbXrecord
 10
0.0
 20
0.0
 30
0.0
  0
XRECORD
  5
C9FA
102
{ACAD_REACTORS
330
C9E5
102
}
330
C9E5
100
AcDbXrecord
 10
0.0
 20
0.0
 30
0.0
  0
XRECORD
  5
C9FB
102
{ACAD_REACTORS
330
C9E5
102
}
330
C9E5
100
AcDbXrecord
 10
0.0
 20
0.0
 30
0.0
  0
XRECORD
  5
C9FC
102
{ACAD_REACTORS
330
C9E5
102
}
330
C9E5
100
AcDbXrecord
 10
0.0
 20
0.0
 30
0.0
  0
XRECORD
  5
C9FD
102
{ACAD_REACTORS
330
C9E5
102
}
330
C9E5
100
AcDbXrecord
340
0
  0
XRECORD
  5
C9FE
102
{ACAD_REACTORS
330
C9E5
102
}
330
C9E5
100
AcDbXrecord
 70
     0
  0
XRECORD
  5
C9FF
102
{ACAD_REACTORS
330
C9E5
102
}
330
C9E5
100
AcDbXrecord
340
0
  0
XRECORD
  5
CA00
102
{ACAD_REACTORS
330
C9E5
102
}
330
C9E5
100
AcDbXrecord
 10
0.0
 20
0.0
 30
0.0
  0
XRECORD
  5
CA01
102
{ACAD_REACTORS
330
C9E5
102
}
330
C9E5
100
AcDbXrecord
 10
0.0
 20
0.0
 30
0.0
  0
XRECORD
  5
CA02
102
{ACAD_REACTORS
330
C9E5
102
}
330
C9E5
100
AcDbXrecord
 10
0.0
 20
0.0
 30
0.0
  0
XRECORD
  5
CA03
102
{ACAD_REACTORS
330
C9E5
102
}
330
C9E5
100
AcDbXrecord
 10
0.0
 20
0.0
 30
0.0
  0
XRECORD
  5
CA04
102
{ACAD_REACTORS
330
C9E5
102
}
330
C9E5
100
AcDbXrecord
 10
0.0
 20
0.0
 30
0.0
  0
XRECORD
  5
CA05
102
{ACAD_REACTORS
330
C9E5
102
}
330
C9E5
100
AcDbXrecord
 10
0.0
 20
0.0
 30
0.0
  0
LAYER_INDEX
  5
C9DC
102
{ACAD_REACTORS
330
C9DB
102
}
330
C9DB
100
AcDbIndex
 40
2453152.380066295
100
AcDbLayerIndex
  8
0
360
C9DD
 90
        0
  8
AM_0
360
C9DE
 90
      187
  8
AM_5
360
C9DF
 90
        7
  8
AM_7
360
C9E0
 90
        1
  8
AM_6
360
C9E1
 90
        1
  8
Defpoints
360
C9E2
 90
        0
  8
AM_11
360
C9E3
 90
        4
  0
XRECORD
  5
2D
102
{ACAD_REACTORS
330
2C
102
}
330
2C
100
AcDbXrecord
  1
VERSION
140
15.0
  1
PRODUCT
  2
AutoCAD Mechanical 2000
  0
IDBUFFER
  5
C9DD
330
0
100
AcDbIdBuffer
  0
IDBUFFER
  5
C9DE
330
0
100
AcDbIdBuffer
330
C186
330
C187
330
C188
330
C189
330
C18A
330
C18B
330
C18C
330
C18D
330
C18E
330
C18F
330
C190
330
C191
330
C192
330
C193
330
C194
330
C195
330
C196
330
C197
330
C198
330
C199
330
C19A
330
C19B
330
C19C
330
C19D
330
C19E
330
C19F
330
C1A0
330
C1A1
330
C1A2
330
C1A3
330
C1A4
330
C1A5
330
C1A6
330
C1A7
330
C1A8
330
C1A9
330
C1AA
330
C1AB
330
C1AC
330
C1AD
330
C1AE
330
C1AF
330
C1B0
330
C1B1
330
C1B2
330
C1B3
330
C1B4
330
C1B5
330
C1B6
330
C1B7
330
C1B8
330
C1B9
330
C1BA
330
C1BB
330
C1BC
330
C1BD
330
C1BE
330
C1BF
330
C1C0
330
C1C1
330
C1C2
330
C1C3
330
C1C4
330
C1C5
330
C1C6
330
C1C7
330
C1C8
330
C1C9
330
C1CA
330
C1CB
330
C1CC
330
C1CD
330
C1CE
330
C1CF
330
C9A5
330
C0C5
330
C0C6
330
C0C7
330
C0C8
330
C0C9
330
C0CB
330
C0CF
330
C0D0
330
C0D1
330
C0D2
330
C0D3
330
C0D5
330
C0D6
330
C0D7
330
C0D8
330
C0DA
330
C0DB
330
C0E1
330
C0E2
330
C0E4
330
C0E5
330
C0E6
330
C0E7
330
C0E8
330
C0E9
330
C0EA
330
C0EB
330
C0EC
330
C0ED
330
C0EE
330
C0EF
330
C0F0
330
C0F1
330
C0F2
330
C0F3
330
C0F4
330
C0F5
330
C0F6
330
C0F7
330
C0F8
330
C0F9
330
C0FA
330
C0FB
330
C0FC
330
C0FD
330
C0FE
330
C0FF
330
C100
330
C101
330
C102
330
C103
330
C104
330
C105
330
C106
330
C107
330
C108
330
C109
330
C10A
330
C10B
330
C10C
330
C10D
330
C10E
330
C10F
330
C110
330
C111
330
C112
330
C113
330
C114
330
C115
330
C116
330
C117
330
C118
330
C119
330
C15E
330
C15F
330
C160
330
C161
330
C163
330
C164
330
C165
330
C166
330
C167
330
C168
330
C169
330
C16A
330
C16B
330
C16C
330
C16D
330
C16E
330
C16F
330
C170
330
C171
330
C172
330
C173
330
C174
330
C175
330
C176
330
C177
330
C178
330
C179
330
C17A
330
C17B
330
C17C
330
C17D
330
C17E
330
C17F
330
C180
330
C181
330
C182
330
C183
330
C184
330
C185
  0
IDBUFFER
  5
C9DF
330
0
100
AcDbIdBuffer
330
C348
330
C425
330
C4B1
330
C5A2
330
C664
330
C6F9
330
C797
  0
IDBUFFER
  5
C9E0
330
0
100
AcDbIdBuffer
330
C0D4
  0
IDBUFFER
  5
C9E1
330
0
100
AcDbIdBuffer
330
388D
  0
IDBUFFER
  5
C9E2
330
0
100
AcDbIdBuffer
  0
IDBUFFER
  5
C9E3
330
0
100
AcDbIdBuffer
330
C32C
330
C334
330
C338
330
C340
  0
ENDSEC
  0
EOF
