  0
SECTION
  2
HEADER
  9
$ACADVER
  1
AC1014
  9
$ACADMAINTVER
 70
     9
  9
$DWGCODEPAGE
  3
ANSI_932
  9
$INSBASE
 10
0.0
 20
0.0
 30
0.0
  9
$EXTMIN
 10
-368.7000000000002
 20
-71.50000000000023
 30
-0.00000001
  9
$EXTMAX
 10
14.66987297499982
 20
43.70000000000016
 30
0.00000001
  9
$LIMMIN
 10
-378.7385589307534
 20
-151.8715848348061
  9
$LIMMAX
 10
105.6134823613674
 20
119.9312811983215
  9
$ORTHOMODE
 70
     0
  9
$REGENMODE
 70
     1
  9
$FILLMODE
 70
     1
  9
$QTEXTMODE
 70
     0
  9
$MIRRTEXT
 70
     0
  9
$DRAGMODE
 70
     2
  9
$LTSCALE
 40
1.0
  9
$OSMODE
 70
    55
  9
$ATTMODE
 70
     1
  9
$TEXTSIZE
 40
2.5
  9
$TRACEWID
 40
1.0
  9
$TEXTSTYLE
  7
STANDARD
  9
$CLAYER
  8
AM_0
  9
$CELTYPE
  6
BYLAYER
  9
$CECOLOR
 62
   256
  9
$CELTSCALE
 40
1.0
  9
$DELOBJ
 70
     1
  9
$DISPSILH
 70
     0
  9
$DIMSCALE
 40
0.5
  9
$DIMASZ
 40
2.5
  9
$DIMEXO
 40
1.0
  9
$DIMDLI
 40
12.0
  9
$DIMRND
 40
0.0
  9
$DIMDLE
 40
0.0
  9
$DIMEXE
 40
1.0
  9
$DIMTP
 40
0.1
  9
$DIMTM
 40
0.1
  9
$DIMTXT
 40
3.2
  9
$DIMCEN
 40
0.0
  9
$DIMTSZ
 40
0.0
  9
$DIMTOL
 70
     0
  9
$DIMLIM
 70
     0
  9
$DIMTIH
 70
     0
  9
$DIMTOH
 70
     0
  9
$DIMSE1
 70
     0
  9
$DIMSE2
 70
     0
  9
$DIMTAD
 70
     3
  9
$DIMZIN
 70
     8
  9
$DIMBLK
  1
OPEN30
  9
$DIMASO
 70
     1
  9
$DIMSHO
 70
     1
  9
$DIMPOST
  1

  9
$DIMAPOST
  1
"
  9
$DIMALT
 70
     0
  9
$DIMALTD
 70
     2
  9
$DIMALTF
 40
0.0393701
  9
$DIMLFAC
 40
1.0
  9
$DIMTOFL
 70
     1
  9
$DIMTVP
 40
0.0
  9
$DIMTIX
 70
     0
  9
$DIMSOXD
 70
     0
  9
$DIMSAH
 70
     0
  9
$DIMBLK1
  1

  9
$DIMBLK2
  1

  9
$DIMSTYLE
  2
AM_JIS
  9
$DIMCLRD
 70
   256
  9
$DIMCLRE
 70
   256
  9
$DIMCLRT
 70
     2
  9
$DIMTFAC
 40
0.71
  9
$DIMGAP
 40
1.5
  9
$DIMJUST
 70
     0
  9
$DIMSD1
 70
     0
  9
$DIMSD2
 70
     0
  9
$DIMTOLJ
 70
     0
  9
$DIMTZIN
 70
     0
  9
$DIMALTZ
 70
     0
  9
$DIMALTTZ
 70
     0
  9
$DIMFIT
 70
     3
  9
$DIMUPT
 70
     0
  9
$DIMUNIT
 70
     2
  9
$DIMDEC
 70
     3
  9
$DIMTDEC
 70
     3
  9
$DIMALTU
 70
     2
  9
$DIMALTTD
 70
     2
  9
$DIMTXSTY
  7
ASAMI
  9
$DIMAUNIT
 70
     0
  9
$LUNITS
 70
     2
  9
$LUPREC
 70
     2
  9
$SKETCHINC
 40
1.0
  9
$FILLETRAD
 40
0.4
  9
$AUNITS
 70
     0
  9
$AUPREC
 70
     0
  9
$MENU
  1
.
  9
$ELEVATION
 40
0.0
  9
$PELEVATION
 40
0.0
  9
$THICKNESS
 40
0.0
  9
$LIMCHECK
 70
     1
  9
$BLIPMODE
 70
     0
  9
$CHAMFERA
 40
1.0
  9
$CHAMFERB
 40
1.0
  9
$CHAMFERC
 40
20.0
  9
$CHAMFERD
 40
0.0
  9
$SKPOLY
 70
     0
  9
$TDCREATE
 40
2452802.716478761
  9
$TDUPDATE
 40
2453152.374985682
  9
$TDINDWG
 40
0.9615158912
  9
$TDUSRTIMER
 40
0.9615158912
  9
$USRTIMER
 70
     1
  9
$ANGBASE
 50
0.0
  9
$ANGDIR
 70
     0
  9
$PDMODE
 70
     0
  9
$PDSIZE
 40
0.0
  9
$PLINEWID
 40
0.0
  9
$COORDS
 70
     1
  9
$SPLFRAME
 70
     0
  9
$SPLINETYPE
 70
     6
  9
$SPLINESEGS
 70
     8
  9
$ATTDIA
 70
     1
  9
$ATTREQ
 70
     1
  9
$HANDLING
 70
 12289
  9
$HANDSEED
  5
EE8E
  9
$SURFTAB1
 70
     6
  9
$SURFTAB2
 70
     6
  9
$SURFTYPE
 70
     6
  9
$SURFU
 70
     6
  9
$SURFV
 70
     6
  9
$UCSNAME
  2

  9
$UCSORG
 10
-0.0000000000002682
 20
0.000000000000161
 30
0.0
  9
$UCSXDIR
 10
1.0
 20
0.000000000000002
 30
0.0
  9
$UCSYDIR
 10
-0.000000000000002
 20
1.0
 30
0.0
  9
$PUCSNAME
  2

  9
$PUCSORG
 10
0.0
 20
0.0
 30
0.0
  9
$PUCSXDIR
 10
1.0
 20
0.0
 30
0.0
  9
$PUCSYDIR
 10
0.0
 20
1.0
 30
0.0
  9
$USERI1
 70
     0
  9
$USERI2
 70
     0
  9
$USERI3
 70
     0
  9
$USERI4
 70
     0
  9
$USERI5
 70
     0
  9
$USERR1
 40
0.0
  9
$USERR2
 40
0.0
  9
$USERR3
 40
0.0
  9
$USERR4
 40
0.0
  9
$USERR5
 40
0.0
  9
$WORLDVIEW
 70
     1
  9
$SHADEDGE
 70
     3
  9
$SHADEDIF
 70
    70
  9
$TILEMODE
 70
     1
  9
$MAXACTVP
 70
    64
  9
$PINSBASE
 10
0.0
 20
0.0
 30
0.0
  9
$PLIMCHECK
 70
     0
  9
$PEXTMIN
 10
1.000000000000000E+20
 20
1.000000000000000E+20
 30
1.000000000000000E+20
  9
$PEXTMAX
 10
-1.000000000000000E+20
 20
-1.000000000000000E+20
 30
-1.000000000000000E+20
  9
$PLIMMIN
 10
0.0
 20
0.0
  9
$PLIMMAX
 10
841.0
 20
594.0
  9
$UNITMODE
 70
     0
  9
$VISRETAIN
 70
     1
  9
$PLINEGEN
 70
     0
  9
$PSLTSCALE
 70
     0
  9
$TREEDEPTH
 70
  3020
  9
$PICKSTYLE
 70
     0
  9
$CMLSTYLE
  2
STANDARD
  9
$CMLJUST
 70
     0
  9
$CMLSCALE
 40
20.0
  9
$PROXYGRAPHICS
 70
     1
  9
$MEASUREMENT
 70
     1
  0
ENDSEC
  0
SECTION
  2
CLASSES
  0
CLASS
  1
ACDBDICTIONARYWDFLT
  2
AcDbDictionaryWithDefault
  3
AutoCAD 2000
 90
        0
280
     0
281
     0
  0
CLASS
  1
ACDBPLACEHOLDER
  2
AcDbPlaceHolder
  3
AutoCAD 2000
 90
        0
280
     0
281
     0
  0
CLASS
  1
LAYOUT
  2
AcDbLayout
  3
AutoCAD 2000
 90
        0
280
     0
281
     0
  0
CLASS
  1
AMGSETTINGSOBJ
  2
AmgSettingsObj
  3
"AcadM|Product Description: AutoCAD Mechanical 2000|Company: Autodesk"
 90
        0
280
     0
281
     0
  0
CLASS
  1
ACME_DOCUMENT
  2
AcMeDbDoc
  3
AcMeServices
 90
        0
280
     0
281
     0
  0
CLASS
  1
ACMESCOPE
  2
AcMeScope
  3
AcMeServices
 90
        0
280
     0
281
     0
  0
CLASS
  1
ACMECOMMANDHISTORY
  2
AcMeCommandHistory
  3
AcMeServices
 90
        0
280
     0
281
     0
  0
CLASS
  1
DICTIONARYVAR
  2
AcDbDictionaryVar
  3
AutoCAD 2000
 90
        0
280
     0
281
     0
  0
CLASS
  1
ACIMSYSVARMAN
  2
AcImSysVarManager
  3
AcMeServices
 90
        0
280
     0
281
     0
  0
CLASS
  1
ACIMREALSYSVAR
  2
AcImRealSysVar
  3
AcMeServices
 90
        0
280
     0
281
     0
  0
CLASS
  1
ACIMINTSYSVAR
  2
AcImIntSysVar
  3
AcMeServices
 90
        0
280
     0
281
     0
  0
CLASS
  1
ACMEDRAWINGMAN
  2
AcMeDrawingMan
  3
AcMeServices
 90
        0
280
     0
281
     0
  0
CLASS
  1
ACMEVIEW
  2
AcMeView
  3
AcMeServices
 90
        0
280
     0
281
     0
  0
CLASS
  1
ACDBENTITYCACHE
  2
AcMeEntityCache
  3
AcMeServices
 90
        0
280
     0
281
     0
  0
CLASS
  1
GSMANAGER
  2
AcMeGSManager
  3
AcMeServices
 90
        0
280
     0
281
     0
  0
CLASS
  1
AmdtInternalReactor
  2
AmdtInternalReactor
  3
AcMeServices
 90
        0
280
     0
281
     0
  0
CLASS
  1
ACMESTATEMGR
  2
AcMeStateMgr
  3
AcMeServices
 90
        0
280
     0
281
     0
  0
CLASS
  1
ACME_DATABASE
  2
AcMeDbDatabase
  3
AcMeServices
 90
        0
280
     0
281
     0
  0
CLASS
  1
ACRFINSADJUSTERMGR
  2
AcRfInsAdjusterMgr
  3
AcMeServices
 90
        0
280
     0
281
     0
  0
CLASS
  1
ACMDATADICTIONARY
  2
AcmDataDictionary
  3
"AcmSymBB|Product Description: AutoCAD Mechanical 2000|Company: Autodesk"
 90
        0
280
     0
281
     0
  0
CLASS
  1
ACMDATAENTRYBLOCK
  2
AcmDataEntryBlock
  3
"AcmSymBB|Product Description: AutoCAD Mechanical 2000|Company: Autodesk"
 90
        0
280
     0
281
     0
  0
CLASS
  1
AMGOBJPROPCFG
  2
AmgObjPropCfg
  3
"AmgLay|Product Description: AutoCAD Mechanical 2000|Company: Autodesk"
 90
        1
280
     0
281
     0
  0
CLASS
  1
ACAMGFILTERDAT
  2
AcAmgFilterDat
  3
"AcadM|Product Description: AutoCAD Mechanical 2000|Company: Autodesk"
 90
        0
280
     0
281
     0
  0
CLASS
  1
LAYER_INDEX
  2
AcDbLayerIndex
  3
AutoCAD 2000
 90
        0
280
     0
281
     0
  0
CLASS
  1
IDBUFFER
  2
AcDbIdBuffer
  3
AutoCAD 2000
 90
        0
280
     0
281
     0
  0
CLASS
  1
ACIMSTRSYSVAR
  2
AcImStrSysVar
  3
AcMeServices
 90
        0
280
     0
281
     0
  0
CLASS
  1
ACMSTANDARDJIS
  2
AcmStandardJIS
  3
"AcmSymBB|Product Description: AutoCAD Mechanical 2000|Company: Autodesk"
 90
        0
280
     0
281
     0
  0
CLASS
  1
ACMSURFSTANDARDJIS
  2
AcmSurfTextStdJIS
  3
"AcmSymBB|Product Description: AutoCAD Mechanical 2000|Company: Autodesk"
 90
        0
280
     0
281
     0
  0
CLASS
  1
ACMFCFSTANDARDJIS
  2
AcmFCFStdJIS
  3
"AcmSymBB|Product Description: AutoCAD Mechanical 2000|Company: Autodesk"
 90
        0
280
     0
281
     0
  0
CLASS
  1
ACMWELDSTANDARDJIS
  2
AcmWeldingStdJIS
  3
"AcmSymBB|Product Description: AutoCAD Mechanical 2000|Company: Autodesk"
 90
        0
280
     0
281
     0
  0
CLASS
  1
ACMIDSTANDARDJIS
  2
AcmIdStdJIS
  3
"AcmSymBB|Product Description: AutoCAD Mechanical 2000|Company: Autodesk"
 90
        0
280
     0
281
     0
  0
CLASS
  1
ACMDATUMSTANDARDJIS
  2
AcmDatumStdJIS
  3
"AcmSymBB|Product Description: AutoCAD Mechanical 2000|Company: Autodesk"
 90
        0
280
     0
281
     0
  0
CLASS
  1
ACMBOMSTANDARDJIS
  2
AcmBOMStdJIS
  3
"AcmSymBB|Product Description: AutoCAD Mechanical 2000|Company: Autodesk"
 90
        0
280
     0
281
     0
  0
CLASS
  1
ACMSTANDARDANSI
  2
AcmStandardANSI
  3
"AcmSymBB|Product Description: AutoCAD Mechanical 2000|Company: Autodesk"
 90
        0
280
     0
281
     0
  0
CLASS
  1
ACMSURFSTANDARDANSI
  2
AcmSurfTextStdANSI
  3
"AcmSymBB|Product Description: AutoCAD Mechanical 2000|Company: Autodesk"
 90
        0
280
     0
281
     0
  0
CLASS
  1
ACMFCFSTANDARDANSI
  2
AcmFCFStdANSI
  3
"AcmSymBB|Product Description: AutoCAD Mechanical 2000|Company: Autodesk"
 90
        0
280
     0
281
     0
  0
CLASS
  1
ACMWELDSTANDARDANSI
  2
AcmWeldingStdANSI
  3
"AcmSymBB|Product Description: AutoCAD Mechanical 2000|Company: Autodesk"
 90
        0
280
     0
281
     0
  0
CLASS
  1
ACMIDSTANDARDANSI
  2
AcmIdStdANSI
  3
"AcmSymBB|Product Description: AutoCAD Mechanical 2000|Company: Autodesk"
 90
        0
280
     0
281
     0
  0
CLASS
  1
ACMDATUMSTANDARDANSI
  2
AcmDatumStdANSI
  3
"AcmSymBB|Product Description: AutoCAD Mechanical 2000|Company: Autodesk"
 90
        0
280
     0
281
     0
  0
CLASS
  1
ACMBOMSTANDARDANSI
  2
AcmBOMStdANSI
  3
"AcmSymBB|Product Description: AutoCAD Mechanical 2000|Company: Autodesk"
 90
        0
280
     0
281
     0
  0
CLASS
  1
ACMSTANDARDBSI
  2
AcmStandardBSI
  3
"AcmSymBB|Product Description: AutoCAD Mechanical 2000|Company: Autodesk"
 90
        0
280
     0
281
     0
  0
CLASS
  1
ACMSURFSTANDARDBSI
  2
AcmSurfTextStdBSI
  3
"AcmSymBB|Product Description: AutoCAD Mechanical 2000|Company: Autodesk"
 90
        0
280
     0
281
     0
  0
CLASS
  1
ACMFCFSTANDARDBSI
  2
AcmFCFStdBSI
  3
"AcmSymBB|Product Description: AutoCAD Mechanical 2000|Company: Autodesk"
 90
        0
280
     0
281
     0
  0
CLASS
  1
ACMWELDSTANDARDBSI
  2
AcmWeldingStdBSI
  3
"AcmSymBB|Product Description: AutoCAD Mechanical 2000|Company: Autodesk"
 90
        0
280
     0
281
     0
  0
CLASS
  1
ACMIDSTANDARDBSI
  2
AcmIdStdBSI
  3
"AcmSymBB|Product Description: AutoCAD Mechanical 2000|Company: Autodesk"
 90
        0
280
     0
281
     0
  0
CLASS
  1
ACMDATUMSTANDARDBSI
  2
AcmDatumStdBSI
  3
"AcmSymBB|Product Description: AutoCAD Mechanical 2000|Company: Autodesk"
 90
        0
280
     0
281
     0
  0
CLASS
  1
ACMBOMSTANDARDBSI
  2
AcmBOMStdBSI
  3
"AcmSymBB|Product Description: AutoCAD Mechanical 2000|Company: Autodesk"
 90
        0
280
     0
281
     0
  0
CLASS
  1
STDPART2D
  2
AmgStdPart
  3
"AmgStdPart|Product Description: AutoCAD Mechanical 2000|Company: Autodesk"
 90
     1023
280
     0
281
     1
  0
CLASS
  1
PLOTSETTINGS
  2
AcDbPlotSettings
  3
AutoCAD 2000
 90
        0
280
     0
281
     0
  0
CLASS
  1
LONG_TRANSACTION
  2
AcDbLongTransaction
  3
AutoCAD 2000
 90
        0
280
     0
281
     0
  0
CLASS
  1
LWPOLYLINE
  2
AcDbPolyline
  3
AutoCAD 2000
 90
        0
280
     0
281
     1
  0
CLASS
  1
HATCH
  2
AcDbHatch
  3
AutoCAD 2000
 90
        0
280
     0
281
     1
  0
CLASS
  1
XRECORD
  2
AcDbXrecord
  3
AutoCAD 2000
 90
        0
280
     0
281
     0
  0
ENDSEC
  0
SECTION
  2
TABLES
  0
TABLE
  2
VPORT
  5
8
330
0
100
AcDbSymbolTable
 70
     3
  0
VPORT
  5
EE26
330
8
100
AcDbSymbolTableRecord
100
AcDbViewportTableRecord
  2
*ACTIVE
 70
     0
 10
0.0
 20
0.0
 11
1.0
 21
1.0
 12
-168.2658549367255
 22
-15.63346356366275
 13
0.0
 23
0.0
 14
2.5
 24
2.5
 15
10.0
 25
10.0
 16
0.0
 26
0.0
 36
1.0
 17
0.0
 27
0.0
 37
0.0
 40
262.9420658683591
 41
1.56570841889117
 42
50.0
 43
0.0
 44
0.0
 50
0.0
 51
0.0
 71
     0
 72
   100
 73
     1
 74
     3
 75
     0
 76
     0
 77
     0
 78
     0
  0
ENDTAB
  0
TABLE
  2
LTYPE
  5
5
330
0
100
AcDbSymbolTable
 70
    10
  0
LTYPE
  5
14
330
5
100
AcDbSymbolTableRecord
100
AcDbLinetypeTableRecord
  2
BYBLOCK
 70
     0
  3

 72
    65
 73
     0
 40
0.0
  0
LTYPE
  5
15
330
5
100
AcDbSymbolTableRecord
100
AcDbLinetypeTableRecord
  2
BYLAYER
 70
     0
  3

 72
    65
 73
     0
 40
0.0
  0
LTYPE
  5
16
330
5
100
AcDbSymbolTableRecord
100
AcDbLinetypeTableRecord
  2
CONTINUOUS
 70
     0
  3
Solid line
 72
    65
 73
     0
 40
0.0
  0
LTYPE
  5
4B
330
5
100
AcDbSymbolTableRecord
100
AcDbLinetypeTableRecord
  2
AM_ISO02W050
 70
     0
  3
__ __ __ __ __ __ __ __ __ __ __ __ __ __ __
 72
    65
 73
     2
 40
7.5
 49
6.0
 74
     0
 49
-1.5
 74
     0
  0
LTYPE
  5
4C
330
5
100
AcDbSymbolTableRecord
100
AcDbLinetypeTableRecord
  2
AM_ISO08W050
 70
     0
  3
____ . ____ . ____ . ____ . ____ . ____ . ____
 72
    65
 73
     4
 40
18.0
 49
12.0
 74
     0
 49
-1.5
 74
     0
 49
3.0
 74
     0
 49
-1.5
 74
     0
  0
LTYPE
  5
4D
330
5
100
AcDbSymbolTableRecord
100
AcDbLinetypeTableRecord
  2
AM_ISO09W050
 70
     0
  3
_____ . . _____ . . _____ . . ____ .. ____
 72
    65
 73
     6
 40
22.5
 49
12.0
 74
     0
 49
-1.5
 74
     0
 49
3.0
 74
     0
 49
-1.5
 74
     0
 49
3.0
 74
     0
 49
-1.5
 74
     0
  0
LTYPE
  5
4E
330
5
100
AcDbSymbolTableRecord
100
AcDbLinetypeTableRecord
  2
AMCONSTR
 70
     0
  3
_______________________
 72
    65
 73
     2
 40
9999.0
 49
9999.0
 74
     0
 49
0.0
 74
     0
  0
LTYPE
  5
4F
330
5
100
AcDbSymbolTableRecord
100
AcDbLinetypeTableRecord
  2
AM_ISO02W050X2
 70
     0
  3
 _ _ _ _ _ _ _ _ _ _ _ _
 72
    65
 73
     2
 40
3.75
 49
3.0
 74
     0
 49
-0.75
 74
     0
  0
LTYPE
  5
50
330
5
100
AcDbSymbolTableRecord
100
AcDbLinetypeTableRecord
  2
AM_ISO08W050X2
 70
     0
  3
__ . __ . __ . __ . __ . __
 72
    65
 73
     4
 40
9.0
 49
6.0
 74
     0
 49
-0.75
 74
     0
 49
1.5
 74
     0
 49
-0.75
 74
     0
  0
LTYPE
  5
53
330
5
100
AcDbSymbolTableRecord
100
AcDbLinetypeTableRecord
  2
AMZIGZAG
 70
     0
  3
/\/-/\/-/\/-/\/-/\/-/\/
 72
    65
 73
     2
 40
11.00009999999999
 49
0.0001
 74
     4
 75
   135
340
52
 46
0.04
 50
0.0
 44
0.0
 45
0.0
 49
-11.0
 74
     0
  0
LTYPE
  5
166
330
5
100
AcDbSymbolTableRecord
100
AcDbLinetypeTableRecord
  2
ACJISTGL
 70
     0
  3
_ _ _ _ _
 72
    65
 73
     2
 40
3.0
 49
2.0
 74
     0
 49
-1.0
 74
     0
  0
LTYPE
  5
26A
330
5
100
AcDbSymbolTableRecord
100
AcDbLinetypeTableRecord
  2
ACJISTGB
 70
     0
  3
__ . . __ . .
 72
    65
 73
     6
 40
9.0
 49
4.0
 74
     0
 49
-1.0
 74
     0
 49
1.0
 74
     0
 49
-1.0
 74
     0
 49
1.0
 74
     0
 49
-1.0
 74
     0
  0
ENDTAB
  0
TABLE
  2
LAYER
  5
2
330
0
100
AcDbSymbolTable
 70
     7
  0
LAYER
  5
10
330
2
100
AcDbSymbolTableRecord
100
AcDbLayerTableRecord
  2
0
 70
     0
 62
     7
  6
CONTINUOUS
  0
LAYER
  5
3F9
330
2
100
AcDbSymbolTableRecord
100
AcDbLayerTableRecord
  2
AM_0
 70
     0
 62
     7
  6
CONTINUOUS
  0
LAYER
  5
BA4
330
2
100
AcDbSymbolTableRecord
100
AcDbLayerTableRecord
  2
AM_5
 70
     0
 62
     3
  6
CONTINUOUS
  0
LAYER
  5
BA6
330
2
100
AcDbSymbolTableRecord
100
AcDbLayerTableRecord
  2
AM_7
 70
     0
 62
     4
  6
AM_ISO08W050
  0
LAYER
  5
E64
330
2
100
AcDbSymbolTableRecord
100
AcDbLayerTableRecord
  2
AM_6
 70
     0
 62
     2
  6
CONTINUOUS
  0
LAYER
  5
F4D
330
2
100
AcDbSymbolTableRecord
100
AcDbLayerTableRecord
  2
DEFPOINTS
 70
     0
 62
     7
  6
CONTINUOUS
  0
LAYER
  5
4E80
330
2
100
AcDbSymbolTableRecord
100
AcDbLayerTableRecord
  2
AM_11
 70
     0
 62
     3
  6
AM_ISO09W050
  0
ENDTAB
  0
TABLE
  2
STYLE
  5
3
330
0
100
AcDbSymbolTable
 70
     5
  0
STYLE
  5
11
330
3
100
AcDbSymbolTableRecord
100
AcDbTextStyleTableRecord
  2
STANDARD
 70
     0
 40
0.0
 41
1.0
 50
0.0
 71
     0
 42
2.5
  3
simplex.shx
  4
EXTFONT.SHX
  0
STYLE
  5
52
330
3
100
AcDbSymbolTableRecord
100
AcDbTextStyleTableRecord
  2

 70
     1
 40
0.0
 41
1.0
 50
0.0
 71
     0
 42
2.5
  3
ltypeshp.shx
  4

  0
STYLE
  5
6B
330
3
100
AcDbSymbolTableRecord
100
AcDbTextStyleTableRecord
  2
ASAMI
 70
     0
 40
0.0
 41
1.0
 50
0.0
 71
     0
 42
2.5
  3
simplex.shx
  4
EXTFONT.SHX
  0
STYLE
  5
262
330
3
100
AcDbSymbolTableRecord
100
AcDbTextStyleTableRecord
  2
ACJISTS
 70
     0
 40
1.0
 41
1.0
 50
0.0
 71
     0
 42
2.5
  3
simplex.shx
  4
bigfont.shx
  0
STYLE
  5
269
330
3
100
AcDbSymbolTableRecord
100
AcDbTextStyleTableRecord
  2
ACJISGDT
 70
     0
 40
0.0
 41
1.0
 50
0.0
 71
     0
 42
2.5
  3
amgdtans.shx
  4

  0
ENDTAB
  0
TABLE
  2
VIEW
  5
6
330
0
100
AcDbSymbolTable
 70
     0
  0
ENDTAB
  0
TABLE
  2
UCS
  5
7
330
0
100
AcDbSymbolTable
 70
     0
  0
ENDTAB
  0
TABLE
  2
APPID
  5
9
330
0
100
AcDbSymbolTable
 70
    24
  0
APPID
  5
12
330
9
100
AcDbSymbolTableRecord
100
AcDbRegAppTableRecord
  2
ACAD
 70
     0
  0
APPID
  5
30
330
9
100
AcDbSymbolTableRecord
100
AcDbRegAppTableRecord
  2
MCAD_NO_VIS
 70
     0
  0
APPID
  5
31
330
9
100
AcDbSymbolTableRecord
100
AcDbRegAppTableRecord
  2
ACAD_TEMP_GRAPHIC
 70
     0
  0
APPID
  5
2C2
330
9
100
AcDbSymbolTableRecord
100
AcDbRegAppTableRecord
  2
GENIUS_GENDTOL_13
 70
     0
  0
APPID
  5
339
330
9
100
AcDbSymbolTableRecord
100
AcDbRegAppTableRecord
  2
GENIUS_GENODEF_13
 70
     0
  0
APPID
  5
33A
330
9
100
AcDbSymbolTableRecord
100
AcDbRegAppTableRecord
  2
GENIUS_GENOBJ-N-RSBK_13
 70
     0
  0
APPID
  5
33B
330
9
100
AcDbSymbolTableRecord
100
AcDbRegAppTableRecord
  2
GENIUS_GENOBJ-N-LIB_13
 70
     0
  0
APPID
  5
33C
330
9
100
AcDbSymbolTableRecord
100
AcDbRegAppTableRecord
  2
GENIUS_GENSCALE_13
 70
     0
  0
APPID
  5
378
330
9
100
AcDbSymbolTableRecord
100
AcDbRegAppTableRecord
  2
GENIUS_GENDIMSH_14
 70
     0
  0
APPID
  5
BB0
330
9
100
AcDbSymbolTableRecord
100
AcDbRegAppTableRecord
  2
GENIUS_GENOBJ-N-CEN_13
 70
     0
  0
APPID
  5
BB1
330
9
100
AcDbSymbolTableRecord
100
AcDbRegAppTableRecord
  2
GENIUS_GENFIL_13
 70
     0
  0
APPID
  5
BB2
330
9
100
AcDbSymbolTableRecord
100
AcDbRegAppTableRecord
  2
GENIUS_GENOBJ-N-CHA_13
 70
     0
  0
APPID
  5
1FAF
330
9
100
AcDbSymbolTableRecord
100
AcDbRegAppTableRecord
  2
GENIUS_GENOBJ-N-CRS_13
 70
     0
  0
APPID
  5
1FB0
330
9
100
AcDbSymbolTableRecord
100
AcDbRegAppTableRecord
  2
GENIUS_GENOENT_13
 70
     0
  0
APPID
  5
1FB1
330
9
100
AcDbSymbolTableRecord
100
AcDbRegAppTableRecord
  2
GENIUS_GENOREF_13
 70
     0
  0
APPID
  5
1FB2
330
9
100
AcDbSymbolTableRecord
100
AcDbRegAppTableRecord
  2
GENIUS_GENOLIS_13
 70
     0
  0
APPID
  5
1FB7
330
9
100
AcDbSymbolTableRecord
100
AcDbRegAppTableRecord
  2
GENIUS_GENOBJ-N-FIL_13
 70
     0
  0
APPID
  5
22A8
330
9
100
AcDbSymbolTableRecord
100
AcDbRegAppTableRecord
  2
GEVID1056506048
 70
     0
  0
APPID
  5
22A9
330
9
100
AcDbSymbolTableRecord
100
AcDbRegAppTableRecord
  2
GEVDC
 70
     0
  0
APPID
  5
22AC
330
9
100
AcDbSymbolTableRecord
100
AcDbRegAppTableRecord
  2
GENIUS_GENBH_13
 70
     0
  0
APPID
  5
22B8
330
9
100
AcDbSymbolTableRecord
100
AcDbRegAppTableRecord
  2
GENIUS_GENOBJ-NBEHI-BHF_13
 70
     0
  0
APPID
  5
22BA
330
9
100
AcDbSymbolTableRecord
100
AcDbRegAppTableRecord
  2
GENIUS_GENOBJ-NBEHI-BHB_13
 70
     0
  0
APPID
  5
35C9
330
9
100
AcDbSymbolTableRecord
100
AcDbRegAppTableRecord
  2
GENIUS_GENREC_14
 70
     0
  0
APPID
  5
35CA
330
9
100
AcDbSymbolTableRecord
100
AcDbRegAppTableRecord
  2
GENIUS_GENOBJ-N-REC_13
 70
     0
  0
ENDTAB
  0
TABLE
  2
DIMSTYLE
  5
A
330
0
100
AcDbSymbolTable
 70
     9
  0
DIMSTYLE
105
58
330
A
100
AcDbSymbolTableRecord
100
AcDbDimStyleTableRecord
  2
AM_JIS
 70
     0
  3

  4
"
  5
OPEN30
  6

  7

 40
1.0
 41
2.5
 42
1.0
 43
12.0
 44
1.0
 45
0.0
 46
0.0
 47
0.1
 48
0.1
140
3.2
141
0.0
142
0.0
143
0.0393701
144
1.0
145
0.0
146
0.71
147
1.5
 71
     0
 72
     0
 73
     0
 74
     0
 75
     0
 76
     0
 77
     3
 78
     8
170
     0
171
     2
172
     1
173
     0
174
     0
175
     0
176
   256
177
   256
178
     2
270
     2
271
     3
272
     3
273
     2
274
     2
340
6B
275
     0
280
     0
281
     0
282
     0
283
     0
284
     0
285
     0
286
     0
287
     3
288
     0
  0
DIMSTYLE
105
5F
330
A
100
AcDbSymbolTableRecord
100
AcDbDimStyleTableRecord
  2
AM_JIS$3
 70
     0
  3

  4
"
  5
OPEN30
  6

  7

 40
1.0
 41
2.5
 42
1.0
 43
10.0
 44
1.0
 45
0.0
 46
0.0
 47
0.1
 48
0.1
140
3.2
141
0.0
142
0.0
143
0.0393701
144
1.0
145
0.0
146
0.71
147
1.5
 71
     0
 72
     0
 73
     0
 74
     1
 75
     0
 76
     0
 77
     3
 78
     8
170
     0
171
     2
172
     0
173
     0
174
     0
175
     0
176
   256
177
   256
178
     2
270
     2
271
     2
272
     3
273
     2
274
     2
340
6B
275
     0
280
     0
281
     0
282
     0
283
     0
284
     0
285
     0
286
     0
287
     0
288
     1
  0
DIMSTYLE
105
60
330
A
100
AcDbSymbolTableRecord
100
AcDbDimStyleTableRecord
  2
AM_JIS$4
 70
     0
  3

  4
"
  5
OPEN30
  6

  7

 40
1.0
 41
2.5
 42
1.0
 43
10.0
 44
1.0
 45
0.0
 46
0.0
 47
0.1
 48
0.1
140
3.2
141
0.0
142
0.0
143
0.0393701
144
1.0
145
0.0
146
0.71
147
1.5
 71
     0
 72
     0
 73
     0
 74
     1
 75
     0
 76
     0
 77
     3
 78
     8
170
     0
171
     2
172
     0
173
     0
174
     0
175
     0
176
   256
177
   256
178
     2
270
     2
271
     2
272
     3
273
     2
274
     2
340
6B
275
     0
280
     0
281
     0
282
     0
283
     0
284
     0
285
     0
286
     0
287
     0
288
     1
  0
DIMSTYLE
105
61
330
A
100
AcDbSymbolTableRecord
100
AcDbDimStyleTableRecord
  2
AM_JIS$6
 70
     0
  3

  4
"
  5
OPEN30
  6

  7

 40
1.0
 41
2.5
 42
1.0
 43
10.0
 44
1.0
 45
0.0
 46
0.0
 47
0.1
 48
0.1
140
3.2
141
0.0
142
0.0
143
0.0393701
144
1.0
145
0.0
146
0.71
147
1.5
 71
     0
 72
     0
 73
     0
 74
     0
 75
     0
 76
     0
 77
     0
 78
     8
170
     0
171
     2
172
     1
173
     0
174
     0
175
     0
176
   256
177
   256
178
     2
270
     2
271
     2
272
     2
273
     2
274
     2
340
6B
275
     0
280
     0
281
     0
282
     0
283
     0
284
     0
285
     0
286
     0
287
     3
288
     0
  0
DIMSTYLE
105
62
330
A
100
AcDbSymbolTableRecord
100
AcDbDimStyleTableRecord
  2
AM_JIS$7
 70
     0
  3

  4
"
  5
OPEN30
  6

  7

 40
1.0
 41
2.5
 42
1.0
 43
10.0
 44
1.0
 45
0.0
 46
0.0
 47
0.1
 48
0.1
140
3.2
141
0.0
142
0.0
143
0.0393701
144
1.0
145
0.0
146
0.71
147
1.5
 71
     0
 72
     0
 73
     0
 74
     0
 75
     0
 76
     0
 77
     3
 78
     8
170
     0
171
     2
172
     1
173
     0
174
     0
175
     0
176
   256
177
   256
178
     2
270
     2
271
     2
272
     3
273
     2
274
     2
340
6B
275
     0
280
     0
281
     0
282
     0
283
     0
284
     0
285
     0
286
     0
287
     3
288
     0
  0
DIMSTYLE
105
63
330
A
100
AcDbSymbolTableRecord
100
AcDbDimStyleTableRecord
  2
AM_JIS$SF
 70
     0
  3

  4
"
  5
OPEN30
  6

  7

 40
1.0
 41
2.5
 42
1.0
 43
10.0
 44
1.0
 45
0.0
 46
0.0
 47
0.1
 48
0.1
140
3.2
141
0.0
142
0.0
143
0.0393701
144
1.0
145
0.0
146
0.71
147
1.5
 71
     0
 72
     0
 73
     0
 74
     0
 75
     1
 76
     1
 77
     3
 78
     8
170
     0
171
     2
172
     1
173
     0
174
     0
175
     0
176
   256
177
   256
178
     2
270
     2
271
     2
272
     2
273
     2
274
     2
340
6B
275
     0
280
     0
281
     0
282
     0
283
     0
284
     0
285
     0
286
     0
287
     3
288
     0
  0
DIMSTYLE
105
68
330
A
100
AcDbSymbolTableRecord
100
AcDbDimStyleTableRecord
  2
AM_JIS$SH
 70
     0
  3

  4
"
  5

  6
GENAXEH
  7
OPEN30
 40
1.0
 41
2.5
 42
1.0
 43
10.0
 44
1.0
 45
0.0
 46
0.0
 47
0.1
 48
0.1
140
3.2
141
0.0
142
0.0
143
0.0393701
144
2.0
145
0.0
146
0.71
147
1.5
 71
     0
 72
     0
 73
     0
 74
     0
 75
     1
 76
     1
 77
     3
 78
     8
170
     0
171
     2
172
     1
173
     1
174
     0
175
     0
176
   256
177
   256
178
     2
270
     2
271
     2
272
     2
273
     2
274
     2
340
6B
275
     0
280
     0
281
     0
282
     0
283
     0
284
     0
285
     0
286
     0
287
     3
288
     0
  0
DIMSTYLE
105
B34
330
A
100
AcDbSymbolTableRecord
100
AcDbDimStyleTableRecord
  2
AM_JIS$2
 70
     0
  3

  4
"
  5
OPEN30
  6

  7

 40
1.0
 41
2.5
 42
1.0
 43
12.0
 44
1.0
 45
0.0
 46
0.0
 47
0.1
 48
0.1
140
3.2
141
0.0
142
0.0
143
0.0393701
144
1.0
145
0.0
146
0.71
147
1.5
 71
     0
 72
     0
 73
     0
 74
     0
 75
     0
 76
     0
 77
     3
 78
     8
170
     0
171
     2
172
     1
173
     0
174
     0
175
     0
176
   256
177
   256
178
     2
270
     2
271
     3
272
     3
273
     2
274
     2
340
6B
275
     0
280
     0
281
     0
282
     0
283
     0
284
     0
285
     0
286
     0
287
     3
288
     0
  0
DIMSTYLE
105
3B48
102
{ACAD_REACTORS
330
E8D3
330
E95F
330
E7EC
330
E760
330
E6D0
330
EA21
330
EAD3
102
}
330
A
100
AcDbSymbolTableRecord
100
AcDbDimStyleTableRecord
  2
AM_JIS$0
 70
     0
  3

  4
"
  5
OPEN30
  6

  7

 40
1.0
 41
2.5
 42
0.0
 43
10.0
 44
1.0
 45
0.0
 46
0.0
 47
0.1
 48
0.1000000001
140
3.799999999999999
141
0.0
142
0.0
143
0.0393701
144
1.0
145
0.0
146
0.71
147
1.5
 71
     0
 72
     0
 73
     0
 74
     0
 75
     0
 76
     0
 77
     3
 78
     1
170
     0
171
     2
172
     1
173
     0
174
     0
175
     0
176
     3
177
     3
178
     2
270
     2
271
     2
272
     2
273
     2
274
     2
340
11
275
     1
280
     0
281
     0
282
     0
283
     0
284
     8
285
     0
286
     0
287
     0
288
     0
  0
ENDTAB
  0
TABLE
  2
BLOCK_RECORD
  5
1
330
0
100
AcDbSymbolTable
 70
    12
  0
BLOCK_RECORD
  5
1F
102
{ACAD_XDICTIONARY
360
74
102
}
330
1
100
AcDbSymbolTableRecord
100
AcDbBlockTableRecord
  2
*MODEL_SPACE
  0
BLOCK_RECORD
  5
101
102
{ACAD_XDICTIONARY
360
EE4F
102
}
330
1
100
AcDbSymbolTableRecord
100
AcDbBlockTableRecord
  2
*PAPER_SPACE
  0
BLOCK_RECORD
  5
59
330
1
100
AcDbSymbolTableRecord
100
AcDbBlockTableRecord
  2
_OPEN30
  0
BLOCK_RECORD
  5
64
330
1
100
AcDbSymbolTableRecord
100
AcDbBlockTableRecord
  2
GENAXEH
  0
BLOCK_RECORD
  5
E6D1
330
1
100
AcDbSymbolTableRecord
100
AcDbBlockTableRecord
  2
*D5
  0
BLOCK_RECORD
  5
E761
330
1
100
AcDbSymbolTableRecord
100
AcDbBlockTableRecord
  2
*D6
  0
BLOCK_RECORD
  5
E7ED
330
1
100
AcDbSymbolTableRecord
100
AcDbBlockTableRecord
  2
*D7
  0
BLOCK_RECORD
  5
E8D4
330
1
100
AcDbSymbolTableRecord
100
AcDbBlockTableRecord
  2
*D8
  0
BLOCK_RECORD
  5
E960
330
1
100
AcDbSymbolTableRecord
100
AcDbBlockTableRecord
  2
*D9
  0
BLOCK_RECORD
  5
EA22
330
1
100
AcDbSymbolTableRecord
100
AcDbBlockTableRecord
  2
*D10
  0
BLOCK_RECORD
  5
EAD4
330
1
100
AcDbSymbolTableRecord
100
AcDbBlockTableRecord
  2
*D11
  0
ENDTAB
  0
ENDSEC
  0
SECTION
  2
BLOCKS
  0
BLOCK
  5
20
330
1F
100
AcDbEntity
  8
0
100
AcDbBlockBegin
  2
*MODEL_SPACE
 70
     0
 10
0.0
 20
0.0
 30
0.0
  3
*MODEL_SPACE
  1

  0
ENDBLK
  5
21
330
1F
100
AcDbEntity
  8
0
100
AcDbBlockEnd
  0
BLOCK
  5
103
330
101
100
AcDbEntity
 67
     1
  8
0
100
AcDbBlockBegin
  2
*PAPER_SPACE
 70
     0
 10
0.0
 20
0.0
 30
0.0
  3
*PAPER_SPACE
  1

  0
ENDBLK
  5
104
330
101
100
AcDbEntity
 67
     1
  8
0
100
AcDbBlockEnd
  0
BLOCK
  5
5D
330
59
100
AcDbEntity
  8
0
100
AcDbBlockBegin
  2
_OPEN30
 70
     0
 10
0.0
 20
0.0
 30
0.0
  3
_OPEN30
  1

  0
LINE
  5
5A
330
59
100
AcDbEntity
  8
0
 62
     0
100
AcDbLine
 10
-1.0
 20
0.26794919
 30
0.0
 11
0.0
 21
0.0
 31
0.0
  0
LINE
  5
5B
330
59
100
AcDbEntity
  8
0
 62
     0
100
AcDbLine
 10
0.0
 20
0.0
 30
0.0
 11
-1.0
 21
-0.26794919
 31
0.0
  0
LINE
  5
5C
330
59
100
AcDbEntity
  8
0
 62
     0
100
AcDbLine
 10
0.0
 20
0.0
 30
0.0
 11
-1.0
 21
0.0
 31
0.0
  0
ENDBLK
  5
5E
330
59
100
AcDbEntity
  8
0
100
AcDbBlockEnd
  0
BLOCK
  5
66
330
64
100
AcDbEntity
  8
0
100
AcDbBlockBegin
  2
GENAXEH
 70
     0
 10
0.0
 20
0.0
 30
0.0
  3
GENAXEH
  1

  0
LINE
  5
65
330
64
100
AcDbEntity
  8
0
100
AcDbLine
 10
-1.0
 20
0.0
 30
0.0
 11
1.0
 21
0.0
 31
0.0
  0
ENDBLK
  5
67
330
64
100
AcDbEntity
  8
0
100
AcDbBlockEnd
  0
BLOCK
  5
E6DB
330
E6D1
100
AcDbEntity
  8
0
100
AcDbBlockBegin
  2
*D5
 70
     1
 10
0.0
 20
0.0
 30
0.0
  3
*D5
  1

  0
LINE
  5
EE51
330
E6D1
100
AcDbEntity
  8
AM_5
100
AcDbLine
 10
-10.00000000000042
 20
25.50000000000014
 30
0.0
 11
-10.00000000000042
 21
39.50000000000017
 31
0.0
  0
LINE
  5
EE52
330
E6D1
100
AcDbEntity
  8
AM_5
100
AcDbLine
 10
-0.0000000000003917
 20
25.50000000000011
 30
0.0
 11
-0.0000000000003943
 21
39.50000000000017
 31
0.0
  0
LINE
  5
EE53
330
E6D1
100
AcDbEntity
  8
AM_5
100
AcDbLine
 10
-7.500000000000423
 20
39.00000000000017
 30
0.0
 11
-2.500000000000394
 21
39.00000000000017
 31
0.0
  0
INSERT
  5
EE54
330
E6D1
100
AcDbEntity
  8
AM_5
100
AcDbBlockReference
  2
_OPEN30
 10
-10.00000000000042
 20
39.00000000000017
 30
0.0
 41
2.5
 42
2.5
 43
2.5
 50
180.0
  0
INSERT
  5
EE55
330
E6D1
100
AcDbEntity
  8
AM_5
100
AcDbBlockReference
  2
_OPEN30
 10
-0.0000000000003942
 20
39.00000000000017
 30
0.0
 41
2.5
 42
2.5
 43
2.5
  0
MTEXT
  5
EE56
330
E6D1
100
AcDbEntity
  8
AM_5
 62
     2
100
AcDbMText
 10
-5.00000000000041
 20
42.10000000000017
 30
0.0
 40
3.2
 41
0.0
 71
     5
 72
     1
  1
10
  7
ASAMI
  0
POINT
  5
EE57
330
E6D1
100
AcDbEntity
  8
DEFPOINTS
 62
     0
100
AcDbPoint
 10
-10.00000000000037
 20
25.00000000000017
 30
0.0
  0
POINT
  5
EE58
330
E6D1
100
AcDbEntity
  8
DEFPOINTS
 62
     0
100
AcDbPoint
 10
-0.0000000000003411
 20
25.00000000000011
 30
0.0
  0
POINT
  5
EE59
330
E6D1
100
AcDbEntity
  8
DEFPOINTS
 62
     0
100
AcDbPoint
 10
-0.0000000000003153
 20
39.00000000000017
 30
0.0
  0
ENDBLK
  5
E6DC
330
E6D1
100
AcDbEntity
  8
0
100
AcDbBlockEnd
  0
BLOCK
  5
E76B
330
E761
100
AcDbEntity
  8
0
100
AcDbBlockBegin
  2
*D6
 70
     1
 10
0.0
 20
0.0
 30
0.0
  3
*D6
  1

  0
LINE
  5
EE5A
330
E761
100
AcDbEntity
  8
AM_5
100
AcDbLine
 10
0.4999999999996035
 20
25.00000000000017
 30
0.0
 11
14.49999999999972
 21
25.00000000000019
 31
0.0
  0
LINE
  5
EE5B
330
E761
100
AcDbEntity
  8
AM_5
100
AcDbLine
 10
0.4999999999998282
 20
-24.99999999999985
 30
0.0
 11
14.49999999999982
 21
-24.99999999999983
 31
0.0
  0
LINE
  5
EE5C
330
E761
100
AcDbEntity
  8
AM_5
100
AcDbLine
 10
13.99999999999973
 20
22.50000000000019
 30
0.0
 11
13.99999999999981
 21
-22.49999999999983
 31
0.0
  0
INSERT
  5
EE5D
330
E761
100
AcDbEntity
  8
AM_5
100
AcDbBlockReference
  2
_OPEN30
 10
13.99999999999972
 20
25.00000000000019
 30
0.0
 41
2.5
 42
2.5
 43
2.5
 50
90.0000000000001
  0
INSERT
  5
EE5E
330
E761
100
AcDbEntity
  8
AM_5
100
AcDbBlockReference
  2
_OPEN30
 10
13.99999999999982
 20
-24.99999999999983
 30
0.0
 41
2.5
 42
2.5
 43
2.5
 50
270.0000000000001
  0
MTEXT
  5
EE5F
330
E761
100
AcDbEntity
  8
AM_5
 62
     2
100
AcDbMText
 10
10.89999999999977
 20
0.0000000000001779
 30
0.0
 40
3.2
 41
0.0
 71
     5
 72
     1
  1
%%c50
  7
ASAMI
 11
-0.000000000000002
 21
1.0
 31
0.0
  0
POINT
  5
EE60
330
E761
100
AcDbEntity
  8
DEFPOINTS
 62
     0
100
AcDbPoint
 10
-0.0000000000003411
 20
25.00000000000017
 30
0.0
  0
POINT
  5
EE61
330
E761
100
AcDbEntity
  8
DEFPOINTS
 62
     0
100
AcDbPoint
 10
-0.0000000000002274
 20
-24.99999999999985
 30
0.0
  0
POINT
  5
EE62
330
E761
100
AcDbEntity
  8
DEFPOINTS
 62
     0
100
AcDbPoint
 10
13.99999999999977
 20
-24.99999999999986
 30
0.0
  0
ENDBLK
  5
E76C
330
E761
100
AcDbEntity
  8
0
100
AcDbBlockEnd
  0
BLOCK
  5
E7F7
330
E7ED
100
AcDbEntity
  8
0
100
AcDbBlockBegin
  2
*D7
 70
     1
 10
0.0
 20
0.0
 30
0.0
  3
*D7
  1

  0
LINE
  5
EE63
330
E7ED
100
AcDbEntity
  8
AM_5
100
AcDbLine
 10
-0.0000000000001759
 20
-25.49999999999986
 30
0.0
 11
-0.0000000000001484
 21
-39.49999999999985
 31
0.0
  0
LINE
  5
EE64
330
E7ED
100
AcDbEntity
  8
AM_5
100
AcDbLine
 10
-49.99999618530224
 20
-21.49999237061
 30
0.0
 11
-49.9999961853022
 21
-39.49999999999995
 31
0.0
  0
LINE
  5
EE65
330
E7ED
100
AcDbEntity
  8
AM_5
100
AcDbLine
 10
-2.500000000000149
 20
-38.99999999999986
 30
0.0
 11
-47.4999961853022
 21
-38.99999999999995
 31
0.0
  0
INSERT
  5
EE66
330
E7ED
100
AcDbEntity
  8
AM_5
100
AcDbBlockReference
  2
_OPEN30
 10
-0.0000000000001494
 20
-38.99999999999986
 30
0.0
 41
2.5
 42
2.5
 43
2.5
 50
0.0000000000001018
  0
INSERT
  5
EE67
330
E7ED
100
AcDbEntity
  8
AM_5
100
AcDbBlockReference
  2
_OPEN30
 10
-49.9999961853022
 20
-38.99999999999995
 30
0.0
 41
2.5
 42
2.5
 43
2.5
 50
180.0000000000001
  0
MTEXT
  5
EE68
330
E7ED
100
AcDbEntity
  8
AM_5
 62
     2
100
AcDbMText
 10
-24.99999809265118
 20
-35.8999999999999
 30
0.0
 40
3.2
 41
0.0
 71
     5
 72
     1
  1
50
  7
ASAMI
  0
POINT
  5
EE69
330
E7ED
100
AcDbEntity
  8
DEFPOINTS
 62
     0
100
AcDbPoint
 10
-0.0000000000002274
 20
-24.99999999999985
 30
0.0
  0
POINT
  5
EE6A
330
E7ED
100
AcDbEntity
  8
DEFPOINTS
 62
     0
100
AcDbPoint
 10
-49.99999618530228
 20
-20.9999923706099
 30
0.0
  0
POINT
  5
EE6B
330
E7ED
100
AcDbEntity
  8
DEFPOINTS
 62
     0
100
AcDbPoint
 10
-49.99999618530228
 20
-38.99999999999986
 30
0.0
  0
ENDBLK
  5
E7F8
330
E7ED
100
AcDbEntity
  8
0
100
AcDbBlockEnd
  0
BLOCK
  5
E8DE
330
E8D4
100
AcDbEntity
  8
0
100
AcDbBlockBegin
  2
*D8
 70
     1
 10
0.0
 20
0.0
 30
0.0
  3
*D8
  1

  0
LINE
  5
EE6C
330
E8D4
100
AcDbEntity
  8
AM_5
100
AcDbLine
 10
-49.9999954700469
 20
-21.49062347411999
 30
0.0
 11
-49.99999547004686
 21
-39.49999999999995
 31
0.0
  0
LINE
  5
EE6D
330
E8D4
100
AcDbEntity
  8
AM_5
100
AcDbLine
 10
-350.0000000000001
 20
-20.6961593627912
 30
0.0
 11
-350.0000000000001
 21
-39.50000000000057
 31
0.0
  0
LINE
  5
EE6E
330
E8D4
100
AcDbEntity
  8
AM_5
100
AcDbLine
 10
-52.49999547004686
 20
-38.99999999999996
 30
0.0
 11
-347.5000000000001
 21
-39.00000000000056
 31
0.0
  0
INSERT
  5
EE6F
330
E8D4
100
AcDbEntity
  8
AM_5
100
AcDbBlockReference
  2
_OPEN30
 10
-49.99999547004686
 20
-38.99999999999995
 30
0.0
 41
2.5
 42
2.5
 43
2.5
 50
0.0000000000001018
  0
INSERT
  5
EE70
330
E8D4
100
AcDbEntity
  8
AM_5
100
AcDbBlockReference
  2
_OPEN30
 10
-350.0000000000001
 20
-39.00000000000057
 30
0.0
 41
2.5
 42
2.5
 43
2.5
 50
180.0000000000001
  0
MTEXT
  5
EE71
330
E8D4
100
AcDbEntity
  8
AM_5
 62
     2
100
AcDbMText
 10
-199.9999977350235
 20
-35.90000000000026
 30
0.0
 40
3.2
 41
0.0
 71
     5
 72
     1
  1
300
  7
ASAMI
  0
POINT
  5
EE72
330
E8D4
100
AcDbEntity
  8
DEFPOINTS
 62
     0
100
AcDbPoint
 10
-49.99999547004694
 20
-20.9906234741199
 30
0.0
  0
POINT
  5
EE73
330
E8D4
100
AcDbEntity
  8
DEFPOINTS
 62
     0
100
AcDbPoint
 10
-350.0000000000002
 20
-20.19615936279049
 30
0.0
  0
POINT
  5
EE74
330
E8D4
100
AcDbEntity
  8
DEFPOINTS
 62
     0
100
AcDbPoint
 10
-350.0000000000002
 20
-38.99999999999986
 30
0.0
  0
ENDBLK
  5
E8DF
330
E8D4
100
AcDbEntity
  8
0
100
AcDbBlockEnd
  0
BLOCK
  5
E96A
330
E960
100
AcDbEntity
  8
0
100
AcDbBlockBegin
  2
*D9
 70
     1
 10
0.0
 20
0.0
 30
0.0
  3
*D9
  1

  0
LINE
  5
EE75
330
E960
100
AcDbEntity
  8
AM_5
100
AcDbLine
 10
-347.4999847412103
 20
20.99999237059969
 30
0.0
 11
-364.5000000000003
 21
20.99999237059966
 31
0.0
  0
LINE
  5
EE76
330
E960
100
AcDbEntity
  8
AM_5
100
AcDbLine
 10
-347.4999847412102
 20
-20.99999237061124
 30
0.0
 11
-364.5000000000001
 21
-20.99999237061128
 31
0.0
  0
LINE
  5
EE77
330
E960
100
AcDbEntity
  8
AM_5
100
AcDbLine
 10
-364.0000000000002
 20
18.49999237059966
 30
0.0
 11
-364.0000000000001
 21
-18.49999237061127
 31
0.0
  0
INSERT
  5
EE78
330
E960
100
AcDbEntity
  8
AM_5
100
AcDbBlockReference
  2
_OPEN30
 10
-364.0000000000002
 20
20.99999237059966
 30
0.0
 41
2.5
 42
2.5
 43
2.5
 50
90.0000000000001
  0
INSERT
  5
EE79
330
E960
100
AcDbEntity
  8
AM_5
100
AcDbBlockReference
  2
_OPEN30
 10
-364.0000000000001
 20
-20.99999237061128
 30
0.0
 41
2.5
 42
2.5
 43
2.5
 50
270.0000000000001
  0
MTEXT
  5
EE7A
330
E960
100
AcDbEntity
  8
AM_5
 62
     2
100
AcDbMText
 10
-367.1000000000002
 20
-0.0000000000057997
 30
0.0
 40
3.2
 41
0.0
 71
     5
 72
     1
  1
%%c42
  7
ASAMI
 11
-0.000000000000002
 21
1.0
 31
0.0
  0
POINT
  5
EE7B
330
E960
100
AcDbEntity
  8
DEFPOINTS
 62
     0
100
AcDbPoint
 10
-346.9999847412103
 20
20.99999237060046
 30
0.0
  0
POINT
  5
EE7C
330
E960
100
AcDbEntity
  8
DEFPOINTS
 62
     0
100
AcDbPoint
 10
-346.9999847412102
 20
-20.99999237061047
 30
0.0
  0
POINT
  5
EE7D
330
E960
100
AcDbEntity
  8
DEFPOINTS
 62
     0
100
AcDbPoint
 10
-364.0000000000002
 20
-20.99999237061046
 30
0.0
  0
ENDBLK
  5
E96B
330
E960
100
AcDbEntity
  8
0
100
AcDbBlockEnd
  0
BLOCK
  5
EA2C
330
EA22
100
AcDbEntity
  8
0
100
AcDbBlockBegin
  2
*D10
 70
     1
 10
0.0
 20
0.0
 30
0.0
  3
*D10
  1

  0
LINE
  5
EE7E
330
EA22
100
AcDbEntity
  8
AM_5
100
AcDbLine
 10
-41.29999542236394
 20
16.79063105582829
 30
0.0
 11
-41.29999542236387
 21
-16.7906234264363
 31
0.0
  0
INSERT
  5
EE7F
330
EA22
100
AcDbEntity
  8
AM_5
100
AcDbBlockReference
  2
_OPEN30
 10
-41.29999542236394
 20
19.29063105582829
 30
0.0
 41
2.5
 42
2.5
 43
2.5
 50
90.0000000000001
  0
INSERT
  5
EE80
330
EA22
100
AcDbEntity
  8
AM_5
100
AcDbBlockReference
  2
_OPEN30
 10
-41.29999542236387
 20
-19.2906234264363
 30
0.0
 41
2.5
 42
2.5
 43
2.5
 50
270.0000000000001
  0
MTEXT
  5
EE81
330
EA22
100
AcDbEntity
  8
AM_5
 62
     2
100
AcDbMText
 10
-44.39999542236392
 20
5.580576789012378
 30
0.0
 40
3.2
 41
0.0
 71
     5
 72
     1
  1
%%c38.6
  7
ASAMI
 11
-0.000000000000002
 21
1.0
 31
0.0
  0
POINT
  5
EE82
330
EA22
100
AcDbEntity
  8
DEFPOINTS
 62
     0
100
AcDbPoint
 10
-48.29999542236333
 20
19.29063105582838
 30
0.0
  0
POINT
  5
EE83
330
EA22
100
AcDbEntity
  8
DEFPOINTS
 62
     0
100
AcDbPoint
 10
-48.29999542236325
 20
-19.29062342643621
 30
0.0
  0
POINT
  5
EE84
330
EA22
100
AcDbEntity
  8
DEFPOINTS
 62
     0
100
AcDbPoint
 10
-41.29999542236391
 20
-19.29062342643621
 30
0.0
  0
ENDBLK
  5
EA2D
330
EA22
100
AcDbEntity
  8
0
100
AcDbBlockEnd
  0
BLOCK
  5
EADE
330
EAD4
100
AcDbEntity
  8
0
100
AcDbBlockBegin
  2
*D11
 70
     1
 10
0.0
 20
0.0
 30
0.0
  3
*D11
  1

  0
LINE
  5
EE85
330
EAD4
100
AcDbEntity
  8
AM_5
100
AcDbLine
 10
-0.0000000000001759
 20
-25.49999999999986
 30
0.0
 11
-0.0000000000001288
 21
-49.49999999999985
 31
0.0
  0
LINE
  5
EE86
330
EAD4
100
AcDbEntity
  8
AM_5
100
AcDbLine
 10
-350.0000000000001
 20
-20.6961593627912
 30
0.0
 11
-350.0000000000001
 21
-49.50000000000057
 31
0.0
  0
LINE
  5
EE87
330
EAD4
100
AcDbEntity
  8
AM_5
100
AcDbLine
 10
-2.500000000000129
 20
-48.99999999999987
 30
0.0
 11
-347.5000000000001
 21
-49.00000000000056
 31
0.0
  0
INSERT
  5
EE88
330
EAD4
100
AcDbEntity
  8
AM_5
100
AcDbBlockReference
  2
_OPEN30
 10
-0.0000000000001298
 20
-48.99999999999986
 30
0.0
 41
2.5
 42
2.5
 43
2.5
 50
0.0000000000001018
  0
INSERT
  5
EE89
330
EAD4
100
AcDbEntity
  8
AM_5
100
AcDbBlockReference
  2
_OPEN30
 10
-350.0000000000001
 20
-49.00000000000057
 30
0.0
 41
2.5
 42
2.5
 43
2.5
 50
180.0000000000001
  0
MTEXT
  5
EE8A
330
EAD4
100
AcDbEntity
  8
AM_5
 62
     2
100
AcDbMText
 10
-175.0000000000001
 20
-45.90000000000021
 30
0.0
 40
3.2
 41
0.0
 71
     5
 72
     1
  1
350
  7
ASAMI
  0
POINT
  5
EE8B
330
EAD4
100
AcDbEntity
  8
DEFPOINTS
 62
     0
100
AcDbPoint
 10
-0.0000000000002274
 20
-24.99999999999985
 30
0.0
  0
POINT
  5
EE8C
330
EAD4
100
AcDbEntity
  8
DEFPOINTS
 62
     0
100
AcDbPoint
 10
-350.0000000000002
 20
-20.19615936279049
 30
0.0
  0
POINT
  5
EE8D
330
EAD4
100
AcDbEntity
  8
DEFPOINTS
 62
     0
100
AcDbPoint
 10
-350.0000000000002
 20
-48.99999999999986
 30
0.0
  0
ENDBLK
  5
EADF
330
EAD4
100
AcDbEntity
  8
0
100
AcDbBlockEnd
  0
ENDSEC
  0
SECTION
  2
ENTITIES
  0
TEXT
  5
388D
330
1F
100
AcDbEntity
  8
AM_6
100
AcDbText
 10
-208.0952380952381
 20
-71.50000000000014
 30
0.0
 40
5.0
  1
WRC20050EHLS42
 50
359.9999999999998
 51
359.9999999999998
 72
     4
 11
-175.0
 21
-69.00000000000021
 31
0.0
100
AcDbText
  0
SPLINE
  5
E4D3
330
1F
100
AcDbEntity
  8
AM_0
100
AcDbSpline
210
0.0
220
0.0
230
1.0
 70
     8
 71
     3
 72
    11
 73
     7
 74
     5
 42
0.0000000001
 43
0.0000000001
 44
0.0000000001
 40
0.0
 40
0.0
 40
0.0
 40
0.0
 40
0.9938828973514295
 40
1.987747733621341
 40
2.981629825280279
 40
3.9755246354214
 40
3.9755246354214
 40
3.9755246354214
 40
3.9755246354214
 10
-15.12518787384027
 20
-21.52010345458984
 30
0.0
 10
-15.35839156334272
 20
-21.28479088073401
 30
0.0
 10
-15.82479470451351
 20
-20.8141700091796
 30
0.0
 10
-16.52295154069492
 20
-20.10680255917747
 30
0.0
 10
-17.22016587215611
 20
-19.39850017973605
 30
0.0
 10
-17.68380976960024
 20
-18.92514702487749
 30
0.0
 10
-17.91563320159909
 20
-18.68846893310984
 30
0.0
 11
-15.12518787384027
 21
-21.52010345458984
 31
0.0
 11
-15.82455730438226
 21
-20.81392669677984
 31
0.0
 11
-16.52278995513916
 21
-20.10665130614984
 31
0.0
 11
-17.2198705673218
 21
-19.39821624755984
 31
0.0
 11
-17.91563320159909
 21
-18.68846893310984
 31
0.0
  0
LINE
  5
E4D4
330
1F
100
AcDbEntity
  8
AM_0
100
AcDbLine
 10
-12.04224443435671
 20
4.990715026860186
 30
0.0
 11
-15.70370817184453
 21
6.534477233890186
 31
0.0
  0
LINE
  5
E4D5
330
1F
100
AcDbEntity
  8
AM_0
100
AcDbLine
 10
-18.43058092147114
 20
20.69271850586017
 30
0.0
 11
-15.60506916046148
 21
23.48934936523016
 31
0.0
  0
LINE
  5
E4D6
330
1F
100
AcDbEntity
  8
AM_0
100
AcDbLine
 10
-18.1150306165218
 20
-18.99829864501984
 30
0.0
 11
-14.25890254974368
 21
-22.81504058837984
 31
0.0
  0
LINE
  5
E4D7
330
1F
100
AcDbEntity
  8
AM_0
100
AcDbLine
 10
-15.54841446876525
 20
-23.32425689696984
 30
0.0
 11
-18.31899866461748
 21
-20.58194732665984
 31
0.0
  0
LINE
  5
E4D8
330
1F
100
AcDbEntity
  8
AM_0
100
AcDbLine
 10
-18.43056545406577
 20
-20.69271087645984
 30
0.0
 11
-15.60505366325375
 21
-23.48935699462984
 31
0.0
  0
LINE
  5
E4D9
330
1F
100
AcDbEntity
  8
AM_0
100
AcDbLine
 10
-6.999996185303331
 20
3.751434326170169
 30
0.0
 11
-23.43099212646481
 21
3.84701538086017
 31
0.0
  0
LINE
  5
E4DA
330
1F
100
AcDbEntity
  8
AM_0
100
AcDbLine
 10
-16.85237574577331
 20
5.423912048340127
 30
0.0
 11
-13.01678323745733
 21
5.401603698730184
 31
0.0
  0
LINE
  5
E4DB
330
1F
100
AcDbEntity
  8
AM_0
100
AcDbLine
 10
-16.84793829917913
 20
6.186805725100157
 30
0.0
 11
-14.85157322883611
 21
6.175209045410156
 31
0.0
  0
LINE
  5
E4DC
330
1F
100
AcDbEntity
  8
AM_0
100
AcDbLine
 10
-13.88969659805303
 20
2.79150390625017
 30
0.0
 11
-17.91563314199453
 21
2.814910888670169
 31
0.0
  0
LINE
  5
E4DD
330
1F
100
AcDbEntity
  8
AM_7
100
AcDbLine
 10
-357.3360532099641
 20
-0.0000000000005116
 30
0.0
 11
1.947597503661683
 21
0.0000000000001705
 31
0.0
  0
SPLINE
  5
E4E1
330
1F
100
AcDbEntity
  8
AM_0
100
AcDbSpline
210
0.0
220
0.0
230
1.0
 70
     8
 71
     3
 72
    11
 73
     7
 74
     5
 42
0.0000000001
 43
0.0000000001
 44
0.0000000001
 40
0.0
 40
0.0
 40
0.0
 40
0.0
 40
0.0884415184266075
 40
0.1768830368532433
 40
0.2653236016635892
 40
0.3537641664740772
 40
0.3537641664740772
 40
0.3537641664740772
 40
0.3537641664740772
 10
-18.96403503417968
 20
-18.38277435302984
 30
0.0
 10
-18.93455632527945
 20
-18.38309987411388
 30
0.0
 10
-18.87559890747899
 20
-18.38375091628197
 30
0.0
 10
-18.78716309858118
 20
-18.3847274715114
 30
0.0
 10
-18.69872760773536
 20
-18.38570404128196
 30
0.0
 10
-18.63977082570672
 20
-18.38635508244721
 30
0.0
 10
-18.61029243469238
 20
-18.38668060302984
 30
0.0
 11
-18.96403503417968
 21
-18.38277435302984
 31
0.0
 11
-18.8755989074707
 21
-18.38375091552984
 31
0.0
 11
-18.78716278076169
 21
-18.38472747802984
 31
0.0
 11
-18.6987276077271
 21
-18.38570404052984
 31
0.0
 11
-18.61029243469238
 21
-18.38668060302984
 31
0.0
  0
SPLINE
  5
E4E2
330
1F
100
AcDbEntity
  8
AM_0
100
AcDbSpline
210
0.0
220
0.0
230
1.0
 70
     8
 71
     3
 72
    11
 73
     7
 74
     5
 42
0.0000000001
 43
0.0000000001
 44
0.0000000001
 40
0.0
 40
0.0
 40
0.0
 40
0.0
 40
0.1940498120545388
 40
0.3880612156830659
 40
0.5820430839406975
 40
0.7759910221220754
 40
0.7759910221220754
 40
0.7759910221220754
 40
0.7759910221220754
 10
-17.91563320159909
 20
-18.68846893310984
 30
0.0
 10
-17.96343834347637
 20
-18.64456987557634
 30
0.0
 10
-18.05903916512306
 20
-18.55678044948299
 30
0.0
 10
-18.23078473595725
 20
-18.46326546219734
 30
0.0
 10
-18.41607274822944
 20
-18.40026919719389
 30
0.0
 10
-18.54555631427538
 20
-18.39120987029478
 30
0.0
 10
-18.61029243469238
 20
-18.38668060302984
 30
0.0
 11
-17.91563320159909
 21
-18.68846893310984
 31
0.0
 11
-18.0637760162354
 21
-18.56313323974984
 31
0.0
 11
-18.23305606842041
 21
-18.46834564208984
 31
0.0
 11
-18.41757583618158
 21
-18.40850067138984
 31
0.0
 11
-18.61029243469238
 21
-18.38668060302984
 31
0.0
  0
SPLINE
  5
E4E3
330
1F
100
AcDbEntity
  8
AM_0
100
AcDbSpline
210
0.0
220
0.0
230
1.0
 70
     8
 71
     3
 72
    11
 73
     7
 74
     5
 42
0.0000000001
 43
0.0000000001
 44
0.0000000001
 40
0.0
 40
0.0
 40
0.0
 40
0.0
 40
0.3664869793977388
 40
0.6732843033691893
 40
0.8769166024723762
 40
0.9506264390342392
 40
0.9506264390342392
 40
0.9506264390342392
 40
0.9506264390342392
 10
-37.32219886779734
 20
19.28991699219011
 30
0.0
 10
-37.44448571052938
 20
19.29040651075757
 30
0.0
 10
-37.66914256424724
 20
19.29130582010879
 30
0.0
 10
-37.96009790143314
 20
19.28159467834962
 30
0.0
 10
-38.15747688175852
 20
19.28857690083929
 30
0.0
 10
-38.24643583902526
 20
19.26234326541438
 30
0.0
 10
-38.27007865905736
 20
19.25537109375011
 30
0.0
 11
-37.32219886779734
 21
19.28991699219011
 31
0.0
 11
-37.68868446350035
 21
19.28890991211011
 31
0.0
 11
-37.99545288085934
 21
19.28469848633011
 31
0.0
 11
-38.19881439208936
 21
19.27420043945011
 31
0.0
 11
-38.27007865905736
 21
19.25537109375011
 31
0.0
  0
SPLINE
  5
E4E4
330
1F
100
AcDbEntity
  8
AM_0
100
AcDbSpline
210
0.0
220
0.0
230
1.0
 70
     8
 71
     3
 72
    11
 73
     7
 74
     5
 42
0.0000000001
 43
0.0000000001
 44
0.0000000001
 40
0.0
 40
0.0
 40
0.0
 40
0.0
 40
3.840081271588342
 40
9.685821066608321
 40
16.55953328502349
 40
23.63531914353843
 40
23.63531914353843
 40
23.63531914353843
 40
23.63531914353843
 10
-37.96754074096634
 20
17.93182373047011
 30
0.0
 10
-37.76323092952774
 20
16.66315303739386
 30
0.0
 10
-37.24790113940373
 20
13.46319020939261
 30
0.0
 10
-34.65489156459966
 20
8.470770995513088
 30
0.0
 10
-29.47652356202847
 20
3.868927053698586
 30
0.0
 10
-24.78631918060916
 20
3.186978243209241
 30
0.0
 10
-22.40724563598632
 20
2.841064453130172
 30
0.0
 11
-37.96754074096634
 21
17.93182373047011
 31
0.0
 11
-37.19721603393534
 21
14.16979980469011
 31
0.0
 11
-34.53373527526835
 21
8.966094970700112
 31
0.0
 11
-29.27660560607833
 21
4.537719726560112
 31
0.0
 11
-22.40724563598632
 21
2.841064453130172
 31
0.0
  0
SPLINE
  5
E4E5
330
1F
100
AcDbEntity
  8
AM_0
100
AcDbSpline
210
0.0
220
0.0
230
1.0
 70
     8
 71
     3
 72
    11
 73
     7
 74
     5
 42
0.0000000001
 43
0.0000000001
 44
0.0000000001
 40
0.0
 40
0.0
 40
0.0
 40
0.0
 40
0.7982227592350219
 40
1.508907919052988
 40
2.050100529726099
 40
2.296494095378119
 40
2.296494095378119
 40
2.296494095378119
 40
2.296494095378119
 10
-17.26080894470223
 20
8.111938476560169
 30
0.0
 10
-17.47481967273551
 20
7.953645412090716
 30
0.0
 10
-17.8793715081169
 20
7.654418591324515
 30
0.0
 10
-18.40340579270424
 20
7.216435500659617
 30
0.0
 10
-18.77726939441082
 20
6.882562082179576
 30
0.0
 10
-19.00015815118042
 20
6.743303962012008
 30
0.0
 10
-19.06988811492922
 20
6.699737548830171
 30
0.0
 11
-17.26080894470223
 21
8.111938476560169
 31
0.0
 11
-17.89756488800051
 21
7.630584716800171
 31
0.0
 11
-18.44427585601812
 21
7.176513671880172
 31
0.0
 11
-18.86327838897713
 21
6.83398437500017
 31
0.0
 11
-19.06988811492922
 21
6.699737548830171
 31
0.0
  0
ELLIPSE
  5
E4E6
330
1F
100
AcDbEntity
  8
AM_0
100
AcDbEllipse
 10
-19.20250225067144
 20
10.81781005859016
 30
0.0
 11
0.014543409978695
 21
2.499969380199999
 31
0.0
210
0.0
220
0.0
230
1.0
 40
0.2079107820865
 41
3.141592233107479
 42
3.369766731075258
  0
ELLIPSE
  5
E4E7
330
1F
100
AcDbEntity
  8
AM_0
100
AcDbEllipse
 10
-19.10470962524414
 20
9.199981689450169
 30
0.0
 11
0.014543409978695
 21
2.499969380199999
 31
0.0
210
0.0
220
0.0
230
1.0
 40
0.0348995932264
 41
3.141590148609116
 42
4.712384485674983
  0
ELLIPSE
  5
E4E8
330
1F
100
AcDbEntity
  8
AM_0
100
AcDbEllipse
 10
-34.24036788940432
 20
0.0000000000001137
 30
0.0
 11
368.0935058122449
 21
0.0058898924607316
 31
0.0
210
0.0
220
0.0
230
1.0
 40
0.0524068438845
 41
1.531142124628839
 42
1.570490516244638
  0
ELLIPSE
  5
E4E9
330
1F
100
AcDbEntity
  8
AM_0
100
AcDbEllipse
 10
-34.24036788940432
 20
0.0000000000001137
 30
0.0
 11
-368.0935058143043
 21
0.0057600020692779
 31
0.0
210
0.0
220
0.0
230
1.0
 40
0.0524068231578
 41
1.571104497148834
 42
1.610450677491175
  0
ELLIPSE
  5
E4EA
330
1F
100
AcDbEntity
  8
AM_0
100
AcDbEllipse
 10
-19.92146396636963
 20
0.0000076293901543
 30
0.0
 11
0.1175457171713619
 21
19.29061553926999
 31
0.0
210
0.0
220
0.0
230
0.9999999999999998
 40
0.2125526966215
 41
6.118181945475863
 42
6.245145167240948
  0
ELLIPSE
  5
E4EB
330
1F
100
AcDbEntity
  8
AM_0
100
AcDbEllipse
 10
-34.24036788940432
 20
-0.000152587889886
 30
0.0
 11
368.0950927263151
 21
0.0058898924107236
 31
0.0
210
0.0
220
0.0
230
0.9999999999999998
 40
0.0524071153913
 41
1.570490508412682
 42
1.579168023419637
  0
ELLIPSE
  5
E4EC
330
1F
100
AcDbEntity
  8
AM_0
100
AcDbEllipse
 10
-38.44458580017033
 20
0.0000076293900975
 30
0.0
 11
0.1125300627659636
 21
19.29061493156
 31
0.0
210
0.0
220
0.0
230
1.0
 40
0.0524069088324
 41
5.906226224971649
 42
6.22030192601625
  0
ELLIPSE
  5
E4ED
330
1F
100
AcDbEntity
  8
AM_0
100
AcDbEllipse
 10
-19.27521228790283
 20
0.0000076293901543
 30
0.0
 11
-0.1123640546599381
 21
19.29064641733999
 31
0.0
210
0.0
220
0.0
230
0.9999999999999998
 40
0.0349201723676
 41
3.331373876536528
 42
3.449470508116685
  0
ELLIPSE
  5
E4EE
330
1F
100
AcDbEntity
  8
AM_0
100
AcDbEllipse
 10
-19.92146396636963
 20
0.0000076293901543
 30
0.0
 11
-0.117533605887238
 21
19.29061561305999
 31
0.0
210
0.0
220
0.0
230
1.0
 40
0.2125526966215
 41
3.179510492366571
 42
3.3300459236225
  0
ELLIPSE
  5
E4EF
330
1F
100
AcDbEntity
  8
AM_0
100
AcDbEllipse
 10
-19.10522365570074
 20
10.81726074219017
 30
0.0
 11
0.0145434099786951
 21
2.499969380189995
 31
0.0
210
0.0
220
0.0
230
1.0
 40
0.0354378355547
 41
3.141590186655645
 42
3.375327544314576
  0
LINE
  5
E4F0
330
1F
100
AcDbEntity
  8
AM_0
100
AcDbLine
 10
-347.0000000000003
 20
20.99999999999556
 30
0.0
 11
-49.99999618530236
 21
20.99999999999607
 31
0.0
  0
LINE
  5
E4F1
330
1F
100
AcDbEntity
  8
AM_0
100
AcDbLine
 10
-347.0000000000002
 20
-20.99999237061047
 30
0.0
 11
-49.99999618530228
 21
-20.9999923706099
 31
0.0
  0
LINE
  5
E4F4
330
1F
100
AcDbEntity
  8
AM_0
100
AcDbLine
 10
-347.0000000000002
 20
-20.99999237061047
 30
0.0
 11
-347.0000000000003
 21
20.99999999999551
 31
0.0
  0
LINE
  5
E4F5
330
1F
100
AcDbEntity
  8
AM_0
100
AcDbLine
 10
-350.0000000000002
 20
-20.19615936279049
 30
0.0
 11
-350.0000000000003
 21
20.19616699218949
 31
0.0
  0
LINE
  5
E4F6
330
1F
100
AcDbEntity
  8
AM_0
100
AcDbLine
 10
-350.0000000000002
 20
-20.19615936279049
 30
0.0
 11
-346.9999847412102
 21
-20.99999237061047
 31
0.0
  0
LINE
  5
E4F7
330
1F
100
AcDbEntity
  8
AM_0
100
AcDbLine
 10
-346.9999847412102
 20
20.99999237060052
 30
0.0
 11
-350.0000000000003
 21
20.19615173339951
 31
0.0
  0
LINE
  5
E4F8
330
1F
100
AcDbEntity
  8
AM_0
100
AcDbLine
 10
-110.5534095764152
 20
-20.99999237061001
 30
0.0
 11
-49.99999618530228
 21
-20.9999923706099
 31
0.0
  0
ARC
  5
E4FB
330
1F
100
AcDbEntity
  8
AM_0
100
AcDbCircle
 10
-48.29999542236325
 20
-20.9906234741199
 30
0.0
 40
1.7000000476837
100
AcDbArc
 50
90.00000250447845
 51
180.0000050089585
  0
ARC
  5
E4FC
330
1F
100
AcDbEntity
  8
AM_0
100
AcDbCircle
 10
-48.29999542236333
 20
20.9906311035121
 30
0.0
 40
1.7000000476837
100
AcDbArc
 50
180.0000086514213
 51
269.9999974955215
  0
LINE
  5
E4FD
330
1F
100
AcDbEntity
  8
AM_0
100
AcDbLine
 10
-49.99999618530228
 20
-20.9999923706099
 30
0.0
 11
-49.99999618530236
 21
20.99999999999607
 31
0.0
  0
LINE
  5
E4FE
330
1F
100
AcDbEntity
  8
AM_0
100
AcDbLine
 10
-17.91563320159909
 20
-18.68846893310984
 30
0.0
 11
-17.91563320159912
 21
2.814910888670169
 31
0.0
  0
LINE
  5
E4FF
330
1F
100
AcDbEntity
  8
AM_0
100
AcDbLine
 10
-18.61029243469238
 20
-18.38668060302984
 30
0.0
 11
-18.61029243469241
 21
2.818969726560169
 31
0.0
  0
LINE
  5
E501
330
1F
100
AcDbEntity
  8
AM_0
100
AcDbLine
 10
-48.29999542236328
 20
-19.2906417846699
 30
0.0
 11
-34.12814903259229
 21
-19.29064178466987
 31
0.0
  0
LINE
  5
E502
330
1F
100
AcDbEntity
  8
AM_0
100
AcDbLine
 10
-18.35631705168628
 20
-18.42444610595984
 30
0.0
 11
-18.11503455042839
 21
-18.99826812743984
 31
0.0
  0
LINE
  5
E503
330
1F
100
AcDbEntity
  8
AM_0
100
AcDbLine
 10
-18.31898611783975
 20
-20.58193206786984
 30
0.0
 11
-18.11502701044079
 21
-18.99828338622984
 31
0.0
  0
LINE
  5
E504
330
1F
100
AcDbEntity
  8
AM_0
100
AcDbLine
 10
-19.13201892375949
 20
-19.02449798583984
 30
0.0
 11
-18.43057290464636
 21
-20.69271087645984
 31
0.0
  0
LINE
  5
E505
330
1F
100
AcDbEntity
  8
AM_0
100
AcDbLine
 10
-18.31899122148746
 20
-20.58193206786984
 30
0.0
 11
-18.43058019131416
 21
-20.69271087645984
 31
0.0
  0
ARC
  5
E506
330
1F
100
AcDbEntity
  8
AM_0
100
AcDbCircle
 10
-23.34954452514654
 20
17.84680175781017
 30
0.0
 40
13.980813026428
100
AcDbArc
 50
179.6666644567004
 51
269.6666601309897
  0
LINE
  5
E507
330
1F
100
AcDbEntity
  8
AM_0
100
AcDbLine
 10
-34.12814903259234
 20
19.29064941406011
 30
0.0
 11
-48.29999542236333
 21
19.29064941406011
 31
0.0
  0
LINE
  5
E508
330
1F
100
AcDbEntity
  8
AM_0
100
AcDbLine
 10
-38.27007484436035
 20
19.25537109375011
 30
0.0
 11
-38.26872253417934
 21
19.25212860107012
 31
0.0
  0
LINE
  5
E509
330
1F
100
AcDbEntity
  8
AM_0
100
AcDbLine
 10
-37.33012008666935
 20
17.92813110352011
 30
0.0
 11
-37.32219886779734
 21
19.28991699219011
 31
0.0
  0
LINE
  5
E50A
330
1F
100
AcDbEntity
  8
AM_0
100
AcDbLine
 10
-18.49647349119194
 20
9.363792419430126
 30
0.0
 11
-19.99538743495944
 21
13.04799652100013
 31
0.0
  0
LINE
  5
E50B
330
1F
100
AcDbEntity
  8
AM_0
100
AcDbLine
 10
-19.71175229549413
 20
8.320739746090168
 30
0.0
 11
-19.68863618373876
 21
12.29402923584012
 31
0.0
  0
LINE
  5
E50C
330
1F
100
AcDbEntity
  8
AM_0
100
AcDbLine
 10
-16.84793853759771
 20
6.186813354490141
 30
0.0
 11
-16.85237598419192
 21
5.423912048340127
 31
0.0
  0
LINE
  5
E50D
330
1F
100
AcDbEntity
  8
AM_0
100
AcDbLine
 10
-18.61029182374483
 20
2.818984985350141
 30
0.0
 11
-22.40724563598632
 21
2.84107971191014
 31
0.0
  0
LINE
  5
E50E
330
1F
100
AcDbEntity
  8
AM_0
100
AcDbLine
 10
-17.91563320159912
 20
2.814910888670169
 30
0.0
 11
-18.61029206216343
 21
2.818969726560169
 31
0.0
  0
LINE
  5
E50F
330
1F
100
AcDbEntity
  8
AM_0
100
AcDbLine
 10
-19.19938164949422
 20
8.317756652830155
 30
0.0
 11
-19.71175158023831
 21
8.320747375490157
 31
0.0
  0
LINE
  5
E510
330
1F
100
AcDbEntity
  8
AM_0
100
AcDbLine
 10
-15.70371222496032
 20
6.534484863280169
 30
0.0
 11
-18.49648295342925
 21
9.363792419430126
 31
0.0
  0
LINE
  5
E511
330
1F
100
AcDbEntity
  8
AM_0
100
AcDbLine
 10
-19.20879095792773
 20
6.700569152830155
 30
0.0
 11
-19.19938200712201
 21
8.317756652830155
 31
0.0
  0
LINE
  5
E512
330
1F
100
AcDbEntity
  8
AM_0
100
AcDbLine
 10
-19.20879036188131
 20
6.700569152830155
 30
0.0
 11
-18.95932686328893
 21
6.699104309080155
 31
0.0
  0
LINE
  5
E513
330
1F
100
AcDbEntity
  8
AM_0
100
AcDbLine
 10
-18.96223634481432
 20
6.199119567870127
 30
0.0
 11
-18.95932656526571
 21
6.699111938480143
 31
0.0
  0
LINE
  5
E514
330
1F
100
AcDbEntity
  8
AM_0
100
AcDbLine
 10
-16.84793889522552
 20
6.186798095700169
 30
0.0
 11
-18.96223610639572
 21
6.199127197270172
 31
0.0
  0
LINE
  5
E515
330
1F
100
AcDbEntity
  8
AM_0
100
AcDbLine
 10
-19.08527123928075
 20
10.81100463867016
 30
0.0
 11
-19.09940558671951
 21
8.381660461430158
 31
0.0
  0
LINE
  5
E516
330
1F
100
AcDbEntity
  8
AM_0
100
AcDbLine
 10
-19.01746118068706
 20
9.199485778810128
 30
0.0
 11
-19.00917464494716
 21
10.62396240234017
 31
0.0
  0
LINE
  5
E517
330
1F
100
AcDbEntity
  8
AM_0
100
AcDbLine
 10
-19.11976689100271
 20
8.317283630370127
 30
0.0
 11
-19.19938212633132
 21
8.317741394040183
 31
0.0
  0
LINE
  5
E518
330
1F
100
AcDbEntity
  8
AM_0
100
AcDbLine
 10
-16.71236896514892
 20
6.18603515625017
 30
0.0
 11
-16.70444285869601
 21
7.548316955570157
 31
0.0
  0
LINE
  5
E519
330
1F
100
AcDbEntity
  8
AM_0
100
AcDbLine
 10
-18.33032992854714
 20
9.195495605470171
 30
0.0
 11
-19.01746064424526
 21
9.199493408200169
 31
0.0
  0
LINE
  5
E51A
330
1F
100
AcDbEntity
  8
AM_0
100
AcDbLine
 10
-19.97224354743966
 20
17.02619171143015
 30
0.0
 11
-18.43056026846176
 21
20.69273376465014
 31
0.0
  0
LINE
  5
E51B
330
1F
100
AcDbEntity
  8
AM_0
100
AcDbLine
 10
-19.99539303779604
 20
13.04798889160014
 30
0.0
 11
-19.97224915027624
 21
17.02619171143015
 31
0.0
  0
LINE
  5
E51C
330
1F
100
AcDbEntity
  8
AM_0
100
AcDbLine
 10
-19.65673947334295
 20
17.77654266357018
 30
0.0
 11
-19.64801716804504
 21
19.27569580078016
 31
0.0
  0
SPLINE
  5
E51D
330
1F
100
AcDbEntity
  8
AM_0
100
AcDbSpline
210
0.0
220
0.0
230
1.0
 70
     8
 71
     3
 72
    11
 73
     7
 74
     5
 42
0.0000000001
 43
0.0000000001
 44
0.0000000001
 40
0.0
 40
0.0
 40
0.0
 40
0.0
 40
0.2216171989181123
 40
0.4640423629554761
 40
0.7306948937442167
 40
1.025221823033859
 40
1.025221823033859
 40
1.025221823033859
 40
1.025221823033859
 10
-13.88969612121579
 20
-12.93260955810984
 30
0.0
 10
-13.84802442965068
 20
-12.87156459576995
 30
0.0
 10
-13.76076843004134
 20
-12.74374306969245
 30
0.0
 10
-13.60389263789288
 20
-12.5570012801543
 30
0.0
 10
-13.41684205191174
 20
-12.36459336835032
 30
0.0
 10
-13.27138129477505
 20
-12.24672786493176
 30
0.0
 10
-13.195038318634
 20
-12.18486785888984
 30
0.0
 11
-13.88969612121579
 21
-12.93260955810984
 31
0.0
 11
-13.76185941696169
 21
-12.75157928466984
 31
0.0
 11
-13.6070079803467
 21
-12.56505584716984
 31
0.0
 11
-13.4199800491333
 21
-12.37499237060984
 31
0.0
 11
-13.195038318634
 21
-12.18486785888984
 31
0.0
  0
SPLINE
  5
E51E
330
1F
100
AcDbEntity
  8
AM_0
100
AcDbSpline
210
0.0
220
0.0
230
1.0
 70
     8
 71
     3
 72
    11
 73
     7
 74
     5
 42
0.0000000001
 43
0.0000000001
 44
0.0000000001
 40
0.0
 40
0.0
 40
0.0
 40
0.0
 40
0.1938656912049908
 40
0.3876811388671858
 40
0.5814459510955076
 40
0.7751637943692077
 40
0.7751637943692077
 40
0.7751637943692077
 40
0.7751637943692077
 10
-6.573475837708258
 20
-22.63515472411981
 30
0.0
 10
-6.621393168754369
 20
-22.6788385582443
 30
0.0
 10
-6.717215412267224
 20
-22.76619490509558
 30
0.0
 10
-6.889060746115045
 20
-22.85908713742253
 30
0.0
 10
-7.074187018926112
 20
-22.92173991370557
 30
0.0
 10
-7.203490944728536
 20
-22.93104156940376
 30
0.0
 10
-7.268135070801264
 20
-22.93569183349981
 30
0.0
 11
-6.573475837708258
 21
-22.63515472411981
 31
0.0
 11
-6.721918106079272
 21
-22.75984954833981
 31
0.0
 11
-6.891297340393265
 21
-22.85405731200981
 31
0.0
 11
-7.075677871704272
 21
-22.91362762450981
 31
0.0
 11
-7.268135070801264
 21
-22.93569183349981
 31
0.0
  0
SPLINE
  5
E51F
330
1F
100
AcDbEntity
  8
AM_0
100
AcDbSpline
210
0.0
220
0.0
230
1.0
 70
     8
 71
     3
 72
    11
 73
     7
 74
     5
 42
0.0000000001
 43
0.0000000001
 44
0.0000000001
 40
0.0
 40
0.0
 40
0.0
 40
0.0
 40
0.3007923231648846
 40
0.6105938705846754
 40
0.9277994565102851
 40
1.249156281207802
 40
1.249156281207802
 40
1.249156281207802
 40
1.249156281207802
 10
-12.14379405975338
 20
-17.64116668700984
 30
0.0
 10
-12.05018578250437
 20
-17.67732139198432
 30
0.0
 10
-11.86016550631233
 20
-17.75071369474637
 30
0.0
 10
-11.55963370121843
 20
-17.82628078774753
 30
0.0
 10
-11.24675501324633
 20
-17.87647427655184
 30
0.0
 10
-11.03374811465462
 20
-17.88178180413855
 30
0.0
 10
-10.92655229568478
 20
-17.88445281981984
 30
0.0
 11
-12.14379405975338
 21
-17.64116668700984
 31
0.0
 11
-11.8610854148865
 21
-17.74388885497984
 31
0.0
 11
-11.56111431121829
 21
-17.82131195067984
 31
0.0
 11
-11.24754810333249
 21
-17.86922454833984
 31
0.0
 11
-10.92655229568478
 21
-17.88445281981984
 31
0.0
  0
SPLINE
  5
E520
330
1F
100
AcDbEntity
  8
AM_0
100
AcDbSpline
210
0.0
220
0.0
230
1.0
 70
     8
 71
     3
 72
    11
 73
     7
 74
     5
 42
0.0000000001
 43
0.0000000001
 44
0.0000000001
 40
0.0
 40
0.0
 40
0.0
 40
0.0
 40
1.23240137965212
 40
2.567677147607264
 40
4.011027507989393
 40
5.525963604853986
 40
5.525963604853986
 40
5.525963604853986
 40
5.525963604853986
 10
-7.486206054688295
 20
-14.96437835692981
 30
0.0
 10
-7.548044611227059
 20
-14.55379196647598
 30
0.0
 10
-7.676883681912313
 20
-13.6983455921913
 30
0.0
 10
-8.443876027706865
 20
-12.55909768886403
 30
0.0
 10
-9.629782999195011
 20
-11.66762478231939
 30
0.0
 10
-10.62476218420677
 20
-11.54721784906926
 30
0.0
 10
-11.13429021835329
 20
-11.48555755614984
 30
0.0
 11
-7.486206054688295
 21
-14.96437835692981
 31
0.0
 11
-7.755150794983308
 21
-13.76168060302981
 31
0.0
 11
-8.477742195129394
 21
-12.63881683349981
 31
0.0
 11
-9.652355194091796
 21
-11.80004119872984
 31
0.0
 11
-11.13429021835329
 21
-11.48555755614984
 31
0.0
  0
SPLINE
  5
E521
330
1F
100
AcDbEntity
  8
AM_0
100
AcDbSpline
210
0.0
220
0.0
230
1.0
 70
     8
 71
     3
 72
    11
 73
     7
 74
     5
 42
0.0000000001
 43
0.0000000001
 44
0.0000000001
 40
0.0
 40
0.0
 40
0.0
 40
0.0
 40
1.385248296627838
 40
2.770489034742484
 40
4.155719070233766
 40
5.540951710102111
 40
5.540951710102111
 40
5.540951710102111
 40
5.540951710102111
 10
-2.705337524414289
 20
-18.66786956786981
 30
0.0
 10
-3.026001744952537
 20
-19.00011560387272
 30
0.0
 10
-3.667328436346506
 20
-19.66460586300065
 30
0.0
 10
-4.633495512346832
 20
-20.65728856094659
 30
0.0
 10
-5.601977504780121
 20
-21.64770337686081
 30
0.0
 10
-6.249642857119326
 20
-22.30600406875467
 30
0.0
 10
-6.573475837708258
 20
-22.63515472411981
 30
0.0
 11
-2.705337524414289
 21
-18.66786956786981
 31
0.0
 11
-3.6680269241333
 21
-19.66393280028981
 31
0.0
 11
-4.633884429932265
 21
-20.65691375731981
 31
0.0
 11
-5.602479934693263
 21
-21.64720916747981
 31
0.0
 11
-6.573475837708258
 21
-22.63515472411981
 31
0.0
  0
SPLINE
  5
E522
330
1F
100
AcDbEntity
  8
AM_0
100
AcDbSpline
210
0.0
220
0.0
230
1.0
 70
     8
 71
     3
 72
    11
 73
     7
 74
     5
 42
0.0000000001
 43
0.0000000001
 44
0.0000000001
 40
0.0
 40
0.0
 40
0.0
 40
0.0
 40
0.5100140591916271
 40
1.037431047867026
 40
1.589691966038861
 40
2.176736560505231
 40
2.176736560505231
 40
2.176736560505231
 40
2.176736560505231
 10
-13.88969612121579
 20
-12.93260955810984
 30
0.0
 10
-13.97623254490642
 20
-13.0793710561437
 30
0.0
 10
-14.15225822712061
 20
-13.37790191416186
 30
0.0
 10
-14.32779500821578
 20
-13.88077442493862
 30
0.0
 10
-14.43984643062542
 20
-14.42796513526396
 30
0.0
 10
-14.43894930870906
 20
-14.80867703504331
 30
0.0
 10
-14.43848705291751
 20
-15.00484466552984
 30
0.0
 11
-13.88969612121579
 21
-12.93260955810984
 31
0.0
 11
-14.134449005127
 21
-13.38005828856984
 31
0.0
 11
-14.3139233589172
 21
-13.87599945067984
 31
0.0
 11
-14.4193000793457
 21
-14.41811370849984
 31
0.0
 11
-14.43848705291751
 21
-15.00484466552984
 31
0.0
  0
SPLINE
  5
E523
330
1F
100
AcDbEntity
  8
AM_0
100
AcDbSpline
210
0.0
220
0.0
230
1.0
 70
     8
 71
     3
 72
    11
 73
     7
 74
     5
 42
0.0000000001
 43
0.0000000001
 44
0.0000000001
 40
0.0
 40
0.0
 40
0.0
 40
0.0
 40
0.5641386165299074
 40
1.123617195568147
 40
1.674191830896774
 40
2.212325769955208
 40
2.212325769955208
 40
2.212325769955208
 40
2.212325769955208
 10
-11.13429021835329
 20
-11.48555755614984
 30
0.0
 10
-11.3225477333705
 20
-11.49534872615809
 30
0.0
 10
-11.69750767206326
 20
-11.5148501867276
 30
0.0
 10
-12.23992209068275
 20
-11.65908162714563
 30
0.0
 10
-12.74874419995154
 20
-11.87453245708188
 30
0.0
 10
-13.04741123729067
 20
-12.08221378461777
 30
0.0
 10
-13.195038318634
 20
-12.18486785888984
 30
0.0
 11
-11.13429021835329
 21
-11.48555755614984
 31
0.0
 11
-11.69630908966058
 21
-11.53441619872984
 31
0.0
 11
-12.2385010719299
 21
-11.67241668700984
 31
0.0
 11
-12.74301099777218
 21
-11.89287567138984
 31
0.0
 11
-13.195038318634
 21
-12.18486785888984
 31
0.0
  0
SPLINE
  5
E524
330
1F
100
AcDbEntity
  8
AM_0
100
AcDbSpline
210
0.0
220
0.0
230
1.0
 70
     8
 71
     3
 72
    11
 73
     7
 74
     5
 42
0.0000000001
 43
0.0000000001
 44
0.0000000001
 40
0.0
 40
0.0
 40
0.0
 40
0.0
 40
0.2113554876875174
 40
0.4226699889027122
 40
0.6339584237811829
 40
0.8451316391345054
 40
0.8451316391345054
 40
0.8451316391345054
 40
0.8451316391345054
 10
-2.399995803833292
 20
-17.90038299560981
 30
0.0
 10
-2.403842582908854
 20
-17.97095960169619
 30
0.0
 10
-2.411535395085007
 20
-18.11209912751453
 30
0.0
 10
-2.47308297242846
 20
-18.31592826941183
 30
0.0
 10
-2.567423223407811
 20
-18.50691083064429
 30
0.0
 10
-2.659374450144615
 20
-18.61422641165281
 30
0.0
 10
-2.705337524414289
 20
-18.66786956786981
 30
0.0
 11
-2.399995803833292
 21
-17.90038299560981
 31
0.0
 11
-2.419873237610289
 21
-18.11080169677981
 31
0.0
 11
-2.478555679321289
 21
-18.31380462645981
 31
0.0
 11
-2.574710845947294
 21
-18.50194549560981
 31
0.0
 11
-2.705337524414289
 21
-18.66786956786981
 31
0.0
  0
SPLINE
  5
E525
330
1F
100
AcDbEntity
  8
AM_0
100
AcDbSpline
210
0.0
220
0.0
230
1.0
 70
     8
 71
     3
 72
    11
 73
     7
 74
     5
 42
0.0000000001
 43
0.0000000001
 44
0.0000000001
 40
0.0
 40
0.0
 40
0.0
 40
0.0
 40
0.3826999829067586
 40
0.7574018463120103
 40
1.118766586768916
 40
1.464920625999615
 40
1.464920625999615
 40
1.464920625999615
 40
1.464920625999615
 10
-10.92655229568478
 20
-17.88445281981984
 30
0.0
 10
-10.79890394279744
 20
-17.87900511071866
 30
0.0
 10
-10.54627498415148
 20
-17.86822354522166
 30
0.0
 10
-10.18000266751868
 20
-17.7913011331046
 30
0.0
 10
-9.836138266302288
 20
-17.67818362182478
 30
0.0
 10
-9.626398199145931
 20
-17.56961812350431
 30
0.0
 10
-9.523782730102482
 20
-17.51650238036981
 30
0.0
 11
-10.92655229568478
 21
-17.88445281981984
 31
0.0
 11
-10.54479789733889
 21
-17.85756683349981
 31
0.0
 11
-10.17747688293459
 21
-17.78356170653981
 31
0.0
 11
-9.835235595703096
 21
-17.66756439208981
 31
0.0
 11
-9.523782730102482
 21
-17.51650238036981
 31
0.0
  0
SPLINE
  5
E526
330
1F
100
AcDbEntity
  8
AM_0
100
AcDbSpline
210
0.0
220
0.0
230
1.0
 70
     8
 71
     3
 72
    11
 73
     7
 74
     5
 42
0.0000000001
 43
0.0000000001
 44
0.0000000001
 40
0.0
 40
0.0
 40
0.0
 40
0.0
 40
0.2008904576633002
 40
0.4018710719268627
 40
0.603010665682985
 40
0.8043337308819456
 40
0.8043337308819456
 40
0.8043337308819456
 40
0.8043337308819456
 10
-13.195038318634
 20
-17.69063568114984
 30
0.0
 10
-13.2624123849007
 20
-17.68850302160304
 30
0.0
 10
-13.39719075389645
 20
-17.68423674540407
 30
0.0
 10
-13.58730657237675
 20
-17.60960196247658
 30
0.0
 10
-13.75615773415316
 20
-17.49690343501781
 30
0.0
 10
-13.84516979949323
 20
-17.39584901235855
 30
0.0
 10
-13.88969612121579
 20
-17.34529876708984
 30
0.0
 11
-13.195038318634
 21
-17.69063568114984
 31
0.0
 11
-13.39514207839968
 21
-17.67287445067984
 31
0.0
 11
-13.58369398117071
 21
-17.60329437255984
 31
0.0
 11
-13.75021123886108
 21
-17.49047088622984
 31
0.0
 11
-13.88969612121579
 21
-17.34529876708984
 31
0.0
  0
SPLINE
  5
E527
330
1F
100
AcDbEntity
  8
AM_0
100
AcDbSpline
210
0.0
220
0.0
230
1.0
 70
     8
 71
     3
 72
    11
 73
     7
 74
     5
 42
0.0000000001
 43
0.0000000001
 44
0.0000000001
 40
0.0
 40
0.0
 40
0.0
 40
0.0
 40
0.1918974944375965
 40
0.3838089470690138
 40
0.5757628961270964
 40
0.7677544326841797
 40
0.7677544326841797
 40
0.7677544326841797
 40
0.7677544326841797
 10
-13.19503831863397
 20
-23.01641082763984
 30
0.0
 10
-13.2591784569883
 20
-23.01359877722581
 30
0.0
 10
-13.38746339910693
 20
-23.0079744718555
 30
0.0
 10
-13.57249939075442
 20
-22.95108645051303
 30
0.0
 10
-13.74501710142637
 20
-22.86330968872894
 30
0.0
 10
-13.8414666338802
 20
-22.77849023411481
 30
0.0
 10
-13.88969612121576
 20
-22.73607635497984
 30
0.0
 11
-13.19503831863397
 21
-23.01641082763984
 31
0.0
 11
-13.38622426986685
 21
-22.99990081786984
 31
0.0
 11
-13.57039499282836
 21
-22.94594573974984
 31
0.0
 11
-13.74036312103265
 21
-22.85674285888984
 31
0.0
 11
-13.88969612121576
 21
-22.73607635497984
 31
0.0
  0
ELLIPSE
  5
E528
330
1F
100
AcDbEntity
  8
AM_0
100
AcDbEllipse
 10
-124.2974357604893
 20
-0.0001220703100557
 30
0.0
 11
-452.98791498361
 21
0.0070884470490999
 31
0.0
210
0.0
220
0.0
230
0.9999999999999998
 40
0.05240673229
 41
1.818596774928852
 42
1.832115927490388
  0
ELLIPSE
  5
E529
330
1F
100
AcDbEntity
  8
AM_0
100
AcDbEllipse
 10
-6.607406616211335
 20
0.0000076293901543
 30
0.0
 11
-0.1384913839570465
 21
23.739742679336
 31
0.0
210
0.0
220
0.0
230
1.0
 40
0.0524069221223
 41
2.252690207142205
 42
2.393450430003819
  0
ELLIPSE
  5
E52A
330
1F
100
AcDbEntity
  8
AM_0
100
AcDbEllipse
 10
-13.55326795578003
 20
-0.1336288452098415
 30
0.0
 11
-0.1389284723889473
 21
23.753505696104
 31
0.0
210
0.0
220
0.0
230
1.0
 40
0.0524732942901
 41
2.247200410596713
 42
2.345686980535313
  0
LINE
  5
E554
330
1F
100
AcDbEntity
  8
AM_0
100
AcDbLine
 10
-7.578498840332258
 20
-23.29697418212981
 30
0.0
 11
-6.325953483582253
 21
-22.76889801024981
 31
0.0
  0
LINE
  5
E555
330
1F
100
AcDbEntity
  8
AM_0
100
AcDbLine
 10
-14.25891160964965
 20
-22.81502532958984
 30
0.0
 11
-13.00029993057248
 21
-23.32851409911984
 31
0.0
  0
LINE
  5
E556
330
1F
100
AcDbEntity
  8
AM_0
100
AcDbLine
 10
-1.71644401550327
 20
-20.48535919188981
 30
0.0
 11
-4.454936027527281
 21
-23.25971221923981
 31
0.0
  0
LINE
  5
E557
330
1F
100
AcDbEntity
  8
AM_0
100
AcDbLine
 10
-4.454939842224263
 20
-23.25969696044981
 30
0.0
 11
-6.325952529907254
 21
-22.76888275145981
 31
0.0
  0
LINE
  5
E558
330
1F
100
AcDbEntity
  8
AM_0
100
AcDbLine
 10
-14.25890827178958
 20
-22.81502532958984
 30
0.0
 11
-15.54840397834778
 21
-23.32424163817984
 31
0.0
  0
LINE
  5
E559
330
1F
100
AcDbEntity
  8
AM_0
100
AcDbLine
 10
-4.291691780090275
 20
-23.42354583739981
 30
0.0
 11
-1.49891471862827
 21
-20.59420013427981
 31
0.0
  0
LINE
  5
E561
330
1F
100
AcDbEntity
  8
AM_0
100
AcDbLine
 10
-7.953146934509277
 20
-24.96727752685981
 30
0.0
 11
-4.291686058045257
 21
-23.42354583739981
 31
0.0
  0
LINE
  5
E562
330
1F
100
AcDbEntity
  8
AM_0
100
AcDbLine
 10
-13.00029754638666
 20
-23.32851409911984
 30
0.0
 11
-7.578501701355264
 21
-23.29695892333981
 31
0.0
  0
LINE
  5
E563
330
1F
100
AcDbEntity
  8
AM_0
100
AcDbLine
 10
-8.045229911804256
 20
-24.77344512938981
 30
0.0
 11
-11.94073629379266
 21
-24.79611968993984
 31
0.0
  0
LINE
  5
E564
330
1F
100
AcDbEntity
  8
AM_0
100
AcDbLine
 10
-11.92588138580316
 20
-24.99037933349984
 30
0.0
 11
-7.953153610230259
 21
-24.96727752685981
 31
0.0
  0
LINE
  5
E565
330
1F
100
AcDbEntity
  8
AM_0
100
AcDbLine
 10
-11.94073963165277
 20
-24.79610443114984
 30
0.0
 11
-13.00029850006097
 21
-23.32851409911984
 31
0.0
  0
LINE
  5
E566
330
1F
100
AcDbEntity
  8
AM_0
100
AcDbLine
 10
-11.94073581695556
 20
-24.79610443114984
 30
0.0
 11
-11.92587995529177
 21
-24.99039459227984
 31
0.0
  0
LINE
  5
E567
330
1F
100
AcDbEntity
  8
AM_0
100
AcDbLine
 10
-15.60506486892697
 20
-23.48935699462984
 30
0.0
 11
-11.92588758468627
 21
-24.99039459227984
 31
0.0
  0
LINE
  5
E568
330
1F
100
AcDbEntity
  8
AM_0
100
AcDbLine
 10
-15.54839754104605
 20
-23.32422637938984
 30
0.0
 11
-15.60506176948547
 21
-23.48934173583984
 31
0.0
  0
LINE
  5
E569
330
1F
100
AcDbEntity
  8
AM_0
100
AcDbLine
 10
-7.953142166138263
 20
-24.96729278563981
 30
0.0
 11
-8.045230865479283
 21
-24.77342987060981
 31
0.0
  0
LINE
  5
E56A
330
1F
100
AcDbEntity
  8
AM_0
100
AcDbLine
 10
-7.57850837707528
 20
-23.29697418212981
 30
0.0
 11
-8.045229911804256
 21
-24.77341461181981
 31
0.0
  0
LINE
  5
E56B
330
1F
100
AcDbEntity
  8
AM_0
100
AcDbLine
 10
-4.454936981201257
 20
-23.25971221923981
 30
0.0
 11
-4.291688919068263
 21
-23.42354583739981
 31
0.0
  0
LINE
  5
E579
330
1F
100
AcDbEntity
  8
AM_0
100
AcDbLine
 10
-4.291699409485374
 20
23.42355346679318
 30
0.0
 11
-1.498922348023342
 21
20.59420776367017
 31
0.0
  0
LINE
  5
E57A
330
1F
100
AcDbEntity
  8
AM_0
100
AcDbLine
 10
-13.195038318634
 20
-12.18486785888984
 30
0.0
 11
-13.19503831863403
 21
2.78744506836017
 31
0.0
  0
LINE
  5
E57B
330
1F
100
AcDbEntity
  8
AM_0
100
AcDbLine
 10
-13.88969612121579
 20
-12.93260955810984
 30
0.0
 11
-13.88969612121582
 21
2.79150390625017
 31
0.0
  0
LINE
  5
E57C
330
1F
100
AcDbEntity
  8
AM_0
100
AcDbLine
 10
-7.268135070801264
 20
-22.93569183349981
 30
0.0
 11
-7.268135070801321
 21
2.752990722660172
 31
0.0
  0
LINE
  5
E57D
330
1F
100
AcDbEntity
  8
AM_0
100
AcDbLine
 10
-6.573475837708258
 20
-22.63515472411981
 30
0.0
 11
-6.573475837708315
 21
2.748931884770172
 31
0.0
  0
LINE
  5
E57E
330
1F
100
AcDbEntity
  8
AM_0
100
AcDbLine
 10
-2.705337524414289
 20
-18.66786956786981
 30
0.0
 11
-2.705337524414318
 21
2.726440429690171
 31
0.0
  0
LINE
  5
E57F
330
1F
100
AcDbEntity
  8
AM_0
100
AcDbLine
 10
-2.399995803833292
 20
-17.90038299560981
 30
0.0
 11
-2.39999580383332
 21
2.724670410160172
 31
0.0
  0
ARC
  5
E580
330
1F
100
AcDbEntity
  8
AM_0
100
AcDbCircle
 10
-10.86122322082519
 20
-14.98403167724984
 30
0.0
 40
3.499989748001099
100
AcDbArc
 50
92.91664354423355
 51
180.3333455612087
  0
ARC
  5
E581
330
1F
100
AcDbEntity
  8
AM_0
100
AcDbCircle
 10
-10.9616661071777
 20
-14.88460540770984
 30
0.0
 40
2.999999761581399
100
AcDbArc
 50
90.33332939635032
 51
246.7883404493867
  0
ARC
  5
E582
330
1F
100
AcDbEntity
  8
AM_0
100
AcDbCircle
 10
-10.9616661071777
 20
-14.88460540770984
 30
0.0
 40
2.999073505401599
100
AcDbArc
 50
298.6489937427068
 51
90.33332939635032
  0
LINE
  5
E583
330
1F
100
AcDbEntity
  8
AM_0
100
AcDbLine
 10
-2.033325195313295
 20
-12.21796417235981
 30
0.0
 11
-2.399992942810285
 21
-11.34592437743981
 31
0.0
  0
LINE
  5
E584
330
1F
100
AcDbEntity
  8
AM_0
100
AcDbLine
 10
-0.0231399536132813
 20
-12.93183135985981
 30
0.0
 11
-1.564823150635305
 21
-9.265312194819784
 31
0.0
  0
ARC
  5
E585
330
1F
100
AcDbEntity
  8
AM_0
100
AcDbCircle
 10
-10.43831634521478
 20
-14.88155364989981
 30
0.0
 40
2.9999651908875
100
AcDbArc
 50
95.55865633784176
 51
265.233102378464
  0
LINE
  5
E586
330
1F
100
AcDbEntity
  8
AM_0
100
AcDbLine
 10
-14.34611511230468
 20
-16.76676177977984
 30
0.0
 11
-13.88969993591308
 21
-17.34531402587984
 31
0.0
  0
LINE
  5
E587
330
1F
100
AcDbEntity
  8
AM_0
100
AcDbLine
 10
-15.12518548965445
 20
-21.52010345458984
 30
0.0
 11
-13.88969135284418
 21
-22.73607635497984
 31
0.0
  0
LINE
  5
E588
330
1F
100
AcDbEntity
  8
AM_0
100
AcDbLine
 10
-13.19503831863397
 20
-23.01641082763984
 30
0.0
 11
-13.195038318634
 21
-17.69063568114984
 31
0.0
  0
LINE
  5
E589
330
1F
100
AcDbEntity
  8
AM_0
100
AcDbLine
 10
-13.88969612121576
 20
-22.73607635497984
 30
0.0
 11
-13.88969612121579
 21
-17.34529876708984
 31
0.0
  0
LINE
  5
E58A
330
1F
100
AcDbEntity
  8
AM_0
100
AcDbLine
 10
-14.43848705291751
 20
-15.00484466552984
 30
0.0
 11
-14.35636711120608
 21
-15.00435638427984
 31
0.0
  0
LINE
  5
E58B
330
1F
100
AcDbEntity
  8
AM_0
100
AcDbLine
 10
-14.35636711120608
 20
-15.00435638427984
 30
0.0
 11
-14.3461141586304
 21
-16.76674652099984
 31
0.0
  0
LINE
  5
E58C
330
1F
100
AcDbEntity
  8
AM_0
100
AcDbLine
 10
-2.001739501953295
 20
-17.64717864989981
 30
0.0
 11
-2.033327102661303
 21
-12.21794891356981
 31
0.0
  0
LINE
  5
E58D
330
1F
100
AcDbEntity
  8
AM_0
100
AcDbLine
 10
-0.2466697692873083
 20
-16.87276458739981
 30
0.0
 11
-2.001745223999307
 21
-17.64717864989981
 31
0.0
  0
LINE
  5
E58E
330
1F
100
AcDbEntity
  8
AM_0
100
AcDbLine
 10
-1.498905181885277
 20
-20.59420013427981
 30
0.0
 11
0.0000095367427093
 21
-16.90999603270981
 31
0.0
  0
LINE
  5
E58F
330
1F
100
AcDbEntity
  8
AM_0
100
AcDbLine
 10
-6.325950622559275
 20
-22.76889801024981
 30
0.0
 11
-2.514496803284288
 21
-18.90753936767981
 31
0.0
  0
LINE
  5
E590
330
1F
100
AcDbEntity
  8
AM_0
100
AcDbLine
 10
-2.514498710632295
 20
-18.90752410888981
 30
0.0
 11
-2.001737594605287
 21
-17.64717864989981
 31
0.0
  0
LINE
  5
E591
330
1F
100
AcDbEntity
  8
AM_0
100
AcDbLine
 10
-1.716449737549254
 20
-20.48535919188981
 30
0.0
 11
-1.49891090393126
 21
-20.59421539306981
 31
0.0
  0
LINE
  5
E592
330
1F
100
AcDbEntity
  8
AM_0
100
AcDbLine
 10
-2.514509201050287
 20
-18.90752410888981
 30
0.0
 11
-1.716442108154268
 21
-20.48535919188981
 31
0.0
  0
LINE
  5
E593
330
1F
100
AcDbEntity
  8
AM_0
100
AcDbLine
 10
0.0000038146966972
 20
-16.90999603270981
 30
0.0
 11
-0.2466678619393008
 21
-16.87276458739981
 31
0.0
  0
LINE
  5
E594
330
1F
100
AcDbEntity
  8
AM_0
100
AcDbLine
 10
-0.2693595886233027
 20
-12.97193145751981
 30
0.0
 11
-0.023141860962312
 21
-12.93183135985981
 31
0.0
  0
LINE
  5
E595
330
1F
100
AcDbEntity
  8
AM_0
100
AcDbLine
 10
-2.033325195313295
 20
-12.21794891356981
 30
0.0
 11
-0.2693595886233027
 21
-12.97191619872981
 31
0.0
  0
LINE
  5
E596
330
1F
100
AcDbEntity
  8
AM_0
100
AcDbLine
 10
-0.2693595886233027
 20
-12.97193145751981
 30
0.0
 11
-0.2466659545902985
 21
-16.87276458739981
 31
0.0
  0
LINE
  5
E597
330
1F
100
AcDbEntity
  8
AM_0
100
AcDbLine
 10
0.0000038146966972
 20
-16.90999603270981
 30
0.0
 11
-0.0231399536132813
 21
-12.93183135985981
 31
0.0
  0
LINE
  5
E598
330
1F
100
AcDbEntity
  8
AM_0
100
AcDbLine
 10
-1.781087875366296
 20
-9.376686096189814
 30
0.0
 11
-2.400001525879304
 21
-10.63652801513978
 31
0.0
  0
LINE
  5
E599
330
1F
100
AcDbEntity
  8
AM_0
100
AcDbLine
 10
-1.781078338623302
 20
-9.376686096189814
 30
0.0
 11
-1.564825057984307
 21
-9.265327453609813
 31
0.0
  0
LINE
  5
E59A
330
1F
100
AcDbEntity
  8
AM_0
100
AcDbLine
 10
-2.400001525879304
 20
-8.764060974119786
 30
0.0
 11
-1.781068801880309
 21
-9.376670837399785
 31
0.0
  0
LINE
  5
E59B
330
1F
100
AcDbEntity
  8
AM_0
100
AcDbLine
 10
-1.564807891846299
 20
-9.265312194819784
 30
0.0
 11
-2.399982452393288
 21
-8.438667297359813
 31
0.0
  0
ARC
  5
E59C
330
1F
100
AcDbEntity
  8
AM_0
100
AcDbCircle
 10
-9.997694969177246
 20
14.97900390625017
 30
0.0
 40
4.9000010490417
100
AcDbArc
 50
269.6666774338339
 51
359.6666645170271
  0
ARC
  5
E59D
330
1F
100
AcDbEntity
  8
AM_0
100
AcDbCircle
 10
-9.997694969177246
 20
14.97900390625017
 30
0.0
 40
4.900000095367399
100
AcDbArc
 50
89.66666195222842
 51
269.6666874517496
  0
LINE
  5
E59E
330
1F
100
AcDbEntity
  8
AM_0
100
AcDbLine
 10
-0.0231399536133381
 20
12.93182373047017
 30
0.0
 11
-1.564823150635362
 21
9.265312194820182
 31
0.0
  0
LINE
  5
E59F
330
1F
100
AcDbEntity
  8
AM_0
100
AcDbLine
 10
-4.390330314636315
 20
6.468673706060201
 30
0.0
 11
-8.06951236724933
 21
4.967628479000154
 31
0.0
  0
LINE
  5
E5A0
330
1F
100
AcDbEntity
  8
AM_0
100
AcDbLine
 10
-7.268136024475325
 20
2.752998352050155
 30
0.0
 11
-13.19503831863403
 21
2.787452697750154
 31
0.0
  0
LINE
  5
E5A1
330
1F
100
AcDbEntity
  8
AM_0
100
AcDbLine
 10
-8.069508552551326
 20
4.967636108400199
 30
0.0
 11
-12.04223632812502
 21
4.990737915040142
 31
0.0
  0
LINE
  5
E5A2
330
1F
100
AcDbEntity
  8
AM_0
100
AcDbLine
 10
-13.88969659805303
 20
2.791511535640154
 30
0.0
 11
-13.19503879547122
 21
2.787452697750154
 31
0.0
  0
LINE
  5
E5A3
330
1F
100
AcDbEntity
  8
AM_0
100
AcDbLine
 10
-2.757207870484336
 20
8.085083007810169
 30
0.0
 11
-2.757207870484336
 21
2.726745605470171
 31
0.0
  0
LINE
  5
E5A4
330
1F
100
AcDbEntity
  8
AM_0
100
AcDbLine
 10
-2.39999580383332
 20
8.438659667970171
 30
0.0
 11
-2.39999580383332
 21
2.724822998050171
 31
0.0
  0
LINE
  5
E5A5
330
1F
100
AcDbEntity
  8
AM_0
100
AcDbLine
 10
-6.573475837708315
 20
2.748931884770172
 30
0.0
 11
-2.705337524414318
 21
2.726440429690171
 31
0.0
  0
LINE
  5
E5A6
330
1F
100
AcDbEntity
  8
AM_0
100
AcDbLine
 10
-7.090246200562319
 20
5.367118835450185
 30
0.0
 11
-6.999997138977334
 21
5.366600036620184
 31
0.0
  0
LINE
  5
E5A7
330
1F
100
AcDbEntity
  8
AM_0
100
AcDbLine
 10
-6.999996185303331
 20
3.751434326170169
 30
0.0
 11
-6.999996185303331
 21
5.366607666020172
 31
0.0
  0
LINE
  5
E5A8
330
1F
100
AcDbEntity
  8
AM_0
100
AcDbLine
 10
-6.999996185303331
 20
5.40396118164017
 30
0.0
 11
-6.999996185303331
 21
5.366607666020172
 31
0.0
  0
LINE
  5
E5A9
330
1F
100
AcDbEntity
  8
AM_0
100
AcDbLine
 10
-6.999996185303331
 20
3.751434326170169
 30
0.0
 11
-6.999996185303331
 21
2.751403808590168
 31
0.0
  0
LINE
  5
E5AA
330
1F
100
AcDbEntity
  8
AM_0
100
AcDbLine
 10
-7.268135070801321
 20
2.753005981450201
 30
0.0
 11
-6.573475837708315
 21
2.748947143560201
 31
0.0
  0
LINE
  5
E5AB
330
1F
100
AcDbEntity
  8
AM_0
100
AcDbLine
 10
-2.705338478089316
 20
2.726448059080212
 30
0.0
 11
-2.39999580383332
 21
2.724678039550212
 31
0.0
  0
LINE
  5
E5AC
330
1F
100
AcDbEntity
  8
AM_0
100
AcDbLine
 10
-1.564825057984364
 20
9.265319824220171
 30
0.0
 11
-4.390333175659321
 21
6.468658447270172
 31
0.0
  0
ARC
  5
E5AD
330
1F
100
AcDbEntity
  8
AM_0
100
AcDbCircle
 10
-9.997694969177246
 20
14.97900390625017
 30
0.0
 40
4.893284797668499
100
AcDbArc
 50
359.6666645170271
 51
89.66666195222842
  0
LINE
  5
E5AE
330
1F
100
AcDbEntity
  8
AM_0
100
AcDbLine
 10
-1.498914718628356
 20
20.59420013428018
 30
0.0
 11
-0.0000000000003411
 21
16.90999603272018
 31
0.0
  0
LINE
  5
E5AF
330
1F
100
AcDbEntity
  8
AM_0
100
AcDbLine
 10
0.0000038146966403
 20
16.90999603272018
 30
0.0
 11
-0.0231399536133381
 21
12.93182373047017
 31
0.0
  0
LINE
  5
E5B1
330
1F
100
AcDbEntity
  8
AM_0
100
AcDbLine
 10
-7.953162193298368
 20
24.96726989745718
 30
0.0
 11
-4.29170227050838
 21
23.42353820800417
 31
0.0
  0
LINE
  5
E5B2
330
1F
100
AcDbEntity
  8
AM_0
100
AcDbLine
 10
-11.92588138580328
 20
24.99039459228117
 30
0.0
 11
-7.953152656555374
 21
24.96729278564015
 31
0.0
  0
LINE
  5
E5B3
330
1F
100
AcDbEntity
  8
AM_0
100
AcDbLine
 10
-15.60505890846258
 20
23.48936462401917
 30
0.0
 11
-11.92588376998907
 21
24.99040222167616
 31
0.0
  0
LINE
  5
E6A7
330
1F
100
AcDbEntity
  8
AM_11
100
AcDbLine
 10
-0.0000000000003126
 20
25.00000000000017
 30
0.0
 11
-0.0000000000002274
 21
-24.99999999999985
 31
0.0
  0
LINE
  5
E6AF
330
1F
100
AcDbEntity
  8
AM_11
100
AcDbLine
 10
-10.00000000000034
 20
25.00000000000017
 30
0.0
 11
-10.00000000000025
 21
-24.99999999999985
 31
0.0
  0
LINE
  5
E6B7
330
1F
100
AcDbEntity
  8
AM_11
100
AcDbLine
 10
-10.00000000000039
 20
25.00000000000017
 30
0.0
 11
-0.0000000000003411
 21
25.00000000000017
 31
0.0
  0
LINE
  5
E6BB
330
1F
100
AcDbEntity
  8
AM_11
100
AcDbLine
 10
-10.00000000000028
 20
-24.99999999999985
 30
0.0
 11
-0.0000000000002274
 21
-24.99999999999985
 31
0.0
  0
DIMENSION
  5
E6D0
330
1F
100
AcDbEntity
  8
AM_5
100
AcDbDimension
  2
*D5
 10
-0.0000000000003153
 20
39.00000000000017
 30
0.0
 11
-5.000000000000325
 21
42.10000000000017
 31
0.0
 70
    32
  1
<>
 51
359.9999999999998
  3
AM_JIS$0
100
AcDbAlignedDimension
 13
-10.00000000000037
 23
25.00000000000017
 33
0.0
 14
-0.0000000000003411
 24
25.00000000000011
 34
0.0
 50
180.0
100
AcDbRotatedDimension
1001
GENIUS_GENDTOL_13
1000

1000
h7
1000

1040
0.0
1001
ACAD
1000
DSTYLE
1002
{
1070
   287
1070
     3
1070
   147
1040
3.0
1070
    41
1040
5.0
1070
    40
1040
0.5
1070
    42
1040
1.0
1070
    43
1040
12.0
1070
    48
1040
0.1
1070
    78
1070
     8
1070
   140
1040
6.4
1070
   176
1070
   256
1070
   177
1070
   256
1070
   271
1070
     1
1070
   272
1070
     3
1070
   275
1070
     0
1070
   284
1070
     0
1070
   289
1070
     3
1070
   340
1005
6B
1070
   371
1070
    -1
1070
   372
1070
    -1
1002
}
  0
DIMENSION
  5
E760
330
1F
100
AcDbEntity
  8
AM_5
100
AcDbDimension
  2
*D6
 10
13.99999999999977
 20
-24.99999999999986
 30
0.0
 11
10.89999999999977
 21
0.0000000000001558
 31
0.0
 70
    32
  1
%%c<>
 51
359.9999999999998
  3
AM_JIS$0
100
AcDbAlignedDimension
 13
-0.0000000000003411
 23
25.00000000000017
 33
0.0
 14
-0.0000000000002274
 24
-24.99999999999985
 34
0.0
 50
90.0
100
AcDbRotatedDimension
1001
GENIUS_GENDTOL_13
1000

1000
h7
1000

1040
0.0
1001
ACAD
1000
DSTYLE
1002
{
1070
   287
1070
     3
1070
   147
1040
3.0
1070
    41
1040
5.0
1070
    40
1040
0.5
1070
    42
1040
1.0
1070
    43
1040
12.0
1070
    48
1040
0.1
1070
    78
1070
     8
1070
   140
1040
6.4
1070
   176
1070
   256
1070
   177
1070
   256
1070
   271
1070
     1
1070
   272
1070
     3
1070
   275
1070
     0
1070
   284
1070
     0
1070
   289
1070
     3
1070
   340
1005
6B
1070
   371
1070
    -1
1070
   372
1070
    -1
1002
}
  0
DIMENSION
  5
E7EC
330
1F
100
AcDbEntity
  8
AM_5
100
AcDbDimension
  2
*D7
 10
-49.99999618530228
 20
-38.99999999999986
 30
0.0
 11
-24.99999809265125
 21
-35.89999999999985
 31
0.0
 70
    32
  1
<>
 51
359.9999999999998
  3
AM_JIS$0
100
AcDbAlignedDimension
 13
-0.0000000000002274
 23
-24.99999999999985
 33
0.0
 14
-49.99999618530228
 24
-20.9999923706099
 34
0.0
100
AcDbRotatedDimension
1001
GENIUS_GENDTOL_13
1000

1000
h7
1000

1040
0.0
1001
ACAD
1000
DSTYLE
1002
{
1070
   287
1070
     3
1070
   147
1040
3.0
1070
    41
1040
5.0
1070
    40
1040
0.5
1070
    42
1040
1.0
1070
    43
1040
12.0
1070
    48
1040
0.1
1070
    78
1070
     8
1070
   140
1040
6.4
1070
   176
1070
   256
1070
   177
1070
   256
1070
   271
1070
     1
1070
   272
1070
     3
1070
   275
1070
     0
1070
   284
1070
     0
1070
   289
1070
     3
1070
   340
1005
6B
1070
   371
1070
    -1
1070
   372
1070
    -1
1002
}
  0
DIMENSION
  5
E8D3
330
1F
100
AcDbEntity
  8
AM_5
100
AcDbDimension
  2
*D8
 10
-350.0000000000002
 20
-38.99999999999986
 30
0.0
 11
-199.9999977350235
 21
-35.89999999999985
 31
0.0
 70
    32
  1
<>
 51
359.9999999999998
  3
AM_JIS$0
100
AcDbAlignedDimension
 13
-49.99999547004694
 23
-20.9906234741199
 33
0.0
 14
-350.0000000000002
 24
-20.19615936279049
 34
0.0
100
AcDbRotatedDimension
1001
GENIUS_GENDTOL_13
1000

1000
h7
1000

1040
0.0
1001
ACAD
1000
DSTYLE
1002
{
1070
   287
1070
     3
1070
   147
1040
3.0
1070
    41
1040
5.0
1070
    40
1040
0.5
1070
    42
1040
1.0
1070
    43
1040
12.0
1070
    48
1040
0.1
1070
    78
1070
     8
1070
   140
1040
6.4
1070
   176
1070
   256
1070
   177
1070
   256
1070
   271
1070
     1
1070
   272
1070
     3
1070
   275
1070
     0
1070
   284
1070
     0
1070
   289
1070
     3
1070
   340
1005
6B
1070
   371
1070
    -1
1070
   372
1070
    -1
1002
}
  0
DIMENSION
  5
E95F
330
1F
100
AcDbEntity
  8
AM_5
100
AcDbDimension
  2
*D9
 10
-364.0000000000002
 20
-20.99999237061046
 30
0.0
 11
-367.1000000000002
 21
-0.0000000000050577
 31
0.0
 70
    32
  1
%%c<>
 51
359.9999999999998
  3
AM_JIS$0
100
AcDbAlignedDimension
 13
-346.9999847412103
 23
20.99999237060046
 33
0.0
 14
-346.9999847412102
 24
-20.99999237061047
 34
0.0
 50
270.0
100
AcDbRotatedDimension
1001
GENIUS_GENDTOL_13
1000

1000
h7
1000

1040
0.0
1001
ACAD
1000
DSTYLE
1002
{
1070
   287
1070
     3
1070
   147
1040
3.0
1070
    41
1040
5.0
1070
    40
1040
0.5
1070
    42
1040
1.0
1070
    43
1040
12.0
1070
    48
1040
0.1
1070
    78
1070
     8
1070
   140
1040
6.4
1070
   176
1070
   256
1070
   177
1070
   256
1070
   271
1070
     1
1070
   272
1070
     3
1070
   275
1070
     0
1070
   284
1070
     0
1070
   289
1070
     3
1070
   340
1005
6B
1070
   371
1070
    -1
1070
   372
1070
    -1
1002
}
  0
DIMENSION
  5
EA21
330
1F
100
AcDbEntity
  8
AM_5
100
AcDbDimension
  2
*D10
 10
-41.29999542236391
 20
-19.29062342643621
 30
0.0
 11
-41.2999954223639
 21
5.580576789012468
 31
0.0
 70
   160
  1
%%c<>
 51
359.9999999999998
  3
AM_JIS$0
100
AcDbAlignedDimension
 13
-48.29999542236333
 23
19.29063105582838
 33
0.0
 14
-48.29999542236325
 24
-19.29062342643621
 34
0.0
 50
90.0
100
AcDbRotatedDimension
1001
GENIUS_GENDTOL_13
1000

1000
h7
1000

1040
0.0
1001
ACAD
1000
DSTYLE
1002
{
1070
   287
1070
     3
1070
   147
1040
3.0
1070
    41
1040
5.0
1070
    76
1070
     1
1070
    75
1070
     1
1070
    40
1040
0.5
1070
    42
1040
1.0
1070
    43
1040
12.0
1070
    48
1040
0.1
1070
    78
1070
     8
1070
   140
1040
6.4
1070
   176
1070
   256
1070
   177
1070
   256
1070
   271
1070
     1
1070
   272
1070
     3
1070
   275
1070
     0
1070
   284
1070
     0
1070
   289
1070
     3
1070
   340
1005
6B
1070
   371
1070
    -1
1070
   372
1070
    -1
1002
}
  0
DIMENSION
  5
EAD3
330
1F
100
AcDbEntity
  8
AM_5
100
AcDbDimension
  2
*D11
 10
-350.0000000000002
 20
-48.99999999999986
 30
0.0
 11
-175.0000000000002
 21
-45.89999999999985
 31
0.0
 70
    32
  1
<>
 51
359.9999999999998
  3
AM_JIS$0
100
AcDbAlignedDimension
 13
-0.0000000000002274
 23
-24.99999999999985
 33
0.0
 14
-350.0000000000002
 24
-20.19615936279049
 34
0.0
100
AcDbRotatedDimension
1001
GENIUS_GENDTOL_13
1000

1000
h7
1000

1040
0.0
1001
ACAD
1000
DSTYLE
1002
{
1070
   287
1070
     3
1070
   147
1040
3.0
1070
    41
1040
5.0
1070
    40
1040
0.5
1070
    42
1040
1.0
1070
    43
1040
12.0
1070
    48
1040
0.1
1070
    78
1070
     8
1070
   140
1040
6.4
1070
   176
1070
   256
1070
   177
1070
   256
1070
   271
1070
     1
1070
   272
1070
     3
1070
   275
1070
     0
1070
   284
1070
     0
1070
   289
1070
     3
1070
   340
1005
6B
1070
   371
1070
    -1
1070
   372
1070
    -1
1002
}
  0
VIEWPORT
  5
110
330
101
100
AcDbEntity
 67
     1
  8
0
100
AcDbViewport
 10
420.5
 20
297.0
 30
0.0
 40
948.9782706766916
 41
628.452
 68
     1
 69
     1
1001
ACAD
1000
MVIEW
1002
{
1070
    16
1010
0.0
1020
0.0
1030
0.0
1010
0.0
1020
0.0
1030
1.0
1040
0.0
1040
628.452
1040
420.5
1040
297.0
1040
50.0
1040
0.0
1040
0.0
1070
     0
1070
   100
1070
     1
1070
     1
1070
     0
1070
     0
1070
     0
1070
     0
1040
0.0
1040
0.0
1040
0.0
1040
10.0
1040
10.0
1040
10.0
1040
10.0
1070
     0
1002
{
1002
}
1002
}
  0
ENDSEC
  0
SECTION
  2
OBJECTS
  0
DICTIONARY
  5
C
330
0
100
AcDbDictionary
  3
ACAD_GROUP
350
D
  3
ACAD_LAYOUT
350
1A
  3
ACAD_MLINESTYLE
350
17
  3
ACAD_PLOTSETTINGS
350
19
  3
ACAD_PLOTSTYLENAME
350
E
  3
ACDBVARIABLEDICTIONARY
350
34
  3
ACMDICTIONARY
350
43
  3
AMG
350
2B
  3
AMGSNAPSETTINGS
350
6E
  3
DWGPROPS
350
EE1B
  3
ACDBHEADERROUNDTRIPXREC
350
EE27
  0
DICTIONARY
  5
74
330
1F
100
AcDbDictionary
280
     1
  3
ACAD_INDEX
360
EE1D
  3
ACAD_LAYOUTSELFREF
360
EE4A
  0
DICTIONARY
  5
EE4F
330
101
100
AcDbDictionary
280
     1
  3
ACAD_LAYOUTSELFREF
360
EE50
  0
DICTIONARY
  5
D
102
{ACAD_REACTORS
330
C
102
}
330
C
100
AcDbDictionary
  0
DICTIONARY
  5
1A
102
{ACAD_REACTORS
330
C
102
}
330
C
100
AcDbDictionary
  0
DICTIONARY
  5
17
102
{ACAD_REACTORS
330
C
102
}
330
C
100
AcDbDictionary
  3
STANDARD
350
18
  0
DICTIONARY
  5
19
102
{ACAD_REACTORS
330
C
102
}
330
C
100
AcDbDictionary
  3
ASAMI
350
399D
  0
ACDBDICTIONARYWDFLT
  5
E
102
{ACAD_REACTORS
330
C
102
}
330
C
100
AcDbDictionary
281
     1
  3
Normal
350
F
100
AcDbDictionaryWithDefault
340
F
  0
DICTIONARY
  5
34
102
{ACAD_REACTORS
330
C
102
}
330
C
100
AcDbDictionary
  3
INDEXCTL
350
35
  3
SORTENTS
350
B5E
  0
DICTIONARY
  5
43
102
{ACAD_REACTORS
330
C
102
}
330
C
100
AcDbDictionary
  3
ACMSTDDICTIONARY
350
260
  0
DICTIONARY
  5
2B
102
{ACAD_REACTORS
330
C
102
}
330
C
100
AcDbDictionary
  3
ACMGSETTINGS
350
2C
  0
DICTIONARY
  5
6E
102
{ACAD_REACTORS
330
C
102
}
330
C
100
AcDbDictionary
  0
XRECORD
  5
EE1B
102
{ACAD_REACTORS
330
C
102
}
330
C
100
AcDbXrecord
  1
DWGPROPS COOKIE
  2

  3

  4

  6

  7

  8

  9

300
AmdtFileType=82
301
=
302
=
303
=
304
=
305
=
306
=
307
=
308
=
309
=
 40
0.9614498842592592
 41
2452802.716478761
 42
2453075.698457569
  1

 90
        1
  0
DICTIONARY
  5
EE27
102
{ACAD_REACTORS
330
C
102
}
330
C
100
AcDbDictionary
  3
TSTACKALIGN
350
EE28
  3
TSTACKSIZE
350
EE29
  3
HYPERLINKBASE
350
EE2A
  3
STYLESHEET
350
EE2B
  3
LAYOUTDICT
350
EE2C
  3
PLOTSETDICT
350
EE2D
  3
PLOTSTYLNAMDICT
350
EE2E
  3
LWETCUNION
350
EE2F
  3
INSUNITS
350
EE30
  3
CEPSNTYPE
350
EE31
  3
FINGERPRINTGUID
350
EE32
  3
VERSIONGUID
350
EE33
  3
PSVPSCALE
350
EE34
  3
DIMSTYLEDATA
350
EE35
  3
PUCSORTHOREF
350
EE36
  3
PUCSORTHOVIEW
350
EE37
  3
PUCSBASE
350
EE38
  3
PUCSORGTOP
350
EE39
  3
PUCSORGBOTTOM
350
EE3A
  3
PUCSORGLEFT
350
EE3B
  3
PUCSORGRIGHT
350
EE3C
  3
PUCSORGFRONT
350
EE3D
  3
PUCSORGBACK
350
EE3E
  3
UCSORTHOREF
350
EE3F
  3
UCSORTHOVIEW
350
EE40
  3
UCSBASE
350
EE41
  3
UCSORGTOP
350
EE42
  3
UCSORGBOTTOM
350
EE43
  3
UCSORGLEFT
350
EE44
  3
UCSORGRIGHT
350
EE45
  3
UCSORGFRONT
350
EE46
  3
UCSORGBACK
350
EE47
  0
DICTIONARY
  5
EE1D
102
{ACAD_REACTORS
330
74
102
}
330
74
100
AcDbDictionary
  3
*A1
350
EE1E
  0
XRECORD
  5
EE4A
102
{ACAD_REACTORS
330
74
102
}
330
74
100
AcDbXrecord
340
1F
  0
XRECORD
  5
EE50
102
{ACAD_REACTORS
330
EE4F
102
}
330
EE4F
100
AcDbXrecord
340
101
  0
MLINESTYLE
  5
18
102
{ACAD_REACTORS
330
17
102
}
330
17
100
AcDbMlineStyle
  2
STANDARD
 70
     0
  3

 62
   256
 51
90.0
 52
90.0
 71
     2
 49
0.5
 62
   256
  6
BYLAYER
 49
-0.5
 62
   256
  6
BYLAYER
  0
PLOTSETTINGS
  5
399D
102
{ACAD_REACTORS
330
19
102
}
330
19
100
AcDbPlotSettings
  1
asami
  2
RICOH imagio MF1540
  4
A4
  6

 40
5.831416606903076
 41
7.651742935180664
 42
4.90008544921875
 43
5.789077758789062
 44
296.9683227539062
 45
209.9733276367187
 46
0.0
 47
0.0
 48
-156.6707931774246
 49
-74.57609991074048
140
58.59973180214831
141
60.61068161925596
142
1.0
143
1.095343097833084
 70
  1712
 72
     1
 73
     1
 74
     4
  7
asami.ctb
 75
     0
147
0.9129559514076438
148
156.6707931774246
149
74.57609991074048
  0
ACDBPLACEHOLDER
  5
F
102
{ACAD_REACTORS
330
E
102
}
330
E
100
AcDbPlaceHolder
280
     0
  0
DICTIONARYVAR
  5
35
102
{ACAD_REACTORS
330
34
102
}
330
34
100
DictionaryVariables
280
     0
  1
1
  0
DICTIONARYVAR
  5
B5E
102
{ACAD_REACTORS
330
34
102
}
330
34
100
DictionaryVariables
280
     0
  1
96
  0
DICTIONARY
  5
260
102
{ACAD_REACTORS
330
43
102
}
330
43
100
AcDbDictionary
  0
DICTIONARY
  5
2C
102
{ACAD_REACTORS
330
2B
102
}
330
2B
100
AcDbDictionary
  3
DWGSETTINGS
350
2D
  0
XRECORD
  5
EE28
102
{ACAD_REACTORS
330
EE27
102
}
330
EE27
100
AcDbXrecord
 90
        1
  0
XRECORD
  5
EE29
102
{ACAD_REACTORS
330
EE27
102
}
330
EE27
100
AcDbXrecord
 90
       70
  0
XRECORD
  5
EE2A
102
{ACAD_REACTORS
330
EE27
102
}
330
EE27
100
AcDbXrecord
  1

  0
XRECORD
  5
EE2B
102
{ACAD_REACTORS
330
EE27
102
}
330
EE27
100
AcDbXrecord
  1
ASAMI.ctb
  0
XRECORD
  5
EE2C
102
{ACAD_REACTORS
330
EE27
102
}
330
EE27
100
AcDbXrecord
340
1A
  0
XRECORD
  5
EE2D
102
{ACAD_REACTORS
330
EE27
102
}
330
EE27
100
AcDbXrecord
340
19
  0
XRECORD
  5
EE2E
102
{ACAD_REACTORS
330
EE27
102
}
330
EE27
100
AcDbXrecord
340
E
  0
XRECORD
  5
EE2F
102
{ACAD_REACTORS
330
EE27
102
}
330
EE27
100
AcDbXrecord
 90
    10781
  0
XRECORD
  5
EE30
102
{ACAD_REACTORS
330
EE27
102
}
330
EE27
100
AcDbXrecord
 90
        4
  0
XRECORD
  5
EE31
102
{ACAD_REACTORS
330
EE27
102
}
330
EE27
100
AcDbXrecord
 90
        0
  0
XRECORD
  5
EE32
102
{ACAD_REACTORS
330
EE27
102
}
330
EE27
100
AcDbXrecord
  1
{AFB28963-8C59-40AE-9337-C84526B81ACE}
  0
XRECORD
  5
EE33
102
{ACAD_REACTORS
330
EE27
102
}
330
EE27
100
AcDbXrecord
  1
{19A6053A-58FB-4763-8213-3F616A4D65CC}
  0
XRECORD
  5
EE34
102
{ACAD_REACTORS
330
EE27
102
}
330
EE27
100
AcDbXrecord
 40
0.0
  0
XRECORD
  5
EE35
102
{ACAD_REACTORS
330
EE27
102
}
330
EE27
100
AcDbXrecord
1000
DSTYLE
1002
{
1070
    79
 70
     2
1070
   341
340
59
1070
   342
340
59
1070
   371
 70
    -1
1070
   372
 70
    -1
1002
}
  0
XRECORD
  5
EE36
102
{ACAD_REACTORS
330
EE27
102
}
330
EE27
100
AcDbXrecord
340
0
  0
XRECORD
  5
EE37
102
{ACAD_REACTORS
330
EE27
102
}
330
EE27
100
AcDbXrecord
 70
     0
  0
XRECORD
  5
EE38
102
{ACAD_REACTORS
330
EE27
102
}
330
EE27
100
AcDbXrecord
340
0
  0
XRECORD
  5
EE39
102
{ACAD_REACTORS
330
EE27
102
}
330
EE27
100
AcDbXrecord
 10
0.0
 20
0.0
 30
0.0
  0
XRECORD
  5
EE3A
102
{ACAD_REACTORS
330
EE27
102
}
330
EE27
100
AcDbXrecord
 10
0.0
 20
0.0
 30
0.0
  0
XRECORD
  5
EE3B
102
{ACAD_REACTORS
330
EE27
102
}
330
EE27
100
AcDbXrecord
 10
0.0
 20
0.0
 30
0.0
  0
XRECORD
  5
EE3C
102
{ACAD_REACTORS
330
EE27
102
}
330
EE27
100
AcDbXrecord
 10
0.0
 20
0.0
 30
0.0
  0
XRECORD
  5
EE3D
102
{ACAD_REACTORS
330
EE27
102
}
330
EE27
100
AcDbXrecord
 10
0.0
 20
0.0
 30
0.0
  0
XRECORD
  5
EE3E
102
{ACAD_REACTORS
330
EE27
102
}
330
EE27
100
AcDbXrecord
 10
0.0
 20
0.0
 30
0.0
  0
XRECORD
  5
EE3F
102
{ACAD_REACTORS
330
EE27
102
}
330
EE27
100
AcDbXrecord
340
0
  0
XRECORD
  5
EE40
102
{ACAD_REACTORS
330
EE27
102
}
330
EE27
100
AcDbXrecord
 70
     0
  0
XRECORD
  5
EE41
102
{ACAD_REACTORS
330
EE27
102
}
330
EE27
100
AcDbXrecord
340
0
  0
XRECORD
  5
EE42
102
{ACAD_REACTORS
330
EE27
102
}
330
EE27
100
AcDbXrecord
 10
0.0
 20
0.0
 30
0.0
  0
XRECORD
  5
EE43
102
{ACAD_REACTORS
330
EE27
102
}
330
EE27
100
AcDbXrecord
 10
0.0
 20
0.0
 30
0.0
  0
XRECORD
  5
EE44
102
{ACAD_REACTORS
330
EE27
102
}
330
EE27
100
AcDbXrecord
 10
0.0
 20
0.0
 30
0.0
  0
XRECORD
  5
EE45
102
{ACAD_REACTORS
330
EE27
102
}
330
EE27
100
AcDbXrecord
 10
0.0
 20
0.0
 30
0.0
  0
XRECORD
  5
EE46
102
{ACAD_REACTORS
330
EE27
102
}
330
EE27
100
AcDbXrecord
 10
0.0
 20
0.0
 30
0.0
  0
XRECORD
  5
EE47
102
{ACAD_REACTORS
330
EE27
102
}
330
EE27
100
AcDbXrecord
 10
0.0
 20
0.0
 30
0.0
  0
LAYER_INDEX
  5
EE1E
102
{ACAD_REACTORS
330
EE1D
102
}
330
EE1D
100
AcDbIndex
 40
2453152.374985682
100
AcDbLayerIndex
  8
0
360
EE1F
 90
        0
  8
AM_0
360
EE20
 90
      154
  8
AM_5
360
EE21
 90
        7
  8
AM_7
360
EE22
 90
        1
  8
AM_6
360
EE23
 90
        1
  8
Defpoints
360
EE24
 90
        0
  8
AM_11
360
EE25
 90
        4
  0
XRECORD
  5
2D
102
{ACAD_REACTORS
330
2C
102
}
330
2C
100
AcDbXrecord
  1
VERSION
140
15.0
  1
PRODUCT
  2
AutoCAD Mechanical 2000
  0
IDBUFFER
  5
EE1F
330
0
100
AcDbIdBuffer
  0
IDBUFFER
  5
EE20
330
0
100
AcDbIdBuffer
330
E589
330
E58A
330
E58B
330
E58C
330
E58D
330
E58E
330
E58F
330
E590
330
E591
330
E592
330
E593
330
E594
330
E595
330
E596
330
E597
330
E598
330
E599
330
E59A
330
E59B
330
E59C
330
E59D
330
E59E
330
E59F
330
E5A0
330
E5A1
330
E5A2
330
E5A3
330
E5A4
330
E5A5
330
E5A6
330
E5A7
330
E5A8
330
E5A9
330
E5AA
330
E5AB
330
E5AC
330
E5AD
330
E5AE
330
E5AF
330
E5B1
330
E5B2
330
E5B3
330
E4D3
330
E4D4
330
E4D5
330
E4D6
330
E4D7
330
E4D8
330
E4D9
330
E4DA
330
E4DB
330
E4DC
330
E4E1
330
E4E2
330
E4E3
330
E4E4
330
E4E5
330
E4E6
330
E4E7
330
E4E8
330
E4E9
330
E4EA
330
E4EB
330
E4EC
330
E4ED
330
E4EE
330
E4EF
330
E4F0
330
E4F1
330
E4F4
330
E4F5
330
E4F6
330
E4F7
330
E4F8
330
E4FB
330
E4FC
330
E4FD
330
E4FE
330
E4FF
330
E501
330
E502
330
E503
330
E504
330
E505
330
E506
330
E507
330
E508
330
E509
330
E50A
330
E50B
330
E50C
330
E50D
330
E50E
330
E50F
330
E510
330
E511
330
E512
330
E513
330
E514
330
E515
330
E516
330
E517
330
E518
330
E519
330
E51A
330
E51B
330
E51C
330
E51D
330
E51E
330
E51F
330
E520
330
E521
330
E522
330
E523
330
E524
330
E525
330
E526
330
E527
330
E528
330
E529
330
E52A
330
E554
330
E555
330
E556
330
E557
330
E558
330
E559
330
E561
330
E562
330
E563
330
E564
330
E565
330
E566
330
E567
330
E568
330
E569
330
E56A
330
E56B
330
E579
330
E57A
330
E57B
330
E57C
330
E57D
330
E57E
330
E57F
330
E580
330
E581
330
E582
330
E583
330
E584
330
E585
330
E586
330
E587
330
E588
  0
IDBUFFER
  5
EE21
330
0
100
AcDbIdBuffer
330
E6D0
330
E760
330
E7EC
330
E8D3
330
E95F
330
EA21
330
EAD3
  0
IDBUFFER
  5
EE22
330
0
100
AcDbIdBuffer
330
E4DD
  0
IDBUFFER
  5
EE23
330
0
100
AcDbIdBuffer
330
388D
  0
IDBUFFER
  5
EE24
330
0
100
AcDbIdBuffer
  0
IDBUFFER
  5
EE25
330
0
100
AcDbIdBuffer
330
E6A7
330
E6AF
330
E6B7
330
E6BB
  0
ENDSEC
  0
EOF
