  0
SECTION
  2
HEADER
  9
$ACADVER
  1
AC1014
  9
$ACADMAINTVER
 70
     9
  9
$DWGCODEPAGE
  3
ANSI_932
  9
$INSBASE
 10
0.0
 20
0.0
 30
0.0
  9
$EXTMIN
 10
-67.62690436026161
 20
-61.95749174201043
 30
0.0
  9
$EXTMAX
 10
12.49999999999981
 20
49.35000000000014
 30
0.0
  9
$LIMMIN
 10
-85.66616873301972
 20
-86.40521305801859
  9
$LIMMAX
 10
144.4087801113858
 20
62.45191161740365
  9
$ORTHOMODE
 70
     0
  9
$REGENMODE
 70
     1
  9
$FILLMODE
 70
     1
  9
$QTEXTMODE
 70
     0
  9
$MIRRTEXT
 70
     0
  9
$DRAGMODE
 70
     2
  9
$LTSCALE
 40
1.0
  9
$OSMODE
 70
    55
  9
$ATTMODE
 70
     1
  9
$TEXTSIZE
 40
2.5
  9
$TRACEWID
 40
1.0
  9
$TEXTSTYLE
  7
STANDARD
  9
$CLAYER
  8
AM_0
  9
$CELTYPE
  6
BYLAYER
  9
$CECOLOR
 62
   256
  9
$CELTSCALE
 40
1.0
  9
$DELOBJ
 70
     1
  9
$DISPSILH
 70
     0
  9
$DIMSCALE
 40
0.5
  9
$DIMASZ
 40
2.5
  9
$DIMEXO
 40
1.0
  9
$DIMDLI
 40
12.0
  9
$DIMRND
 40
0.0
  9
$DIMDLE
 40
0.0
  9
$DIMEXE
 40
1.0
  9
$DIMTP
 40
0.1
  9
$DIMTM
 40
0.1
  9
$DIMTXT
 40
3.2
  9
$DIMCEN
 40
0.0
  9
$DIMTSZ
 40
0.0
  9
$DIMTOL
 70
     0
  9
$DIMLIM
 70
     0
  9
$DIMTIH
 70
     0
  9
$DIMTOH
 70
     0
  9
$DIMSE1
 70
     0
  9
$DIMSE2
 70
     0
  9
$DIMTAD
 70
     3
  9
$DIMZIN
 70
     8
  9
$DIMBLK
  1
OPEN30
  9
$DIMASO
 70
     1
  9
$DIMSHO
 70
     1
  9
$DIMPOST
  1

  9
$DIMAPOST
  1
"
  9
$DIMALT
 70
     0
  9
$DIMALTD
 70
     2
  9
$DIMALTF
 40
0.0393701
  9
$DIMLFAC
 40
1.0
  9
$DIMTOFL
 70
     1
  9
$DIMTVP
 40
0.0
  9
$DIMTIX
 70
     0
  9
$DIMSOXD
 70
     0
  9
$DIMSAH
 70
     0
  9
$DIMBLK1
  1

  9
$DIMBLK2
  1

  9
$DIMSTYLE
  2
AM_JIS
  9
$DIMCLRD
 70
   256
  9
$DIMCLRE
 70
   256
  9
$DIMCLRT
 70
     2
  9
$DIMTFAC
 40
0.71
  9
$DIMGAP
 40
1.5
  9
$DIMJUST
 70
     0
  9
$DIMSD1
 70
     0
  9
$DIMSD2
 70
     0
  9
$DIMTOLJ
 70
     0
  9
$DIMTZIN
 70
     0
  9
$DIMALTZ
 70
     0
  9
$DIMALTTZ
 70
     0
  9
$DIMFIT
 70
     3
  9
$DIMUPT
 70
     0
  9
$DIMUNIT
 70
     2
  9
$DIMDEC
 70
     3
  9
$DIMTDEC
 70
     3
  9
$DIMALTU
 70
     2
  9
$DIMALTTD
 70
     2
  9
$DIMTXSTY
  7
ASAMI
  9
$DIMAUNIT
 70
     0
  9
$LUNITS
 70
     2
  9
$LUPREC
 70
     2
  9
$SKETCHINC
 40
1.0
  9
$FILLETRAD
 40
0.4
  9
$AUNITS
 70
     0
  9
$AUPREC
 70
     0
  9
$MENU
  1
.
  9
$ELEVATION
 40
0.0
  9
$PELEVATION
 40
0.0
  9
$THICKNESS
 40
0.0
  9
$LIMCHECK
 70
     1
  9
$BLIPMODE
 70
     0
  9
$CHAMFERA
 40
1.0
  9
$CHAMFERB
 40
1.0
  9
$CHAMFERC
 40
20.0
  9
$CHAMFERD
 40
0.0
  9
$SKPOLY
 70
     0
  9
$TDCREATE
 40
2452802.716478761
  9
$TDUPDATE
 40
2453152.374580405
  9
$TDINDWG
 40
0.9653877315
  9
$TDUSRTIMER
 40
0.9653877315
  9
$USRTIMER
 70
     1
  9
$ANGBASE
 50
0.0
  9
$ANGDIR
 70
     0
  9
$PDMODE
 70
     0
  9
$PDSIZE
 40
0.0
  9
$PLINEWID
 40
0.0
  9
$COORDS
 70
     1
  9
$SPLFRAME
 70
     0
  9
$SPLINETYPE
 70
     6
  9
$SPLINESEGS
 70
     8
  9
$ATTDIA
 70
     1
  9
$ATTREQ
 70
     1
  9
$HANDLING
 70
 12289
  9
$HANDSEED
  5
FD82
  9
$SURFTAB1
 70
     6
  9
$SURFTAB2
 70
     6
  9
$SURFTYPE
 70
     6
  9
$SURFU
 70
     6
  9
$SURFV
 70
     6
  9
$UCSNAME
  2

  9
$UCSORG
 10
-0.0000000000002682
 20
0.000000000000161
 30
0.0
  9
$UCSXDIR
 10
1.0
 20
0.000000000000002
 30
0.0
  9
$UCSYDIR
 10
-0.000000000000002
 20
1.0
 30
0.0
  9
$PUCSNAME
  2

  9
$PUCSORG
 10
0.0
 20
0.0
 30
0.0
  9
$PUCSXDIR
 10
1.0
 20
0.0
 30
0.0
  9
$PUCSYDIR
 10
0.0
 20
1.0
 30
0.0
  9
$USERI1
 70
     0
  9
$USERI2
 70
     0
  9
$USERI3
 70
     0
  9
$USERI4
 70
     0
  9
$USERI5
 70
     0
  9
$USERR1
 40
0.0
  9
$USERR2
 40
0.0
  9
$USERR3
 40
0.0
  9
$USERR4
 40
0.0
  9
$USERR5
 40
0.0
  9
$WORLDVIEW
 70
     1
  9
$SHADEDGE
 70
     3
  9
$SHADEDIF
 70
    70
  9
$TILEMODE
 70
     1
  9
$MAXACTVP
 70
    64
  9
$PINSBASE
 10
0.0
 20
0.0
 30
0.0
  9
$PLIMCHECK
 70
     0
  9
$PEXTMIN
 10
1.000000000000000E+20
 20
1.000000000000000E+20
 30
1.000000000000000E+20
  9
$PEXTMAX
 10
-1.000000000000000E+20
 20
-1.000000000000000E+20
 30
-1.000000000000000E+20
  9
$PLIMMIN
 10
0.0
 20
0.0
  9
$PLIMMAX
 10
841.0
 20
594.0
  9
$UNITMODE
 70
     0
  9
$VISRETAIN
 70
     1
  9
$PLINEGEN
 70
     0
  9
$PSLTSCALE
 70
     0
  9
$TREEDEPTH
 70
  3020
  9
$PICKSTYLE
 70
     0
  9
$CMLSTYLE
  2
STANDARD
  9
$CMLJUST
 70
     0
  9
$CMLSCALE
 40
20.0
  9
$PROXYGRAPHICS
 70
     1
  9
$MEASUREMENT
 70
     1
  0
ENDSEC
  0
SECTION
  2
CLASSES
  0
CLASS
  1
ACDBDICTIONARYWDFLT
  2
AcDbDictionaryWithDefault
  3
AutoCAD 2000
 90
        0
280
     0
281
     0
  0
CLASS
  1
ACDBPLACEHOLDER
  2
AcDbPlaceHolder
  3
AutoCAD 2000
 90
        0
280
     0
281
     0
  0
CLASS
  1
LAYOUT
  2
AcDbLayout
  3
AutoCAD 2000
 90
        0
280
     0
281
     0
  0
CLASS
  1
AMGSETTINGSOBJ
  2
AmgSettingsObj
  3
"AcadM|Product Description: AutoCAD Mechanical 2000|Company: Autodesk"
 90
        0
280
     0
281
     0
  0
CLASS
  1
ACME_DOCUMENT
  2
AcMeDbDoc
  3
AcMeServices
 90
        0
280
     0
281
     0
  0
CLASS
  1
ACMESCOPE
  2
AcMeScope
  3
AcMeServices
 90
        0
280
     0
281
     0
  0
CLASS
  1
ACMECOMMANDHISTORY
  2
AcMeCommandHistory
  3
AcMeServices
 90
        0
280
     0
281
     0
  0
CLASS
  1
DICTIONARYVAR
  2
AcDbDictionaryVar
  3
AutoCAD 2000
 90
        0
280
     0
281
     0
  0
CLASS
  1
ACIMSYSVARMAN
  2
AcImSysVarManager
  3
AcMeServices
 90
        0
280
     0
281
     0
  0
CLASS
  1
ACIMREALSYSVAR
  2
AcImRealSysVar
  3
AcMeServices
 90
        0
280
     0
281
     0
  0
CLASS
  1
ACIMINTSYSVAR
  2
AcImIntSysVar
  3
AcMeServices
 90
        0
280
     0
281
     0
  0
CLASS
  1
ACMEDRAWINGMAN
  2
AcMeDrawingMan
  3
AcMeServices
 90
        0
280
     0
281
     0
  0
CLASS
  1
ACMEVIEW
  2
AcMeView
  3
AcMeServices
 90
        0
280
     0
281
     0
  0
CLASS
  1
ACDBENTITYCACHE
  2
AcMeEntityCache
  3
AcMeServices
 90
        0
280
     0
281
     0
  0
CLASS
  1
GSMANAGER
  2
AcMeGSManager
  3
AcMeServices
 90
        0
280
     0
281
     0
  0
CLASS
  1
AmdtInternalReactor
  2
AmdtInternalReactor
  3
AcMeServices
 90
        0
280
     0
281
     0
  0
CLASS
  1
ACMESTATEMGR
  2
AcMeStateMgr
  3
AcMeServices
 90
        0
280
     0
281
     0
  0
CLASS
  1
ACME_DATABASE
  2
AcMeDbDatabase
  3
AcMeServices
 90
        0
280
     0
281
     0
  0
CLASS
  1
ACRFINSADJUSTERMGR
  2
AcRfInsAdjusterMgr
  3
AcMeServices
 90
        0
280
     0
281
     0
  0
CLASS
  1
ACMDATADICTIONARY
  2
AcmDataDictionary
  3
"AcmSymBB|Product Description: AutoCAD Mechanical 2000|Company: Autodesk"
 90
        0
280
     0
281
     0
  0
CLASS
  1
ACMDATAENTRYBLOCK
  2
AcmDataEntryBlock
  3
"AcmSymBB|Product Description: AutoCAD Mechanical 2000|Company: Autodesk"
 90
        0
280
     0
281
     0
  0
CLASS
  1
AMGOBJPROPCFG
  2
AmgObjPropCfg
  3
"AmgLay|Product Description: AutoCAD Mechanical 2000|Company: Autodesk"
 90
        1
280
     0
281
     0
  0
CLASS
  1
ACAMGFILTERDAT
  2
AcAmgFilterDat
  3
"AcadM|Product Description: AutoCAD Mechanical 2000|Company: Autodesk"
 90
        0
280
     0
281
     0
  0
CLASS
  1
LAYER_INDEX
  2
AcDbLayerIndex
  3
AutoCAD 2000
 90
        0
280
     0
281
     0
  0
CLASS
  1
IDBUFFER
  2
AcDbIdBuffer
  3
AutoCAD 2000
 90
        0
280
     0
281
     0
  0
CLASS
  1
ACIMSTRSYSVAR
  2
AcImStrSysVar
  3
AcMeServices
 90
        0
280
     0
281
     0
  0
CLASS
  1
ACMSTANDARDJIS
  2
AcmStandardJIS
  3
"AcmSymBB|Product Description: AutoCAD Mechanical 2000|Company: Autodesk"
 90
        0
280
     0
281
     0
  0
CLASS
  1
ACMSURFSTANDARDJIS
  2
AcmSurfTextStdJIS
  3
"AcmSymBB|Product Description: AutoCAD Mechanical 2000|Company: Autodesk"
 90
        0
280
     0
281
     0
  0
CLASS
  1
ACMFCFSTANDARDJIS
  2
AcmFCFStdJIS
  3
"AcmSymBB|Product Description: AutoCAD Mechanical 2000|Company: Autodesk"
 90
        0
280
     0
281
     0
  0
CLASS
  1
ACMWELDSTANDARDJIS
  2
AcmWeldingStdJIS
  3
"AcmSymBB|Product Description: AutoCAD Mechanical 2000|Company: Autodesk"
 90
        0
280
     0
281
     0
  0
CLASS
  1
ACMIDSTANDARDJIS
  2
AcmIdStdJIS
  3
"AcmSymBB|Product Description: AutoCAD Mechanical 2000|Company: Autodesk"
 90
        0
280
     0
281
     0
  0
CLASS
  1
ACMDATUMSTANDARDJIS
  2
AcmDatumStdJIS
  3
"AcmSymBB|Product Description: AutoCAD Mechanical 2000|Company: Autodesk"
 90
        0
280
     0
281
     0
  0
CLASS
  1
ACMBOMSTANDARDJIS
  2
AcmBOMStdJIS
  3
"AcmSymBB|Product Description: AutoCAD Mechanical 2000|Company: Autodesk"
 90
        0
280
     0
281
     0
  0
CLASS
  1
ACMSTANDARDANSI
  2
AcmStandardANSI
  3
"AcmSymBB|Product Description: AutoCAD Mechanical 2000|Company: Autodesk"
 90
        0
280
     0
281
     0
  0
CLASS
  1
ACMSURFSTANDARDANSI
  2
AcmSurfTextStdANSI
  3
"AcmSymBB|Product Description: AutoCAD Mechanical 2000|Company: Autodesk"
 90
        0
280
     0
281
     0
  0
CLASS
  1
ACMFCFSTANDARDANSI
  2
AcmFCFStdANSI
  3
"AcmSymBB|Product Description: AutoCAD Mechanical 2000|Company: Autodesk"
 90
        0
280
     0
281
     0
  0
CLASS
  1
ACMWELDSTANDARDANSI
  2
AcmWeldingStdANSI
  3
"AcmSymBB|Product Description: AutoCAD Mechanical 2000|Company: Autodesk"
 90
        0
280
     0
281
     0
  0
CLASS
  1
ACMIDSTANDARDANSI
  2
AcmIdStdANSI
  3
"AcmSymBB|Product Description: AutoCAD Mechanical 2000|Company: Autodesk"
 90
        0
280
     0
281
     0
  0
CLASS
  1
ACMDATUMSTANDARDANSI
  2
AcmDatumStdANSI
  3
"AcmSymBB|Product Description: AutoCAD Mechanical 2000|Company: Autodesk"
 90
        0
280
     0
281
     0
  0
CLASS
  1
ACMBOMSTANDARDANSI
  2
AcmBOMStdANSI
  3
"AcmSymBB|Product Description: AutoCAD Mechanical 2000|Company: Autodesk"
 90
        0
280
     0
281
     0
  0
CLASS
  1
ACMSTANDARDBSI
  2
AcmStandardBSI
  3
"AcmSymBB|Product Description: AutoCAD Mechanical 2000|Company: Autodesk"
 90
        0
280
     0
281
     0
  0
CLASS
  1
ACMSURFSTANDARDBSI
  2
AcmSurfTextStdBSI
  3
"AcmSymBB|Product Description: AutoCAD Mechanical 2000|Company: Autodesk"
 90
        0
280
     0
281
     0
  0
CLASS
  1
ACMFCFSTANDARDBSI
  2
AcmFCFStdBSI
  3
"AcmSymBB|Product Description: AutoCAD Mechanical 2000|Company: Autodesk"
 90
        0
280
     0
281
     0
  0
CLASS
  1
ACMWELDSTANDARDBSI
  2
AcmWeldingStdBSI
  3
"AcmSymBB|Product Description: AutoCAD Mechanical 2000|Company: Autodesk"
 90
        0
280
     0
281
     0
  0
CLASS
  1
ACMIDSTANDARDBSI
  2
AcmIdStdBSI
  3
"AcmSymBB|Product Description: AutoCAD Mechanical 2000|Company: Autodesk"
 90
        0
280
     0
281
     0
  0
CLASS
  1
ACMDATUMSTANDARDBSI
  2
AcmDatumStdBSI
  3
"AcmSymBB|Product Description: AutoCAD Mechanical 2000|Company: Autodesk"
 90
        0
280
     0
281
     0
  0
CLASS
  1
ACMBOMSTANDARDBSI
  2
AcmBOMStdBSI
  3
"AcmSymBB|Product Description: AutoCAD Mechanical 2000|Company: Autodesk"
 90
        0
280
     0
281
     0
  0
CLASS
  1
STDPART2D
  2
AmgStdPart
  3
"AmgStdPart|Product Description: AutoCAD Mechanical 2000|Company: Autodesk"
 90
     1023
280
     0
281
     1
  0
CLASS
  1
PLOTSETTINGS
  2
AcDbPlotSettings
  3
AutoCAD 2000
 90
        0
280
     0
281
     0
  0
CLASS
  1
LONG_TRANSACTION
  2
AcDbLongTransaction
  3
AutoCAD 2000
 90
        0
280
     0
281
     0
  0
CLASS
  1
LWPOLYLINE
  2
AcDbPolyline
  3
AutoCAD 2000
 90
        0
280
     0
281
     1
  0
CLASS
  1
HATCH
  2
AcDbHatch
  3
AutoCAD 2000
 90
        0
280
     0
281
     1
  0
CLASS
  1
XRECORD
  2
AcDbXrecord
  3
AutoCAD 2000
 90
        0
280
     0
281
     0
  0
ENDSEC
  0
SECTION
  2
TABLES
  0
TABLE
  2
VPORT
  5
8
330
0
100
AcDbSymbolTable
 70
     3
  0
VPORT
  5
FD0F
330
8
100
AcDbSymbolTableRecord
100
AcDbViewportTableRecord
  2
*ACTIVE
 70
     0
 10
0.0
 20
0.0
 11
1.0
 21
1.0
 12
-22.95422314436407
 22
-5.577084904493787
 13
0.0
 23
0.0
 14
2.5
 24
2.5
 15
10.0
 25
10.0
 16
0.0
 26
0.0
 36
1.0
 17
0.0
 27
0.0
 37
0.0
 40
148.289246241958
 41
1.56570841889117
 42
50.0
 43
0.0
 44
0.0
 50
0.0
 51
0.0
 71
     0
 72
   100
 73
     1
 74
     3
 75
     0
 76
     0
 77
     0
 78
     0
  0
ENDTAB
  0
TABLE
  2
LTYPE
  5
5
330
0
100
AcDbSymbolTable
 70
    10
  0
LTYPE
  5
14
330
5
100
AcDbSymbolTableRecord
100
AcDbLinetypeTableRecord
  2
BYBLOCK
 70
     0
  3

 72
    65
 73
     0
 40
0.0
  0
LTYPE
  5
15
330
5
100
AcDbSymbolTableRecord
100
AcDbLinetypeTableRecord
  2
BYLAYER
 70
     0
  3

 72
    65
 73
     0
 40
0.0
  0
LTYPE
  5
16
330
5
100
AcDbSymbolTableRecord
100
AcDbLinetypeTableRecord
  2
CONTINUOUS
 70
     0
  3
Solid line
 72
    65
 73
     0
 40
0.0
  0
LTYPE
  5
4B
330
5
100
AcDbSymbolTableRecord
100
AcDbLinetypeTableRecord
  2
AM_ISO02W050
 70
     0
  3
__ __ __ __ __ __ __ __ __ __ __ __ __ __ __
 72
    65
 73
     2
 40
7.5
 49
6.0
 74
     0
 49
-1.5
 74
     0
  0
LTYPE
  5
4C
330
5
100
AcDbSymbolTableRecord
100
AcDbLinetypeTableRecord
  2
AM_ISO08W050
 70
     0
  3
____ . ____ . ____ . ____ . ____ . ____ . ____
 72
    65
 73
     4
 40
18.0
 49
12.0
 74
     0
 49
-1.5
 74
     0
 49
3.0
 74
     0
 49
-1.5
 74
     0
  0
LTYPE
  5
4D
330
5
100
AcDbSymbolTableRecord
100
AcDbLinetypeTableRecord
  2
AM_ISO09W050
 70
     0
  3
_____ . . _____ . . _____ . . ____ .. ____
 72
    65
 73
     6
 40
22.5
 49
12.0
 74
     0
 49
-1.5
 74
     0
 49
3.0
 74
     0
 49
-1.5
 74
     0
 49
3.0
 74
     0
 49
-1.5
 74
     0
  0
LTYPE
  5
4E
330
5
100
AcDbSymbolTableRecord
100
AcDbLinetypeTableRecord
  2
AMCONSTR
 70
     0
  3
_______________________
 72
    65
 73
     2
 40
9999.0
 49
9999.0
 74
     0
 49
0.0
 74
     0
  0
LTYPE
  5
4F
330
5
100
AcDbSymbolTableRecord
100
AcDbLinetypeTableRecord
  2
AM_ISO02W050X2
 70
     0
  3
 _ _ _ _ _ _ _ _ _ _ _ _
 72
    65
 73
     2
 40
3.75
 49
3.0
 74
     0
 49
-0.75
 74
     0
  0
LTYPE
  5
50
330
5
100
AcDbSymbolTableRecord
100
AcDbLinetypeTableRecord
  2
AM_ISO08W050X2
 70
     0
  3
__ . __ . __ . __ . __ . __
 72
    65
 73
     4
 40
9.0
 49
6.0
 74
     0
 49
-0.75
 74
     0
 49
1.5
 74
     0
 49
-0.75
 74
     0
  0
LTYPE
  5
53
330
5
100
AcDbSymbolTableRecord
100
AcDbLinetypeTableRecord
  2
AMZIGZAG
 70
     0
  3
/\/-/\/-/\/-/\/-/\/-/\/
 72
    65
 73
     2
 40
11.00009999999999
 49
0.0001
 74
     4
 75
   135
340
52
 46
0.04
 50
0.0
 44
0.0
 45
0.0
 49
-11.0
 74
     0
  0
LTYPE
  5
166
330
5
100
AcDbSymbolTableRecord
100
AcDbLinetypeTableRecord
  2
ACJISTGL
 70
     0
  3
_ _ _ _ _
 72
    65
 73
     2
 40
3.0
 49
2.0
 74
     0
 49
-1.0
 74
     0
  0
LTYPE
  5
26A
330
5
100
AcDbSymbolTableRecord
100
AcDbLinetypeTableRecord
  2
ACJISTGB
 70
     0
  3
__ . . __ . .
 72
    65
 73
     6
 40
9.0
 49
4.0
 74
     0
 49
-1.0
 74
     0
 49
1.0
 74
     0
 49
-1.0
 74
     0
 49
1.0
 74
     0
 49
-1.0
 74
     0
  0
ENDTAB
  0
TABLE
  2
LAYER
  5
2
330
0
100
AcDbSymbolTable
 70
     7
  0
LAYER
  5
10
330
2
100
AcDbSymbolTableRecord
100
AcDbLayerTableRecord
  2
0
 70
     0
 62
     7
  6
CONTINUOUS
  0
LAYER
  5
3F9
330
2
100
AcDbSymbolTableRecord
100
AcDbLayerTableRecord
  2
AM_0
 70
     0
 62
     7
  6
CONTINUOUS
  0
LAYER
  5
BA4
330
2
100
AcDbSymbolTableRecord
100
AcDbLayerTableRecord
  2
AM_5
 70
     0
 62
     3
  6
CONTINUOUS
  0
LAYER
  5
BA6
330
2
100
AcDbSymbolTableRecord
100
AcDbLayerTableRecord
  2
AM_7
 70
     0
 62
     4
  6
AM_ISO08W050
  0
LAYER
  5
E64
330
2
100
AcDbSymbolTableRecord
100
AcDbLayerTableRecord
  2
AM_6
 70
     0
 62
     2
  6
CONTINUOUS
  0
LAYER
  5
F4D
330
2
100
AcDbSymbolTableRecord
100
AcDbLayerTableRecord
  2
DEFPOINTS
 70
     0
 62
     7
  6
CONTINUOUS
  0
LAYER
  5
4E80
330
2
100
AcDbSymbolTableRecord
100
AcDbLayerTableRecord
  2
AM_11
 70
     0
 62
     3
  6
AM_ISO09W050
  0
ENDTAB
  0
TABLE
  2
STYLE
  5
3
330
0
100
AcDbSymbolTable
 70
     5
  0
STYLE
  5
11
330
3
100
AcDbSymbolTableRecord
100
AcDbTextStyleTableRecord
  2
STANDARD
 70
     0
 40
0.0
 41
1.0
 50
0.0
 71
     0
 42
2.5
  3
simplex.shx
  4
EXTFONT.SHX
  0
STYLE
  5
52
330
3
100
AcDbSymbolTableRecord
100
AcDbTextStyleTableRecord
  2

 70
     1
 40
0.0
 41
1.0
 50
0.0
 71
     0
 42
2.5
  3
ltypeshp.shx
  4

  0
STYLE
  5
6B
330
3
100
AcDbSymbolTableRecord
100
AcDbTextStyleTableRecord
  2
ASAMI
 70
     0
 40
0.0
 41
1.0
 50
0.0
 71
     0
 42
2.5
  3
simplex.shx
  4
EXTFONT.SHX
  0
STYLE
  5
262
330
3
100
AcDbSymbolTableRecord
100
AcDbTextStyleTableRecord
  2
ACJISTS
 70
     0
 40
1.0
 41
1.0
 50
0.0
 71
     0
 42
2.5
  3
simplex.shx
  4
bigfont.shx
  0
STYLE
  5
269
330
3
100
AcDbSymbolTableRecord
100
AcDbTextStyleTableRecord
  2
ACJISGDT
 70
     0
 40
0.0
 41
1.0
 50
0.0
 71
     0
 42
2.5
  3
amgdtans.shx
  4

  0
ENDTAB
  0
TABLE
  2
VIEW
  5
6
330
0
100
AcDbSymbolTable
 70
     0
  0
ENDTAB
  0
TABLE
  2
UCS
  5
7
330
0
100
AcDbSymbolTable
 70
     0
  0
ENDTAB
  0
TABLE
  2
APPID
  5
9
330
0
100
AcDbSymbolTable
 70
    24
  0
APPID
  5
12
330
9
100
AcDbSymbolTableRecord
100
AcDbRegAppTableRecord
  2
ACAD
 70
     0
  0
APPID
  5
30
330
9
100
AcDbSymbolTableRecord
100
AcDbRegAppTableRecord
  2
MCAD_NO_VIS
 70
     0
  0
APPID
  5
31
330
9
100
AcDbSymbolTableRecord
100
AcDbRegAppTableRecord
  2
ACAD_TEMP_GRAPHIC
 70
     0
  0
APPID
  5
2C2
330
9
100
AcDbSymbolTableRecord
100
AcDbRegAppTableRecord
  2
GENIUS_GENDTOL_13
 70
     0
  0
APPID
  5
339
330
9
100
AcDbSymbolTableRecord
100
AcDbRegAppTableRecord
  2
GENIUS_GENODEF_13
 70
     0
  0
APPID
  5
33A
330
9
100
AcDbSymbolTableRecord
100
AcDbRegAppTableRecord
  2
GENIUS_GENOBJ-N-RSBK_13
 70
     0
  0
APPID
  5
33B
330
9
100
AcDbSymbolTableRecord
100
AcDbRegAppTableRecord
  2
GENIUS_GENOBJ-N-LIB_13
 70
     0
  0
APPID
  5
33C
330
9
100
AcDbSymbolTableRecord
100
AcDbRegAppTableRecord
  2
GENIUS_GENSCALE_13
 70
     0
  0
APPID
  5
378
330
9
100
AcDbSymbolTableRecord
100
AcDbRegAppTableRecord
  2
GENIUS_GENDIMSH_14
 70
     0
  0
APPID
  5
BB0
330
9
100
AcDbSymbolTableRecord
100
AcDbRegAppTableRecord
  2
GENIUS_GENOBJ-N-CEN_13
 70
     0
  0
APPID
  5
BB1
330
9
100
AcDbSymbolTableRecord
100
AcDbRegAppTableRecord
  2
GENIUS_GENFIL_13
 70
     0
  0
APPID
  5
BB2
330
9
100
AcDbSymbolTableRecord
100
AcDbRegAppTableRecord
  2
GENIUS_GENOBJ-N-CHA_13
 70
     0
  0
APPID
  5
1FAF
330
9
100
AcDbSymbolTableRecord
100
AcDbRegAppTableRecord
  2
GENIUS_GENOBJ-N-CRS_13
 70
     0
  0
APPID
  5
1FB0
330
9
100
AcDbSymbolTableRecord
100
AcDbRegAppTableRecord
  2
GENIUS_GENOENT_13
 70
     0
  0
APPID
  5
1FB1
330
9
100
AcDbSymbolTableRecord
100
AcDbRegAppTableRecord
  2
GENIUS_GENOREF_13
 70
     0
  0
APPID
  5
1FB2
330
9
100
AcDbSymbolTableRecord
100
AcDbRegAppTableRecord
  2
GENIUS_GENOLIS_13
 70
     0
  0
APPID
  5
1FB7
330
9
100
AcDbSymbolTableRecord
100
AcDbRegAppTableRecord
  2
GENIUS_GENOBJ-N-FIL_13
 70
     0
  0
APPID
  5
22A8
330
9
100
AcDbSymbolTableRecord
100
AcDbRegAppTableRecord
  2
GEVID1056506048
 70
     0
  0
APPID
  5
22A9
330
9
100
AcDbSymbolTableRecord
100
AcDbRegAppTableRecord
  2
GEVDC
 70
     0
  0
APPID
  5
22AC
330
9
100
AcDbSymbolTableRecord
100
AcDbRegAppTableRecord
  2
GENIUS_GENBH_13
 70
     0
  0
APPID
  5
22B8
330
9
100
AcDbSymbolTableRecord
100
AcDbRegAppTableRecord
  2
GENIUS_GENOBJ-NBEHI-BHF_13
 70
     0
  0
APPID
  5
22BA
330
9
100
AcDbSymbolTableRecord
100
AcDbRegAppTableRecord
  2
GENIUS_GENOBJ-NBEHI-BHB_13
 70
     0
  0
APPID
  5
35C9
330
9
100
AcDbSymbolTableRecord
100
AcDbRegAppTableRecord
  2
GENIUS_GENREC_14
 70
     0
  0
APPID
  5
35CA
330
9
100
AcDbSymbolTableRecord
100
AcDbRegAppTableRecord
  2
GENIUS_GENOBJ-N-REC_13
 70
     0
  0
ENDTAB
  0
TABLE
  2
DIMSTYLE
  5
A
330
0
100
AcDbSymbolTable
 70
     9
  0
DIMSTYLE
105
58
330
A
100
AcDbSymbolTableRecord
100
AcDbDimStyleTableRecord
  2
AM_JIS
 70
     0
  3

  4
"
  5
OPEN30
  6

  7

 40
0.5
 41
2.5
 42
1.0
 43
12.0
 44
1.0
 45
0.0
 46
0.0
 47
0.1
 48
0.1
140
3.2
141
0.0
142
0.0
143
0.0393701
144
1.0
145
0.0
146
0.71
147
1.5
 71
     0
 72
     0
 73
     0
 74
     0
 75
     0
 76
     0
 77
     3
 78
     8
170
     0
171
     2
172
     1
173
     0
174
     0
175
     0
176
   256
177
   256
178
     2
270
     2
271
     3
272
     3
273
     2
274
     2
340
6B
275
     0
280
     0
281
     0
282
     0
283
     0
284
     0
285
     0
286
     0
287
     3
288
     0
  0
DIMSTYLE
105
5F
330
A
100
AcDbSymbolTableRecord
100
AcDbDimStyleTableRecord
  2
AM_JIS$3
 70
     0
  3

  4
"
  5
OPEN30
  6

  7

 40
0.5
 41
2.5
 42
1.0
 43
10.0
 44
1.0
 45
0.0
 46
0.0
 47
0.1
 48
0.1
140
3.2
141
0.0
142
0.0
143
0.0393701
144
1.0
145
0.0
146
0.71
147
1.5
 71
     0
 72
     0
 73
     0
 74
     1
 75
     0
 76
     0
 77
     3
 78
     8
170
     0
171
     2
172
     0
173
     0
174
     0
175
     0
176
   256
177
   256
178
     2
270
     2
271
     2
272
     3
273
     2
274
     2
340
6B
275
     0
280
     0
281
     0
282
     0
283
     0
284
     0
285
     0
286
     0
287
     0
288
     1
  0
DIMSTYLE
105
60
330
A
100
AcDbSymbolTableRecord
100
AcDbDimStyleTableRecord
  2
AM_JIS$4
 70
     0
  3

  4
"
  5
OPEN30
  6

  7

 40
0.5
 41
2.5
 42
1.0
 43
10.0
 44
1.0
 45
0.0
 46
0.0
 47
0.1
 48
0.1
140
3.2
141
0.0
142
0.0
143
0.0393701
144
1.0
145
0.0
146
0.71
147
1.5
 71
     0
 72
     0
 73
     0
 74
     1
 75
     0
 76
     0
 77
     3
 78
     8
170
     0
171
     2
172
     0
173
     0
174
     0
175
     0
176
   256
177
   256
178
     2
270
     2
271
     2
272
     3
273
     2
274
     2
340
6B
275
     0
280
     0
281
     0
282
     0
283
     0
284
     0
285
     0
286
     0
287
     0
288
     1
  0
DIMSTYLE
105
61
330
A
100
AcDbSymbolTableRecord
100
AcDbDimStyleTableRecord
  2
AM_JIS$6
 70
     0
  3

  4
"
  5
OPEN30
  6

  7

 40
0.5
 41
2.5
 42
1.0
 43
10.0
 44
1.0
 45
0.0
 46
0.0
 47
0.1
 48
0.1
140
3.2
141
0.0
142
0.0
143
0.0393701
144
1.0
145
0.0
146
0.71
147
1.5
 71
     0
 72
     0
 73
     0
 74
     0
 75
     0
 76
     0
 77
     0
 78
     8
170
     0
171
     2
172
     1
173
     0
174
     0
175
     0
176
   256
177
   256
178
     2
270
     2
271
     2
272
     2
273
     2
274
     2
340
6B
275
     0
280
     0
281
     0
282
     0
283
     0
284
     0
285
     0
286
     0
287
     3
288
     0
  0
DIMSTYLE
105
62
330
A
100
AcDbSymbolTableRecord
100
AcDbDimStyleTableRecord
  2
AM_JIS$7
 70
     0
  3

  4
"
  5
OPEN30
  6

  7

 40
0.5
 41
2.5
 42
1.0
 43
10.0
 44
1.0
 45
0.0
 46
0.0
 47
0.1
 48
0.1
140
3.2
141
0.0
142
0.0
143
0.0393701
144
1.0
145
0.0
146
0.71
147
1.5
 71
     0
 72
     0
 73
     0
 74
     0
 75
     0
 76
     0
 77
     3
 78
     8
170
     0
171
     2
172
     1
173
     0
174
     0
175
     0
176
   256
177
   256
178
     2
270
     2
271
     2
272
     3
273
     2
274
     2
340
6B
275
     0
280
     0
281
     0
282
     0
283
     0
284
     0
285
     0
286
     0
287
     3
288
     0
  0
DIMSTYLE
105
63
330
A
100
AcDbSymbolTableRecord
100
AcDbDimStyleTableRecord
  2
AM_JIS$SF
 70
     0
  3

  4
"
  5
OPEN30
  6

  7

 40
0.5
 41
2.5
 42
1.0
 43
10.0
 44
1.0
 45
0.0
 46
0.0
 47
0.1
 48
0.1
140
3.2
141
0.0
142
0.0
143
0.0393701
144
1.0
145
0.0
146
0.71
147
1.5
 71
     0
 72
     0
 73
     0
 74
     0
 75
     1
 76
     1
 77
     3
 78
     8
170
     0
171
     2
172
     1
173
     0
174
     0
175
     0
176
   256
177
   256
178
     2
270
     2
271
     2
272
     2
273
     2
274
     2
340
6B
275
     0
280
     0
281
     0
282
     0
283
     0
284
     0
285
     0
286
     0
287
     3
288
     0
  0
DIMSTYLE
105
68
330
A
100
AcDbSymbolTableRecord
100
AcDbDimStyleTableRecord
  2
AM_JIS$SH
 70
     0
  3

  4
"
  5

  6
GENAXEH
  7
OPEN30
 40
0.5
 41
2.5
 42
1.0
 43
10.0
 44
1.0
 45
0.0
 46
0.0
 47
0.1
 48
0.1
140
3.2
141
0.0
142
0.0
143
0.0393701
144
2.0
145
0.0
146
0.71
147
1.5
 71
     0
 72
     0
 73
     0
 74
     0
 75
     1
 76
     1
 77
     3
 78
     8
170
     0
171
     2
172
     1
173
     1
174
     0
175
     0
176
   256
177
   256
178
     2
270
     2
271
     2
272
     2
273
     2
274
     2
340
6B
275
     0
280
     0
281
     0
282
     0
283
     0
284
     0
285
     0
286
     0
287
     3
288
     0
  0
DIMSTYLE
105
B34
330
A
100
AcDbSymbolTableRecord
100
AcDbDimStyleTableRecord
  2
AM_JIS$2
 70
     0
  3

  4
"
  5
OPEN30
  6

  7

 40
0.5
 41
2.5
 42
1.0
 43
12.0
 44
1.0
 45
0.0
 46
0.0
 47
0.1
 48
0.1
140
3.2
141
0.0
142
0.0
143
0.0393701
144
1.0
145
0.0
146
0.71
147
1.5
 71
     0
 72
     0
 73
     0
 74
     0
 75
     0
 76
     0
 77
     3
 78
     8
170
     0
171
     2
172
     1
173
     0
174
     0
175
     0
176
   256
177
   256
178
     2
270
     2
271
     3
272
     3
273
     2
274
     2
340
6B
275
     0
280
     0
281
     0
282
     0
283
     0
284
     0
285
     0
286
     0
287
     3
288
     0
  0
DIMSTYLE
105
3B48
102
{ACAD_REACTORS
330
F4CE
330
F574
330
F612
330
F6AB
330
F744
330
F877
330
F926
330
F9BB
102
}
330
A
100
AcDbSymbolTableRecord
100
AcDbDimStyleTableRecord
  2
AM_JIS$0
 70
     0
  3

  4
"
  5
OPEN30
  6

  7

 40
1.0
 41
2.5
 42
0.0
 43
10.0
 44
1.0
 45
0.0
 46
0.0
 47
0.1
 48
0.1000000001
140
3.799999999999999
141
0.0
142
0.0
143
0.0393701
144
1.0
145
0.0
146
0.71
147
1.5
 71
     0
 72
     0
 73
     0
 74
     0
 75
     0
 76
     0
 77
     3
 78
     1
170
     0
171
     2
172
     1
173
     0
174
     0
175
     0
176
     3
177
     3
178
     2
270
     2
271
     2
272
     2
273
     2
274
     2
340
11
275
     1
280
     0
281
     0
282
     0
283
     0
284
     8
285
     0
286
     0
287
     0
288
     0
  0
ENDTAB
  0
TABLE
  2
BLOCK_RECORD
  5
1
330
0
100
AcDbSymbolTable
 70
    13
  0
BLOCK_RECORD
  5
1F
102
{ACAD_XDICTIONARY
360
74
102
}
330
1
100
AcDbSymbolTableRecord
100
AcDbBlockTableRecord
  2
*MODEL_SPACE
  0
BLOCK_RECORD
  5
101
102
{ACAD_XDICTIONARY
360
FD38
102
}
330
1
100
AcDbSymbolTableRecord
100
AcDbBlockTableRecord
  2
*PAPER_SPACE
  0
BLOCK_RECORD
  5
59
330
1
100
AcDbSymbolTableRecord
100
AcDbBlockTableRecord
  2
_OPEN30
  0
BLOCK_RECORD
  5
64
330
1
100
AcDbSymbolTableRecord
100
AcDbBlockTableRecord
  2
GENAXEH
  0
BLOCK_RECORD
  5
F4CF
330
1
100
AcDbSymbolTableRecord
100
AcDbBlockTableRecord
  2
*D5
  0
BLOCK_RECORD
  5
F575
330
1
100
AcDbSymbolTableRecord
100
AcDbBlockTableRecord
  2
*D6
  0
BLOCK_RECORD
  5
F613
330
1
100
AcDbSymbolTableRecord
100
AcDbBlockTableRecord
  2
*D7
  0
BLOCK_RECORD
  5
F6AC
330
1
100
AcDbSymbolTableRecord
100
AcDbBlockTableRecord
  2
*D8
  0
BLOCK_RECORD
  5
F745
330
1
100
AcDbSymbolTableRecord
100
AcDbBlockTableRecord
  2
*D9
  0
BLOCK_RECORD
  5
F878
330
1
100
AcDbSymbolTableRecord
100
AcDbBlockTableRecord
  2
*D10
  0
BLOCK_RECORD
  5
F927
330
1
100
AcDbSymbolTableRecord
100
AcDbBlockTableRecord
  2
*D11
  0
BLOCK_RECORD
  5
F9BC
330
1
100
AcDbSymbolTableRecord
100
AcDbBlockTableRecord
  2
*D12
  0
ENDTAB
  0
ENDSEC
  0
SECTION
  2
BLOCKS
  0
BLOCK
  5
20
330
1F
100
AcDbEntity
  8
0
100
AcDbBlockBegin
  2
*MODEL_SPACE
 70
     0
 10
0.0
 20
0.0
 30
0.0
  3
*MODEL_SPACE
  1

  0
ENDBLK
  5
21
330
1F
100
AcDbEntity
  8
0
100
AcDbBlockEnd
  0
BLOCK
  5
103
330
101
100
AcDbEntity
 67
     1
  8
0
100
AcDbBlockBegin
  2
*PAPER_SPACE
 70
     0
 10
0.0
 20
0.0
 30
0.0
  3
*PAPER_SPACE
  1

  0
ENDBLK
  5
104
330
101
100
AcDbEntity
 67
     1
  8
0
100
AcDbBlockEnd
  0
BLOCK
  5
5D
330
59
100
AcDbEntity
  8
0
100
AcDbBlockBegin
  2
_OPEN30
 70
     0
 10
0.0
 20
0.0
 30
0.0
  3
_OPEN30
  1

  0
LINE
  5
5A
330
59
100
AcDbEntity
  8
0
 62
     0
100
AcDbLine
 10
-1.0
 20
0.26794919
 30
0.0
 11
0.0
 21
0.0
 31
0.0
  0
LINE
  5
5B
330
59
100
AcDbEntity
  8
0
 62
     0
100
AcDbLine
 10
0.0
 20
0.0
 30
0.0
 11
-1.0
 21
-0.26794919
 31
0.0
  0
LINE
  5
5C
330
59
100
AcDbEntity
  8
0
 62
     0
100
AcDbLine
 10
0.0
 20
0.0
 30
0.0
 11
-1.0
 21
0.0
 31
0.0
  0
ENDBLK
  5
5E
330
59
100
AcDbEntity
  8
0
100
AcDbBlockEnd
  0
BLOCK
  5
66
330
64
100
AcDbEntity
  8
0
100
AcDbBlockBegin
  2
GENAXEH
 70
     0
 10
0.0
 20
0.0
 30
0.0
  3
GENAXEH
  1

  0
LINE
  5
65
330
64
100
AcDbEntity
  8
0
100
AcDbLine
 10
-1.0
 20
0.0
 30
0.0
 11
1.0
 21
0.0
 31
0.0
  0
ENDBLK
  5
67
330
64
100
AcDbEntity
  8
0
100
AcDbBlockEnd
  0
BLOCK
  5
F4D9
330
F4CF
100
AcDbEntity
  8
0
100
AcDbBlockBegin
  2
*D5
 70
     1
 10
0.0
 20
0.0
 30
0.0
  3
*D5
  1

  0
LINE
  5
FD3A
330
F4CF
100
AcDbEntity
  8
AM_5
100
AcDbLine
 10
-6.000000000000428
 20
40.50000000000013
 30
0.0
 11
-6.000000000000429
 21
47.50000000000014
 31
0.0
  0
LINE
  5
FD3B
330
F4CF
100
AcDbEntity
  8
AM_5
100
AcDbLine
 10
-0.0000000000004362
 20
40.50000000000014
 30
0.0
 11
-0.0000000000004375
 21
47.50000000000014
 31
0.0
  0
LINE
  5
FD3C
330
F4CF
100
AcDbEntity
  8
AM_5
100
AcDbLine
 10
-4.75000000000043
 20
47.00000000000014
 30
0.0
 11
-1.250000000000437
 21
47.00000000000014
 31
0.0
  0
INSERT
  5
FD3D
330
F4CF
100
AcDbEntity
  8
AM_5
100
AcDbBlockReference
  2
_OPEN30
 10
-6.00000000000043
 20
47.00000000000014
 30
0.0
 41
1.25
 42
1.25
 43
1.25
 50
180.0
  0
INSERT
  5
FD3E
330
F4CF
100
AcDbEntity
  8
AM_5
100
AcDbBlockReference
  2
_OPEN30
 10
-0.0000000000004374
 20
47.00000000000014
 30
0.0
 41
1.25
 42
1.25
 43
1.25
  0
MTEXT
  5
FD3F
330
F4CF
100
AcDbEntity
  8
AM_5
 62
     2
100
AcDbMText
 10
-3.000000000000434
 20
48.55000000000014
 30
0.0
 40
1.6
 41
0.0
 71
     5
 72
     1
  1
6
  7
ASAMI
  0
POINT
  5
FD40
330
F4CF
100
AcDbEntity
  8
DEFPOINTS
 62
     0
100
AcDbPoint
 10
-6.000000000000348
 20
40.00000000000014
 30
0.0
  0
POINT
  5
FD41
330
F4CF
100
AcDbEntity
  8
DEFPOINTS
 62
     0
100
AcDbPoint
 10
-0.0000000000003553
 20
40.00000000000014
 30
0.0
  0
POINT
  5
FD42
330
F4CF
100
AcDbEntity
  8
DEFPOINTS
 62
     0
100
AcDbPoint
 10
-0.0000000000003424
 20
47.00000000000014
 30
0.0
  0
ENDBLK
  5
F4DA
330
F4CF
100
AcDbEntity
  8
0
100
AcDbBlockEnd
  0
BLOCK
  5
F57F
330
F575
100
AcDbEntity
  8
0
100
AcDbBlockBegin
  2
*D6
 70
     1
 10
0.0
 20
0.0
 30
0.0
  3
*D6
  1

  0
LINE
  5
FD43
330
F575
100
AcDbEntity
  8
AM_5
100
AcDbLine
 10
0.4999999999995631
 20
40.00000000000016
 30
0.0
 11
12.49999999999965
 21
40.0000000000002
 31
0.0
  0
LINE
  5
FD44
330
F575
100
AcDbEntity
  8
AM_5
100
AcDbLine
 10
0.4999999999999041
 20
-39.99999999999983
 30
0.0
 11
12.49999999999981
 21
-39.9999999999998
 31
0.0
  0
LINE
  5
FD45
330
F575
100
AcDbEntity
  8
AM_5
100
AcDbLine
 10
11.99999999999965
 20
38.75000000000019
 30
0.0
 11
11.99999999999981
 21
-38.7499999999998
 31
0.0
  0
INSERT
  5
FD46
330
F575
100
AcDbEntity
  8
AM_5
100
AcDbBlockReference
  2
_OPEN30
 10
11.99999999999965
 20
40.00000000000019
 30
0.0
 41
1.25
 42
1.25
 43
1.25
 50
90.0000000000001
  0
INSERT
  5
FD47
330
F575
100
AcDbEntity
  8
AM_5
100
AcDbBlockReference
  2
_OPEN30
 10
11.99999999999981
 20
-39.9999999999998
 30
0.0
 41
1.25
 42
1.25
 43
1.25
 50
270.0000000000001
  0
MTEXT
  5
FD48
330
F575
100
AcDbEntity
  8
AM_5
 62
     2
100
AcDbMText
 10
10.44999999999973
 20
0.0000000000001911
 30
0.0
 40
1.6
 41
0.0
 71
     5
 72
     1
  1
%%c80
  7
ASAMI
 11
-0.000000000000002
 21
1.0
 31
0.0
  0
POINT
  5
FD49
330
F575
100
AcDbEntity
  8
DEFPOINTS
 62
     0
100
AcDbPoint
 10
-0.0000000000003482
 20
40.00000000000016
 30
0.0
  0
POINT
  5
FD4A
330
F575
100
AcDbEntity
  8
DEFPOINTS
 62
     0
100
AcDbPoint
 10
-0.0000000000001847
 20
-39.99999999999983
 30
0.0
  0
POINT
  5
FD4B
330
F575
100
AcDbEntity
  8
DEFPOINTS
 62
     0
100
AcDbPoint
 10
11.99999999999972
 20
-39.99999999999983
 30
0.0
  0
ENDBLK
  5
F580
330
F575
100
AcDbEntity
  8
0
100
AcDbBlockEnd
  0
BLOCK
  5
F61D
330
F613
100
AcDbEntity
  8
0
100
AcDbBlockBegin
  2
*D7
 70
     1
 10
0.0
 20
0.0
 30
0.0
  3
*D7
  1

  0
LINE
  5
FD4C
330
F613
100
AcDbEntity
  8
AM_5
100
AcDbLine
 10
-18.50003051758031
 20
6.500000000000071
 30
0.0
 11
7.499999999999716
 21
6.500000000000122
 31
0.0
  0
LINE
  5
FD4D
330
F613
100
AcDbEntity
  8
AM_5
100
AcDbLine
 10
-18.50003051758025
 20
-6.499999999999899
 30
0.0
 11
7.499999999999743
 21
-6.499999999999849
 31
0.0
  0
LINE
  5
FD4E
330
F613
100
AcDbEntity
  8
AM_5
100
AcDbLine
 10
6.999999999999717
 20
5.250000000000121
 30
0.0
 11
6.999999999999738
 21
-5.249999999999849
 31
0.0
  0
INSERT
  5
FD4F
330
F613
100
AcDbEntity
  8
AM_5
100
AcDbBlockReference
  2
_OPEN30
 10
6.999999999999714
 20
6.500000000000121
 30
0.0
 41
1.25
 42
1.25
 43
1.25
 50
90.0000000000001
  0
INSERT
  5
FD50
330
F613
100
AcDbEntity
  8
AM_5
100
AcDbBlockReference
  2
_OPEN30
 10
6.999999999999741
 20
-6.499999999999849
 30
0.0
 41
1.25
 42
1.25
 43
1.25
 50
270.0000000000001
  0
MTEXT
  5
FD51
330
F613
100
AcDbEntity
  8
AM_5
 62
     2
100
AcDbMText
 10
5.449999999999727
 20
0.0000000000001325
 30
0.0
 40
1.6
 41
0.0
 71
     5
 72
     1
  1
%%c13
  7
ASAMI
 11
-0.000000000000002
 21
1.0
 31
0.0
  0
POINT
  5
FD52
330
F613
100
AcDbEntity
  8
DEFPOINTS
 62
     0
100
AcDbPoint
 10
-19.00003051758029
 20
6.500000000000113
 30
0.0
  0
POINT
  5
FD53
330
F613
100
AcDbEntity
  8
DEFPOINTS
 62
     0
100
AcDbPoint
 10
-19.00003051758027
 20
-6.499999999999857
 30
0.0
  0
POINT
  5
FD54
330
F613
100
AcDbEntity
  8
DEFPOINTS
 62
     0
100
AcDbPoint
 10
6.999999999999726
 20
-6.499999999999865
 30
0.0
  0
ENDBLK
  5
F61E
330
F613
100
AcDbEntity
  8
0
100
AcDbBlockEnd
  0
BLOCK
  5
F6B6
330
F6AC
100
AcDbEntity
  8
0
100
AcDbBlockBegin
  2
*D8
 70
     1
 10
0.0
 20
0.0
 30
0.0
  3
*D8
  1

  0
LINE
  5
FD55
330
F6AC
100
AcDbEntity
  8
AM_5
100
AcDbLine
 10
-49.5000305175803
 20
4.749999999999947
 30
0.0
 11
-60.78569344660106
 21
4.749999999999925
 31
0.0
  0
LINE
  5
FD56
330
F6AC
100
AcDbEntity
  8
AM_5
100
AcDbLine
 10
-49.50003051758026
 20
-4.750000000000052
 30
0.0
 11
-60.78569344660105
 21
-4.750000000000074
 31
0.0
  0
LINE
  5
FD57
330
F6AC
100
AcDbEntity
  8
AM_5
100
AcDbLine
 10
-60.28569344660106
 20
3.499999999999926
 30
0.0
 11
-60.28569344660105
 21
-3.500000000000073
 31
0.0
  0
INSERT
  5
FD58
330
F6AC
100
AcDbEntity
  8
AM_5
100
AcDbBlockReference
  2
_OPEN30
 10
-60.28569344660106
 20
4.749999999999926
 30
0.0
 41
1.25
 42
1.25
 43
1.25
 50
90.0000000000001
  0
INSERT
  5
FD59
330
F6AC
100
AcDbEntity
  8
AM_5
100
AcDbBlockReference
  2
_OPEN30
 10
-60.28569344660105
 20
-4.750000000000073
 30
0.0
 41
1.25
 42
1.25
 43
1.25
 50
270.0000000000001
  0
MTEXT
  5
FD5A
330
F6AC
100
AcDbEntity
  8
AM_5
 62
     2
100
AcDbMText
 10
-61.83569344660106
 20
-0.000000000000074
 30
0.0
 40
1.6
 41
0.0
 71
     5
 72
     1
  1
9.5
  7
ASAMI
 11
-0.000000000000002
 21
1.0
 31
0.0
  0
POINT
  5
FD5B
330
F6AC
100
AcDbEntity
  8
DEFPOINTS
 62
     0
100
AcDbPoint
 10
-49.00003051758029
 20
4.750000000000056
 30
0.0
  0
POINT
  5
FD5C
330
F6AC
100
AcDbEntity
  8
DEFPOINTS
 62
     0
100
AcDbPoint
 10
-49.00003051758027
 20
-4.749999999999943
 30
0.0
  0
POINT
  5
FD5D
330
F6AC
100
AcDbEntity
  8
DEFPOINTS
 62
     0
100
AcDbPoint
 10
-60.28569344660105
 20
-4.749999999999939
 30
0.0
  0
ENDBLK
  5
F6B7
330
F6AC
100
AcDbEntity
  8
0
100
AcDbBlockEnd
  0
BLOCK
  5
F74F
330
F745
100
AcDbEntity
  8
0
100
AcDbBlockBegin
  2
*D9
 70
     1
 10
0.0
 20
0.0
 30
0.0
  3
*D9
  1

  0
LINE
  5
FD5E
330
F745
100
AcDbEntity
  8
AM_5
100
AcDbLine
 10
-49.50003051758034
 20
12.69999694823994
 30
0.0
 11
-65.77690436026164
 21
12.69999694823991
 31
0.0
  0
LINE
  5
FD5F
330
F745
100
AcDbEntity
  8
AM_5
100
AcDbLine
 10
-49.50003051758022
 20
-12.69998931884006
 30
0.0
 11
-65.77690436026158
 21
-12.69998931884009
 31
0.0
  0
LINE
  5
FD60
330
F745
100
AcDbEntity
  8
AM_5
100
AcDbLine
 10
-65.27690436026164
 20
11.44999694823991
 30
0.0
 11
-65.27690436026158
 21
-11.44998931884009
 31
0.0
  0
INSERT
  5
FD61
330
F745
100
AcDbEntity
  8
AM_5
100
AcDbBlockReference
  2
_OPEN30
 10
-65.27690436026164
 20
12.69999694823991
 30
0.0
 41
1.25
 42
1.25
 43
1.25
 50
90.0000000000001
  0
INSERT
  5
FD62
330
F745
100
AcDbEntity
  8
AM_5
100
AcDbBlockReference
  2
_OPEN30
 10
-65.27690436026158
 20
-12.69998931884009
 30
0.0
 41
1.25
 42
1.25
 43
1.25
 50
270.0000000000001
  0
MTEXT
  5
FD63
330
F745
100
AcDbEntity
  8
AM_5
 62
     2
100
AcDbMText
 10
-66.8269043602616
 20
0.0000038146999112
 30
0.0
 40
1.6
 41
0.0
 71
     5
 72
     1
  1
%%c25.4
  7
ASAMI
 11
-0.000000000000002
 21
1.0
 31
0.0
  0
POINT
  5
FD64
330
F745
100
AcDbEntity
  8
DEFPOINTS
 62
     0
100
AcDbPoint
 10
-49.0000305175803
 20
12.69999694824005
 30
0.0
  0
POINT
  5
FD65
330
F745
100
AcDbEntity
  8
DEFPOINTS
 62
     0
100
AcDbPoint
 10
-49.00003051758025
 20
-12.69998931883995
 30
0.0
  0
POINT
  5
FD66
330
F745
100
AcDbEntity
  8
DEFPOINTS
 62
     0
100
AcDbPoint
 10
-65.27690436026161
 20
-12.69998931883995
 30
0.0
  0
ENDBLK
  5
F750
330
F745
100
AcDbEntity
  8
0
100
AcDbBlockEnd
  0
BLOCK
  5
F882
330
F878
100
AcDbEntity
  8
0
100
AcDbBlockBegin
  2
*D10
 70
     1
 10
0.0
 20
0.0
 30
0.0
  3
*D10
  1

  0
LINE
  5
FD67
330
F878
100
AcDbEntity
  8
AM_5
100
AcDbLine
 10
-50.00000000000015
 20
-26.62450408935005
 30
0.0
 11
-50.00000000000013
 21
-41.80194157205472
 31
0.0
  0
LINE
  5
FD68
330
F878
100
AcDbEntity
  8
AM_5
100
AcDbLine
 10
-44.00000000000026
 20
-5.249999999999975
 30
0.0
 11
-44.00000000000019
 21
-41.80194157205472
 31
0.0
  0
LINE
  5
FD69
330
F878
100
AcDbEntity
  8
AM_5
100
AcDbLine
 10
-48.75000000000013
 20
-41.30194157205473
 30
0.0
 11
-45.25000000000019
 21
-41.30194157205472
 31
0.0
  0
INSERT
  5
FD6A
330
F878
100
AcDbEntity
  8
AM_5
100
AcDbBlockReference
  2
_OPEN30
 10
-50.00000000000013
 20
-41.30194157205473
 30
0.0
 41
1.25
 42
1.25
 43
1.25
 50
180.0000000000001
  0
INSERT
  5
FD6B
330
F878
100
AcDbEntity
  8
AM_5
100
AcDbBlockReference
  2
_OPEN30
 10
-44.00000000000019
 20
-41.30194157205472
 30
0.0
 41
1.25
 42
1.25
 43
1.25
 50
0.0000000000001018
  0
MTEXT
  5
FD6C
330
F878
100
AcDbEntity
  8
AM_5
 62
     2
100
AcDbMText
 10
-47.00000000000016
 20
-39.75194157205472
 30
0.0
 40
1.6
 41
0.0
 71
     5
 72
     1
  1
6
  7
ASAMI
  0
POINT
  5
FD6D
330
F878
100
AcDbEntity
  8
DEFPOINTS
 62
     0
100
AcDbPoint
 10
-50.00000000000021
 20
-26.12450408934995
 30
0.0
  0
POINT
  5
FD6E
330
F878
100
AcDbEntity
  8
DEFPOINTS
 62
     0
100
AcDbPoint
 10
-44.00000000000027
 20
-4.749999999999886
 30
0.0
  0
POINT
  5
FD6F
330
F878
100
AcDbEntity
  8
DEFPOINTS
 62
     0
100
AcDbPoint
 10
-44.00000000000027
 20
-41.30194157205463
 30
0.0
  0
ENDBLK
  5
F883
330
F878
100
AcDbEntity
  8
0
100
AcDbBlockEnd
  0
BLOCK
  5
F931
330
F927
100
AcDbEntity
  8
0
100
AcDbBlockBegin
  2
*D11
 70
     1
 10
0.0
 20
0.0
 30
0.0
  3
*D11
  1

  0
LINE
  5
FD70
330
F927
100
AcDbEntity
  8
AM_5
100
AcDbLine
 10
-50.00000000000015
 20
-26.62450408935005
 30
0.0
 11
-50.00000000000012
 21
-46.67132009809694
 31
0.0
  0
LINE
  5
FD71
330
F927
100
AcDbEntity
  8
AM_5
100
AcDbLine
 10
-25.00003051758022
 20
-13.65000152586991
 30
0.0
 11
-25.00003051758016
 21
-46.67132009809689
 31
0.0
  0
LINE
  5
FD72
330
F927
100
AcDbEntity
  8
AM_5
100
AcDbLine
 10
-48.75000000000012
 20
-46.17132009809694
 30
0.0
 11
-26.25003051758016
 21
-46.17132009809689
 31
0.0
  0
INSERT
  5
FD73
330
F927
100
AcDbEntity
  8
AM_5
100
AcDbBlockReference
  2
_OPEN30
 10
-50.00000000000012
 20
-46.17132009809694
 30
0.0
 41
1.25
 42
1.25
 43
1.25
 50
180.0000000000001
  0
INSERT
  5
FD74
330
F927
100
AcDbEntity
  8
AM_5
100
AcDbBlockReference
  2
_OPEN30
 10
-25.00003051758016
 20
-46.17132009809689
 30
0.0
 41
1.25
 42
1.25
 43
1.25
 50
0.0000000000001018
  0
MTEXT
  5
FD75
330
F927
100
AcDbEntity
  8
AM_5
 62
     2
100
AcDbMText
 10
-37.50001525879014
 20
-44.62132009809692
 30
0.0
 40
1.6
 41
0.0
 71
     5
 72
     1
  1
25
  7
ASAMI
  0
POINT
  5
FD76
330
F927
100
AcDbEntity
  8
DEFPOINTS
 62
     0
100
AcDbPoint
 10
-50.00000000000021
 20
-26.12450408934995
 30
0.0
  0
POINT
  5
FD77
330
F927
100
AcDbEntity
  8
DEFPOINTS
 62
     0
100
AcDbPoint
 10
-25.00003051758024
 20
-13.15000152586986
 30
0.0
  0
POINT
  5
FD78
330
F927
100
AcDbEntity
  8
DEFPOINTS
 62
     0
100
AcDbPoint
 10
-25.00003051758025
 20
-46.17132009809684
 30
0.0
  0
ENDBLK
  5
F932
330
F927
100
AcDbEntity
  8
0
100
AcDbBlockEnd
  0
BLOCK
  5
F9C6
330
F9BC
100
AcDbEntity
  8
0
100
AcDbBlockBegin
  2
*D12
 70
     1
 10
0.0
 20
0.0
 30
0.0
  3
*D12
  1

  0
LINE
  5
FD79
330
F9BC
100
AcDbEntity
  8
AM_5
100
AcDbLine
 10
-50.00000615496197
 20
-26.62450727272151
 30
0.0
 11
-50.00000615496191
 21
-51.7435900144881
 31
0.0
  0
LINE
  5
FD7A
330
F9BC
100
AcDbEntity
  8
AM_5
100
AcDbLine
 10
-0.00000000000011
 20
-40.49999999999985
 30
0.0
 11
-0.000000000000088
 21
-51.74359001448801
 31
0.0
  0
LINE
  5
FD7B
330
F9BC
100
AcDbEntity
  8
AM_5
100
AcDbLine
 10
-48.75000615496191
 20
-51.2435900144881
 30
0.0
 11
-1.250000000000089
 21
-51.24359001448801
 31
0.0
  0
INSERT
  5
FD7C
330
F9BC
100
AcDbEntity
  8
AM_5
100
AcDbBlockReference
  2
_OPEN30
 10
-50.00000615496191
 20
-51.2435900144881
 30
0.0
 41
1.25
 42
1.25
 43
1.25
 50
180.0000000000001
  0
INSERT
  5
FD7D
330
F9BC
100
AcDbEntity
  8
AM_5
100
AcDbBlockReference
  2
_OPEN30
 10
-0.000000000000089
 20
-51.24359001448801
 30
0.0
 41
1.25
 42
1.25
 43
1.25
 50
0.0000000000001018
  0
MTEXT
  5
FD7E
330
F9BC
100
AcDbEntity
  8
AM_5
 62
     2
100
AcDbMText
 10
-25.000003077481
 20
-49.69359001448806
 30
0.0
 40
1.6
 41
0.0
 71
     5
 72
     1
  1
50
  7
ASAMI
  0
POINT
  5
FD7F
330
F9BC
100
AcDbEntity
  8
DEFPOINTS
 62
     0
100
AcDbPoint
 10
-50.00000615496202
 20
-26.12450727272142
 30
0.0
  0
POINT
  5
FD80
330
F9BC
100
AcDbEntity
  8
DEFPOINTS
 62
     0
100
AcDbPoint
 10
-0.0000000000001918
 20
-39.99999999999985
 30
0.0
  0
POINT
  5
FD81
330
F9BC
100
AcDbEntity
  8
DEFPOINTS
 62
     0
100
AcDbPoint
 10
-0.0000000000001925
 20
-51.24359001448801
 30
0.0
  0
ENDBLK
  5
F9C7
330
F9BC
100
AcDbEntity
  8
0
100
AcDbBlockEnd
  0
ENDSEC
  0
SECTION
  2
ENTITIES
  0
TEXT
  5
388D
330
1F
100
AcDbEntity
  8
AM_6
100
AcDbText
 10
-36.3626831196804
 20
-61.95749174201038
 30
0.0
 40
2.5
  1
WRCF12080R
 50
359.9999999999998
 51
359.9999999999998
 72
     4
 11
-24.81506407206135
 21
-60.7074917420104
 31
0.0
100
AcDbText
  0
CIRCLE
  5
F009
330
1F
100
AcDbEntity
  8
AM_0
100
AcDbCircle
 10
-6.000000000000341
 20
33.85001373291015
 30
0.0
 40
3.200000047683699
  0
CIRCLE
  5
F00A
330
1F
100
AcDbEntity
  8
AM_0
100
AcDbCircle
 10
-6.000000000000341
 20
33.85001373291015
 30
0.0
 40
6.0
  0
LINE
  5
F00B
330
1F
100
AcDbEntity
  8
AM_0
100
AcDbLine
 10
-26.41421508789033
 20
28.08577728271012
 30
0.0
 11
-17.37869262696035
 21
37.12131500244012
 31
0.0
  0
LINE
  5
F02C
330
1F
100
AcDbEntity
  8
AM_0
100
AcDbLine
 10
-2.000885009770343
 20
29.46854400634015
 30
0.0
 11
-2.000885009770286
 21
0.000000000000199
 31
0.0
  0
LINE
  5
F02D
330
1F
100
AcDbEntity
  8
AM_0
100
AcDbLine
 10
-28.00003051758028
 20
0.0000000000001421
 30
0.0
 11
-28.0000305175803
 21
13.15000152587009
 31
0.0
  0
LINE
  5
F02F
330
1F
100
AcDbEntity
  8
AM_0
100
AcDbLine
 10
-25.00003051758028
 20
0.0000000000001421
 30
0.0
 11
-25.0000305175803
 21
13.15000152587009
 31
0.0
  0
LINE
  5
F030
330
1F
100
AcDbEntity
  8
AM_0
100
AcDbLine
 10
-4.400756835940285
 20
0.0000000000001705
 30
0.0
 11
-4.400756835940342
 21
28.09564971923015
 31
0.0
  0
LINE
  5
F037
330
1F
100
AcDbEntity
  8
AM_0
100
AcDbLine
 10
-28.0000305175803
 20
13.15000152587009
 30
0.0
 11
-25.0000305175803
 21
13.15000152587009
 31
0.0
  0
LINE
  5
F038
330
1F
100
AcDbEntity
  8
AM_7
100
AcDbLine
 10
-51.31082153321028
 20
0.0000000000000568
 30
0.0
 11
2.991687289254954
 21
0.0000000000001705
 31
0.0
  0
LINE
  5
F039
330
1F
100
AcDbEntity
  8
AM_0
100
AcDbLine
 10
-50.00000000000029
 20
5.649993896480054
 30
0.0
 11
-50.00000000000033
 21
26.12450408935007
 31
0.0
  0
LINE
  5
F03A
330
1F
100
AcDbEntity
  8
AM_0
100
AcDbLine
 10
-49.0000305175803
 20
12.69998931884006
 30
0.0
 11
-50.00000000000031
 21
13.69997406005006
 31
0.0
  0
LINE
  5
F03B
330
1F
100
AcDbEntity
  8
AM_0
100
AcDbLine
 10
-49.0000305175803
 20
12.69999694824005
 30
0.0
 11
-28.0000305175803
 21
12.69999694824011
 31
0.0
  0
LINE
  5
F03C
330
1F
100
AcDbEntity
  8
AM_0
100
AcDbLine
 10
-44.00000000000027
 20
0.0000000000001137
 30
0.0
 11
-44.00000000000029
 21
4.750000000000056
 31
0.0
  0
LINE
  5
F03F
330
1F
100
AcDbEntity
  8
AM_0
100
AcDbLine
 10
-49.0000305175803
 20
12.69999694824005
 30
0.0
 11
-49.00003051758029
 21
4.750000000000056
 31
0.0
  0
LINE
  5
F040
330
1F
100
AcDbEntity
  8
AM_0
100
AcDbLine
 10
-49.10000610352029
 20
4.750000000000056
 30
0.0
 11
-44.00000000000029
 21
4.750000000000056
 31
0.0
  0
LINE
  5
F041
330
1F
100
AcDbEntity
  8
AM_0
100
AcDbLine
 10
-50.00000000000029
 20
5.649986267090071
 30
0.0
 11
-49.10000610352029
 21
4.750000000000056
 31
0.0
  0
LINE
  5
F042
330
1F
100
AcDbEntity
  8
AM_0
100
AcDbLine
 10
-48.10000610352034
 20
27.50000762939007
 30
0.0
 11
-27.82846069336033
 21
27.50000762939009
 31
0.0
  0
ARC
  5
F043
330
1F
100
AcDbEntity
  8
AM_0
100
AcDbCircle
 10
-48.10000610352034
 20
25.50000762939006
 30
0.0
 40
2.0
100
AcDbArc
 50
90.00000250447845
 51
161.8051323808487
  0
ARC
  5
F044
330
1F
100
AcDbEntity
  8
AM_0
100
AcDbCircle
 10
-27.82846069336034
 20
29.50000762939009
 30
0.0
 40
2.0
100
AcDbArc
 50
269.9999974955215
 51
314.9999782571945
  0
LINE
  5
F046
330
1F
100
AcDbEntity
  8
AM_0
100
AcDbLine
 10
-19.00003051758029
 20
10.00000000000011
 30
0.0
 11
-6.400756835940299
 21
10.00000000000014
 31
0.0
  0
LINE
  5
F047
330
1F
100
AcDbEntity
  8
AM_0
100
AcDbLine
 10
-19.00003051758027
 20
0.0000000000001137
 30
0.0
 11
-19.00003051758029
 21
10.00000000000011
 31
0.0
  0
LINE
  5
F049
330
1F
100
AcDbEntity
  8
AM_0
100
AcDbLine
 10
-25.00003051758029
 20
6.500000000000113
 30
0.0
 11
-19.00003051758029
 21
6.500000000000113
 31
0.0
  0
ARC
  5
F04A
330
1F
100
AcDbEntity
  8
AM_0
100
AcDbCircle
 10
-6.400756835940299
 20
12.00000000000014
 30
0.0
 40
2.0
100
AcDbArc
 50
269.9999974955215
 51
0.0
  0
LINE
  5
F06B
330
1F
100
AcDbEntity
  8
AM_0
100
AcDbLine
 10
-15.25738525391035
 20
38.00000762939012
 30
0.0
 11
-10.33331298828035
 21
38.00000762939015
 31
0.0
  0
ARC
  5
F06C
330
1F
100
AcDbEntity
  8
AM_0
100
AcDbCircle
 10
-15.25738525391035
 20
35.00000762939012
 30
0.0
 40
3.0
100
AcDbArc
 50
90.00000250447845
 51
135.0000140020029
  0
LINE
  5
F498
330
1F
100
AcDbEntity
  8
AM_0
100
AcDbLine
 10
-28.00003051758024
 20
-13.15000152586986
 30
0.0
 11
-25.00003051758024
 21
-13.15000152586986
 31
0.0
  0
LINE
  5
F499
330
1F
100
AcDbEntity
  8
AM_0
100
AcDbLine
 10
-26.4142150878902
 20
-28.08577728270989
 30
0.0
 11
-17.37869262696018
 21
-37.12131500243987
 31
0.0
  0
LINE
  5
F49A
330
1F
100
AcDbEntity
  8
AM_0
100
AcDbLine
 10
-50.00000000000026
 20
-5.649993896479941
 30
0.0
 11
-50.00000000000021
 21
-26.12450408934995
 31
0.0
  0
LINE
  5
F49B
330
1F
100
AcDbEntity
  8
AM_0
100
AcDbLine
 10
-49.00003051758025
 20
-12.69999694823994
 30
0.0
 11
-28.00003051758024
 21
-12.69999694823988
 31
0.0
  0
LINE
  5
F49C
330
1F
100
AcDbEntity
  8
AM_0
100
AcDbLine
 10
-49.00003051758025
 20
-12.69999694823994
 30
0.0
 11
-49.00003051758027
 21
-4.749999999999943
 31
0.0
  0
LINE
  5
F49D
330
1F
100
AcDbEntity
  8
AM_0
100
AcDbLine
 10
-50.00000000000026
 20
-5.649986267089957
 30
0.0
 11
-49.10000610352027
 21
-4.749999999999943
 31
0.0
  0
LINE
  5
F49E
330
1F
100
AcDbEntity
  8
AM_0
100
AcDbLine
 10
-49.10000610352027
 20
-4.749999999999943
 30
0.0
 11
-44.00000000000027
 21
-4.749999999999914
 31
0.0
  0
LINE
  5
F49F
330
1F
100
AcDbEntity
  8
AM_0
100
AcDbLine
 10
-44.00000000000027
 20
0.0000000000000284
 30
0.0
 11
-44.00000000000027
 21
-4.749999999999914
 31
0.0
  0
LINE
  5
F4A0
330
1F
100
AcDbEntity
  8
AM_0
100
AcDbLine
 10
-49.00003051758025
 20
-12.69998931883995
 30
0.0
 11
-50.00000000000024
 21
-13.69997406004995
 31
0.0
  0
LINE
  5
F4A1
330
1F
100
AcDbEntity
  8
AM_0
100
AcDbLine
 10
-28.00003051758028
 20
0.0000000000000853
 30
0.0
 11
-28.00003051758024
 21
-13.15000152586986
 31
0.0
  0
LINE
  5
F4A2
330
1F
100
AcDbEntity
  8
AM_0
100
AcDbLine
 10
-48.1000061035202
 20
-27.50000762938995
 30
0.0
 11
-27.8284606933602
 21
-27.50000762938987
 31
0.0
  0
ARC
  5
F4A3
330
1F
100
AcDbEntity
  8
AM_0
100
AcDbCircle
 10
-48.10000610352021
 20
-25.50000762938995
 30
0.0
 40
2.0
100
AcDbArc
 50
198.1948676191515
 51
269.9999974955218
  0
ARC
  5
F4A4
330
1F
100
AcDbEntity
  8
AM_0
100
AcDbCircle
 10
-27.8284606933602
 20
-29.50000762938987
 30
0.0
 40
2.0
100
AcDbArc
 50
45.00002174280576
 51
90.00000250447873
  0
LINE
  5
F4A5
330
1F
100
AcDbEntity
  8
AM_0
100
AcDbLine
 10
-2.000885009770208
 20
-29.46854400633981
 30
0.0
 11
-2.000885009770286
 21
0.0000000000001421
 31
0.0
  0
LINE
  5
F4A6
330
1F
100
AcDbEntity
  8
AM_0
100
AcDbLine
 10
-4.400756835940285
 20
0.0000000000001705
 30
0.0
 11
-4.400756835940214
 21
-28.09564971922981
 31
0.0
  0
LINE
  5
F4A7
330
1F
100
AcDbEntity
  8
AM_0
100
AcDbLine
 10
-19.00003051758025
 20
-9.999999999999857
 30
0.0
 11
-6.400756835940249
 21
-9.999999999999829
 31
0.0
  0
LINE
  5
F4A8
330
1F
100
AcDbEntity
  8
AM_0
100
AcDbLine
 10
-25.00003051758028
 20
0.0000000000000853
 30
0.0
 11
-25.00003051758024
 21
-13.15000152586986
 31
0.0
  0
LINE
  5
F4A9
330
1F
100
AcDbEntity
  8
AM_0
100
AcDbLine
 10
-19.00003051758027
 20
0.0000000000001421
 30
0.0
 11
-19.00003051758025
 21
-9.999999999999857
 31
0.0
  0
LINE
  5
F4AA
330
1F
100
AcDbEntity
  8
AM_0
100
AcDbLine
 10
-25.00003051758026
 20
-6.499999999999886
 30
0.0
 11
-19.00003051758026
 21
-6.499999999999857
 31
0.0
  0
ARC
  5
F4AB
330
1F
100
AcDbEntity
  8
AM_0
100
AcDbCircle
 10
-6.400756835940242
 20
-11.99999999999983
 30
0.0
 40
2.0
100
AcDbArc
 50
0.0000000000002665
 51
90.00000250447873
  0
CIRCLE
  5
F4AC
330
1F
100
AcDbEntity
  8
AM_0
100
AcDbCircle
 10
-6.000000000000184
 20
-33.85001373290984
 30
0.0
 40
6.0
  0
CIRCLE
  5
F4AD
330
1F
100
AcDbEntity
  8
AM_0
100
AcDbCircle
 10
-6.000000000000184
 20
-33.85001373290984
 30
0.0
 40
3.200000047683699
  0
ARC
  5
F4AE
330
1F
100
AcDbEntity
  8
AM_0
100
AcDbCircle
 10
-15.25738525391019
 20
-35.00000762938984
 30
0.0
 40
3.0
100
AcDbArc
 50
224.9999859979973
 51
269.9999974955218
  0
LINE
  5
F4AF
330
1F
100
AcDbEntity
  8
AM_0
100
AcDbLine
 10
-15.25738525391018
 20
-38.00000762938984
 30
0.0
 11
-10.33331298828017
 21
-38.00000762938984
 31
0.0
  0
LINE
  5
F4B1
330
1F
100
AcDbEntity
  8
AM_11
100
AcDbLine
 10
-0.0000000000003553
 20
40.00000000000016
 30
0.0
 11
-0.0000000000001918
 21
-39.99999999999983
 31
0.0
  0
LINE
  5
F4B9
330
1F
100
AcDbEntity
  8
AM_11
100
AcDbLine
 10
-6.000000000000355
 20
40.00000000000014
 30
0.0
 11
-6.000000000000191
 21
-39.99999999999985
 31
0.0
  0
LINE
  5
F4C1
330
1F
100
AcDbEntity
  8
AM_11
100
AcDbLine
 10
-6.000000000000348
 20
40.00000000000014
 30
0.0
 11
-0.0000000000003482
 21
40.00000000000016
 31
0.0
  0
LINE
  5
F4C5
330
1F
100
AcDbEntity
  8
AM_11
100
AcDbLine
 10
-6.000000000000191
 20
-39.99999999999985
 30
0.0
 11
-0.0000000000001847
 21
-39.99999999999983
 31
0.0
  0
DIMENSION
  5
F4CE
330
1F
100
AcDbEntity
  8
AM_5
100
AcDbDimension
  2
*D5
 10
-0.0000000000003424
 20
47.00000000000014
 30
0.0
 11
-3.000000000000336
 21
48.55000000000014
 31
0.0
 70
    32
  1
<>
 51
359.9999999999998
  3
AM_JIS$0
100
AcDbAlignedDimension
 13
-6.000000000000348
 23
40.00000000000014
 33
0.0
 14
-0.0000000000003553
 24
40.00000000000014
 34
0.0
 50
180.0
100
AcDbRotatedDimension
1001
GENIUS_GENDTOL_13
1000

1000
h7
1000

1040
0.0
1001
ACAD
1000
DSTYLE
1002
{
1070
   287
1070
     3
1070
    40
1040
0.5
1070
    42
1040
1.0
1070
    43
1040
12.0
1070
    48
1040
0.1
1070
    78
1070
     8
1070
   140
1040
3.2
1070
   176
1070
   256
1070
   177
1070
   256
1070
   271
1070
     0
1070
   272
1070
     3
1070
   275
1070
     0
1070
   284
1070
     0
1070
   289
1070
     3
1070
   340
1005
6B
1070
   371
1070
    -1
1070
   372
1070
    -1
1002
}
  0
DIMENSION
  5
F574
330
1F
100
AcDbEntity
  8
AM_5
100
AcDbDimension
  2
*D6
 10
11.99999999999972
 20
-39.99999999999983
 30
0.0
 11
10.44999999999973
 21
0.00000000000017
 31
0.0
 70
    32
  1
%%c<>
 51
359.9999999999998
  3
AM_JIS$0
100
AcDbAlignedDimension
 13
-0.0000000000003482
 23
40.00000000000016
 33
0.0
 14
-0.0000000000001847
 24
-39.99999999999983
 34
0.0
 50
90.0
100
AcDbRotatedDimension
1001
GENIUS_GENDTOL_13
1000

1000
h7
1000

1040
0.0
1001
ACAD
1000
DSTYLE
1002
{
1070
   287
1070
     3
1070
    40
1040
0.5
1070
    42
1040
1.0
1070
    43
1040
12.0
1070
    48
1040
0.1
1070
    78
1070
     8
1070
   140
1040
3.2
1070
   176
1070
   256
1070
   177
1070
   256
1070
   271
1070
     0
1070
   272
1070
     3
1070
   275
1070
     0
1070
   284
1070
     0
1070
   289
1070
     3
1070
   340
1005
6B
1070
   371
1070
    -1
1070
   372
1070
    -1
1002
}
  0
DIMENSION
  5
F612
330
1F
100
AcDbEntity
  8
AM_5
100
AcDbDimension
  2
*D7
 10
6.999999999999726
 20
-6.499999999999865
 30
0.0
 11
5.449999999999727
 21
0.0000000000001214
 31
0.0
 70
    32
  1
%%c<>
 51
359.9999999999998
  3
AM_JIS$0
100
AcDbAlignedDimension
 13
-19.00003051758029
 23
6.500000000000113
 33
0.0
 14
-19.00003051758027
 24
-6.499999999999857
 34
0.0
 50
90.0
100
AcDbRotatedDimension
1001
GENIUS_GENDTOL_13
1000

1000
h7
1000

1040
0.0
1001
ACAD
1000
DSTYLE
1002
{
1070
   287
1070
     3
1070
    40
1040
0.5
1070
    42
1040
1.0
1070
    43
1040
12.0
1070
    48
1040
0.1
1070
    78
1070
     8
1070
   140
1040
3.2
1070
   176
1070
   256
1070
   177
1070
   256
1070
   271
1070
     0
1070
   272
1070
     3
1070
   275
1070
     0
1070
   284
1070
     0
1070
   289
1070
     3
1070
   340
1005
6B
1070
   371
1070
    -1
1070
   372
1070
    -1
1002
}
  0
DIMENSION
  5
F6AB
330
1F
100
AcDbEntity
  8
AM_5
100
AcDbDimension
  2
*D8
 10
-60.28569344660105
 20
-4.749999999999939
 30
0.0
 11
-61.83569344660106
 21
0.000000000000051
 31
0.0
 70
    32
  1
<>
 51
359.9999999999998
  3
AM_JIS$0
100
AcDbAlignedDimension
 13
-49.00003051758029
 23
4.750000000000056
 33
0.0
 14
-49.00003051758027
 24
-4.749999999999943
 34
0.0
 50
270.0
100
AcDbRotatedDimension
1001
GENIUS_GENDTOL_13
1000

1000
h7
1000

1040
0.0
1001
ACAD
1000
DSTYLE
1002
{
1070
   287
1070
     3
1070
    40
1040
0.5
1070
    42
1040
1.0
1070
    43
1040
12.0
1070
    48
1040
0.1
1070
    78
1070
     8
1070
   140
1040
3.2
1070
   176
1070
   256
1070
   177
1070
   256
1070
   271
1070
     1
1070
   272
1070
     3
1070
   275
1070
     0
1070
   284
1070
     0
1070
   289
1070
     3
1070
   340
1005
6B
1070
   371
1070
    -1
1070
   372
1070
    -1
1002
}
  0
DIMENSION
  5
F744
330
1F
100
AcDbEntity
  8
AM_5
100
AcDbDimension
  2
*D9
 10
-65.27690436026161
 20
-12.69998931883995
 30
0.0
 11
-66.8269043602616
 21
0.0000038147000463
 31
0.0
 70
    32
  1
%%c<>
 51
359.9999999999998
  3
AM_JIS$0
100
AcDbAlignedDimension
 13
-49.0000305175803
 23
12.69999694824005
 33
0.0
 14
-49.00003051758025
 24
-12.69998931883995
 34
0.0
 50
270.0
100
AcDbRotatedDimension
1001
GENIUS_GENDTOL_13
1000

1000
h7
1000

1040
0.0
1001
ACAD
1000
DSTYLE
1002
{
1070
   287
1070
     3
1070
    40
1040
0.5
1070
    42
1040
1.0
1070
    43
1040
12.0
1070
    48
1040
0.1
1070
    78
1070
     8
1070
   140
1040
3.2
1070
   176
1070
   256
1070
   177
1070
   256
1070
   271
1070
     1
1070
   272
1070
     3
1070
   275
1070
     0
1070
   284
1070
     0
1070
   289
1070
     3
1070
   340
1005
6B
1070
   371
1070
    -1
1070
   372
1070
    -1
1002
}
  0
DIMENSION
  5
F877
330
1F
100
AcDbEntity
  8
AM_5
100
AcDbDimension
  2
*D10
 10
-44.00000000000027
 20
-41.30194157205463
 30
0.0
 11
-47.00000000000024
 21
-39.75194157205463
 31
0.0
 70
    32
  1
<>
 51
359.9999999999998
  3
AM_JIS$0
100
AcDbAlignedDimension
 13
-50.00000000000021
 23
-26.12450408934995
 33
0.0
 14
-44.00000000000027
 24
-4.749999999999886
 34
0.0
100
AcDbRotatedDimension
1001
GENIUS_GENDTOL_13
1000

1000
h7
1000

1040
0.0
1001
ACAD
1000
DSTYLE
1002
{
1070
   287
1070
     3
1070
    40
1040
0.5
1070
    42
1040
1.0
1070
    43
1040
12.0
1070
    48
1040
0.1
1070
    78
1070
     8
1070
   140
1040
3.2
1070
   176
1070
   256
1070
   177
1070
   256
1070
   271
1070
     0
1070
   272
1070
     3
1070
   275
1070
     0
1070
   284
1070
     0
1070
   289
1070
     3
1070
   340
1005
6B
1070
   371
1070
    -1
1070
   372
1070
    -1
1002
}
  0
DIMENSION
  5
F926
330
1F
100
AcDbEntity
  8
AM_5
100
AcDbDimension
  2
*D11
 10
-25.00003051758025
 20
-46.17132009809684
 30
0.0
 11
-37.50001525879023
 21
-44.62132009809685
 31
0.0
 70
    32
  1
<>
 51
359.9999999999998
  3
AM_JIS$0
100
AcDbAlignedDimension
 13
-50.00000000000021
 23
-26.12450408934995
 33
0.0
 14
-25.00003051758024
 24
-13.15000152586986
 34
0.0
100
AcDbRotatedDimension
1001
GENIUS_GENDTOL_13
1000

1000
h7
1000

1040
0.0
1001
ACAD
1000
DSTYLE
1002
{
1070
   287
1070
     3
1070
    40
1040
0.5
1070
    42
1040
1.0
1070
    43
1040
12.0
1070
    48
1040
0.1
1070
    78
1070
     8
1070
   140
1040
3.2
1070
   176
1070
   256
1070
   177
1070
   256
1070
   271
1070
     0
1070
   272
1070
     3
1070
   275
1070
     0
1070
   284
1070
     0
1070
   289
1070
     3
1070
   340
1005
6B
1070
   371
1070
    -1
1070
   372
1070
    -1
1002
}
  0
DIMENSION
  5
F9BB
330
1F
100
AcDbEntity
  8
AM_5
100
AcDbDimension
  2
*D12
 10
-0.0000000000001925
 20
-51.24359001448801
 30
0.0
 11
-25.0000030774811
 21
-49.693590014488
 31
0.0
 70
    32
  1
<>
 51
359.9999999999998
  3
AM_JIS$0
100
AcDbAlignedDimension
 13
-50.00000615496202
 23
-26.12450727272142
 33
0.0
 14
-0.0000000000001918
 24
-39.99999999999985
 34
0.0
100
AcDbRotatedDimension
1001
GENIUS_GENDTOL_13
1000

1000
h7
1000

1040
0.0
1001
ACAD
1000
DSTYLE
1002
{
1070
   287
1070
     3
1070
    40
1040
0.5
1070
    42
1040
1.0
1070
    43
1040
12.0
1070
    48
1040
0.1
1070
    78
1070
     8
1070
   140
1040
3.2
1070
   176
1070
   256
1070
   177
1070
   256
1070
   271
1070
     0
1070
   272
1070
     3
1070
   275
1070
     0
1070
   284
1070
     0
1070
   289
1070
     3
1070
   340
1005
6B
1070
   371
1070
    -1
1070
   372
1070
    -1
1002
}
  0
VIEWPORT
  5
110
330
101
100
AcDbEntity
 67
     1
  8
0
100
AcDbViewport
 10
420.5
 20
297.0
 30
0.0
 40
948.9782706766916
 41
628.452
 68
     1
 69
     1
1001
ACAD
1000
MVIEW
1002
{
1070
    16
1010
0.0
1020
0.0
1030
0.0
1010
0.0
1020
0.0
1030
1.0
1040
0.0
1040
628.452
1040
420.5
1040
297.0
1040
50.0
1040
0.0
1040
0.0
1070
     0
1070
   100
1070
     1
1070
     1
1070
     0
1070
     0
1070
     0
1070
     0
1040
0.0
1040
0.0
1040
0.0
1040
10.0
1040
10.0
1040
10.0
1040
10.0
1070
     0
1002
{
1002
}
1002
}
  0
ENDSEC
  0
SECTION
  2
OBJECTS
  0
DICTIONARY
  5
C
330
0
100
AcDbDictionary
  3
ACAD_GROUP
350
D
  3
ACAD_LAYOUT
350
1A
  3
ACAD_MLINESTYLE
350
17
  3
ACAD_PLOTSETTINGS
350
19
  3
ACAD_PLOTSTYLENAME
350
E
  3
ACDBVARIABLEDICTIONARY
350
34
  3
ACMDICTIONARY
350
43
  3
AMG
350
2B
  3
AMGSNAPSETTINGS
350
6E
  3
DWGPROPS
350
FD04
  3
ACDBHEADERROUNDTRIPXREC
350
FD10
  0
DICTIONARY
  5
74
330
1F
100
AcDbDictionary
280
     1
  3
ACAD_INDEX
360
FD06
  3
ACAD_LAYOUTSELFREF
360
FD33
  0
DICTIONARY
  5
FD38
330
101
100
AcDbDictionary
280
     1
  3
ACAD_LAYOUTSELFREF
360
FD39
  0
DICTIONARY
  5
D
102
{ACAD_REACTORS
330
C
102
}
330
C
100
AcDbDictionary
  0
DICTIONARY
  5
1A
102
{ACAD_REACTORS
330
C
102
}
330
C
100
AcDbDictionary
  0
DICTIONARY
  5
17
102
{ACAD_REACTORS
330
C
102
}
330
C
100
AcDbDictionary
  3
STANDARD
350
18
  0
DICTIONARY
  5
19
102
{ACAD_REACTORS
330
C
102
}
330
C
100
AcDbDictionary
  3
ASAMI
350
399D
  0
ACDBDICTIONARYWDFLT
  5
E
102
{ACAD_REACTORS
330
C
102
}
330
C
100
AcDbDictionary
281
     1
  3
Normal
350
F
100
AcDbDictionaryWithDefault
340
F
  0
DICTIONARY
  5
34
102
{ACAD_REACTORS
330
C
102
}
330
C
100
AcDbDictionary
  3
INDEXCTL
350
35
  3
SORTENTS
350
B5E
  0
DICTIONARY
  5
43
102
{ACAD_REACTORS
330
C
102
}
330
C
100
AcDbDictionary
  3
ACMSTDDICTIONARY
350
260
  0
DICTIONARY
  5
2B
102
{ACAD_REACTORS
330
C
102
}
330
C
100
AcDbDictionary
  3
ACMGSETTINGS
350
2C
  0
DICTIONARY
  5
6E
102
{ACAD_REACTORS
330
C
102
}
330
C
100
AcDbDictionary
  0
XRECORD
  5
FD04
102
{ACAD_REACTORS
330
C
102
}
330
C
100
AcDbXrecord
  1
DWGPROPS COOKIE
  2

  3

  4

  6

  7

  8

  9

300
AmdtFileType=82
301
=
302
=
303
=
304
=
305
=
306
=
307
=
308
=
309
=
 40
0.9653213541666666
 41
2452802.716478761
 42
2453075.646909178
  1

 90
        1
  0
DICTIONARY
  5
FD10
102
{ACAD_REACTORS
330
C
102
}
330
C
100
AcDbDictionary
  3
TSTACKALIGN
350
FD11
  3
TSTACKSIZE
350
FD12
  3
HYPERLINKBASE
350
FD13
  3
STYLESHEET
350
FD14
  3
LAYOUTDICT
350
FD15
  3
PLOTSETDICT
350
FD16
  3
PLOTSTYLNAMDICT
350
FD17
  3
LWETCUNION
350
FD18
  3
INSUNITS
350
FD19
  3
CEPSNTYPE
350
FD1A
  3
FINGERPRINTGUID
350
FD1B
  3
VERSIONGUID
350
FD1C
  3
PSVPSCALE
350
FD1D
  3
DIMSTYLEDATA
350
FD1E
  3
PUCSORTHOREF
350
FD1F
  3
PUCSORTHOVIEW
350
FD20
  3
PUCSBASE
350
FD21
  3
PUCSORGTOP
350
FD22
  3
PUCSORGBOTTOM
350
FD23
  3
PUCSORGLEFT
350
FD24
  3
PUCSORGRIGHT
350
FD25
  3
PUCSORGFRONT
350
FD26
  3
PUCSORGBACK
350
FD27
  3
UCSORTHOREF
350
FD28
  3
UCSORTHOVIEW
350
FD29
  3
UCSBASE
350
FD2A
  3
UCSORGTOP
350
FD2B
  3
UCSORGBOTTOM
350
FD2C
  3
UCSORGLEFT
350
FD2D
  3
UCSORGRIGHT
350
FD2E
  3
UCSORGFRONT
350
FD2F
  3
UCSORGBACK
350
FD30
  0
DICTIONARY
  5
FD06
102
{ACAD_REACTORS
330
74
102
}
330
74
100
AcDbDictionary
  3
*A1
350
FD07
  0
XRECORD
  5
FD33
102
{ACAD_REACTORS
330
74
102
}
330
74
100
AcDbXrecord
340
1F
  0
XRECORD
  5
FD39
102
{ACAD_REACTORS
330
FD38
102
}
330
FD38
100
AcDbXrecord
340
101
  0
MLINESTYLE
  5
18
102
{ACAD_REACTORS
330
17
102
}
330
17
100
AcDbMlineStyle
  2
STANDARD
 70
     0
  3

 62
   256
 51
90.0
 52
90.0
 71
     2
 49
0.5
 62
   256
  6
BYLAYER
 49
-0.5
 62
   256
  6
BYLAYER
  0
PLOTSETTINGS
  5
399D
102
{ACAD_REACTORS
330
19
102
}
330
19
100
AcDbPlotSettings
  1
asami
  2
RICOH imagio MF1540
  4
A4
  6

 40
5.831416606903076
 41
7.651742935180664
 42
4.90008544921875
 43
5.789077758789062
 44
296.9683227539062
 45
209.9733276367187
 46
0.0
 47
0.0
 48
-156.6707931774246
 49
-74.57609991074048
140
58.59973180214831
141
60.61068161925596
142
1.0
143
1.095343097833084
 70
  1712
 72
     1
 73
     1
 74
     4
  7
asami.ctb
 75
     0
147
0.9129559514076438
148
156.6707931774246
149
74.57609991074048
  0
ACDBPLACEHOLDER
  5
F
102
{ACAD_REACTORS
330
E
102
}
330
E
100
AcDbPlaceHolder
280
     0
  0
DICTIONARYVAR
  5
35
102
{ACAD_REACTORS
330
34
102
}
330
34
100
DictionaryVariables
280
     0
  1
1
  0
DICTIONARYVAR
  5
B5E
102
{ACAD_REACTORS
330
34
102
}
330
34
100
DictionaryVariables
280
     0
  1
96
  0
DICTIONARY
  5
260
102
{ACAD_REACTORS
330
43
102
}
330
43
100
AcDbDictionary
  0
DICTIONARY
  5
2C
102
{ACAD_REACTORS
330
2B
102
}
330
2B
100
AcDbDictionary
  3
DWGSETTINGS
350
2D
  0
XRECORD
  5
FD11
102
{ACAD_REACTORS
330
FD10
102
}
330
FD10
100
AcDbXrecord
 90
        1
  0
XRECORD
  5
FD12
102
{ACAD_REACTORS
330
FD10
102
}
330
FD10
100
AcDbXrecord
 90
       70
  0
XRECORD
  5
FD13
102
{ACAD_REACTORS
330
FD10
102
}
330
FD10
100
AcDbXrecord
  1

  0
XRECORD
  5
FD14
102
{ACAD_REACTORS
330
FD10
102
}
330
FD10
100
AcDbXrecord
  1
ASAMI.ctb
  0
XRECORD
  5
FD15
102
{ACAD_REACTORS
330
FD10
102
}
330
FD10
100
AcDbXrecord
340
1A
  0
XRECORD
  5
FD16
102
{ACAD_REACTORS
330
FD10
102
}
330
FD10
100
AcDbXrecord
340
19
  0
XRECORD
  5
FD17
102
{ACAD_REACTORS
330
FD10
102
}
330
FD10
100
AcDbXrecord
340
E
  0
XRECORD
  5
FD18
102
{ACAD_REACTORS
330
FD10
102
}
330
FD10
100
AcDbXrecord
 90
    10781
  0
XRECORD
  5
FD19
102
{ACAD_REACTORS
330
FD10
102
}
330
FD10
100
AcDbXrecord
 90
        4
  0
XRECORD
  5
FD1A
102
{ACAD_REACTORS
330
FD10
102
}
330
FD10
100
AcDbXrecord
 90
        0
  0
XRECORD
  5
FD1B
102
{ACAD_REACTORS
330
FD10
102
}
330
FD10
100
AcDbXrecord
  1
{AFB28963-8C59-40AE-9337-C84526B81ACE}
  0
XRECORD
  5
FD1C
102
{ACAD_REACTORS
330
FD10
102
}
330
FD10
100
AcDbXrecord
  1
{8F494FC4-6D2B-4BF8-9CE6-2104E57C7715}
  0
XRECORD
  5
FD1D
102
{ACAD_REACTORS
330
FD10
102
}
330
FD10
100
AcDbXrecord
 40
0.0
  0
XRECORD
  5
FD1E
102
{ACAD_REACTORS
330
FD10
102
}
330
FD10
100
AcDbXrecord
1000
DSTYLE
1002
{
1070
    79
 70
     2
1070
   341
340
59
1070
   342
340
59
1070
   371
 70
    -1
1070
   372
 70
    -1
1002
}
  0
XRECORD
  5
FD1F
102
{ACAD_REACTORS
330
FD10
102
}
330
FD10
100
AcDbXrecord
340
0
  0
XRECORD
  5
FD20
102
{ACAD_REACTORS
330
FD10
102
}
330
FD10
100
AcDbXrecord
 70
     0
  0
XRECORD
  5
FD21
102
{ACAD_REACTORS
330
FD10
102
}
330
FD10
100
AcDbXrecord
340
0
  0
XRECORD
  5
FD22
102
{ACAD_REACTORS
330
FD10
102
}
330
FD10
100
AcDbXrecord
 10
0.0
 20
0.0
 30
0.0
  0
XRECORD
  5
FD23
102
{ACAD_REACTORS
330
FD10
102
}
330
FD10
100
AcDbXrecord
 10
0.0
 20
0.0
 30
0.0
  0
XRECORD
  5
FD24
102
{ACAD_REACTORS
330
FD10
102
}
330
FD10
100
AcDbXrecord
 10
0.0
 20
0.0
 30
0.0
  0
XRECORD
  5
FD25
102
{ACAD_REACTORS
330
FD10
102
}
330
FD10
100
AcDbXrecord
 10
0.0
 20
0.0
 30
0.0
  0
XRECORD
  5
FD26
102
{ACAD_REACTORS
330
FD10
102
}
330
FD10
100
AcDbXrecord
 10
0.0
 20
0.0
 30
0.0
  0
XRECORD
  5
FD27
102
{ACAD_REACTORS
330
FD10
102
}
330
FD10
100
AcDbXrecord
 10
0.0
 20
0.0
 30
0.0
  0
XRECORD
  5
FD28
102
{ACAD_REACTORS
330
FD10
102
}
330
FD10
100
AcDbXrecord
340
0
  0
XRECORD
  5
FD29
102
{ACAD_REACTORS
330
FD10
102
}
330
FD10
100
AcDbXrecord
 70
     0
  0
XRECORD
  5
FD2A
102
{ACAD_REACTORS
330
FD10
102
}
330
FD10
100
AcDbXrecord
340
0
  0
XRECORD
  5
FD2B
102
{ACAD_REACTORS
330
FD10
102
}
330
FD10
100
AcDbXrecord
 10
0.0
 20
0.0
 30
0.0
  0
XRECORD
  5
FD2C
102
{ACAD_REACTORS
330
FD10
102
}
330
FD10
100
AcDbXrecord
 10
0.0
 20
0.0
 30
0.0
  0
XRECORD
  5
FD2D
102
{ACAD_REACTORS
330
FD10
102
}
330
FD10
100
AcDbXrecord
 10
0.0
 20
0.0
 30
0.0
  0
XRECORD
  5
FD2E
102
{ACAD_REACTORS
330
FD10
102
}
330
FD10
100
AcDbXrecord
 10
0.0
 20
0.0
 30
0.0
  0
XRECORD
  5
FD2F
102
{ACAD_REACTORS
330
FD10
102
}
330
FD10
100
AcDbXrecord
 10
0.0
 20
0.0
 30
0.0
  0
XRECORD
  5
FD30
102
{ACAD_REACTORS
330
FD10
102
}
330
FD10
100
AcDbXrecord
 10
0.0
 20
0.0
 30
0.0
  0
LAYER_INDEX
  5
FD07
102
{ACAD_REACTORS
330
FD06
102
}
330
FD06
100
AcDbIndex
 40
2453152.374580405
100
AcDbLayerIndex
  8
0
360
FD08
 90
        0
  8
AM_0
360
FD09
 90
       48
  8
AM_5
360
FD0A
 90
        8
  8
AM_7
360
FD0B
 90
        1
  8
AM_6
360
FD0C
 90
        1
  8
Defpoints
360
FD0D
 90
        0
  8
AM_11
360
FD0E
 90
        4
  0
XRECORD
  5
2D
102
{ACAD_REACTORS
330
2C
102
}
330
2C
100
AcDbXrecord
  1
VERSION
140
15.0
  1
PRODUCT
  2
AutoCAD Mechanical 2000
  0
IDBUFFER
  5
FD08
330
0
100
AcDbIdBuffer
  0
IDBUFFER
  5
FD09
330
0
100
AcDbIdBuffer
330
F043
330
F044
330
F046
330
F047
330
F049
330
F04A
330
F06B
330
F06C
330
F498
330
F499
330
F49A
330
F49B
330
F49C
330
F49D
330
F49E
330
F49F
330
F4A0
330
F4A1
330
F4A2
330
F4A3
330
F4A4
330
F4A5
330
F4A6
330
F4A7
330
F4A8
330
F4A9
330
F4AA
330
F4AB
330
F4AC
330
F4AD
330
F4AE
330
F4AF
330
F009
330
F00A
330
F00B
330
F02C
330
F02D
330
F02F
330
F030
330
F037
330
F039
330
F03A
330
F03B
330
F03C
330
F03F
330
F040
330
F041
330
F042
  0
IDBUFFER
  5
FD0A
330
0
100
AcDbIdBuffer
330
F4CE
330
F574
330
F612
330
F6AB
330
F744
330
F877
330
F926
330
F9BB
  0
IDBUFFER
  5
FD0B
330
0
100
AcDbIdBuffer
330
F038
  0
IDBUFFER
  5
FD0C
330
0
100
AcDbIdBuffer
330
388D
  0
IDBUFFER
  5
FD0D
330
0
100
AcDbIdBuffer
  0
IDBUFFER
  5
FD0E
330
0
100
AcDbIdBuffer
330
F4B1
330
F4B9
330
F4C1
330
F4C5
  0
ENDSEC
  0
EOF
