  0
SECTION
  2
HEADER
  9
$ACADVER
  1
AC1015
  9
$ACADMAINTVER
 70
    20
  9
$DWGCODEPAGE
  3
ANSI_932
  9
$INSBASE
 10
0.0
 20
0.0
 30
0.0
  9
$EXTMIN
 10
-159.3502408027638
 20
-44.24999618530324
 30
0.0
  9
$EXTMAX
 10
7.499999999999815
 20
30.35000381469675
 30
0.0
  9
$LIMMIN
 10
-169.4152507088815
 20
-66.24797958696439
  9
$LIMMAX
 10
75.08498982106438
 20
36.38423241029739
  9
$ORTHOMODE
 70
     0
  9
$REGENMODE
 70
     1
  9
$FILLMODE
 70
     1
  9
$QTEXTMODE
 70
     0
  9
$MIRRTEXT
 70
     0
  9
$LTSCALE
 40
1.0
  9
$ATTMODE
 70
     1
  9
$TEXTSIZE
 40
2.5
  9
$TRACEWID
 40
1.0
  9
$TEXTSTYLE
  7
STANDARD
  9
$CLAYER
  8
AM_0
  9
$CELTYPE
  6
BYLAYER
  9
$CECOLOR
 62
   256
  9
$CELTSCALE
 40
1.0
  9
$DISPSILH
 70
     0
  9
$DIMSCALE
 40
0.5
  9
$DIMASZ
 40
2.5
  9
$DIMEXO
 40
1.0
  9
$DIMDLI
 40
12.0
  9
$DIMRND
 40
0.0
  9
$DIMDLE
 40
0.0
  9
$DIMEXE
 40
1.0
  9
$DIMTP
 40
0.1
  9
$DIMTM
 40
0.1
  9
$DIMTXT
 40
3.2
  9
$DIMCEN
 40
0.0
  9
$DIMTSZ
 40
0.0
  9
$DIMTOL
 70
     0
  9
$DIMLIM
 70
     0
  9
$DIMTIH
 70
     0
  9
$DIMTOH
 70
     0
  9
$DIMSE1
 70
     0
  9
$DIMSE2
 70
     0
  9
$DIMTAD
 70
     3
  9
$DIMZIN
 70
     8
  9
$DIMBLK
  1
Open30
  9
$DIMASO
 70
     1
  9
$DIMSHO
 70
     1
  9
$DIMPOST
  1

  9
$DIMAPOST
  1
"
  9
$DIMALT
 70
     0
  9
$DIMALTD
 70
     2
  9
$DIMALTF
 40
0.0393701
  9
$DIMLFAC
 40
1.0
  9
$DIMTOFL
 70
     1
  9
$DIMTVP
 40
0.0
  9
$DIMTIX
 70
     0
  9
$DIMSOXD
 70
     0
  9
$DIMSAH
 70
     0
  9
$DIMBLK1
  1

  9
$DIMBLK2
  1

  9
$DIMSTYLE
  2
AM_JIS
  9
$DIMCLRD
 70
   256
  9
$DIMCLRE
 70
   256
  9
$DIMCLRT
 70
     2
  9
$DIMTFAC
 40
0.71
  9
$DIMGAP
 40
1.5
  9
$DIMJUST
 70
     0
  9
$DIMSD1
 70
     0
  9
$DIMSD2
 70
     0
  9
$DIMTOLJ
 70
     0
  9
$DIMTZIN
 70
     0
  9
$DIMALTZ
 70
     0
  9
$DIMALTTZ
 70
     0
  9
$DIMUPT
 70
     0
  9
$DIMDEC
 70
     3
  9
$DIMTDEC
 70
     3
  9
$DIMALTU
 70
     2
  9
$DIMALTTD
 70
     2
  9
$DIMTXSTY
  7
ASAMI
  9
$DIMAUNIT
 70
     0
  9
$DIMADEC
 70
     0
  9
$DIMALTRND
 40
0.0
  9
$DIMAZIN
 70
     2
  9
$DIMDSEP
 70
    46
  9
$DIMATFIT
 70
     3
  9
$DIMFRAC
 70
     0
  9
$DIMLDRBLK
  1
Open30
  9
$DIMLUNIT
 70
     2
  9
$DIMLWD
 70
    -1
  9
$DIMLWE
 70
    -1
  9
$DIMTMOVE
 70
     0
  9
$LUNITS
 70
     2
  9
$LUPREC
 70
     2
  9
$SKETCHINC
 40
1.0
  9
$FILLETRAD
 40
0.4
  9
$AUNITS
 70
     0
  9
$AUPREC
 70
     0
  9
$MENU
  1
.
  9
$ELEVATION
 40
0.0
  9
$PELEVATION
 40
0.0
  9
$THICKNESS
 40
0.0
  9
$LIMCHECK
 70
     1
  9
$CHAMFERA
 40
1.0
  9
$CHAMFERB
 40
1.0
  9
$CHAMFERC
 40
20.0
  9
$CHAMFERD
 40
0.0
  9
$SKPOLY
 70
     0
  9
$TDCREATE
 40
2452802.716478762
  9
$TDUCREATE
 40
2452802.341478762
  9
$TDUPDATE
 40
2453691.775033993
  9
$TDUUPDATE
 40
2453691.400033993
  9
$TDINDWG
 40
0.8323532986
  9
$TDUSRTIMER
 40
0.8323531134
  9
$USRTIMER
 70
     1
  9
$ANGBASE
 50
0.0
  9
$ANGDIR
 70
     0
  9
$PDMODE
 70
     0
  9
$PDSIZE
 40
0.0
  9
$PLINEWID
 40
0.0
  9
$SPLFRAME
 70
     0
  9
$SPLINETYPE
 70
     6
  9
$SPLINESEGS
 70
     8
  9
$HANDSEED
  5
A757
  9
$SURFTAB1
 70
     6
  9
$SURFTAB2
 70
     6
  9
$SURFTYPE
 70
     6
  9
$SURFU
 70
     6
  9
$SURFV
 70
     6
  9
$UCSBASE
  2

  9
$UCSNAME
  2

  9
$UCSORG
 10
-0.0000000000002682
 20
0.000000000000161
 30
0.0
  9
$UCSXDIR
 10
1.0
 20
0.000000000000002
 30
0.0
  9
$UCSYDIR
 10
-0.000000000000002
 20
1.0
 30
0.0
  9
$UCSORTHOREF
  2

  9
$UCSORTHOVIEW
 70
     0
  9
$UCSORGTOP
 10
0.0
 20
0.0
 30
0.0
  9
$UCSORGBOTTOM
 10
0.0
 20
0.0
 30
0.0
  9
$UCSORGLEFT
 10
0.0
 20
0.0
 30
0.0
  9
$UCSORGRIGHT
 10
0.0
 20
0.0
 30
0.0
  9
$UCSORGFRONT
 10
0.0
 20
0.0
 30
0.0
  9
$UCSORGBACK
 10
0.0
 20
0.0
 30
0.0
  9
$PUCSBASE
  2

  9
$PUCSNAME
  2

  9
$PUCSORG
 10
0.0
 20
0.0
 30
0.0
  9
$PUCSXDIR
 10
1.0
 20
0.0
 30
0.0
  9
$PUCSYDIR
 10
0.0
 20
1.0
 30
0.0
  9
$PUCSORTHOREF
  2

  9
$PUCSORTHOVIEW
 70
     0
  9
$PUCSORGTOP
 10
0.0
 20
0.0
 30
0.0
  9
$PUCSORGBOTTOM
 10
0.0
 20
0.0
 30
0.0
  9
$PUCSORGLEFT
 10
0.0
 20
0.0
 30
0.0
  9
$PUCSORGRIGHT
 10
0.0
 20
0.0
 30
0.0
  9
$PUCSORGFRONT
 10
0.0
 20
0.0
 30
0.0
  9
$PUCSORGBACK
 10
0.0
 20
0.0
 30
0.0
  9
$USERI1
 70
     0
  9
$USERI2
 70
     0
  9
$USERI3
 70
     0
  9
$USERI4
 70
     0
  9
$USERI5
 70
     0
  9
$USERR1
 40
0.0
  9
$USERR2
 40
0.0
  9
$USERR3
 40
0.0
  9
$USERR4
 40
0.0
  9
$USERR5
 40
0.0
  9
$WORLDVIEW
 70
     1
  9
$SHADEDGE
 70
     3
  9
$SHADEDIF
 70
    70
  9
$TILEMODE
 70
     1
  9
$MAXACTVP
 70
    64
  9
$PINSBASE
 10
0.0
 20
0.0
 30
0.0
  9
$PLIMCHECK
 70
     0
  9
$PEXTMIN
 10
1.000000000000000E+20
 20
1.000000000000000E+20
 30
1.000000000000000E+20
  9
$PEXTMAX
 10
-1.000000000000000E+20
 20
-1.000000000000000E+20
 30
-1.000000000000000E+20
  9
$PLIMMIN
 10
0.0
 20
0.0
  9
$PLIMMAX
 10
841.0
 20
594.0
  9
$UNITMODE
 70
     0
  9
$VISRETAIN
 70
     1
  9
$PLINEGEN
 70
     0
  9
$PSLTSCALE
 70
     0
  9
$TREEDEPTH
 70
  3020
  9
$CMLSTYLE
  2
STANDARD
  9
$CMLJUST
 70
     0
  9
$CMLSCALE
 40
20.0
  9
$PROXYGRAPHICS
 70
     1
  9
$MEASUREMENT
 70
     1
  9
$CELWEIGHT
370
    -1
  9
$ENDCAPS
280
     0
  9
$JOINSTYLE
280
     0
  9
$LWDISPLAY
290
     0
  9
$INSUNITS
 70
     4
  9
$HYPERLINKBASE
  1

  9
$STYLESHEET
  1
ASAMI.ctb
  9
$XEDIT
290
     1
  9
$CEPSNTYPE
380
     0
  9
$PSTYLEMODE
290
     1
  9
$FINGERPRINTGUID
  2
{AFB28963-8C59-40AE-9337-C84526B81ACE}
  9
$VERSIONGUID
  2
{1F22C117-1761-4EF9-B0E2-6922DE6C1E8B}
  9
$EXTNAMES
290
     1
  9
$PSVPSCALE
 40
0.0
  9
$OLESTARTUP
290
     0
  0
ENDSEC
  0
SECTION
  2
CLASSES
  0
CLASS
  1
ACDBDICTIONARYWDFLT
  2
AcDbDictionaryWithDefault
  3
ObjectDBX Classes
 90
        0
280
     0
281
     0
  0
CLASS
  1
ACDBPLACEHOLDER
  2
AcDbPlaceHolder
  3
ObjectDBX Classes
 90
        0
280
     0
281
     0
  0
CLASS
  1
LAYOUT
  2
AcDbLayout
  3
ObjectDBX Classes
 90
        0
280
     0
281
     0
  0
CLASS
  1
AMGSETTINGSOBJ
  2
AmgSettingsObj
  3
"AcadM|Product Description: AutoCAD Mechanical 2000|Company: Autodesk"
 90
        0
280
     0
281
     0
  0
CLASS
  1
ACME_DOCUMENT
  2
AcMeDbDoc
  3
AcMeServices
 90
        0
280
     0
281
     0
  0
CLASS
  1
ACMESCOPE
  2
AcMeScope
  3
AcMeServices
 90
        0
280
     0
281
     0
  0
CLASS
  1
ACMECOMMANDHISTORY
  2
AcMeCommandHistory
  3
AcMeServices
 90
        0
280
     0
281
     0
  0
CLASS
  1
DICTIONARYVAR
  2
AcDbDictionaryVar
  3
ObjectDBX Classes
 90
        0
280
     0
281
     0
  0
CLASS
  1
ACIMSYSVARMAN
  2
AcImSysVarManager
  3
AcMeServices
 90
        0
280
     0
281
     0
  0
CLASS
  1
ACIMREALSYSVAR
  2
AcImRealSysVar
  3
AcMeServices
 90
        0
280
     0
281
     0
  0
CLASS
  1
ACIMINTSYSVAR
  2
AcImIntSysVar
  3
AcMeServices
 90
        0
280
     0
281
     0
  0
CLASS
  1
ACMEDRAWINGMAN
  2
AcMeDrawingMan
  3
AcMeServices
 90
        0
280
     0
281
     0
  0
CLASS
  1
ACMEVIEW
  2
AcMeView
  3
AcMeServices
 90
        0
280
     0
281
     0
  0
CLASS
  1
ACDBENTITYCACHE
  2
AcMeEntityCache
  3
AcMeServices
 90
        0
280
     0
281
     0
  0
CLASS
  1
GSMANAGER
  2
AcMeGSManager
  3
AcMeServices
 90
        0
280
     0
281
     0
  0
CLASS
  1
AMDTINTERNALREACTOR
  2
AmdtInternalReactor
  3
AcMeServices
 90
        0
280
     0
281
     0
  0
CLASS
  1
ACMESTATEMGR
  2
AcMeStateMgr
  3
AcMeServices
 90
        0
280
     0
281
     0
  0
CLASS
  1
ACME_DATABASE
  2
AcMeDbDatabase
  3
AcMeServices
 90
        0
280
     0
281
     0
  0
CLASS
  1
ACRFINSADJUSTERMGR
  2
AcRfInsAdjusterMgr
  3
AcMeServices
 90
        0
280
     0
281
     0
  0
CLASS
  1
ACMDATADICTIONARY
  2
AcmDataDictionary
  3
"AcmSymBB|Product Description: AutoCAD Mechanical 2004 DX|Company: Autodesk"
 90
        0
280
     0
281
     0
  0
CLASS
  1
ACMDATAENTRYBLOCK
  2
AcmDataEntryBlock
  3
"AcmSymBB|Product Description: AutoCAD Mechanical 2004 DX|Company: Autodesk"
 90
    32768
280
     0
281
     0
  0
CLASS
  1
AMGOBJPROPCFG
  2
AmgObjPropCfg
  3
"AmgLay|Product Description: AutoCAD Mechanical 2000|Company: Autodesk"
 90
        1
280
     0
281
     0
  0
CLASS
  1
ACAMGFILTERDAT
  2
AcAmgFilterDat
  3
"AcadM|Product Description: AutoCAD Mechanical 2000|Company: Autodesk"
 90
    32768
280
     0
281
     0
  0
CLASS
  1
LAYER_INDEX
  2
AcDbLayerIndex
  3
ObjectDBX Classes
 90
        0
280
     0
281
     0
  0
CLASS
  1
IDBUFFER
  2
AcDbIdBuffer
  3
ObjectDBX Classes
 90
        0
280
     0
281
     0
  0
CLASS
  1
ACIMSTRSYSVAR
  2
AcImStrSysVar
  3
AcMeServices
 90
        0
280
     0
281
     0
  0
CLASS
  1
ACMSTANDARDJIS
  2
AcmStandardJIS
  3
"Amdt_StdImp|Product Description: AutoCAD Mechanical 2004 DX|Company: Autodesk"
 90
        0
280
     0
281
     0
  0
CLASS
  1
ACMSURFSTANDARDJIS
  2
AcmSurfTextStdJIS
  3
"Amdt_StdImp|Product Description: AutoCAD Mechanical 2004 DX|Company: Autodesk"
 90
        0
280
     0
281
     0
  0
CLASS
  1
ACMFCFSTANDARDJIS
  2
AcmFCFStdJIS
  3
"Amdt_StdImp|Product Description: AutoCAD Mechanical 2004 DX|Company: Autodesk"
 90
    32768
280
     0
281
     0
  0
CLASS
  1
ACMWELDSTANDARDJIS
  2
AcmWeldingStdJIS
  3
"Amdt_StdImp|Product Description: AutoCAD Mechanical 2004 DX|Company: Autodesk"
 90
        0
280
     0
281
     0
  0
CLASS
  1
ACMIDSTANDARDJIS
  2
AcmIdStdJIS
  3
"Amdt_StdImp|Product Description: AutoCAD Mechanical 2004 DX|Company: Autodesk"
 90
        0
280
     0
281
     0
  0
CLASS
  1
ACMDATUMSTANDARDJIS
  2
AcmDatumStdJIS
  3
"Amdt_StdImp|Product Description: AutoCAD Mechanical 2004 DX|Company: Autodesk"
 90
        0
280
     0
281
     0
  0
CLASS
  1
ACMBOMSTANDARDJIS
  2
AcmBOMStdJIS
  3
"Amdt_StdImp|Product Description: AutoCAD Mechanical 2004 DX|Company: Autodesk"
 90
        0
280
     0
281
     0
  0
CLASS
  1
ACMSTANDARDANSI
  2
AcmStandardANSI
  3
"Amdt_StdImp|Product Description: AutoCAD Mechanical 2004 DX|Company: Autodesk"
 90
    32768
280
     0
281
     0
  0
CLASS
  1
ACMSURFSTANDARDANSI
  2
AcmSurfTextStdANSI
  3
"Amdt_StdImp|Product Description: AutoCAD Mechanical 2004 DX|Company: Autodesk"
 90
    32768
280
     0
281
     0
  0
CLASS
  1
ACMFCFSTANDARDANSI
  2
AcmFCFStdANSI
  3
"Amdt_StdImp|Product Description: AutoCAD Mechanical 2004 DX|Company: Autodesk"
 90
    32768
280
     0
281
     0
  0
CLASS
  1
ACMWELDSTANDARDANSI
  2
AcmWeldingStdANSI
  3
"Amdt_StdImp|Product Description: AutoCAD Mechanical 2004 DX|Company: Autodesk"
 90
    32768
280
     0
281
     0
  0
CLASS
  1
ACMIDSTANDARDANSI
  2
AcmIdStdANSI
  3
"Amdt_StdImp|Product Description: AutoCAD Mechanical 2004 DX|Company: Autodesk"
 90
    32768
280
     0
281
     0
  0
CLASS
  1
ACMDATUMSTANDARDANSI
  2
AcmDatumStdANSI
  3
"Amdt_StdImp|Product Description: AutoCAD Mechanical 2004 DX|Company: Autodesk"
 90
    32768
280
     0
281
     0
  0
CLASS
  1
ACMBOMSTANDARDANSI
  2
AcmBOMStdANSI
  3
"Amdt_StdImp|Product Description: AutoCAD Mechanical 2004 DX|Company: Autodesk"
 90
    32768
280
     0
281
     0
  0
CLASS
  1
ACMSTANDARDBSI
  2
AcmStandardBSI
  3
"Amdt_StdImp|Product Description: AutoCAD Mechanical 2004 DX|Company: Autodesk"
 90
    32768
280
     0
281
     0
  0
CLASS
  1
ACMSURFSTANDARDBSI
  2
AcmSurfTextStdBSI
  3
"Amdt_StdImp|Product Description: AutoCAD Mechanical 2004 DX|Company: Autodesk"
 90
    32768
280
     0
281
     0
  0
CLASS
  1
ACMFCFSTANDARDBSI
  2
AcmFCFStdBSI
  3
"Amdt_StdImp|Product Description: AutoCAD Mechanical 2004 DX|Company: Autodesk"
 90
    32768
280
     0
281
     0
  0
CLASS
  1
ACMWELDSTANDARDBSI
  2
AcmWeldingStdBSI
  3
"Amdt_StdImp|Product Description: AutoCAD Mechanical 2004 DX|Company: Autodesk"
 90
    32768
280
     0
281
     0
  0
CLASS
  1
ACMIDSTANDARDBSI
  2
AcmIdStdBSI
  3
"Amdt_StdImp|Product Description: AutoCAD Mechanical 2004 DX|Company: Autodesk"
 90
    32768
280
     0
281
     0
  0
CLASS
  1
ACMDATUMSTANDARDBSI
  2
AcmDatumStdBSI
  3
"Amdt_StdImp|Product Description: AutoCAD Mechanical 2004 DX|Company: Autodesk"
 90
    32768
280
     0
281
     0
  0
CLASS
  1
ACMBOMSTANDARDBSI
  2
AcmBOMStdBSI
  3
"Amdt_StdImp|Product Description: AutoCAD Mechanical 2004 DX|Company: Autodesk"
 90
    32768
280
     0
281
     0
  0
CLASS
  1
STDPART2D
  2
AmgStdPart
  3
"AmgStdPart|Product Description: AutoCAD Mechanical 2000|Company: Autodesk"
 90
    33791
280
     0
281
     1
  0
CLASS
  1
PLOTSETTINGS
  2
AcDbPlotSettings
  3
ObjectDBX Classes
 90
        0
280
     0
281
     0
  0
CLASS
  1
TABLESTYLE
  2
AcDbTableStyle
  3
ObjectDBX Classes
 90
     2047
280
     0
281
     0
  0
CLASS
  1
ACGREFMASTER
  2
AcGrefMaster
  3
AcAttribServices
 90
        0
280
     0
281
     0
  0
CLASS
  1
AM_DRAWING_MGR
  2
AcDmDwgMgr
  3
AcMechDwgViewMgmt
 90
        0
280
     0
281
     0
  0
CLASS
  1
AM_DWG_DOCUMENT
  2
AcDmDwgDocument
  3
AcMechDwgViewMgmt
 90
        0
280
     0
281
     0
  0
CLASS
  1
AM_DWG_SHEET
  2
AcDmSheet
  3
AcMechDwgViewMgmt
 90
        0
280
     0
281
     0
  0
CLASS
  1
AM_VIEWDIMPARMAP
  2
AcDmViewDimParMap
  3
AcMechDwgViewMgmt
 90
        0
280
     0
281
     0
  0
CLASS
  1
AM_DWGMGR_NAME
  2
AcDmDwgMgrName
  3
AcMechDwgViewMgmt
 90
        0
280
     0
281
     0
  0
CLASS
  1
ACGREFACADMASTER
  2
AcGrefacadMaster
  3
AcGrefServices
 90
        0
280
     0
281
     0
  0
CLASS
  1
AMDTMENUSTATEMGR
  2
AmdtMenuStateMgr
  3
McadcomServices
 90
        0
280
     0
281
     0
  0
CLASS
  1
AMDTMCOMMENUSTATE
  2
AmdtMcomMenuState
  3
McadcomServices
 90
        0
280
     0
281
     0
  0
CLASS
  1
AMIMASTER
  2
AmiMaster
  3
AmiServices
 90
        0
280
     0
281
     0
  0
CLASS
  1
MAPIAMMOUDLE
  2
MApiAmModule
  3
MApiAmServices
 90
        0
280
     0
281
     0
  0
CLASS
  1
AMDTADMENUSTATE
  2
AmdtAdMenuState
  3
DesignerServices
 90
        0
280
     0
281
     0
  0
CLASS
  1
ADAPPL
  2
AcAdAppl
  3
DesignerServices
 90
        0
280
     0
281
     0
  0
CLASS
  1
DEPMGR
  2
AcAdDepMgr
  3
DesignerServices
 90
        0
280
     0
281
     0
  0
CLASS
  1
PARAMMGR
  2
AcAdParamMgr
  3
DesignerServices
 90
        0
280
     0
281
     0
  0
CLASS
  1
PARAMSCOPE
  2
AcAdParamScope
  3
DesignerServices
 90
        0
280
     0
281
     0
  0
CLASS
  1
NAMEDAPPL
  2
AcAdNamedAppl
  3
DesignerServices
 90
        0
280
     0
281
     0
  0
CLASS
  1
AMDTDMMENUSTATE
  2
AmdtDmMenuState
  3
AcMechDwgViewMgmt
 90
        0
280
     0
281
     0
  0
CLASS
  1
AMDTAMMENUSTATE
  2
AmdtAmMenuState
  3
DesignerAssemblies
 90
        0
280
     0
281
     0
  0
CLASS
  1
ACAMPROJECT
  2
AcAmProject
  3
DesignerAssemblies
 90
        0
280
     0
281
     0
  0
CLASS
  1
ACAMGRCOMPDEF
  2
AcAmGrCompDef
  3
DesignerAssemblies
 90
        0
280
     0
281
     0
  0
CLASS
  1
ACCMCONTEXT
  2
AcCmContext
  3
DesignerAssemblies
 90
        0
280
     0
281
     0
  0
CLASS
  1
ACAMCOMPDEF
  2
AcAmCompDef
  3
DesignerAssemblies
 90
        0
280
     0
281
     0
  0
CLASS
  1
ACAMCOMPDEFMGR
  2
AcAmCompDefMgr
  3
DesignerAssemblies
 90
        0
280
     0
281
     0
  0
CLASS
  1
AMCONTEXTMGR
  2
AcAmContextMgr
  3
DesignerAssemblies
 90
        0
280
     0
281
     0
  0
CLASS
  1
ACAMCONTEXTMODELER
  2
AcAmContextModeler
  3
DesignerAssemblies
 90
        0
280
     0
281
     0
  0
CLASS
  1
CATALOGSTATE
  2
AcAmCatalogState
  3
DesignerAssemblies
 90
        0
280
     0
281
     0
  0
CLASS
  1
ACAMGRCOMPDEFSET
  2
AcAmGrCompDefSet
  3
DesignerAssemblies
 90
        0
280
     0
281
     0
  0
CLASS
  1
AMDTBROWSERDBTAB
  2
AmdtBrowserDbTab
  3
McadcomServices
 90
        0
280
     0
281
     0
  0
CLASS
  1
CBROWSERAPPOBJECT
  2
CBrowserAppObject
  3
McadcomServices
 90
        0
280
     0
281
     0
  0
CLASS
  1
DM_PLACEHOLDER
  2
AcDmSelsetPlaceholder
  3
AcMechDwgViewMgmt
 90
        0
280
     0
281
     0
  0
CLASS
  1
ACMSTANDARDISO
  2
AcmStandardISO
  3
"Amdt_StdImp|Product Description: AutoCAD Mechanical 2004 DX|Company: Autodesk"
 90
        0
280
     0
281
     0
  0
CLASS
  1
AMDTEDGESTANDARDISO
  2
AmdtEdgeStdISO
  3
"Amdt_StdImp|Product Description: AutoCAD Mechanical 2004 DX|Company: Autodesk"
 90
        0
280
     0
281
     0
  0
CLASS
  1
ACMSURFSTANDARDISO
  2
AcmSurfTextStdISO
  3
"Amdt_StdImp|Product Description: AutoCAD Mechanical 2004 DX|Company: Autodesk"
 90
        0
280
     0
281
     0
  0
CLASS
  1
ACMFCFSTANDARDISO
  2
AcmFCFStdISO
  3
"Amdt_StdImp|Product Description: AutoCAD Mechanical 2004 DX|Company: Autodesk"
 90
        0
280
     0
281
     0
  0
CLASS
  1
ACMWELDSTANDARDISO
  2
AcmWeldingStdISO
  3
"Amdt_StdImp|Product Description: AutoCAD Mechanical 2004 DX|Company: Autodesk"
 90
        0
280
     0
281
     0
  0
CLASS
  1
ACMIDSTANDARDISO
  2
AcmIdStdISO
  3
"Amdt_StdImp|Product Description: AutoCAD Mechanical 2004 DX|Company: Autodesk"
 90
        0
280
     0
281
     0
  0
CLASS
  1
ACMDATUMSTANDARDISO
  2
AcmDatumStdISO
  3
"Amdt_StdImp|Product Description: AutoCAD Mechanical 2004 DX|Company: Autodesk"
 90
        0
280
     0
281
     0
  0
CLASS
  1
ACMBOMSTANDARDISO
  2
AcmBOMStdISO
  3
"Amdt_StdImp|Product Description: AutoCAD Mechanical 2004 DX|Company: Autodesk"
 90
        0
280
     0
281
     0
  0
CLASS
  1
ACMDETAILSTANDARDISO
  2
AmdtDetailSymStdISO
  3
"Amdt_StdImp|Product Description: AutoCAD Mechanical 2004 DX|Company: Autodesk"
 90
        0
280
     0
281
     0
  0
CLASS
  1
ACMSECTIONSTANDARDISO
  2
AmdtSectionSymStdISO
  3
"Amdt_StdImp|Product Description: AutoCAD Mechanical 2004 DX|Company: Autodesk"
 90
        0
280
     0
281
     0
  0
CLASS
  1
ACMCENTERLINESTANDARDISO
  2
AmdtCenterLineStdISO
  3
"Amdt_StdImp|Product Description: AutoCAD Mechanical 2004 DX|Company: Autodesk"
 90
        0
280
     0
281
     0
  0
CLASS
  1
ACMNOTESTANDARDISO
  2
AmdtNoteStdISO
  3
"Amdt_StdImp|Product Description: AutoCAD Mechanical 2004 DX|Company: Autodesk"
 90
        0
280
     0
281
     0
  0
CLASS
  1
AMDTNOTETEMPLATEDB
  2
AmdtNoteTemplateDB
  3
AMDT_STDIMP_MODULE_NAME
 90
        0
280
     0
281
     0
  0
CLASS
  1
ACAMGLAYSTD
  2
AcAmgLayStd
  3
"AcAmgLayStd|Product Description: AutoCAD Mechanical 2000|Company: Autodesk"
 90
        0
280
     0
281
     0
  0
CLASS
  1
ACAMGDIMSTD
  2
AcAmgDimStd
  3
"AcAmgDimStd|Product Description: AutoCAD Mechanical 2000|Company: Autodesk"
 90
        0
280
     0
281
     0
  0
CLASS
  1
ACAMGHOLECHARTSTDISO
  2
AcAmgHoleChartStdISO
  3
ACMSYMBB_MODULE_NAME
 90
        0
280
     0
281
     0
  0
CLASS
  1
ACAMGTITLESTD
  2
AcAmgTitleStd
  3
"TITLEAPP"
 90
        0
280
     0
281
     0
  0
CLASS
  1
ACMTHREADLINESTANDARDISO
  2
AmdtThreadLineStdISO
  3
"Amdt_StdImp|Product Description: AutoCAD Mechanical 2004 DX|Company: Autodesk"
 90
        0
280
     0
281
     0
  0
CLASS
  1
ACMFCFSTANDARDJIS98
  2
AcmFCFStdJIS98
  3
"Amdt_StdImp|Product Description: AutoCAD Mechanical 2004 DX|Company: Autodesk"
 90
        0
280
     0
281
     0
  0
CLASS
  1
ACMDETAILSTANDARDJIS
  2
AmdtDetailSymStdJIS
  3
"Amdt_StdImp|Product Description: AutoCAD Mechanical 2004 DX|Company: Autodesk"
 90
        0
280
     0
281
     0
  0
CLASS
  1
ACMSECTIONSTANDARDJIS
  2
AmdtSectionSymStdJIS
  3
"Amdt_StdImp|Product Description: AutoCAD Mechanical 2004 DX|Company: Autodesk"
 90
        0
280
     0
281
     0
  0
CLASS
  1
ACMCENTERLINESTANDARDJIS
  2
AmdtCenterLineStdJIS
  3
"Amdt_StdImp|Product Description: AutoCAD Mechanical 2004 DX|Company: Autodesk"
 90
        0
280
     0
281
     0
  0
CLASS
  1
ACMTHREADLINESTANDARDJIS
  2
AmdtThreadLineStdJIS
  3
"Amdt_StdImp|Product Description: AutoCAD Mechanical 2004 DX|Company: Autodesk"
 90
        0
280
     0
281
     0
  0
CLASS
  1
ACMNOTESTANDARDJIS
  2
AmdtNoteStdJIS
  3
"Amdt_StdImp|Product Description: AutoCAD Mechanical 2004 DX|Company: Autodesk"
 90
        0
280
     0
281
     0
  0
CLASS
  1
ACAMGHOLECHARTSTDJIS
  2
AcAmgHoleChartStdJIS
  3
ACMSYMBB_MODULE_NAME
 90
        0
280
     0
281
     0
  0
ENDSEC
  0
SECTION
  2
TABLES
  0
TABLE
  2
VPORT
  5
8
330
0
100
AcDbSymbolTable
 70
     3
  0
VPORT
  5
A74C
330
8
100
AcDbSymbolTableRecord
100
AcDbViewportTableRecord
  2
*Active
 70
     0
 10
0.0
 20
0.0
 11
1.0
 21
1.0
 12
-69.67088855154905
 22
-4.198550870008986
 13
0.0
 23
0.0
 14
2.5
 24
2.5
 15
10.0
 25
10.0
 16
0.0
 26
0.0
 36
1.0
 17
0.0
 27
0.0
 37
0.0
 40
129.2316783793246
 41
1.552631578947368
 42
50.0
 43
0.0
 44
0.0
 50
0.0
 51
0.0
 71
     0
 72
   100
 73
     1
 74
     3
 75
     0
 76
     0
 77
     0
 78
     0
281
     0
 65
     1
110
-0.0000000000002682
120
0.000000000000161
130
0.0
111
1.0
121
0.000000000000002
131
0.0
112
-0.000000000000002
122
1.0
132
0.0
 79
     0
146
0.0
  0
ENDTAB
  0
TABLE
  2
LTYPE
  5
5
330
0
100
AcDbSymbolTable
 70
    17
  0
LTYPE
  5
14
330
5
100
AcDbSymbolTableRecord
100
AcDbLinetypeTableRecord
  2
BYBLOCK
 70
     0
  3

 72
    65
 73
     0
 40
0.0
  0
LTYPE
  5
15
330
5
100
AcDbSymbolTableRecord
100
AcDbLinetypeTableRecord
  2
BYLAYER
 70
     0
  3

 72
    65
 73
     0
 40
0.0
  0
LTYPE
  5
16
330
5
100
AcDbSymbolTableRecord
100
AcDbLinetypeTableRecord
  2
CONTINUOUS
 70
     0
  3
Solid line
 72
    65
 73
     0
 40
0.0
  0
LTYPE
  5
4B
330
5
100
AcDbSymbolTableRecord
100
AcDbLinetypeTableRecord
  2
AM_ISO02W050
 70
     0
  3
__ __ __ __ __ __ __ __ __ __ __ __ __ __ __
 72
    65
 73
     2
 40
7.5
 49
6.0
 74
     0
 49
-1.5
 74
     0
  0
LTYPE
  5
4C
330
5
100
AcDbSymbolTableRecord
100
AcDbLinetypeTableRecord
  2
AM_ISO08W050
 70
     0
  3
____ . ____ . ____ . ____ . ____ . ____ . ____
 72
    65
 73
     4
 40
18.0
 49
12.0
 74
     0
 49
-1.5
 74
     0
 49
3.0
 74
     0
 49
-1.5
 74
     0
  0
LTYPE
  5
4D
330
5
100
AcDbSymbolTableRecord
100
AcDbLinetypeTableRecord
  2
AM_ISO09W050
 70
     0
  3
_____ . . _____ . . _____ . . ____ .. ____
 72
    65
 73
     6
 40
22.5
 49
12.0
 74
     0
 49
-1.5
 74
     0
 49
3.0
 74
     0
 49
-1.5
 74
     0
 49
3.0
 74
     0
 49
-1.5
 74
     0
  0
LTYPE
  5
4E
330
5
100
AcDbSymbolTableRecord
100
AcDbLinetypeTableRecord
  2
Amconstr
 70
     0
  3
_______________________
 72
    65
 73
     2
 40
9999.0
 49
9999.0
 74
     0
 49
0.0
 74
     0
  0
LTYPE
  5
4F
330
5
100
AcDbSymbolTableRecord
100
AcDbLinetypeTableRecord
  2
AM_ISO02W050x2
 70
     0
  3
 _ _ _ _ _ _ _ _ _ _ _ _
 72
    65
 73
     2
 40
3.75
 49
3.0
 74
     0
 49
-0.75
 74
     0
  0
LTYPE
  5
50
330
5
100
AcDbSymbolTableRecord
100
AcDbLinetypeTableRecord
  2
AM_ISO08W050x2
 70
     0
  3
__ . __ . __ . __ . __ . __
 72
    65
 73
     4
 40
9.0
 49
6.0
 74
     0
 49
-0.75
 74
     0
 49
1.5
 74
     0
 49
-0.75
 74
     0
  0
LTYPE
  5
53
330
5
100
AcDbSymbolTableRecord
100
AcDbLinetypeTableRecord
  2
Amzigzag
 70
     0
  3
/\/-/\/-/\/-/\/-/\/-/\/
 72
    65
 73
     2
 40
11.0001
 49
0.0001
 74
     4
 75
   135
340
52
 46
0.04
 50
0.0
 44
0.0
 45
0.0
 49
-11.0
 74
     0
  0
LTYPE
  5
166
330
5
100
AcDbSymbolTableRecord
100
AcDbLinetypeTableRecord
  2
ACJISTGL
 70
     0
  3
_ _ _ _ _
 72
    65
 73
     2
 40
3.0
 49
2.0
 74
     0
 49
-1.0
 74
     0
  0
LTYPE
  5
26A
330
5
100
AcDbSymbolTableRecord
100
AcDbLinetypeTableRecord
  2
ACJISTGB
 70
     0
  3
__ . . __ . .
 72
    65
 73
     6
 40
9.0
 49
4.0
 74
     0
 49
-1.0
 74
     0
 49
1.0
 74
     0
 49
-1.0
 74
     0
 49
1.0
 74
     0
 49
-1.0
 74
     0
  0
LTYPE
  5
A6C4
330
5
100
AcDbSymbolTableRecord
100
AcDbLinetypeTableRecord
  2
HIDDEN
 70
     0
  3
Hidden __ __ __ __ __ __ __ __ __ __ __ __ __ _
 72
    65
 73
     2
 40
9.524999999999998
 49
6.349999999999999
 74
     0
 49
-3.174999999999999
 74
     0
  0
LTYPE
  5
A6C5
330
5
100
AcDbSymbolTableRecord
100
AcDbLinetypeTableRecord
  2
PHANTOM2
 70
     0
  3
Phantom (.5x) ___ _ _ ___ _ _ ___ _ _ ___ _ _
 72
    65
 73
     6
 40
31.75
 49
15.875
 74
     0
 49
-3.174999999999999
 74
     0
 49
3.174999999999999
 74
     0
 49
-3.174999999999999
 74
     0
 49
3.174999999999999
 74
     0
 49
-3.174999999999999
 74
     0
  0
LTYPE
  5
A6C6
330
5
100
AcDbSymbolTableRecord
100
AcDbLinetypeTableRecord
  2
CENTER
 70
     0
  3
__ . __
 72
    65
 73
     4
 40
7.0
 49
4.0
 74
     0
 49
-1.0
 74
     0
 49
1.0
 74
     0
 49
-1.0
 74
     0
  0
LTYPE
  5
A6F7
330
5
100
AcDbSymbolTableRecord
100
AcDbLinetypeTableRecord
  2
ACISOWELD
 70
     0
  3
_ _ _ _ _
 72
    65
 73
     2
 40
2.0
 49
2.0
 74
     0
 49
-1.0
 74
     0
  0
LTYPE
  5
A6FA
330
5
100
AcDbSymbolTableRecord
100
AcDbLinetypeTableRecord
  2
ACISOTGB
 70
     0
  3
__ . . __ . .
 72
    65
 73
     6
 40
9.0
 49
4.0
 74
     0
 49
-1.0
 74
     0
 49
1.0
 74
     0
 49
-1.0
 74
     0
 49
1.0
 74
     0
 49
-1.0
 74
     0
  0
LTYPE
  5
A6FB
330
5
100
AcDbSymbolTableRecord
100
AcDbLinetypeTableRecord
  2
ACISOTGL
 70
     0
  3
_ _ _ _ _
 72
    65
 73
     2
 40
3.0
 49
2.0
 74
     0
 49
-1.0
 74
     0
  0
LTYPE
  5
A724
330
5
100
AcDbSymbolTableRecord
100
AcDbLinetypeTableRecord
  2
ACJISWELD
 70
     0
  3
_ _ _ _ _
 72
    65
 73
     2
 40
2.0
 49
2.0
 74
     0
 49
-1.0
 74
     0
  0
ENDTAB
  0
TABLE
  2
LAYER
  5
2
330
0
100
AcDbSymbolTable
 70
     7
  0
LAYER
  5
10
330
2
100
AcDbSymbolTableRecord
100
AcDbLayerTableRecord
  2
0
 70
     0
 62
     7
  6
CONTINUOUS
370
    -3
390
F
  0
LAYER
  5
3F9
330
2
100
AcDbSymbolTableRecord
100
AcDbLayerTableRecord
  2
AM_0
 70
     0
 62
     7
  6
CONTINUOUS
370
    -3
390
F
  0
LAYER
  5
BA4
330
2
100
AcDbSymbolTableRecord
100
AcDbLayerTableRecord
  2
AM_5
 70
     0
 62
     3
  6
CONTINUOUS
370
    -3
390
F
  0
LAYER
  5
BA6
330
2
100
AcDbSymbolTableRecord
100
AcDbLayerTableRecord
  2
AM_7
 70
     0
 62
     4
  6
AM_ISO08W050
370
    -3
390
F
  0
LAYER
  5
E64
330
2
100
AcDbSymbolTableRecord
100
AcDbLayerTableRecord
  2
AM_6
 70
     0
 62
     2
  6
CONTINUOUS
370
    -3
390
F
  0
LAYER
  5
F4D
330
2
100
AcDbSymbolTableRecord
100
AcDbLayerTableRecord
  2
DEFPOINTS
 70
     0
 62
     7
  6
CONTINUOUS
290
     0
370
    -3
390
F
  0
LAYER
  5
4E80
330
2
100
AcDbSymbolTableRecord
100
AcDbLayerTableRecord
  2
AM_11
 70
     0
 62
     3
  6
AM_ISO09W050
370
    -3
390
F
  0
ENDTAB
  0
TABLE
  2
STYLE
  5
3
330
0
100
AcDbSymbolTable
 70
     7
  0
STYLE
  5
11
330
3
100
AcDbSymbolTableRecord
100
AcDbTextStyleTableRecord
  2
STANDARD
 70
     0
 40
0.0
 41
1.0
 50
0.0
 71
     0
 42
2.5
  3
simplex.shx
  4
EXTFONT.SHX
  0
STYLE
  5
52
330
3
100
AcDbSymbolTableRecord
100
AcDbTextStyleTableRecord
  2

 70
     1
 40
0.0
 41
1.0
 50
0.0
 71
     0
 42
2.5
  3
ltypeshp.shx
  4

  0
STYLE
  5
6B
330
3
100
AcDbSymbolTableRecord
100
AcDbTextStyleTableRecord
  2
ASAMI
 70
     0
 40
0.0
 41
1.0
 50
0.0
 71
     0
 42
2.5
  3
simplex.shx
  4
EXTFONT.SHX
  0
STYLE
  5
262
330
3
100
AcDbSymbolTableRecord
100
AcDbTextStyleTableRecord
  2
ACJISTS
 70
     0
 40
1.0
 41
1.0
 50
0.0
 71
     0
 42
1.0
  3
isocp.shx
  4
extfont.shx
  0
STYLE
  5
269
330
3
100
AcDbSymbolTableRecord
100
AcDbTextStyleTableRecord
  2
ACJISGDT
 70
     0
 40
0.0
 41
1.0
 50
0.0
 71
     0
 42
1.0
  3
amgdt.shx
  4

  0
STYLE
  5
A6F1
330
3
100
AcDbSymbolTableRecord
100
AcDbTextStyleTableRecord
  2
ACISOTS
 70
     0
 40
3.799999999999999
 41
1.0
 50
0.0
 71
     0
 42
3.799999999999999
  3
isocp.shx
  4
extfont.shx
  0
STYLE
  5
A6F5
330
3
100
AcDbSymbolTableRecord
100
AcDbTextStyleTableRecord
  2
ACISOGDT
 70
     0
 40
0.0
 41
1.0
 50
0.0
 71
     0
 42
2.5
  3
amgdt.shx
  4
extfont.shx
  0
ENDTAB
  0
TABLE
  2
VIEW
  5
6
330
0
100
AcDbSymbolTable
 70
     0
  0
ENDTAB
  0
TABLE
  2
UCS
  5
7
330
0
100
AcDbSymbolTable
 70
     0
  0
ENDTAB
  0
TABLE
  2
APPID
  5
9
330
0
100
AcDbSymbolTable
 70
    33
  0
APPID
  5
12
330
9
100
AcDbSymbolTableRecord
100
AcDbRegAppTableRecord
  2
ACAD
 70
     0
  0
APPID
  5
30
330
9
100
AcDbSymbolTableRecord
100
AcDbRegAppTableRecord
  2
MCAD_NO_VIS
 70
     0
  0
APPID
  5
31
330
9
100
AcDbSymbolTableRecord
100
AcDbRegAppTableRecord
  2
ACAD_TEMP_GRAPHIC
 70
     0
  0
APPID
  5
2C2
330
9
100
AcDbSymbolTableRecord
100
AcDbRegAppTableRecord
  2
GENIUS_GENDTOL_13
 70
     0
  0
APPID
  5
339
330
9
100
AcDbSymbolTableRecord
100
AcDbRegAppTableRecord
  2
GENIUS_GENODEF_13
 70
     0
  0
APPID
  5
33A
330
9
100
AcDbSymbolTableRecord
100
AcDbRegAppTableRecord
  2
GENIUS_GENOBJ-N-RSBK_13
 70
     0
  0
APPID
  5
33B
330
9
100
AcDbSymbolTableRecord
100
AcDbRegAppTableRecord
  2
GENIUS_GENOBJ-N-LIB_13
 70
     0
  0
APPID
  5
33C
330
9
100
AcDbSymbolTableRecord
100
AcDbRegAppTableRecord
  2
GENIUS_GENSCALE_13
 70
     0
  0
APPID
  5
378
330
9
100
AcDbSymbolTableRecord
100
AcDbRegAppTableRecord
  2
GENIUS_GENDIMSH_14
 70
     0
  0
APPID
  5
BB0
330
9
100
AcDbSymbolTableRecord
100
AcDbRegAppTableRecord
  2
GENIUS_GENOBJ-N-CEN_13
 70
     0
  0
APPID
  5
BB1
330
9
100
AcDbSymbolTableRecord
100
AcDbRegAppTableRecord
  2
GENIUS_GENFIL_13
 70
     0
  0
APPID
  5
BB2
330
9
100
AcDbSymbolTableRecord
100
AcDbRegAppTableRecord
  2
GENIUS_GENOBJ-N-CHA_13
 70
     0
  0
APPID
  5
1FAF
330
9
100
AcDbSymbolTableRecord
100
AcDbRegAppTableRecord
  2
GENIUS_GENOBJ-N-CRS_13
 70
     0
  0
APPID
  5
1FB0
330
9
100
AcDbSymbolTableRecord
100
AcDbRegAppTableRecord
  2
GENIUS_GENOENT_13
 70
     0
  0
APPID
  5
1FB1
330
9
100
AcDbSymbolTableRecord
100
AcDbRegAppTableRecord
  2
GENIUS_GENOREF_13
 70
     0
  0
APPID
  5
1FB2
330
9
100
AcDbSymbolTableRecord
100
AcDbRegAppTableRecord
  2
GENIUS_GENOLIS_13
 70
     0
  0
APPID
  5
1FB7
330
9
100
AcDbSymbolTableRecord
100
AcDbRegAppTableRecord
  2
GENIUS_GENOBJ-N-FIL_13
 70
     0
  0
APPID
  5
22A8
330
9
100
AcDbSymbolTableRecord
100
AcDbRegAppTableRecord
  2
GEVID1056506048
 70
     0
  0
APPID
  5
22A9
330
9
100
AcDbSymbolTableRecord
100
AcDbRegAppTableRecord
  2
GEVDC
 70
     0
  0
APPID
  5
22AC
330
9
100
AcDbSymbolTableRecord
100
AcDbRegAppTableRecord
  2
GENIUS_GENBH_13
 70
     0
  0
APPID
  5
22B8
330
9
100
AcDbSymbolTableRecord
100
AcDbRegAppTableRecord
  2
GENIUS_GENOBJ-NBEHI-BHF_13
 70
     0
  0
APPID
  5
22BA
330
9
100
AcDbSymbolTableRecord
100
AcDbRegAppTableRecord
  2
GENIUS_GENOBJ-NBEHI-BHB_13
 70
     0
  0
APPID
  5
35C9
330
9
100
AcDbSymbolTableRecord
100
AcDbRegAppTableRecord
  2
GENIUS_GENREC_14
 70
     0
  0
APPID
  5
35CA
330
9
100
AcDbSymbolTableRecord
100
AcDbRegAppTableRecord
  2
GENIUS_GENOBJ-N-REC_13
 70
     0
  0
APPID
  5
A68D
330
9
100
AcDbSymbolTableRecord
100
AcDbRegAppTableRecord
  2
ACATTRIBSERVICES
 70
     0
  0
APPID
  5
A68E
330
9
100
AcDbSymbolTableRecord
100
AcDbRegAppTableRecord
  2
AD_DRAW
 70
     0
  0
APPID
  5
A68F
330
9
100
AcDbSymbolTableRecord
100
AcDbRegAppTableRecord
  2
DESIGNERASSEMBLIES
 70
     0
  0
APPID
  5
A690
330
9
100
AcDbSymbolTableRecord
100
AcDbRegAppTableRecord
  2
ACADM_DIM_EDIT
 70
     0
  0
APPID
  5
A691
330
9
100
AcDbSymbolTableRecord
100
AcDbRegAppTableRecord
  2
AMDT_DM_ADJ
 70
     0
  0
APPID
  5
A692
330
9
100
AcDbSymbolTableRecord
100
AcDbRegAppTableRecord
  2
ACAD_DSTYLE_DIMTEXT_FILL
 70
     0
  0
APPID
  5
A693
330
9
100
AcDbSymbolTableRecord
100
AcDbRegAppTableRecord
  2
ACAD_PSEXT
 70
     0
  0
APPID
  5
A746
330
9
100
AcDbSymbolTableRecord
100
AcDbRegAppTableRecord
  2
GENIUS_GENSCREG_15
 70
     0
  0
APPID
  5
A747
330
9
100
AcDbSymbolTableRecord
100
AcDbRegAppTableRecord
  2
GENIUS_GENOBJ-N-SDF_13
 70
     0
  0
ENDTAB
  0
TABLE
  2
DIMSTYLE
  5
A
330
0
100
AcDbSymbolTable
 70
    16
100
AcDbDimStyleTable
 71
     0
  0
DIMSTYLE
105
58
330
A
100
AcDbSymbolTableRecord
100
AcDbDimStyleTableRecord
  2
AM_JIS
 70
     0
  4
"
 41
2.5
 42
1.0
 43
10.0
 44
1.0
 47
0.1
 48
0.1000000001
 73
     0
 74
     0
 77
     3
 78
     8
 79
     2
140
3.799999999999999
141
0.0
143
0.0393701
146
0.71
147
1.5
172
     1
176
   256
177
   256
178
     2
271
     2
272
     2
275
     1
283
     0
284
     8
340
11
341
59
342
59
371
    -1
372
    -1
  0
DIMSTYLE
105
5F
330
A
100
AcDbSymbolTableRecord
100
AcDbDimStyleTableRecord
  2
AM_JIS$3
 70
     0
  4
"
 41
2.5
 42
1.0
 43
10.0
 44
1.0
 47
0.1
 48
0.1000000001
 73
     0
 77
     3
 78
     8
 79
     2
140
3.799999999999999
141
0.0
143
0.0393701
146
0.71
147
1.5
176
   256
177
   256
178
     2
271
     2
272
     2
275
     1
283
     0
284
     8
288
     1
289
     0
340
11
341
59
342
59
371
    -1
372
    -1
  0
DIMSTYLE
105
60
330
A
100
AcDbSymbolTableRecord
100
AcDbDimStyleTableRecord
  2
AM_JIS$4
 70
     0
  4
"
 41
2.5
 42
1.0
 43
10.0
 44
1.0
 47
0.1
 48
0.1000000001
 73
     0
 77
     3
 78
     8
 79
     2
140
3.799999999999999
141
0.0
143
0.0393701
146
0.71
147
1.5
176
   256
177
   256
178
     2
271
     2
272
     2
275
     1
283
     0
284
     8
288
     1
289
     0
340
11
341
59
342
59
371
    -1
372
    -1
  0
DIMSTYLE
105
61
330
A
100
AcDbSymbolTableRecord
100
AcDbDimStyleTableRecord
  2
AM_JIS$6
 70
     0
  4
"
 41
2.5
 42
1.0
 43
10.0
 44
1.0
 47
0.1
 48
0.1000000001
 73
     0
 74
     0
 78
     8
 79
     2
140
3.799999999999999
141
0.0
143
0.0393701
146
0.71
147
1.5
172
     1
176
   256
177
   256
178
     2
271
     2
272
     2
275
     1
283
     0
284
     8
340
11
341
59
342
59
371
    -1
372
    -1
  0
DIMSTYLE
105
62
330
A
100
AcDbSymbolTableRecord
100
AcDbDimStyleTableRecord
  2
AM_JIS$7
 70
     0
  4
"
 41
2.5
 42
1.0
 43
10.0
 44
1.0
 47
0.1
 48
0.1000000001
 73
     0
 74
     0
 77
     3
 78
     8
 79
     2
140
5.0
141
0.0
143
0.0393701
146
0.71
147
1.5
172
     1
176
   256
177
   256
178
     2
271
     2
272
     2
275
     1
283
     0
284
     8
340
11
341
59
342
59
371
    -1
372
    -1
  0
DIMSTYLE
105
63
330
A
100
AcDbSymbolTableRecord
100
AcDbDimStyleTableRecord
  2
AM_JIS$SF
 70
     0
  4
"
 41
2.5
 42
1.0
 43
10.0
 44
1.0
 47
0.1
 48
0.1
 73
     0
 74
     0
 75
     1
 76
     1
 77
     3
 78
     8
 79
     2
140
3.5
141
0.0
143
0.0393701
146
0.71
147
1.5
172
     1
176
   256
177
   256
178
     2
271
     2
272
     3
274
     4
283
     0
284
     8
340
11
341
59
342
59
343
59
344
59
371
    -1
372
    -1
  0
DIMSTYLE
105
68
330
A
100
AcDbSymbolTableRecord
100
AcDbDimStyleTableRecord
  2
AM_JIS$SH
 70
     0
  4
"
 41
2.5
 42
1.0
 43
10.0
 44
1.0
 47
0.1
 48
0.1
 73
     0
 74
     0
 75
     1
 76
     1
 77
     3
 78
     8
 79
     2
140
3.5
141
0.0
143
0.0393701
144
2.0
146
0.71
147
1.5
172
     1
173
     1
176
   256
177
   256
178
     2
271
     2
272
     3
274
     4
283
     0
284
     8
340
11
341
59
342
59
343
64
344
59
371
    -1
372
    -1
  0
DIMSTYLE
105
B34
330
A
100
AcDbSymbolTableRecord
100
AcDbDimStyleTableRecord
  2
AM_JIS$2
 70
     0
  4
"
 40
0.5
 41
2.5
 42
1.0
 43
12.0
 44
1.0
 47
0.1
 48
0.1
 73
     0
 74
     0
 77
     3
 78
     8
140
3.2
141
0.0
143
0.0393701
146
0.71
147
1.5
172
     1
176
   256
177
   256
178
     2
271
     3
272
     3
283
     0
340
6B
341
59
342
59
  0
DIMSTYLE
105
3B48
102
{ACAD_REACTORS
330
A07F
330
A125
330
A1BA
330
A246
330
A2ED
330
A382
102
}
330
A
100
AcDbSymbolTableRecord
100
AcDbDimStyleTableRecord
  2
AM_JIS$0
 70
     0
  4
"
 41
2.5
 42
0.0
 43
10.0
 44
1.0
 47
0.1
 48
0.1000000001
 73
     0
 74
     0
 77
     3
 78
     1
140
3.799999999999998
141
0.0
143
0.0393701
146
0.71
147
1.5
172
     1
176
     3
177
     3
178
     2
271
     2
272
     2
275
     1
283
     0
284
     8
340
11
341
59
342
59
  0
DIMSTYLE
105
A710
330
A
100
AcDbSymbolTableRecord
100
AcDbDimStyleTableRecord
  2
AM_ISO
 70
     0
  4
"
 41
2.5
 42
1.0
 43
10.0
 44
1.0
 47
0.1
 48
0.1
 73
     0
 74
     0
 77
     1
 78
     8
 79
     2
140
3.5
141
0.0
143
0.0393701
146
0.71
147
1.5
172
     1
176
   256
177
   256
178
     2
271
     2
272
     3
274
     4
283
     0
284
     8
340
11
371
    -1
372
    -1
  0
DIMSTYLE
105
A711
330
A
100
AcDbSymbolTableRecord
100
AcDbDimStyleTableRecord
  2
AM_ISO$3
 70
     0
  4
"
 41
2.5
 42
1.0
 43
10.0
 44
1.0
 47
0.1
 48
0.1
 73
     0
 77
     1
 78
     8
 79
     2
140
3.5
141
0.0
143
0.0393701
146
0.71
147
1.5
176
   256
177
   256
178
     2
271
     2
272
     3
274
     4
283
     0
284
     8
288
     1
289
     0
340
11
371
    -1
372
    -1
  0
DIMSTYLE
105
A712
330
A
100
AcDbSymbolTableRecord
100
AcDbDimStyleTableRecord
  2
AM_ISO$4
 70
     0
  4
"
 41
2.5
 42
1.0
 43
10.0
 44
1.0
 47
0.1
 48
0.1
 73
     0
 77
     1
 78
     8
 79
     2
140
3.5
141
0.0
143
0.0393701
146
0.71
147
1.5
176
   256
177
   256
178
     2
271
     2
272
     3
274
     4
283
     0
284
     8
288
     1
289
     0
340
11
371
    -1
372
    -1
  0
DIMSTYLE
105
A713
330
A
100
AcDbSymbolTableRecord
100
AcDbDimStyleTableRecord
  2
AM_ISO$6
 70
     0
  4
"
 41
2.5
 42
1.0
 43
10.0
 44
1.0
 47
0.1
 48
0.1
 73
     0
 74
     0
 78
     8
 79
     2
140
3.5
141
0.0
143
0.0393701
146
0.71
147
1.5
172
     1
176
   256
177
   256
178
     2
271
     2
272
     3
274
     4
283
     0
284
     8
340
11
371
    -1
372
    -1
  0
DIMSTYLE
105
A714
330
A
100
AcDbSymbolTableRecord
100
AcDbDimStyleTableRecord
  2
AM_ISO$7
 70
     0
  4
"
 41
2.5
 42
1.0
 43
10.0
 44
1.0
 47
0.1
 48
0.1
 73
     0
 74
     0
 77
     1
 78
     8
 79
     2
140
5.0
141
0.0
143
0.0393701
146
0.71
147
1.5
172
     1
176
   256
177
   256
178
     2
271
     2
272
     3
274
     4
283
     0
284
     8
340
11
371
    -1
372
    -1
  0
DIMSTYLE
105
A715
330
A
100
AcDbSymbolTableRecord
100
AcDbDimStyleTableRecord
  2
AM_ISO$SF
 70
     0
  4
"
 41
2.5
 42
1.0
 43
10.0
 44
1.0
 47
0.1
 48
0.1
 73
     0
 74
     0
 75
     1
 76
     1
 77
     1
 78
     8
 79
     2
140
3.5
141
0.0
143
0.0393701
146
0.71
147
1.5
172
     1
176
   256
177
   256
178
     2
271
     2
272
     3
274
     4
283
     0
284
     8
340
11
371
    -1
372
    -1
  0
DIMSTYLE
105
A716
330
A
100
AcDbSymbolTableRecord
100
AcDbDimStyleTableRecord
  2
AM_ISO$SH
 70
     0
  4
"
 41
2.5
 42
1.0
 43
10.0
 44
1.0
 47
0.1
 48
0.1
 73
     0
 74
     0
 75
     1
 76
     1
 77
     1
 78
     8
 79
     2
140
3.5
141
0.0
143
0.0393701
144
2.0
146
0.71
147
1.5
172
     1
173
     1
176
   256
177
   256
178
     2
271
     2
272
     3
274
     4
283
     0
284
     8
340
11
343
64
371
    -1
372
    -1
  0
ENDTAB
  0
TABLE
  2
BLOCK_RECORD
  5
1
330
0
100
AcDbSymbolTable
 70
     9
  0
BLOCK_RECORD
  5
1F
102
{ACAD_XDICTIONARY
360
74
102
}
330
1
100
AcDbSymbolTableRecord
100
AcDbBlockTableRecord
  2
*MODEL_SPACE
340
A688
  0
BLOCK_RECORD
  5
101
102
{ACAD_XDICTIONARY
360
A646
102
}
330
1
100
AcDbSymbolTableRecord
100
AcDbBlockTableRecord
  2
*PAPER_SPACE
340
A689
  0
BLOCK_RECORD
  5
59
330
1
100
AcDbSymbolTableRecord
100
AcDbBlockTableRecord
  2
_Open30
340
0
  0
BLOCK_RECORD
  5
64
330
1
100
AcDbSymbolTableRecord
100
AcDbBlockTableRecord
  2
GENAXEH
340
0
  0
BLOCK_RECORD
  5
A080
330
1
100
AcDbSymbolTableRecord
100
AcDbBlockTableRecord
  2
*D2
340
0
  0
BLOCK_RECORD
  5
A126
330
1
100
AcDbSymbolTableRecord
100
AcDbBlockTableRecord
  2
*D3
340
0
  0
BLOCK_RECORD
  5
A1BB
330
1
100
AcDbSymbolTableRecord
100
AcDbBlockTableRecord
  2
*D4
340
0
  0
BLOCK_RECORD
  5
A247
330
1
100
AcDbSymbolTableRecord
100
AcDbBlockTableRecord
  2
*D5
340
0
  0
BLOCK_RECORD
  5
A2EE
330
1
100
AcDbSymbolTableRecord
100
AcDbBlockTableRecord
  2
*D6
340
0
  0
BLOCK_RECORD
  5
A383
330
1
100
AcDbSymbolTableRecord
100
AcDbBlockTableRecord
  2
*D7
340
0
  0
ENDTAB
  0
ENDSEC
  0
SECTION
  2
BLOCKS
  0
BLOCK
  5
20
330
1F
100
AcDbEntity
  8
0
100
AcDbBlockBegin
  2
*MODEL_SPACE
 70
     0
 10
0.0
 20
0.0
 30
0.0
  3
*MODEL_SPACE
  1

  0
ENDBLK
  5
21
330
1F
100
AcDbEntity
  8
0
100
AcDbBlockEnd
  0
BLOCK
  5
103
330
101
100
AcDbEntity
 67
     1
  8
0
100
AcDbBlockBegin
  2
*PAPER_SPACE
 70
     0
 10
0.0
 20
0.0
 30
0.0
  3
*PAPER_SPACE
  1

  0
ENDBLK
  5
104
330
101
100
AcDbEntity
 67
     1
  8
0
100
AcDbBlockEnd
  0
BLOCK
  5
A738
330
59
100
AcDbEntity
  8
0
100
AcDbBlockBegin
  2
_Open30
 70
     0
 10
0.0
 20
0.0
 30
0.0
  3
_Open30
  1

  0
LINE
  5
A739
330
59
100
AcDbEntity
  8
0
  6
ByBlock
 62
     0
370
    -2
100
AcDbLine
 10
-1.0
 20
0.26794919
 30
0.0
 11
0.0
 21
0.0
 31
0.0
  0
LINE
  5
A73A
330
59
100
AcDbEntity
  8
0
  6
ByBlock
 62
     0
370
    -2
100
AcDbLine
 10
0.0
 20
0.0
 30
0.0
 11
-1.0
 21
-0.26794919
 31
0.0
  0
LINE
  5
A73B
330
59
100
AcDbEntity
  8
0
  6
ByBlock
 62
     0
370
    -2
100
AcDbLine
 10
0.0
 20
0.0
 30
0.0
 11
-1.0
 21
0.0
 31
0.0
  0
ENDBLK
  5
A73C
330
59
100
AcDbEntity
  8
0
100
AcDbBlockEnd
  0
BLOCK
  5
A718
330
64
100
AcDbEntity
  8
0
100
AcDbBlockBegin
  2
GENAXEH
 70
     0
 10
0.0
 20
0.0
 30
0.0
  3
GENAXEH
  1

  0
LINE
  5
A719
330
64
100
AcDbEntity
  8
0
100
AcDbLine
 10
-1.0
 20
0.0
 30
0.0
 11
1.0
 21
0.0
 31
0.0
  0
ENDBLK
  5
A71A
330
64
100
AcDbEntity
  8
0
100
AcDbBlockEnd
  0
BLOCK
  5
A08A
330
A080
100
AcDbEntity
  8
0
100
AcDbBlockBegin
  2
*D2
 70
     1
 10
0.0
 20
0.0
 30
0.0
  3
*D2
  1

  0
LINE
  5
A648
330
A080
100
AcDbEntity
  8
AM_5
100
AcDbLine
 10
0.4999999999996491
 20
20.00000000000015
 30
0.0
 11
7.499999999999735
 21
20.00000000000017
 31
0.0
  0
LINE
  5
A649
330
A080
100
AcDbEntity
  8
AM_5
100
AcDbLine
 10
0.4999999999998145
 20
-19.99999999999983
 30
0.0
 11
7.499999999999815
 21
-19.99999999999982
 31
0.0
  0
LINE
  5
A64A
330
A080
100
AcDbEntity
  8
AM_5
100
AcDbLine
 10
6.999999999999737
 20
18.75000000000017
 30
0.0
 11
6.999999999999812
 21
-18.74999999999982
 31
0.0
  0
INSERT
  5
A64B
330
A080
100
AcDbEntity
  8
AM_5
100
AcDbBlockReference
  2
_Open30
 10
6.999999999999735
 20
20.00000000000017
 30
0.0
 41
1.25
 42
1.25
 43
1.25
 50
90.0000000000001
  0
INSERT
  5
A64C
330
A080
100
AcDbEntity
  8
AM_5
100
AcDbBlockReference
  2
_Open30
 10
6.999999999999815
 20
-19.99999999999982
 30
0.0
 41
1.25
 42
1.25
 43
1.25
 50
270.0000000000001
  0
MTEXT
  5
A64D
330
A080
100
AcDbEntity
  8
AM_5
 62
     2
100
AcDbMText
 10
5.449999999999775
 20
0.0000000000001742
 30
0.0
 40
1.6
 41
0.0
 71
     5
 72
     1
  1
%%c40
  7
ASAMI
 11
-0.000000000000002
 21
1.0
 31
0.0
 73
     1
 44
1.0
1001
ACAD
1000
MTEXTBEGIN
1070
    73
1070
     1
1070
    44
1040
1.0
1070
    74
1070
     0
1000
MTEXTEND
  0
POINT
  5
A64E
330
A080
100
AcDbEntity
  8
DEFPOINTS
 62
     0
100
AcDbPoint
 10
-0.0000000000003065
 20
20.00000000000015
 30
0.0
  0
POINT
  5
A64F
330
A080
100
AcDbEntity
  8
DEFPOINTS
 62
     0
100
AcDbPoint
 10
-0.0000000000002299
 20
-19.99999999999983
 30
0.0
  0
POINT
  5
A650
330
A080
100
AcDbEntity
  8
DEFPOINTS
 62
     0
100
AcDbPoint
 10
6.999999999999769
 20
-19.99999999999983
 30
0.0
  0
ENDBLK
  5
A08B
330
A080
100
AcDbEntity
  8
0
100
AcDbBlockEnd
  0
BLOCK
  5
A130
330
A126
100
AcDbEntity
  8
0
100
AcDbBlockBegin
  2
*D3
 70
     1
 10
0.0
 20
0.0
 30
0.0
  3
*D3
  1

  0
LINE
  5
A651
330
A126
100
AcDbEntity
  8
AM_5
100
AcDbLine
 10
-53.00000000000044
 20
20.39579039401731
 30
0.0
 11
-53.00000000000046
 21
28.5000038146967
 31
0.0
  0
LINE
  5
A652
330
A126
100
AcDbEntity
  8
AM_5
100
AcDbLine
 10
-0.0000000000003806
 20
20.43210220336918
 30
0.0
 11
-0.0000000000003964
 21
28.5000038146968
 31
0.0
  0
LINE
  5
A653
330
A126
100
AcDbEntity
  8
AM_5
100
AcDbLine
 10
-51.75000000000046
 20
28.0000038146967
 30
0.0
 11
-1.250000000000395
 21
28.00000381469681
 31
0.0
  0
INSERT
  5
A654
330
A126
100
AcDbEntity
  8
AM_5
100
AcDbBlockReference
  2
_Open30
 10
-53.00000000000046
 20
28.0000038146967
 30
0.0
 41
1.25
 42
1.25
 43
1.25
 50
180.0000000000001
  0
INSERT
  5
A655
330
A126
100
AcDbEntity
  8
AM_5
100
AcDbBlockReference
  2
_Open30
 10
-0.0000000000003954
 20
28.00000381469681
 30
0.0
 41
1.25
 42
1.25
 43
1.25
 50
0.0000000000001018
  0
MTEXT
  5
A656
330
A126
100
AcDbEntity
  8
AM_5
 62
     2
100
AcDbMText
 10
-26.50000000000042
 20
29.55000381469675
 30
0.0
 40
1.6
 41
0.0
 71
     5
 72
     1
  1
53
  7
ASAMI
 73
     1
 44
1.0
1001
ACAD
1000
MTEXTBEGIN
1070
    73
1070
     1
1070
    44
1040
1.0
1070
    74
1070
     0
1000
MTEXTEND
  0
POINT
  5
A657
330
A126
100
AcDbEntity
  8
DEFPOINTS
 62
     0
100
AcDbPoint
 10
-53.00000000000039
 20
19.89579039401742
 30
0.0
  0
POINT
  5
A658
330
A126
100
AcDbEntity
  8
DEFPOINTS
 62
     0
100
AcDbPoint
 10
-0.0000000000003393
 20
19.93210220336918
 30
0.0
  0
POINT
  5
A659
330
A126
100
AcDbEntity
  8
DEFPOINTS
 62
     0
100
AcDbPoint
 10
-0.0000000000003388
 20
28.00000381469681
 30
0.0
  0
ENDBLK
  5
A131
330
A126
100
AcDbEntity
  8
0
100
AcDbBlockEnd
  0
BLOCK
  5
A1C5
330
A1BB
100
AcDbEntity
  8
0
100
AcDbBlockBegin
  2
*D4
 70
     1
 10
0.0
 20
0.0
 30
0.0
  3
*D4
  1

  0
LINE
  5
A65A
330
A1BB
100
AcDbEntity
  8
AM_5
100
AcDbLine
 10
-0.0000000000001894
 20
-20.49999999999983
 30
0.0
 11
-0.000000000000188
 21
-28.49999618530328
 31
0.0
  0
LINE
  5
A65B
330
A1BB
100
AcDbEntity
  8
AM_5
100
AcDbLine
 10
-65.00000023841828
 20
-19.09999847412109
 30
0.0
 11
-65.00000023841828
 21
-28.49999618530329
 31
0.0
  0
LINE
  5
A65C
330
A1BB
100
AcDbEntity
  8
AM_5
100
AcDbLine
 10
-1.250000000000188
 20
-27.99999618530328
 30
0.0
 11
-63.75000023841825
 21
-27.99999618530329
 31
0.0
  0
INSERT
  5
A65D
330
A1BB
100
AcDbEntity
  8
AM_5
100
AcDbBlockReference
  2
_Open30
 10
-0.000000000000188
 20
-27.99999618530328
 30
0.0
 41
1.25
 42
1.25
 43
1.25
  0
INSERT
  5
A65E
330
A1BB
100
AcDbEntity
  8
AM_5
100
AcDbBlockReference
  2
_Open30
 10
-65.00000023841828
 20
-27.99999618530329
 30
0.0
 41
1.25
 42
1.25
 43
1.25
 50
180.0
  0
MTEXT
  5
A65F
330
A1BB
100
AcDbEntity
  8
AM_5
 62
     2
100
AcDbMText
 10
-32.50000011920922
 20
-26.44999618530329
 30
0.0
 40
1.6
 41
0.0
 71
     5
 72
     1
  1
65
  7
ASAMI
 73
     1
 44
1.0
1001
ACAD
1000
MTEXTBEGIN
1070
    73
1070
     1
1070
    44
1040
1.0
1070
    74
1070
     0
1000
MTEXTEND
  0
POINT
  5
A660
330
A1BB
100
AcDbEntity
  8
DEFPOINTS
 62
     0
100
AcDbPoint
 10
-0.0000000000002299
 20
-19.99999999999983
 30
0.0
  0
POINT
  5
A661
330
A1BB
100
AcDbEntity
  8
DEFPOINTS
 62
     0
100
AcDbPoint
 10
-65.00000023841829
 20
-18.59999847412096
 30
0.0
  0
POINT
  5
A662
330
A1BB
100
AcDbEntity
  8
DEFPOINTS
 62
     0
100
AcDbPoint
 10
-65.00000023841831
 20
-27.99999618530316
 30
0.0
  0
ENDBLK
  5
A1C6
330
A1BB
100
AcDbEntity
  8
0
100
AcDbBlockEnd
  0
BLOCK
  5
A251
330
A247
100
AcDbEntity
  8
0
100
AcDbBlockBegin
  2
*D5
 70
     1
 10
0.0
 20
0.0
 30
0.0
  3
*D5
  1

  0
LINE
  5
A663
330
A247
100
AcDbEntity
  8
AM_5
100
AcDbLine
 10
-64.99999952316257
 20
-19.09999847412109
 30
0.0
 11
-64.99999952316257
 21
-28.49999618530343
 31
0.0
  0
LINE
  5
A664
330
A247
100
AcDbEntity
  8
AM_5
100
AcDbLine
 10
-150.0000038146961
 20
-19.16099739074747
 30
0.0
 11
-150.0000038146961
 21
-28.49999618530345
 31
0.0
  0
LINE
  5
A665
330
A247
100
AcDbEntity
  8
AM_5
100
AcDbLine
 10
-66.24999952316257
 20
-27.99999618530344
 30
0.0
 11
-148.7500038146961
 21
-27.99999618530346
 31
0.0
  0
INSERT
  5
A666
330
A247
100
AcDbEntity
  8
AM_5
100
AcDbBlockReference
  2
_Open30
 10
-64.99999952316257
 20
-27.99999618530343
 30
0.0
 41
1.25
 42
1.25
 43
1.25
  0
INSERT
  5
A667
330
A247
100
AcDbEntity
  8
AM_5
100
AcDbBlockReference
  2
_Open30
 10
-150.0000038146961
 20
-27.99999618530346
 30
0.0
 41
1.25
 42
1.25
 43
1.25
 50
180.0
  0
MTEXT
  5
A668
330
A247
100
AcDbEntity
  8
AM_5
 62
     2
100
AcDbMText
 10
-107.5000016689293
 20
-26.44999618530345
 30
0.0
 40
1.6
 41
0.0
 71
     5
 72
     1
  1
85
  7
ASAMI
 73
     1
 44
1.0
1001
ACAD
1000
MTEXTBEGIN
1070
    73
1070
     1
1070
    44
1040
1.0
1070
    74
1070
     0
1000
MTEXTEND
  0
POINT
  5
A669
330
A247
100
AcDbEntity
  8
DEFPOINTS
 62
     0
100
AcDbPoint
 10
-64.99999952316262
 20
-18.59999847412096
 30
0.0
  0
POINT
  5
A66A
330
A247
100
AcDbEntity
  8
DEFPOINTS
 62
     0
100
AcDbPoint
 10
-150.0000038146961
 20
-18.66099739074717
 30
0.0
  0
POINT
  5
A66B
330
A247
100
AcDbEntity
  8
DEFPOINTS
 62
     0
100
AcDbPoint
 10
-150.0000038146961
 20
-27.99999618530315
 30
0.0
  0
ENDBLK
  5
A252
330
A247
100
AcDbEntity
  8
0
100
AcDbBlockEnd
  0
BLOCK
  5
A2F8
330
A2EE
100
AcDbEntity
  8
0
100
AcDbBlockBegin
  2
*D6
 70
     1
 10
0.0
 20
0.0
 30
0.0
  3
*D6
  1

  0
LINE
  5
A66C
330
A2EE
100
AcDbEntity
  8
AM_5
100
AcDbLine
 10
-150.0002408027637
 20
-19.16099739074745
 30
0.0
 11
-150.0002408027637
 21
-33.49999618530321
 31
0.0
  0
LINE
  5
A66D
330
A2EE
100
AcDbEntity
  8
AM_5
100
AcDbLine
 10
-0.0000000000001894
 20
-20.49999999999983
 30
0.0
 11
-0.000000000000187
 21
-33.49999618530318
 31
0.0
  0
LINE
  5
A66E
330
A2EE
100
AcDbEntity
  8
AM_5
100
AcDbLine
 10
-148.7502408027637
 20
-32.99999618530321
 30
0.0
 11
-1.250000000000186
 21
-32.99999618530318
 31
0.0
  0
INSERT
  5
A66F
330
A2EE
100
AcDbEntity
  8
AM_5
100
AcDbBlockReference
  2
_Open30
 10
-150.0002408027637
 20
-32.99999618530321
 30
0.0
 41
1.25
 42
1.25
 43
1.25
 50
180.0
  0
INSERT
  5
A670
330
A2EE
100
AcDbEntity
  8
AM_5
100
AcDbBlockReference
  2
_Open30
 10
-0.0000000000001871
 20
-32.99999618530318
 30
0.0
 41
1.25
 42
1.25
 43
1.25
  0
MTEXT
  5
A671
330
A2EE
100
AcDbEntity
  8
AM_5
 62
     2
100
AcDbMText
 10
-75.00012040138199
 20
-31.44999618530319
 30
0.0
 40
1.6
 41
0.0
 71
     5
 72
     1
  1
150
  7
ASAMI
 73
     1
 44
1.0
1001
ACAD
1000
MTEXTBEGIN
1070
    73
1070
     1
1070
    44
1040
1.0
1070
    74
1070
     0
1000
MTEXTEND
  0
POINT
  5
A672
330
A2EE
100
AcDbEntity
  8
DEFPOINTS
 62
     0
100
AcDbPoint
 10
-150.0002408027637
 20
-18.66099739074715
 30
0.0
  0
POINT
  5
A673
330
A2EE
100
AcDbEntity
  8
DEFPOINTS
 62
     0
100
AcDbPoint
 10
-0.0000000000002299
 20
-19.99999999999983
 30
0.0
  0
POINT
  5
A674
330
A2EE
100
AcDbEntity
  8
DEFPOINTS
 62
     0
100
AcDbPoint
 10
-0.0000000000002538
 20
-32.99999618530318
 30
0.0
  0
ENDBLK
  5
A2F9
330
A2EE
100
AcDbEntity
  8
0
100
AcDbBlockEnd
  0
BLOCK
  5
A38D
330
A383
100
AcDbEntity
  8
0
100
AcDbBlockBegin
  2
*D7
 70
     1
 10
0.0
 20
0.0
 30
0.0
  3
*D7
  1

  0
LINE
  5
A675
330
A383
100
AcDbEntity
  8
AM_5
100
AcDbLine
 10
-147.5000038146963
 20
21.00000381469649
 30
0.0
 11
-157.5002408027638
 21
21.00000381469647
 31
0.0
  0
LINE
  5
A676
330
A383
100
AcDbEntity
  8
AM_5
100
AcDbLine
 10
-147.500003814696
 20
-20.99999618530348
 30
0.0
 11
-157.5002408027637
 21
-20.9999961853035
 31
0.0
  0
LINE
  5
A677
330
A383
100
AcDbEntity
  8
AM_5
100
AcDbLine
 10
-157.0002408027638
 20
19.75000381469648
 30
0.0
 11
-157.0002408027637
 21
-19.7499961853035
 31
0.0
  0
INSERT
  5
A678
330
A383
100
AcDbEntity
  8
AM_5
100
AcDbBlockReference
  2
_Open30
 10
-157.0002408027638
 20
21.00000381469647
 30
0.0
 41
1.25
 42
1.25
 43
1.25
 50
90.0000000000001
  0
INSERT
  5
A679
330
A383
100
AcDbEntity
  8
AM_5
100
AcDbBlockReference
  2
_Open30
 10
-157.0002408027637
 20
-20.9999961853035
 30
0.0
 41
1.25
 42
1.25
 43
1.25
 50
270.0000000000001
  0
MTEXT
  5
A67A
330
A383
100
AcDbEntity
  8
AM_5
 62
     2
100
AcDbMText
 10
-158.5502408027638
 20
0.0000038146964895
 30
0.0
 40
1.6
 41
0.0
 71
     5
 72
     1
  1
%%c42
  7
ASAMI
 11
-0.000000000000002
 21
1.0
 31
0.0
 73
     1
 44
1.0
1001
ACAD
1000
MTEXTBEGIN
1070
    73
1070
     1
1070
    44
1040
1.0
1070
    74
1070
     0
1000
MTEXTEND
  0
POINT
  5
A67B
330
A383
100
AcDbEntity
  8
DEFPOINTS
 62
     0
100
AcDbPoint
 10
-147.0000038146961
 20
21.00000381469682
 30
0.0
  0
POINT
  5
A67C
330
A383
100
AcDbEntity
  8
DEFPOINTS
 62
     0
100
AcDbPoint
 10
-147.0000038146961
 20
-20.99999618530316
 30
0.0
  0
POINT
  5
A67D
330
A383
100
AcDbEntity
  8
DEFPOINTS
 62
     0
100
AcDbPoint
 10
-157.0002408027637
 20
-20.99999618530315
 30
0.0
  0
ENDBLK
  5
A38E
330
A383
100
AcDbEntity
  8
0
100
AcDbBlockEnd
  0
ENDSEC
  0
SECTION
  2
ENTITIES
  0
TEXT
  5
388D
330
1F
100
AcDbEntity
  8
AM_6
100
AcDbText
 10
-93.39297754423908
 20
-44.24999618530313
 30
0.0
 40
2.5
  1
WRM20R4053E-S42
 50
359.9999999999998
 51
359.9999999999998
 72
     4
 11
-75.00012040138194
 21
-42.99999618530319
 31
0.0
100
AcDbText
  0
SPLINE
  5
995B
330
1F
100
AcDbEntity
  8
AM_0
100
AcDbSpline
210
0.0
220
0.0
230
1.0
 70
     8
 71
     3
 72
    11
 73
     7
 74
     5
 42
0.0000000001
 43
0.0000000001
 44
0.0000000001
 40
0.0
 40
0.0
 40
0.0
 40
0.0
 40
0.2892812077093682
 40
0.5836044169358643
 40
0.8814635624426399
 40
1.179635558438451
 40
1.179635558438451
 40
1.179635558438451
 40
1.179635558438451
 10
-62.9869997799394
 20
-4.464000701903974
 30
0.0
 10
-62.96948387887765
 20
-4.366885746302748
 30
0.0
 10
-62.93414678488806
 20
-4.170963178472669
 30
0.0
 10
-62.71202974120305
 20
-3.957081232750613
 30
0.0
 10
-62.44555837146546
 20
-3.82054090465302
 30
0.0
 10
-62.24855510166935
 20
-3.786853167506845
 30
0.0
 10
-62.15000176429722
 20
-3.770000457763972
 30
0.0
 11
-62.9869997799394
 21
-4.464000701903974
 31
0.0
 11
-62.90700174868081
 21
-4.186000823974969
 31
0.0
 11
-62.70600153505773
 21
-3.971000671386992
 31
0.0
 11
-62.44100214540932
 21
-3.835002899169967
 31
0.0
 11
-62.15000176429722
 21
-3.770000457763972
 31
0.0
  0
ELLIPSE
  5
995C
330
1F
100
AcDbEntity
  8
AM_0
100
AcDbEllipse
 10
-45.83499908447321
 20
0.0000000000000675
 30
0.0
 11
-11.87007544404296
 21
-16.25291244182502
 31
0.0
210
0.0
220
0.0
230
1.0
 40
0.7619497394761999
 41
5.462958131927648
 42
6.27924355836495
  0
LINE
  5
995D
330
1F
100
AcDbEntity
  8
AM_7
100
AcDbLine
 10
4.999996185302763
 20
0.0000000000001705
 30
0.0
 11
-155.0000038146962
 21
-0.0000000000001705
 31
0.0
  0
LINE
  5
995E
330
1F
100
AcDbEntity
  8
AM_0
100
AcDbLine
 10
-41.47200012207028
 20
18.59999847412104
 30
0.0
 11
-65.00000023841838
 21
18.599998474121
 31
0.0
  0
LINE
  5
995F
330
1F
100
AcDbEntity
  8
AM_0
100
AcDbLine
 10
-65.00000023841829
 20
-18.60000228881897
 30
0.0
 11
-41.4720001220702
 21
-18.60000228881893
 31
0.0
  0
LINE
  5
9960
330
1F
100
AcDbEntity
  8
AM_0
100
AcDbLine
 10
-62.98700138926481
 20
-4.464004516601979
 30
0.0
 11
-58.77100038528412
 21
-4.00500488281297
 31
0.0
  0
SPLINE
  5
997B
330
1F
100
AcDbEntity
  8
AM_0
100
AcDbSpline
210
0.0
220
0.0
230
1.0
 70
     8
 71
     3
 72
    11
 73
     7
 74
     5
 42
0.0000000001
 43
0.0000000001
 44
0.0000000001
 40
0.0
 40
0.0
 40
0.0
 40
0.0
 40
0.0955642498010674
 40
0.1730582169849788
 40
0.2321495016239886
 40
0.2721473657507347
 40
0.2721473657507347
 40
0.2721473657507347
 40
0.2721473657507347
 10
-0.9749984741212443
 20
2.410003662109149
 30
0.0
 10
-0.94384773583539
 20
2.416854094377118
 30
0.0
 10
-0.8874365649557178
 20
2.429259607906904
 30
0.0
 10
-0.8137595590831793
 20
2.452254490274495
 30
0.0
 10
-0.7580370202715297
 20
2.473458471668748
 30
0.0
 10
-0.7323634114085352
 20
2.494503438706736
 30
0.0
 10
-0.7220001220702362
 20
2.502998352051154
 30
0.0
 11
-0.9749984741212443
 21
2.410003662109149
 31
0.0
 11
-0.8819999694822314
 21
2.431999206543155
 31
0.0
 11
-0.8079986572272391
 21
2.455001831055159
 31
0.0
 11
-0.7540016174322463
 21
2.479003906250159
 31
0.0
 11
-0.7220001220702362
 21
2.502998352051154
 31
0.0
  0
SPLINE
  5
997C
330
1F
100
AcDbEntity
  8
AM_0
100
AcDbSpline
210
0.0
220
0.0
230
1.0
 70
     8
 71
     3
 72
    11
 73
     7
 74
     5
 42
0.0000000001
 43
0.0000000001
 44
0.0000000001
 40
0.0
 40
0.0
 40
0.0
 40
0.0
 40
0.2415799304430758
 40
0.4824119487365709
 40
0.7239091202538695
 40
0.9647411385466099
 40
0.9647411385466099
 40
0.9647411385466099
 40
0.9647411385466099
 10
-0.7220001220702362
 20
2.502998352051154
 30
0.0
 10
-0.6686946578574929
 20
2.563356176081092
 30
0.0
 10
-0.5622487588872703
 20
2.683884961143565
 30
0.0
 10
-0.4020162762477042
 20
2.864309786668787
 30
0.0
 10
-0.2409686282226367
 20
3.043672635907309
 30
0.0
 10
-0.134274685348814
 20
3.163945514795301
 30
0.0
 10
-0.0810012817382365
 20
3.22399902343715
 30
0.0
 11
-0.7220001220702362
 21
2.502998352051154
 31
0.0
 11
-0.5620002746582413
 21
2.68399810791016
 31
0.0
 11
-0.4020004272462464
 21
2.86399841308617
 31
0.0
 11
-0.2410011291502312
 21
3.04399871826215
 31
0.0
 11
-0.0810012817382365
 21
3.22399902343715
 31
0.0
  0
SPLINE
  5
997D
330
1F
100
AcDbEntity
  8
AM_0
100
AcDbSpline
210
0.0
220
0.0
230
1.0
 70
     8
 71
     3
 72
    11
 73
     7
 74
     5
 42
0.0000000001
 43
0.0000000001
 44
0.0000000001
 40
0.0
 40
0.0
 40
0.0
 40
0.0
 40
0.0199996948826086
 40
0.0624504303775533
 40
0.132706517199459
 40
0.2247109998635339
 40
0.2247109998635339
 40
0.2247109998635339
 40
0.2247109998635339
 10
0.0009994506837516
 20
3.411003112793145
 30
0.0
 10
-0.0025885479741518
 20
3.416920480848783
 30
0.0
 10
-0.0137923219164732
 20
3.435397871826298
 30
0.0
 10
-0.0632312082654038
 20
3.438335245886677
 30
0.0
 10
-0.1283488706713285
 20
3.446499306172786
 30
0.0
 10
-0.1830080336032724
 20
3.444266712032173
 30
0.0
 10
-0.2140007019042387
 20
3.443000793457151
 30
0.0
 11
0.0009994506837516
 21
3.411003112793145
 31
0.0
 11
-0.0110015869142459
 21
3.427001953125147
 31
0.0
 11
-0.0520019531252403
 21
3.438003540039139
 31
0.0
 11
-0.1220016479492317
 21
3.444000244140162
 31
0.0
 11
-0.2140007019042387
 21
3.443000793457151
 31
0.0
  0
ELLIPSE
  5
9A8E
330
1F
100
AcDbEntity
  8
AM_0
100
AcDbEllipse
 10
-42.50299835205122
 20
-0.0000038146969282
 30
0.0
 11
-0.9642742890329595
 21
-18.600021507932
 31
0.0
210
0.0
220
0.0
230
1.0
 40
0.0735571176414
 41
1.339722990948031
 42
1.602337849373411
  0
SPLINE
  5
9A8F
330
1F
100
AcDbEntity
  8
AM_0
100
AcDbSpline
210
0.0
220
0.0
230
1.0
 70
     8
 71
     3
 72
    11
 73
     7
 74
     5
 42
0.0000000001
 43
0.0000000001
 44
0.0000000001
 40
0.0
 40
0.0
 40
0.0
 40
0.0
 40
0.6561308522827267
 40
1.292744675121255
 40
1.892947959982878
 40
2.437650892206945
 40
2.437650892206945
 40
2.437650892206945
 40
2.437650892206945
 10
-36.76499938964818
 20
-18.37800216674792
 30
0.0
 10
-36.98370044327634
 20
-18.38114616389455
 30
0.0
 10
-37.41459714861734
 20
-18.38734063799337
 30
0.0
 10
-38.04497840562309
 20
-18.41669522390958
 30
0.0
 10
-38.63768440046556
 20
-18.45379646919047
 30
0.0
 10
-39.01804172886128
 20
-18.48510730647314
 30
0.0
 10
-39.19900131225618
 20
-18.50000381469691
 30
0.0
 11
-36.76499938964818
 21
-18.37800216674792
 31
0.0
 11
-37.42100143432617
 21
-18.39100265502892
 31
0.0
 11
-38.05699920654318
 21
-18.41900253295892
 31
0.0
 11
-38.65599822998016
 21
-18.45700454711892
 31
0.0
 11
-39.19900131225618
 21
-18.50000381469691
 31
0.0
  0
ELLIPSE
  5
9A90
330
1F
100
AcDbEntity
  8
AM_0
100
AcDbEllipse
 10
-24.90300369262723
 20
-0.0000038146968816
 30
0.0
 11
-0.0892116219769602
 21
-18.59978643633299
 31
0.0
210
0.0
220
0.0
230
1.0
 40
0.0899463617172
 41
0.7759103361510476
 42
1.039878659897147
  0
ELLIPSE
  5
9A91
330
1F
100
AcDbEntity
  8
AM_0
100
AcDbEllipse
 10
-35.40999984741222
 20
0.0000000000000835
 30
0.0
 11
236.564335839586
 21
-16.72747604332948
 31
0.0
210
0.0
220
0.0
230
1.0
 40
0.0340536750291
 41
4.679891240295662
 42
4.705938587523466
  0
ELLIPSE
  5
9A92
330
1F
100
AcDbEntity
  8
AM_0
100
AcDbEllipse
 10
-69.62600326538063
 20
-0.0000038146969869
 30
0.0
 11
236.5570931398944
 21
-18.39204372882748
 31
0.0
210
0.0
220
0.0
230
1.0
 40
0.0133054643512
 41
4.746178820896035
 42
4.774429828878461
  0
ELLIPSE
  5
9A93
330
1F
100
AcDbEntity
  8
AM_0
100
AcDbEllipse
 10
-26.60999679565424
 20
-0.000003814696903
 30
0.0
 11
236.562325485438
 21
-13.87671118161149
 31
0.0
210
0.0
220
0.0
230
1.0
 40
0.0522304645673
 41
4.680506260290171
 42
4.70661335242578
  0
ELLIPSE
  5
9A94
330
1F
100
AcDbEntity
  8
AM_0
100
AcDbEllipse
 10
-14.13900375366229
 20
15.79999732971212
 30
0.0
 11
0.0374585159250144
 21
-5.199865367012002
 31
0.0
210
0.0
220
0.0
230
1.0
 40
0.9586541858827001
 41
0.6106928072538085
 42
1.092463058408724
  0
ELLIPSE
  5
9A95
330
1F
100
AcDbEntity
  8
AM_0
100
AcDbEllipse
 10
-16.10300064086925
 20
0.0000000000001231
 30
0.0
 11
0.3758428019620342
 21
-18.60020135982599
 31
0.0
210
0.0
220
0.0
230
1.0
 40
0.0877231348986
 41
0.5013794254482847
 42
0.7588903144557087
  0
ELLIPSE
  5
9A96
330
1F
100
AcDbEntity
  8
AM_0
100
AcDbEllipse
 10
-9.009998321533258
 20
-0.0000038146968564
 30
0.0
 11
236.5638286589771
 21
-5.108861899624487
 31
0.0
210
0.0
220
0.0
230
1.0
 40
0.0754673177292
 41
4.679135743835849
 42
4.705183542189255
  0
ELLIPSE
  5
9A97
330
1F
100
AcDbEntity
  8
AM_0
100
AcDbEllipse
 10
-7.383998870850232
 20
0.0000000000001461
 30
0.0
 11
0.8227160947490377
 21
-18.59981162113701
 31
0.0
210
0.0
220
0.0
230
1.0
 40
0.0786335940187
 41
0.2129391701897556
 42
0.4811761231418421
  0
ELLIPSE
  5
9A98
330
1F
100
AcDbEntity
  8
AM_0
100
AcDbEllipse
 10
-20.86599731445323
 20
-0.0000038146968928
 30
0.0
 11
28.77083075572704
 21
-15.36792841004194
 31
0.0
210
0.0
220
0.0
230
1.0
 40
0.3644919960709001
 41
2.438579312135999
 42
2.543220280357566
  0
SPLINE
  5
9A99
330
1F
100
AcDbEntity
  8
AM_0
100
AcDbSpline
210
0.0
220
0.0
230
1.0
 70
     8
 71
     3
 72
    11
 73
     7
 74
     5
 42
0.0000000001
 43
0.0000000001
 44
0.0000000001
 40
0.0
 40
0.0
 40
0.0
 40
0.0
 40
0.6569888564098746
 40
1.297874604705153
 40
1.907816330417895
 40
2.469843414838388
 40
2.469843414838388
 40
2.469843414838388
 40
2.469843414838388
 10
-27.96500015258819
 20
-16.8770027160649
 30
0.0
 10
-28.18393134985867
 20
-16.8856977912148
 30
0.0
 10
-28.61642763703736
 20
-16.90287482110344
 30
0.0
 10
-29.24763662965073
 20
-16.98497528809673
 30
0.0
 10
-29.84259855832617
 20
-17.09442251695785
 30
0.0
 10
-30.21865917627057
 20
-17.20092742797183
 30
0.0
 10
-30.39900207519518
 20
-17.25200271606491
 30
0.0
 11
-27.96500015258819
 21
-16.8770027160649
 31
0.0
 11
-28.62100219726618
 21
-16.9129981994629
 31
0.0
 11
-29.25699996948218
 21
-16.99200057983389
 31
0.0
 11
-29.85600280761717
 21
-17.1069984436039
 31
0.0
 11
-30.39900207519518
 21
-17.25200271606491
 31
0.0
  0
SPLINE
  5
9A9A
330
1F
100
AcDbEntity
  8
AM_0
100
AcDbSpline
210
0.0
220
0.0
230
1.0
 70
     8
 71
     3
 72
    11
 73
     7
 74
     5
 42
0.0000000001
 43
0.0000000001
 44
0.0000000001
 40
0.0
 40
0.0
 40
0.0
 40
0.0
 40
0.2614288578615466
 40
0.4792357029738033
 40
0.6276673871423655
 40
0.6936995411747629
 40
0.6936995411747629
 40
0.6936995411747629
 40
0.6936995411747629
 10
-8.959999084473174
 20
-18.31699752807586
 30
0.0
 10
-8.872573934850315
 20
-18.32016566966478
 30
0.0
 10
-8.712311393905851
 20
-18.32597331681555
 30
0.0
 10
-8.508034719583537
 20
-18.3577977923309
 30
0.0
 10
-8.359159212117788
 20
-18.37534049946664
 30
0.0
 10
-8.302457860106743
 20
-18.42019231307376
 30
0.0
 10
-8.284999847412171
 20
-18.43400192260785
 30
0.0
 11
-8.959999084473174
 21
-18.31699752807586
 31
0.0
 11
-8.699001312256177
 21
-18.33200454711885
 31
0.0
 11
-8.483001708984181
 21
-18.36000442504886
 31
0.0
 11
-8.339000701904158
 21
-18.39599990844684
 31
0.0
 11
-8.284999847412171
 21
-18.43400192260785
 31
0.0
  0
SPLINE
  5
9A9B
330
1F
100
AcDbEntity
  8
AM_0
100
AcDbSpline
210
0.0
220
0.0
230
1.0
 70
     8
 71
     3
 72
    11
 73
     7
 74
     5
 42
0.0000000001
 43
0.0000000001
 44
0.0000000001
 40
0.0
 40
0.0
 40
0.0
 40
0.0
 40
0.9051688058843449
 40
1.810389148853105
 40
2.715715479629882
 40
3.621100263477529
 40
3.621100263477529
 40
3.621100263477529
 40
3.621100263477529
 10
-1.299999237061254
 20
9.772998809814156
 30
0.0
 10
-1.284714511499147
 20
10.0743343196759
 30
0.0
 10
-1.254144190117158
 20
10.6770224963689
 30
0.0
 10
-1.207425734780104
 20
11.58105541341436
 30
0.0
 10
-1.158142205014361
 20
12.48502422080528
 30
0.0
 10
-1.124715567351995
 20
13.08766821476126
 30
0.0
 10
-1.108001708984272
 20
13.38899993896515
 30
0.0
 11
-1.299999237061254
 21
9.772998809814156
 31
0.0
 11
-1.254001617432266
 21
10.67699813842815
 31
0.0
 11
-1.207000732422249
 21
11.58099746704115
 31
0.0
 11
-1.158000946045271
 21
12.48499679565415
 31
0.0
 11
-1.108001708984272
 21
13.38899993896515
 31
0.0
  0
ELLIPSE
  5
9A9C
330
1F
100
AcDbEntity
  8
AM_0
100
AcDbEllipse
 10
-12.06600189209024
 20
0.0000000000001404
 30
0.0
 11
29.03745552302304
 21
-17.31102360700693
 31
0.0
210
0.0
220
0.0
230
1.0
 40
0.2337454732483
 41
2.384027926144585
 42
2.610028711447835
  0
ELLIPSE
  5
9A9D
330
1F
100
AcDbEntity
  8
AM_0
100
AcDbEllipse
 10
-5.451000213623268
 20
12.58099746704114
 30
0.0
 11
-0.3441732650639767
 21
-7.853462085171004
 31
0.0
210
0.0
220
0.0
230
1.0
 40
0.1901791229884
 41
4.618613404005481
 42
4.654793949592591
  0
ELLIPSE
  5
9A9E
330
1F
100
AcDbEntity
  8
AM_0
100
AcDbEllipse
 10
-20.86599731445323
 20
0.0000000000001028
 30
0.0
 11
-28.77993306267395
 21
-15.35087550919605
 31
0.0
210
0.0
220
0.0
230
1.0
 40
0.3644919375956001
 41
0.599301412425756
 42
0.7037804006544883
  0
ELLIPSE
  5
9A9F
330
1F
100
AcDbEntity
  8
AM_0
100
AcDbEllipse
 10
-14.20000076293928
 20
13.69299697876013
 30
0.0
 11
1.498371154040995
 21
-0.0698643236109969
 31
0.0
210
0.0
220
0.0
230
0.9999999999999998
 40
0.2806659138462999
 41
4.281735552514503
 42
5.32644124788316
  0
ELLIPSE
  5
9AA0
330
1F
100
AcDbEntity
  8
AM_0
100
AcDbEllipse
 10
-44.20999526977522
 20
-0.0000038146969355
 30
0.0
 11
236.557093139889
 21
-18.39204372882748
 31
0.0
210
0.0
220
0.0
230
1.0
 40
0.0133054623416
 41
4.67571275662387
 42
4.704571701413295
  0
ELLIPSE
  5
9AA1
330
1F
100
AcDbEntity
  8
AM_0
100
AcDbEllipse
 10
-11.97500228881824
 20
-0.0000038146968549
 30
0.0
 11
-1.505936577301954
 21
-18.59813030469099
 31
0.0
210
0.0
220
0.0
230
1.0
 40
0.1310895571668
 41
1.586363607816233
 42
1.623900139040502
  0
SPLINE
  5
9AA2
330
1F
100
AcDbEntity
  8
AM_0
100
AcDbSpline
210
0.0
220
0.0
230
1.0
 70
     8
 71
     3
 72
    11
 73
     7
 74
     5
 42
0.0000000001
 43
0.0000000001
 44
0.0000000001
 40
0.0
 40
0.0
 40
0.0
 40
0.0
 40
0.656130852282727
 40
1.292744675121234
 40
1.892947839221619
 40
2.437650771445695
 40
2.437650771445695
 40
2.437650771445695
 40
2.437650771445695
 10
-36.76499938964829
 20
18.37799835205107
 30
0.0
 10
-36.9837004474217
 20
18.38114228385728
 30
0.0
 10
-37.4145971609299
 20
18.38733662921884
 30
0.0
 10
-38.04497831899185
 20
18.41669213898126
 30
0.0
 10
-38.63768447693783
 20
18.45379017744763
 30
0.0
 10
-39.01804174058107
 20
18.4851013997014
 30
0.0
 10
-39.19900131225628
 20
18.49999809265107
 30
0.0
 11
-36.76499938964829
 21
18.37799835205107
 31
0.0
 11
-37.42100143432629
 21
18.39099884033207
 31
0.0
 11
-38.05699920654327
 21
18.41899871826207
 31
0.0
 11
-38.65599822998026
 21
18.45699882507308
 31
0.0
 11
-39.19900131225628
 21
18.49999809265107
 31
0.0
  0
ELLIPSE
  5
9AA3
330
1F
100
AcDbEntity
  8
AM_0
100
AcDbEllipse
 10
-33.70299911499023
 20
-0.0000038146969191
 30
0.0
 11
-0.5543678450139628
 21
-18.599740130177
 31
0.0
210
0.0
220
0.0
230
1.0
 40
0.0850709864164
 41
1.058135146001621
 42
1.322045129257731
  0
ELLIPSE
  5
9AA4
330
1F
100
AcDbEntity
  8
AM_0
100
AcDbEllipse
 10
-7.465000152588228
 20
0.0000000000001458
 30
0.0
 11
-1.468661354415958
 21
-18.60010841712099
 31
0.0
210
0.0
220
0.0
230
1.0
 40
0.0434130654193
 41
1.79447502443357
 42
2.053876282553438
  0
ELLIPSE
  5
9AA5
330
1F
100
AcDbEntity
  8
AM_0
100
AcDbEllipse
 10
-20.86599731445323
 20
0.0000000000001028
 30
0.0
 11
-28.77993306267395
 21
-15.35087550919605
 31
0.0
210
0.0
220
0.0
230
1.0
 40
0.3644919375956001
 41
0.4788181012718085
 42
0.599301412425756
  0
ELLIPSE
  5
9AA6
330
1F
100
AcDbEntity
  8
AM_0
100
AcDbEllipse
 10
-12.06599807739325
 20
-0.0000038146968552
 30
0.0
 11
-29.03040343541096
 21
-17.32285472635606
 31
0.0
210
0.0
220
0.0
230
1.0
 40
0.2337455032927
 41
0.5328875631365895
 42
0.756199143912057
  0
SPLINE
  5
9AA7
330
1F
100
AcDbEntity
  8
AM_0
100
AcDbSpline
210
0.0
220
0.0
230
1.0
 70
     8
 71
     3
 72
    11
 73
     7
 74
     5
 42
0.0000000001
 43
0.0000000001
 44
0.0000000001
 40
0.0
 40
0.0
 40
0.0
 40
0.0
 40
0.6569890654227911
 40
1.297874578600781
 40
1.907816663926079
 40
2.46984276415811
 40
2.46984276415811
 40
2.46984276415811
 40
2.46984276415811
 10
-27.96500015258827
 20
16.8769989013671
 30
0.0
 10
-28.18393128466325
 20
16.88569590007319
 30
0.0
 10
-28.61642729675676
 20
16.90287672411553
 30
0.0
 10
-29.24763713311516
 20
16.98497152530346
 30
0.0
 10
-29.84259771365584
 20
17.0944242244179
 30
0.0
 10
-30.21865905098183
 20
17.20092544518164
 30
0.0
 10
-30.39900207519528
 20
17.25199890136709
 30
0.0
 11
-27.96500015258827
 21
16.8769989013671
 31
0.0
 11
-28.62100219726626
 21
16.91299819946309
 31
0.0
 11
-29.25699996948227
 21
16.99199867248508
 31
0.0
 11
-29.85600280761726
 21
17.10699844360308
 31
0.0
 11
-30.39900207519528
 21
17.25199890136709
 31
0.0
  0
ELLIPSE
  5
9AA8
330
1F
100
AcDbEntity
  8
AM_0
100
AcDbEllipse
 10
-51.30300140380922
 20
-0.0000038146969515
 30
0.0
 11
-1.300365171817959
 21
-18.60060305835799
 31
0.0
210
0.0
220
0.0
230
1.0
 40
0.0564195915967
 41
1.619373384634819
 42
1.882149208253698
  0
ELLIPSE
  5
9AA9
330
1F
100
AcDbEntity
  8
AM_0
100
AcDbEllipse
 10
-0.2099952697752325
 20
-0.0000038146968331
 30
0.0
 11
236.5619549196889
 21
-0.1401916376994894
 31
0.0
210
0.0
220
0.0
230
1.0
 40
0.0786263248527
 41
4.677463380630959
 42
4.708361930814878
  0
ELLIPSE
  5
9AAA
330
1F
100
AcDbEntity
  8
AM_0
100
AcDbEllipse
 10
-11.59900283813521
 20
0.0000000000001423
 30
0.0
 11
2.947968404054041
 21
-18.59780383767698
 31
0.0
210
0.0
220
0.0
230
1.0
 40
0.0729155629941
 41
6.05459442944837
 42
6.093533343180297
  0
ELLIPSE
  5
9AAB
330
1F
100
AcDbEntity
  8
AM_0
100
AcDbEllipse
 10
-14.20499801635725
 20
13.52499771118113
 30
0.0
 11
-0.3535094791509841
 21
-7.548726253868005
 31
0.0
210
0.0
220
0.0
230
1.0
 40
0.1976975930858
 41
1.500181394845303
 42
1.56510004454669
  0
ELLIPSE
  5
9AAC
330
1F
100
AcDbEntity
  8
AM_0
100
AcDbEllipse
 10
-12.02000045776423
 20
-0.000003814696855
 30
0.0
 11
-5.280773943650959
 21
-18.588447475702
 31
0.0
210
0.0
220
0.0
230
1.0
 40
0.123525022502
 41
1.542688712864033
 42
1.610919147241548
  0
ELLIPSE
  5
9AAD
330
1F
100
AcDbEntity
  8
AM_0
100
AcDbEllipse
 10
-55.95299911498992
 20
-0.0000038146969571
 30
0.0
 11
-1.300365171818858
 21
-18.60060305835799
 31
0.0
210
0.0
220
0.0
230
1.0
 40
0.0564195788101
 41
1.34211693324889
 42
1.368956005971297
  0
ELLIPSE
  5
9AAE
330
1F
100
AcDbEntity
  8
AM_0
100
AcDbEllipse
 10
-14.20700073242227
 20
13.44099807739212
 30
0.0
 11
1.499427832084001
 21
-0.0413835727699915
 31
0.0
210
0.0
220
0.0
230
1.0
 40
0.0873326955896
 41
5.320655416075534
 42
6.176111807989628
  0
ELLIPSE
  5
9AAF
330
1F
100
AcDbEntity
  8
AM_0
100
AcDbEllipse
 10
-14.20700073242227
 20
13.44099807739212
 30
0.0
 11
1.499427832084001
 21
-0.0413835727699915
 31
0.0
210
0.0
220
0.0
230
1.0
 40
0.0873326955896
 41
3.219331071403829
 42
4.27945254512176
  0
ELLIPSE
  5
9AB0
330
1F
100
AcDbEntity
  8
AM_0
100
AcDbEllipse
 10
-3.265998840332241
 20
0.0000000000001495
 30
0.0
 11
29.24061171438305
 21
-18.35653444772792
 31
0.0
210
0.0
220
0.0
230
1.0
 40
0.1055176361651
 41
2.312826881470912
 42
2.538242243152162
  0
SPLINE
  5
9AB1
330
1F
100
AcDbEntity
  8
AM_0
100
AcDbSpline
210
0.0
220
0.0
230
1.0
 70
     8
 71
     3
 72
    11
 73
     7
 74
     5
 42
0.0000000001
 43
0.0000000001
 44
0.0000000001
 40
0.0
 40
0.0
 40
0.0
 40
0.0
 40
0.6584702135773993
 40
1.306255942358542
 40
1.932586314293963
 40
2.524657573662093
 40
2.524657573662093
 40
2.524657573662093
 40
2.524657573662093
 10
-19.16500091552729
 20
14.06799697876012
 30
0.0
 10
-19.38427607844596
 20
14.08207715686816
 30
0.0
 10
-19.81926839650089
 20
14.11000904496859
 30
0.0
 10
-20.45219422968304
 20
14.23728555278359
 30
0.0
 10
-21.05079407482322
 20
14.41287873066277
 30
0.0
 10
-21.41972445481167
 20
14.58389567745506
 30
0.0
 10
-21.59900283813527
 20
14.66699981689409
 30
0.0
 11
-19.16500091552729
 21
14.06799697876012
 31
0.0
 11
-19.82099914550827
 21
14.1250000000001
 31
0.0
 11
-20.45700073242227
 21
14.2479972839351
 31
0.0
 11
-21.05599975585926
 21
14.43099975585912
 31
0.0
 11
-21.59900283813527
 21
14.66699981689409
 31
0.0
  0
ELLIPSE
  5
9AB2
330
1F
100
AcDbEntity
  8
AM_0
100
AcDbEllipse
 10
-17.81000137329123
 20
-0.0000038146968655
 30
0.0
 11
236.565217614475
 21
-9.845075548128487
 31
0.0
210
0.0
220
0.0
230
1.0
 40
0.0664188939288
 41
4.680219193969961
 42
4.706314591764869
  0
SPLINE
  5
9AB3
330
1F
100
AcDbEntity
  8
AM_0
100
AcDbSpline
210
0.0
220
0.0
230
1.0
 70
     8
 71
     3
 72
    11
 73
     7
 74
     5
 42
0.0000000001
 43
0.0000000001
 44
0.0000000001
 40
0.0
 40
0.0
 40
0.0
 40
0.0
 40
0.253428452633501
 40
0.4754262574321942
 40
0.6485273424194088
 40
0.7706449375772579
 40
0.7706449375772579
 40
0.7706449375772579
 40
0.7706449375772579
 10
-17.7600021362302
 20
-16.71599960327186
 30
0.0
 10
-17.67546593402259
 20
-16.72446184780414
 30
0.0
 10
-17.51687785989179
 20
-16.74033683423779
 30
0.0
 10
-17.3130740704974
 20
-16.80815942805002
 30
0.0
 10
-17.15174783748306
 20
-16.89015754361953
 30
0.0
 10
-17.10665426624649
 20
-16.97988586684664
 30
0.0
 10
-17.0880012512212
 20
-17.01700210571289
 30
0.0
 11
-17.7600021362302
 21
-16.71599960327186
 31
0.0
 11
-17.5090026855472
 21
-16.75100326538089
 31
0.0
 11
-17.29800033569317
 21
-16.82000350952187
 31
0.0
 11
-17.15200042724619
 21
-16.91299819946288
 31
0.0
 11
-17.0880012512212
 21
-17.01700210571289
 31
0.0
  0
SPLINE
  5
9AB4
330
1F
100
AcDbEntity
  8
AM_0
100
AcDbSpline
210
0.0
220
0.0
230
1.0
 70
     8
 71
     3
 72
    11
 73
     7
 74
     5
 42
0.0000000001
 43
0.0000000001
 44
0.0000000001
 40
0.0
 40
0.0
 40
0.0
 40
0.0
 40
0.6508393853043611
 40
1.379873083467242
 40
2.022315790041356
 40
2.466925289073463
 40
2.466925289073463
 40
2.466925289073463
 40
2.466925289073463
 10
-19.90299987793018
 20
-15.65100097656288
 30
0.0
 10
-19.70052095318702
 20
-15.56472258827169
 30
0.0
 10
-19.27123651753195
 20
-15.38179999880321
 30
0.0
 10
-18.59227444762496
 20
-15.41565682143039
 30
0.0
 10
-17.9628642869131
 20
-15.57677676016894
 30
0.0
 10
-17.7684965150169
 20
-15.89560054074916
 30
0.0
 10
-17.6889991760252
 20
-16.02600097656286
 30
0.0
 11
-19.90299987793018
 21
-15.65100097656288
 31
0.0
 11
-19.28800201416019
 21
-15.43799972534188
 31
0.0
 11
-18.55900192260718
 21
-15.44499969482387
 31
0.0
 11
-17.9580001831052
 21
-15.67200088500987
 31
0.0
 11
-17.6889991760252
 21
-16.02600097656286
 31
0.0
  0
SPLINE
  5
9AB5
330
1F
100
AcDbEntity
  8
AM_0
100
AcDbSpline
210
0.0
220
0.0
230
1.0
 70
     8
 71
     3
 72
    11
 73
     7
 74
     5
 42
0.0000000001
 43
0.0000000001
 44
0.0000000001
 40
0.0
 40
0.0
 40
0.0
 40
0.0
 40
0.0900001525879972
 40
0.1814840118887586
 40
0.2797530539533789
 40
0.3879610775974889
 40
0.3879610775974889
 40
0.3879610775974889
 40
0.3879610775974889
 10
-17.6889991760252
 20
-16.02600097656286
 30
0.0
 10
-17.68724283122527
 20
-16.05615003545029
 30
0.0
 10
-17.68370118722373
 20
-16.1169451786164
 30
0.0
 10
-17.71126796665045
 20
-16.20785743524179
 30
0.0
 10
-17.76360679868973
 20
-16.29353980318953
 30
0.0
 10
-17.8137314346712
 20
-16.34108448346857
 30
0.0
 10
-17.84000015258821
 20
-16.36600112915086
 30
0.0
 11
-17.6889991760252
 21
-16.02600097656286
 31
0.0
 11
-17.6889991760252
 21
-16.11600112915086
 31
0.0
 11
-17.71400070190419
 21
-16.20400238037085
 31
0.0
 11
-17.76499938964819
 21
-16.28800201415986
 31
0.0
 11
-17.84000015258821
 21
-16.36600112915086
 31
0.0
  0
SPLINE
  5
9AB6
330
1F
100
AcDbEntity
  8
AM_0
100
AcDbSpline
210
0.0
220
0.0
230
1.0
 70
     8
 71
     3
 72
    11
 73
     7
 74
     5
 42
0.0000000001
 43
0.0000000001
 44
0.0000000001
 40
0.0
 40
0.0
 40
0.0
 40
0.0
 40
1.003444473885853
 40
1.951983708870504
 40
2.80201660489488
 40
3.547340279757723
 40
3.547340279757723
 40
3.547340279757723
 40
3.547340279757723
 10
-54.3650016784665
 20
-17.10300064086895
 30
0.0
 10
-54.69955129035479
 20
-17.08741967068556
 30
0.0
 10
-55.35034504049225
 20
-17.05711027065608
 30
0.0
 10
-56.27015191163529
 20
-16.88727101616005
 30
0.0
 10
-57.08748930470244
 20
-16.63494675306643
 30
0.0
 10
-57.53972366430289
 20
-16.35144773049144
 30
0.0
 10
-57.75099992752046
 20
-16.21900177001996
 30
0.0
 11
-54.3650016784665
 21
-17.10300064086895
 31
0.0
 11
-55.36600160598728
 21
-17.03300094604497
 31
0.0
 11
-56.29900026321379
 21
-16.86200332641596
 31
0.0
 11
-57.1040005683896
 21
-16.58900070190396
 31
0.0
 11
-57.75099992752046
 21
-16.21900177001996
 31
0.0
  0
ELLIPSE
  5
9AB7
330
1F
100
AcDbEntity
  8
AM_0
100
AcDbEllipse
 10
-13.31999969482421
 20
-13.82900238037087
 30
0.0
 11
0.7791785643259991
 21
-1.544597704350001
 31
0.0
210
0.0
220
0.0
230
1.0
 40
0.7369937697656002
 41
2.730019174289148
 42
3.81883851778393
  0
ELLIPSE
  5
9AB8
330
1F
100
AcDbEntity
  8
AM_0
100
AcDbEllipse
 10
-13.31999969482421
 20
-13.82900238037087
 30
0.0
 11
0.7791785643259991
 21
-1.544597704350001
 31
0.0
210
0.0
220
0.0
230
1.0
 40
0.7369937697656002
 41
3.818838588569109
 42
4.096408935199971
  0
ELLIPSE
  5
9AB9
330
1F
100
AcDbEntity
  8
AM_0
100
AcDbEllipse
 10
-13.57000350952119
 20
-14.71599960327188
 30
0.0
 11
1.443803771576
 21
-0.4067325711529973
 31
0.0
210
0.0
220
0.0
230
1.0
 40
0.9573326973386
 41
0.3070128814867937
 42
2.718993130540529
  0
ELLIPSE
  5
9ABA
330
1F
100
AcDbEntity
  8
AM_0
100
AcDbEllipse
 10
35.64200210571276
 20
-0.0000038146967656
 30
0.0
 11
236.5638439142109
 21
-5.108862229078494
 31
0.0
210
0.0
220
0.0
230
1.0
 40
0.0754673128625
 41
4.498635759987077
 42
4.511311128155832
  0
ELLIPSE
  5
9ABB
330
1F
100
AcDbEntity
  8
AM_0
100
AcDbEllipse
 10
-48.37799835205125
 20
4.348999023437045
 30
0.0
 11
-4.723103622252256
 21
-19.832347962615
 31
0.0
210
0.0
220
0.0
230
1.0
 40
0.1936528824617001
 41
0.6186962240155856
 42
1.036078909006
  0
ELLIPSE
  5
9ABC
330
1F
100
AcDbEntity
  8
AM_0
100
AcDbEllipse
 10
-13.09099960327125
 20
0.0000000000001218
 30
0.0
 11
0.3758428019620414
 21
-18.60020135982599
 31
0.0
210
0.0
220
0.0
230
1.0
 40
0.0877231348986
 41
0.4834371464328781
 42
0.5927505049166162
  0
ELLIPSE
  5
9ABD
330
1F
100
AcDbEntity
  8
AM_0
100
AcDbEllipse
 10
-44.28300094604522
 20
-8.471000671386942
 30
0.0
 11
4.980830930714001
 21
-0.4374051207319917
 31
0.0
210
0.0
220
0.0
230
1.0
 40
0.4339995384216002
 41
2.142391116874406
 42
2.175864395964138
  0
SPLINE
  5
9ABE
330
1F
100
AcDbEntity
  8
AM_0
100
AcDbSpline
210
0.0
220
0.0
230
1.0
 70
     8
 71
     3
 72
    11
 73
     7
 74
     5
 42
0.0000000001
 43
0.0000000001
 44
0.0000000001
 40
0.0
 40
0.0
 40
0.0
 40
0.0
 40
0.3066526844763341
 40
0.5661490312955565
 40
0.7393343884079923
 40
0.8003642664391241
 40
0.8003642664391241
 40
0.8003642664391241
 40
0.8003642664391241
 10
-1.514999389648267
 20
10.58300018310515
 30
0.0
 10
-1.521906308198108
 20
10.48100086760366
 30
0.0
 10
-1.534658015403632
 20
10.29268745445813
 30
0.0
 10
-1.548104280624581
 20
10.0467607918626
 30
0.0
 10
-1.561285707682371
 20
9.882367469441444
 30
0.0
 10
-1.55788526571926
 20
9.80433377459652
 30
0.0
 10
-1.556999206543249
 20
9.784000396728144
 30
0.0
 11
-1.514999389648267
 21
10.58300018310515
 31
0.0
 11
-1.53499984741225
 21
10.27700042724614
 31
0.0
 11
-1.550998687744251
 21
10.01799774169915
 31
0.0
 11
-1.559001922607247
 21
9.844997406006156
 31
0.0
 11
-1.556999206543249
 21
9.784000396728144
 31
0.0
  0
ELLIPSE
  5
9ABF
330
1F
100
AcDbEntity
  8
AM_0
100
AcDbEllipse
 10
-13.17800140380926
 20
12.39199829101513
 30
0.0
 11
6.078136371730002
 21
-3.19990916592699
 31
0.0
210
0.0
220
0.0
230
1.0
 40
0.0902608873364
 41
4.491193196326991
 42
4.907656868006702
  0
ELLIPSE
  5
9AC0
330
1F
100
AcDbEntity
  8
AM_0
100
AcDbEllipse
 10
5.534000396728757
 20
0.0000000000001728
 30
0.0
 11
29.30380286874705
 21
-18.60111631594494
 31
0.0
210
0.0
220
0.0
230
1.0
 40
0.0210320550037
 41
3.833202934624319
 42
4.058204023468886
  0
SPLINE
  5
9AC1
330
1F
100
AcDbEntity
  8
AM_0
100
AcDbSpline
210
0.0
220
0.0
230
1.0
 70
     8
 71
     3
 72
    11
 73
     7
 74
     5
 42
0.0000000001
 43
0.0000000001
 44
0.0000000001
 40
0.0
 40
0.0
 40
0.0
 40
0.0
 40
0.6600472654170093
 40
1.315622695643618
 40
1.95980325933263
 40
2.584073815503228
 40
2.584073815503228
 40
2.584073815503228
 40
2.584073815503228
 10
-10.36500167846723
 20
10.16899871826211
 30
0.0
 10
-10.5846726076944
 20
10.18701492569296
 30
0.0
 10
-11.02252619062198
 20
10.22292528034077
 30
0.0
 10
-11.65692916663509
 20
10.38856630469991
 30
0.0
 10
-12.25870885912293
 20
10.61791127866778
 30
0.0
 10
-12.62079729526486
 20
10.83778693570513
 30
0.0
 10
-12.79899978637724
 20
10.94599914550811
 30
0.0
 11
-10.36500167846723
 21
10.16899871826211
 31
0.0
 11
-11.02099990844724
 21
10.24199676513713
 31
0.0
 11
-11.65700149536125
 21
10.40099716186513
 31
0.0
 11
-12.25600051879923
 21
10.63799667358412
 31
0.0
 11
-12.79899978637724
 21
10.94599914550811
 31
0.0
  0
SPLINE
  5
9AC2
330
1F
100
AcDbEntity
  8
AM_0
100
AcDbSpline
210
0.0
220
0.0
230
1.0
 70
     8
 71
     3
 72
    11
 73
     7
 74
     5
 42
0.0000000001
 43
0.0000000001
 44
0.0000000001
 40
0.0
 40
0.0
 40
0.0
 40
0.0
 40
0.6388037047726826
 40
1.380847362639778
 40
1.994561586123032
 40
2.303758638326248
 40
2.303758638326248
 40
2.303758638326248
 40
2.303758638326248
 10
-11.10300064086917
 20
-17.81499862670884
 30
0.0
 10
-10.89398123546826
 20
-17.76672066297819
 30
0.0
 10
-10.4421618541278
 20
-17.66236231565954
 30
0.0
 10
-9.783187204773891
 20
-17.69950307291253
 30
0.0
 10
-9.201186293263077
 20
-17.74733352434204
 30
0.0
 10
-8.965097052707784
 20
-17.95232344767067
 30
0.0
 10
-8.886001586914181
 20
-18.02099990844685
 30
0.0
 11
-11.10300064086917
 21
-17.81499862670884
 31
0.0
 11
-10.47500228881816
 21
-17.69800186157185
 31
0.0
 11
-9.733001708984184
 21
-17.70599746704086
 31
0.0
 11
-9.132999420166163
 21
-17.83500289916986
 31
0.0
 11
-8.886001586914181
 21
-18.02099990844685
 31
0.0
  0
SPLINE
  5
9AC3
330
1F
100
AcDbEntity
  8
AM_0
100
AcDbSpline
210
0.0
220
0.0
230
1.0
 70
     8
 71
     3
 72
    11
 73
     7
 74
     5
 42
0.0000000001
 43
0.0000000001
 44
0.0000000001
 40
0.0
 40
0.0
 40
0.0
 40
0.0
 40
0.0404484791918912
 40
0.0884600134734783
 40
0.1494898915030324
 40
0.2268802753188152
 40
0.2268802753188152
 40
0.2268802753188152
 40
0.2268802753188152
 10
-8.886001586914181
 20
-18.02099990844685
 30
0.0
 10
-8.886738032771422
 20
-18.03475542009816
 30
0.0
 10
-8.888348625104081
 20
-18.06483844844238
 30
0.0
 10
-8.921713226540317
 20
-18.10544663075005
 30
0.0
 10
-8.973855585339249
 20
-18.13926343887048
 30
0.0
 10
-9.016280989778456
 20
-18.15769695475811
 30
0.0
 10
-9.040000915527176
 20
-18.16800308227586
 30
0.0
 11
-8.886001586914181
 21
-18.02099990844685
 31
0.0
 11
-8.892002105713181
 21
-18.06100082397487
 31
0.0
 11
-8.920001983643182
 21
-18.10000228881886
 31
0.0
 11
-8.970001220703187
 21
-18.13499832153286
 31
0.0
 11
-9.040000915527176
 21
-18.16800308227586
 31
0.0
  0
SPLINE
  5
9AC4
330
1F
100
AcDbEntity
  8
AM_0
100
AcDbSpline
210
0.0
220
0.0
230
1.0
 70
     8
 71
     3
 72
    11
 73
     7
 74
     5
 42
0.0000000001
 43
0.0000000001
 44
0.0000000001
 40
0.0
 40
0.0
 40
0.0
 40
0.0
 40
0.6560941622386551
 40
1.292623200889632
 40
1.893096668007793
 40
2.439624537093274
 40
2.439624537093274
 40
2.439624537093274
 40
2.439624537093274
 10
-45.56499862670919
 20
-18.45599746704093
 30
0.0
 10
-45.78369805198472
 20
-18.45347732867411
 30
0.0
 10
-46.21457515378331
 20
-18.44851220398641
 30
0.0
 10
-46.84506428159968
 20
-18.42172171073936
 30
0.0
 10
-47.4386596998507
 20
-18.38445367095654
 30
0.0
 10
-47.81816995633703
 20
-18.33741283557603
 30
0.0
 10
-47.99900054931618
 20
-18.31499862670893
 30
0.0
 11
-45.56499862670919
 21
-18.45599746704093
 31
0.0
 11
-46.22100067138719
 21
-18.44500350952193
 31
0.0
 11
-46.85699844360318
 21
-18.41900253295893
 31
0.0
 11
-47.45600128173817
 21
-18.37700271606494
 31
0.0
 11
-47.99900054931618
 21
-18.31499862670893
 31
0.0
  0
ELLIPSE
  5
9AC5
330
1F
100
AcDbEntity
  8
AM_0
100
AcDbEllipse
 10
187.3259925842237
 20
-0.0010032653804375
 30
0.0
 11
-425.9960941741498
 21
-8.094900432452918
 31
0.0
210
0.0
220
0.0
230
1.0
 40
0.0392280259154
 41
0.992359811194694
 42
0.9999228688793309
  0
ELLIPSE
  5
9AC6
330
1F
100
AcDbEntity
  8
AM_0
100
AcDbEllipse
 10
-29.66600036621122
 20
-0.0000038146969019
 30
0.0
 11
-28.70886684784407
 21
-12.03651993152805
 31
0.0
210
0.0
220
0.0
230
1.0
 40
0.4937038193233
 41
0.4671178346941858
 42
0.6915120081914365
  0
ELLIPSE
  5
9AC7
330
1F
100
AcDbEntity
  8
AM_0
100
AcDbEllipse
 10
44.44201278686374
 20
-0.0000038146967423
 30
0.0
 11
236.5619549196899
 21
-0.1401916376994893
 31
0.0
210
0.0
220
0.0
230
1.0
 40
0.0786263248527
 41
4.4960682914678
 42
4.509217530125592
  0
SPLINE
  5
9AC8
330
1F
100
AcDbEntity
  8
AM_0
100
AcDbSpline
210
0.0
220
0.0
230
1.0
 70
     8
 71
     3
 72
    11
 73
     7
 74
     5
 42
0.0000000001
 43
0.0000000001
 44
0.0000000001
 40
0.0
 40
0.0
 40
0.0
 40
0.0
 40
0.220195144128376
 40
0.4263483899732198
 40
0.6197532899233769
 40
0.8045936413417623
 40
0.8045936413417623
 40
0.8045936413417623
 40
0.8045936413417623
 10
-5.7179985046392
 20
-15.70500183105485
 30
0.0
 10
-5.754782031531626
 20
-15.76860226107113
 30
0.0
 10
-5.826003390795477
 20
-15.89174730610097
 30
0.0
 10
-5.905839167650227
 20
-16.08274128319608
 30
0.0
 10
-5.961989246414765
 20
-16.27015374720279
 30
0.0
 10
-5.976104088185016
 20
-16.39566828252897
 30
0.0
 10
-5.983001708984189
 20
-16.45700454711885
 30
0.0
 11
-5.7179985046392
 21
-15.70500183105485
 31
0.0
 11
-5.824001312256188
 21
-15.89800262451185
 31
0.0
 11
-5.90399932861321
 21
-16.08800125122085
 31
0.0
 11
-5.957000732422202
 21
-16.27400207519485
 31
0.0
 11
-5.983001708984189
 21
-16.45700454711885
 31
0.0
  0
ELLIPSE
  5
9AC9
330
1F
100
AcDbEntity
  8
AM_0
100
AcDbEllipse
 10
-14.20499801635725
 20
13.52499771118113
 30
0.0
 11
-0.3535094791509841
 21
-7.548726253868005
 31
0.0
210
0.0
220
0.0
230
1.0
 40
0.1976975930858
 41
4.728616513205216
 42
4.782009863282903
  0
ELLIPSE
  5
9ACA
330
1F
100
AcDbEntity
  8
AM_0
100
AcDbEllipse
 10
-5.437999725342248
 20
13.01700210571314
 30
0.0
 11
1.499385821072998
 21
-0.0428828743949946
 31
0.0
210
0.0
220
0.0
230
1.0
 40
0.1900001335145
 41
0.0240462682965476
 42
3.002656364103341
  0
ELLIPSE
  5
9ACB
330
1F
100
AcDbEntity
  8
AM_0
100
AcDbEllipse
 10
-5.451000213623268
 20
12.58099746704114
 30
0.0
 11
-0.3441732650639767
 21
-7.853462085171004
 31
0.0
210
0.0
220
0.0
230
1.0
 40
0.1901791229884
 41
1.62835802592794
 42
1.650777662733343
  0
ELLIPSE
  5
9ACC
330
1F
100
AcDbEntity
  8
AM_0
100
AcDbEllipse
 10
-5.451000213623268
 20
12.58099746704114
 30
0.0
 11
-0.3441732650639767
 21
-7.853462085171004
 31
0.0
210
0.0
220
0.0
230
1.0
 40
0.1901791229884
 41
1.650777662733343
 42
1.675595831941931
  0
ELLIPSE
  5
9ACD
330
1F
100
AcDbEntity
  8
AM_0
100
AcDbEllipse
 10
-11.15200042724626
 20
-0.0000038146968513
 30
0.0
 11
2.624823708692038
 21
-18.598694175598
 31
0.0
210
0.0
220
0.0
230
1.0
 40
0.1200021969592
 41
0.0253860616386825
 42
0.1082183753609929
  0
SPLINE
  5
9ACE
330
1F
100
AcDbEntity
  8
AM_0
100
AcDbSpline
210
0.0
220
0.0
230
1.0
 70
     8
 71
     3
 72
    11
 73
     7
 74
     5
 42
0.0000000001
 43
0.0000000001
 44
0.0000000001
 40
0.0
 40
0.0
 40
0.0
 40
0.0
 40
0.1684426034137797
 40
0.4160304291354239
 40
0.7172954783636145
 40
1.04834469513577
 40
1.04834469513577
 40
1.04834469513577
 40
1.04834469513577
 10
-12.28200149536126
 20
11.23199844360313
 30
0.0
 10
-12.22635977210877
 20
11.2214239038278
 30
0.0
 10
-12.08893224763798
 20
11.19530622200929
 30
0.0
 10
-11.85120258631724
 20
11.25255213650129
 30
0.0
 10
-11.57541351756647
 20
11.35216637872426
 30
0.0
 10
-11.39595681635529
 20
11.46429413237626
 30
0.0
 10
-11.30200195312524
 20
11.52299880981414
 30
0.0
 11
-12.28200149536126
 21
11.23199844360313
 31
0.0
 11
-12.11500167846724
 21
11.20999908447211
 31
0.0
 11
-11.87100219726624
 21
11.25199890136713
 31
0.0
 11
-11.58900070190423
 21
11.35799789428713
 31
0.0
 11
-11.30200195312524
 21
11.52299880981414
 31
0.0
  0
ELLIPSE
  5
9ACF
330
1F
100
AcDbEntity
  8
AM_0
100
AcDbEllipse
 10
-9.194000244141252
 20
0.7569999694821341
 30
0.0
 11
1.744598428407996
 21
-0.1373956887819963
 31
0.0
210
0.0
220
0.0
230
1.0
 40
0.0034295547663
 41
1.641646971392944
 42
1.723623970709093
  0
ELLIPSE
  5
9AD0
330
1F
100
AcDbEntity
  8
AM_0
100
AcDbEllipse
 10
-9.351001739502232
 20
-1.229000091552866
 30
0.0
 11
1.744598428408003
 21
-0.1373956887819963
 31
0.0
210
0.0
220
0.0
230
1.0
 40
0.0034297258636
 41
3.141567163853846
 42
4.21331163433835
  0
ELLIPSE
  5
9AD1
330
1F
100
AcDbEntity
  8
AM_0
100
AcDbEllipse
 10
-46.35200119018621
 20
-0.0000038146969304
 30
0.0
 11
-0.945571329431959
 21
-18.59897829827099
 31
0.0
210
0.0
220
0.0
230
1.0
 40
0.1784890306709
 41
1.164251738737547
 42
1.254312530924986
  0
ELLIPSE
  5
9AD2
330
1F
100
AcDbEntity
  8
AM_0
100
AcDbEllipse
 10
-43.28200149536124
 20
-6.998001098632932
 30
0.0
 11
3.045894153754009
 21
-4.39343282440899
 31
0.0
210
0.0
220
0.0
230
1.0
 40
0.0699583619352
 41
1.962770889023353
 42
2.019281270883188
  0
ELLIPSE
  5
9AD3
330
1F
100
AcDbEntity
  8
AM_0
100
AcDbEllipse
 10
-44.98899841308623
 20
-5.125003814696938
 30
0.0
 11
-0.5913124028029971
 21
-0.5388393539689968
 31
0.0
210
0.0
220
0.0
230
1.0
 40
0.9700030264300997
 41
2.338070997713022
 42
2.45882934143938
  0
SPLINE
  5
9AD4
330
1F
100
AcDbEntity
  8
AM_0
100
AcDbSpline
210
0.0
220
0.0
230
1.0
 70
     8
 71
     3
 72
    11
 73
     7
 74
     5
 42
0.0000000001
 43
0.0000000001
 44
0.0000000001
 40
0.0
 40
0.0
 40
0.0
 40
0.0
 40
0.218286432377662
 40
0.4294607259991069
 40
0.6317746309779164
 40
0.8225408155780877
 40
0.8225408155780877
 40
0.8225408155780877
 40
0.8225408155780877
 10
-35.3600006103522
 20
-9.854000091552919
 30
0.0
 10
-35.2880485619265
 20
-9.867569047593176
 30
0.0
 10
-35.1464887837147
 20
-9.894264860285815
 30
0.0
 10
-34.96018923748753
 20
-9.997853146043771
 30
0.0
 10
-34.80679899381077
 20
-10.13443717001315
 30
0.0
 10
-34.74903445243145
 20
-10.25331033917614
 30
0.0
 10
-34.7210006713872
 20
-10.31100082397491
 30
0.0
 11
-35.3600006103522
 21
-9.854000091552919
 31
0.0
 11
-35.14799880981421
 21
-9.906002044677917
 31
0.0
 11
-34.9620018005372
 21
-10.00600051879891
 31
0.0
 11
-34.81499862670923
 21
-10.14500045776392
 31
0.0
 11
-34.7210006713872
 21
-10.31100082397491
 31
0.0
  0
SPLINE
  5
9AD5
330
1F
100
AcDbEntity
  8
AM_0
100
AcDbSpline
210
0.0
220
0.0
230
1.0
 70
     8
 71
     3
 72
    11
 73
     7
 74
     5
 42
0.0000000001
 43
0.0000000001
 44
0.0000000001
 40
0.0
 40
0.0
 40
0.0
 40
0.0
 40
0.0680098206107898
 40
0.1341070700050266
 40
0.2002261190474366
 40
0.2663489758068558
 40
0.2663489758068558
 40
0.2663489758068558
 40
0.2663489758068558
 10
-34.7210006713872
 20
-10.31100082397491
 30
0.0
 10
-34.71379066237589
 20
-10.33252276756251
 30
0.0
 10
-34.69957340412506
 20
-10.37496141494351
 30
0.0
 10
-34.68780682157453
 20
-10.44085834659051
 30
0.0
 10
-34.68330045672714
 20
-10.50703894031495
 30
0.0
 10
-34.68709956646254
 20
-10.55101379908849
 30
0.0
 10
-34.68899917602521
 20
-10.57300186157192
 30
0.0
 11
-34.7210006713872
 21
-10.31100082397491
 31
0.0
 11
-34.7010002136232
 21
-10.37600326538093
 31
0.0
 11
-34.68899917602521
 21
-10.44100189208992
 31
0.0
 11
-34.6850013732912
 21
-10.50699996948293
 31
0.0
 11
-34.68899917602521
 21
-10.57300186157192
 31
0.0
  0
SPLINE
  5
9AD6
330
1F
100
AcDbEntity
  8
AM_0
100
AcDbSpline
210
0.0
220
0.0
230
1.0
 70
     8
 71
     3
 72
    11
 73
     7
 74
     5
 42
0.0000000001
 43
0.0000000001
 44
0.0000000001
 40
0.0
 40
0.0
 40
0.0
 40
0.0
 40
0.6568410194011128
 40
1.332424554611004
 40
1.995672632956278
 40
2.621661728973596
 40
2.621661728973596
 40
2.621661728973596
 40
2.621661728973596
 10
-37.50299835205122
 20
-7.94800186157192
 30
0.0
 10
-37.32414797953536
 20
-7.812988524074087
 30
0.0
 10
-36.96134385966059
 20
-7.539109334485532
 30
0.0
 10
-36.26111820891566
 20
-7.529758244189919
 30
0.0
 10
-35.62479308756615
 20
-7.810466746833069
 30
0.0
 10
-35.4236602572163
 20
-8.203273629476331
 30
0.0
 10
-35.32600021362321
 20
-8.394001007079923
 30
0.0
 11
-37.50299835205122
 21
-7.94800186157192
 31
0.0
 11
-36.94100189209021
 21
-7.608001708984923
 31
0.0
 11
-36.26599884033222
 21
-7.580001831054919
 31
0.0
 11
-35.66999816894521
 21
-7.871002197265924
 31
0.0
 11
-35.32600021362321
 21
-8.394001007079923
 31
0.0
  0
SPLINE
  5
9AD7
330
1F
100
AcDbEntity
  8
AM_0
100
AcDbSpline
210
0.0
220
0.0
230
1.0
 70
     8
 71
     3
 72
    11
 73
     7
 74
     5
 42
0.0000000001
 43
0.0000000001
 44
0.0000000001
 40
0.0
 40
0.0
 40
0.0
 40
0.0
 40
0.2094771614241591
 40
0.417595098528248
 40
0.6252132311788158
 40
0.8340620391410913
 40
0.8340620391410913
 40
0.8340620391410913
 40
0.8340620391410913
 10
-35.32600021362321
 20
-8.394001007079923
 30
0.0
 10
-35.31014098099829
 20
-8.46230141801711
 30
0.0
 10
-35.27852542078369
 20
-8.598459062320308
 30
0.0
 10
-35.28816580200238
 20
-8.808856166871372
 30
0.0
 10
-35.33871042313541
 20
-9.01291557696709
 30
0.0
 10
-35.40616944421186
 20
-9.134853721873273
 30
0.0
 10
-35.43999862670923
 20
-9.196002960204921
 30
0.0
 11
-35.32600021362321
 21
-8.394001007079923
 31
0.0
 11
-35.28799819946323
 21
-8.600002288818915
 31
0.0
 11
-35.29499816894521
 21
-8.808002471923913
 31
0.0
 11
-35.34700012207022
 21
-9.009002685546919
 31
0.0
 11
-35.43999862670923
 21
-9.196002960204921
 31
0.0
  0
ELLIPSE
  5
9AD8
330
1F
100
AcDbEntity
  8
AM_0
100
AcDbEllipse
 10
-34.48199844360321
 20
-13.23700332641593
 30
0.0
 11
3.05404253133802
 21
-10.45507018330999
 31
0.0
210
0.0
220
0.0
230
1.0
 40
0.0103746042683
 41
1.896838481380201
 42
1.971731473988653
  0
ELLIPSE
  5
9AD9
330
1F
100
AcDbEntity
  8
AM_0
100
AcDbEllipse
 10
-37.99900054931622
 20
0.0000000000000724
 30
0.0
 11
3.005339955921038
 21
-18.59875096609599
 31
0.0
210
0.0
220
0.0
230
1.0
 40
0.0651805322171
 41
1.003759185657091
 42
1.041640077551875
  0
ELLIPSE
  5
9ADA
330
1F
100
AcDbEntity
  8
AM_0
100
AcDbEllipse
 10
26.84199905395475
 20
-0.0000038146967747
 30
0.0
 11
236.565232860069
 21
-9.845076182600486
 31
0.0
210
0.0
220
0.0
230
0.9999999999999998
 40
0.0664188896484
 41
4.499125674937663
 42
4.512371348920108
  0
SPLINE
  5
9ADB
330
1F
100
AcDbEntity
  8
AM_0
100
AcDbSpline
210
0.0
220
0.0
230
1.0
 70
     8
 71
     3
 72
    11
 73
     7
 74
     5
 42
0.0000000001
 43
0.0000000001
 44
0.0000000001
 40
0.0
 40
0.0
 40
0.0
 40
0.0
 40
1.433098397432629
 40
2.903106684905036
 40
4.400862302208714
 40
5.85583381816615
 40
5.85583381816615
 40
5.85583381816615
 40
5.85583381816615
 10
-20.47900009155323
 20
-9.171001434325892
 30
0.0
 10
-20.46868498638938
 20
-8.694552632694962
 30
0.0
 10
-20.44778910735533
 20
-7.729383943993835
 30
0.0
 10
-21.71593601858803
 20
-6.311965748220079
 30
0.0
 10
-23.18512883763661
 20
-7.524253351812713
 30
0.0
 10
-23.36792595916793
 20
-8.481375873329772
 30
0.0
 10
-23.45800018310522
 20
-8.95300292968789
 30
0.0
 11
-20.47900009155323
 21
-9.171001434325892
 31
0.0
 11
-20.6570014953612
 21
-7.749000549316899
 31
0.0
 11
-21.74000167846722
 21
-6.755001068114879
 31
0.0
 11
-22.99399948120122
 21
-7.574001312255894
 31
0.0
 11
-23.45800018310522
 21
-8.95300292968789
 31
0.0
  0
ELLIPSE
  5
9ADC
330
1F
100
AcDbEntity
  8
AM_0
100
AcDbEllipse
 10
-22.36999893188522
 20
-11.85699844360388
 30
0.0
 11
1.483911473756002
 21
-0.2191027676689967
 31
0.0
210
0.0
220
0.0
230
1.0
 40
0.8433333783679998
 41
0.1677698582752593
 42
2.676140145689924
  0
ELLIPSE
  5
9ADD
330
1F
100
AcDbEntity
  8
AM_0
100
AcDbEllipse
 10
-37.55199813842821
 20
-0.0000038146969213
 30
0.0
 11
0.04098965513104
 21
-18.59995521604499
 31
0.0
210
0.0
220
0.0
230
1.0
 40
0.1854839466365
 41
0.8760342046230247
 42
0.9656760753687734
  0
SPLINE
  5
9ADE
330
1F
100
AcDbEntity
  8
AM_0
100
AcDbSpline
210
0.0
220
0.0
230
1.0
 70
     8
 71
     3
 72
    11
 73
     7
 74
     5
 42
0.0000000001
 43
0.0000000001
 44
0.0000000001
 40
0.0
 40
0.0
 40
0.0
 40
0.0
 40
0.6641429094343704
 40
1.374148622394829
 40
2.040588018373678
 40
2.602495182533949
 40
2.602495182533949
 40
2.602495182533949
 40
2.602495182533949
 10
-28.70299911499023
 20
-12.2750015258789
 30
0.0
 10
-28.50977558638843
 20
-12.15804174217272
 30
0.0
 10
-28.10998535770323
 20
-11.91604544382734
 30
0.0
 10
-27.40616036989351
 20
-11.93734769209658
 30
0.0
 10
-26.76335216175932
 20
-12.19151373204618
 30
0.0
 10
-26.58128687056838
 20
-12.57265058512827
 30
0.0
 10
-26.49800109863321
 20
-12.74700164794891
 30
0.0
 11
-28.70299911499023
 21
-12.2750015258789
 31
0.0
 11
-28.10600280761722
 21
-11.98400115966791
 31
0.0
 11
-27.39599990844721
 21
-11.9820022583009
 31
0.0
 11
-26.79500198364321
 21
-12.2700004577639
 31
0.0
 11
-26.49800109863321
 21
-12.74700164794891
 31
0.0
  0
SPLINE
  5
9ADF
330
1F
100
AcDbEntity
  8
AM_0
100
AcDbSpline
210
0.0
220
0.0
230
1.0
 70
     8
 71
     3
 72
    11
 73
     7
 74
     5
 42
0.0000000001
 43
0.0000000001
 44
0.0000000001
 40
0.0
 40
0.0
 40
0.0
 40
0.0
 40
0.1435042509314256
 40
0.2878939058301821
 40
0.4334982834152776
 40
0.5846677759217284
 40
0.5846677759217284
 40
0.5846677759217284
 40
0.5846677759217284
 10
-26.49800109863321
 20
-12.74700164794891
 30
0.0
 10
-26.49175036678786
 20
-12.79463449849231
 30
0.0
 10
-26.47921033683352
 20
-12.8901940885376
 30
0.0
 10
-26.50124178240897
 20
-13.03470785094667
 30
0.0
 10
-26.55324332964387
 20
-13.17378756509218
 30
0.0
 10
-26.61072142583007
 20
-13.25475736167761
 30
0.0
 10
-26.63999938964821
 20
-13.2960014343259
 30
0.0
 11
-26.49800109863321
 21
-12.74700164794891
 31
0.0
 11
-26.48600006103522
 21
-12.8900032043459
 31
0.0
 11
-26.50600051879923
 21
-13.03300094604489
 31
0.0
 11
-26.55800247192423
 21
-13.1690025329589
 31
0.0
 11
-26.63999938964821
 21
-13.2960014343259
 31
0.0
  0
ELLIPSE
  5
9AE0
330
1F
100
AcDbEntity
  8
AM_0
100
AcDbEllipse
 10
-46.53400039672823
 20
-6.770000457763932
 30
0.0
 11
0.1622314718450023
 21
-0.7833785915240054
 31
0.0
210
0.0
220
0.0
230
1.0
 40
0.5124995306138001
 41
4.111926809054158
 42
4.183515254592413
  0
SPLINE
  5
9AE1
330
1F
100
AcDbEntity
  8
AM_0
100
AcDbSpline
210
0.0
220
0.0
230
1.0
 70
     8
 71
     3
 72
    11
 73
     7
 74
     5
 42
0.0000000001
 43
0.0000000001
 44
0.0000000001
 40
0.0
 40
0.0
 40
0.0
 40
0.0
 40
0.0704338042282435
 40
0.1411578524504444
 40
0.212279274923869
 40
0.2848923724499641
 40
0.2848923724499641
 40
0.2848923724499641
 40
0.2848923724499641
 10
-47.33800125122125
 20
-6.310001373290939
 30
0.0
 10
-47.35301336138588
 20
-6.328071169154522
 30
0.0
 10
-47.38309944369831
 20
-6.364285222992305
 30
0.0
 10
-47.42207682228372
 20
-6.423522770885809
 30
0.0
 10
-47.4553579079757
 20
-6.4869439180768
 30
0.0
 10
-47.47305703794417
 20
-6.531494427476921
 30
0.0
 10
-47.48199844360323
 20
-6.554000854491941
 30
0.0
 11
-47.33800125122125
 21
-6.310001373290939
 31
0.0
 11
-47.38199996948222
 21
-6.365001678466947
 31
0.0
 11
-47.42100143432621
 21
-6.423999786376936
 31
0.0
 11
-47.45399856567422
 21
-6.48700332641594
 31
0.0
 11
-47.48199844360323
 21
-6.554000854491941
 31
0.0
  0
ELLIPSE
  5
9AE2
330
1F
100
AcDbEntity
  8
AM_0
100
AcDbEllipse
 10
-49.11800003051823
 20
-4.923000335693944
 30
0.0
 11
4.984168995922998
 21
-0.397542886491994
 31
0.0
210
0.0
220
0.0
230
1.0
 40
0.1697999052238
 41
0.1808354982309357
 42
0.2537743638514601
  0
SPLINE
  5
9AE3
330
1F
100
AcDbEntity
  8
AM_0
100
AcDbSpline
210
0.0
220
0.0
230
1.0
 70
     8
 71
     3
 72
    11
 73
     7
 74
     5
 42
0.0000000001
 43
0.0000000001
 44
0.0000000001
 40
0.0
 40
0.0
 40
0.0
 40
0.0
 40
3.091783732404531
 40
6.182478178747079
 40
9.273315016528654
 40
12.36438929494942
 40
12.36438929494942
 40
12.36438929494942
 40
12.36438929494942
 10
-1.54500198364323
 20
-3.24800109863284
 30
0.0
 10
-1.511689130347302
 20
-4.278062516753428
 30
0.0
 10
-1.445075160419431
 20
-6.337822445481382
 30
0.0
 10
-1.314781780551232
 20
-9.42622415046685
 30
0.0
 10
-1.161798824136646
 20
-12.51334414032206
 30
0.0
 10
-1.040600854564773
 20
-14.57042360211825
 30
0.0
 10
-0.979999542236203
 20
-15.59900283813484
 30
0.0
 11
-1.54500198364323
 21
-3.24800109863284
 31
0.0
 11
-1.43999862670921
 21
-6.338001251220843
 31
0.0
 11
-1.31100082397522
 21
-9.426002502441845
 31
0.0
 11
-1.157001495361201
 21
-12.51300048828084
 31
0.0
 11
-0.979999542236203
 21
-15.59900283813484
 31
0.0
  0
ELLIPSE
  5
9AE4
330
1F
100
AcDbEntity
  8
AM_0
100
AcDbEllipse
 10
222.5390052795337
 20
0.000000000000643
 30
0.0
 11
-426.0100097656097
 21
-0.0000000000009183
 31
0.0
210
0.0
220
0.0
230
1.0
 40
0.043660951298
 41
0.9925881404688782
 42
1.005339240101323
  0
ELLIPSE
  5
9AE5
330
1F
100
AcDbEntity
  8
AM_0
100
AcDbEllipse
 10
-53.08300018310522
 20
-4.645000457763947
 30
0.0
 11
4.98416947125
 21
-0.3975429244049912
 31
0.0
210
0.0
220
0.0
230
1.0
 40
0.1697999009514
 41
1.840328910565517
 42
2.021526714248656
  0
SPLINE
  5
9AE6
330
1F
100
AcDbEntity
  8
AM_0
100
AcDbSpline
210
0.0
220
0.0
230
1.0
 70
     8
 71
     3
 72
    11
 73
     7
 74
     5
 42
0.0000000001
 43
0.0000000001
 44
0.0000000001
 40
0.0
 40
0.0
 40
0.0
 40
0.0
 40
0.562198487120242
 40
1.218687797700596
 40
1.942358172107031
 40
2.698877939177106
 40
2.698877939177106
 40
2.698877939177106
 40
2.698877939177106
 10
-13.57699966430721
 20
-12.18300247192388
 30
0.0
 10
-13.3908681938764
 20
-12.21727334289833
 30
0.0
 10
-12.987387649231
 20
-12.29156292785804
 30
0.0
 10
-12.44464462439148
 20
-12.67349978239917
 30
0.0
 10
-11.99529098594498
 20
-13.25589823193429
 30
0.0
 10
-11.92164107231162
 20
-13.75163289507935
 30
0.0
 10
-11.88399887085022
 20
-14.00500106811485
 30
0.0
 11
-13.57699966430721
 21
-12.18300247192388
 31
0.0
 11
-13.0320014953612
 21
-12.32100296020487
 31
0.0
 11
-12.48500061035222
 21
-12.68400192260787
 31
0.0
 11
-12.05900192260719
 21
-13.26900100707986
 31
0.0
 11
-11.88399887085022
 21
-14.00500106811485
 31
0.0
  0
ELLIPSE
  5
9AE7
330
1F
100
AcDbEntity
  8
AM_0
100
AcDbEllipse
 10
-11.17599868774418
 20
-28.66099929809585
 30
0.0
 11
1.025688923159104
 21
-50.76063823413001
 31
0.0
210
0.0
220
0.0
230
1.0
 40
0.0086072730144
 41
4.418607552643403
 42
4.445508394694436
  0
SPLINE
  5
9AE8
330
1F
100
AcDbEntity
  8
AM_0
100
AcDbSpline
210
0.0
220
0.0
230
1.0
 70
     8
 71
     3
 72
    11
 73
     7
 74
     5
 42
0.0000000001
 43
0.0000000001
 44
0.0000000001
 40
0.0
 40
0.0
 40
0.0
 40
0.0
 40
0.384572657592979
 40
0.7636877389017314
 40
1.139509954068131
 40
1.51219633388536
 40
1.51219633388536
 40
1.51219633388536
 40
1.51219633388536
 10
-10.36500167846717
 20
-15.57400131225586
 30
0.0
 10
-10.49310001430822
 20
-15.56838804326733
 30
0.0
 10
-10.74747880729838
 20
-15.55724116473329
 30
0.0
 10
-11.1252987417148
 20
-15.51613045064997
 30
0.0
 10
-11.49686126847081
 20
-15.45761380150541
 30
0.0
 10
-11.73995994633441
 20
-15.40112644937813
 30
0.0
 10
-11.86100006103519
 20
-15.37300109863285
 30
0.0
 11
-10.36500167846717
 21
-15.57400131225586
 31
0.0
 11
-10.74900054931622
 21
-15.55300140380885
 31
0.0
 11
-11.1259994506842
 21
-15.51300048828086
 31
0.0
 11
-11.4970016479492
 21
-15.45300292968785
 31
0.0
 11
-11.86100006103519
 21
-15.37300109863285
 31
0.0
  0
ELLIPSE
  5
9AE9
330
1F
100
AcDbEntity
  8
AM_0
100
AcDbEllipse
 10
-9.08300018310523
 20
-2.051002502441864
 30
0.0
 11
4.984565919666997
 21
-0.3925590305819886
 31
0.0
210
0.0
220
0.0
230
1.0
 40
0.0034002415836
 41
3.926992268785301
 42
4.427855020149447
  0
ELLIPSE
  5
9AEA
330
1F
100
AcDbEntity
  8
AM_0
100
AcDbEllipse
 10
-8.438999176025212
 20
-1.308002471923856
 30
0.0
 11
2.043302544571999
 21
-0.1526983627830019
 31
0.0
210
0.0
220
0.0
230
1.0
 40
0.0170823446498
 41
2.456031142879249
 42
2.523540571506701
  0
ELLIPSE
  5
9AEB
330
1F
100
AcDbEntity
  8
AM_0
100
AcDbEllipse
 10
-9.020999908447258
 20
-1.254001617431856
 30
0.0
 11
4.187034628390002
 21
-0.3297505315439915
 31
0.0
210
0.0
220
0.0
230
1.0
 40
0.0033336069323
 41
3.926973802884688
 42
4.4204373232972
  0
ELLIPSE
  5
9AEC
330
1F
100
AcDbEntity
  8
AM_0
100
AcDbEllipse
 10
-22.36999893188522
 20
-11.85700225830087
 30
0.0
 11
1.236593314543995
 21
-0.1825866054640004
 31
0.0
210
0.0
220
0.0
230
1.0
 40
0.8440005748746997
 41
0.0
 42
3.141592757171247
  0
ELLIPSE
  5
9AED
330
1F
100
AcDbEntity
  8
AM_0
100
AcDbEllipse
 10
-29.19900131225622
 20
0.0000000000000957
 30
0.0
 11
3.215876320641041
 21
-18.60004018147699
 31
0.0
210
0.0
220
0.0
230
1.0
 40
0.0193895721298
 41
0.71996978329909
 42
0.7760652703331881
  0
ELLIPSE
  5
9AEE
330
1F
100
AcDbEntity
  8
AM_0
100
AcDbEllipse
 10
-25.68200302124019
 20
-18.45100021362289
 30
0.0
 11
3.061708002631034
 21
-15.73285492825599
 31
0.0
210
0.0
220
0.0
230
1.0
 40
0.0014350735019
 41
1.8702958766258
 42
1.947762648110384
  0
SPLINE
  5
9AEF
330
1F
100
AcDbEntity
  8
AM_0
100
AcDbSpline
210
0.0
220
0.0
230
1.0
 70
     8
 71
     3
 72
    11
 73
     7
 74
     5
 42
0.0000000001
 43
0.0000000001
 44
0.0000000001
 40
0.0
 40
0.0
 40
0.0
 40
0.0
 40
0.2422169972156341
 40
0.466344523045447
 40
0.6639955103641276
 40
0.8352786413193651
 40
0.8352786413193651
 40
0.8352786413193651
 40
0.8352786413193651
 10
-26.56000137329121
 20
-13.81999969482391
 30
0.0
 10
-26.47985471486787
 20
-13.83290569429634
 30
0.0
 10
-26.32554698409022
 20
-13.85775383558113
 30
0.0
 10
-26.1239974364425
 20
-13.95269498178196
 30
0.0
 10
-25.96410677189078
 20
-14.07991698949882
 30
0.0
 10
-25.91691154236817
 20
-14.19539033683289
 30
0.0
 10
-25.89500045776421
 20
-14.24900054931689
 30
0.0
 11
-26.56000137329121
 21
-13.81999969482391
 31
0.0
 11
-26.3230018615722
 21
-13.87000274658189
 31
0.0
 11
-26.1200027465822
 21
-13.96500015258789
 31
0.0
 11
-25.97200012207019
 21
-14.09600067138689
 31
0.0
 11
-25.89500045776421
 21
-14.24900054931689
 31
0.0
  0
SPLINE
  5
9AF0
330
1F
100
AcDbEntity
  8
AM_0
100
AcDbSpline
210
0.0
220
0.0
230
1.0
 70
     8
 71
     3
 72
    11
 73
     7
 74
     5
 42
0.0000000001
 43
0.0000000001
 44
0.0000000001
 40
0.0
 40
0.0
 40
0.0
 40
0.0
 40
0.0337351747077449
 40
0.0668720507657957
 40
0.0998843148333663
 40
0.1330211908914079
 40
0.1330211908914079
 40
0.1330211908914079
 40
0.1330211908914079
 10
-25.89500045776421
 20
-14.24900054931689
 30
0.0
 10
-25.89239749687825
 20
-14.25995091014761
 30
0.0
 10
-25.8872377390286
 20
-14.28165742543082
 30
0.0
 10
-25.88427844062036
 20
-14.31495921968489
 30
0.0
 10
-25.88568752678803
 20
-14.34807156128604
 30
0.0
 10
-25.88789441579097
 20
-14.37001042345851
 30
0.0
 10
-25.88899993896521
 20
-14.38100051879888
 30
0.0
 11
-25.89500045776421
 21
-14.24900054931689
 31
0.0
 11
-25.88800048828119
 21
-14.28200149536089
 31
0.0
 11
-25.88500213623021
 21
-14.31500244140589
 31
0.0
 11
-25.88600158691423
 21
-14.34799957275389
 31
0.0
 11
-25.88899993896521
 21
-14.38100051879888
 31
0.0
  0
ELLIPSE
  5
9AF1
330
1F
100
AcDbEntity
  8
AM_0
100
AcDbEllipse
 10
-28.75200271606422
 20
-0.000003814696898
 30
0.0
 11
1.027757543484039
 21
-18.59862558254598
 31
0.0
210
0.0
220
0.0
230
1.0
 40
0.1771084664588
 41
0.5860687019077111
 42
0.6757561766064148
  0
ELLIPSE
  5
9AF2
330
1F
100
AcDbEntity
  8
AM_0
100
AcDbEllipse
 10
-22.36999893188522
 20
-11.85700225830087
 30
0.0
 11
1.236593314543995
 21
-0.1825866054640004
 31
0.0
210
0.0
220
0.0
230
1.0
 40
0.8440005748746997
 41
3.141592550008338
 42
6.283185307179585
  0
ELLIPSE
  5
9AF3
330
1F
100
AcDbEntity
  8
AM_0
100
AcDbEllipse
 10
-4.372001647949231
 20
0.000000000000159
 30
0.0
 11
0.8227160947480356
 21
-18.59981162113699
 31
0.0
210
0.0
220
0.0
230
1.0
 40
0.0786335940187
 41
0.2013778638771959
 42
0.5006860363879967
  0
ELLIPSE
  5
9AF4
330
1F
100
AcDbEntity
  8
AM_0
100
AcDbEllipse
 10
-39.57799911499023
 20
-0.2040023803709143
 30
0.0
 11
-4.953801069099965
 21
-16.98430942018199
 31
0.0
210
0.0
220
0.0
230
1.0
 40
0.2084557409335
 41
0.6800897385705339
 42
0.9399431209664204
  0
ELLIPSE
  5
9AF5
330
1F
100
AcDbEntity
  8
AM_0
100
AcDbEllipse
 10
-13.5699996948242
 20
-14.71599960327188
 30
0.0
 11
1.203170812717999
 21
-0.3389434726219964
 31
0.0
210
0.0
220
0.0
230
1.0
 40
0.9575976735707
 41
3.480458326058831
 42
6.283185307179585
  0
ELLIPSE
  5
9AF6
330
1F
100
AcDbEntity
  8
AM_0
100
AcDbEllipse
 10
-13.5699996948242
 20
-14.71599960327188
 30
0.0
 11
1.203170812717999
 21
-0.3389434726219964
 31
0.0
210
0.0
220
0.0
230
1.0
 40
0.9575976735707
 41
3.141592562295913
 42
3.155045151540566
  0
ELLIPSE
  5
9AF7
330
1F
100
AcDbEntity
  8
AM_0
100
AcDbEllipse
 10
-13.5699996948242
 20
-14.71599960327188
 30
0.0
 11
1.203170812717999
 21
-0.3389434726219964
 31
0.0
210
0.0
220
0.0
230
1.0
 40
0.9575976735707
 41
0.0
 42
3.141592744883671
  0
ELLIPSE
  5
9AF8
330
1F
100
AcDbEntity
  8
AM_0
100
AcDbEllipse
 10
-19.95199966430726
 20
0.0000000000001067
 30
0.0
 11
1.90747434921504
 21
-18.59843687884399
 31
0.0
210
0.0
220
0.0
230
1.0
 40
0.1544714916323
 41
0.301614878611741
 42
0.3935711894837614
  0
ELLIPSE
  5
9AF9
330
1F
100
AcDbEntity
  8
AM_0
100
AcDbEllipse
 10
-4.452999114990245
 20
0.0000000000001586
 30
0.0
 11
-1.46866135441696
 21
-18.60010841712101
 31
0.0
210
0.0
220
0.0
230
1.0
 40
0.0434129631924
 41
1.781183065466263
 42
2.069341552560612
  0
SPLINE
  5
9AFA
330
1F
100
AcDbEntity
  8
AM_0
100
AcDbSpline
210
0.0
220
0.0
230
1.0
 70
     8
 71
     3
 72
    11
 73
     7
 74
     5
 42
0.0000000001
 43
0.0000000001
 44
0.0000000001
 40
0.0
 40
0.0
 40
0.0
 40
0.0
 40
1.330666564886698
 40
2.672248498571224
 40
4.009928077557471
 40
5.350781447875375
 40
5.350781447875375
 40
5.350781447875375
 40
5.350781447875375
 10
-5.281002044678264
 20
18.29799842834515
 30
0.0
 10
-5.738417611595491
 20
18.20603210058328
 30
0.0
 10
-6.657000894720025
 20
18.02134505142631
 30
0.0
 10
-7.289542859248644
 20
16.63614304169274
 30
0.0
 10
-6.791706191206591
 20
15.18879365227877
 30
0.0
 10
-5.886258789829758
 20
14.93036574625507
 30
0.0
 10
-5.432998657227276
 20
14.80099868774414
 30
0.0
 11
-5.281002044678264
 21
18.29799842834515
 31
0.0
 11
-6.529998779297261
 21
17.83899879455613
 31
0.0
 11
-7.101001739502278
 21
16.62499809265113
 31
0.0
 11
-6.649002075195262
 21
15.36599731445314
 31
0.0
 11
-5.432998657227276
 21
14.80099868774414
 31
0.0
  0
SPLINE
  5
9AFB
330
1F
100
AcDbEntity
  8
AM_0
100
AcDbSpline
210
0.0
220
0.0
230
1.0
 70
     8
 71
     3
 72
    11
 73
     7
 74
     5
 42
0.0000000001
 43
0.0000000001
 44
0.0000000001
 40
0.0
 40
0.0
 40
0.0
 40
0.0
 40
0.2879339213341849
 40
0.5774030232081215
 40
0.8657388541324191
 40
1.151202839148615
 40
1.151202839148615
 40
1.151202839148615
 40
1.151202839148615
 10
-9.094001770019273
 20
19.81999778747514
 30
0.0
 10
-9.190828699074643
 20
19.81324762092992
 30
0.0
 10
-9.384998810416403
 20
19.79971129790029
 30
0.0
 10
-9.643083755597876
 20
19.65430435397513
 30
0.0
 10
-9.844340590079989
 20
19.43718951186538
 30
0.0
 10
-9.898870294878021
 20
19.25141890530589
 30
0.0
 10
-9.925998687744248
 20
19.15899848938012
 30
0.0
 11
-9.094001770019273
 21
19.81999778747514
 31
0.0
 11
-9.37900161743229
 21
19.77899742126413
 31
0.0
 11
-9.633998870850286
 21
19.64199829101513
 31
0.0
 11
-9.825000762939279
 21
19.42599868774413
 31
0.0
 11
-9.925998687744248
 21
19.15899848938012
 31
0.0
  0
SPLINE
  5
9AFC
330
1F
100
AcDbEntity
  8
AM_0
100
AcDbSpline
210
0.0
220
0.0
230
1.0
 70
     8
 71
     3
 72
    11
 73
     7
 74
     5
 42
0.0000000001
 43
0.0000000001
 44
0.0000000001
 40
0.0
 40
0.0
 40
0.0
 40
0.0
 40
0.1140724369931627
 40
0.2285600272938435
 40
0.3427614348466355
 40
0.4570490114052061
 40
0.4570490114052061
 40
0.4570490114052061
 40
0.4570490114052061
 10
-10.78300094604526
 20
13.88199996948213
 30
0.0
 10
-10.78409420596454
 20
13.8436720039428
 30
0.0
 10
-10.78628470459487
 20
13.76687658271136
 30
0.0
 10
-10.74573222594316
 20
13.65761997540539
 30
0.0
 10
-10.67704593534772
 20
13.56308186233915
 30
0.0
 10
-10.61102302141597
 20
13.52369744022481
 30
0.0
 10
-10.57799911499029
 20
13.50399780273413
 30
0.0
 11
-10.78300094604526
 21
13.88199996948213
 31
0.0
 11
-10.77899932861328
 21
13.76799774169913
 31
0.0
 11
-10.74100112915027
 21
13.65999984741213
 31
0.0
 11
-10.67200088501027
 21
13.56900024414014
 31
0.0
 11
-10.57799911499029
 21
13.50399780273413
 31
0.0
  0
SPLINE
  5
9AFD
330
1F
100
AcDbEntity
  8
AM_0
100
AcDbSpline
210
0.0
220
0.0
230
1.0
 70
     8
 71
     3
 72
    11
 73
     7
 74
     5
 42
0.0000000001
 43
0.0000000001
 44
0.0000000001
 40
0.0
 40
0.0
 40
0.0
 40
0.0
 40
0.1397158808026843
 40
0.2782522391330906
 40
0.4172279568787651
 40
0.5538456963686769
 40
0.5538456963686769
 40
0.5538456963686769
 40
0.5538456963686769
 10
-44.15999984741223
 20
-5.123001098632936
 30
0.0
 10
-44.11423378140989
 20
-5.132157606884286
 30
0.0
 10
-44.02308801996673
 20
-5.150393321456896
 30
0.0
 10
-43.89412999138184
 20
-5.204690067283463
 30
0.0
 10
-43.77651366398198
 20
-5.278747399870162
 30
0.0
 10
-43.7106509834513
 20
-5.343099331715778
 30
0.0
 10
-43.67800140380921
 20
-5.374999999999938
 30
0.0
 11
-44.15999984741223
 21
-5.123001098632936
 31
0.0
 11
-44.02399826049822
 21
-5.155002593993936
 31
0.0
 11
-43.89599990844724
 21
-5.208000183105933
 31
0.0
 11
-43.77899932861323
 21
-5.28300094604493
 31
0.0
 11
-43.67800140380921
 21
-5.374999999999938
 31
0.0
  0
ELLIPSE
  5
9AFE
330
1F
100
AcDbEntity
  8
AM_0
100
AcDbEllipse
 10
-48.29100036621121
 20
-0.0000038146969529
 30
0.0
 11
-1.300365171818958
 21
-18.60060305835799
 31
0.0
210
0.0
220
0.0
230
1.0
 40
0.0564195915967
 41
1.606407316910768
 42
1.896423540070721
  0
SPLINE
  5
9AFF
330
1F
100
AcDbEntity
  8
AM_0
100
AcDbSpline
210
0.0
220
0.0
230
1.0
 70
     8
 71
     3
 72
    11
 73
     7
 74
     5
 42
0.0000000001
 43
0.0000000001
 44
0.0000000001
 40
0.0
 40
0.0
 40
0.0
 40
0.0
 40
1.340656532446975
 40
2.676753675116426
 40
4.019472442439057
 40
5.347643352760296
 40
5.347643352760296
 40
5.347643352760296
 40
5.347643352760296
 10
-5.432998657227276
 20
14.80099868774414
 30
0.0
 10
-4.970263372491703
 20
14.89076181142417
 30
0.0
 10
-4.046366502529615
 20
15.06998278665927
 30
0.0
 10
-3.42648290700405
 20
16.46874269133661
 30
0.0
 10
-3.935930966321696
 20
17.90259796541096
 30
0.0
 10
-4.834276060089806
 20
18.16667773908698
 30
0.0
 10
-5.281002044678264
 20
18.29799842834515
 30
0.0
 11
-5.432998657227276
 21
14.80099868774414
 31
0.0
 11
-4.173000335693266
 21
15.25899887084915
 31
0.0
 11
-3.615001678467263
 21
16.47299766540516
 31
0.0
 11
-4.07899856567427
 21
17.73299789428713
 31
0.0
 11
-5.281002044678264
 21
18.29799842834515
 31
0.0
  0
SPLINE
  5
9B00
330
1F
100
AcDbEntity
  8
AM_0
100
AcDbSpline
210
0.0
220
0.0
230
1.0
 70
     8
 71
     3
 72
    11
 73
     7
 74
     5
 42
0.0000000001
 43
0.0000000001
 44
0.0000000001
 40
0.0
 40
0.0
 40
0.0
 40
0.0
 40
1.054710066541473
 40
2.109420133082117
 40
3.164130199623579
 40
4.218661644677458
 40
4.218661644677458
 40
4.218661644677458
 40
4.218661644677458
 10
-9.925998687744248
 20
19.15899848938012
 30
0.0
 10
-9.98833787473023
 20
18.81299948907039
 30
0.0
 10
-10.11301624870214
 20
18.12100148845117
 30
0.0
 10
-10.29993009186048
 20
17.08298585222552
 30
0.0
 10
-10.48724823114264
 20
16.04510335104174
 30
0.0
 10
-10.61108646326387
 20
15.35301489345784
 30
0.0
 10
-10.67300033569327
 20
15.00699996948213
 30
0.0
 11
-9.925998687744248
 21
19.15899848938012
 31
0.0
 11
-10.11299896240226
 21
18.12099838256812
 31
0.0
 11
-10.29999923706126
 21
17.08299827575713
 31
0.0
 11
-10.48699951171927
 21
16.04499816894512
 31
0.0
 11
-10.67300033569327
 21
15.00699996948213
 31
0.0
  0
SPLINE
  5
9B01
330
1F
100
AcDbEntity
  8
AM_0
100
AcDbSpline
210
0.0
220
0.0
230
1.0
 70
     8
 71
     3
 72
    11
 73
     7
 74
     5
 42
0.0000000001
 43
0.0000000001
 44
0.0000000001
 40
0.0
 40
0.0
 40
0.0
 40
0.0
 40
2.221416945866351
 40
4.442890064866076
 40
6.665452654802724
 40
8.889083975249079
 40
8.889083975249079
 40
8.889083975249079
 40
8.889083975249079
 10
-1.539001464844273
 20
13.27599716186514
 30
0.0
 10
-2.279338741611017
 20
13.29014122942299
 30
0.0
 10
-3.760032016107565
 20
13.31842972220074
 30
0.0
 10
-5.981377412678304
 20
13.36429551564164
 30
0.0
 10
-8.20336867010053
 20
13.41443873632425
 30
0.0
 10
-9.685003301815333
 20
13.45014238784159
 30
0.0
 10
-10.42599868774424
 20
13.46799850463911
 30
0.0
 11
-1.539001464844273
 21
13.27599716186514
 31
0.0
 11
-3.760002136230268
 21
13.31900024414014
 31
0.0
 11
-5.980998992920261
 21
13.36499786376914
 31
0.0
 11
-8.202999114990289
 21
13.41499710083013
 31
0.0
 11
-10.42599868774424
 21
13.46799850463911
 31
0.0
  0
SPLINE
  5
9B02
330
1F
100
AcDbEntity
  8
AM_0
100
AcDbSpline
210
0.0
220
0.0
230
1.0
 70
     8
 71
     3
 72
    11
 73
     7
 74
     5
 42
0.0000000001
 43
0.0000000001
 44
0.0000000001
 40
0.0
 40
0.0
 40
0.0
 40
0.0
 40
2.187594857842368
 40
4.371121131230001
 40
6.552564687710689
 40
8.729971743942757
 40
8.729971743942757
 40
8.729971743942757
 40
8.729971743942757
 10
-0.3660011291502736
 20
19.63499832153315
 30
0.0
 10
-1.094997088959714
 20
19.65217583062284
 30
0.0
 10
-2.551633190055339
 20
19.68649890132063
 30
0.0
 10
-4.735289572611811
 20
19.73476752000073
 30
0.0
 10
-6.915649188939559
 20
19.77825613517979
 30
0.0
 10
-8.368332660684723
 20
19.80609249596888
 30
0.0
 10
-9.094001770019273
 20
19.81999778747514
 30
0.0
 11
-0.3660011291502736
 21
19.63499832153315
 31
0.0
 11
-2.553001403809271
 21
19.68599891662613
 31
0.0
 11
-4.736000061035266
 21
19.73399734497115
 31
0.0
 11
-6.916999816894271
 21
19.77799797058113
 31
0.0
 11
-9.094001770019273
 21
19.81999778747514
 31
0.0
  0
SPLINE
  5
9B03
330
1F
100
AcDbEntity
  8
AM_0
100
AcDbSpline
210
0.0
220
0.0
230
1.0
 70
     8
 71
     3
 72
    11
 73
     7
 74
     5
 42
0.0000000001
 43
0.0000000001
 44
0.0000000001
 40
0.0
 40
0.0
 40
0.0
 40
0.0
 40
0.2877933047655196
 40
0.5746288904362462
 40
0.8596740027845399
 40
1.143683099465565
 40
1.143683099465565
 40
1.143683099465565
 40
1.143683099465565
 10
-1.539001464844273
 20
13.27599716186514
 30
0.0
 10
-1.442127291481804
 20
13.28222221604069
 30
0.0
 10
-1.248701322811134
 20
13.29465160864492
 30
0.0
 10
-0.9928615878609587
 20
13.44043991640753
 30
0.0
 10
-0.7956775741116655
 20
13.65849702998808
 30
0.0
 10
-0.7465294465177826
 20
13.84427860393101
 30
0.0
 10
-0.7220001220702707
 20
13.93700027465815
 30
0.0
 11
-1.539001464844273
 21
13.27599716186514
 31
0.0
 11
-1.254001617432277
 21
13.31599807739214
 31
0.0
 11
-1.001998901367271
 21
13.45299911499014
 31
0.0
 11
-0.8160018920902697
 21
13.66899871826215
 31
0.0
 11
-0.7220001220702707
 21
13.93700027465815
 31
0.0
  0
SPLINE
  5
9B04
330
1F
100
AcDbEntity
  8
AM_0
100
AcDbSpline
210
0.0
220
0.0
230
1.0
 70
     8
 71
     3
 72
    11
 73
     7
 74
     5
 42
0.0000000001
 43
0.0000000001
 44
0.0000000001
 40
0.0
 40
0.0
 40
0.0
 40
0.0
 40
0.1566086022175957
 40
0.3114522895508969
 40
0.465807045319292
 40
0.6178074725653005
 40
0.6178074725653005
 40
0.6178074725653005
 40
0.6178074725653005
 10
-43.67800140380921
 20
-5.374999999999938
 30
0.0
 10
-43.64504014227668
 20
-5.415744383554804
 30
0.0
 10
-43.57948907914585
 20
-5.49677397812887
 30
0.0
 10
-43.51624091602289
 20
-5.640262404338953
 30
0.0
 10
-43.48231767918633
 20
-5.791782515317836
 30
0.0
 10
-43.48678294024293
 20
-5.894192182986964
 30
0.0
 10
-43.48899841308621
 20
-5.945003509521947
 30
0.0
 11
-43.67800140380921
 21
-5.374999999999938
 31
0.0
 11
-43.58499908447322
 21
-5.501003265380938
 31
0.0
 11
-43.52099990844725
 21
-5.642002105712941
 31
0.0
 11
-43.48899841308622
 21
-5.793003082275938
 31
0.0
 11
-43.48899841308621
 21
-5.945003509521947
 31
0.0
  0
ELLIPSE
  5
9B05
330
1F
100
AcDbEntity
  8
AM_0
100
AcDbEllipse
 10
-39.49100112915022
 20
-0.0000038146969153
 30
0.0
 11
-0.9642742890339615
 21
-18.600021507932
 31
0.0
210
0.0
220
0.0
230
1.0
 40
0.0735571176414
 41
1.327510139387162
 42
1.617520777502087
  0
ELLIPSE
  5
9B06
330
1F
100
AcDbEntity
  8
AM_0
100
AcDbEllipse
 10
18.04200363159175
 20
-0.000003814696798
 30
0.0
 11
236.562340718042
 21
-13.87671207515348
 31
0.0
210
0.0
220
0.0
230
1.0
 40
0.0522304612041
 41
4.499963112349512
 42
4.51272437026656
  0
SPLINE
  5
9B07
330
1F
100
AcDbEntity
  8
AM_0
100
AcDbSpline
210
0.0
220
0.0
230
1.0
 70
     8
 71
     3
 72
    11
 73
     7
 74
     5
 42
0.0000000001
 43
0.0000000001
 44
0.0000000001
 40
0.0
 40
0.0
 40
0.0
 40
0.0
 40
1.618431578352425
 40
3.16857322819743
 40
4.749084550422091
 40
6.371467303426554
 40
6.371467303426554
 40
6.371467303426554
 40
6.371467303426554
 10
-29.27899932861321
 20
-4.356002807616907
 30
0.0
 10
-29.25703646728024
 20
-3.819652835829248
 30
0.0
 10
-29.21403747037168
 20
-2.769584248264433
 30
0.0
 10
-30.6311505398173
 20
-1.207496155207112
 30
0.0
 10
-32.06747310642823
 20
-2.718759330180056
 30
0.0
 10
-32.20655192787943
 20
-3.751752686967444
 30
0.0
 10
-32.27700042724621
 20
-4.275001525878908
 30
0.0
 11
-29.27899932861321
 21
-4.356002807616907
 31
0.0
 11
-29.47100067138722
 21
-2.749000549316907
 31
0.0
 11
-30.62500000000022
 21
-1.714000701903907
 31
0.0
 11
-31.8530006408692
 21
-2.709003448485902
 31
0.0
 11
-32.27700042724621
 21
-4.275001525878908
 31
0.0
  0
ELLIPSE
  5
9B08
330
1F
100
AcDbEntity
  8
AM_0
100
AcDbEllipse
 10
-31.17000198364323
 20
-8.079998016357915
 30
0.0
 11
1.491802194882996
 21
-0.1566027560589913
 31
0.0
210
0.0
220
0.0
230
1.0
 40
0.6646651286543001
 41
0.1140994301352152
 42
2.702009340272976
  0
SPLINE
  5
9B09
330
1F
100
AcDbEntity
  8
AM_0
100
AcDbSpline
210
0.0
220
0.0
230
1.0
 70
     8
 71
     3
 72
    11
 73
     7
 74
     5
 42
0.0000000001
 43
0.0000000001
 44
0.0000000001
 40
0.0
 40
0.0
 40
0.0
 40
0.0
 40
0.5744415296510251
 40
1.155721801353696
 40
1.74034034978538
 40
2.326299769592007
 40
2.326299769592007
 40
2.326299769592007
 40
2.326299769592007
 10
-55.18700075149513
 20
-3.797000885009964
 30
0.0
 10
-55.14875057163019
 20
-3.606579511467475
 30
0.0
 10
-55.07179484246752
 20
-3.223469792745596
 30
0.0
 10
-54.68619465939767
 20
-2.763997268918172
 30
0.0
 10
-54.16545748231309
 20
-2.45938706206501
 30
0.0
 10
-53.76996923260221
 20
-2.445802867969058
 30
0.0
 10
-53.57199859619111
 20
-2.439002990722962
 30
0.0
 11
-55.18700075149513
 21
-3.797000885009964
 31
0.0
 11
-55.0280003547666
 21
-3.245002746581959
 31
0.0
 11
-54.66500091552709
 21
-2.791000366210964
 31
0.0
 11
-54.15399932861301
 21
-2.506999969482957
 31
0.0
 11
-53.57199859619111
 21
-2.439002990722962
 31
0.0
  0
ELLIPSE
  5
9B0A
330
1F
100
AcDbEntity
  8
AM_0
100
AcDbEllipse
 10
-39.97000122070321
 20
-3.676002502441924
 30
0.0
 11
1.245208749305998
 21
-0.1093519678009942
 31
0.0
210
0.0
220
0.0
230
1.0
 40
0.4335984799970002
 41
3.141592451968221
 42
6.283185307179585
  0
ELLIPSE
  5
9B0B
330
1F
100
AcDbEntity
  8
AM_0
100
AcDbEllipse
 10
-39.97000122070321
 20
-3.676002502441924
 30
0.0
 11
1.245208749305998
 21
-0.1093519678009942
 31
0.0
210
0.0
220
0.0
230
1.0
 40
0.4335984799970002
 41
0.0
 42
3.141592855211364
  0
ELLIPSE
  5
9B0C
330
1F
100
AcDbEntity
  8
AM_0
100
AcDbEllipse
 10
-30.69100189209021
 20
-0.0000038146969062
 30
0.0
 11
-0.5543656277519621
 21
-18.59974019626199
 31
0.0
210
0.0
220
0.0
230
1.0
 40
0.0850709351656
 41
1.046339084928217
 42
1.336970912519833
  0
ELLIPSE
  5
9B0D
330
1F
100
AcDbEntity
  8
AM_0
100
AcDbEllipse
 10
-31.17000007629421
 20
-8.079998016357915
 30
0.0
 11
1.243169788517
 21
-0.1305027320869927
 31
0.0
210
0.0
220
0.0
230
1.0
 40
0.6647973867815002
 41
3.141592522086858
 42
6.283185307179585
  0
ELLIPSE
  5
9B0E
330
1F
100
AcDbEntity
  8
AM_0
100
AcDbEllipse
 10
-31.17000007629421
 20
-8.079998016357915
 30
0.0
 11
1.243169788517
 21
-0.1305027320869927
 31
0.0
210
0.0
220
0.0
230
1.0
 40
0.6647973867815002
 41
0.0
 42
3.141592785092726
  0
SPLINE
  5
9B0F
330
1F
100
AcDbEntity
  8
AM_0
100
AcDbSpline
210
0.0
220
0.0
230
1.0
 70
     8
 71
     3
 72
    11
 73
     7
 74
     5
 42
0.0000000001
 43
0.0000000001
 44
0.0000000001
 40
0.0
 40
0.0
 40
0.0
 40
0.0
 40
0.3624033902109937
 40
0.7278329768435201
 40
1.095616308660458
 40
1.462056058442399
 40
1.462056058442399
 40
1.462056058442399
 40
1.462056058442399
 10
-18.98699951171925
 20
-1.261001586913865
 30
0.0
 10
-18.9607483566149
 20
-1.139152790505807
 30
0.0
 10
-18.90802683998102
 20
-0.8944377171649001
 30
0.0
 10
-18.59646507664882
 20
-0.6629675241972394
 30
0.0
 10
-18.24671477037821
 20
-0.5425745253679212
 30
0.0
 10
-18.00008963134073
 20
-0.5441938186194732
 30
0.0
 10
-17.87700271606421
 20
-0.5450019836428748
 30
0.0
 11
-18.98699951171925
 21
-1.261001586913865
 31
0.0
 11
-18.87000274658225
 21
-0.9180030822758759
 31
0.0
 11
-18.59099960327124
 21
-0.6820030212398662
 31
0.0
 11
-18.24300003051826
 21
-0.5630035400388634
 31
0.0
 11
-17.87700271606421
 21
-0.5450019836428748
 31
0.0
  0
ELLIPSE
  5
9B10
330
1F
100
AcDbEntity
  8
AM_0
100
AcDbEllipse
 10
-1.835002899170245
 20
0.0000000000001556
 30
0.0
 11
-7.265859601792966
 21
-17.43780724266901
 31
0.0
210
0.0
220
0.0
230
1.0
 40
0.8911123060997997
 41
5.136330094815851
 42
5.872669684177236
  0
ELLIPSE
  5
9B11
330
1F
100
AcDbEntity
  8
AM_0
100
AcDbEllipse
 10
-21.89100265502923
 20
-0.0000038146968829
 30
0.0
 11
-0.0892116219769602
 21
-18.59978643633299
 31
0.0
210
0.0
220
0.0
230
1.0
 40
0.0899461566259
 41
0.7638090337760253
 42
1.056874629780572
  0
ELLIPSE
  5
9B12
330
1F
100
AcDbEntity
  8
AM_0
100
AcDbEllipse
 10
-46.79899978637723
 20
0.0000000000000634
 30
0.0
 11
2.567786657458038
 21
-18.597568496556
 31
0.0
210
0.0
220
0.0
230
1.0
 40
0.1065836444094
 41
1.27726008013525
 42
1.318466777148969
  0
SPLINE
  5
9B13
330
1F
100
AcDbEntity
  8
AM_0
100
AcDbSpline
210
0.0
220
0.0
230
1.0
 70
     8
 71
     3
 72
    11
 73
     7
 74
     5
 42
0.0000000001
 43
0.0000000001
 44
0.0000000001
 40
0.0
 40
0.0
 40
0.0
 40
0.0
 40
0.5642774075060922
 40
1.130006740357158
 40
1.69623816305646
 40
2.259074701164144
 40
2.259074701164144
 40
2.259074701164144
 40
2.259074701164144
 10
-46.30300140380921
 20
-3.005001068114926
 30
0.0
 10
-46.15902661012337
 20
-2.878544706252029
 30
0.0
 10
-45.8707065655099
 20
-2.625306601438174
 30
0.0
 10
-45.28695837664349
 20
-2.536362022664862
 30
0.0
 10
-44.7149170035307
 20
-2.678943791723209
 30
0.0
 10
-44.45004071990688
 20
-2.95592672159471
 30
0.0
 10
-44.31800079345721
 20
-3.09400177001994
 30
0.0
 11
-46.30300140380921
 21
-3.005001068114926
 31
0.0
 11
-45.84600067138721
 21
-2.674003601073937
 31
0.0
 11
-45.28900146484421
 21
-2.575000762939951
 31
0.0
 11
-44.74300003051821
 21
-2.725002288818939
 31
0.0
 11
-44.31800079345721
 21
-3.09400177001994
 31
0.0
  0
SPLINE
  5
9B14
330
1F
100
AcDbEntity
  8
AM_0
100
AcDbSpline
210
0.0
220
0.0
230
1.0
 70
     8
 71
     3
 72
    11
 73
     7
 74
     5
 42
0.0000000001
 43
0.0000000001
 44
0.0000000001
 40
0.0
 40
0.0
 40
0.0
 40
0.0
 40
0.3422333262567645
 40
0.6832895346632278
 40
1.02252872484638
 40
1.361625268723458
 40
1.361625268723458
 40
1.361625268723458
 40
1.361625268723458
 10
-44.31800079345721
 20
-3.09400177001994
 30
0.0
 10
-44.25791467249072
 20
-3.191973152230272
 30
0.0
 10
-44.13794909788124
 20
-3.387578942271265
 30
0.0
 10
-44.07331008332536
 20
-3.728522794799032
 30
0.0
 10
-44.09714186462825
 20
-4.07363570268775
 30
0.0
 10
-44.19238841694386
 20
-4.280561529311485
 30
0.0
 10
-44.2400016784672
 20
-4.384002685546941
 30
0.0
 11
-44.31800079345721
 21
-3.09400177001994
 31
0.0
 11
-44.15700149536123
 21
-3.395999908446935
 31
0.0
 11
-44.08800125122123
 21
-3.730003356933944
 31
0.0
 11
-44.11700057983423
 21
-4.068000793456941
 31
0.0
 11
-44.2400016784672
 21
-4.384002685546941
 31
0.0
  0
ELLIPSE
  5
9B15
330
1F
100
AcDbEntity
  8
AM_0
100
AcDbEllipse
 10
-9.351001739502232
 20
-1.229000091552866
 30
0.0
 11
1.744598428408003
 21
-0.1373956887819963
 31
0.0
210
0.0
220
0.0
230
1.0
 40
0.0034297258636
 41
2.081302976001984
 42
3.141618143325739
  0
SPLINE
  5
9B16
330
1F
100
AcDbEntity
  8
AM_0
100
AcDbSpline
210
0.0
220
0.0
230
1.0
 70
     8
 71
     3
 72
    11
 73
     7
 74
     5
 42
0.0000000001
 43
0.0000000001
 44
0.0000000001
 40
0.0
 40
0.0
 40
0.0
 40
0.0
 40
0.1142131242847103
 40
0.228440633483363
 40
0.3430774198562711
 40
0.4573564203526301
 40
0.4573564203526301
 40
0.4573564203526301
 40
0.4573564203526301
 10
-8.7999992370612
 20
-19.41500473022486
 30
0.0
 10
-8.799967629409268
 20
-19.45338412746155
 30
0.0
 10
-8.799904410124483
 20
-19.53014775574303
 30
0.0
 10
-8.842435326707493
 20
-19.63858529992483
 30
0.0
 10
-8.912754522962687
 20
-19.73224837883949
 30
0.0
 10
-8.980286650268649
 20
-19.76943429927197
 30
0.0
 10
-9.013999938965184
 20
-19.78799819946286
 30
0.0
 11
-8.7999992370612
 21
-19.41500473022486
 31
0.0
 11
-8.806999206543196
 21
-19.52900314331086
 31
0.0
 11
-8.847000122070198
 21
-19.63599777221684
 31
0.0
 11
-8.91799926757821
 21
-19.72600173950185
 31
0.0
 11
-9.013999938965184
 21
-19.78799819946286
 31
0.0
  0
SPLINE
  5
9B17
330
1F
100
AcDbEntity
  8
AM_0
100
AcDbSpline
210
0.0
220
0.0
230
1.0
 70
     8
 71
     3
 72
    11
 73
     7
 74
     5
 42
0.0000000001
 43
0.0000000001
 44
0.0000000001
 40
0.0
 40
0.0
 40
0.0
 40
0.0
 40
2.187879043377638
 40
4.37193656216365
 40
6.554294987334442
 40
8.732878594705457
 40
8.732878594705457
 40
8.732878594705457
 40
8.732878594705457
 10
-9.166000366211189
 20
-19.82000350952185
 30
0.0
 10
-9.895010881385871
 20
-19.79970250441018
 30
0.0
 10
-11.35175856364055
 20
-19.75913595354667
 30
0.0
 10
-13.53549007330546
 20
-19.69172834297367
 30
0.0
 10
-15.71578384516172
 20
-19.61415811822426
 30
0.0
 10
-17.16834773136139
 20
-19.55803824300777
 30
0.0
 10
-17.89400100708019
 20
-19.53000259399386
 30
0.0
 11
-9.166000366211189
 21
-19.82000350952185
 31
0.0
 11
-11.35300064086919
 21
-19.75799942016585
 31
0.0
 11
-13.5359992980962
 21
-19.68999862670887
 31
0.0
 11
-15.71699905395518
 21
-19.61300277709987
 31
0.0
 11
-17.89400100708019
 21
-19.53000259399386
 31
0.0
  0
SPLINE
  5
9B18
330
1F
100
AcDbEntity
  8
AM_0
100
AcDbSpline
210
0.0
220
0.0
230
1.0
 70
     8
 71
     3
 72
    11
 73
     7
 74
     5
 42
0.0000000001
 43
0.0000000001
 44
0.0000000001
 40
0.0
 40
0.0
 40
0.0
 40
0.0
 40
0.2888500559449626
 40
0.5759885758579549
 40
0.8539915814128232
 40
1.120838722270439
 40
1.120838722270439
 40
1.120838722270439
 40
1.120838722270439
 10
-17.89400100708019
 20
-19.53000259399386
 30
0.0
 10
-17.99069522480782
 20
-19.52050622919949
 30
0.0
 10
-18.18351071373142
 20
-19.50156976884174
 30
0.0
 10
-18.43942349510957
 20
-19.36433432658517
 30
0.0
 10
-18.64221217483686
 20
-19.16297318157567
 30
0.0
 10
-18.69845574900142
 20
-18.98779831380482
 30
0.0
 10
-18.72600173950221
 20
-18.90200424194387
 30
0.0
 11
-17.89400100708019
 21
-19.53000259399386
 31
0.0
 11
-18.17900085449219
 21
-19.48299789428687
 31
0.0
 11
-18.4340019226072
 21
-19.35100173950186
 31
0.0
 11
-18.6250000000002
 21
-19.14899826049786
 31
0.0
 11
-18.72600173950221
 21
-18.90200424194387
 31
0.0
  0
ELLIPSE
  5
9B19
330
1F
100
AcDbEntity
  8
AM_0
100
AcDbEllipse
 10
-9.819000244141172
 20
-17.83800125122086
 30
0.0
 11
0.1963577199979981
 21
-0.0553131167680046
 31
0.0
210
0.0
220
0.0
230
1.0
 40
0.9559023683452998
 41
0.0601012088822422
 42
0.3074528522047569
  0
SPLINE
  5
9B1A
330
1F
100
AcDbEntity
  8
AM_0
100
AcDbSpline
210
0.0
220
0.0
230
1.0
 70
     8
 71
     3
 72
    11
 73
     7
 74
     5
 42
0.0000000001
 43
0.0000000001
 44
0.0000000001
 40
0.0
 40
0.0
 40
0.0
 40
0.0
 40
0.3179075988348849
 40
0.6347030298343857
 40
0.954014428463051
 40
1.278697758831036
 40
1.278697758831036
 40
1.278697758831036
 40
1.278697758831036
 10
-5.777999877930239
 20
9.968997955322146
 30
0.0
 10
-5.815866828578992
 20
9.869943035771001
 30
0.0
 10
-5.891468256149261
 20
9.672179730365497
 30
0.0
 10
-5.971557496861662
 20
9.363929835671543
 30
0.0
 10
-6.031828368495616
 20
9.04895771275893
 30
0.0
 10
-6.049893839729145
 20
8.834912645727708
 30
0.0
 10
-6.059001922607259
 20
8.726997375488133
 30
0.0
 11
-5.777999877930239
 21
9.968997955322146
 31
0.0
 11
-5.886001586914242
 21
9.669998168945138
 31
0.0
 11
-5.967998504639221
 21
9.363998413086147
 31
0.0
 11
-6.02600097656228
 21
9.049999237060143
 31
0.0
 11
-6.059001922607259
 21
8.726997375488133
 31
0.0
  0
ELLIPSE
  5
9B1B
330
1F
100
AcDbEntity
  8
AM_0
100
AcDbEllipse
 10
-48.77000045776425
 20
1.011997222900046
 30
0.0
 11
1.246044126595998
 21
-0.0993861703539993
 31
0.0
210
0.0
220
0.0
230
1.0
 40
0.169599625092
 41
3.141592138123991
 42
6.283185307179585
  0
ELLIPSE
  5
9B1C
330
1F
100
AcDbEntity
  8
AM_0
100
AcDbEllipse
 10
-48.77000045776425
 20
1.011997222900046
 30
0.0
 11
1.246044126595998
 21
-0.0993861703539993
 31
0.0
210
0.0
220
0.0
230
1.0
 40
0.169599625092
 41
0.0
 42
3.141593169055593
  0
ELLIPSE
  5
9B1D
330
1F
100
AcDbEntity
  8
AM_0
100
AcDbEllipse
 10
9.241992950438758
 20
0.0000000000001744
 30
0.0
 11
236.563346488555
 21
-16.7274060862675
 31
0.0
210
0.0
220
0.0
230
1.0
 40
0.0340538254904
 41
4.498641958907157
 42
4.512591990634788
  0
SPLINE
  5
9B1E
330
1F
100
AcDbEntity
  8
AM_0
100
AcDbSpline
210
0.0
220
0.0
230
1.0
 70
     8
 71
     3
 72
    11
 73
     7
 74
     5
 42
0.0000000001
 43
0.0000000001
 44
0.0000000001
 40
0.0
 40
0.0
 40
0.0
 40
0.0
 40
1.669147998683277
 40
3.228770703406061
 40
4.831851238912321
 40
6.502436255034652
 40
6.502436255034652
 40
6.502436255034652
 40
6.502436255034652
 10
-38.07899856567422
 20
0.7969970703120747
 30
0.0
 10
-38.05121916956949
 20
1.35382647353965
 30
0.0
 10
-37.99748319147044
 20
2.430947534916201
 30
0.0
 10
-39.50926357582602
 20
3.967336917407373
 30
0.0
 10
-40.89791239905467
 20
2.371293418783186
 30
0.0
 10
-41.023111446176
 20
1.317010623115144
 30
0.0
 10
-41.08700180053721
 20
0.7789993286130564
 30
0.0
 11
-38.07899856567422
 21
0.7969970703120747
 31
0.0
 11
-38.27999877929725
 21
2.453998565674069
 31
0.0
 11
-39.47600173950226
 21
3.454998016357075
 31
0.0
 11
-40.68299865722721
 21
2.399997711181061
 31
0.0
 11
-41.08700180053721
 21
0.7789993286130564
 31
0.0
  0
ELLIPSE
  5
9B1F
330
1F
100
AcDbEntity
  8
AM_0
100
AcDbEllipse
 10
-39.97000122070321
 20
-3.676002502441924
 30
0.0
 11
1.494247466643997
 21
-0.1312217360469926
 31
0.0
210
0.0
220
0.0
230
1.0
 40
0.4340018041950001
 41
0.0817288566307849
 42
2.739492122937794
  0
SPLINE
  5
9B20
330
1F
100
AcDbEntity
  8
AM_0
100
AcDbSpline
210
0.0
220
0.0
230
1.0
 70
     8
 71
     3
 72
    11
 73
     7
 74
     5
 42
0.0000000001
 43
0.0000000001
 44
0.0000000001
 40
0.0
 40
0.0
 40
0.0
 40
0.0
 40
1.581601166332579
 40
3.102107869490539
 40
4.669574532415344
 40
6.262311771528167
 40
6.262311771528167
 40
6.262311771528167
 40
6.262311771528167
 10
-46.87900161743227
 20
5.888999938965062
 30
0.0
 10
-46.85414547830462
 20
6.425625456357155
 30
0.0
 10
-46.80539334885859
 20
7.478147593990302
 30
0.0
 10
-48.36250209629993
 20
8.819982340591458
 30
0.0
 10
-49.71174172898447
 20
7.342377858949389
 30
0.0
 10
-49.832260371412
 20
6.314862841752345
 30
0.0
 10
-49.89300155639625
 20
5.796997070312039
 30
0.0
 11
-46.87900161743227
 21
5.888999938965062
 31
0.0
 11
-47.08599853515624
 21
7.45699691772406
 31
0.0
 11
-48.31299972534225
 21
8.354999542236056
 31
0.0
 11
-49.50999832153325
 21
7.342998504639063
 31
0.0
 11
-49.89300155639625
 21
5.796997070312039
 31
0.0
  0
ELLIPSE
  5
9B21
330
1F
100
AcDbEntity
  8
AM_0
100
AcDbEllipse
 10
-48.77000045776425
 20
1.011997222900046
 30
0.0
 11
1.495250675010998
 21
-0.1192628640520009
 31
0.0
210
0.0
220
0.0
230
1.0
 40
0.1699998458225999
 41
0.056663835653702
 42
2.791055684880235
  0
SPLINE
  5
9B22
330
1F
100
AcDbEntity
  8
AM_0
100
AcDbSpline
210
0.0
220
0.0
230
1.0
 70
     8
 71
     3
 72
    11
 73
     7
 74
     5
 42
0.0000000001
 43
0.0000000001
 44
0.0000000001
 40
0.0
 40
0.0
 40
0.0
 40
0.0
 40
1.29581966771562
 40
2.612853232498602
 40
3.946719541033703
 40
5.206501132805951
 40
5.206501132805951
 40
5.206501132805951
 40
5.206501132805951
 10
-12.47700119018626
 20
17.10399818420412
 30
0.0
 10
-12.70661239768648
 20
17.50112194753034
 30
0.0
 10
-13.1695937836632
 20
18.30187079751354
 30
0.0
 10
-14.66218570250926
 20
18.36683139581477
 30
0.0
 10
-15.85536030859856
 20
17.5074818149812
 30
0.0
 10
-15.84906056873034
 20
16.59648500990703
 30
0.0
 10
-15.8460006713873
 20
16.15399742126411
 30
0.0
 11
-12.47700119018626
 21
17.10399818420412
 31
0.0
 11
-13.29500198364324
 21
18.10899734497112
 31
0.0
 11
-14.60800170898425
 21
18.21199798584012
 31
0.0
 11
-15.66699981689422
 21
17.40099716186511
 31
0.0
 11
-15.8460006713873
 21
16.15399742126411
 31
0.0
  0
SPLINE
  5
9B23
330
1F
100
AcDbEntity
  8
AM_0
100
AcDbSpline
210
0.0
220
0.0
230
1.0
 70
     8
 71
     3
 72
    11
 73
     7
 74
     5
 42
0.0000000001
 43
0.0000000001
 44
0.0000000001
 40
0.0
 40
0.0
 40
0.0
 40
0.0
 40
1.287090960782301
 40
2.629895983344165
 40
3.962736837106491
 40
5.281846177902734
 40
5.281846177902734
 40
5.281846177902734
 40
5.281846177902734
 10
-15.8460006713873
 20
16.15399742126411
 30
0.0
 10
-15.61602094182482
 20
15.76782013635448
 30
0.0
 10
-15.14610639385896
 20
14.97874918380476
 30
0.0
 10
-13.6575839013892
 20
14.8059625250186
 30
0.0
 10
-12.43065941604777
 20
15.70750464190909
 30
0.0
 10
-12.46160734716001
 20
16.64010998016127
 30
0.0
 10
-12.47700119018626
 20
17.10399818420412
 30
0.0
 11
-15.8460006713873
 21
16.15399742126411
 31
0.0
 11
-15.03200149536127
 21
15.15699768066411
 31
0.0
 11
-13.70000076293928
 21
14.98699951171912
 31
0.0
 11
-12.63999938964827
 21
15.79499816894513
 31
0.0
 11
-12.47700119018626
 21
17.10399818420412
 31
0.0
  0
SPLINE
  5
9B24
330
1F
100
AcDbEntity
  8
AM_0
100
AcDbSpline
210
0.0
220
0.0
230
1.0
 70
     8
 71
     3
 72
    11
 73
     7
 74
     5
 42
0.0000000001
 43
0.0000000001
 44
0.0000000001
 40
0.0
 40
0.0
 40
0.0
 40
0.0
 40
2.187878935273114
 40
4.371936394674484
 40
6.554294954435105
 40
8.732878561806082
 40
8.732878561806082
 40
8.732878561806082
 40
8.732878561806082
 10
-9.166000366211278
 20
19.81999778747514
 30
0.0
 10
-9.895010880292103
 20
19.7996980646033
 30
0.0
 10
-11.35175857653172
 20
19.75913407552951
 30
0.0
 10
-13.53549019950021
 20
19.69173011144747
 30
0.0
 10
-15.7157837514255
 20
19.61415291333661
 30
0.0
 10
-17.16834771506874
 20
19.55803396460457
 30
0.0
 10
-17.89400100708027
 20
19.52999877929714
 30
0.0
 11
-9.166000366211278
 21
19.81999778747514
 31
0.0
 11
-11.35300064086927
 21
19.75799751281712
 31
0.0
 11
-13.53599929809626
 21
19.68999862670911
 31
0.0
 11
-15.71699905395527
 21
19.61299896240212
 31
0.0
 11
-17.89400100708027
 21
19.52999877929714
 31
0.0
  0
SPLINE
  5
9B25
330
1F
100
AcDbEntity
  8
AM_0
100
AcDbSpline
210
0.0
220
0.0
230
1.0
 70
     8
 71
     3
 72
    11
 73
     7
 74
     5
 42
0.0000000001
 43
0.0000000001
 44
0.0000000001
 40
0.0
 40
0.0
 40
0.0
 40
0.0
 40
0.2888494352021503
 40
0.5759897087323987
 40
0.8539899424516661
 40
1.12084237965131
 40
1.12084237965131
 40
1.12084237965131
 40
1.12084237965131
 10
-17.89400100708027
 20
19.52999877929714
 30
0.0
 10
-17.99069550911419
 20
19.52050437746936
 30
0.0
 10
-18.18351235856921
 20
19.50157175348989
 30
0.0
 10
-18.43942088756172
 20
19.36432940539349
 30
0.0
 10
-18.64221496401891
 20
19.16297208373603
 30
0.0
 10
-18.6984563846447
 20
18.98779498816933
 30
0.0
 10
-18.72600173950228
 20
18.90199851989711
 30
0.0
 11
-17.89400100708027
 21
19.52999877929714
 31
0.0
 11
-18.17900085449229
 21
19.4829978942871
 31
0.0
 11
-18.43400192260727
 21
19.35099792480511
 31
0.0
 11
-18.62500000000028
 21
19.14899826049811
 31
0.0
 11
-18.72600173950228
 21
18.90199851989711
 31
0.0
  0
SPLINE
  5
9B26
330
1F
100
AcDbEntity
  8
AM_0
100
AcDbSpline
210
0.0
220
0.0
230
1.0
 70
     8
 71
     3
 72
    11
 73
     7
 74
     5
 42
0.0000000001
 43
0.0000000001
 44
0.0000000001
 40
0.0
 40
0.0
 40
0.0
 40
0.0
 40
0.9711745730306871
 40
1.943328041382437
 40
2.915483381464793
 40
3.886465274210036
 40
3.886465274210036
 40
3.886465274210036
 40
3.886465274210036
 10
-18.72600173950228
 20
18.90199851989711
 30
0.0
 10
-18.78835659024233
 20
18.58433571205075
 30
0.0
 10
-18.91312914228848
 20
17.94868990816025
 30
0.0
 10
-19.09993339654473
 20
16.99498481423219
 30
0.0
 10
-19.28713921269846
 20
16.0414237492045
 30
0.0
 10
-19.41107106660308
 20
15.40567823328825
 30
0.0
 10
-19.47299957275426
 20
15.08799743652312
 30
0.0
 11
-18.72600173950228
 21
18.90199851989711
 31
0.0
 11
-18.91300201416026
 21
17.94899749755811
 31
0.0
 11
-19.10000228881825
 21
16.99499893188509
 31
0.0
 11
-19.28700256347728
 21
16.0409984588621
 31
0.0
 11
-19.47299957275426
 21
15.08799743652312
 31
0.0
  0
SPLINE
  5
9B27
330
1F
100
AcDbEntity
  8
AM_0
100
AcDbSpline
210
0.0
220
0.0
230
1.0
 70
     8
 71
     3
 72
    11
 73
     7
 74
     5
 42
0.0000000001
 43
0.0000000001
 44
0.0000000001
 40
0.0
 40
0.0
 40
0.0
 40
0.0
 40
1.590724410844813
 40
3.180480432917487
 40
4.769329092021193
 40
6.356216801515786
 40
6.356216801515786
 40
6.356216801515786
 40
6.356216801515786
 10
-10.33900070190427
 20
13.40900039672811
 30
0.0
 10
-10.86900148053539
 20
13.42497288789237
 30
0.0
 10
-11.92868038806664
 20
13.45690814661256
 30
0.0
 10
-13.51772201942773
 20
13.50527092011479
 30
0.0
 10
-15.10534882312944
 20
13.55788965617859
 30
0.0
 10
-16.16333493085909
 20
13.59330388192647
 30
0.0
 10
-16.69200134277327
 20
13.61100006103512
 30
0.0
 11
-10.33900070190427
 21
13.40900039672811
 31
0.0
 11
-11.92900085449227
 21
13.45699691772411
 31
0.0
 11
-13.51800155639624
 21
13.50599670410112
 31
0.0
 11
-15.10599899292025
 21
13.55799865722614
 31
0.0
 11
-16.69200134277327
 21
13.61100006103512
 31
0.0
  0
SPLINE
  5
9B28
330
1F
100
AcDbEntity
  8
AM_0
100
AcDbSpline
210
0.0
220
0.0
230
1.0
 70
     8
 71
     3
 72
    11
 73
     7
 74
     5
 42
0.0000000001
 43
0.0000000001
 44
0.0000000001
 40
0.0
 40
0.0
 40
0.0
 40
0.0
 40
1.976031865886114
 40
3.950982321339092
 40
5.927014359039744
 40
7.902050839462157
 40
7.902050839462157
 40
7.902050839462157
 40
7.902050839462157
 10
-18.82400131225625
 20
18.43699836730911
 30
0.0
 10
-19.47999164679713
 20
18.37756358849186
 30
0.0
 10
-20.79161331620684
 20
18.25872655735201
 30
0.0
 10
-22.75939030804889
 20
18.08228294818262
 30
0.0
 10
-24.72666553573542
 20
17.90397015027905
 30
0.0
 10
-26.03833217561117
 20
17.78531203380238
 30
0.0
 10
-26.69400024414124
 20
17.7259979248051
 30
0.0
 11
-18.82400131225625
 21
18.43699836730911
 31
0.0
 11
-20.79199981689423
 21
18.25899887084911
 31
0.0
 11
-22.75900268554726
 21
18.0819988250731
 31
0.0
 11
-24.72700119018627
 21
17.9039974212641
 31
0.0
 11
-26.69400024414124
 21
17.7259979248051
 31
0.0
  0
SPLINE
  5
9B29
330
1F
100
AcDbEntity
  8
AM_0
100
AcDbSpline
210
0.0
220
0.0
230
1.0
 70
     8
 71
     3
 72
    11
 73
     7
 74
     5
 42
0.0000000001
 43
0.0000000001
 44
0.0000000001
 40
0.0
 40
0.0
 40
0.0
 40
0.0
 40
0.2890137457831605
 40
0.5695743169670521
 40
0.8272744949221229
 40
1.05760177208454
 40
1.05760177208454
 40
1.05760177208454
 40
1.05760177208454
 10
-26.69400024414124
 20
17.7259979248051
 30
0.0
 10
-26.7903851159258
 20
17.7151641410631
 30
0.0
 10
-26.98033576122776
 20
17.69381344385561
 30
0.0
 10
-27.23279091453926
 20
17.57537159550135
 30
0.0
 10
-27.43703276653597
 20
17.40699477283457
 30
0.0
 10
-27.49747495084188
 20
17.25345961967713
 30
0.0
 10
-27.52600097656225
 20
17.18099784851109
 30
0.0
 11
-26.69400024414124
 21
17.7259979248051
 31
0.0
 11
-26.97900009155326
 21
17.67799758911109
 31
0.0
 11
-27.23400115966823
 21
17.56099891662609
 31
0.0
 11
-27.42499923706128
 21
17.38799858093209
 31
0.0
 11
-27.52600097656225
 21
17.18099784851109
 31
0.0
  0
SPLINE
  5
9B2A
330
1F
100
AcDbEntity
  8
AM_0
100
AcDbSpline
210
0.0
220
0.0
230
1.0
 70
     8
 71
     3
 72
    11
 73
     7
 74
     5
 42
0.0000000001
 43
0.0000000001
 44
0.0000000001
 40
0.0
 40
0.0
 40
0.0
 40
0.0
 40
0.2818110990581656
 40
0.5601098317745016
 40
0.8350347753695753
 40
1.106348241420007
 40
1.106348241420007
 40
1.106348241420007
 40
1.106348241420007
 10
-21.48800277710029
 20
14.61499786376909
 30
0.0
 10
-21.43751481117107
 20
14.69461057674312
 30
0.0
 10
-21.33716813853198
 20
14.85284374577025
 30
0.0
 10
-21.24917628964141
 20
15.11914080815131
 30
0.0
 10
-21.20457670586034
 20
15.39258018496234
 30
0.0
 10
-21.22089492584817
 20
15.57459386406345
 30
0.0
 10
-21.22900009155328
 20
15.66499900817911
 30
0.0
 11
-21.48800277710029
 21
14.61499786376909
 31
0.0
 11
-21.34700012207026
 21
14.85899734497111
 31
0.0
 11
-21.25600051879928
 21
15.12199783325211
 31
0.0
 11
-21.21599960327126
 21
15.39399719238311
 31
0.0
 11
-21.22900009155328
 21
15.66499900817911
 31
0.0
  0
SPLINE
  5
9B2B
330
1F
100
AcDbEntity
  8
AM_0
100
AcDbSpline
210
0.0
220
0.0
230
1.0
 70
     8
 71
     3
 72
    11
 73
     7
 74
     5
 42
0.0000000001
 43
0.0000000001
 44
0.0000000001
 40
0.0
 40
0.0
 40
0.0
 40
0.0
 40
0.9465339611521665
 40
1.944833498567677
 40
3.015822762851955
 40
4.034859416454471
 40
4.034859416454471
 40
4.034859416454471
 40
4.034859416454471
 10
-21.22900009155328
 20
15.66499900817911
 30
0.0
 10
-21.34622192143314
 20
15.97376793363834
 30
0.0
 10
-21.58707639773345
 20
16.60819223767379
 30
0.0
 10
-22.63706739622849
 20
16.9615015522359
 30
0.0
 10
-23.7010210190627
 20
16.77832733769928
 30
0.0
 10
-24.21190834987045
 20
16.28401155093929
 30
0.0
 10
-24.4610023498533
 20
16.0429973602291
 30
0.0
 11
-21.22900009155328
 21
15.66499900817911
 31
0.0
 11
-21.68400192260723
 21
16.49499893188511
 31
0.0
 11
-22.61000061035225
 21
16.86799812316911
 31
0.0
 11
-23.66400146484424
 21
16.6779975891111
 31
0.0
 11
-24.4610023498533
 21
16.0429973602291
 31
0.0
  0
SPLINE
  5
9B2C
330
1F
100
AcDbEntity
  8
AM_0
100
AcDbSpline
210
0.0
220
0.0
230
1.0
 70
     8
 71
     3
 72
    11
 73
     7
 74
     5
 42
0.0000000001
 43
0.0000000001
 44
0.0000000001
 40
0.0
 40
0.0
 40
0.0
 40
0.0
 40
0.0199996948825982
 40
0.0624504303775426
 40
0.1327065171995321
 40
0.2247109998636178
 40
0.2247109998636178
 40
0.2247109998636178
 40
0.2247109998636178
 10
0.0009994506837663
 20
-3.411003112792861
 30
0.0
 10
-0.0025885479741373
 20
-3.416920480848498
 30
0.0
 10
-0.0137923219164635
 20
-3.435397871826016
 30
0.0
 10
-0.0632312082654346
 20
-3.438335245886153
 30
0.0
 10
-0.1283488706712505
 20
-3.446499306174151
 30
0.0
 10
-0.1830080336032438
 20
-3.444266712032468
 30
0.0
 10
-0.2140007019042235
 20
-3.443000793456839
 30
0.0
 11
0.0009994506837663
 21
-3.411003112792861
 31
0.0
 11
-0.0110015869142309
 21
-3.42700195312485
 31
0.0
 11
-0.0520019531252252
 21
-3.43800354003884
 31
0.0
 11
-0.1220016479492165
 21
-3.444000244140845
 31
0.0
 11
-0.2140007019042235
 21
-3.443000793456839
 31
0.0
  0
SPLINE
  5
9B2D
330
1F
100
AcDbEntity
  8
AM_0
100
AcDbSpline
210
0.0
220
0.0
230
1.0
 70
     8
 71
     3
 72
    11
 73
     7
 74
     5
 42
0.0000000001
 43
0.0000000001
 44
0.0000000001
 40
0.0
 40
0.0
 40
0.0
 40
0.0
 40
0.0180256830020193
 40
0.0330621401085072
 40
0.0451009215660219
 40
0.0541036071130088
 40
0.0541036071130088
 40
0.0541036071130088
 40
0.0541036071130088
 10
-9.088001251221244
 20
0.7629966735841374
 30
0.0
 10
-9.094000499627986
 20
0.7633330970800474
 30
0.0
 10
-9.105004132130964
 20
0.763950154461802
 30
0.0
 10
-9.120014456041232
 20
0.7647643400390029
 30
0.0
 10
-9.131978859175344
 20
0.7661973428327589
 30
0.0
 10
-9.13899865482255
 20
0.7660583213106773
 30
0.0
 10
-9.142002105713229
 20
0.7659988403321272
 30
0.0
 11
-9.088001251221244
 21
0.7629966735841374
 31
0.0
 11
-9.105998992920262
 21
0.7639999389651388
 31
0.0
 11
-9.121002197266252
 21
0.7649993896481356
 31
0.0
 11
-9.132999420166242
 21
0.7659988403321272
 31
0.0
 11
-9.142002105713229
 21
0.7659988403321272
 31
0.0
  0
SPLINE
  5
9B2E
330
1F
100
AcDbEntity
  8
AM_0
100
AcDbSpline
210
0.0
220
0.0
230
1.0
 70
     8
 71
     3
 72
    11
 73
     7
 74
     5
 42
0.0000000001
 43
0.0000000001
 44
0.0000000001
 40
0.0
 40
0.0
 40
0.0
 40
0.0
 40
1.051245008636365
 40
2.102491902399503
 40
3.153893261507114
 40
4.206127973054462
 40
4.206127973054462
 40
4.206127973054462
 40
4.206127973054462
 10
-0.7220001220702707
 20
13.93700027465815
 30
0.0
 10
-0.6686368840884814
 20
14.28332819783961
 30
0.0
 10
-0.5619103124322074
 20
14.97598466524905
 30
0.0
 10
-0.4023517928780667
 20
16.01510385266601
 30
0.0
 10
-0.2405871832377931
 20
17.05421610408912
 30
0.0
 10
-0.1342106292116681
 20
17.74731248186279
 30
0.0
 10
-0.0810012817382571
 20
18.09399795532214
 30
0.0
 11
-0.7220001220702707
 21
13.93700027465815
 31
0.0
 11
-0.5620002746582652
 21
14.97599792480516
 31
0.0
 11
-0.402000427246274
 21
16.01499748230015
 31
0.0
 11
-0.2410011291502626
 21
17.05399894714316
 31
0.0
 11
-0.0810012817382571
 21
18.09399795532214
 31
0.0
  0
SPLINE
  5
9B2F
330
1F
100
AcDbEntity
  8
AM_0
100
AcDbSpline
210
0.0
220
0.0
230
1.0
 70
     8
 71
     3
 72
    11
 73
     7
 74
     5
 42
0.0000000001
 43
0.0000000001
 44
0.0000000001
 40
0.0
 40
0.0
 40
0.0
 40
0.0
 40
0.1142150280471181
 40
0.2293846004023756
 40
0.3448062344143308
 40
0.4607413472172225
 40
0.4607413472172225
 40
0.4607413472172225
 40
0.4607413472172225
 10
-0.0000000000002791
 20
19.21999740600615
 30
0.0
 10
-0.0000087824186199
 20
19.25836050337337
 30
0.0
 10
-0.0000264206537637
 20
19.33540731507795
 30
0.0
 10
-0.0423345214815529
 20
19.44461998903989
 30
0.0
 10
-0.1131513692820343
 20
19.53906005789663
 30
0.0
 10
-0.1803345550313706
 20
19.57832274937818
 30
0.0
 10
-0.2140007019042792
 20
19.59799766540516
 30
0.0
 11
-0.0000000000002791
 21
19.21999740600615
 31
0.0
 11
-0.0069999694822751
 21
19.33399772644015
 31
0.0
 11
-0.0470008850102731
 21
19.44199752807614
 31
0.0
 11
-0.1180000305182848
 21
19.53299903869615
 31
0.0
 11
-0.2140007019042792
 21
19.59799766540516
 31
0.0
  0
SPLINE
  5
9B30
330
1F
100
AcDbEntity
  8
AM_0
100
AcDbSpline
210
0.0
220
0.0
230
1.0
 70
     8
 71
     3
 72
    11
 73
     7
 74
     5
 42
0.0000000001
 43
0.0000000001
 44
0.0000000001
 40
0.0
 40
0.0
 40
0.0
 40
0.0
 40
0.0740283041970494
 40
0.1464699260484877
 40
0.2188361954967619
 40
0.290961294083895
 40
0.290961294083895
 40
0.290961294083895
 40
0.290961294083895
 10
-10.33900070190427
 20
13.40900039672811
 30
0.0
 10
-10.31430706171174
 20
13.40921406180024
 30
0.0
 10
-10.26544905135884
 20
13.40963681236374
 30
0.0
 10
-10.19291742494072
 20
13.41821064835841
 30
0.0
 10
-10.12166515323805
 20
13.43140968430242
 30
0.0
 10
-10.07586383792672
 20
13.44647732169249
 30
0.0
 10
-10.05300140380927
 20
13.45399856567413
 30
0.0
 11
-10.33900070190427
 21
13.40900039672811
 31
0.0
 11
-10.26499938964825
 21
13.41099929809614
 31
0.0
 11
-10.19300079345725
 21
13.41899871826213
 31
0.0
 11
-10.12200164794927
 21
13.43299865722612
 31
0.0
 11
-10.05300140380927
 21
13.45399856567413
 31
0.0
  0
ELLIPSE
  5
9B31
330
1F
100
AcDbEntity
  8
AM_0
100
AcDbEllipse
 10
-1.034999847412235
 20
0.1289978027341503
 30
0.0
 11
0.2282943759660015
 21
-0.0179786453769987
 31
0.0
210
0.0
220
0.0
230
1.0
 40
0.0043604785819
 41
0.3772161237920256
 42
1.566656835195379
  0
SPLINE
  5
9B32
330
1F
100
AcDbEntity
  8
AM_0
100
AcDbSpline
210
0.0
220
0.0
230
1.0
 70
     8
 71
     3
 72
    11
 73
     7
 74
     5
 42
0.0000000001
 43
0.0000000001
 44
0.0000000001
 40
0.0
 40
0.0
 40
0.0
 40
0.0
 40
0.0498199499400718
 40
0.0974967148755872
 40
0.1441884987678461
 40
0.1887405669741691
 40
0.1887405669741691
 40
0.1887405669741691
 40
0.1887405669741691
 10
-0.9850006103522426
 20
-0.0480003356938397
 30
0.0
 10
-0.9686792206419656
 20
-0.0510687073306599
 30
0.0
 10
-0.9367385647225924
 20
-0.0570734535210364
 30
0.0
 10
-0.8892995979788297
 20
-0.0648073744643275
 30
0.0
 10
-0.8437345597402938
 20
-0.0730790655342502
 30
0.0
 10
-0.8136764178223604
 20
-0.0777306028695074
 30
0.0
 10
-0.7989997863772495
 20
-0.0800018310548402
 30
0.0
 11
-0.9850006103522426
 21
-0.0480003356938397
 31
0.0
 11
-0.9360008239752469
 21
-0.0570030212398334
 31
0.0
 11
-0.8889999389652395
 21
-0.0650024414058488
 31
0.0
 11
-0.8429985046392381
 21
-0.0730018615718359
 31
0.0
 11
-0.7989997863772495
 21
-0.0800018310548402
 31
0.0
  0
SPLINE
  5
9B33
330
1F
100
AcDbEntity
  8
AM_0
100
AcDbSpline
210
0.0
220
0.0
230
1.0
 70
     8
 71
     3
 72
    11
 73
     7
 74
     5
 42
0.0000000001
 43
0.0000000001
 44
0.0000000001
 40
0.0
 40
0.0
 40
0.0
 40
0.0
 40
0.0300655555558907
 40
0.0571398732414847
 40
0.0812250392237496
 40
0.1033150235797826
 40
0.1033150235797826
 40
0.1033150235797826
 40
0.1033150235797826
 10
-8.985000610352246
 20
0.7549972534181365
 30
0.0
 10
-8.995001200676078
 20
0.7556501718717918
 30
0.0
 10
-9.014007417354216
 20
0.7568910495801563
 30
0.0
 10
-9.041009629835624
 20
0.7588806850206841
 30
0.0
 10
-9.065342483352525
 20
0.7609048329351588
 30
0.0
 10
-9.080669077484412
 20
0.7623197727412962
 30
0.0
 10
-9.088001251221244
 20
0.7629966735841374
 30
0.0
 11
-8.985000610352246
 21
0.7549972534181365
 31
0.0
 11
-9.014999389648266
 21
0.7569999694821349
 31
0.0
 11
-9.041999816894247
 21
0.7589988708491373
 31
0.0
 11
-9.066001892090243
 21
0.7609977722171349
 31
0.0
 11
-9.088001251221244
 21
0.7629966735841374
 31
0.0
  0
SPLINE
  5
9B34
330
1F
100
AcDbEntity
  8
AM_0
100
AcDbSpline
210
0.0
220
0.0
230
1.0
 70
     8
 71
     3
 72
    11
 73
     7
 74
     5
 42
0.0000000001
 43
0.0000000001
 44
0.0000000001
 40
0.0
 40
0.0
 40
0.0
 40
0.0
 40
0.0261732859467813
 40
0.055447404243954
 40
0.0895797509659267
 40
0.1267001014006318
 40
0.1267001014006318
 40
0.1267001014006318
 40
0.1267001014006318
 10
-9.305000305176235
 20
0.6009979248051382
 30
0.0
 10
-9.296324214446356
 20
0.6000728758272757
 30
0.0
 10
-9.277944148949991
 20
0.5981131843798479
 30
0.0
 10
-9.248447581546349
 20
0.5933287715342502
 30
0.0
 10
-9.214994694510542
 20
0.5910070310419924
 30
0.0
 10
-9.191329602134437
 20
0.5890282943396246
 30
0.0
 10
-9.179000854492244
 20
0.5879974365231355
 30
0.0
 11
-9.305000305176235
 21
0.6009979248051382
 31
0.0
 11
-9.278999328613224
 21
0.5979995727541439
 31
0.0
 11
-9.250000000000225
 21
0.5939979553221338
 31
0.0
 11
-9.215999603271257
 21
0.5909996032711394
 31
0.0
 11
-9.179000854492244
 21
0.5879974365231355
 31
0.0
  0
SPLINE
  5
9B35
330
1F
100
AcDbEntity
  8
AM_0
100
AcDbSpline
210
0.0
220
0.0
230
1.0
 70
     8
 71
     3
 72
    11
 73
     7
 74
     5
 42
0.0000000001
 43
0.0000000001
 44
0.0000000001
 40
0.0
 40
0.0
 40
0.0
 40
0.0
 40
0.0622016457988231
 40
0.1193408790211545
 40
0.1724931296572796
 40
0.2206596600849862
 40
0.2206596600849862
 40
0.2206596600849862
 40
0.2206596600849862
 10
-8.764999389648268
 20
0.7379989624021287
 30
0.0
 10
-8.785661232494792
 20
0.7397316402790083
 30
0.0
 10
-8.825303310382512
 20
0.7430559783770083
 30
0.0
 10
-8.882679704257819
 20
0.7468129493321153
 30
0.0
 10
-8.935350001313778
 20
0.7507890570108094
 30
0.0
 10
-8.969002399242782
 20
0.7536413060124895
 30
0.0
 10
-8.985000610352246
 20
0.7549972534181365
 30
0.0
 11
-8.764999389648268
 21
0.7379989624021287
 31
0.0
 11
-8.826999664307267
 21
0.7430000305171354
 31
0.0
 11
-8.883998870850236
 21
0.7469978332521354
 31
0.0
 11
-8.937000274658261
 21
0.7509994506831364
 31
0.0
 11
-8.985000610352246
 21
0.7549972534181365
 31
0.0
  0
SPLINE
  5
9B36
330
1F
100
AcDbEntity
  8
AM_0
100
AcDbSpline
210
0.0
220
0.0
230
1.0
 70
     8
 71
     3
 72
    11
 73
     7
 74
     5
 42
0.0000000001
 43
0.0000000001
 44
0.0000000001
 40
0.0
 40
0.0
 40
0.0
 40
0.0
 40
0.06527501589361
 40
0.136453614500212
 40
0.214612891758355
 40
0.2978296966806987
 40
0.2978296966806987
 40
0.2978296966806987
 40
0.2978296966806987
 10
-9.179000854492244
 20
0.5879974365231355
 30
0.0
 10
-9.157343709535693
 20
0.5858878092364485
 30
0.0
 10
-9.112070710845154
 20
0.5814777564072639
 30
0.0
 10
-9.04067889770789
 20
0.5767985111437075
 30
0.0
 10
-8.963306476859388
 20
0.5720636356987551
 30
0.0
 10
-8.909662539082958
 20
0.5680617366764498
 30
0.0
 10
-8.881999969482249
 20
0.5659980773921351
 30
0.0
 11
-9.179000854492244
 21
0.5879974365231355
 31
0.0
 11
-9.114002227783259
 21
0.581996917724137
 31
0.0
 11
-9.042999267578236
 21
0.5769996643061403
 31
0.0
 11
-8.965000152588229
 21
0.5719985961911336
 31
0.0
 11
-8.881999969482249
 21
0.5659980773921351
 31
0.0
  0
ELLIPSE
  5
9B37
330
1F
100
AcDbEntity
  8
AM_0
100
AcDbEllipse
 10
-9.849002838135172
 20
-17.83200454711886
 30
0.0
 11
0.2252330822350006
 21
-0.0634498470920017
 31
0.0
210
0.0
220
0.0
230
1.0
 40
0.9572777292428
 41
6.124520972820942
 42
6.346448849225891
  0
SPLINE
  5
9B38
330
1F
100
AcDbEntity
  8
AM_0
100
AcDbSpline
210
0.0
220
0.0
230
1.0
 70
     8
 71
     3
 72
    11
 73
     7
 74
     5
 42
0.0000000001
 43
0.0000000001
 44
0.0000000001
 40
0.0
 40
0.0
 40
0.0
 40
0.0
 40
0.0256348973222907
 40
0.0515978684355336
 40
0.0773085035184179
 40
0.1026282436109051
 40
0.1026282436109051
 40
0.1026282436109051
 40
0.1026282436109051
 10
-9.435001373291163
 20
-18.08200454711886
 30
0.0
 10
-9.431825436460851
 20
-18.07406108768508
 30
0.0
 10
-9.425432917361993
 20
-18.05807250892721
 30
0.0
 10
-9.419042639242592
 20
-18.03307478459787
 30
0.0
 10
-9.412542289496984
 20
-18.00822473418514
 30
0.0
 10
-9.410174983092939
 20
-17.99136378905123
 30
0.0
 10
-9.409000396728181
 20
-17.98299789428685
 30
0.0
 11
-9.435001373291163
 21
-18.08200454711886
 31
0.0
 11
-9.425998687744174
 21
-18.05800247192386
 31
0.0
 11
-9.41899871826218
 21
-18.03300094604486
 31
0.0
 11
-9.41300201416019
 21
-18.00799942016586
 31
0.0
 11
-9.409000396728181
 21
-17.98299789428685
 31
0.0
  0
ELLIPSE
  5
9B39
330
1F
100
AcDbEntity
  8
AM_0
100
AcDbEllipse
 10
-9.820003509521178
 20
-17.84500503540086
 30
0.0
 11
0.1953945170699997
 21
-0.0550422895120018
 31
0.0
210
0.0
220
0.0
230
1.0
 40
0.9556784845092
 41
5.550214700666832
 42
6.124237191216725
  0
SPLINE
  5
9B3A
330
1F
100
AcDbEntity
  8
AM_0
100
AcDbSpline
210
0.0
220
0.0
230
1.0
 70
     8
 71
     3
 72
    11
 73
     7
 74
     5
 42
0.0000000001
 43
0.0000000001
 44
0.0000000001
 40
0.0
 40
0.0
 40
0.0
 40
0.0
 40
0.0605367381163581
 40
0.1207468018506159
 40
0.1811893775483427
 40
0.2415988237190108
 40
0.2415988237190108
 40
0.2415988237190108
 40
0.2415988237190108
 10
-9.59899902343719
 20
-18.25300216674786
 30
0.0
 10
-9.581179679736969
 20
-18.24336705361483
 30
0.0
 10
-9.545637150855696
 20
-18.22414882130696
 30
0.0
 10
-9.501018474643368
 20
-18.1828160210278
 30
0.0
 10
-9.461994127000535
 20
-18.13629353539658
 30
0.0
 10
-9.443997313354127
 20
-18.10009756904184
 30
0.0
 10
-9.435001373291163
 20
-18.08200454711886
 30
0.0
 11
-9.59899902343719
 21
-18.25300216674786
 31
0.0
 11
-9.54700088501017
 21
-18.22200393676786
 31
0.0
 11
-9.501998901367164
 21
-18.18200302123986
 31
0.0
 11
-9.46400070190416
 21
-18.13499832153286
 31
0.0
 11
-9.435001373291163
 21
-18.08200454711886
 31
0.0
  0
ELLIPSE
  5
9B3B
330
1F
100
AcDbEntity
  8
AM_0
100
AcDbEllipse
 10
-9.834999084473176
 20
-17.82400131225586
 30
0.0
 11
0.220420839500001
 21
-0.0620956203279941
 31
0.0
210
0.0
220
0.0
230
1.0
 40
0.9563143087101998
 41
5.019290726724721
 42
5.550238136036368
  0
SPLINE
  5
9B3C
330
1F
100
AcDbEntity
  8
AM_0
100
AcDbSpline
210
0.0
220
0.0
230
1.0
 70
     8
 71
     3
 72
    11
 73
     7
 74
     5
 42
0.0000000001
 43
0.0000000001
 44
0.0000000001
 40
0.0
 40
0.0
 40
0.0
 40
0.0
 40
0.0490099782356365
 40
0.0965298286622236
 40
0.1440672446096883
 40
0.1916081913090366
 40
0.1916081913090366
 40
0.1916081913090366
 40
0.1916081913090366
 10
-9.784999847412169
 20
-18.29100418090786
 30
0.0
 10
-9.768632006838732
 20
-18.29114766527626
 30
0.0
 10
-9.736393983011666
 20
-18.29143027143108
 30
0.0
 10
-9.688880508457302
 20
-18.2835733043295
 30
0.0
 10
-9.642529077051182
 20
-18.27235498716484
 30
0.0
 10
-9.613509400525467
 20
-18.25945326658942
 30
0.0
 10
-9.59899902343719
 20
-18.25300216674786
 30
0.0
 11
-9.784999847412169
 21
-18.29100418090786
 31
0.0
 11
-9.736000061035188
 21
-18.29000473022487
 31
0.0
 11
-9.688999176025168
 21
-18.28300094604486
 31
0.0
 11
-9.643001556396177
 21
-18.27099990844685
 31
0.0
 11
-9.59899902343719
 21
-18.25300216674786
 31
0.0
  0
SPLINE
  5
9B3D
330
1F
100
AcDbEntity
  8
AM_0
100
AcDbSpline
210
0.0
220
0.0
230
1.0
 70
     8
 71
     3
 72
    11
 73
     7
 74
     5
 42
0.0000000001
 43
0.0000000001
 44
0.0000000001
 40
0.0
 40
0.0
 40
0.0
 40
0.0
 40
0.0520040021697194
 40
0.1030162963439055
 40
0.1550278530451088
 40
0.207039409746331
 40
0.207039409746331
 40
0.207039409746331
 40
0.207039409746331
 10
-17.31399917602517
 20
-18.19600296020488
 30
0.0
 10
-17.31433172637267
 20
-18.21333443782275
 30
0.0
 10
-17.31499048538579
 20
-18.24766688455507
 30
0.0
 10
-17.31601499742105
 20
-18.29933268221714
 30
0.0
 10
-17.31699965306081
 20
-18.35100177230609
 30
0.0
 10
-17.31766707999172
 20
-18.38566971918661
 30
0.0
 10
-17.31800079345718
 20
-18.40300369262687
 30
0.0
 11
-17.31399917602517
 21
-18.19600296020488
 31
0.0
 11
-17.31500244140617
 21
-18.24799728393587
 31
0.0
 11
-17.31600189209016
 21
-18.29899978637687
 31
0.0
 11
-17.31700134277318
 21
-18.35100173950187
 31
0.0
 11
-17.31800079345718
 21
-18.40300369262687
 31
0.0
  0
SPLINE
  5
9B3E
330
1F
100
AcDbEntity
  8
AM_0
100
AcDbSpline
210
0.0
220
0.0
230
1.0
 70
     8
 71
     3
 72
    11
 73
     7
 74
     5
 42
0.0000000001
 43
0.0000000001
 44
0.0000000001
 40
0.0
 40
0.0
 40
0.0
 40
0.0
 40
0.06419712954798
 40
0.1289578204261086
 40
0.1924638607800476
 40
0.2564980581137052
 40
0.2564980581137052
 40
0.2564980581137052
 40
0.2564980581137052
 10
-17.56500244140617
 20
-18.15099716186487
 30
0.0
 10
-17.54477124211745
 20
-18.15799620934504
 30
0.0
 10
-17.50413124180513
 20
-18.17205574618814
 30
0.0
 10
-17.44162761157155
 20
-18.18705957906574
 30
0.0
 10
-17.37789321351107
 20
-18.19524862755202
 30
0.0
 10
-17.33535590561366
 20
-18.19575082277358
 30
0.0
 10
-17.31399917602517
 20
-18.19600296020488
 30
0.0
 11
-17.56500244140617
 21
-18.15099716186487
 31
0.0
 11
-17.50400161743218
 21
-18.17100143432588
 31
0.0
 11
-17.44100189209016
 21
-18.18600082397488
 31
0.0
 11
-17.37800216674819
 21
-18.19400405883788
 31
0.0
 11
-17.31399917602517
 21
-18.19600296020488
 31
0.0
  0
SPLINE
  5
9B3F
330
1F
100
AcDbEntity
  8
AM_0
100
AcDbSpline
210
0.0
220
0.0
230
1.0
 70
     8
 71
     3
 72
    11
 73
     7
 74
     5
 42
0.0000000001
 43
0.0000000001
 44
0.0000000001
 40
0.0
 40
0.0
 40
0.0
 40
0.0
 40
0.0866457597375492
 40
0.171793946131834
 40
0.2563860772291333
 40
0.342411831199142
 40
0.342411831199142
 40
0.342411831199142
 40
0.342411831199142
 10
-17.68199920654317
 20
-18.38499832153286
 30
0.0
 10
-17.65485411660682
 20
-18.39494126108534
 30
0.0
 10
-17.60103310871914
 20
-18.41465528779646
 30
0.0
 10
-17.5174152640037
 20
-18.43334640501599
 30
0.0
 10
-17.43261158740069
 20
-18.4437054895853
 30
0.0
 10
-17.37569668700808
 20
-18.44390397981328
 30
0.0
 10
-17.34700012207017
 20
-18.44400405883788
 30
0.0
 11
-17.68199920654317
 21
-18.38499832153286
 31
0.0
 11
-17.60000228881816
 21
-18.41299819946286
 31
0.0
 11
-17.51700210571318
 21
-18.43200302123987
 31
0.0
 11
-17.43300247192417
 21
-18.44199752807588
 31
0.0
 11
-17.34700012207017
 21
-18.44400405883788
 31
0.0
  0
SPLINE
  5
9B40
330
1F
100
AcDbEntity
  8
AM_0
100
AcDbSpline
210
0.0
220
0.0
230
1.0
 70
     8
 71
     3
 72
    11
 73
     7
 74
     5
 42
0.0000000001
 43
0.0000000001
 44
0.0000000001
 40
0.0
 40
0.0
 40
0.0
 40
0.0
 40
0.1603776358676527
 40
0.3206303452002472
 40
0.480742672638541
 40
0.6427691665255271
 40
0.6427691665255271
 40
0.6427691665255271
 40
0.6427691665255271
 10
-6.63299942016623
 20
-2.593002319335872
 30
0.0
 10
-6.579674438692473
 20
-2.589210207911613
 30
0.0
 10
-6.473066013364159
 20
-2.581628938937169
 30
0.0
 10
-6.313071582043535
 20
-2.572507617169084
 30
0.0
 10
-6.152377133511359
 20
-2.566345277827327
 30
0.0
 10
-6.045005799378731
 20
-2.564786839865484
 30
0.0
 10
-5.991001129150206
 20
-2.564002990722872
 30
0.0
 11
-6.63299942016623
 21
-2.593002319335872
 31
0.0
 11
-6.472999572754206
 21
-2.582000732421867
 31
0.0
 11
-6.31299972534221
 21
-2.573001861571858
 31
0.0
 11
-6.152999877930214
 21
-2.567001342773854
 31
0.0
 11
-5.991001129150206
 21
-2.564002990722872
 31
0.0
  0
SPLINE
  5
9B41
330
1F
100
AcDbEntity
  8
AM_0
100
AcDbSpline
210
0.0
220
0.0
230
1.0
 70
     8
 71
     3
 72
    11
 73
     7
 74
     5
 42
0.0000000001
 43
0.0000000001
 44
0.0000000001
 40
0.0
 40
0.0
 40
0.0
 40
0.0
 40
0.8550812974644655
 40
1.679997555202578
 40
2.273441884316112
 40
2.499489994080005
 40
2.499489994080005
 40
2.499489994080005
 40
2.499489994080005
 10
-4.63199996948221
 20
-2.66900253295884
 30
0.0
 10
-4.912709039548265
 20
-2.616394310851843
 30
0.0
 10
-5.46422449525119
 20
-2.513033747610213
 30
0.0
 10
-6.209888475759949
 20
-2.419248488825259
 30
0.0
 10
-6.767030787045235
 20
-2.338738815118148
 30
0.0
 10
-7.030363237668302
 20
-2.417325660846051
 30
0.0
 10
-7.103000640869213
 20
-2.439002990722863
 30
0.0
 11
-4.63199996948221
 21
-2.66900253295884
 31
0.0
 11
-5.473999023437203
 21
-2.520000457763858
 31
0.0
 11
-6.291000366211208
 21
-2.406002044677867
 31
0.0
 11
-6.883998870850223
 21
-2.383003234862876
 31
0.0
 11
-7.103000640869213
 21
-2.439002990722863
 31
0.0
  0
SPLINE
  5
9B42
330
1F
100
AcDbEntity
  8
AM_0
100
AcDbSpline
210
0.0
220
0.0
230
1.0
 70
     8
 71
     3
 72
    11
 73
     7
 74
     5
 42
0.0000000001
 43
0.0000000001
 44
0.0000000001
 40
0.0
 40
0.0
 40
0.0
 40
0.0
 40
0.1690143988487074
 40
0.3420369014075879
 40
0.5180848886371186
 40
0.6971303810002662
 40
0.6971303810002662
 40
0.6971303810002662
 40
0.6971303810002662
 10
-5.991001129150206
 20
-2.564002990722872
 30
0.0
 10
-5.934666194334217
 20
-2.563395470312268
 30
0.0
 10
-5.820660365974541
 20
-2.562166022406052
 30
0.0
 10
-5.647989297277407
 20
-2.559186207951103
 30
0.0
 10
-5.472002227373094
 20
-2.554906718887445
 30
0.0
 10
-5.353666197334986
 20
-2.552311211209604
 30
0.0
 10
-5.293998718262217
 20
-2.551002502441861
 30
0.0
 11
-5.991001129150206
 21
-2.564002990722872
 31
0.0
 11
-5.821998596191221
 21
-2.562000274657865
 31
0.0
 11
-5.649002075195213
 21
-2.559001922607864
 31
0.0
 11
-5.472999572754206
 21
-2.555000305175853
 31
0.0
 11
-5.293998718262217
 21
-2.551002502441861
 31
0.0
  0
SPLINE
  5
9B43
330
1F
100
AcDbEntity
  8
AM_0
100
AcDbSpline
210
0.0
220
0.0
230
1.0
 70
     8
 71
     3
 72
    11
 73
     7
 74
     5
 42
0.0000000001
 43
0.0000000001
 44
0.0000000001
 40
0.0
 40
0.0
 40
0.0
 40
0.0
 40
0.088753440950768
 40
0.3189945085827792
 40
0.6770163452122235
 40
1.132041845126265
 40
1.132041845126265
 40
1.132041845126265
 40
1.132041845126265
 10
-7.103000640869213
 20
-2.439002990722863
 30
0.0
 10
-7.078977598798214
 20
-2.456848831346136
 30
0.0
 10
-6.992634822473038
 20
-2.52098972660478
 30
0.0
 10
-6.756411905229505
 20
-2.532710013079576
 30
0.0
 10
-6.415597535411105
 20
-2.568178613619855
 30
0.0
 10
-6.143360036671874
 20
-2.56550133911543
 30
0.0
 10
-5.991001129150206
 20
-2.564002990722872
 30
0.0
 11
-7.103000640869213
 21
-2.439002990722863
 31
0.0
 11
-7.028999328613211
 21
-2.488002777099858
 31
0.0
 11
-6.803001403809206
 21
-2.532001495360865
 31
0.0
 11
-6.445999145508226
 21
-2.559001922607867
 31
0.0
 11
-5.991001129150206
 21
-2.564002990722872
 31
0.0
  0
SPLINE
  5
9B44
330
1F
100
AcDbEntity
  8
AM_0
100
AcDbSpline
210
0.0
220
0.0
230
1.0
 70
     8
 71
     3
 72
    11
 73
     7
 74
     5
 42
0.0000000001
 43
0.0000000001
 44
0.0000000001
 40
0.0
 40
0.0
 40
0.0
 40
0.0
 40
1.304374494620092
 40
2.608234461477854
 40
3.913591573327933
 40
5.218615734142519
 40
5.218615734142519
 40
5.218615734142519
 40
5.218615734142519
 10
-3.986999511719219
 20
-2.798000335693837
 30
0.0
 10
-4.408876961159806
 20
-2.69275064455656
 30
0.0
 10
-5.252465444904117
 20
-2.482292779414004
 30
0.0
 10
-6.526467094999255
 20
-2.201012345767349
 30
0.0
 10
-7.806812128319858
 20
-1.949009964536415
 30
0.0
 10
-8.664975042006739
 20
-1.804998337997987
 30
0.0
 10
-9.094001770019236
 20
-1.73300170898486
 30
0.0
 11
-3.986999511719219
 21
-2.798000335693837
 31
0.0
 11
-5.254001617432225
 21
-2.488002777099851
 31
0.0
 11
-6.527000427246253
 21
-2.206001281737875
 31
0.0
 11
-7.807998657227233
 21
-1.955001831054855
 31
0.0
 11
-9.094001770019236
 21
-1.73300170898486
 31
0.0
  0
SPLINE
  5
9B45
330
1F
100
AcDbEntity
  8
AM_0
100
AcDbSpline
210
0.0
220
0.0
230
1.0
 70
     8
 71
     3
 72
    11
 73
     7
 74
     5
 42
0.0000000001
 43
0.0000000001
 44
0.0000000001
 40
0.0
 40
0.0
 40
0.0
 40
0.0
 40
0.0201254989823694
 40
0.0635076102534339
 40
0.1336016863901401
 40
0.2256719100602038
 40
0.2256719100602038
 40
0.2256719100602038
 40
0.2256719100602038
 10
-10.78499984741221
 20
-2.581001281737865
 30
0.0
 10
-10.78250096330124
 20
-2.587482460822084
 30
0.0
 10
-10.77461553604666
 20
-2.607934336108447
 30
0.0
 10
-10.726558266263
 20
-2.620752437791021
 30
0.0
 10
-10.66294340730278
 20
-2.638123425576071
 30
0.0
 10
-10.60876142014751
 20
-2.645062406852678
 30
0.0
 10
-10.57799911499022
 20
-2.649002075194852
 30
0.0
 11
-10.78499984741221
 21
-2.581001281737865
 31
0.0
 11
-10.7760009765622
 21
-2.59900283813486
 31
0.0
 11
-10.73699951171922
 21
-2.618000030517857
 31
0.0
 11
-10.66899871826221
 21
-2.635002136230847
 31
0.0
 11
-10.57799911499022
 21
-2.649002075194852
 31
0.0
  0
SPLINE
  5
9B46
330
1F
100
AcDbEntity
  8
AM_0
100
AcDbSpline
210
0.0
220
0.0
230
1.0
 70
     8
 71
     3
 72
    11
 73
     7
 74
     5
 42
0.0000000001
 43
0.0000000001
 44
0.0000000001
 40
0.0
 40
0.0
 40
0.0
 40
0.0
 40
0.2467587419111351
 40
0.492866551406086
 40
0.7389743609002995
 40
0.9836730177805081
 40
0.9836730177805081
 40
0.9836730177805081
 40
0.9836730177805081
 10
-9.925998687744243
 20
-1.761001586913855
 30
0.0
 10
-9.988287467677878
 20
-1.814720038067741
 30
0.0
 10
-10.11270071407155
 20
-1.922015234833766
 30
0.0
 10
-10.30003956475557
 20
-2.08195372448853
 30
0.0
 10
-10.48661465485758
 20
-2.241727852902796
 30
0.0
 10
-10.6109908073838
 20
-2.348011652349485
 30
0.0
 10
-10.67300033569323
 20
-2.40100097656285
 30
0.0
 11
-9.925998687744243
 21
-1.761001586913855
 31
0.0
 11
-10.11299896240221
 21
-1.922000885009872
 31
0.0
 11
-10.29999923706121
 21
-2.082000732421869
 31
0.0
 11
-10.48699951171924
 21
-2.242000579833865
 31
0.0
 11
-10.67300033569323
 21
-2.40100097656285
 31
0.0
  0
SPLINE
  5
9B47
330
1F
100
AcDbEntity
  8
AM_0
100
AcDbSpline
210
0.0
220
0.0
230
1.0
 70
     8
 71
     3
 72
    11
 73
     7
 74
     5
 42
0.0000000001
 43
0.0000000001
 44
0.0000000001
 40
0.0
 40
0.0
 40
0.0
 40
0.0
 40
0.0669423653653538
 40
0.1327060651032591
 40
0.1988930635341951
 40
0.2659018602332577
 40
0.2659018602332577
 40
0.2659018602332577
 40
0.2659018602332577
 10
-8.810001373291187
 20
-19.31399917602586
 30
0.0
 10
-8.788425429542227
 20
-19.31976902971721
 30
0.0
 10
-8.745653433360333
 20
-19.33120714630333
 30
0.0
 10
-8.67993152513231
 20
-19.34062998961669
 30
0.0
 10
-8.613756109126946
 20
-19.34635447002718
 30
0.0
 10
-8.56934396515922
 20
-19.3447866845581
 30
0.0
 10
-8.547000885010193
 20
-19.34399795532184
 30
0.0
 11
-8.810001373291187
 21
-19.31399917602586
 31
0.0
 11
-8.744998931885193
 21
-19.32999801635785
 31
0.0
 11
-8.680000305176209
 21
-19.34000015258785
 31
0.0
 11
-8.614002227783204
 21
-19.34499740600585
 31
0.0
 11
-8.547000885010193
 21
-19.34399795532184
 31
0.0
  0
SPLINE
  5
9B48
330
1F
100
AcDbEntity
  8
AM_0
100
AcDbSpline
210
0.0
220
0.0
230
1.0
 70
     8
 71
     3
 72
    11
 73
     7
 74
     5
 42
0.0000000001
 43
0.0000000001
 44
0.0000000001
 40
0.0
 40
0.0
 40
0.0
 40
0.0
 40
0.0641935047916311
 40
0.1287337584979051
 40
0.1921207569671704
 40
0.2561199329921915
 40
0.2561199329921915
 40
0.2561199329921915
 40
0.2561199329921915
 10
-8.764999389648211
 20
-19.09399795532185
 30
0.0
 10
-8.744790816224201
 20
-19.10108620014854
 30
0.0
 10
-8.704264510343282
 20
-19.11530097780644
 30
0.0
 10
-8.641555107016621
 20
-19.12894985192247
 30
0.0
 10
-8.577849109876975
 20
-19.13651599418787
 30
0.0
 10
-8.535351073297816
 20
-19.13550583059315
 30
0.0
 10
-8.513999938965186
 20
-19.13499832153286
 30
0.0
 11
-8.764999389648211
 21
-19.09399795532185
 31
0.0
 11
-8.704002380371209
 21
-19.11400222778286
 31
0.0
 11
-8.640998840332203
 21
-19.12800216674785
 31
0.0
 11
-8.577999114990207
 21
-19.13499832153286
 31
0.0
 11
-8.513999938965186
 21
-19.13499832153286
 31
0.0
  0
SPLINE
  5
9B49
330
1F
100
AcDbEntity
  8
AM_0
100
AcDbSpline
210
0.0
220
0.0
230
1.0
 70
     8
 71
     3
 72
    11
 73
     7
 74
     5
 42
0.0000000001
 43
0.0000000001
 44
0.0000000001
 40
0.0
 40
0.0
 40
0.0
 40
0.0
 40
0.0440176957117953
 40
0.0870285770549419
 40
0.1310387321334651
 40
0.1750488004175128
 40
0.1750488004175128
 40
0.1750488004175128
 40
0.1750488004175128
 10
-8.513999938965186
 20
-19.13499832153286
 30
0.0
 10
-8.514330540444591
 20
-19.14966716267487
 30
0.0
 10
-8.514984181573677
 20
-19.17866932535036
 30
0.0
 10
-8.516013371965787
 20
-19.2223367817166
 30
0.0
 10
-8.51700130889065
 20
-19.26600264468567
 30
0.0
 10
-8.517668140780198
 20
-19.2953351400638
 30
0.0
 10
-8.5180015563962
 20
-19.31000137329085
 30
0.0
 11
-8.513999938965186
 21
-19.13499832153286
 31
0.0
 11
-8.514999389648211
 21
-19.17900466918985
 31
0.0
 11
-8.515998840332203
 21
-19.22200393676785
 31
0.0
 11
-8.517002105713205
 21
-19.26600265502885
 31
0.0
 11
-8.5180015563962
 21
-19.31000137329085
 31
0.0
  0
SPLINE
  5
9B4A
330
1F
100
AcDbEntity
  8
AM_0
100
AcDbSpline
210
0.0
220
0.0
230
1.0
 70
     8
 71
     3
 72
    11
 73
     7
 74
     5
 42
0.0000000001
 43
0.0000000001
 44
0.0000000001
 40
0.0
 40
0.0
 40
0.0
 40
0.0
 40
0.0526098576596678
 40
0.105004405206923
 40
0.1562496508947892
 40
0.2084502042563777
 40
0.2084502042563777
 40
0.2084502042563777
 40
0.2084502042563777
 10
-0.9130020141602066
 20
-14.41500091552784
 30
0.0
 10
-0.9153707610388346
 20
-14.39761421508648
 30
0.0
 10
-0.9200985605072368
 20
-14.36291197068645
 30
0.0
 10
-0.93242824024296
 20
-14.31223408881528
 30
0.0
 10
-0.9475480765170022
 20
-14.26250646663201
 30
0.0
 10
-0.9598113444908678
 20
-14.23026852778485
 30
0.0
 10
-0.9659996032712088
 20
-14.21400070190383
 30
0.0
 11
-0.9130020141602066
 21
-14.41500091552784
 31
0.0
 11
-0.9210014343262084
 21
-14.36300277709983
 31
0.0
 11
-0.9329986572272101
 21
-14.31200027465784
 31
0.0
 11
-0.9480018615722171
 21
-14.26300048828084
 31
0.0
 11
-0.9659996032712088
 21
-14.21400070190383
 31
0.0
  0
SPLINE
  5
9B4B
330
1F
100
AcDbEntity
  8
AM_0
100
AcDbSpline
210
0.0
220
0.0
230
1.0
 70
     8
 71
     3
 72
    11
 73
     7
 74
     5
 42
0.0000000001
 43
0.0000000001
 44
0.0000000001
 40
0.0
 40
0.0
 40
0.0
 40
0.0
 40
0.0514789213800544
 40
0.1033622580614954
 40
0.154135874081152
 40
0.2057489671731486
 40
0.2057489671731486
 40
0.2057489671731486
 40
0.2057489671731486
 10
-0.9659996032712088
 20
-14.21400070190383
 30
0.0
 10
-0.9728191734723122
 20
-14.19825132229334
 30
0.0
 10
-0.9865118880066932
 20
-14.16662883689608
 30
0.0
 10
-1.010184329340353
 20
-14.12095920035076
 30
0.0
 10
-1.037682781902703
 20
-14.07743719325349
 30
0.0
 10
-1.057839700193871
 20
-14.04988976083651
 30
0.0
 10
-1.068000793457211
 20
-14.03600311279284
 30
0.0
 11
-0.9659996032712088
 21
-14.21400070190383
 31
0.0
 11
-0.9869995117192136
 21
-14.16699981689483
 31
0.0
 11
-1.011001586914212
 21
-14.12100219726584
 31
0.0
 11
-1.038002014160207
 21
-14.07800292968783
 31
0.0
 11
-1.068000793457211
 21
-14.03600311279284
 31
0.0
  0
SPLINE
  5
9B4C
330
1F
100
AcDbEntity
  8
AM_0
100
AcDbSpline
210
0.0
220
0.0
230
1.0
 70
     8
 71
     3
 72
    11
 73
     7
 74
     5
 42
0.0000000001
 43
0.0000000001
 44
0.0000000001
 40
0.0
 40
0.0
 40
0.0
 40
0.0
 40
0.04909190350189
 40
0.0971436813942721
 40
0.1455287374535713
 40
0.1942836715079794
 40
0.1942836715079794
 40
0.1942836715079794
 40
0.1942836715079794
 10
-0.98500061035219
 20
-19.01400375366183
 30
0.0
 10
-0.9685969360679072
 20
-19.01356669915511
 30
0.0
 10
-0.9361371373089028
 20
-19.01270185015305
 30
0.0
 10
-0.8887489692864644
 20
-19.00146440288201
 30
0.0
 10
-0.8423343285922598
 20
-18.9873005339339
 30
0.0
 10
-0.8134812548725564
 20
-18.97245245860956
 30
0.0
 10
-0.7989997863771974
 20
-18.96500015258784
 30
0.0
 11
-0.98500061035219
 21
-19.01400375366183
 31
0.0
 11
-0.9360008239751945
 21
-19.01099777221683
 31
0.0
 11
-0.8889999389651871
 21
-19.00100326538083
 31
0.0
 11
-0.8429985046391859
 21
-18.98600387573284
 31
0.0
 11
-0.7989997863771974
 21
-18.96500015258784
 31
0.0
  0
SPLINE
  5
9B4D
330
1F
100
AcDbEntity
  8
AM_0
100
AcDbSpline
210
0.0
220
0.0
230
1.0
 70
     8
 71
     3
 72
    11
 73
     7
 74
     5
 42
0.0000000001
 43
0.0000000001
 44
0.0000000001
 40
0.0
 40
0.0
 40
0.0
 40
0.0
 40
0.0265730059132965
 40
0.0525359770268217
 40
0.0792203733678798
 40
0.105519356688451
 40
0.105519356688451
 40
0.105519356688451
 40
0.105519356688451
 10
-0.6350021362301881
 20
-18.78200149536083
 30
0.0
 10
-0.6318521467550906
 20
-18.77371563896518
 30
0.0
 10
-0.6256244819121135
 20
-18.75733414405002
 30
0.0
 10
-0.6188699219020575
 20
-18.7317835745237
 30
0.0
 10
-0.6125583093304082
 20
-18.70621157628467
 30
0.0
 10
-0.6101811121332323
 20
-18.68869747149765
 30
0.0
 10
-0.6090011596681859
 20
-18.68000411987284
 30
0.0
 11
-0.6350021362301881
 21
-18.78200149536083
 31
0.0
 11
-0.62599945068418
 21
-18.75699996948284
 31
0.0
 11
-0.6189994812011898
 21
-18.73199844360383
 31
0.0
 11
-0.6129989624021914
 21
-18.70599746704083
 31
0.0
 11
-0.6090011596681859
 21
-18.68000411987284
 31
0.0
  0
SPLINE
  5
9B4E
330
1F
100
AcDbEntity
  8
AM_0
100
AcDbSpline
210
0.0
220
0.0
230
1.0
 70
     8
 71
     3
 72
    11
 73
     7
 74
     5
 42
0.0000000001
 43
0.0000000001
 44
0.0000000001
 40
0.0
 40
0.0
 40
0.0
 40
0.0
 40
0.173807252786627
 40
0.3474639383052196
 40
0.5210509688188006
 40
0.6930431201338946
 40
0.6930431201338946
 40
0.6930431201338946
 40
0.6930431201338946
 10
-1.103000640869208
 20
-13.38400268554684
 30
0.0
 10
-1.054564223720338
 20
-13.41626449987224
 30
0.0
 10
-0.9577333493459414
 20
-13.48076018047618
 30
0.0
 10
-0.8443501546563119
 20
-13.61472532625673
 30
0.0
 10
-0.7592473445872319
 20
-13.767695619938
 30
0.0
 10
-0.734377604208377
 20
-13.88073929201019
 30
0.0
 10
-0.7220001220702087
 20
-13.93700027465784
 30
0.0
 11
-1.103000640869208
 21
-13.38400268554684
 31
0.0
 11
-0.963001251221212
 21
-13.48700332641583
 31
0.0
 11
-0.8489990234372127
 21
-13.61800003051784
 31
0.0
 11
-0.767002105713214
 21
-13.77099990844683
 31
0.0
 11
-0.7220001220702087
 21
-13.93700027465784
 31
0.0
  0
SPLINE
  5
9B4F
330
1F
100
AcDbEntity
  8
AM_0
100
AcDbSpline
210
0.0
220
0.0
230
1.0
 70
     8
 71
     3
 72
    11
 73
     7
 74
     5
 42
0.0000000001
 43
0.0000000001
 44
0.0000000001
 40
0.0
 40
0.0
 40
0.0
 40
0.0
 40
1.051248778890999
 40
2.102493787527345
 40
3.153898916343788
 40
4.206127972382203
 40
4.206127972382203
 40
4.206127972382203
 40
4.206127972382203
 10
-0.7220001220702087
 20
-13.93700027465784
 30
0.0
 10
-0.6686369899160326
 20
-14.2833294857175
 30
0.0
 10
-0.5619109169920618
 20
-14.97598666574327
 30
0.0
 10
-0.4023510946664714
 20
-16.01510755946912
 30
0.0
 10
-0.2405881252525065
 20
-17.05421879258313
 30
0.0
 10
-0.1342107844603945
 20
-17.74731441317085
 30
0.0
 10
-0.0810012817381882
 20
-18.09399795532184
 30
0.0
 11
-0.7220001220702087
 21
-13.93700027465784
 31
0.0
 11
-0.5620002746582086
 21
-14.97600173950183
 31
0.0
 11
-0.4020004272462085
 21
-16.01499938964882
 31
0.0
 11
-0.2410011291501882
 21
-17.05400466918984
 31
0.0
 11
-0.0810012817381882
 21
-18.09399795532184
 31
0.0
  0
SPLINE
  5
9B50
330
1F
100
AcDbEntity
  8
AM_0
100
AcDbSpline
210
0.0
220
0.0
230
1.0
 70
     8
 71
     3
 72
    11
 73
     7
 74
     5
 42
0.0000000001
 43
0.0000000001
 44
0.0000000001
 40
0.0
 40
0.0
 40
0.0
 40
0.0
 40
2.18759490231027
 40
4.371121133771297
 40
6.552564805675511
 40
8.729971861907596
 40
8.729971861907596
 40
8.729971861907596
 40
8.729971861907596
 10
-0.3660011291501772
 20
-19.63499832153284
 30
0.0
 10
-1.094997076782688
 20
-19.65217702398358
 30
0.0
 10
-2.551633124784481
 20
-19.68650247850623
 30
0.0
 10
-4.735289684429683
 20
-19.73476466018816
 30
0.0
 10
-6.915649106889033
 20
-19.77826399615332
 30
0.0
 10
-8.368332646165944
 20
-19.80609893079644
 30
0.0
 10
-9.094001770019188
 20
-19.82000350952185
 30
0.0
 11
-0.3660011291501772
 21
-19.63499832153284
 31
0.0
 11
-2.553001403809175
 21
-19.68600082397485
 31
0.0
 11
-4.736000061035211
 21
-19.73399734497084
 31
0.0
 11
-6.916999816894188
 21
-19.77800369262686
 31
0.0
 11
-9.094001770019188
 21
-19.82000350952185
 31
0.0
  0
SPLINE
  5
9B51
330
1F
100
AcDbEntity
  8
AM_0
100
AcDbSpline
210
0.0
220
0.0
230
1.0
 70
     8
 71
     3
 72
    11
 73
     7
 74
     5
 42
0.0000000001
 43
0.0000000001
 44
0.0000000001
 40
0.0
 40
0.0
 40
0.0
 40
0.0
 40
0.1142207393370415
 40
0.2293849458839077
 40
0.3448080837069028
 40
0.4607453352497111
 40
0.4607453352497111
 40
0.4607453352497111
 40
0.4607453352497111
 10
-0.0000000000001863
 20
-19.21999740600585
 30
0.0
 10
-0.0000082941324395
 20
-19.2583625360273
 30
0.0
 10
-0.0000249509067619
 20
-19.33540969335513
 30
0.0
 10
-0.0423365194164443
 20
-19.44462166948463
 30
0.0
 10
-0.1131514909498545
 20
-19.53906178681541
 30
0.0
 10
-0.1803345350171399
 20
-19.57832710297816
 30
0.0
 10
-0.2140007019041831
 20
-19.59800338745083
 30
0.0
 11
-0.0000000000001863
 21
-19.21999740600585
 31
0.0
 11
-0.0069999694821814
 21
-19.33400344848585
 31
0.0
 11
-0.0470008850101783
 21
-19.44199752807585
 31
0.0
 11
-0.1180000305181894
 21
-19.53300094604484
 31
0.0
 11
-0.2140007019041831
 21
-19.59800338745083
 31
0.0
  0
SPLINE
  5
9B52
330
1F
100
AcDbEntity
  8
AM_0
100
AcDbSpline
210
0.0
220
0.0
230
1.0
 70
     8
 71
     3
 72
    11
 73
     7
 74
     5
 42
0.0000000001
 43
0.0000000001
 44
0.0000000001
 40
0.0
 40
0.0
 40
0.0
 40
0.0
 40
0.0820983133788253
 40
0.165248797065633
 40
0.2493436923849038
 40
0.3354351000611754
 40
0.3354351000611754
 40
0.3354351000611754
 40
0.3354351000611754
 10
-8.881999969482249
 20
0.5659980773921351
 30
0.0
 10
-8.854660606564435
 20
0.5647705387882603
 30
0.0
 10
-8.799631500011866
 20
0.5622997294708269
 30
0.0
 10
-8.716704256204479
 20
0.5566214095576437
 30
0.0
 10
-8.632330729908689
 20
0.5530355192367723
 30
0.0
 10
-8.575665751903439
 20
0.5503555106887853
 30
0.0
 10
-8.547000885010218
 20
0.5489997863771369
 30
0.0
 11
-8.881999969482249
 21
0.5659980773921351
 31
0.0
 11
-8.799999237061228
 21
0.5619964599611486
 31
0.0
 11
-8.716999053955248
 21
0.5569992065431375
 31
0.0
 11
-8.632999420166242
 21
0.5529975891111421
 31
0.0
 11
-8.547000885010218
 21
0.5489997863771369
 31
0.0
  0
SPLINE
  5
9B53
330
1F
100
AcDbEntity
  8
AM_0
100
AcDbSpline
210
0.0
220
0.0
230
1.0
 70
     8
 71
     3
 72
    11
 73
     7
 74
     5
 42
0.0000000001
 43
0.0000000001
 44
0.0000000001
 40
0.0
 40
0.0
 40
0.0
 40
0.0
 40
0.0612016815375979
 40
0.1243319316887474
 40
0.1875298436437413
 40
0.2517241207575867
 40
0.2517241207575867
 40
0.2517241207575867
 40
0.2517241207575867
 10
-8.764999389648268
 20
0.7379989624021287
 30
0.0
 10
-8.744675907716509
 20
0.7362098002759598
 30
0.0
 10
-8.703388516525066
 20
0.7325750964955699
 30
0.0
 10
-8.640949394626982
 20
0.7293737584979963
 30
0.0
 10
-8.577676427178547
 20
0.7238577509235209
 30
0.0
 10
-8.535335820415779
 20
0.7206263118118609
 30
0.0
 10
-8.513999938965241
 20
0.7189979553221369
 30
0.0
 11
-8.764999389648268
 21
0.7379989624021287
 31
0.0
 11
-8.704002380371266
 21
0.7329978942871361
 31
0.0
 11
-8.640998840332258
 21
0.7290000915531451
 31
0.0
 11
-8.577999114990236
 21
0.7239990234371438
 31
0.0
 11
-8.513999938965241
 21
0.7189979553221369
 31
0.0
  0
SPLINE
  5
9B54
330
1F
100
AcDbEntity
  8
AM_0
100
AcDbSpline
210
0.0
220
0.0
230
1.0
 70
     8
 71
     3
 72
    11
 73
     7
 74
     5
 42
0.0000000001
 43
0.0000000001
 44
0.0000000001
 40
0.0
 40
0.0
 40
0.0
 40
0.0
 40
0.0360131693283382
 40
0.072026338655723
 40
0.1080396140528516
 40
0.1440565966090443
 40
0.1440565966090443
 40
0.1440565966090443
 40
0.1440565966090443
 10
-8.513999938965241
 20
0.7189979553221369
 30
0.0
 10
-8.514333203265602
 20
0.7069981924631575
 30
0.0
 10
-8.514999731866314
 20
0.6829986667455163
 30
0.0
 10
-8.515997472438597
 20
0.6469992857119084
 30
0.0
 10
-8.517003461775157
 20
0.6109988625562229
 30
0.0
 10
-8.517668846774165
 20
0.5869979980951993
 30
0.0
 10
-8.518001556396255
 20
0.574996948242144
 30
0.0
 11
-8.513999938965241
 21
0.7189979553221369
 31
0.0
 11
-8.514999389648268
 21
0.6829986572261495
 31
0.0
 11
-8.515998840332258
 21
0.6469993591311427
 31
0.0
 11
-8.517002105713229
 21
0.6110000610351413
 31
0.0
 11
-8.518001556396255
 21
0.574996948242144
 31
0.0
  0
SPLINE
  5
9B55
330
1F
100
AcDbEntity
  8
AM_0
100
AcDbSpline
210
0.0
220
0.0
230
1.0
 70
     8
 71
     3
 72
    11
 73
     7
 74
     5
 42
0.0000000001
 43
0.0000000001
 44
0.0000000001
 40
0.0
 40
0.0
 40
0.0
 40
0.0
 40
0.0090026855460081
 40
0.0160736454831422
 40
0.0221574573870272
 40
0.0266271367239625
 40
0.0266271367239625
 40
0.0266271367239625
 40
0.0266271367239625
 10
-0.6350021362302392
 20
-0.0990028381348465
 30
0.0
 10
-0.6319863344013847
 20
-0.0991445906605885
 30
0.0
 10
-0.6266018378312569
 20
-0.0993976795676122
 30
0.0
 10
-0.6193758434193214
 20
-0.0978778503567658
 30
0.0
 10
-0.6133757437103878
 20
-0.0975650504855571
 30
0.0
 10
-0.6103026817270915
 20
-0.0957640088868575
 30
0.0
 10
-0.6090011596682367
 20
-0.0950012207028363
 30
0.0
 11
-0.6350021362302392
 21
-0.0990028381348465
 31
0.0
 11
-0.6259994506842311
 21
-0.0990028381348465
 31
0.0
 11
-0.6189994812012407
 21
-0.0980033874508407
 31
0.0
 11
-0.6129989624022421
 21
-0.0970001220698391
 31
0.0
 11
-0.6090011596682367
 21
-0.0950012207028363
 31
0.0
  0
SPLINE
  5
9B56
330
1F
100
AcDbEntity
  8
AM_0
100
AcDbSpline
210
0.0
220
0.0
230
1.0
 70
     8
 71
     3
 72
    11
 73
     7
 74
     5
 42
0.0000000001
 43
0.0000000001
 44
0.0000000001
 40
0.0
 40
0.0
 40
0.0
 40
0.0
 40
0.0082500084803105
 40
0.0206162315227201
 40
0.034933647701561
 40
0.0531838268201959
 40
0.0531838268201959
 40
0.0531838268201959
 40
0.0531838268201959
 10
-9.357002258301235
 20
0.6119995117191293
 30
0.0
 10
-9.354333710071944
 20
0.6113351568466032
 30
0.0
 10
-9.347665182608496
 20
0.6096749774785535
 30
0.0
 10
-9.336391042250577
 20
0.6067597222315918
 30
0.0
 10
-9.321740963967362
 20
0.6036049720225052
 30
0.0
 10
-9.31101237526416
 20
0.601934193251255
 30
0.0
 10
-9.305000305176235
 20
0.6009979248051382
 30
0.0
 11
-9.357002258301235
 21
0.6119995117191293
 31
0.0
 11
-9.348999023437244
 21
0.6099967956541362
 31
0.0
 11
-9.337001800537221
 21
0.6069984436031277
 31
0.0
 11
-9.323001861572265
 21
0.6040000915531422
 31
0.0
 11
-9.305000305176235
 21
0.6009979248051382
 31
0.0
  0
SPLINE
  5
9B57
330
1F
100
AcDbEntity
  8
AM_0
100
AcDbSpline
210
0.0
220
0.0
230
1.0
 70
     8
 71
     3
 72
    11
 73
     7
 74
     5
 42
0.0000000001
 43
0.0000000001
 44
0.0000000001
 40
0.0
 40
0.0
 40
0.0
 40
0.0
 40
0.2860943713562425
 40
0.5411092520313308
 40
0.7330539343010646
 40
0.8406154898222276
 40
0.8406154898222276
 40
0.8406154898222276
 40
0.8406154898222276
 10
-9.094001770019236
 20
-1.73300170898486
 30
0.0
 10
-9.189009001178479
 20
-1.722881239858394
 30
0.0
 10
-9.368702476259578
 20
-1.703739725632622
 30
0.0
 10
-9.61203174998277
 20
-1.703783361532093
 30
0.0
 10
-9.800030784223332
 20
-1.708445823722464
 30
0.0
 10
-9.892713559637677
 20
-1.747114515194245
 30
0.0
 10
-9.925998687744243
 20
-1.761001586913855
 30
0.0
 11
-9.094001770019236
 21
-1.73300170898486
 31
0.0
 11
-9.379001617432257
 21
-1.708000183105856
 31
0.0
 11
-9.633998870850225
 21
-1.705001831054863
 31
0.0
 11
-9.825000762939216
 21
-1.724002838134871
 31
0.0
 11
-9.925998687744243
 21
-1.761001586913855
 31
0.0
  0
ELLIPSE
  5
9B58
330
1F
100
AcDbEntity
  8
AM_0
100
AcDbEllipse
 10
-1.020000457764238
 20
0.1279983520511534
 30
0.0
 11
0.2023734969569944
 21
-0.015937809044004
 31
0.0
210
0.0
220
0.0
230
1.0
 40
0.0049204582837
 41
0.0
 42
0.3771896984505795
  0
SPLINE
  5
9B59
330
1F
100
AcDbEntity
  8
AM_0
100
AcDbSpline
210
0.0
220
0.0
230
1.0
 70
     8
 71
     3
 72
    11
 73
     7
 74
     5
 42
0.0000000001
 43
0.0000000001
 44
0.0000000001
 40
0.0
 40
0.0
 40
0.0
 40
0.0
 40
0.0526098576596783
 40
0.0980101303193253
 40
0.1361264428042181
 40
0.1651948437182716
 40
0.1651948437182716
 40
0.1651948437182716
 40
0.1651948437182716
 10
-0.7989997863772495
 20
-0.0800018310548402
 30
0.0
 10
-0.781673458260019
 20
-0.0826942321599812
 30
0.0
 10
-0.7493951790122374
 20
-0.0877100712997439
 30
0.0
 10
-0.7044714905674554
 20
-0.0943016365711176
 30
0.0
 10
-0.6670065540819172
 20
-0.0967763600240453
 30
0.0
 10
-0.6446674572515231
 20
-0.0983304426615876
 30
0.0
 10
-0.6350021362302392
 20
-0.0990028381348465
 30
0.0
 11
-0.7989997863772495
 21
-0.0800018310548402
 31
0.0
 11
-0.7470016479492309
 21
-0.0880012512208414
 31
0.0
 11
-0.7019996643072495
 21
-0.0940017700198398
 31
0.0
 11
-0.6640014648442452
 21
-0.0970001220698394
 31
0.0
 11
-0.6350021362302392
 21
-0.0990028381348465
 31
0.0
  0
SPLINE
  5
9B5A
330
1F
100
AcDbEntity
  8
AM_0
100
AcDbSpline
210
0.0
220
0.0
230
1.0
 70
     8
 71
     3
 72
    11
 73
     7
 74
     5
 42
0.0000000001
 43
0.0000000001
 44
0.0000000001
 40
0.0
 40
0.0
 40
0.0
 40
0.0
 40
0.2886884912581555
 40
0.560463908665045
 40
0.791504059859697
 40
0.9740019537253283
 40
0.9740019537253283
 40
0.9740019537253283
 40
0.9740019537253283
 10
-35.49399948120119
 20
-14.55000305175791
 30
0.0
 10
-35.59003239287271
 20
-14.53855284695209
 30
0.0
 10
-35.7764720420646
 20
-14.51632325784544
 30
0.0
 10
-36.02327292199625
 20
-14.42291473255862
 30
0.0
 10
-36.22775162252452
 20
-14.30421417124424
 30
0.0
 10
-36.29591786492609
 20
-14.18195582556986
 30
0.0
 10
-36.32600021362319
 20
-14.12800216674792
 30
0.0
 11
-35.49399948120119
 21
-14.55000305175791
 31
0.0
 11
-35.77899932861318
 21
-14.50400161743191
 31
0.0
 11
-36.0340003967282
 21
-14.40999984741192
 31
0.0
 11
-36.22499847412119
 21
-14.28000259399391
 31
0.0
 11
-36.32600021362319
 21
-14.12800216674792
 31
0.0
  0
SPLINE
  5
9B5B
330
1F
100
AcDbEntity
  8
AM_0
100
AcDbSpline
210
0.0
220
0.0
230
1.0
 70
     8
 71
     3
 72
    11
 73
     7
 74
     5
 42
0.0000000001
 43
0.0000000001
 44
0.0000000001
 40
0.0
 40
0.0
 40
0.0
 40
0.0
 40
2.20287300670181
 40
4.403377173545942
 40
6.603839483102499
 40
8.802098738495917
 40
8.802098738495917
 40
8.802098738495917
 40
8.802098738495917
 10
-26.7660026550292
 20
-15.68799972534191
 30
0.0
 10
-27.49511269051773
 20
-15.60090868879404
 30
0.0
 10
-28.95254871951534
 20
-15.42682026826837
 30
0.0
 10
-31.13629753239734
 20
-15.14939576583829
 30
0.0
 10
-33.31665117690683
 20
-14.85782518903254
 30
0.0
 10
-34.76845908742435
 20
-14.65257616523313
 30
0.0
 10
-35.49399948120119
 20
-14.55000305175791
 30
0.0
 11
-26.7660026550292
 21
-15.68799972534191
 31
0.0
 11
-28.9529991149902
 21
-15.42399978637689
 31
0.0
 11
-31.1359996795652
 21
-15.1470031738279
 31
0.0
 11
-33.3170013427732
 21
-14.8549995422359
 31
0.0
 11
-35.49399948120119
 21
-14.55000305175791
 31
0.0
  0
SPLINE
  5
9B5C
330
1F
100
AcDbEntity
  8
AM_0
100
AcDbSpline
210
0.0
220
0.0
230
1.0
 70
     8
 71
     3
 72
    11
 73
     7
 74
     5
 42
0.0000000001
 43
0.0000000001
 44
0.0000000001
 40
0.0
 40
0.0
 40
0.0
 40
0.0
 40
0.0892755538327936
 40
0.1805125713247374
 40
0.2774487610691325
 40
0.3826393781368455
 40
0.3826393781368455
 40
0.3826393781368455
 40
0.3826393781368455
 10
-26.40000152587919
 20
-15.39300155639689
 30
0.0
 10
-26.40001062927531
 20
-15.42313061834322
 30
0.0
 10
-26.40002903607729
 20
-15.4840507046383
 30
0.0
 10
-26.44387240460314
 20
-15.56897275058397
 30
0.0
 10
-26.51696034359195
 20
-15.6373767123422
 30
0.0
 10
-26.58078609720843
 20
-15.66080684898806
 30
0.0
 10
-26.61400222778318
 20
-15.6730003356939
 30
0.0
 11
-26.40000152587919
 21
-15.39300155639689
 31
0.0
 11
-26.40700149536121
 21
-15.48200225830088
 31
0.0
 11
-26.4470024108892
 21
-15.5640029907229
 31
0.0
 11
-26.51800155639618
 21
-15.63000106811489
 31
0.0
 11
-26.61400222778318
 21
-15.6730003356939
 31
0.0
  0
SPLINE
  5
9B5D
330
1F
100
AcDbEntity
  8
AM_0
100
AcDbSpline
210
0.0
220
0.0
230
1.0
 70
     8
 71
     3
 72
    11
 73
     7
 74
     5
 42
0.0000000001
 43
0.0000000001
 44
0.0000000001
 40
0.0
 40
0.0
 40
0.0
 40
0.0
 40
0.604644507212793
 40
1.209289014426554
 40
1.814884051407772
 40
2.420171216819984
 40
2.420171216819984
 40
2.420171216819984
 40
2.420171216819984
 10
-36.32600021362319
 20
-14.12800216674792
 30
0.0
 10
-36.38833203025464
 20
-13.93633471700906
 30
0.0
 10
-36.51299566351764
 20
-13.55299981753102
 30
0.0
 10
-36.70011806572791
 20
-12.97770568066917
 30
0.0
 10
-36.88719074165142
 20
-12.40216969564338
 30
0.0
 10
-37.01107532097936
 20
-12.0180241507905
 30
0.0
 10
-37.07300186157224
 20
-11.82600021362292
 30
0.0
 11
-36.32600021362319
 21
-14.12800216674792
 31
0.0
 11
-36.51300048828119
 21
-13.55300140380892
 31
0.0
 11
-36.70000076293923
 21
-12.97800064086892
 31
0.0
 11
-36.88700103759823
 21
-12.40200042724592
 31
0.0
 11
-37.07300186157224
 21
-11.82600021362292
 31
0.0
  0
SPLINE
  5
9B5E
330
1F
100
AcDbEntity
  8
AM_0
100
AcDbSpline
210
0.0
220
0.0
230
1.0
 70
     8
 71
     3
 72
    11
 73
     7
 74
     5
 42
0.0000000001
 43
0.0000000001
 44
0.0000000001
 40
0.0
 40
0.0
 40
0.0
 40
0.0
 40
0.0860230930784523
 40
0.1709529843320203
 40
0.255545566218158
 40
0.3415712312947662
 40
0.3415712312947662
 40
0.3415712312947662
 40
0.3415712312947662
 10
-26.48200225830122
 20
-16.0580024719239
 30
0.0
 10
-26.4548254501576
 20
-16.06722066784883
 30
0.0
 10
-26.40081720317986
 20
-16.08553991268331
 30
0.0
 10
-26.31730758418318
 20
-16.10313932586432
 30
0.0
 10
-26.23261989271602
 20
-16.11376385481399
 30
0.0
 10
-26.17569890352062
 20
-16.11392232644012
 30
0.0
 10
-26.14699935913118
 20
-16.11400222778289
 30
0.0
 11
-26.48200225830122
 21
-16.0580024719239
 31
0.0
 11
-26.40000152587918
 21
-16.08399963378888
 31
0.0
 11
-26.31700134277319
 21
-16.10200119018589
 31
0.0
 11
-26.23300170898419
 21
-16.11199951171888
 31
0.0
 11
-26.14699935913118
 21
-16.11400222778289
 31
0.0
  0
SPLINE
  5
9B5F
330
1F
100
AcDbEntity
  8
AM_0
100
AcDbSpline
210
0.0
220
0.0
230
1.0
 70
     8
 71
     3
 72
    11
 73
     7
 74
     5
 42
0.0000000001
 43
0.0000000001
 44
0.0000000001
 40
0.0
 40
0.0
 40
0.0
 40
0.0
 40
0.0641959409648015
 40
0.1287324708079127
 40
0.1923716495393837
 40
0.2564410232449564
 40
0.2564410232449564
 40
0.2564410232449564
 40
0.2564410232449564
 10
-26.36500167846719
 20
-15.80100250244189
 30
0.0
 10
-26.34479885430368
 20
-15.80813083999768
 30
0.0
 10
-26.30428602073852
 20
-15.82242533420586
 30
0.0
 10
-26.241387874918
 20
-15.8354663258289
 30
0.0
 10
-26.17797884700941
 20
-15.84539706914163
 30
0.0
 10
-26.13537560483481
 20
-15.84646457244123
 30
0.0
 10
-26.11400222778319
 20
-15.84700012206989
 30
0.0
 11
-26.36500167846719
 21
-15.80100250244189
 31
0.0
 11
-26.3040008544922
 21
-15.82100296020489
 31
0.0
 11
-26.2410011291502
 21
-15.83500289916988
 31
0.0
 11
-26.17800140380921
 21
-15.84400177001988
 31
0.0
 11
-26.11400222778319
 21
-15.84700012206989
 31
0.0
  0
SPLINE
  5
9B60
330
1F
100
AcDbEntity
  8
AM_0
100
AcDbSpline
210
0.0
220
0.0
230
1.0
 70
    24
 71
     3
 72
    11
 73
     7
 74
     5
 42
0.0000000001
 43
0.0000000001
 44
0.0000000001
 40
0.0
 40
0.0
 40
0.0
 40
0.0
 40
0.056008673953667
 40
0.1120173479063255
 40
0.1680260218600049
 40
0.224034695812681
 40
0.224034695812681
 40
0.224034695812681
 40
0.224034695812681
 10
-26.11400222778319
 20
-15.84700012206989
 30
0.0
 10
-26.1143353780113
 20
-15.86566670735656
 30
0.0
 10
-26.11500167846751
 20
-15.90299987792954
 30
0.0
 10
-26.11600112914987
 20
-15.95899963378923
 30
0.0
 10
-26.11700057983427
 20
-16.01499938964854
 30
0.0
 10
-26.11766688029022
 20
-16.05233256022154
 30
0.0
 10
-26.11800003051819
 20
-16.07099914550788
 30
0.0
 11
-26.11400222778319
 21
-15.84700012206989
 31
0.0
 11
-26.11500167846719
 21
-15.90299987792988
 31
0.0
 11
-26.11600112915021
 21
-15.95899963378888
 31
0.0
 11
-26.1170005798342
 21
-16.01499938964888
 31
0.0
 11
-26.11800003051819
 21
-16.07099914550788
 31
0.0
  0
SPLINE
  5
9B61
330
1F
100
AcDbEntity
  8
AM_0
100
AcDbSpline
210
0.0
220
0.0
230
1.0
 70
     8
 71
     3
 72
    11
 73
     7
 74
     5
 42
0.0000000001
 43
0.0000000001
 44
0.0000000001
 40
0.0
 40
0.0
 40
0.0
 40
0.0
 40
0.0884563650129069
 40
0.1770567457603656
 40
0.2666097979017306
 40
0.3574845474162518
 40
0.3574845474162518
 40
0.3574845474162518
 40
0.3574845474162518
 10
-26.77899932861321
 20
-15.8640022277829
 30
0.0
 10
-26.75773427007771
 20
-15.88445308316738
 30
0.0
 10
-26.71516953138252
 20
-15.92538808995705
 30
0.0
 10
-26.64381571702806
 20
-15.97885279736159
 30
0.0
 10
-26.56528710803644
 20
-16.02266392047619
 30
0.0
 10
-26.50989912040367
 20
-16.04616556881643
 30
0.0
 10
-26.48200225830122
 20
-16.0580024719239
 30
0.0
 11
-26.77899932861321
 21
-15.8640022277829
 31
0.0
 11
-26.7140007019042
 21
-15.92399978637689
 31
0.0
 11
-26.64300155639618
 21
-15.9770011901859
 31
0.0
 11
-26.56500244140618
 21
-16.0209999084469
 31
0.0
 11
-26.48200225830122
 21
-16.0580024719239
 31
0.0
  0
SPLINE
  5
9B62
330
1F
100
AcDbEntity
  8
AM_0
100
AcDbSpline
210
0.0
220
0.0
230
1.0
 70
     8
 71
     3
 72
    11
 73
     7
 74
     5
 42
0.0000000001
 43
0.0000000001
 44
0.0000000001
 40
0.0
 40
0.0
 40
0.0
 40
0.0
 40
0.0672315762116341
 40
0.1325998043646712
 40
0.1966708451641733
 40
0.2604489812834534
 40
0.2604489812834534
 40
0.2604489812834534
 40
0.2604489812834534
 10
-26.36500167846719
 20
-15.80100250244189
 30
0.0
 10
-26.38593138234899
 20
-15.79288241116585
 30
0.0
 10
-26.42721071561052
 20
-15.77686727995375
 30
0.0
 10
-26.48388467878463
 20
-15.74364778733314
 30
0.0
 10
-26.53805735067182
 20
-15.70850272117176
 30
0.0
 10
-26.56937575687655
 20
-15.67947935306273
 30
0.0
 10
-26.58499908447322
 20
-15.66500091552791
 30
0.0
 11
-26.36500167846719
 21
-15.80100250244189
 31
0.0
 11
-26.42700195312521
 21
-15.77500152587889
 31
0.0
 11
-26.48400115966818
 21
-15.7430000305179
 31
0.0
 11
-26.5370025634772
 21
-15.7070007324219
 31
0.0
 11
-26.58499908447322
 21
-15.66500091552791
 31
0.0
  0
SPLINE
  5
9B63
330
1F
100
AcDbEntity
  8
AM_0
100
AcDbSpline
210
0.0
220
0.0
230
1.0
 70
     8
 71
     3
 72
    11
 73
     7
 74
     5
 42
0.0000000001
 43
0.0000000001
 44
0.0000000001
 40
0.0
 40
0.0
 40
0.0
 40
0.0
 40
0.0563557848739612
 40
0.111582990595277
 40
0.1679851670556522
 40
0.2239599321109686
 40
0.2239599321109686
 40
0.2239599321109686
 40
0.2239599321109686
 10
-26.90500259399418
 20
-15.6800003051759
 30
0.0
 10
-26.89657440704125
 20
-15.69679497353325
 30
0.0
 10
-26.87988681573882
 20
-15.73004798075444
 30
0.0
 10
-26.85053588485035
 20
-15.77783861880422
 30
0.0
 10
-26.81671903099025
 20
-15.82242971659271
 30
0.0
 10
-26.79154064180519
 20
-15.85017990549092
 30
0.0
 10
-26.77899932861321
 20
-15.8640022277829
 30
0.0
 11
-26.90500259399418
 21
-15.6800003051759
 31
0.0
 11
-26.87900161743219
 21
-15.7299995422359
 31
0.0
 11
-26.8500022888182
 21
-15.77700042724589
 31
0.0
 11
-26.8160018920902
 21
-15.8220024108889
 31
0.0
 11
-26.77899932861321
 21
-15.8640022277829
 31
0.0
  0
SPLINE
  5
9B64
330
1F
100
AcDbEntity
  8
AM_0
100
AcDbSpline
210
0.0
220
0.0
230
1.0
 70
     8
 71
     3
 72
    11
 73
     7
 74
     5
 42
0.0000000001
 43
0.0000000001
 44
0.0000000001
 40
0.0
 40
0.0
 40
0.0
 40
0.0
 40
0.0490099782356648
 40
0.0961767784738306
 40
0.1428692160662348
 40
0.1890415616826638
 40
0.1890415616826638
 40
0.1890415616826638
 40
0.1890415616826638
 10
-18.58499908447321
 20
-16.15100097656287
 30
0.0
 10
-18.56865440166073
 20
-16.15173870825153
 30
0.0
 10
-18.53657973044741
 20
-16.1531864268539
 30
0.0
 10
-18.48912926814247
 20
-16.14839367321558
 30
0.0
 10
-18.44280148857535
 20
-16.14147986389625
 30
0.0
 10
-18.41354726660896
 20
-16.13114028605041
 30
0.0
 10
-18.39900207519518
 20
-16.12599945068388
 30
0.0
 11
-18.58499908447321
 21
-16.15100097656287
 31
0.0
 11
-18.5359992980962
 21
-16.15200042724585
 31
0.0
 11
-18.48900222778318
 21
-16.14800262451186
 31
0.0
 11
-18.44300079345719
 21
-16.13999938964886
 31
0.0
 11
-18.39900207519518
 21
-16.12599945068388
 31
0.0
  0
ELLIPSE
  5
9B65
330
1F
100
AcDbEntity
  8
AM_0
100
AcDbEllipse
 10
-18.63500213623019
 20
-15.68799972534188
 30
0.0
 11
0.226543419050998
 21
-0.0334491887259954
 31
0.0
210
0.0
220
0.0
230
1.0
 40
0.8428020335379999
 41
4.879570932172547
 42
5.414249242057548
  0
SPLINE
  5
9B66
330
1F
100
AcDbEntity
  8
AM_0
100
AcDbSpline
210
0.0
220
0.0
230
1.0
 70
     8
 71
     3
 72
    11
 73
     7
 74
     5
 42
0.0000000001
 43
0.0000000001
 44
0.0000000001
 40
0.0
 40
0.0
 40
0.0
 40
0.0
 40
0.0576982555468917
 40
0.1140973883953795
 40
0.169271896307061
 40
0.2236478291407868
 40
0.2236478291407868
 40
0.2236478291407868
 40
0.2236478291407868
 10
-18.39900207519518
 20
-16.12599945068388
 30
0.0
 10
-18.38122748278495
 20
-16.11842177313371
 30
0.0
 10
-18.34607850722969
 20
-16.10343703554708
 30
0.0
 10
-18.30160088044161
 20
-16.06806769318743
 30
0.0
 10
-18.26220390544131
 20
-16.02867488307482
 30
0.0
 10
-18.24402420133591
 20
-15.9968160871798
 30
0.0
 10
-18.2350006103522
 20
-15.98100280761687
 30
0.0
 11
-18.39900207519518
 21
-16.12599945068388
 31
0.0
 11
-18.34700012207018
 21
-16.10100173950186
 31
0.0
 11
-18.30200195312521
 21
-16.06700134277386
 31
0.0
 11
-18.2639999389652
 21
-16.02700042724585
 31
0.0
 11
-18.2350006103522
 21
-15.98100280761687
 31
0.0
  0
ELLIPSE
  5
9B67
330
1F
100
AcDbEntity
  8
AM_0
100
AcDbEllipse
 10
-18.6199989318852
 20
-15.70600128173788
 30
0.0
 11
0.200822828379998
 21
-0.0296516353549943
 31
0.0
210
0.0
220
0.0
230
1.0
 40
0.8423666148331998
 41
5.414026556599233
 42
5.983871349030712
  0
SPLINE
  5
9B68
330
1F
100
AcDbEntity
  8
AM_0
100
AcDbSpline
210
0.0
220
0.0
230
1.0
 70
     8
 71
     3
 72
    11
 73
     7
 74
     5
 42
0.0000000001
 43
0.0000000001
 44
0.0000000001
 40
0.0
 40
0.0
 40
0.0
 40
0.0
 40
0.0237722387477537
 40
0.0459080858638072
 40
0.0696767938367972
 40
0.0930211335143057
 40
0.0930211335143057
 40
0.0930211335143057
 40
0.0930211335143057
 10
-18.2350006103522
 20
-15.98100280761687
 30
0.0
 10
-18.23188910823463
 20
-15.97371077698624
 30
0.0
 10
-18.22588028811911
 20
-15.95962867172621
 30
0.0
 10
-18.21866021571716
 20
-15.93753630076629
 30
0.0
 10
-18.21260262349177
 20
-15.91522729773462
 30
0.0
 10
-18.21019339669557
 20
-15.89969720756368
 30
0.0
 10
-18.20899963378922
 20
-15.89200210571287
 30
0.0
 11
-18.2350006103522
 21
-15.98100280761687
 31
0.0
 11
-18.22600173950222
 21
-15.95899963378886
 31
0.0
 11
-18.21900177001917
 21
-15.93799972534188
 31
0.0
 11
-18.2130012512212
 21
-15.91500091552787
 31
0.0
 11
-18.20899963378922
 21
-15.89200210571287
 31
0.0
  0
ELLIPSE
  5
9B69
330
1F
100
AcDbEntity
  8
AM_0
100
AcDbEllipse
 10
-18.64900207519518
 20
-15.69400024414088
 30
0.0
 11
0.2314910853310012
 21
-0.034179712807997
 31
0.0
210
0.0
220
0.0
230
1.0
 40
0.8418713934855999
 41
5.983729701378084
 42
6.208929256726362
  0
ELLIPSE
  5
9B6A
330
1F
100
AcDbEntity
  8
AM_0
100
AcDbEllipse
 10
-18.61899948120121
 20
-15.70100021362287
 30
0.0
 11
0.2018127426719971
 21
-0.029798485221995
 31
0.0
210
0.0
220
0.0
230
1.0
 40
0.8431399016950999
 41
6.209039966082993
 42
6.452612321300017
  0
SPLINE
  5
9B6B
330
1F
100
AcDbEntity
  8
AM_0
100
AcDbSpline
210
0.0
220
0.0
230
1.0
 70
     8
 71
     3
 72
    11
 73
     7
 74
     5
 42
0.0000000001
 43
0.0000000001
 44
0.0000000001
 40
0.0
 40
0.0
 40
0.0
 40
0.0
 40
0.2890143793647968
 40
0.5695741551561272
 40
0.8272717722280454
 40
1.05759904939139
 40
1.05759904939139
 40
1.05759904939139
 40
1.05759904939139
 10
-26.69400024414118
 20
-17.7260017395019
 30
0.0
 10
-26.79038504268128
 20
-17.71516625222884
 30
0.0
 10
-26.98033507326119
 20
-17.69381225066384
 30
0.0
 10
-27.23278993017725
 20
-17.57537370231444
 30
0.0
 10
-27.43703366827454
 20
-17.40700020909827
 30
0.0
 10
-27.49747513827517
 20
-17.25346550841386
 30
0.0
 10
-27.5260009765622
 20
-17.1810035705569
 30
0.0
 11
-26.69400024414118
 21
-17.7260017395019
 31
0.0
 11
-26.97900009155317
 21
-17.6779975891109
 31
0.0
 11
-27.23400115966818
 21
-17.56100082397492
 31
0.0
 11
-27.42499923706117
 21
-17.3880043029789
 31
0.0
 11
-27.5260009765622
 21
-17.1810035705569
 31
0.0
  0
SPLINE
  5
9B6C
330
1F
100
AcDbEntity
  8
AM_0
100
AcDbSpline
210
0.0
220
0.0
230
1.0
 70
     8
 71
     3
 72
    11
 73
     7
 74
     5
 42
0.0000000001
 43
0.0000000001
 44
0.0000000001
 40
0.0
 40
0.0
 40
0.0
 40
0.0
 40
0.0621254697348093
 40
0.1243678631974457
 40
0.1871704773750702
 40
0.250233411943978
 40
0.250233411943978
 40
0.250233411943978
 40
0.250233411943978
 10
-0.7989997863771974
 20
-18.96500015258784
 30
0.0
 10
-0.7811558690087805
 20
-18.95434232200619
 30
0.0
 10
-0.7454344509872383
 20
-18.93300660218919
 30
0.0
 10
-0.7009242058929847
 20
-18.88869515530642
 30
0.0
 10
-0.6619118684408991
 20
-18.83916194730307
 30
0.0
 10
-0.6439844064093095
 20
-18.80108123271702
 30
0.0
 10
-0.6350021362301881
 20
-18.78200149536083
 30
0.0
 11
-0.7989997863771974
 21
-18.96500015258784
 31
0.0
 11
-0.7470016479491789
 21
-18.93100357055683
 31
0.0
 11
-0.701999664307198
 21
-18.88800430297883
 31
0.0
 11
-0.664001464844194
 21
-18.83800125122083
 31
0.0
 11
-0.6350021362301881
 21
-18.78200149536083
 31
0.0
  0
SPLINE
  5
9B6D
330
1F
100
AcDbEntity
  8
AM_0
100
AcDbSpline
210
0.0
220
0.0
230
1.0
 70
     8
 71
     3
 72
    11
 73
     7
 74
     5
 42
0.0000000001
 43
0.0000000001
 44
0.0000000001
 40
0.0
 40
0.0
 40
0.0
 40
0.0
 40
2.193520177279523
 40
4.383931075327053
 40
6.573277722946807
 40
8.759720286606055
 40
8.759720286606055
 40
8.759720286606055
 40
8.759720286606055
 10
-17.96599960327117
 20
-18.46899795532187
 30
0.0
 10
-18.69506415731816
 20
-18.41347957404718
 30
0.0
 10
-20.15215982824563
 20
-18.30252150790175
 30
0.0
 10
-22.33577466979417
 20
-18.12151585236202
 30
0.0
 10
-24.51628396353463
 20
-17.93178840471278
 30
0.0
 10
-25.96841606321111
 20
-17.79456693794078
 30
0.0
 10
-26.69400024414118
 20
-17.7260017395019
 30
0.0
 11
-17.96599960327117
 21
-18.46899795532187
 31
0.0
 11
-20.15299987793017
 21
-18.29999923706089
 31
0.0
 11
-22.33600234985317
 21
-18.1199989318849
 31
0.0
 11
-24.51700210571319
 21
-17.92900466918989
 31
0.0
 11
-26.69400024414118
 21
-17.7260017395019
 31
0.0
  0
SPLINE
  5
9B6E
330
1F
100
AcDbEntity
  8
AM_0
100
AcDbSpline
210
0.0
220
0.0
230
1.0
 70
     8
 71
     3
 72
    11
 73
     7
 74
     5
 42
0.0000000001
 43
0.0000000001
 44
0.0000000001
 40
0.0
 40
0.0
 40
0.0
 40
0.0
 40
0.1062336801379969
 40
0.2120811379949068
 40
0.3197966336353751
 40
0.4304331107286982
 40
0.4304331107286982
 40
0.4304331107286982
 40
0.4304331107286982
 10
-17.60000228881816
 20
-18.10499954223586
 30
0.0
 10
-17.59995007171342
 20
-18.14073866550961
 30
0.0
 10
-17.59984582734402
 20
-18.21208697919874
 30
0.0
 10
-17.64269765148415
 20
-18.3123737959693
 30
0.0
 10
-17.71427019328501
 20
-18.39682387214762
 30
0.0
 10
-17.78046102804377
 20
-18.42880103995334
 30
0.0
 10
-17.81399917602517
 20
-18.44500350952186
 30
0.0
 11
-17.60000228881816
 21
-18.10499954223586
 31
0.0
 11
-17.60700225830118
 21
-18.21100234985386
 31
0.0
 11
-17.64699935913117
 21
-18.30900192260786
 31
0.0
 11
-17.71800231933617
 21
-18.39000320434586
 31
0.0
 11
-17.81399917602517
 21
-18.44500350952186
 31
0.0
  0
SPLINE
  5
9B6F
330
1F
100
AcDbEntity
  8
AM_0
100
AcDbSpline
210
0.0
220
0.0
230
1.0
 70
     8
 71
     3
 72
    11
 73
     7
 74
     5
 42
0.0000000001
 43
0.0000000001
 44
0.0000000001
 40
0.0
 40
0.0
 40
0.0
 40
0.0
 40
0.0550283730004608
 40
0.106027733997117
 40
0.1550689752359784
 40
0.2012957047699761
 40
0.2012957047699761
 40
0.2012957047699761
 40
0.2012957047699761
 10
-27.1990013122562
 20
-12.7499999999999
 30
0.0
 10
-27.18144434185428
 20
-12.74456059036726
 30
0.0
 10
-27.14761586963041
 20
-12.73408002831927
 30
0.0
 10
-27.10177284136131
 20
-12.70963271860555
 30
0.0
 10
-27.06307324658558
 20
-12.67912525884783
 30
0.0
 10
-27.04417150845587
 20
-12.65345742041621
 30
0.0
 10
-27.03499984741222
 20
-12.6410026550289
 30
0.0
 11
-27.1990013122562
 21
-12.7499999999999
 31
0.0
 11
-27.14699935913121
 21
-12.7320022583009
 31
0.0
 11
-27.10200119018623
 21
-12.7080001831059
 31
0.0
 11
-27.06399917602522
 21
-12.6770019531249
 31
0.0
 11
-27.03499984741222
 21
-12.6410026550289
 31
0.0
  0
ELLIPSE
  5
9B70
330
1F
100
AcDbEntity
  8
AM_0
100
AcDbEllipse
 10
-27.42000198364321
 20
-12.35100173950189
 30
0.0
 11
0.2018909523530041
 21
-0.0211944410899957
 31
0.0
210
0.0
220
0.0
230
1.0
 40
0.6650221101969997
 41
5.362365037917738
 42
5.929860565435557
  0
SPLINE
  5
9B71
330
1F
100
AcDbEntity
  8
AM_0
100
AcDbSpline
210
0.0
220
0.0
230
1.0
 70
     8
 71
     3
 72
    11
 73
     7
 74
     5
 42
0.0000000001
 43
0.0000000001
 44
0.0000000001
 40
0.0
 40
0.0
 40
0.0
 40
0.0
 40
0.0192367168512969
 40
0.0376199012929051
 40
0.0565952078403956
 40
0.07601222864055
 40
0.07601222864055
 40
0.07601222864055
 40
0.07601222864055
 10
-27.03499984741222
 20
-12.6410026550289
 30
0.0
 10
-27.0318649379525
 20
-12.63539916220535
 30
0.0
 10
-27.02573421484893
 20
-12.62444080332598
 30
0.0
 10
-27.01884630196178
 20
-12.60685256255126
 30
0.0
 10
-27.01245513093197
 20
-12.58899288565002
 30
0.0
 10
-27.01016229391498
 20
-12.57637913332561
 30
0.0
 10
-27.00900268554722
 20
-12.56999969482391
 30
0.0
 11
-27.03499984741222
 21
-12.6410026550289
 31
0.0
 11
-27.02600097656222
 21
-12.6240005493169
 31
0.0
 11
-27.0190010070802
 21
-12.60700225830089
 31
0.0
 11
-27.0130004882812
 21
-12.5890007019039
 31
0.0
 11
-27.00900268554722
 21
-12.56999969482391
 31
0.0
  0
ELLIPSE
  5
9B72
330
1F
100
AcDbEntity
  8
AM_0
100
AcDbEllipse
 10
-27.4490013122562
 20
-12.34099960327191
 30
0.0
 11
0.2327213322449994
 21
-0.0244312279019989
 31
0.0
210
0.0
220
0.0
230
1.0
 40
0.6623952167572
 41
5.929374513855396
 42
6.158187879140997
  0
ELLIPSE
  5
9B73
330
1F
100
AcDbEntity
  8
AM_0
100
AcDbEllipse
 10
-27.41900253295922
 20
-12.34700393676791
 30
0.0
 11
0.2028846723939992
 21
-0.0212993483249941
 31
0.0
210
0.0
220
0.0
230
1.0
 40
0.6617748892199
 41
6.158077084611803
 42
6.399402882933903
  0
SPLINE
  5
9B74
330
1F
100
AcDbEntity
  8
AM_0
100
AcDbSpline
210
0.0
220
0.0
230
1.0
 70
     8
 71
     3
 72
    11
 73
     7
 74
     5
 42
0.0000000001
 43
0.0000000001
 44
0.0000000001
 40
0.0
 40
0.0
 40
0.0
 40
0.0
 40
0.3620358465186452
 40
0.7249278624609638
 40
1.087819878404141
 40
1.451052720459451
 40
1.451052720459451
 40
1.451052720459451
 40
1.451052720459451
 10
-45.12599945068421
 20
-9.981002807616944
 30
0.0
 10
-45.18837918446888
 20
-9.877696881664673
 30
0.0
 10
-45.31328617229413
 20
-9.670840724186708
 30
0.0
 10
-45.49988455262037
 20
-9.359931377793516
 30
0.0
 10
-45.6873811598278
 20
-9.049095443999197
 30
0.0
 10
-45.81110842746461
 20
-8.841066580246359
 30
0.0
 10
-45.87300109863323
 20
-8.737003326415932
 30
0.0
 11
-45.12599945068421
 21
-9.981002807616944
 31
0.0
 11
-45.3129997253422
 21
-9.671001434325946
 31
0.0
 11
-45.50000000000021
 21
-9.360000610351935
 31
0.0
 11
-45.68700027465822
 21
-9.048999786376928
 31
0.0
 11
-45.87300109863323
 21
-8.737003326415932
 31
0.0
  0
SPLINE
  5
9B75
330
1F
100
AcDbEntity
  8
AM_0
100
AcDbSpline
210
0.0
220
0.0
230
1.0
 70
     8
 71
     3
 72
    11
 73
     7
 74
     5
 42
0.0000000001
 43
0.0000000001
 44
0.0000000001
 40
0.0
 40
0.0
 40
0.0
 40
0.0
 40
0.0849014709899173
 40
0.1692460741682152
 40
0.2538386560543527
 40
0.3398933897160971
 40
0.3398933897160971
 40
0.3398933897160971
 40
0.3398933897160971
 10
-35.28200149536124
 20
-12.48600006103491
 30
0.0
 10
-35.25479162588724
 20
-12.49387384767374
 30
0.0
 10
-35.20055035617293
 20
-12.50956977687169
 30
0.0
 10
-35.11698631473594
 20
-12.52346646439901
 30
0.0
 10
-35.03263467169674
 20
-12.53469979612108
 30
0.0
 10
-34.97570654648674
 20
-12.53556619937747
 30
0.0
 10
-34.94699859619123
 20
-12.53600311279292
 30
0.0
 11
-35.28200149536124
 21
-12.48600006103491
 31
0.0
 11
-35.20000076293923
 21
-12.50800323486292
 31
0.0
 11
-35.11700057983424
 21
-12.52300262451191
 31
0.0
 11
-35.03300094604524
 21
-12.5330009460449
 31
0.0
 11
-34.94699859619123
 21
-12.53600311279292
 31
0.0
  0
SPLINE
  5
9B76
330
1F
100
AcDbEntity
  8
AM_0
100
AcDbSpline
210
0.0
220
0.0
230
1.0
 70
     8
 71
     3
 72
    11
 73
     7
 74
     5
 42
0.0000000001
 43
0.0000000001
 44
0.0000000001
 40
0.0
 40
0.0
 40
0.0
 40
0.0
 40
0.063325919844756
 40
0.1274578054439066
 40
0.1910975237038721
 40
0.2552214424751477
 40
0.2552214424751477
 40
0.2552214424751477
 40
0.2552214424751477
 10
-35.16500091552723
 20
-12.22800064086891
 30
0.0
 10
-35.1447660932627
 20
-12.23408677627641
 30
0.0
 10
-35.10403891479129
 20
-12.24633650694872
 30
0.0
 10
-35.04117663867304
 20
-12.25707204879959
 30
0.0
 10
-34.97796617931309
 20
-12.26725789567842
 30
0.0
 10
-34.93537683823766
 20
-12.26908396358242
 30
0.0
 10
-34.91400146484424
 20
-12.27000045776392
 30
0.0
 11
-35.16500091552723
 21
-12.22800064086891
 31
0.0
 11
-35.10400009155322
 21
-12.24500274658191
 31
0.0
 11
-35.04100036621123
 21
-12.25699996948292
 31
0.0
 11
-34.97800064086923
 21
-12.26600265502891
 31
0.0
 11
-34.91400146484424
 21
-12.27000045776392
 31
0.0
  0
SPLINE
  5
9B77
330
1F
100
AcDbEntity
  8
AM_0
100
AcDbSpline
210
0.0
220
0.0
230
1.0
 70
     8
 71
     3
 72
    11
 73
     7
 74
     5
 42
0.0000000001
 43
0.0000000001
 44
0.0000000001
 40
0.0
 40
0.0
 40
0.0
 40
0.0
 40
0.056008673952651
 40
0.1120173479063374
 40
0.1680260218589974
 40
0.223035407159354
 40
0.223035407159354
 40
0.223035407159354
 40
0.223035407159354
 10
-34.91400146484424
 20
-12.27000045776392
 30
0.0
 10
-34.91433450595861
 20
-12.28866704501533
 30
0.0
 10
-34.91500058818734
 20
-12.3260002195185
 30
0.0
 10
-34.91600167556982
 20
-12.38199994590159
 30
0.0
 10
-34.9169889998305
 20
-12.43766676992493
 30
0.0
 10
-34.91766453853425
 20
-12.47466662389305
 30
0.0
 10
-34.91799926757824
 20
-12.49300003051792
 30
0.0
 11
-34.91400146484424
 21
-12.27000045776392
 31
0.0
 11
-34.91500091552723
 21
-12.32600021362291
 31
0.0
 11
-34.91600036621122
 21
-12.38199996948292
 31
0.0
 11
-34.91699981689422
 21
-12.43799972534192
 31
0.0
 11
-34.91799926757824
 21
-12.49300003051792
 31
0.0
  0
SPLINE
  5
9B78
330
1F
100
AcDbEntity
  8
AM_0
100
AcDbSpline
210
0.0
220
0.0
230
1.0
 70
     8
 71
     3
 72
    11
 73
     7
 74
     5
 42
0.0000000001
 43
0.0000000001
 44
0.0000000001
 40
0.0
 40
0.0
 40
0.0
 40
0.0
 40
0.0813990205042379
 40
0.1644059102670823
 40
0.2507353337010124
 40
0.3393351116777117
 40
0.3393351116777117
 40
0.3393351116777117
 40
0.3393351116777117
 10
-35.57899856567424
 20
-12.32600021362291
 30
0.0
 10
-35.55766586100439
 20
-12.3428050945443
 30
0.0
 10
-35.51457906821528
 20
-12.37674680204516
 30
0.0
 10
-35.44264274937358
 20
-12.41970875645423
 30
0.0
 10
-35.36486746442994
 20
-12.45670079431666
 30
0.0
 10
-35.3098614539828
 20
-12.47614949912649
 30
0.0
 10
-35.28200149536124
 20
-12.48600006103491
 30
0.0
 11
-35.57899856567424
 21
-12.32600021362291
 31
0.0
 11
-35.51399993896522
 21
-12.37499999999991
 31
0.0
 11
-35.44300079345723
 21
-12.41800308227591
 31
0.0
 11
-35.36500167846723
 21
-12.45500183105491
 31
0.0
 11
-35.28200149536124
 21
-12.48600006103491
 31
0.0
  0
SPLINE
  5
9B79
330
1F
100
AcDbEntity
  8
AM_0
100
AcDbSpline
210
0.0
220
0.0
230
1.0
 70
     8
 71
     3
 72
    11
 73
     7
 74
     5
 42
0.0000000001
 43
0.0000000001
 44
0.0000000001
 40
0.0
 40
0.0
 40
0.0
 40
0.0
 40
0.0661285060367453
 40
0.1287780098547987
 40
0.1896801901526593
 40
0.2484993452416419
 40
0.2484993452416419
 40
0.2484993452416419
 40
0.2484993452416419
 10
-35.16500091552723
 20
-12.22800064086891
 30
0.0
 10
-35.18579368458007
 20
-12.22065022807045
 30
0.0
 10
-35.22628532091776
 20
-12.20633610563631
 30
0.0
 10
-35.28381479583732
 20
-12.17995953946607
 30
0.0
 10
-35.3371504939786
 20
-12.15049070990819
 30
0.0
 10
-35.36923512528512
 20
-12.12669333921423
 30
0.0
 10
-35.38499832153324
 20
-12.11500167846692
 30
0.0
 11
-35.16500091552723
 21
-12.22800064086891
 31
0.0
 11
-35.22700119018623
 21
-12.20500183105491
 31
0.0
 11
-35.28400039672824
 21
-12.17900085449191
 31
0.0
 11
-35.33700180053723
 21
-12.14900207519491
 31
0.0
 11
-35.38499832153324
 21
-12.11500167846692
 31
0.0
  0
SPLINE
  5
9B7A
330
1F
100
AcDbEntity
  8
AM_0
100
AcDbSpline
210
0.0
220
0.0
230
1.0
 70
     8
 71
     3
 72
    11
 73
     7
 74
     5
 42
0.0000000001
 43
0.0000000001
 44
0.0000000001
 40
0.0
 40
0.0
 40
0.0
 40
0.0
 40
0.0477087416026573
 40
0.0955085765642652
 40
0.1457573018119385
 40
0.1960088359323598
 40
0.1960088359323598
 40
0.1960088359323598
 40
0.1960088359323598
 10
-35.70500183105524
 20
-12.17700195312491
 30
0.0
 10
-35.69653604588387
 20
-12.19047203554839
 30
0.0
 10
-35.67958831127479
 20
-12.21743791968728
 30
0.0
 10
-35.65003225303982
 20
-12.25608749852929
 30
0.0
 10
-35.61660482455694
 20
-12.29262980340487
 30
0.0
 10
-35.59153421886718
 20
-12.31487653629292
 30
0.0
 10
-35.57899856567424
 20
-12.32600021362291
 30
0.0
 11
-35.70500183105524
 21
-12.17700195312491
 31
0.0
 11
-35.67900085449223
 21
-12.21700286865292
 31
0.0
 11
-35.65000152587923
 21
-12.2550010681149
 31
0.0
 11
-35.61600112915022
 21
-12.29199981689491
 31
0.0
 11
-35.57899856567424
 21
-12.32600021362291
 31
0.0
  0
SPLINE
  5
9B7B
330
1F
100
AcDbEntity
  8
AM_0
100
AcDbSpline
210
0.0
220
0.0
230
1.0
 70
     8
 71
     3
 72
    11
 73
     7
 74
     5
 42
0.0000000001
 43
0.0000000001
 44
0.0000000001
 40
0.0
 40
0.0
 40
0.0
 40
0.0
 40
0.0390542179879204
 40
0.0765358867941606
 40
0.1126598342306809
 40
0.1482683299342302
 40
0.1482683299342302
 40
0.1482683299342302
 40
0.1482683299342302
 10
-35.38499832153324
 20
-12.11500167846692
 30
0.0
 10
-35.39512669247193
 20
-12.10681537031745
 30
0.0
 10
-35.41497560742938
 20
-12.09077238223396
 30
0.0
 10
-35.442030477963
 20
-12.06465517416839
 30
0.0
 10
-35.4662254696723
 20
-12.03740596438791
 30
0.0
 10
-35.48077598363311
 20
-12.01842498093087
 30
0.0
 10
-35.48799896240223
 20
-12.00900268554691
 30
0.0
 11
-35.38499832153324
 21
-12.11500167846692
 31
0.0
 11
-35.41500091552725
 21
-12.09000015258791
 31
0.0
 11
-35.44200134277324
 21
-12.06400299072292
 31
0.0
 11
-35.46599960327123
 21
-12.03700256347691
 31
0.0
 11
-35.48799896240223
 21
-12.00900268554691
 31
0.0
  0
SPLINE
  5
9B7C
330
1F
100
AcDbEntity
  8
AM_0
100
AcDbSpline
210
0.0
220
0.0
230
1.0
 70
     8
 71
     3
 72
    11
 73
     7
 74
     5
 42
0.0000000001
 43
0.0000000001
 44
0.0000000001
 40
0.0
 40
0.0
 40
0.0
 40
0.0
 40
0.0368773668572696
 40
0.07482797995099
 40
0.1134537194834513
 40
0.1528098883153666
 40
0.1528098883153666
 40
0.1528098883153666
 40
0.1528098883153666
 10
-35.75699996948224
 20
-12.03400039672891
 30
0.0
 10
-35.75463640773272
 20
-12.04608422474056
 30
0.0
 10
-35.74984049722504
 20
-12.07060355779616
 30
0.0
 10
-35.73689613222285
 20
-12.10620533194164
 30
0.0
 10
-35.72383138346334
 20
-12.14264246622271
 30
0.0
 10
-35.71131741983349
 20
-12.16547749491142
 30
0.0
 10
-35.70500183105524
 20
-12.17700195312491
 30
0.0
 11
-35.75699996948224
 21
-12.03400039672891
 31
0.0
 11
-35.74900054931624
 21
-12.06999969482392
 31
0.0
 11
-35.73699951171924
 21
-12.10600280761691
 31
0.0
 11
-35.72299957275423
 21
-12.14200210571292
 31
0.0
 11
-35.70500183105524
 21
-12.17700195312491
 31
0.0
  0
SPLINE
  5
9B7D
330
1F
100
AcDbEntity
  8
AM_0
100
AcDbSpline
210
0.0
220
0.0
230
1.0
 70
     8
 71
     3
 72
    11
 73
     7
 74
     5
 42
0.0000000001
 43
0.0000000001
 44
0.0000000001
 40
0.0
 40
0.0
 40
0.0
 40
0.0
 40
0.0341355878026566
 40
0.0667843664906386
 40
0.0990946073244583
 40
0.1304140331791379
 40
0.1304140331791379
 40
0.1304140331791379
 40
0.1304140331791379
 10
-35.48799896240223
 20
-12.00900268554691
 30
0.0
 10
-35.4941552830973
 20
-11.99942765333971
 30
0.0
 10
-35.50619977988201
 20
-11.98069463887452
 30
0.0
 10
-35.52141676743687
 20
-11.95131943600325
 30
0.0
 10
-35.53345047383288
 20
-11.92149489368256
 30
0.0
 10
-35.53917977397496
 20
-11.90106067014076
 30
0.0
 10
-35.54199981689423
 20
-11.89100265502891
 30
0.0
 11
-35.48799896240223
 21
-12.00900268554691
 31
0.0
 11
-35.50600051879924
 21
-11.97999954223591
 31
0.0
 11
-35.52099990844724
 21
-11.95100021362292
 31
0.0
 11
-35.53300094604524
 21
-11.92100143432591
 31
0.0
 11
-35.54199981689423
 21
-11.89100265502891
 31
0.0
  0
SPLINE
  5
9B7E
330
1F
100
AcDbEntity
  8
AM_0
100
AcDbSpline
210
0.0
220
0.0
230
1.0
 70
     8
 71
     3
 72
    11
 73
     7
 74
     5
 42
0.0000000001
 43
0.0000000001
 44
0.0000000001
 40
0.0
 40
0.0
 40
0.0
 40
0.0
 40
0.0491626025723739
 40
0.0961634875814005
 40
0.1424355580102577
 40
0.1871562352968578
 40
0.1871562352968578
 40
0.1871562352968578
 40
0.1871562352968578
 10
-27.38500213623021
 20
-12.7590026855469
 30
0.0
 10
-27.3686876188156
 20
-12.76059142800263
 30
0.0
 10
-27.3367759459035
 20
-12.7636990546826
 30
0.0
 10
-27.28919029024206
 20
-12.76394729377664
 30
0.0
 10
-27.24340709601366
 20
-12.75866389248164
 30
0.0
 10
-27.21363403355879
 20
-12.75285495071473
 30
0.0
 10
-27.1990013122562
 20
-12.7499999999999
 30
0.0
 11
-27.38500213623021
 21
-12.7590026855469
 31
0.0
 11
-27.33600234985324
 21
-12.76300048828092
 31
0.0
 11
-27.28900146484421
 21
-12.76300048828091
 31
0.0
 11
-27.24300003051821
 21
-12.75800323486291
 31
0.0
 11
-27.1990013122562
 21
-12.7499999999999
 31
0.0
  0
ELLIPSE
  5
9B7F
330
1F
100
AcDbEntity
  8
AM_0
100
AcDbEllipse
 10
-27.43500137329121
 20
-12.3360023498539
 30
0.0
 11
0.2277488665679997
 21
-0.0239066901060022
 31
0.0
210
0.0
220
0.0
230
1.0
 40
0.6637527434547002
 41
4.826501649389157
 42
5.361368012557917
  0
SPLINE
  5
9B80
330
1F
100
AcDbEntity
  8
AM_0
100
AcDbSpline
210
0.0
220
0.0
230
1.0
 70
     8
 71
     3
 72
    11
 73
     7
 74
     5
 42
0.0000000001
 43
0.0000000001
 44
0.0000000001
 40
0.0
 40
0.0
 40
0.0
 40
0.0
 40
0.1882898683530534
 40
0.3765797367061194
 40
0.5649889933128597
 40
0.7524072545311521
 40
0.7524072545311521
 40
0.7524072545311521
 40
0.7524072545311521
 10
-53.92599868774395
 20
-5.061000823974945
 30
0.0
 10
-53.98832938393343
 20
-5.053645005909996
 30
0.0
 10
-54.11299077631237
 20
-5.038933369780099
 30
0.0
 10
-54.3000715135922
 20
-5.017269908245804
 30
0.0
 10
-54.48666737514737
 20
-4.994007244237566
 30
0.0
 10
-54.61099894737567
 20
-4.978656036133013
 30
0.0
 10
-54.67300081253024
 20
-4.971000671386957
 30
0.0
 11
-53.92599868774395
 21
-5.061000823974945
 31
0.0
 11
-54.11299896240213
 21
-5.039001464843945
 31
0.0
 11
-54.29999923706033
 21
-5.017002105712958
 31
0.0
 11
-54.48699951171853
 21
-4.994003295898946
 31
0.0
 11
-54.67300081253024
 21
-4.971000671386957
 31
0.0
  0
SPLINE
  5
9B81
330
1F
100
AcDbEntity
  8
AM_0
100
AcDbSpline
210
0.0
220
0.0
230
1.0
 70
     8
 71
     3
 72
    11
 73
     7
 74
     5
 42
0.0000000001
 43
0.0000000001
 44
0.0000000001
 40
0.0
 40
0.0
 40
0.0
 40
0.0
 40
0.0837440267434742
 40
0.1676073399326125
 40
0.2519870128383644
 40
0.338078597740946
 40
0.338078597740946
 40
0.338078597740946
 40
0.338078597740946
 10
-44.08200073242223
 20
-7.946002960204945
 30
0.0
 10
-44.05473597066787
 20
-7.952044218225652
 30
0.0
 10
-44.00016761075916
 20
-7.964135339539883
 30
0.0
 10
-43.91688425016285
 20
-7.975535559986252
 30
0.0
 10
-43.83248981004324
 20
-7.983939627059822
 30
0.0
 10
-43.77568784150443
 20
-7.985975279133462
 30
0.0
 10
-43.74700164794921
 20
-7.987003326415939
 30
0.0
 11
-44.08200073242223
 21
-7.946002960204945
 31
0.0
 11
-44.00000000000022
 21
-7.96300125122094
 31
0.0
 11
-43.91699981689421
 21
-7.975002288818936
 31
0.0
 11
-43.83300018310519
 21
-7.983001708984938
 31
0.0
 11
-43.74700164794921
 21
-7.987003326415939
 31
0.0
  0
SPLINE
  5
9B82
330
1F
100
AcDbEntity
  8
AM_0
100
AcDbSpline
210
0.0
220
0.0
230
1.0
 70
     8
 71
     3
 72
    11
 73
     7
 74
     5
 42
0.0000000001
 43
0.0000000001
 44
0.0000000001
 40
0.0
 40
0.0
 40
0.0
 40
0.0
 40
0.0623707721707315
 40
0.1261595495720156
 40
0.1896651092974007
 40
0.2537890280695993
 40
0.2537890280695993
 40
0.2537890280695993
 40
0.2537890280695993
 10
-43.96500015258822
 20
-7.707000732421938
 30
0.0
 10
-43.94471514529007
 20
-7.711596725709245
 30
0.0
 10
-43.90368394919081
 20
-7.720893202613129
 30
0.0
 10
-43.84110184812107
 20
-7.730025436989084
 30
0.0
 10
-43.77788861551835
 20
-7.739028201139059
 30
0.0
 10
-43.73536534754518
 20
-7.741006591864469
 30
0.0
 10
-43.71400070190424
 20
-7.742000579833934
 30
0.0
 11
-43.96500015258822
 21
-7.707000732421938
 31
0.0
 11
-43.90399932861321
 21
-7.720001220702935
 31
0.0
 11
-43.84099960327122
 21
-7.730003356933943
 31
0.0
 11
-43.77799987793021
 21
-7.73800277709993
 31
0.0
 11
-43.71400070190424
 21
-7.742000579833934
 31
0.0
  0
SPLINE
  5
9B83
330
1F
100
AcDbEntity
  8
AM_0
100
AcDbSpline
210
0.0
220
0.0
230
1.0
 70
     8
 71
     3
 72
    11
 73
     7
 74
     5
 42
0.0000000001
 43
0.0000000001
 44
0.0000000001
 40
0.0
 40
0.0
 40
0.0
 40
0.0
 40
0.0520115567012218
 40
0.1030200369106712
 40
0.1550315936118932
 40
0.206040073821361
 40
0.206040073821361
 40
0.206040073821361
 40
0.206040073821361
 10
-43.71400070190424
 20
-7.742000579833934
 30
0.0
 10
-43.71433149646906
 20
-7.759334609928892
 30
0.0
 10
-43.71498670601169
 20
-7.793668372143536
 30
0.0
 10
-43.71601443322749
 20
-7.845335354668967
 30
0.0
 10
-43.71698562091451
 20
-7.896669012749832
 30
0.0
 10
-43.71766307545772
 20
-7.931002343221735
 30
0.0
 10
-43.71799850463924
 20
-7.948001861571933
 30
0.0
 11
-43.71400070190424
 21
-7.742000579833934
 31
0.0
 11
-43.71500015258822
 21
-7.794002532958934
 31
0.0
 11
-43.71599960327122
 21
-7.845001220702934
 31
0.0
 11
-43.71699905395521
 21
-7.897003173827934
 31
0.0
 11
-43.71799850463924
 21
-7.948001861571933
 31
0.0
  0
SPLINE
  5
9B84
330
1F
100
AcDbEntity
  8
AM_0
100
AcDbSpline
210
0.0
220
0.0
230
1.0
 70
     8
 71
     3
 72
    11
 73
     7
 74
     5
 42
0.0000000001
 43
0.0000000001
 44
0.0000000001
 40
0.0
 40
0.0
 40
0.0
 40
0.0
 40
0.0738261925588458
 40
0.1509042978098976
 40
0.2331217799193191
 40
0.3189889450871921
 40
0.3189889450871921
 40
0.3189889450871921
 40
0.3189889450871921
 10
-44.37900161743222
 20
-7.833000183105935
 30
0.0
 10
-44.35755755822362
 20
-7.845116362337352
 30
0.0
 10
-44.31372486707556
 20
-7.86988241698115
 30
0.0
 10
-44.24168449888897
 20
-7.899436669647551
 30
0.0
 10
-44.16413083003546
 20
-7.925373701523533
 30
0.0
 10
-44.10977087743166
 20
-7.93902771578581
 30
0.0
 10
-44.08200073242223
 20
-7.946002960204945
 30
0.0
 11
-44.37900161743222
 21
-7.833000183105935
 31
0.0
 11
-44.31399917602521
 21
-7.868000030517944
 31
0.0
 11
-44.24300003051821
 21
-7.898002624511942
 31
0.0
 11
-44.16500091552722
 21
-7.923999786376935
 31
0.0
 11
-44.08200073242223
 21
-7.946002960204945
 31
0.0
  0
SPLINE
  5
9B85
330
1F
100
AcDbEntity
  8
AM_0
100
AcDbSpline
210
0.0
220
0.0
230
1.0
 70
     8
 71
     3
 72
    11
 73
     7
 74
     5
 42
0.0000000001
 43
0.0000000001
 44
0.0000000001
 40
0.0
 40
0.0
 40
0.0
 40
0.0
 40
0.0642882256337216
 40
0.1243710669162855
 40
0.181381109544808
 40
0.2350462633559216
 40
0.2350462633559216
 40
0.2350462633559216
 40
0.2350462633559216
 10
-43.96500015258822
 20
-7.707000732421938
 30
0.0
 10
-43.98574412937779
 20
-7.701590444631752
 30
0.0
 10
-44.02587512537236
 20
-7.691123780508474
 30
0.0
 10
-44.08313721553637
 20
-7.671670571982356
 30
0.0
 10
-44.13644926653646
 20
-7.651475856518984
 30
0.0
 10
-44.16914673824345
 20
-7.634321310944949
 30
0.0
 10
-44.18500137329121
 20
-7.626003265380941
 30
0.0
 11
-43.96500015258822
 21
-7.707000732421938
 31
0.0
 11
-44.02700042724622
 21
-7.690002441405947
 31
0.0
 11
-44.08399963378921
 21
-7.67100143432594
 31
0.0
 11
-44.13700103759821
 21
-7.650001525878945
 31
0.0
 11
-44.18500137329121
 21
-7.626003265380941
 31
0.0
  0
SPLINE
  5
9B86
330
1F
100
AcDbEntity
  8
AM_0
100
AcDbSpline
210
0.0
220
0.0
230
1.0
 70
     8
 71
     3
 72
    11
 73
     7
 74
     5
 42
0.0000000001
 43
0.0000000001
 44
0.0000000001
 40
0.0
 40
0.0
 40
0.0
 40
0.0
 40
0.037481567087022
 40
0.0771045923567874
 40
0.119307711600989
 40
0.163407869402751
 40
0.163407869402751
 40
0.163407869402751
 40
0.163407869402751
 10
-44.50500106811522
 20
-7.730003356933947
 30
0.0
 10
-44.49640312080194
 20
-7.739063618462445
 30
0.0
 10
-44.47871599418963
 20
-7.757701787196926
 30
0.0
 10
-44.44999150513267
 20
-7.785335567103442
 30
0.0
 10
-44.41565736282234
 20
-7.809661504659671
 30
0.0
 10
-44.39139794854062
 20
-7.825107450805083
 30
0.0
 10
-44.37900161743222
 20
-7.833000183105935
 30
0.0
 11
-44.50500106811522
 21
-7.730003356933947
 31
0.0
 11
-44.47900009155321
 21
-7.756999969482945
 31
0.0
 11
-44.45000076293921
 21
-7.784000396728938
 31
0.0
 11
-44.41600036621121
 21
-7.809001922607945
 31
0.0
 11
-44.37900161743222
 21
-7.833000183105935
 31
0.0
  0
SPLINE
  5
9B87
330
1F
100
AcDbEntity
  8
AM_0
100
AcDbSpline
210
0.0
220
0.0
230
1.0
 70
     8
 71
     3
 72
    11
 73
     7
 74
     5
 42
0.0000000001
 43
0.0000000001
 44
0.0000000001
 40
0.0
 40
0.0
 40
0.0
 40
0.0
 40
0.034481855489327
 40
0.0669309198476602
 40
0.0975406368829966
 40
0.1266096938375831
 40
0.1266096938375831
 40
0.1266096938375831
 40
0.1266096938375831
 10
-44.18500137329121
 20
-7.626003265380941
 30
0.0
 10
-44.19508541089597
 20
-7.620481001499461
 30
0.0
 10
-44.2146590070116
 20
-7.609762024925149
 30
0.0
 10
-44.24179326490416
 20
-7.591750709125178
 30
0.0
 10
-44.26574248863286
 20
-7.572489749203468
 30
0.0
 10
-44.28070841537715
 20
-7.559384746547521
 30
0.0
 10
-44.28799819946322
 20
-7.553001403808946
 30
0.0
 11
-44.18500137329121
 21
-7.626003265380941
 31
0.0
 11
-44.21500015258822
 21
-7.60900115966795
 31
0.0
 11
-44.24200057983422
 21
-7.591003417968931
 31
0.0
 11
-44.26599884033222
 21
-7.572002410888937
 31
0.0
 11
-44.28799819946322
 21
-7.553001403808946
 31
0.0
  0
SPLINE
  5
9B88
330
1F
100
AcDbEntity
  8
AM_0
100
AcDbSpline
210
0.0
220
0.0
230
1.0
 70
     8
 71
     3
 72
    11
 73
     7
 74
     5
 42
0.0000000001
 43
0.0000000001
 44
0.0000000001
 40
0.0
 40
0.0
 40
0.0
 40
0.0
 40
0.0262500860802417
 40
0.0530852219498945
 40
0.0817362927032439
 40
0.1117365980346575
 40
0.1117365980346575
 40
0.1117365980346575
 40
0.1117365980346575
 10
-44.5569992065432
 20
-7.631999969482945
 30
0.0
 10
-44.55465396654349
 20
-7.640465527401499
 30
0.0
 10
-44.5499112169186
 20
-7.657585319681888
 30
0.0
 10
-44.53654039012864
 20
-7.681456770299502
 30
0.0
 10
-44.52361852985744
 20
-7.706931675883614
 30
0.0
 10
-44.51130133820417
 20
-7.722195750073457
 30
0.0
 10
-44.50500106811522
 20
-7.730003356933947
 30
0.0
 11
-44.5569992065432
 21
-7.631999969482945
 31
0.0
 11
-44.54899978637722
 21
-7.657001495360941
 31
0.0
 11
-44.53699874877922
 21
-7.681003570556936
 31
0.0
 11
-44.52299880981422
 21
-7.706001281737952
 31
0.0
 11
-44.50500106811522
 21
-7.730003356933947
 31
0.0
  0
SPLINE
  5
9B89
330
1F
100
AcDbEntity
  8
AM_0
100
AcDbSpline
210
0.0
220
0.0
230
1.0
 70
     8
 71
     3
 72
    11
 73
     7
 74
     5
 42
0.0000000001
 43
0.0000000001
 44
0.0000000001
 40
0.0
 40
0.0
 40
0.0
 40
0.0
 40
0.0261743061557117
 40
0.051174306167955
 40
0.0736446916083666
 40
0.0955763579222786
 40
0.0955763579222786
 40
0.0955763579222786
 40
0.0955763579222786
 10
-44.28799819946322
 20
-7.553001403808946
 30
0.0
 10
-44.29418576847766
 20
-7.546825981530974
 30
0.0
 10
-44.30628330219245
 20
-7.534752196327679
 30
0.0
 10
-44.32060590356118
 20
-7.514765317017765
 30
0.0
 10
-44.33358298664032
 20
-7.495514230754811
 30
0.0
 10
-44.3392164814506
 20
-7.481784074599817
 30
0.0
 10
-44.34199905395522
 20
-7.475002288818938
 30
0.0
 11
-44.28799819946322
 21
-7.553001403808946
 31
0.0
 11
-44.30599975585923
 21
-7.534000396728938
 31
0.0
 11
-44.32099914550823
 21
-7.51399993896494
 31
0.0
 11
-44.33300018310521
 21
-7.495002746581941
 31
0.0
 11
-44.34199905395522
 21
-7.475002288818938
 31
0.0
  0
SPLINE
  5
9B8A
330
1F
100
AcDbEntity
  8
AM_0
100
AcDbSpline
210
0.0
220
0.0
230
1.0
 70
     8
 71
     3
 72
    11
 73
     7
 74
     5
 42
0.0000000001
 43
0.0000000001
 44
0.0000000001
 40
0.0
 40
0.0
 40
0.0
 40
0.0
 40
0.0493658312079009
 40
0.09646225683382
 40
0.1424745471671554
 40
0.1865753104680571
 40
0.1865753104680571
 40
0.1865753104680571
 40
0.1865753104680571
 10
-36.18500137329121
 20
-8.379001617431915
 30
0.0
 10
-36.16868956396422
 20
-8.381239561583495
 30
0.0
 10
-36.13681581845594
 20
-8.385612568950071
 30
0.0
 10
-36.08937541429364
 20
-8.388048748054094
 30
0.0
 10
-36.04360910451554
 20
-8.390010167367719
 30
0.0
 10
-36.01365829006873
 20
-8.387318749794776
 30
0.0
 10
-35.99900054931622
 20
-8.386001586913907
 30
0.0
 11
-36.18500137329121
 21
-8.379001617431915
 31
0.0
 11
-36.13600158691423
 21
-8.385002136230914
 31
0.0
 11
-36.08900070190424
 21
-8.388000488280926
 31
0.0
 11
-36.04299926757824
 21
-8.388999938964918
 31
0.0
 11
-35.99900054931622
 21
-8.386001586913907
 31
0.0
  0
ELLIPSE
  5
9B8B
330
1F
100
AcDbEntity
  8
AM_0
100
AcDbEllipse
 10
-36.23500061035221
 20
-8.029003143310919
 30
0.0
 11
0.2281227108719968
 21
-0.0200328831350016
 31
0.0
210
0.0
220
0.0
230
1.0
 40
0.4323084399165
 41
4.797960220045286
 42
5.333054854240637
  0
SPLINE
  5
9B8C
330
1F
100
AcDbEntity
  8
AM_0
100
AcDbSpline
210
0.0
220
0.0
230
1.0
 70
     8
 71
     3
 72
    11
 73
     7
 74
     5
 42
0.0000000001
 43
0.0000000001
 44
0.0000000001
 40
0.0
 40
0.0
 40
0.0
 40
0.0
 40
0.0526136280046026
 40
0.0997393481521656
 40
0.1422268916240098
 40
0.1792391370687966
 40
0.1792391370687966
 40
0.1792391370687966
 40
0.1792391370687966
 10
-35.99900054931622
 20
-8.386001586913907
 30
0.0
 10
-35.98154331222163
 20
-8.383909581217229
 30
0.0
 10
-35.94844972954376
 20
-8.379943778203244
 30
0.0
 10
-35.90315357817972
 20
-8.365457015435955
 30
0.0
 10
-35.86448163490828
 20
-8.34754000908109
 30
0.0
 10
-35.844364772739
 20
-8.330114910662347
 30
0.0
 10
-35.83499908447322
 20
-8.322002410888915
 30
0.0
 11
-35.99900054931622
 21
-8.386001586913907
 31
0.0
 11
-35.94699859619122
 21
-8.37800216674792
 31
0.0
 11
-35.90200042724622
 21
-8.364002227782922
 31
0.0
 11
-35.86399841308621
 21
-8.345001220702915
 31
0.0
 11
-35.83499908447322
 21
-8.322002410888915
 31
0.0
  0
ELLIPSE
  5
9B8D
330
1F
100
AcDbEntity
  8
AM_0
100
AcDbEllipse
 10
-36.22000122070324
 20
-8.039001464843911
 30
0.0
 11
0.2022209112499987
 21
-0.0177574094520022
 31
0.0
210
0.0
220
0.0
230
1.0
 40
0.4334950789607001
 41
5.334027343721148
 42
5.906223151489322
  0
SPLINE
  5
9B8E
330
1F
100
AcDbEntity
  8
AM_0
100
AcDbSpline
210
0.0
220
0.0
230
1.0
 70
     8
 71
     3
 72
    11
 73
     7
 74
     5
 42
0.0000000001
 43
0.0000000001
 44
0.0000000001
 40
0.0
 40
0.0
 40
0.0
 40
0.0
 40
0.0142131837109612
 40
0.0272496926948017
 40
0.0415681745068307
 40
0.0542187810338107
 40
0.0542187810338107
 40
0.0542187810338107
 40
0.0542187810338107
 10
-35.83499908447322
 20
-8.322002410888915
 30
0.0
 10
-35.83190339887711
 20
-8.318408743027809
 30
0.0
 10
-35.82596831192621
 20
-8.311518918281027
 30
0.0
 10
-35.81853049808506
 20
-8.29977196492817
 30
0.0
 10
-35.81292002610964
 20
-8.287621810078086
 30
0.0
 10
-35.81025038014856
 20
-8.279031194714139
 30
0.0
 10
-35.80899810791024
 20
-8.275001525878922
 30
0.0
 11
-35.83499908447322
 21
-8.322002410888915
 31
0.0
 11
-35.82600021362321
 21
-8.311000823974909
 31
0.0
 11
-35.81900024414121
 21
-8.300003051757915
 31
0.0
 11
-35.81299972534222
 21
-8.287002563476921
 31
0.0
 11
-35.80899810791024
 21
-8.275001525878922
 31
0.0
  0
ELLIPSE
  5
9B8F
330
1F
100
AcDbEntity
  8
AM_0
100
AcDbEllipse
 10
-36.24900054931622
 20
-8.032001495360921
 30
0.0
 11
0.2331046995809985
 21
-0.0204696546820026
 31
0.0
210
0.0
220
0.0
230
1.0
 40
0.4358911560987
 41
5.906223789312893
 42
6.125208206229054
  0
ELLIPSE
  5
9B90
330
1F
100
AcDbEntity
  8
AM_0
100
AcDbEllipse
 10
-36.21900177001921
 20
-8.035999298095919
 30
0.0
 11
0.2032165576650016
 21
-0.0178470850059962
 31
0.0
210
0.0
220
0.0
230
1.0
 40
0.4313800956076002
 41
6.125286611942402
 42
6.371220293902652
  0
SPLINE
  5
9B91
330
1F
100
AcDbEntity
  8
AM_0
100
AcDbSpline
210
0.0
220
0.0
230
1.0
 70
     8
 71
     3
 72
    11
 73
     7
 74
     5
 42
0.0000000001
 43
0.0000000001
 44
0.0000000001
 40
0.0
 40
0.0
 40
0.0
 40
0.0
 40
0.2879339213331575
 40
0.5503640621277324
 40
0.7563025750031702
 40
0.8883079732873591
 40
0.8883079732873591
 40
0.8883079732873591
 40
0.8883079732873591
 10
-44.29399871826222
 20
-10.24600219726594
 30
0.0
 10
-44.38953127621831
 20
-10.23442396712392
 30
0.0
 10
-44.57213458470912
 20
-10.21229304992004
 30
0.0
 10
-44.81504336206031
 20
-10.15042328616932
 30
0.0
 10
-45.01118786880282
 20
-10.08987523428666
 30
0.0
 10
-45.09374969887199
 20
-10.01158429322804
 30
0.0
 10
-45.12599945068421
 20
-9.981002807616944
 30
0.0
 11
-44.29399871826222
 21
-10.24600219726594
 31
0.0
 11
-44.5789985656742
 21
-10.20500183105494
 31
0.0
 11
-44.8339996337892
 21
-10.14300155639695
 31
0.0
 11
-45.02500152587919
 21
-10.06600189208994
 31
0.0
 11
-45.12599945068421
 21
-9.981002807616944
 31
0.0
  0
SPLINE
  5
9B92
330
1F
100
AcDbEntity
  8
AM_0
100
AcDbSpline
210
0.0
220
0.0
230
1.0
 70
     8
 71
     3
 72
    11
 73
     7
 74
     5
 42
0.0000000001
 43
0.0000000001
 44
0.0000000001
 40
0.0
 40
0.0
 40
0.0
 40
0.0
 40
2.212961446051162
 40
4.424320585784059
 40
6.636315285638405
 40
8.847094470066862
 40
8.847094470066862
 40
8.847094470066862
 40
8.847094470066862
 10
-35.56600189209022
 20
-11.69100189208991
 30
0.0
 10
-36.29517020746864
 20
-11.57941514899939
 30
0.0
 10
-37.75297888009006
 20
-11.35632245778375
 30
0.0
 10
-39.9365886939601
 20
-11.00226020154728
 30
0.0
 10
-42.11720763833057
 20
-10.63454761982519
 30
0.0
 10
-43.56853464817566
 20
-10.37549360609337
 30
0.0
 10
-44.29399871826222
 20
-10.24600219726594
 30
0.0
 11
-35.56600189209022
 21
-11.69100189208991
 31
0.0
 11
-37.75299835205121
 21
-11.35300064086892
 31
0.0
 11
-39.9360008239752
 21
-10.99999999999992
 31
0.0
 11
-42.11700057983423
 21
-10.63100051879892
 31
0.0
 11
-44.29399871826222
 21
-10.24600219726594
 31
0.0
  0
SPLINE
  5
9B93
330
1F
100
AcDbEntity
  8
AM_0
100
AcDbSpline
210
0.0
220
0.0
230
1.0
 70
     8
 71
     3
 72
    11
 73
     7
 74
     5
 42
0.0000000001
 43
0.0000000001
 44
0.0000000001
 40
0.0
 40
0.0
 40
0.0
 40
0.0
 40
0.0653744678511382
 40
0.1366577065151792
 40
0.2207155072910416
 40
0.3207161176434369
 40
0.3207161176434369
 40
0.3207161176434369
 40
0.3207161176434369
 10
-35.2000007629392
 20
-11.48900222778291
 30
0.0
 10
-35.20015615151216
 20
-11.51127692565925
 30
0.0
 10
-35.20048097321545
 20
-11.55783958574899
 30
0.0
 10
-35.24711788595237
 20
-11.62015959175364
 30
0.0
 10
-35.32123445209186
 20
-11.66454594925385
 30
0.0
 10
-35.38134361139023
 20
-11.67844781419561
 30
0.0
 10
-35.41400146484424
 20
-11.6860008239749
 30
0.0
 11
-35.2000007629392
 21
-11.48900222778291
 31
0.0
 11
-35.20700073242223
 21
-11.55400085449191
 31
0.0
 11
-35.24700164794919
 21
-11.6130027770999
 31
0.0
 11
-35.31800079345723
 21
-11.6580009460449
 31
0.0
 11
-35.41400146484424
 21
-11.6860008239749
 31
0.0
  0
SPLINE
  5
9B94
330
1F
100
AcDbEntity
  8
AM_0
100
AcDbSpline
210
0.0
220
0.0
230
1.0
 70
     8
 71
     3
 72
    11
 73
     7
 74
     5
 42
0.0000000001
 43
0.0000000001
 44
0.0000000001
 40
0.0
 40
0.0
 40
0.0
 40
0.0
 40
0.0615230952455253
 40
0.1249105148636126
 40
0.1881953599611732
 40
0.2523896370750239
 40
0.2523896370750239
 40
0.2523896370750239
 40
0.2523896370750239
 10
-52.76499938964823
 20
-2.589000701903946
 30
0.0
 10
-52.7446768331213
 20
-2.591756807726411
 30
0.0
 10
-52.70341588893451
 20
-2.597352537198876
 30
0.0
 10
-52.64104453218696
 20
-2.604113289318521
 30
0.0
 10
-52.57771751359216
 20
-2.610266677513182
 30
0.0
 10
-52.53533990401527
 20
-2.613415856102292
 30
0.0
 10
-52.51399993896523
 20
-2.615001678466955
 30
0.0
 11
-52.76499938964823
 21
-2.589000701903946
 31
0.0
 11
-52.70399856567348
 21
-2.597000122069947
 31
0.0
 11
-52.64099884033221
 21
-2.604000091552951
 31
0.0
 11
-52.57799911499023
 21
-2.610000610351949
 31
0.0
 11
-52.51399993896523
 21
-2.615001678466955
 31
0.0
  0
SPLINE
  5
9B95
330
1F
100
AcDbEntity
  8
AM_0
100
AcDbSpline
210
0.0
220
0.0
230
1.0
 70
     8
 71
     3
 72
    11
 73
     7
 74
     5
 42
0.0000000001
 43
0.0000000001
 44
0.0000000001
 40
0.0
 40
0.0
 40
0.0
 40
0.0
 40
0.0824930287617727
 40
0.1658778062606561
 40
0.2500914910302148
 40
0.3361422793124685
 40
0.3361422793124685
 40
0.3361422793124685
 40
0.3361422793124685
 10
-52.88199996948213
 20
-2.792003631591957
 30
0.0
 10
-52.85467322813062
 20
-2.795069148517904
 30
0.0
 10
-52.799724343653
 20
-2.80123332057418
 30
0.0
 10
-52.71675370997961
 20
-2.809321872395198
 30
0.0
 10
-52.63242143600052
 20
-2.81573320765332
 30
0.0
 10
-52.57567848192723
 20
-2.817239513988515
 30
0.0
 10
-52.54700088501021
 20
-2.818000793456949
 30
0.0
 11
-52.88199996948213
 21
-2.792003631591957
 31
0.0
 11
-52.7999992370603
 21
-2.80100250244195
 31
0.0
 11
-52.71699905395481
 21
-2.809001922607952
 31
0.0
 11
-52.63299942016619
 21
-2.815002441405956
 31
0.0
 11
-52.54700088501021
 21
-2.818000793456949
 31
0.0
  0
SPLINE
  5
9B96
330
1F
100
AcDbEntity
  8
AM_0
100
AcDbSpline
210
0.0
220
0.0
230
1.0
 70
     8
 71
     3
 72
    11
 73
     7
 74
     5
 42
0.0000000001
 43
0.0000000001
 44
0.0000000001
 40
0.0
 40
0.0
 40
0.0
 40
0.0
 40
0.0430108813431063
 40
0.0860217626862622
 40
0.1290364576974464
 40
0.172047427852374
 40
0.172047427852374
 40
0.172047427852374
 40
0.172047427852374
 10
-52.51399993896523
 20
-2.615001678466955
 30
0.0
 10
-52.51433306386141
 20
-2.62933476824941
 30
0.0
 10
-52.51499931365382
 20
-2.658000947814338
 30
0.0
 10
-52.51599917385971
 20
-2.701001477424599
 30
0.0
 10
-52.5169972107577
 20
-2.744002079099027
 30
0.0
 10
-52.51766678418074
 20
-2.772669482444381
 30
0.0
 10
-52.51800155639621
 20
-2.787002563476948
 30
0.0
 11
-52.51399993896523
 21
-2.615001678466955
 31
0.0
 11
-52.51499938964823
 21
-2.658000946044939
 31
0.0
 11
-52.51599884033221
 21
-2.701000213622949
 31
0.0
 11
-52.5169982910162
 21
-2.744003295898938
 31
0.0
 11
-52.51800155639621
 21
-2.787002563476948
 31
0.0
  0
SPLINE
  5
9B97
330
1F
100
AcDbEntity
  8
AM_0
100
AcDbSpline
210
0.0
220
0.0
230
1.0
 70
     8
 71
     3
 72
    11
 73
     7
 74
     5
 42
0.0000000001
 43
0.0000000001
 44
0.0000000001
 40
0.0
 40
0.0
 40
0.0
 40
0.0
 40
0.0669423653655373
 40
0.1397226074016064
 40
0.2187977276027535
 40
0.3028098879790388
 40
0.3028098879790388
 40
0.3028098879790388
 40
0.3028098879790388
 10
-53.17900085449192
 20
-2.73400115966796
 30
0.0
 10
-53.15734382328265
 20
-2.739365770195399
 30
0.0
 10
-53.11214110520399
 20
-2.75056282555033
 30
0.0
 10
-53.04114234417394
 20
-2.767448759261393
 30
0.0
 10
-52.96334860617075
 20
-2.779158643744387
 30
0.0
 10
-52.9096579629017
 20
-2.787636421472353
 30
0.0
 10
-52.88199996948213
 20
-2.792003631591957
 30
0.0
 11
-53.17900085449192
 21
-2.73400115966796
 31
0.0
 11
-53.11399841308573
 21
-2.749999999999948
 31
0.0
 11
-53.04299926757783
 21
-2.766002655028947
 31
0.0
 11
-52.96500015258763
 21
-2.779003143310949
 31
0.0
 11
-52.88199996948213
 21
-2.792003631591957
 31
0.0
  0
SPLINE
  5
9B98
330
1F
100
AcDbEntity
  8
AM_0
100
AcDbSpline
210
0.0
220
0.0
230
1.0
 70
     8
 71
     3
 72
    11
 73
     7
 74
     5
 42
0.0000000001
 43
0.0000000001
 44
0.0000000001
 40
0.0
 40
0.0
 40
0.0
 40
0.0
 40
0.0628012777829329
 40
0.1206714106295185
 40
0.1748018068909501
 40
0.2242796517319415
 40
0.2242796517319415
 40
0.2242796517319415
 40
0.2242796517319415
 10
-52.76499938964823
 20
-2.589000701903946
 30
0.0
 10
-52.78567397811009
 20
-2.585715198393724
 30
0.0
 10
-52.82539979009918
 20
-2.579402168512755
 30
0.0
 10
-52.88282004528737
 20
-2.569498816266166
 30
0.0
 10
-52.93559568251284
 20
-2.558802015876462
 30
0.0
 10
-52.96903280152723
 20
-2.550138617558034
 30
0.0
 10
-52.98500061035133
 20
-2.546001434325948
 30
0.0
 11
-52.76499938964823
 21
-2.589000701903946
 31
0.0
 11
-52.82699966430643
 21
-2.579002380370941
 31
0.0
 11
-52.88399887084931
 21
-2.569000244140956
 31
0.0
 11
-52.93700027465791
 21
-2.558002471923946
 31
0.0
 11
-52.98500061035133
 21
-2.546001434325948
 31
0.0
  0
SPLINE
  5
9B99
330
1F
100
AcDbEntity
  8
AM_0
100
AcDbSpline
210
0.0
220
0.0
230
1.0
 70
     8
 71
     3
 72
    11
 73
     7
 74
     5
 42
0.0000000001
 43
0.0000000001
 44
0.0000000001
 40
0.0
 40
0.0
 40
0.0
 40
0.0
 40
2.220803329081325
 40
4.440507006140821
 40
6.661202057661485
 40
8.881042561296915
 40
8.881042561296915
 40
8.881042561296915
 40
8.881042561296915
 10
-44.36600112915022
 20
-6.789001464843932
 30
0.0
 10
-45.09521000593815
 20
-6.661499860578089
 30
0.0
 10
-46.55326668476003
 20
-6.406559785685966
 30
0.0
 10
-48.73674016444759
 20
-6.003152675643365
 30
0.0
 10
-50.91740621512627
 20
-5.586541976521585
 30
0.0
 10
-52.36856300648177
 20
-5.294829996373582
 30
0.0
 10
-53.09400177001923
 20
-5.149002075194948
 30
0.0
 11
-44.36600112915022
 21
-6.789001464843932
 31
0.0
 11
-46.55300140380922
 21
-6.402999877929935
 31
0.0
 11
-48.73600006103524
 21
-6.00100326538096
 31
0.0
 11
-50.91699981689423
 21
-5.583000183105947
 31
0.0
 11
-53.09400177001923
 21
-5.149002075194948
 31
0.0
  0
SPLINE
  5
9B9A
330
1F
100
AcDbEntity
  8
AM_0
100
AcDbSpline
210
0.0
220
0.0
230
1.0
 70
     8
 71
     3
 72
    11
 73
     7
 74
     5
 42
0.0000000001
 43
0.0000000001
 44
0.0000000001
 40
0.0
 40
0.0
 40
0.0
 40
0.0
 40
0.0290699755374437
 40
0.0608500597973603
 40
0.096905022493319
 40
0.1358014531092819
 40
0.1358014531092819
 40
0.1358014531092819
 40
0.1358014531092819
 10
-53.30500030517551
 20
-2.684001922607954
 30
0.0
 10
-53.29636038018789
 20
-2.688386169943628
 30
0.0
 10
-53.27827505529784
 20
-2.697563395160021
 30
0.0
 10
-53.24890718056281
 20
-2.711115928026706
 30
0.0
 10
-53.21510810431293
 20
-2.722349654135809
 30
0.0
 10
-53.19133699838067
 20
-2.730020389892423
 30
0.0
 10
-53.17900085449192
 20
-2.73400115966796
 30
0.0
 11
-53.30500030517551
 21
-2.684001922607954
 31
0.0
 11
-53.27899932861302
 21
-2.697002410888948
 31
0.0
 11
-53.2499999999997
 21
-2.710002899169942
 31
0.0
 11
-53.21599960327121
 21
-2.722000122069949
 31
0.0
 11
-53.17900085449192
 21
-2.73400115966796
 31
0.0
  0
SPLINE
  5
9B9B
330
1F
100
AcDbEntity
  8
AM_0
100
AcDbSpline
210
0.0
220
0.0
230
1.0
 70
     8
 71
     3
 72
    11
 73
     7
 74
     5
 42
0.0000000001
 43
0.0000000001
 44
0.0000000001
 40
0.0
 40
0.0
 40
0.0
 40
0.0
 40
0.0310470205059239
 40
0.0595075677252311
 40
0.0848087807786395
 40
0.1082173801634588
 40
0.1082173801634588
 40
0.1082173801634588
 40
0.1082173801634588
 10
-52.98500061035133
 20
-2.546001434325948
 30
0.0
 10
-52.99505282156982
 20
-2.543509684533604
 30
0.0
 10
-53.01431981177131
 20
-2.538733768290886
 30
0.0
 10
-53.04095219635105
 20
-2.529182854260938
 30
0.0
 10
-53.0654701635609
 20
-2.521394054172055
 30
0.0
 10
-53.08068798417261
 20
-2.515724919066217
 30
0.0
 10
-53.08800125122041
 20
-2.513000488280957
 30
0.0
 11
-52.98500061035133
 21
-2.546001434325948
 31
0.0
 11
-53.01499938964821
 21
-2.538002014159948
 31
0.0
 11
-53.04199981689419
 21
-2.52900314331095
 31
0.0
 11
-53.06600189208959
 21
-2.520999908446944
 31
0.0
 11
-53.08800125122041
 21
-2.513000488280957
 31
0.0
  0
SPLINE
  5
9B9C
330
1F
100
AcDbEntity
  8
AM_0
100
AcDbSpline
210
0.0
220
0.0
230
1.0
 70
     8
 71
     3
 72
    11
 73
     7
 74
     5
 42
0.0000000001
 43
0.0000000001
 44
0.0000000001
 40
0.0
 40
0.0
 40
0.0
 40
0.0
 40
0.0496484620908163
 40
0.097167750432222
 40
0.1434402329931014
 40
0.1875409962939283
 40
0.1875409962939283
 40
0.1875409962939283
 40
0.1875409962939283
 10
-44.98500061035221
 20
-3.349002838134949
 30
0.0
 10
-44.96867203584661
 20
-3.351696389173561
 30
0.0
 10
-44.93671513757306
 20
-3.356967978344188
 30
0.0
 10
-44.88946045362367
 20
-3.364290645064854
 30
0.0
 10
-44.84374833937006
 20
-3.369313633366382
 30
0.0
 10
-44.81367507832309
 20
-3.371120113326806
 30
0.0
 10
-44.79899978637722
 20
-3.372001647948947
 30
0.0
 11
-44.98500061035221
 21
-3.349002838134949
 31
0.0
 11
-44.93600082397521
 21
-3.357002258300936
 31
0.0
 11
-44.88899993896519
 21
-3.364002227782946
 31
0.0
 11
-44.84299850463923
 21
-3.369003295898933
 31
0.0
 11
-44.79899978637722
 21
-3.372001647948947
 31
0.0
  0
ELLIPSE
  5
9B9D
330
1F
100
AcDbEntity
  8
AM_0
100
AcDbEllipse
 10
-45.0349998474122
 20
-3.099002838134949
 30
0.0
 11
0.2282752922630032
 21
-0.0182075470680014
 31
0.0
210
0.0
220
0.0
230
1.0
 40
0.1703181029763999
 41
4.770303334894841
 42
5.299290483708829
  0
SPLINE
  5
9B9E
330
1F
100
AcDbEntity
  8
AM_0
100
AcDbSpline
210
0.0
220
0.0
230
1.0
 70
     8
 71
     3
 72
    11
 73
     7
 74
     5
 42
0.0000000001
 43
0.0000000001
 44
0.0000000001
 40
0.0
 40
0.0
 40
0.0
 40
0.0
 40
0.2869041224255678
 40
0.543223552108325
 40
0.7351678567916402
 40
0.8366598443769731
 40
0.8366598443769731
 40
0.8366598443769731
 40
0.8366598443769731
 10
-53.09400177001923
 20
-5.149002075194948
 30
0.0
 10
-53.1889634117983
 20
-5.137651356130343
 30
0.0
 10
-53.36876354825205
 20
-5.116159932873233
 30
0.0
 10
-53.61265239020323
 20
-5.092174795854163
 30
0.0
 10
-53.79499516737631
 20
-5.073959807510997
 30
0.0
 10
-53.89233230237469
 20
-5.064331132446767
 30
0.0
 10
-53.92599868774395
 20
-5.061000823974945
 30
0.0
 11
-53.09400177001923
 21
-5.149002075194948
 31
0.0
 11
-53.37900161743145
 21
-5.116001129150951
 31
0.0
 11
-53.63399887084933
 21
-5.090000152587954
 31
0.0
 11
-53.82500076293924
 21
-5.071002960204958
 31
0.0
 11
-53.92599868774395
 21
-5.061000823974945
 31
0.0
  0
SPLINE
  5
9B9F
330
1F
100
AcDbEntity
  8
AM_0
100
AcDbSpline
210
0.0
220
0.0
230
1.0
 70
     8
 71
     3
 72
    11
 73
     7
 74
     5
 42
0.0000000001
 43
0.0000000001
 44
0.0000000001
 40
0.0
 40
0.0
 40
0.0
 40
0.0
 40
0.0144227468403561
 40
0.0307005928879168
 40
0.0485036624197323
 40
0.0701388406285057
 40
0.0701388406285057
 40
0.0701388406285057
 40
0.0701388406285057
 10
-53.35699844360322
 20
-2.638000488280958
 30
0.0
 10
-53.35454079690382
 20
-2.642176499468263
 30
0.0
 10
-53.34930939323181
 20
-2.651065653578498
 30
0.0
 10
-53.3365596416874
 20
-2.661337039692062
 30
0.0
 10
-53.32220953123305
 20
-2.673057384174162
 30
0.0
 10
-53.31109665013737
 20
-2.680124834729763
 30
0.0
 10
-53.30500030517551
 20
-2.684001922607954
 30
0.0
 11
-53.35699844360322
 21
-2.638000488280958
 31
0.0
 11
-53.3489990234372
 21
-2.650001525878955
 31
0.0
 11
-53.33700180053681
 21
-2.661003112792962
 31
0.0
 11
-53.32300186157202
 21
-2.672000885009956
 31
0.0
 11
-53.30500030517551
 21
-2.684001922607954
 31
0.0
  0
SPLINE
  5
9BA0
330
1F
100
AcDbEntity
  8
AM_0
100
AcDbSpline
210
0.0
220
0.0
230
1.0
 70
     8
 71
     3
 72
    11
 73
     7
 74
     5
 42
0.0000000001
 43
0.0000000001
 44
0.0000000001
 40
0.0
 40
0.0
 40
0.0
 40
0.0
 40
0.0201220869402011
 40
0.0371212755331649
 40
0.0521214281988579
 40
0.064164328382799
 40
0.064164328382799
 40
0.064164328382799
 40
0.064164328382799
 10
-53.08800125122041
 20
-2.513000488280957
 30
0.0
 10
-53.09398659710682
 20
-2.509984749488768
 30
0.0
 10
-53.10502837793556
 20
-2.504421307139393
 30
0.0
 10
-53.12073126085143
 20
-2.496840780818501
 30
0.0
 10
-53.13236561475756
 20
-2.487763444441016
 30
0.0
 10
-53.13903033578659
 20
-2.481700196729279
 30
0.0
 10
-53.14199829101534
 20
-2.479000091552953
 30
0.0
 11
-53.08800125122041
 21
-2.513000488280957
 31
0.0
 11
-53.10599899291963
 21
-2.504001617431944
 31
0.0
 11
-53.12099838256813
 21
-2.496002197265957
 31
0.0
 11
-53.13299942016572
 21
-2.48700332641595
 31
0.0
 11
-53.14199829101534
 21
-2.479000091552953
 31
0.0
  0
SPLINE
  5
9BA1
330
1F
100
AcDbEntity
  8
AM_0
100
AcDbSpline
210
0.0
220
0.0
230
1.0
 70
     8
 71
     3
 72
    11
 73
     7
 74
     5
 42
0.0000000001
 43
0.0000000001
 44
0.0000000001
 40
0.0
 40
0.0
 40
0.0
 40
0.0
 40
0.0520365449146883
 40
0.0970829003543175
 40
0.1354087903599084
 40
0.1654948842391494
 40
0.1654948842391494
 40
0.1654948842391494
 40
0.1654948842391494
 10
-44.79899978637722
 20
-3.372001647948947
 30
0.0
 10
-44.78166566683824
 20
-3.37301110355493
 30
0.0
 10
-44.74932596014378
 20
-3.374894412259772
 30
0.0
 10
-44.70423983796746
 20
-3.372523339502667
 30
0.0
 10
-44.66645071757383
 20
-3.368653267118444
 30
0.0
 10
-44.64460540993012
 20
-3.361949381780302
 30
0.0
 10
-44.63499832153321
 20
-3.359001159667952
 30
0.0
 11
-44.79899978637722
 21
-3.372001647948947
 31
0.0
 11
-44.7470016479492
 21
-3.374000549316944
 31
0.0
 11
-44.70199966430721
 21
-3.372001647948946
 31
0.0
 11
-44.66400146484421
 21
-3.367000579833939
 31
0.0
 11
-44.63499832153321
 21
-3.359001159667952
 31
0.0
  0
ELLIPSE
  5
9BA2
330
1F
100
AcDbEntity
  8
AM_0
100
AcDbEllipse
 10
-45.02000045776423
 20
-3.104000091552947
 30
0.0
 11
0.2023582492370012
 21
-0.0161418736889938
 31
0.0
210
0.0
220
0.0
230
1.0
 40
0.1674839936288
 41
5.2919846307153
 42
5.893409629246074
  0
SPLINE
  5
9BA3
330
1F
100
AcDbEntity
  8
AM_0
100
AcDbSpline
210
0.0
220
0.0
230
1.0
 70
     8
 71
     3
 72
    11
 73
     7
 74
     5
 42
0.0000000001
 43
0.0000000001
 44
0.0000000001
 40
0.0
 40
0.0
 40
0.0
 40
0.0
 40
0.0102951619146152
 40
0.0188958662163851
 40
0.0267071982505565
 40
0.0339175139549604
 40
0.0339175139549604
 40
0.0339175139549604
 40
0.0339175139549604
 10
-44.63499832153321
 20
-3.359001159667952
 30
0.0
 10
-44.63193584356228
 20
-3.357426646736807
 30
0.0
 10
-44.62631493400214
 20
-3.354536766427042
 30
0.0
 10
-44.61926821757915
 20
-3.349130832922763
 30
0.0
 10
-44.61271856782365
 20
-3.344515909208788
 30
0.0
 10
-44.61020679705923
 20
-3.340114098379901
 30
0.0
 10
-44.6090011596682
 20
-3.338001251220941
 30
0.0
 11
-44.63499832153321
 21
-3.359001159667952
 31
0.0
 11
-44.62599945068419
 21
-3.354000091552945
 31
0.0
 11
-44.6189994812012
 21
-3.349002838134948
 31
0.0
 11
-44.61299896240221
 21
-3.344001770019941
 31
0.0
 11
-44.6090011596682
 21
-3.338001251220941
 31
0.0
  0
ELLIPSE
  5
9BA4
330
1F
100
AcDbEntity
  8
AM_0
100
AcDbEllipse
 10
-45.04899978637721
 20
-3.10000228881894
 30
0.0
 11
0.2332572938610014
 21
-0.0186043026420033
 31
0.0
210
0.0
220
0.0
230
1.0
 40
0.1709490616106001
 41
5.895605721231065
 42
6.094772949807492
  0
SPLINE
  5
9BA5
330
1F
100
AcDbEntity
  8
AM_0
100
AcDbSpline
210
0.0
220
0.0
230
1.0
 70
     8
 71
     3
 72
    11
 73
     7
 74
     5
 42
0.0000000001
 43
0.0000000001
 44
0.0000000001
 40
0.0
 40
0.0
 40
0.0
 40
0.0
 40
0.0359023681928494
 40
0.0865083313291634
 40
0.1608376691779625
 40
0.2563639726981366
 40
0.2563639726981366
 40
0.2563639726981366
 40
0.2563639726981366
 10
-44.00000000000022
 20
-6.696002960204944
 30
0.0
 10
-44.00125118811125
 20
-6.70847242400806
 30
0.0
 10
-44.00426598075897
 20
-6.73851814412275
 30
0.0
 10
-44.05570270363415
 20
-6.768380778592256
 30
0.0
 10
-44.12496515551026
 20
-6.788072028737141
 30
0.0
 10
-44.18195166167104
 20
-6.791867801650989
 30
0.0
 10
-44.21400070190425
 20
-6.794002532958936
 30
0.0
 11
-44.00000000000022
 21
-6.696002960204944
 31
0.0
 11
-44.00799942016621
 21
-6.731002807616939
 31
0.0
 11
-44.04800033569322
 21
-6.762001037597949
 31
0.0
 11
-44.11899948120121
 21
-6.784000396728937
 31
0.0
 11
-44.21400070190425
 21
-6.794002532958936
 31
0.0
  0
ELLIPSE
  5
9BA6
330
1F
100
AcDbEntity
  8
AM_0
100
AcDbEllipse
 10
-45.0190010070802
 20
-3.103000640868941
 30
0.0
 11
0.2033538892169986
 21
-0.0162200748960043
 31
0.0
210
0.0
220
0.0
230
1.0
 40
0.1715682235551
 41
6.0952664725258
 42
6.330634940983977
  0
LINE
  5
9D7B
330
1F
100
AcDbEntity
  8
AM_0
100
AcDbLine
 10
-0.7220001220702362
 20
2.502998352051154
 30
0.0
 11
-0.9079971313482378
 21
0.1189994812011608
 31
0.0
  0
LINE
  5
9D7C
330
1F
100
AcDbEntity
  8
AM_0
100
AcDbLine
 10
-0.0809974670412408
 20
3.223995208740141
 30
0.0
 11
-0.7350006103522432
 21
0.0879936218261616
 31
0.0
  0
LINE
  5
9D7D
330
1F
100
AcDbEntity
  8
AM_0
100
AcDbLine
 10
-0.6080055236822504
 20
0.0899963378901605
 30
0.0
 11
-0.0000038146972499
 21
3.408004760742151
 31
0.0
  0
LINE
  5
9D7E
330
1F
100
AcDbEntity
  8
AM_0
100
AcDbLine
 10
-0.607002258301249
 20
0.0919990539551679
 30
0.0
 11
0.0009994506837516
 21
3.410999298096151
 31
0.0
  0
LINE
  5
9D7F
330
1F
100
AcDbEntity
  8
AM_0
100
AcDbLine
 10
-0.9799995422362542
 20
9.758998870849154
 30
0.0
 11
-0.9799995422362414
 21
0.1250000000001592
 31
0.0
  0
LINE
  5
9D80
330
1F
100
AcDbEntity
  8
AM_0
100
AcDbLine
 10
-1.166000366211246
 20
9.766998291015157
 30
0.0
 11
-1.166000366211234
 21
0.1399993896481553
 31
0.0
  0
LINE
  5
9D84
330
1F
100
AcDbEntity
  8
AM_0
100
AcDbLine
 10
-12.74100112915028
 20
12.92299652099612
 30
0.0
 11
-15.55599975585925
 21
12.97999572753911
 31
0.0
  0
LINE
  5
9D85
330
1F
100
AcDbEntity
  8
AM_0
100
AcDbLine
 10
-1.326999664307277
 20
13.29899597168015
 30
0.0
 11
-1.514999389648267
 21
10.58299636840814
 31
0.0
  0
LINE
  5
9D86
330
1F
100
AcDbEntity
  8
AM_0
100
AcDbLine
 10
-3.939002990723263
 20
12.96799850463915
 30
0.0
 11
-6.921997070312269
 21
13.09799575805613
 31
0.0
  0
LINE
  5
9D87
330
1F
100
AcDbEntity
  8
AM_0
100
AcDbLine
 10
-0.0810012817382571
 20
18.09399795532214
 30
0.0
 11
-0.0000038146972889
 21
19.21999740600615
 31
0.0
  0
LINE
  5
9D8A
330
1F
100
AcDbEntity
  8
AM_0
100
AcDbLine
 10
-0.3659973144532922
 20
19.63499641418416
 30
0.0
 11
-0.2140045166022837
 21
19.59799766540516
 31
0.0
  0
LINE
  5
9D8B
330
1F
100
AcDbEntity
  8
AM_0
100
AcDbLine
 10
-0.2140007019042792
 20
19.59799957275416
 30
0.0
 11
-0.3649978637692721
 21
19.63499832153315
 31
0.0
  0
LINE
  5
9D8E
330
1F
100
AcDbEntity
  8
AM_0
100
AcDbLine
 10
-9.165000915527285
 20
19.81999778747514
 30
0.0
 11
-9.166000366211278
 21
19.81999778747514
 31
0.0
  0
LINE
  5
9D8F
330
1F
100
AcDbEntity
  8
AM_0
100
AcDbLine
 10
-9.978000640869252
 20
13.35699844360314
 30
0.0
 11
-10.37899780273425
 21
13.36499786376912
 31
0.0
  0
LINE
  5
9D90
330
1F
100
AcDbEntity
  8
AM_0
100
AcDbLine
 10
-10.37900161743225
 20
13.36499786376912
 30
0.0
 11
-12.71500015258829
 21
13.41199493408212
 31
0.0
  0
LINE
  5
9D91
330
1F
100
AcDbEntity
  8
AM_0
100
AcDbLine
 10
-9.777999877930252
 20
13.36599731445313
 30
0.0
 11
-9.778999328613279
 21
13.35499954223613
 31
0.0
  0
LINE
  5
9D92
330
1F
100
AcDbEntity
  8
AM_0
100
AcDbLine
 10
-9.777999877930252
 20
13.36599731445313
 30
0.0
 11
-9.758998870850289
 21
13.36599731445313
 31
0.0
  0
LINE
  5
9D93
330
1F
100
AcDbEntity
  8
AM_0
100
AcDbLine
 10
-9.978000640869252
 20
13.35699844360314
 30
0.0
 11
-9.779003143311284
 21
13.35499954223613
 31
0.0
  0
LINE
  5
9D94
330
1F
100
AcDbEntity
  8
AM_0
100
AcDbLine
 10
-10.67300033569327
 20
15.00699615478512
 30
0.0
 11
-10.78300094604526
 21
13.88199996948213
 31
0.0
  0
LINE
  5
9D95
330
1F
100
AcDbEntity
  8
AM_0
100
AcDbLine
 10
-10.42599868774424
 20
13.46799850463911
 30
0.0
 11
-10.57799911499029
 21
13.50399780273413
 31
0.0
  0
LINE
  5
9D96
330
1F
100
AcDbEntity
  8
AM_0
100
AcDbLine
 10
-10.57799911499029
 20
13.50399780273413
 30
0.0
 11
-10.42699813842826
 21
13.46799850463911
 31
0.0
  0
LINE
  5
9D97
330
1F
100
AcDbEntity
  8
AM_0
100
AcDbLine
 10
-10.42599868774424
 20
13.46799850463911
 30
0.0
 11
-10.42700195312527
 21
13.46799850463911
 31
0.0
  0
LINE
  5
9D98
330
1F
100
AcDbEntity
  8
AM_0
100
AcDbLine
 10
-10.37899780273425
 20
13.36499786376912
 30
0.0
 11
-10.33900070190427
 21
13.40899658203112
 31
0.0
  0
LINE
  5
9D99
330
1F
100
AcDbEntity
  8
AM_0
100
AcDbLine
 10
-9.921997070312269
 20
13.44899749755813
 30
0.0
 11
-10.03400039672829
 21
13.35299682617211
 31
0.0
  0
LINE
  5
9D9A
330
1F
100
AcDbEntity
  8
AM_0
100
AcDbLine
 10
-1.514999389648267
 20
10.58299636840814
 30
0.0
 11
-9.20400238037125
 21
10.91899490356413
 31
0.0
  0
LINE
  5
9D9B
330
1F
100
AcDbEntity
  8
AM_0
100
AcDbLine
 10
-5.777999877930239
 20
9.968997955322146
 30
0.0
 11
-3.107002258301262
 21
9.851997375488133
 31
0.0
  0
LINE
  5
9D9C
330
1F
100
AcDbEntity
  8
AM_0
100
AcDbLine
 10
-3.356605529785241
 20
3.822063446045142
 30
0.0
 11
-6.351856231689213
 21
4.063671112060142
 31
0.0
  0
LINE
  5
9D9D
330
1F
100
AcDbEntity
  8
AM_0
100
AcDbLine
 10
-1.166000366211246
 20
9.766998291015157
 30
0.0
 11
-3.106998443603256
 21
9.851997375488133
 31
0.0
  0
LINE
  5
9D9E
330
1F
100
AcDbEntity
  8
AM_0
100
AcDbLine
 10
-0.9799995422362542
 20
9.758998870849154
 30
0.0
 11
-1.166000366211246
 21
9.766998291015157
 31
0.0
  0
LINE
  5
9D9F
330
1F
100
AcDbEntity
  8
AM_0
100
AcDbLine
 10
-3.041000366211243
 20
8.850997924805149
 30
0.0
 11
-3.107002258301262
 21
9.851997375488133
 31
0.0
  0
LINE
  5
9DA0
330
1F
100
AcDbEntity
  8
AM_0
100
AcDbLine
 10
-0.081005096436241
 20
3.22399902343715
 30
0.0
 11
-0.0000076293942313
 21
3.407993316650156
 31
0.0
  0
LINE
  5
9DA1
330
1F
100
AcDbEntity
  8
AM_0
100
AcDbLine
 10
-0.0000038146972499
 20
3.408004760742151
 30
0.0
 11
0.0009956359857612
 21
3.411003112793145
 31
0.0
  0
LINE
  5
9DA2
330
1F
100
AcDbEntity
  8
AM_0
100
AcDbLine
 10
-0.3660011291502329
 20
3.430999755859151
 30
0.0
 11
-0.9820022583012486
 21
3.354999542236159
 31
0.0
  0
LINE
  5
9DA3
330
1F
100
AcDbEntity
  8
AM_0
100
AcDbLine
 10
-0.3660011291502329
 20
3.430999755859151
 30
0.0
 11
-0.2140007019042387
 21
3.442996978760169
 31
0.0
  0
ARC
  5
9DA4
330
1F
100
AcDbEntity
  8
AM_0
100
AcDbCircle
 10
-9.02099990844727
 20
15.11499786376913
 30
0.0
 40
4.196537494659398
100
AcDbArc
 50
237.9005449527635
 51
267.5027419099461
  0
ARC
  5
9DA5
330
1F
100
AcDbEntity
  8
AM_0
100
AcDbCircle
 10
-9.083000183105276
 20
15.11800003051713
 30
0.0
 40
4.996855735778798
100
AcDbArc
 50
237.5789318353129
 51
267.5014919853341
  0
LINE
  5
9DA6
330
1F
100
AcDbEntity
  8
AM_0
100
AcDbLine
 10
-5.777999877930239
 20
9.968997955322146
 30
0.0
 11
-10.36499786376922
 21
10.16899490356412
 31
0.0
  0
LINE
  5
9DA7
330
1F
100
AcDbEntity
  8
AM_0
100
AcDbLine
 10
-6.059001922607259
 20
8.726997375488133
 30
0.0
 11
-6.067001342773272
 21
8.603000640869135
 31
0.0
  0
LINE
  5
9DA8
330
1F
100
AcDbEntity
  8
AM_0
100
AcDbLine
 10
-12.28200149536126
 20
11.23199844360313
 30
0.0
 11
-11.76200103759823
 21
10.89999771118112
 31
0.0
  0
LINE
  5
9DA9
330
1F
100
AcDbEntity
  8
AM_0
100
AcDbLine
 10
-11.30200195312524
 20
11.52299880981414
 30
0.0
 11
-11.25099945068423
 21
11.55999755859413
 31
0.0
  0
LINE
  5
9DAA
330
1F
100
AcDbEntity
  8
AM_0
100
AcDbLine
 10
-17.41500091552729
 20
14.0079956054691
 30
0.0
 11
-14.79800033569326
 21
12.56099700927711
 31
0.0
  0
LINE
  5
9DAD
330
1F
100
AcDbEntity
  8
AM_0
100
AcDbLine
 10
-19.16500091552729
 20
14.06799697876012
 30
0.0
 11
-17.28592300415028
 21
13.93389892578112
 31
0.0
  0
LINE
  5
9DAE
330
1F
100
AcDbEntity
  8
AM_0
100
AcDbLine
 10
-15.70299911499028
 20
13.47299575805612
 30
0.0
 11
-16.47500228881827
 21
13.48799896240211
 31
0.0
  0
LINE
  5
9DAF
330
1F
100
AcDbEntity
  8
AM_0
100
AcDbLine
 10
-14.38899993896527
 20
13.28300094604512
 30
0.0
 11
-13.77700042724625
 21
13.27099990844711
 31
0.0
  0
LINE
  5
9DB0
330
1F
100
AcDbEntity
  8
AM_0
100
AcDbLine
 10
-19.47299575805726
 20
15.08799743652312
 30
0.0
 11
-19.57899856567428
 21
14.0979995727541
 31
0.0
  0
LINE
  5
9DB3
330
1F
100
AcDbEntity
  8
AM_0
100
AcDbLine
 10
-26.24485015869128
 20
16.8661670684811
 30
0.0
 11
-27.96500015258827
 21
16.8769989013671
 31
0.0
  0
LINE
  5
9DB4
330
1F
100
AcDbEntity
  8
AM_0
100
AcDbLine
 10
-27.52600097656225
 20
17.18099975585909
 30
0.0
 11
-27.59900283813526
 21
16.8689994812011
 31
0.0
  0
LINE
  5
9DB9
330
1F
100
AcDbEntity
  8
AM_0
100
AcDbLine
 10
-35.04570960998528
 20
18.36276817321808
 30
0.0
 11
-36.76499938964829
 21
18.37799835205107
 31
0.0
  0
LINE
  5
9DBC
330
1F
100
AcDbEntity
  8
AM_0
100
AcDbLine
 10
-49.89300060272224
 20
5.796997070312039
 30
0.0
 11
-49.90499782562327
 21
5.62099838256804
 31
0.0
  0
LINE
  5
9DBD
330
1F
100
AcDbEntity
  8
AM_0
100
AcDbLine
 10
-34.92200088501022
 20
-12.53600311279292
 30
0.0
 11
-27.42900466918923
 21
-12.7560043334959
 31
0.0
  0
LINE
  5
9DBE
330
1F
100
AcDbEntity
  8
AM_0
100
AcDbLine
 10
-34.91399955749523
 20
-12.26900482177794
 30
0.0
 11
-27.42500305175821
 21
-12.48900222778291
 31
0.0
  0
LINE
  5
9DC0
330
1F
100
AcDbEntity
  8
AM_0
100
AcDbLine
 10
-12.10800170898425
 20
-1.021003723144873
 30
0.0
 11
-17.87700271606421
 21
-0.5450019836428748
 31
0.0
  0
LINE
  5
9DC1
330
1F
100
AcDbEntity
  8
AM_0
100
AcDbLine
 10
-18.98699569702124
 20
-1.261001586913865
 30
0.0
 11
-12.75900268554723
 21
-1.774002075194875
 31
0.0
  0
LINE
  5
9DC2
330
1F
100
AcDbEntity
  8
AM_0
100
AcDbLine
 10
-17.31399917602517
 20
-18.19500350952187
 30
0.0
 11
-9.824996948242166
 21
-18.04300308227586
 31
0.0
  0
LINE
  5
9DC3
330
1F
100
AcDbEntity
  8
AM_0
100
AcDbLine
 10
-17.32199859619118
 20
-18.44300460815387
 30
0.0
 11
-9.828998565674174
 21
-18.29100418090786
 31
0.0
  0
LINE
  5
9DC4
330
1F
100
AcDbEntity
  8
AM_0
100
AcDbLine
 10
-8.513999938965241
 20
0.7189979553221369
 30
0.0
 11
-1.024997711182249
 21
0.1289978027341503
 31
0.0
  0
LINE
  5
9DC5
330
1F
100
AcDbEntity
  8
AM_0
100
AcDbLine
 10
-8.521999359131257
 20
0.5479965209961355
 30
0.0
 11
-1.02900314331124
 21
-0.0430030822758427
 31
0.0
  0
LINE
  5
9DC6
330
1F
100
AcDbEntity
  8
AM_0
100
AcDbLine
 10
-0.9799995422361993
 20
-9.759002685546843
 30
0.0
 11
-0.9799995422362266
 21
-3.340000152587844
 31
0.0
  0
LINE
  5
9DC7
330
1F
100
AcDbEntity
  8
AM_0
100
AcDbLine
 10
-0.3659973144532365
 20
-3.430999755859838
 30
0.0
 11
-3.986995697021214
 21
-2.798000335693837
 31
0.0
  0
LINE
  5
9DC8
330
1F
100
AcDbEntity
  8
AM_0
100
AcDbLine
 10
-0.6100006103522432
 20
0.0879974365231578
 30
0.0
 11
-0.7350006103522432
 21
0.0879974365231573
 31
0.0
  0
LINE
  5
9DC9
330
1F
100
AcDbEntity
  8
AM_0
100
AcDbLine
 10
-0.7010002136232441
 20
0.0000076293941658
 30
0.0
 11
-0.6090011596682375
 21
0.0890083312991595
 31
0.0
  0
LINE
  5
9DCA
330
1F
100
AcDbEntity
  8
AM_0
100
AcDbLine
 10
-0.6079978942872352
 20
-0.0900039672848392
 30
0.0
 11
-0.6090011596682368
 21
-0.0890007019038377
 31
0.0
  0
LINE
  5
9DCB
330
1F
100
AcDbEntity
  8
AM_0
100
AcDbLine
 10
-0.6090011596682368
 20
-0.0890007019038377
 30
0.0
 11
-0.8160018920902402
 21
0.1119995117191515
 31
0.0
  0
LINE
  5
9DCC
330
1F
100
AcDbEntity
  8
AM_0
100
AcDbLine
 10
-0.6090011596682367
 20
-0.0950012207028363
 30
0.0
 11
-0.6070022583012481
 21
-0.0920028686528509
 31
0.0
  0
LINE
  5
9DCD
330
1F
100
AcDbEntity
  8
AM_0
100
AcDbLine
 10
0.0009994506837663
 20
-3.411003112792861
 30
0.0
 11
-0.6070022583012481
 21
-0.0920028686528509
 31
0.0
  0
LINE
  5
9DCE
330
1F
100
AcDbEntity
  8
AM_0
100
AcDbLine
 10
-0.6070022583012481
 20
-0.0920028686528509
 30
0.0
 11
-0.6080017089842452
 21
-0.0900039672848392
 31
0.0
  0
LINE
  5
9DCF
330
1F
100
AcDbEntity
  8
AM_0
100
AcDbLine
 10
-0.6349983215332436
 20
-0.0990028381348465
 30
0.0
 11
-0.8360023498532441
 21
0.1129989624021483
 31
0.0
  0
LINE
  5
9DD0
330
1F
100
AcDbEntity
  8
AM_0
100
AcDbLine
 10
-0.7989997863772495
 20
-0.0800056457518358
 30
0.0
 11
-0.9100036621092456
 21
0.1199989318851667
 31
0.0
  0
LINE
  5
9DD1
330
1F
100
AcDbEntity
  8
AM_0
100
AcDbLine
 10
-1.028999328613235
 20
-0.0430030822758427
 30
0.0
 11
-1.025001525879231
 21
0.1289978027341503
 31
0.0
  0
LINE
  5
9DD2
330
1F
100
AcDbEntity
  8
AM_0
100
AcDbLine
 10
-0.2140007019042235
 20
-3.443000793456839
 30
0.0
 11
-0.3649978637692164
 21
-3.430999755859838
 31
0.0
  0
LINE
  5
9DD3
330
1F
100
AcDbEntity
  8
AM_0
100
AcDbLine
 10
-0.3649978637692164
 20
-3.430999755859838
 30
0.0
 11
-0.2140007019042235
 21
-3.443000793456839
 31
0.0
  0
LINE
  5
9DD4
330
1F
100
AcDbEntity
  8
AM_0
100
AcDbLine
 10
-0.9850044250492381
 20
-0.0480041503908495
 30
0.0
 11
-1.028999328613235
 21
-0.0430030822758427
 31
0.0
  0
LINE
  5
9DD5
330
1F
100
AcDbEntity
  8
AM_0
100
AcDbLine
 10
-0.365001678467221
 20
-3.430999755859838
 30
0.0
 11
-0.9850006103522426
 21
-0.0480041503908495
 31
0.0
  0
LINE
  5
9DD6
330
1F
100
AcDbEntity
  8
AM_0
100
AcDbLine
 10
-0.6090011596682367
 20
-0.0950012207028363
 30
0.0
 11
-0.8199996948242315
 21
0.1119956970211611
 31
0.0
  0
LINE
  5
9DD7
330
1F
100
AcDbEntity
  8
AM_0
100
AcDbLine
 10
-4.632003784180213
 20
-2.668998718261844
 30
0.0
 11
-3.986999511719219
 21
-2.798000335693837
 31
0.0
  0
LINE
  5
9DD8
330
1F
100
AcDbEntity
  8
AM_0
100
AcDbLine
 10
-1.300003051758209
 20
-9.773002624511844
 30
0.0
 11
-0.9799995422361993
 21
-9.759002685546843
 31
0.0
  0
LINE
  5
9DD9
330
1F
100
AcDbEntity
  8
AM_0
100
AcDbLine
 10
-6.63299942016623
 20
-2.593002319335872
 30
0.0
 11
-10.42600250244122
 21
-2.661003112792877
 31
0.0
  0
LINE
  5
9DDA
330
1F
100
AcDbEntity
  8
AM_0
100
AcDbLine
 10
-9.925998687744243
 20
-1.761005401610865
 30
0.0
 11
-9.356998443603229
 21
0.6119995117191293
 31
0.0
  0
LINE
  5
9DDB
330
1F
100
AcDbEntity
  8
AM_0
100
AcDbLine
 10
-9.47100067138723
 20
0.6510009765621399
 30
0.0
 11
-9.295001983643262
 21
0.7739982604981423
 31
0.0
  0
LINE
  5
9DDC
330
1F
100
AcDbEntity
  8
AM_0
100
AcDbLine
 10
-9.474002838135218
 20
0.618995666504143
 30
0.0
 11
-9.361000061035241
 21
0.6129951477051448
 31
0.0
  0
LINE
  5
9DDD
330
1F
100
AcDbEntity
  8
AM_0
100
AcDbLine
 10
-9.361000061035241
 20
0.6129989624021262
 30
0.0
 11
-9.141998291016252
 21
0.7659988403321272
 31
0.0
  0
LINE
  5
9DDE
330
1F
100
AcDbEntity
  8
AM_0
100
AcDbLine
 10
-9.361000061035241
 20
0.6129989624021262
 30
0.0
 11
-9.356998443603229
 21
0.6119995117191293
 31
0.0
  0
LINE
  5
9DDF
330
1F
100
AcDbEntity
  8
AM_0
100
AcDbLine
 10
-9.305004119873245
 20
0.6010017395021336
 30
0.0
 11
-9.088001251221244
 21
0.7630004882811472
 31
0.0
  0
LINE
  5
9DE0
330
1F
100
AcDbEntity
  8
AM_0
100
AcDbLine
 10
-8.518001556396255
 20
0.574996948242144
 30
0.0
 11
-8.521999359131257
 21
0.5480003356931454
 31
0.0
  0
LINE
  5
9DE1
330
1F
100
AcDbEntity
  8
AM_0
100
AcDbLine
 10
-9.179000854492244
 20
0.5880012512211401
 30
0.0
 11
-8.985000610352246
 21
0.7550010681151321
 31
0.0
  0
LINE
  5
9DE2
330
1F
100
AcDbEntity
  8
AM_0
100
AcDbLine
 10
-9.427001953125227
 20
0.7739982604981418
 30
0.0
 11
-9.464000701904241
 21
0.74799728393513
 31
0.0
  0
LINE
  5
9DE3
330
1F
100
AcDbEntity
  8
AM_0
100
AcDbLine
 10
-9.340000152588229
 20
0.773998260498142
 30
0.0
 11
-9.425998687744254
 21
0.7739982604981418
 31
0.0
  0
LINE
  5
9DE4
330
1F
100
AcDbEntity
  8
AM_0
100
AcDbLine
 10
-9.295001983643262
 20
0.7739982604981423
 30
0.0
 11
-9.340000152588229
 21
0.773998260498142
 31
0.0
  0
LINE
  5
9DE5
330
1F
100
AcDbEntity
  8
AM_0
100
AcDbLine
 10
-9.464000701904241
 20
0.74799728393513
 30
0.0
 11
-9.426002502441235
 21
0.7739982604981418
 31
0.0
  0
LINE
  5
9DE6
330
1F
100
AcDbEntity
  8
AM_0
100
AcDbLine
 10
-9.147998809814227
 20
0.7669982910151384
 30
0.0
 11
-9.295001983643262
 21
0.7739982604981423
 31
0.0
  0
LINE
  5
9DE7
330
1F
100
AcDbEntity
  8
AM_0
100
AcDbLine
 10
-9.142002105713229
 20
0.7659988403321272
 30
0.0
 11
-9.147998809814227
 21
0.7669982910151384
 31
0.0
  0
LINE
  5
9DE8
330
1F
100
AcDbEntity
  8
AM_0
100
AcDbLine
 10
-8.546997070312244
 20
0.5489997863771369
 30
0.0
 11
-9.093997955322256
 21
-1.733005523681857
 31
0.0
  0
LINE
  5
9DE9
330
1F
100
AcDbEntity
  8
AM_0
100
AcDbLine
 10
-8.521999359131257
 20
0.5479965209961355
 30
0.0
 11
-8.547000885010218
 21
0.5489997863771369
 31
0.0
  0
LINE
  5
9DEA
330
1F
100
AcDbEntity
  8
AM_0
100
AcDbLine
 10
-8.881999969482249
 20
0.5659980773921351
 30
0.0
 11
-8.765003204346244
 21
0.7379989624021287
 31
0.0
  0
LINE
  5
9DEB
330
1F
100
AcDbEntity
  8
AM_0
100
AcDbLine
 10
-9.873001098633258
 20
-1.175003051757861
 30
0.0
 11
-10.03300094604525
 21
-1.166000366210872
 31
0.0
  0
LINE
  5
9DEC
330
1F
100
AcDbEntity
  8
AM_0
100
AcDbLine
 10
-10.08399963378922
 20
-1.164001464843856
 30
0.0
 11
-10.17300033569323
 21
-1.159000396728863
 31
0.0
  0
LINE
  5
9DED
330
1F
100
AcDbEntity
  8
AM_0
100
AcDbLine
 10
-10.78300094604522
 20
-2.579002380370848
 30
0.0
 11
-10.78499984741221
 21
-2.581001281737865
 31
0.0
  0
LINE
  5
9DEE
330
1F
100
AcDbEntity
  8
AM_0
100
AcDbLine
 10
-10.28200149536123
 20
-1.151000976562863
 30
0.0
 11
-10.78500366210922
 21
-2.581001281737865
 31
0.0
  0
LINE
  5
9DEF
330
1F
100
AcDbEntity
  8
AM_0
100
AcDbLine
 10
-10.42600250244122
 20
-2.660999298095867
 30
0.0
 11
-10.57799911499022
 21
-2.649002075194852
 31
0.0
  0
LINE
  5
9DF0
330
1F
100
AcDbEntity
  8
AM_0
100
AcDbLine
 10
-10.57799911499022
 20
-2.649002075194852
 30
0.0
 11
-10.42700195312521
 21
-2.661003112792877
 31
0.0
  0
LINE
  5
9DF1
330
1F
100
AcDbEntity
  8
AM_0
100
AcDbLine
 10
-10.28199768066422
 20
-1.151000976562863
 30
0.0
 11
-10.78300094604522
 21
-2.579002380370848
 31
0.0
  0
LINE
  5
9DF2
330
1F
100
AcDbEntity
  8
AM_0
100
AcDbLine
 10
-10.67300033569323
 20
-2.40100097656285
 30
0.0
 11
-10.78300094604522
 21
-2.579002380370848
 31
0.0
  0
LINE
  5
9DF3
330
1F
100
AcDbEntity
  8
AM_0
100
AcDbLine
 10
-10.67300033569323
 20
-2.40100097656285
 30
0.0
 11
-10.20299911499022
 21
-1.157001495360866
 31
0.0
  0
ARC
  5
9DF4
330
1F
100
AcDbEntity
  8
AM_0
100
AcDbCircle
 10
-4.381999969482192
 20
-16.38699722290084
 30
0.0
 40
1.5004522800446
100
AcDbArc
 50
92.52106812949635
 51
152.9566412078029
  0
ARC
  5
9DF5
330
1F
100
AcDbEntity
  8
AM_0
100
AcDbCircle
 10
-4.852001190186213
 20
-16.40700149536084
 30
0.0
 40
1.250166773796099
100
AcDbArc
 50
272.4756182295256
 51
92.52140599649234
  0
ARC
  5
9DF6
330
1F
100
AcDbEntity
  8
AM_0
100
AcDbCircle
 10
-4.852001190186213
 20
-16.40700149536084
 30
0.0
 40
1.247203707694998
100
AcDbArc
 50
199.7279888420399
 51
272.4756182295256
  0
LINE
  5
9DF7
330
1F
100
AcDbEntity
  8
AM_0
100
AcDbLine
 10
-8.513999938965186
 20
-19.13399887084986
 30
0.0
 11
-1.025001525879178
 21
-18.80700302123984
 31
0.0
  0
LINE
  5
9DF8
330
1F
100
AcDbEntity
  8
AM_0
100
AcDbLine
 10
-8.5219993591312
 20
-19.34300613403286
 30
0.0
 11
-1.028999328613183
 21
-19.01600265502883
 31
0.0
  0
ARC
  5
9DF9
330
1F
100
AcDbEntity
  8
AM_0
100
AcDbCircle
 10
-4.381999969482192
 20
-16.38699722290084
 30
0.0
 40
1.499768257141099
100
AcDbArc
 50
23.91594335097671
 51
92.52106812949635
  0
ARC
  5
9DFA
330
1F
100
AcDbEntity
  8
AM_0
100
AcDbCircle
 10
-4.852001190186213
 20
-16.40700149536084
 30
0.0
 40
1.495413303375198
100
AcDbArc
 50
2.491210868156473
 51
83.68091138110006
  0
LINE
  5
9DFB
330
1F
100
AcDbEntity
  8
AM_0
100
AcDbLine
 10
-0.979999542236203
 20
-15.59900283813484
 30
0.0
 11
-0.9799995422361911
 21
-18.39999771118183
 31
0.0
  0
LINE
  5
9DFC
330
1F
100
AcDbEntity
  8
AM_0
100
AcDbLine
 10
-0.9800033569341932
 20
-15.59899902343783
 30
0.0
 11
-1.166004180908204
 21
-15.82900238037083
 31
0.0
  0
LINE
  5
9DFD
330
1F
100
AcDbEntity
  8
AM_0
100
AcDbLine
 10
-0.9480018615722116
 20
-15.57300186157183
 30
0.0
 11
-0.8160018920901888
 21
-18.58499526977583
 31
0.0
  0
LINE
  5
9DFE
330
1F
100
AcDbEntity
  8
AM_0
100
AcDbLine
 10
-0.6100006103521922
 20
-18.57600021362284
 30
0.0
 11
-0.7350006103522043
 21
-15.70700454711883
 31
0.0
  0
LINE
  5
9DFF
330
1F
100
AcDbEntity
  8
AM_0
100
AcDbLine
 10
-0.0810012817381882
 20
-18.09400558471684
 30
0.0
 11
-0.7350006103522043
 21
-15.70700073242184
 31
0.0
  0
LINE
  5
9E00
330
1F
100
AcDbEntity
  8
AM_0
100
AcDbLine
 10
-1.00500106811521
 20
-15.15500259399383
 30
0.0
 11
-0.9480018615722116
 21
-15.57300186157183
 31
0.0
  0
LINE
  5
9E01
330
1F
100
AcDbEntity
  8
AM_0
100
AcDbLine
 10
-0.9080009460452135
 20
-14.44799804687483
 30
0.0
 11
-1.044998168945206
 21
-14.45399856567383
 31
0.0
  0
LINE
  5
9E02
330
1F
100
AcDbEntity
  8
AM_0
100
AcDbLine
 10
-0.7559967041022049
 20
-15.56400299072284
 30
0.0
 11
-0.907997131348204
 21
-14.44800186157183
 31
0.0
  0
LINE
  5
9E03
330
1F
100
AcDbEntity
  8
AM_0
100
AcDbLine
 10
-0.7560005187992005
 20
-15.56400299072284
 30
0.0
 11
-0.9480018615722116
 21
-15.57300567626983
 31
0.0
  0
LINE
  5
9E04
330
1F
100
AcDbEntity
  8
AM_0
100
AcDbLine
 10
-0.9660034179692134
 20
-14.21400070190383
 30
0.0
 11
-1.057003021240214
 21
-14.24699783325183
 31
0.0
  0
LINE
  5
9E05
330
1F
100
AcDbEntity
  8
AM_0
100
AcDbLine
 10
-0.7350006103522043
 20
-15.70700454711883
 30
0.0
 11
-0.7560005187992005
 21
-15.56399917602583
 31
0.0
  0
LINE
  5
9E06
330
1F
100
AcDbEntity
  8
AM_0
100
AcDbLine
 10
-0.7220039367682133
 20
-13.93700027465784
 30
0.0
 11
-0.9130020141602066
 21
-14.41500091552784
 31
0.0
  0
LINE
  5
9E07
330
1F
100
AcDbEntity
  8
AM_0
100
AcDbLine
 10
-0.9080009460452135
 20
-14.44800186157183
 30
0.0
 11
-0.9130020141602066
 21
-14.41500091552784
 31
0.0
  0
ARC
  5
9E08
330
1F
100
AcDbEntity
  8
AM_0
100
AcDbCircle
 10
-4.852001190186213
 20
-16.40700149536084
 30
0.0
 40
1.250210404396099
100
AcDbArc
 50
92.52140280876579
 51
120.8772200160236
  0
ARC
  5
9E09
330
1F
100
AcDbEntity
  8
AM_0
100
AcDbCircle
 10
-1.019001007080181
 20
-18.59399795532183
 30
0.0
 40
0.2029802948236
100
AcDbArc
 50
348.6347068338408
 51
2.538540436641382
  0
ARC
  5
9E0A
330
1F
100
AcDbEntity
  8
AM_0
100
AcDbCircle
 10
-1.048999786377198
 20
-18.58800125122083
 30
0.0
 40
0.2336343228817
100
AcDbArc
 50
335.7387086242074
 51
348.6419604947389
  0
ARC
  5
9E0B
330
1F
100
AcDbEntity
  8
AM_0
100
AcDbCircle
 10
-1.020000457764186
 20
-18.60000228881883
 30
0.0
 40
0.202484562993
100
AcDbArc
 50
302.9052379631502
 51
335.4622772081184
  0
ARC
  5
9E0C
330
1F
100
AcDbEntity
  8
AM_0
100
AcDbCircle
 10
-1.034999847412183
 20
-18.57899856567383
 30
0.0
 40
0.2282191962004
100
AcDbArc
 50
272.5113606094572
 51
303.2027473430142
  0
LINE
  5
9E0F
330
1F
100
AcDbEntity
  8
AM_0
100
AcDbLine
 10
-1.166000366211194
 20
-15.82900238037083
 30
0.0
 11
-1.166000366211182
 21
-18.59900283813484
 31
0.0
  0
LINE
  5
9E10
330
1F
100
AcDbEntity
  8
AM_0
100
AcDbLine
 10
-0.9799995422361911
 20
-18.39999771118183
 30
0.0
 11
-1.166000366211182
 21
-18.59900283813484
 31
0.0
  0
LINE
  5
9E11
330
1F
100
AcDbEntity
  8
AM_0
100
AcDbLine
 10
-1.029003143311187
 20
-19.01600265502883
 30
0.0
 11
-1.025001525879178
 21
-18.80700302123984
 31
0.0
  0
LINE
  5
9E12
330
1F
100
AcDbEntity
  8
AM_0
100
AcDbLine
 10
-0.6100006103521922
 20
-18.57600021362284
 30
0.0
 11
-0.8160018920901888
 21
-18.58500289916984
 31
0.0
  0
LINE
  5
9E13
330
1F
100
AcDbEntity
  8
AM_0
100
AcDbLine
 10
-0.7989997863771974
 20
-18.96500015258784
 30
0.0
 11
-0.9099998474121839
 21
-18.77000045776383
 31
0.0
  0
LINE
  5
9E14
330
1F
100
AcDbEntity
  8
AM_0
100
AcDbLine
 10
-0.98500061035219
 20
-19.01400375366183
 30
0.0
 11
-1.028999328613183
 21
-19.01600265502883
 31
0.0
  0
LINE
  5
9E15
330
1F
100
AcDbEntity
  8
AM_0
100
AcDbLine
 10
-0.6079978942871847
 20
-18.61200332641583
 30
0.0
 11
-0.6100006103521922
 21
-18.57600021362284
 31
0.0
  0
LINE
  5
9E16
330
1F
100
AcDbEntity
  8
AM_0
100
AcDbLine
 10
-0.6090011596681859
 20
-18.68000411987284
 30
0.0
 11
-0.6080017089841944
 21
-18.61200332641583
 31
0.0
  0
LINE
  5
9E17
330
1F
100
AcDbEntity
  8
AM_0
100
AcDbLine
 10
-0.6090011596681859
 20
-18.67999649047883
 30
0.0
 11
-0.8199958801271986
 21
-18.63399887084984
 31
0.0
  0
LINE
  5
9E18
330
1F
100
AcDbEntity
  8
AM_0
100
AcDbLine
 10
-0.6349983215331924
 20
-18.78200149536083
 30
0.0
 11
-0.8359985351561828
 21
-18.68400192260784
 31
0.0
  0
LINE
  5
9E19
330
1F
100
AcDbEntity
  8
AM_0
100
AcDbLine
 10
-0.0809974670411926
 20
-18.09399795532184
 30
0.0
 11
-0.0000000000001863
 21
-19.22000503540085
 31
0.0
  0
LINE
  5
9E1A
330
1F
100
AcDbEntity
  8
AM_0
100
AcDbLine
 10
-0.6079978942871847
 20
-18.61200332641583
 30
0.0
 11
-0.0000000000001863
 21
-19.21999740600585
 31
0.0
  0
LINE
  5
9E1B
330
1F
100
AcDbEntity
  8
AM_0
100
AcDbLine
 10
-0.3650016784671804
 20
-19.63500595092784
 30
0.0
 11
-0.9849967956541854
 21
-19.01400375366183
 31
0.0
  0
LINE
  5
9E1C
330
1F
100
AcDbEntity
  8
AM_0
100
AcDbLine
 10
-0.2140007019041831
 20
-19.59799575805683
 30
0.0
 11
-0.3649978637691758
 21
-19.63499832153284
 31
0.0
  0
LINE
  5
9E1D
330
1F
100
AcDbEntity
  8
AM_0
100
AcDbLine
 10
-2.957000732422201
 20
-16.32400131225584
 30
0.0
 11
-3.011001586914205
 21
-15.77899932861285
 31
0.0
  0
LINE
  5
9E1E
330
1F
100
AcDbEntity
  8
AM_0
100
AcDbLine
 10
-3.357997894287193
 20
-16.34200286865285
 30
0.0
 11
-3.276996612549188
 21
-18.20500564575184
 31
0.0
  0
LINE
  5
9E1F
330
1F
100
AcDbEntity
  8
AM_0
100
AcDbLine
 10
-12.07600021362321
 20
-14.68600082397485
 30
0.0
 11
-11.99600219726617
 21
-16.45100784301786
 31
0.0
  0
LINE
  5
9E20
330
1F
100
AcDbEntity
  8
AM_0
100
AcDbLine
 10
-9.165000915527198
 20
-19.82000350952185
 30
0.0
 11
-9.784999847412169
 21
-18.29100418090786
 31
0.0
  0
LINE
  5
9E21
330
1F
100
AcDbEntity
  8
AM_0
100
AcDbLine
 10
-9.410003662109183
 20
-17.88100051879886
 30
0.0
 11
-9.615997314453187
 21
-17.83400344848586
 31
0.0
  0
LINE
  5
9E22
330
1F
100
AcDbEntity
  8
AM_0
100
AcDbLine
 10
-9.409000396728181
 20
-17.98300552368185
 30
0.0
 11
-9.619998931885172
 21
-17.88100051879886
 31
0.0
  0
LINE
  5
9E23
330
1F
100
AcDbEntity
  8
AM_0
100
AcDbLine
 10
-9.435001373291163
 20
-18.08200454711886
 30
0.0
 11
-9.635997772217171
 21
-17.92900466918986
 31
0.0
  0
LINE
  5
9E24
330
1F
100
AcDbEntity
  8
AM_0
100
AcDbLine
 10
-9.59899902343719
 20
-18.25300216674786
 30
0.0
 11
-9.709999084473176
 21
-18.01000595092786
 31
0.0
  0
LINE
  5
9E27
330
1F
100
AcDbEntity
  8
AM_0
100
AcDbLine
 10
-8.294002532959188
 20
-18.42100143432585
 30
0.0
 11
-8.289001464844181
 21
-18.44700241088886
 31
0.0
  0
LINE
  5
9E28
330
1F
100
AcDbEntity
  8
AM_0
100
AcDbLine
 10
-8.284999847412171
 20
-18.43400192260785
 30
0.0
 11
-8.289001464844181
 21
-18.44700241088886
 31
0.0
  0
LINE
  5
9E29
330
1F
100
AcDbEntity
  8
AM_0
100
AcDbLine
 10
-9.039997100830168
 20
-18.16800308227586
 30
0.0
 11
-9.081996917725183
 21
-17.85700607299786
 31
0.0
  0
LINE
  5
9E2A
330
1F
100
AcDbEntity
  8
AM_0
100
AcDbLine
 10
-8.473999023437189
 20
-18.58600234985386
 30
0.0
 11
-8.506000518799174
 21
-18.35600662231486
 31
0.0
  0
LINE
  5
9E2B
330
1F
100
AcDbEntity
  8
AM_0
100
AcDbLine
 10
-8.879001617432185
 20
-18.32100296020486
 30
0.0
 11
-8.7999992370612
 21
-19.41500473022486
 31
0.0
  0
LINE
  5
9E2C
330
1F
100
AcDbEntity
  8
AM_0
100
AcDbLine
 10
-9.014003753662194
 20
-19.78799819946286
 30
0.0
 11
-9.165000915527198
 21
-19.81999588012685
 31
0.0
  0
LINE
  5
9E2D
330
1F
100
AcDbEntity
  8
AM_0
100
AcDbLine
 10
-9.408000946045182
 20
-17.91500473022487
 30
0.0
 11
-8.7999992370612
 21
-19.41500473022486
 31
0.0
  0
LINE
  5
9E2E
330
1F
100
AcDbEntity
  8
AM_0
100
AcDbLine
 10
-9.165000915527198
 20
-19.82000350952185
 30
0.0
 11
-9.166000366211189
 21
-19.82000350952185
 31
0.0
  0
LINE
  5
9E2F
330
1F
100
AcDbEntity
  8
AM_0
100
AcDbLine
 10
-9.410003662109183
 20
-17.88100814819386
 30
0.0
 11
-9.415000915527178
 21
-17.75600814819386
 31
0.0
  0
LINE
  5
9E30
330
1F
100
AcDbEntity
  8
AM_0
100
AcDbLine
 10
-9.409000396728181
 20
-17.98299789428685
 30
0.0
 11
-9.408000946045182
 21
-17.91500473022487
 31
0.0
  0
LINE
  5
9E31
330
1F
100
AcDbEntity
  8
AM_0
100
AcDbLine
 10
-9.408000946045182
 20
-17.91500473022487
 30
0.0
 11
-9.409999847412171
 21
-17.88100814819386
 31
0.0
  0
LINE
  5
9E32
330
1F
100
AcDbEntity
  8
AM_0
100
AcDbLine
 10
-8.5180015563962
 20
-19.31000137329085
 30
0.0
 11
-8.522003173828212
 21
-19.34299850463886
 31
0.0
  0
LINE
  5
9E33
330
1F
100
AcDbEntity
  8
AM_0
100
AcDbLine
 10
-8.817001342773211
 20
-19.18000411987286
 30
0.0
 11
-8.764999389648211
 21
-19.09399795532185
 31
0.0
  0
LINE
  5
9E34
330
1F
100
AcDbEntity
  8
AM_0
100
AcDbLine
 10
-8.765003204346216
 20
-19.09399795532185
 30
0.0
 11
-8.828998565674199
 21
-19.06500625610386
 31
0.0
  0
LINE
  5
9E35
330
1F
100
AcDbEntity
  8
AM_0
100
AcDbLine
 10
-8.5219993591312
 20
-19.34300613403286
 30
0.0
 11
-8.547000885010193
 21
-19.34400558471684
 31
0.0
  0
LINE
  5
9E36
330
1F
100
AcDbEntity
  8
AM_0
100
AcDbLine
 10
-8.547000885010193
 20
-19.34399795532184
 30
0.0
 11
-8.832000732422216
 21
-19.59199905395486
 31
0.0
  0
LINE
  5
9E37
330
1F
100
AcDbEntity
  8
AM_0
100
AcDbLine
 10
-9.094001770019188
 20
-19.82000350952185
 30
0.0
 11
-9.139999389648208
 21
-19.82000350952185
 31
0.0
  0
LINE
  5
9E38
330
1F
100
AcDbEntity
  8
AM_0
100
AcDbLine
 10
-9.621002197266172
 20
-17.72200393676786
 30
0.0
 11
-9.61600112915017
 21
-17.83400344848586
 31
0.0
  0
LINE
  5
9E39
330
1F
100
AcDbEntity
  8
AM_0
100
AcDbLine
 10
-9.784999847412169
 20
-18.29100418090786
 30
0.0
 11
-9.829002380371184
 21
-18.29100418090786
 31
0.0
  0
LINE
  5
9E3A
330
1F
100
AcDbEntity
  8
AM_0
100
AcDbLine
 10
-9.829002380371184
 20
-18.29099655151386
 30
0.0
 11
-9.825000762939176
 21
-18.04300308227586
 31
0.0
  0
LINE
  5
9E3B
330
1F
100
AcDbEntity
  8
AM_0
100
AcDbLine
 10
-23.45800018310522
 20
-8.952999114989886
 30
0.0
 11
-23.50500106811522
 21
-9.415000915527903
 31
0.0
  0
LINE
  5
9E3C
330
1F
100
AcDbEntity
  8
AM_0
100
AcDbLine
 10
-29.67599868774422
 20
-8.124000549316908
 30
0.0
 11
-29.59600067138723
 21
-9.352005004882903
 31
0.0
  0
LINE
  5
9E3D
330
1F
100
AcDbEntity
  8
AM_0
100
AcDbLine
 10
-26.12199783325222
 20
-16.11400222778289
 30
0.0
 11
-18.62900161743219
 21
-16.14900207519487
 31
0.0
  0
LINE
  5
9E3E
330
1F
100
AcDbEntity
  8
AM_0
100
AcDbLine
 10
-26.11400222778319
 20
-15.84600067138689
 30
0.0
 11
-18.62500000000021
 21
-15.88100051879887
 31
0.0
  0
LINE
  5
9E3F
330
1F
100
AcDbEntity
  8
AM_0
100
AcDbLine
 10
-17.84000015258821
 20
-16.36599731445286
 30
0.0
 11
-17.9449996948242
 21
-15.68099975585986
 31
0.0
  0
LINE
  5
9E40
330
1F
100
AcDbEntity
  8
AM_0
100
AcDbLine
 10
-18.20899963378922
 20
-15.89200210571287
 30
0.0
 11
-18.42000198364319
 21
-15.74300003051787
 31
0.0
  0
LINE
  5
9E41
330
1F
100
AcDbEntity
  8
AM_0
100
AcDbLine
 10
-18.20999908447321
 20
-15.80000305175787
 30
0.0
 11
-18.41600036621121
 21
-15.70199966430687
 31
0.0
  0
LINE
  5
9E42
330
1F
100
AcDbEntity
  8
AM_0
100
AcDbLine
 10
-18.20999908447321
 20
-15.80000305175787
 30
0.0
 11
-18.22299957275417
 21
-15.53900527954086
 31
0.0
  0
LINE
  5
9E43
330
1F
100
AcDbEntity
  8
AM_0
100
AcDbLine
 10
-14.69900131225619
 20
-13.40399932861288
 30
0.0
 11
-14.70500183105519
 21
-13.47200012206986
 31
0.0
  0
LINE
  5
9E44
330
1F
100
AcDbEntity
  8
AM_0
100
AcDbLine
 10
-20.87599945068422
 20
-11.8640022277829
 30
0.0
 11
-20.79599761962918
 21
-13.4220046997069
 31
0.0
  0
LINE
  5
9E45
330
1F
100
AcDbEntity
  8
AM_0
100
AcDbLine
 10
-18.4279975891112
 20
-15.47700500488287
 30
0.0
 11
-18.41600036621121
 21
-15.70200347900387
 31
0.0
  0
LINE
  5
9E46
330
1F
100
AcDbEntity
  8
AM_0
100
AcDbLine
 10
-17.34700012207017
 20
-18.44400405883788
 30
0.0
 11
-17.89399719238321
 21
-19.53000259399386
 31
0.0
  0
LINE
  5
9E47
330
1F
100
AcDbEntity
  8
AM_0
100
AcDbLine
 10
-18.20800018310519
 20
-15.83100128173788
 30
0.0
 11
-17.60000228881816
 21
-18.10499954223586
 31
0.0
  0
LINE
  5
9E48
330
1F
100
AcDbEntity
  8
AM_0
100
AcDbLine
 10
-17.1089973449712
 20
-16.97700119018587
 30
0.0
 11
-17.08900070190417
 21
-17.07500839233387
 31
0.0
  0
LINE
  5
9E49
330
1F
100
AcDbEntity
  8
AM_0
100
AcDbLine
 10
-17.08799743652319
 20
-17.01700210571289
 30
0.0
 11
-17.08900070190417
 21
-17.07500076293988
 31
0.0
  0
LINE
  5
9E4A
330
1F
100
AcDbEntity
  8
AM_0
100
AcDbLine
 10
-17.4010009765622
 20
-16.78500747680687
 30
0.0
 11
-17.27400207519518
 21
-17.67000198364288
 31
0.0
  0
LINE
  5
9E4B
330
1F
100
AcDbEntity
  8
AM_0
100
AcDbLine
 10
-17.56499862670918
 20
-18.15099716186487
 30
0.0
 11
-17.60400009155316
 21
-18.13399887084987
 31
0.0
  0
LINE
  5
9E4C
330
1F
100
AcDbEntity
  8
AM_0
100
AcDbLine
 10
-17.70700073242219
 20
-18.37500381469686
 30
0.0
 11
-17.68200302124018
 21
-18.38499832153286
 31
0.0
  0
LINE
  5
9E4D
330
1F
100
AcDbEntity
  8
AM_0
100
AcDbLine
 10
-17.68199539184619
 20
-18.38500595092786
 30
0.0
 11
-17.56499481201218
 21
-18.15099716186487
 31
0.0
  0
LINE
  5
9E4E
330
1F
100
AcDbEntity
  8
AM_0
100
AcDbLine
 10
-17.32200241088916
 20
-18.44299697875988
 30
0.0
 11
-17.34700012207017
 21
-18.44399642944387
 31
0.0
  0
LINE
  5
9E4F
330
1F
100
AcDbEntity
  8
AM_0
100
AcDbLine
 10
-17.31800079345718
 20
-18.40300369262687
 30
0.0
 11
-17.32199859619118
 21
-18.44300460815387
 31
0.0
  0
LINE
  5
9E50
330
1F
100
AcDbEntity
  8
AM_0
100
AcDbLine
 10
-17.68099975585919
 20
-17.05200576782185
 30
0.0
 11
-17.74099731445321
 21
-16.71900558471686
 31
0.0
  0
LINE
  5
9E51
330
1F
100
AcDbEntity
  8
AM_0
100
AcDbLine
 10
-17.68099975585919
 20
-17.05200576782185
 30
0.0
 11
-17.60000228881816
 21
-18.10499954223586
 31
0.0
  0
LINE
  5
9E52
330
1F
100
AcDbEntity
  8
AM_0
100
AcDbLine
 10
-17.7360000610352
 20
-16.71899795532186
 30
0.0
 11
-17.68099975585919
 21
-17.05200576782185
 31
0.0
  0
LINE
  5
9E54
330
1F
100
AcDbEntity
  8
AM_0
100
AcDbLine
 10
-18.7259979248052
 20
-18.90200424194387
 30
0.0
 11
-18.49199676513717
 21
-18.43899917602587
 31
0.0
  0
LINE
  5
9E55
330
1F
100
AcDbEntity
  8
AM_0
100
AcDbLine
 10
-18.7259979248052
 20
-18.90200424194387
 30
0.0
 11
-18.82099914550818
 21
-18.41900253295887
 31
0.0
  0
LINE
  5
9E56
330
1F
100
AcDbEntity
  8
AM_0
100
AcDbLine
 10
-18.62899780273419
 20
-16.14900207519487
 30
0.0
 11
-18.62500000000021
 21
-15.88100051879887
 31
0.0
  0
LINE
  5
9E57
330
1F
100
AcDbEntity
  8
AM_0
100
AcDbLine
 10
-18.39900207519518
 20
-16.12599945068388
 30
0.0
 11
-18.51000213623019
 21
-15.85500335693387
 31
0.0
  0
LINE
  5
9E58
330
1F
100
AcDbEntity
  8
AM_0
100
AcDbLine
 10
-18.58499908447321
 20
-16.15100097656287
 30
0.0
 11
-18.62900161743219
 21
-16.14900207519487
 31
0.0
  0
LINE
  5
9E59
330
1F
100
AcDbEntity
  8
AM_0
100
AcDbLine
 10
-18.2350006103522
 20
-15.98100280761687
 30
0.0
 11
-18.43600082397522
 21
-15.78499984741188
 31
0.0
  0
LINE
  5
9E5A
330
1F
100
AcDbEntity
  8
AM_0
100
AcDbLine
 10
-18.20800018310519
 20
-15.83100128173788
 30
0.0
 11
-18.20999908447321
 21
-15.80000305175787
 31
0.0
  0
LINE
  5
9E5B
330
1F
100
AcDbEntity
  8
AM_0
100
AcDbLine
 10
-18.20899963378922
 20
-15.89200210571287
 30
0.0
 11
-18.20800018310519
 21
-15.83100128173788
 31
0.0
  0
LINE
  5
9E5C
330
1F
100
AcDbEntity
  8
AM_0
100
AcDbLine
 10
-17.96500015258818
 20
-18.46899795532187
 30
0.0
 11
-18.58499908447321
 21
-16.15100097656287
 31
0.0
  0
LINE
  5
9E5D
330
1F
100
AcDbEntity
  8
AM_0
100
AcDbLine
 10
-17.81399917602517
 20
-18.44499588012686
 30
0.0
 11
-17.96500015258818
 21
-18.46899795532187
 31
0.0
  0
LINE
  5
9E5E
330
1F
100
AcDbEntity
  8
AM_0
100
AcDbLine
 10
-26.77899932861321
 20
-15.8640022277829
 30
0.0
 11
-26.58499908447322
 21
-15.66500091552791
 31
0.0
  0
LINE
  5
9E5F
330
1F
100
AcDbEntity
  8
AM_0
100
AcDbLine
 10
-27.52599716186519
 20
-17.1810035705569
 30
0.0
 11
-27.01099777221719
 21
-15.66400146484389
 31
0.0
  0
LINE
  5
9E60
330
1F
100
AcDbEntity
  8
AM_0
100
AcDbLine
 10
-27.52599716186519
 20
-17.1810035705569
 30
0.0
 11
-27.90299987793018
 21
-15.57800674438492
 31
0.0
  0
LINE
  5
9E61
330
1F
100
AcDbEntity
  8
AM_0
100
AcDbLine
 10
-25.95299911499023
 20
-14.12400436401388
 30
0.0
 11
-25.88899993896521
 21
-14.38100051879888
 31
0.0
  0
LINE
  5
9E62
330
1F
100
AcDbEntity
  8
AM_0
100
AcDbLine
 10
-26.63999938964821
 20
-13.29599761962891
 30
0.0
 11
-26.8470001220702
 21
-12.23200225830089
 31
0.0
  0
LINE
  5
9E63
330
1F
100
AcDbEntity
  8
AM_0
100
AcDbLine
 10
-26.31999969482421
 20
-13.87099838256888
 30
0.0
 11
-26.07399749755921
 21
-15.38399887084988
 31
0.0
  0
LINE
  5
9E64
330
1F
100
AcDbEntity
  8
AM_0
100
AcDbLine
 10
-26.76499938964819
 20
-15.68799972534191
 30
0.0
 11
-27.38499832153321
 21
-12.75900650024391
 31
0.0
  0
LINE
  5
9E65
330
1F
100
AcDbEntity
  8
AM_0
100
AcDbLine
 10
-26.76499938964819
 20
-15.68799972534191
 30
0.0
 11
-26.7660026550292
 21
-15.68799972534191
 31
0.0
  0
LINE
  5
9E66
330
1F
100
AcDbEntity
  8
AM_0
100
AcDbLine
 10
-26.61400222778318
 20
-15.6730003356939
 30
0.0
 11
-26.76499938964819
 21
-15.68799972534191
 31
0.0
  0
LINE
  5
9E67
330
1F
100
AcDbEntity
  8
AM_0
100
AcDbLine
 10
-27.01000213623022
 20
-12.4950027465819
 30
0.0
 11
-27.03499984741222
 21
-12.11199951171889
 31
0.0
  0
LINE
  5
9E68
330
1F
100
AcDbEntity
  8
AM_0
100
AcDbLine
 10
-27.23699951171921
 20
-12.0320014953609
 30
0.0
 11
-27.2159996032712
 21
-12.3530006408689
 31
0.0
  0
LINE
  5
9E69
330
1F
100
AcDbEntity
  8
AM_0
100
AcDbLine
 10
-26.48100280761721
 20
-14.50300216674789
 30
0.0
 11
-26.86100006103522
 21
-12.22400283813491
 31
0.0
  0
LINE
  5
9E6A
330
1F
100
AcDbEntity
  8
AM_0
100
AcDbLine
 10
-26.4809989929202
 20
-14.50300598144489
 30
0.0
 11
-26.39999771118219
 21
-15.39300155639689
 31
0.0
  0
LINE
  5
9E6B
330
1F
100
AcDbEntity
  8
AM_0
100
AcDbLine
 10
-26.90500259399418
 20
-15.6800003051759
 30
0.0
 11
-26.89700317382822
 21
-15.6749992370609
 31
0.0
  0
LINE
  5
9E6C
330
1F
100
AcDbEntity
  8
AM_0
100
AcDbLine
 10
-26.5849952697752
 20
-15.66500473022489
 30
0.0
 11
-26.5880012512212
 21
-15.6630020141599
 31
0.0
  0
LINE
  5
9E6D
330
1F
100
AcDbEntity
  8
AM_0
100
AcDbLine
 10
-26.90699768066422
 20
-15.67400360107391
 30
0.0
 11
-26.9049987792972
 21
-15.6800041198729
 31
0.0
  0
LINE
  5
9E6E
330
1F
100
AcDbEntity
  8
AM_0
100
AcDbLine
 10
-27.00900268554722
 20
-12.57000350952191
 30
0.0
 11
-27.22000122070324
 21
-12.3850021362309
 31
0.0
  0
LINE
  5
9E6F
330
1F
100
AcDbEntity
  8
AM_0
100
AcDbLine
 10
-27.00999832153321
 20
-12.4950027465819
 30
0.0
 11
-27.2159996032712
 21
-12.3530006408689
 31
0.0
  0
LINE
  5
9E70
330
1F
100
AcDbEntity
  8
AM_0
100
AcDbLine
 10
-27.00799942016621
 20
-12.5210037231449
 30
0.0
 11
-27.01000213623022
 21
-12.4950027465819
 31
0.0
  0
LINE
  5
9E71
330
1F
100
AcDbEntity
  8
AM_0
100
AcDbLine
 10
-27.00899887085024
 20
-12.57000350952191
 30
0.0
 11
-27.00799942016621
 21
-12.5210037231449
 31
0.0
  0
LINE
  5
9E72
330
1F
100
AcDbEntity
  8
AM_0
100
AcDbLine
 10
-27.00799942016621
 20
-12.5210037231449
 30
0.0
 11
-26.39999771118219
 21
-15.39300537109388
 31
0.0
  0
LINE
  5
9E73
330
1F
100
AcDbEntity
  8
AM_0
100
AcDbLine
 10
-27.42900085449222
 20
-12.7560005187989
 30
0.0
 11
-27.42499923706123
 21
-12.48900222778291
 31
0.0
  0
LINE
  5
9E74
330
1F
100
AcDbEntity
  8
AM_0
100
AcDbLine
 10
-27.19899749755922
 20
-12.7500038146969
 30
0.0
 11
-27.30999755859421
 21
-12.4710044860839
 31
0.0
  0
LINE
  5
9E75
330
1F
100
AcDbEntity
  8
AM_0
100
AcDbLine
 10
-27.38500213623021
 20
-12.7590026855469
 30
0.0
 11
-27.42900085449222
 21
-12.7560005187989
 31
0.0
  0
LINE
  5
9E76
330
1F
100
AcDbEntity
  8
AM_0
100
AcDbLine
 10
-27.03499984741222
 20
-12.6410026550289
 30
0.0
 11
-27.23600006103522
 21
-12.4180030822759
 31
0.0
  0
LINE
  5
9E79
330
1F
100
AcDbEntity
  8
AM_0
100
AcDbLine
 10
-27.8230018615722
 20
-15.91600036621092
 30
0.0
 11
-27.96500015258819
 21
-16.8770027160649
 31
0.0
  0
LINE
  5
9E7A
330
1F
100
AcDbEntity
  8
AM_0
100
AcDbLine
 10
-26.11800003051819
 20
-16.07099914550788
 30
0.0
 11
-26.1220016479492
 21
-16.11400222778289
 31
0.0
  0
LINE
  5
9E7B
330
1F
100
AcDbEntity
  8
AM_0
100
AcDbLine
 10
-26.1220016479492
 20
-16.11400222778289
 30
0.0
 11
-26.14699935913118
 21
-16.11400222778289
 31
0.0
  0
LINE
  5
9E7C
330
1F
100
AcDbEntity
  8
AM_0
100
AcDbLine
 10
-26.48200225830122
 20
-16.0580024719239
 30
0.0
 11
-26.36500167846719
 21
-15.80099868774388
 31
0.0
  0
LINE
  5
9E7D
330
1F
100
AcDbEntity
  8
AM_0
100
AcDbLine
 10
-26.14700317382822
 20
-16.11400222778289
 30
0.0
 11
-26.69400405883819
 21
-17.7260017395019
 31
0.0
  0
LINE
  5
9E7E
330
1F
100
AcDbEntity
  8
AM_0
100
AcDbLine
 10
-26.11400222778319
 20
-15.84600067138689
 30
0.0
 11
-26.11400222778319
 21
-15.84700012206989
 31
0.0
  0
LINE
  5
9E7F
330
1F
100
AcDbEntity
  8
AM_0
100
AcDbLine
 10
-52.52199935913122
 20
-2.820003509521955
 30
0.0
 11
-45.0289993286132
 21
-3.344001770019943
 31
0.0
  0
LINE
  5
9E80
330
1F
100
AcDbEntity
  8
AM_0
100
AcDbLine
 10
-52.51399993896523
 20
-2.615001678466955
 30
0.0
 11
-45.0250015258792
 21
-3.138999938964943
 31
0.0
  0
LINE
  5
9E81
330
1F
100
AcDbEntity
  8
AM_0
100
AcDbLine
 10
-35.2920017242432
 20
-9.872001647948922
 30
0.0
 11
-34.87400245666524
 21
-11.90600204467793
 31
0.0
  0
LINE
  5
9E82
330
1F
100
AcDbEntity
  8
AM_0
100
AcDbLine
 10
-43.74699974060123
 20
-7.987003326415939
 30
0.0
 11
-44.29399681091321
 21
-10.24600219726594
 31
0.0
  0
LINE
  5
9E83
330
1F
100
AcDbEntity
  8
AM_0
100
AcDbLine
 10
-35.56500053405823
 20
-11.69100189208991
 30
0.0
 11
-36.18500328064021
 21
-8.379001617431915
 31
0.0
  0
LINE
  5
9E84
330
1F
100
AcDbEntity
  8
AM_0
100
AcDbLine
 10
-35.80800056457521
 20
-8.240001678466928
 30
0.0
 11
-35.2000026702882
 21
-11.48900222778291
 31
0.0
  0
LINE
  5
9E85
330
1F
100
AcDbEntity
  8
AM_0
100
AcDbLine
 10
-35.2809982299802
 20
-10.8290023803709
 30
0.0
 11
-35.79700279235821
 21
-7.780002593993915
 31
0.0
  0
LINE
  5
9E86
330
1F
100
AcDbEntity
  8
AM_0
100
AcDbLine
 10
-43.72200202941921
 20
-7.987003326415939
 30
0.0
 11
-36.22899818420424
 21
-8.374004364013917
 31
0.0
  0
LINE
  5
9E87
330
1F
100
AcDbEntity
  8
AM_0
100
AcDbLine
 10
-43.71400070190424
 20
-7.742004394530946
 30
0.0
 11
-36.22500038147022
 21
-8.129001617431915
 31
0.0
  0
LINE
  5
9E88
330
1F
100
AcDbEntity
  8
AM_0
100
AcDbLine
 10
-32.27700233459522
 20
-4.275001525878908
 30
0.0
 11
-32.30500221252419
 21
-4.628002166747906
 31
0.0
  0
LINE
  5
9E89
330
1F
100
AcDbEntity
  8
AM_0
100
AcDbLine
 10
-35.4400005340582
 20
-9.196002960204921
 30
0.0
 11
-35.71500205993622
 21
-8.264003753661928
 31
0.0
  0
LINE
  5
9E8A
330
1F
100
AcDbEntity
  8
AM_0
100
AcDbLine
 10
-36.2290000915532
 20
-8.374004364013917
 30
0.0
 11
-36.22499847412122
 21
-8.129001617431915
 31
0.0
  0
LINE
  5
9E8B
330
1F
100
AcDbEntity
  8
AM_0
100
AcDbLine
 10
-35.99899864196821
 20
-8.386001586913907
 30
0.0
 11
-36.10999870300324
 21
-8.121002197265926
 31
0.0
  0
LINE
  5
9E8C
330
1F
100
AcDbEntity
  8
AM_0
100
AcDbLine
 10
-36.18500328064021
 20
-8.379001617431915
 30
0.0
 11
-36.2290000915532
 21
-8.374004364013917
 31
0.0
  0
LINE
  5
9E8D
330
1F
100
AcDbEntity
  8
AM_0
100
AcDbLine
 10
-35.83500289917022
 20
-8.322002410888915
 30
0.0
 11
-36.03600120544422
 21
-8.088005065917929
 31
0.0
  0
LINE
  5
9E8E
330
1F
100
AcDbEntity
  8
AM_0
100
AcDbLine
 10
-35.80899810791024
 20
-8.275001525878922
 30
0.0
 11
-36.02000045776423
 21
-8.068000793456921
 31
0.0
  0
LINE
  5
9E8F
330
1F
100
AcDbEntity
  8
AM_0
100
AcDbLine
 10
-35.81000328064021
 20
-8.222999572753922
 30
0.0
 11
-36.01599884033222
 21
-8.047000885009925
 31
0.0
  0
LINE
  5
9E90
330
1F
100
AcDbEntity
  8
AM_0
100
AcDbLine
 10
-35.80799674987824
 20
-8.240001678466928
 30
0.0
 11
-35.80999946594224
 21
-8.223003387450919
 31
0.0
  0
LINE
  5
9E91
330
1F
100
AcDbEntity
  8
AM_0
100
AcDbLine
 10
-35.80899810791024
 20
-8.275001525878922
 30
0.0
 11
-35.80799865722721
 21
-8.240001678466928
 31
0.0
  0
LINE
  5
9E92
330
1F
100
AcDbEntity
  8
AM_0
100
AcDbLine
 10
-35.80999946594224
 20
-8.223003387450919
 30
0.0
 11
-35.85799980163621
 21
-7.738002777099909
 31
0.0
  0
LINE
  5
9E93
330
1F
100
AcDbEntity
  8
AM_0
100
AcDbLine
 10
-36.05599975585922
 20
-7.650001525878924
 30
0.0
 11
-36.01599884033222
 21
-8.047000885009925
 31
0.0
  0
LINE
  5
9E94
330
1F
100
AcDbEntity
  8
AM_0
100
AcDbLine
 10
-38.47600173950221
 20
-3.753002166747919
 30
0.0
 11
-38.39599990844721
 21
-4.557998657226917
 31
0.0
  0
LINE
  5
9E95
330
1F
100
AcDbEntity
  8
AM_0
100
AcDbLine
 10
-44.47399902343723
 20
-4.061004638671942
 30
0.0
 11
-44.2400016784672
 21
-4.384002685546941
 31
0.0
  0
LINE
  5
9E96
330
1F
100
AcDbEntity
  8
AM_0
100
AcDbLine
 10
-44.36499977111821
 20
-6.789001464843932
 30
0.0
 11
-44.98499870300323
 21
-3.349002838134949
 31
0.0
  0
LINE
  5
9E97
330
1F
100
AcDbEntity
  8
AM_0
100
AcDbLine
 10
-44.00000190734922
 20
-6.696002960204944
 30
0.0
 11
-44.60700035095221
 21
-3.322002410888939
 31
0.0
  0
LINE
  5
9E98
330
1F
100
AcDbEntity
  8
AM_0
100
AcDbLine
 10
-41.08700370788621
 20
0.7789993286130564
 30
0.0
 11
-41.1050014495852
 21
0.5159988403320478
 31
0.0
  0
LINE
  5
9E99
330
1F
100
AcDbEntity
  8
AM_0
100
AcDbLine
 10
-44.7560005187992
 20
-2.776004791259949
 30
0.0
 11
-44.82300186157223
 21
-2.687004089355935
 31
0.0
  0
LINE
  5
9E9A
330
1F
100
AcDbEntity
  8
AM_0
100
AcDbLine
 10
-44.98500061035221
 20
-3.349002838134949
 30
0.0
 11
-45.02899742126521
 21
-3.344001770019943
 31
0.0
  0
LINE
  5
9E9B
330
1F
100
AcDbEntity
  8
AM_0
100
AcDbLine
 10
-45.0289993286132
 20
-3.344001770019943
 30
0.0
 11
-45.0250015258792
 21
-3.138999938964943
 31
0.0
  0
LINE
  5
9E9C
330
1F
100
AcDbEntity
  8
AM_0
100
AcDbLine
 10
-44.79899978637722
 20
-3.372001647948947
 30
0.0
 11
-44.9099998474122
 21
-3.142002105712947
 31
0.0
  0
LINE
  5
9E9D
330
1F
100
AcDbEntity
  8
AM_0
100
AcDbLine
 10
-44.63499832153321
 20
-3.359004974364932
 30
0.0
 11
-44.8359985351562
 21
-3.133003234862953
 31
0.0
  0
LINE
  5
9E9E
330
1F
100
AcDbEntity
  8
AM_0
100
AcDbLine
 10
-44.6090011596682
 20
-3.338001251220941
 30
0.0
 11
-44.8199996948242
 21
-3.125003814696937
 31
0.0
  0
LINE
  5
9E9F
330
1F
100
AcDbEntity
  8
AM_0
100
AcDbLine
 10
-44.6069984436032
 20
-3.321998596191944
 30
0.0
 11
-44.6079998016362
 21
-3.321002960204948
 31
0.0
  0
LINE
  5
9EA0
330
1F
100
AcDbEntity
  8
AM_0
100
AcDbLine
 10
-44.60900497436521
 20
-3.338001251220941
 30
0.0
 11
-44.60700225830121
 21
-3.322002410888939
 31
0.0
  0
LINE
  5
9EA1
330
1F
100
AcDbEntity
  8
AM_0
100
AcDbLine
 10
-44.61000061035219
 20
-3.313003540038932
 30
0.0
 11
-44.8160018920902
 21
-3.117004394530949
 31
0.0
  0
LINE
  5
9EA2
330
1F
100
AcDbEntity
  8
AM_0
100
AcDbLine
 10
-44.60800361633324
 20
-3.321002960204948
 30
0.0
 11
-44.6100025177002
 21
-3.313003540038932
 31
0.0
  0
LINE
  5
9EA3
330
1F
100
AcDbEntity
  8
AM_0
100
AcDbLine
 10
-44.7560005187992
 20
-2.776000976562939
 30
0.0
 11
-44.8699970245362
 21
-2.668003082275943
 31
0.0
  0
LINE
  5
9EA4
330
1F
100
AcDbEntity
  8
AM_0
100
AcDbLine
 10
-44.7350006103522
 20
-2.815006256103939
 30
0.0
 11
-44.7560005187992
 21
-2.776004791259949
 31
0.0
  0
LINE
  5
9EA5
330
1F
100
AcDbEntity
  8
AM_0
100
AcDbLine
 10
-44.93399810791022
 20
-2.649002075194941
 30
0.0
 11
-44.8160018920902
 21
-3.11700057983394
 31
0.0
  0
LINE
  5
9EA6
330
1F
100
AcDbEntity
  8
AM_0
100
AcDbLine
 10
-44.60999870300322
 20
-3.312999725341951
 30
0.0
 11
-44.73499870300322
 21
-2.815002441405948
 31
0.0
  0
LINE
  5
9EA7
330
1F
100
AcDbEntity
  8
AM_0
100
AcDbLine
 10
-44.09999847412122
 20
-6.13700103759795
 30
0.0
 11
-43.67399978637724
 21
-7.506004333495932
 31
0.0
  0
LINE
  5
9EA8
330
1F
100
AcDbEntity
  8
AM_0
100
AcDbLine
 10
-44.20200157165522
 20
-5.163002014159938
 30
0.0
 11
-44.22499847412123
 21
-5.446002960204946
 31
0.0
  0
LINE
  5
9EA9
330
1F
100
AcDbEntity
  8
AM_0
100
AcDbLine
 10
-44.20199775695823
 20
-5.163002014159938
 30
0.0
 11
-43.48899650573721
 21
-5.945003509521947
 31
0.0
  0
LINE
  5
9EAA
330
1F
100
AcDbEntity
  8
AM_0
100
AcDbLine
 10
-44.49500083923322
 20
-6.978000640868938
 30
0.0
 11
-44.51599884033223
 21
-6.766002655028938
 31
0.0
  0
LINE
  5
9EAB
330
1F
100
AcDbEntity
  8
AM_0
100
AcDbLine
 10
-45.87300109863323
 20
-8.737003326415932
 30
0.0
 11
-44.73699760437023
 21
-7.068000793456943
 31
0.0
  0
LINE
  5
9EAC
330
1F
100
AcDbEntity
  8
AM_0
100
AcDbLine
 10
-45.87300109863323
 20
-8.737003326415932
 30
0.0
 11
-45.98299980163621
 21
-8.403003692626928
 31
0.0
  0
LINE
  5
9EAD
330
1F
100
AcDbEntity
  8
AM_0
100
AcDbLine
 10
-45.2350006103522
 20
-6.659000396728941
 30
0.0
 11
-45.98300170898422
 21
-8.402999877929932
 31
0.0
  0
LINE
  5
9EAE
330
1F
100
AcDbEntity
  8
AM_0
100
AcDbLine
 10
-45.24399757385321
 20
-6.658004760741945
 30
0.0
 11
-45.98199653625521
 21
-8.377002716064939
 31
0.0
  0
LINE
  5
9EAF
330
1F
100
AcDbEntity
  8
AM_0
100
AcDbLine
 10
-45.98300361633322
 20
-8.403003692626928
 30
0.0
 11
-45.98200035095222
 21
-8.377002716064939
 31
0.0
  0
LINE
  5
9EB0
330
1F
100
AcDbEntity
  8
AM_0
100
AcDbLine
 10
-44.77099990844724
 20
-6.728000640868939
 30
0.0
 11
-44.73699951171922
 21
-7.068004608153938
 31
0.0
  0
LINE
  5
9EB1
330
1F
100
AcDbEntity
  8
AM_0
100
AcDbLine
 10
-43.72200012207021
 20
-7.987003326415939
 30
0.0
 11
-43.74700164794921
 21
-7.987003326415939
 31
0.0
  0
LINE
  5
9EB2
330
1F
100
AcDbEntity
  8
AM_0
100
AcDbLine
 10
-44.08200073242223
 20
-7.946002960204945
 30
0.0
 11
-43.96500015258822
 21
-7.707000732421938
 31
0.0
  0
LINE
  5
9EB3
330
1F
100
AcDbEntity
  8
AM_0
100
AcDbLine
 10
-44.37900161743222
 20
-7.833003997802944
 30
0.0
 11
-44.18500137329121
 21
-7.626003265380941
 31
0.0
  0
LINE
  5
9EB4
330
1F
100
AcDbEntity
  8
AM_0
100
AcDbLine
 10
-44.50500297546422
 20
-7.730003356933947
 30
0.0
 11
-44.28799819946322
 21
-7.553001403808946
 31
0.0
  0
LINE
  5
9EB5
330
1F
100
AcDbEntity
  8
AM_0
100
AcDbLine
 10
-44.56100082397521
 20
-7.617004394530949
 30
0.0
 11
-44.55700111389222
 21
-7.631999969482945
 31
0.0
  0
LINE
  5
9EB6
330
1F
100
AcDbEntity
  8
AM_0
100
AcDbLine
 10
-44.5610027313232
 20
-7.617000579833938
 30
0.0
 11
-44.34200096130423
 21
-7.474998474120934
 31
0.0
  0
LINE
  5
9EB7
330
1F
100
AcDbEntity
  8
AM_0
100
AcDbLine
 10
-43.71799850463924
 20
-7.948001861571933
 30
0.0
 11
-43.72200012207021
 21
-7.986999511718929
 31
0.0
  0
LINE
  5
9EB8
330
1F
100
AcDbEntity
  8
AM_0
100
AcDbLine
 10
-45.12599945068421
 20
-9.981002807616944
 30
0.0
 11
-44.5569992065432
 21
-7.632003784179941
 31
0.0
  0
LINE
  5
9EB9
330
1F
100
AcDbEntity
  8
AM_0
100
AcDbLine
 10
-44.71400260925324
 20
-7.120002746581943
 30
0.0
 11
-44.5610027313232
 21
-7.617004394530949
 31
0.0
  0
LINE
  5
9EBA
330
1F
100
AcDbEntity
  8
AM_0
100
AcDbLine
 10
-44.71400070190423
 20
-7.119998931884947
 30
0.0
 11
-44.49500274658222
 21
-6.978000640868938
 31
0.0
  0
LINE
  5
9EBB
330
1F
100
AcDbEntity
  8
AM_0
100
AcDbLine
 10
-44.34199905395522
 20
-7.475002288818938
 30
0.0
 11
-44.49499893188522
 21
-6.978004455566944
 31
0.0
  0
LINE
  5
9EBC
330
1F
100
AcDbEntity
  8
AM_0
100
AcDbLine
 10
-44.73699951171922
 20
-7.068000793456943
 30
0.0
 11
-44.71400260925324
 21
-7.119998931884947
 31
0.0
  0
LINE
  5
9EBD
330
1F
100
AcDbEntity
  8
AM_0
100
AcDbLine
 10
-44.21400260925323
 20
-6.793998718261942
 30
0.0
 11
-44.36500167846722
 21
-6.789001464843932
 31
0.0
  0
LINE
  5
9EBE
330
1F
100
AcDbEntity
  8
AM_0
100
AcDbLine
 10
-32.5649986267092
 20
-14.9179992675779
 30
0.0
 11
-35.01499748230018
 21
-18.36400222778291
 31
0.0
  0
LINE
  5
9EBF
330
1F
100
AcDbEntity
  8
AM_0
100
AcDbLine
 10
-34.86899948120121
 20
-10.09300231933593
 30
0.0
 11
-34.68899917602521
 21
-10.57300567626992
 31
0.0
  0
LINE
  5
9EC0
330
1F
100
AcDbEntity
  8
AM_0
100
AcDbLine
 10
-35.54199981689423
 20
-11.89100265502891
 30
0.0
 11
-35.58300018310522
 21
-11.68900299072292
 31
0.0
  0
LINE
  5
9EC1
330
1F
100
AcDbEntity
  8
AM_0
100
AcDbLine
 10
-34.94699859619123
 20
-12.53599929809591
 30
0.0
 11
-35.4940013885502
 21
-14.55000305175791
 31
0.0
  0
LINE
  5
9EC2
330
1F
100
AcDbEntity
  8
AM_0
100
AcDbLine
 10
-36.32600021362319
 20
-14.12799835205091
 30
0.0
 11
-35.75699996948224
 21
-12.03400039672891
 31
0.0
  0
LINE
  5
9EC3
330
1F
100
AcDbEntity
  8
AM_0
100
AcDbLine
 10
-34.91400146484424
 20
-12.26900100707993
 30
0.0
 11
-34.91400146484424
 21
-12.27000045776392
 31
0.0
  0
LINE
  5
9EC4
330
1F
100
AcDbEntity
  8
AM_0
100
AcDbLine
 10
-37.07300186157224
 20
-11.82600402831992
 30
0.0
 11
-36.60800170898421
 21
-11.55800247192392
 31
0.0
  0
LINE
  5
9EC5
330
1F
100
AcDbEntity
  8
AM_0
100
AcDbLine
 10
-37.07300186157224
 20
-11.82600021362292
 30
0.0
 11
-37.13299942016619
 21
-11.49100112915092
 31
0.0
  0
LINE
  5
9EC6
330
1F
100
AcDbEntity
  8
AM_0
100
AcDbLine
 10
-35.83300018310522
 20
-11.65700149536091
 30
0.0
 11
-35.76100158691424
 21
-12.0110015869139
 31
0.0
  0
LINE
  5
9EC7
330
1F
100
AcDbEntity
  8
AM_0
100
AcDbLine
 10
-34.91799736022924
 20
-12.49300003051792
 30
0.0
 11
-34.92199897766121
 21
-12.53600311279292
 31
0.0
  0
LINE
  5
9EC8
330
1F
100
AcDbEntity
  8
AM_0
100
AcDbLine
 10
-34.92200088501022
 20
-12.53600311279292
 30
0.0
 11
-34.94699859619123
 21
-12.53600311279292
 31
0.0
  0
LINE
  5
9EC9
330
1F
100
AcDbEntity
  8
AM_0
100
AcDbLine
 10
-35.28200149536124
 20
-12.48600387573292
 30
0.0
 11
-35.16500091552723
 21
-12.22800064086891
 31
0.0
  0
LINE
  5
9ECA
330
1F
100
AcDbEntity
  8
AM_0
100
AcDbLine
 10
-35.57899856567424
 20
-12.32600402831991
 30
0.0
 11
-35.38499832153324
 21
-12.11500167846692
 31
0.0
  0
LINE
  5
9ECB
330
1F
100
AcDbEntity
  8
AM_0
100
AcDbLine
 10
-35.70500183105524
 20
-12.17699813842792
 30
0.0
 11
-35.48799896240223
 21
-12.0089988708499
 31
0.0
  0
LINE
  5
9ECC
330
1F
100
AcDbEntity
  8
AM_0
100
AcDbLine
 10
-35.76100158691424
 20
-12.0110015869139
 30
0.0
 11
-35.75699996948224
 21
-12.03400039672891
 31
0.0
  0
LINE
  5
9ECD
330
1F
100
AcDbEntity
  8
AM_0
100
AcDbLine
 10
-35.76100158691424
 20
-12.01100540161091
 30
0.0
 11
-35.54199790954624
 21
-11.89100265502891
 31
0.0
  0
LINE
  5
9ECE
330
1F
100
AcDbEntity
  8
AM_0
100
AcDbLine
 10
-35.56499862670924
 20
-11.69100189208991
 30
0.0
 11
-35.56600189209022
 21
-11.69100189208991
 31
0.0
  0
LINE
  5
9ECF
330
1F
100
AcDbEntity
  8
AM_0
100
AcDbLine
 10
-35.41400337219224
 20
-11.68600463867191
 30
0.0
 11
-35.56499671936024
 21
-11.69100189208991
 31
0.0
  0
LINE
  5
9ED0
330
1F
100
AcDbEntity
  8
AM_0
100
AcDbLine
 10
-35.2809982299802
 20
-10.8290023803709
 30
0.0
 11
-35.2000007629392
 21
-11.48900222778291
 31
0.0
  0
LINE
  5
9ED3
330
1F
100
AcDbEntity
  8
AM_0
100
AcDbLine
 10
-36.7650012969972
 20
-18.37800216674792
 30
0.0
 11
-35.01499938964818
 21
-18.36400222778291
 31
0.0
  0
LINE
  5
9ED4
330
1F
100
AcDbEntity
  8
AM_0
100
AcDbLine
 10
-41.19800376892119
 20
-14.05700302123992
 30
0.0
 11
-43.81500053405817
 21
-18.46699905395494
 31
0.0
  0
LINE
  5
9ED7
330
1F
100
AcDbEntity
  8
AM_0
100
AcDbLine
 10
-54.26300048828101
 20
-3.531002044677958
 30
0.0
 11
-55.1150021553037
 21
-3.472003936767961
 31
0.0
  0
LINE
  5
9ED8
330
1F
100
AcDbEntity
  8
AM_0
100
AcDbLine
 10
-54.67300033569314
 20
-4.971004486083954
 30
0.0
 11
-53.54799938201882
 21
-2.44100189208995
 31
0.0
  0
LINE
  5
9ED9
330
1F
100
AcDbEntity
  8
AM_0
100
AcDbLine
 10
-53.86000251769993
 20
-2.446002960204958
 30
0.0
 11
-54.78300285339334
 21
-4.950000762939962
 31
0.0
  0
LINE
  5
9EDA
330
1F
100
AcDbEntity
  8
AM_0
100
AcDbLine
 10
-53.8629980087277
 20
-2.445999145507948
 30
0.0
 11
-54.78499889373755
 21
-4.948997497558961
 31
0.0
  0
LINE
  5
9EDB
330
1F
100
AcDbEntity
  8
AM_0
100
AcDbLine
 10
-52.54700279235821
 20
-2.818004608153945
 30
0.0
 11
-53.09400367736794
 21
-5.149002075194948
 31
0.0
  0
LINE
  5
9EDC
330
1F
100
AcDbEntity
  8
AM_0
100
AcDbLine
 10
-53.92599868774395
 20
-5.061000823974945
 30
0.0
 11
-53.35699748992893
 21
-2.638000488280958
 31
0.0
  0
LINE
  5
9EDD
330
1F
100
AcDbEntity
  8
AM_0
100
AcDbLine
 10
-50.19166088104222
 20
0.8299217224120445
 30
0.0
 11
-47.19593429565423
 21
0.5889205932620505
 31
0.0
  0
LINE
  5
9EDE
330
1F
100
AcDbEntity
  8
AM_0
100
AcDbLine
 10
-47.27600288391122
 20
0.908000946045054
 30
0.0
 11
-47.19600009918221
 21
0.5889968872070503
 31
0.0
  0
LINE
  5
9EDF
330
1F
100
AcDbEntity
  8
AM_0
100
AcDbLine
 10
-52.88199615478491
 20
-2.792003631591957
 30
0.0
 11
-52.76499652862522
 21
-2.589004516601949
 31
0.0
  0
LINE
  5
9EE0
330
1F
100
AcDbEntity
  8
AM_0
100
AcDbLine
 10
-52.52200031280521
 20
-2.820003509521955
 30
0.0
 11
-52.54700279235821
 21
-2.818000793456949
 31
0.0
  0
LINE
  5
9EE1
330
1F
100
AcDbEntity
  8
AM_0
100
AcDbLine
 10
-53.17900085449192
 20
-2.73400115966796
 30
0.0
 11
-52.98500061035133
 21
-2.546001434325948
 31
0.0
  0
LINE
  5
9EE2
330
1F
100
AcDbEntity
  8
AM_0
100
AcDbLine
 10
-53.30500125884983
 20
-2.683998107909949
 30
0.0
 11
-53.08800125122041
 21
-2.513000488280957
 31
0.0
  0
LINE
  5
9EE3
330
1F
100
AcDbEntity
  8
AM_0
100
AcDbLine
 10
-52.51800251007121
 20
-2.787002563476948
 30
0.0
 11
-52.52200031280521
 21
-2.819999694823952
 31
0.0
  0
LINE
  5
9EE4
330
1F
100
AcDbEntity
  8
AM_0
100
AcDbLine
 10
-53.36100292205781
 20
-2.631999969482954
 30
0.0
 11
-53.3570003509519
 21
-2.638000488280958
 31
0.0
  0
LINE
  5
9EE5
330
1F
100
AcDbEntity
  8
AM_0
100
AcDbLine
 10
-53.3610010147092
 20
-2.632003784179949
 30
0.0
 11
-53.14199829101534
 21
-2.479003906249948
 31
0.0
  0
LINE
  5
9EE6
330
1F
100
AcDbEntity
  8
AM_0
100
AcDbLine
 10
-53.50299930572483
 20
-2.444004058837954
 30
0.0
 11
-53.3610010147092
 21
-2.632003784179949
 31
0.0
  0
LINE
  5
9EE7
330
1F
100
AcDbEntity
  8
AM_0
100
AcDbLine
 10
-53.14199924468973
 20
-2.479003906249948
 30
0.0
 11
-53.14799976348851
 21
-2.472003936767953
 31
0.0
  0
LINE
  5
9EE8
330
1F
100
AcDbEntity
  8
AM_0
100
AcDbLine
 10
-47.48199844360323
 20
-6.554000854491941
 30
0.0
 11
-46.96200180053721
 21
-6.446002960204943
 31
0.0
  0
LINE
  5
9EE9
330
1F
100
AcDbEntity
  8
AM_0
100
AcDbLine
 10
-62.15000182390181
 20
-3.770000457763972
 30
0.0
 11
-61.8769979476926
 21
-3.76600265502897
 31
0.0
  0
LINE
  5
9EEA
330
1F
100
AcDbEntity
  8
AM_0
100
AcDbLine
 10
-54.67299985885593
 20
-4.971004486083954
 30
0.0
 11
-54.78300142288183
 21
-4.950000762939962
 31
0.0
  0
LINE
  5
9EEB
330
1F
100
AcDbEntity
  8
AM_0
100
AcDbLine
 10
-54.78300094604465
 20
-4.950000762939962
 30
0.0
 11
-54.78500032424904
 21
-4.949001312255957
 31
0.0
  0
LINE
  5
9EEC
330
1F
100
AcDbEntity
  8
AM_0
100
AcDbLine
 10
-49.99800205230722
 20
-12.34200286865296
 30
0.0
 11
-52.61500167846718
 21
-17.13900375366193
 31
0.0
  0
LINE
  5
9EED
330
1F
100
AcDbEntity
  8
AM_0
100
AcDbLine
 10
-54.3650016784665
 20
-17.10300064086895
 30
0.0
 11
-52.61500263214117
 21
-17.13900375366193
 31
0.0
  0
LINE
  5
9EEF
330
1F
100
AcDbEntity
  8
AM_0
100
AcDbLine
 10
-69.15699815750099
 20
20.99999809265101
 30
0.0
 11
-147.0000038146961
 21
20.99999809265082
 31
0.0
  0
LINE
  5
9EF0
330
1F
100
AcDbEntity
  8
AM_0
100
AcDbLine
 10
-147.0000038146961
 20
-21.00000381469714
 30
0.0
 11
-69.15699815750091
 21
-21.00000381469699
 31
0.0
  0
LINE
  5
9EF1
330
1F
100
AcDbEntity
  8
AM_0
100
AcDbLine
 10
-65.00000023841838
 20
18.599998474121
 30
0.0
 11
-65.00000023841829
 21
-18.60000228881897
 31
0.0
  0
LINE
  5
9EF2
330
1F
100
AcDbEntity
  8
AM_0
100
AcDbLine
 10
-69.15699815750099
 20
20.99999809265101
 30
0.0
 11
-69.15699815750091
 21
-21.00000381469699
 31
0.0
  0
LINE
  5
9EF3
330
1F
100
AcDbEntity
  8
AM_0
100
AcDbLine
 10
-64.9999995231627
 20
18.599998474121
 30
0.0
 11
-69.15699625015237
 21
20.99999809265101
 31
0.0
  0
LINE
  5
9EF4
330
1F
100
AcDbEntity
  8
AM_0
100
AcDbLine
 10
-69.15699672698949
 20
-21.00000381469699
 30
0.0
 11
-64.99999999999968
 21
-18.60000228881897
 31
0.0
  0
LINE
  5
9EF5
330
1F
100
AcDbEntity
  8
AM_0
100
AcDbLine
 10
-150.0000038146962
 20
18.66099739074685
 30
0.0
 11
-150.0000038146961
 21
-18.66099929809616
 31
0.0
  0
LINE
  5
9EF6
330
1F
100
AcDbEntity
  8
AM_0
100
AcDbLine
 10
-147.0000038146961
 20
20.99999809265082
 30
0.0
 11
-147.0000038146961
 21
-21.00000381469714
 31
0.0
  0
ARC
  5
9EF8
330
1F
100
AcDbEntity
  8
AM_0
100
AcDbCircle
 10
-148.0000038146962
 20
18.66099739074683
 30
0.0
 40
2.000236988067599
100
AcDbArc
 50
105.0089147248959
 51
180.0000000000002
  0
LINE
  5
9EF9
330
1F
100
AcDbEntity
  8
AM_0
100
AcDbLine
 10
-147.0000038146961
 20
20.99999618530283
 30
0.0
 11
-148.5180015563962
 21
20.59299850463883
 31
0.0
  0
LINE
  5
9EFA
330
1F
100
AcDbEntity
  8
AM_0
100
AcDbLine
 10
-148.5180015563961
 20
-20.59300613403316
 30
0.0
 11
-147.0000038146961
 21
-21.00000381469714
 31
0.0
  0
ARC
  5
9EFB
330
1F
100
AcDbEntity
  8
AM_0
100
AcDbCircle
 10
-148.0000038146961
 20
-18.66099929809615
 30
0.0
 40
2.0
100
AcDbArc
 50
180.0000000000002
 51
254.9910852751044
  0
DIMENSION
  5
A07F
330
1F
100
AcDbEntity
  8
AM_5
100
AcDbDimension
  2
*D2
 10
6.999999999999769
 20
-19.99999999999983
 30
0.0
 11
5.449999999999775
 21
0.0000000000001632
 31
0.0
 70
    32
  1
%%c<>
 71
     5
 42
-1.0
 51
359.9999999999998
  3
AM_JIS$0
100
AcDbAlignedDimension
 13
-0.0000000000003065
 23
20.00000000000015
 33
0.0
 14
-0.0000000000002299
 24
-19.99999999999983
 34
0.0
 50
270.0
100
AcDbRotatedDimension
1001
GENIUS_GENDTOL_13
1000

1000
h7
1000

1040
0.0
1001
ACAD
1000
DSTYLE
1002
{
1070
   287
1070
     3
1070
    40
1040
0.5
1070
    42
1040
1.0
1070
    43
1040
12.0
1070
    48
1040
0.1
1070
    78
1070
     8
1070
   140
1040
3.2
1070
   176
1070
   256
1070
   177
1070
   256
1070
   271
1070
     0
1070
   272
1070
     3
1070
   275
1070
     0
1070
   284
1070
     0
1070
   289
1070
     3
1070
   340
1005
6B
1070
   371
1070
    -1
1070
   372
1070
    -1
1002
}
  0
DIMENSION
  5
A125
330
1F
100
AcDbEntity
  8
AM_5
100
AcDbDimension
  2
*D3
 10
-0.0000000000003388
 20
28.00000381469681
 30
0.0
 11
-26.50000000000038
 21
29.55000381469681
 31
0.0
 70
    32
  1
<>
 71
     5
 42
-1.0
 51
359.9999999999998
  3
AM_JIS$0
100
AcDbAlignedDimension
 13
-53.00000000000039
 23
19.89579039401742
 33
0.0
 14
-0.0000000000003393
 24
19.93210220336918
 34
0.0
100
AcDbRotatedDimension
1001
GENIUS_GENDTOL_13
1000

1000
h7
1000

1040
0.0
1001
ACAD
1000
DSTYLE
1002
{
1070
   287
1070
     3
1070
    40
1040
0.5
1070
    42
1040
1.0
1070
    43
1040
12.0
1070
    48
1040
0.1
1070
    78
1070
     8
1070
   140
1040
3.2
1070
   176
1070
   256
1070
   177
1070
   256
1070
   271
1070
     0
1070
   272
1070
     3
1070
   275
1070
     0
1070
   284
1070
     0
1070
   289
1070
     3
1070
   340
1005
6B
1070
   371
1070
    -1
1070
   372
1070
    -1
1002
}
  0
DIMENSION
  5
A1BA
330
1F
100
AcDbEntity
  8
AM_5
100
AcDbDimension
  2
*D4
 10
-65.00000023841831
 20
-27.99999618530316
 30
0.0
 11
-32.50000011920928
 21
-26.44999618530322
 31
0.0
 70
    32
  1
<>
 71
     5
 42
-1.0
 51
359.9999999999998
  3
AM_JIS$0
100
AcDbAlignedDimension
 13
-0.0000000000002299
 23
-19.99999999999983
 33
0.0
 14
-65.00000023841829
 24
-18.59999847412096
 34
0.0
 50
180.0
100
AcDbRotatedDimension
1001
GENIUS_GENDTOL_13
1000

1000
h7
1000

1040
0.0
1001
ACAD
1000
DSTYLE
1002
{
1070
   287
1070
     3
1070
    40
1040
0.5
1070
    42
1040
1.0
1070
    43
1040
12.0
1070
    48
1040
0.1
1070
    78
1070
     8
1070
   140
1040
3.2
1070
   176
1070
   256
1070
   177
1070
   256
1070
   271
1070
     0
1070
   272
1070
     3
1070
   275
1070
     0
1070
   284
1070
     0
1070
   289
1070
     3
1070
   340
1005
6B
1070
   371
1070
    -1
1070
   372
1070
    -1
1002
}
  0
DIMENSION
  5
A246
330
1F
100
AcDbEntity
  8
AM_5
100
AcDbDimension
  2
*D5
 10
-150.0000038146961
 20
-27.99999618530315
 30
0.0
 11
-107.5000016689294
 21
-26.44999618530323
 31
0.0
 70
    32
  1
<>
 71
     5
 42
-1.0
 51
359.9999999999998
  3
AM_JIS$0
100
AcDbAlignedDimension
 13
-64.99999952316262
 23
-18.59999847412096
 33
0.0
 14
-150.0000038146961
 24
-18.66099739074717
 34
0.0
 50
180.0
100
AcDbRotatedDimension
1001
GENIUS_GENDTOL_13
1000

1000
h7
1000

1040
0.0
1001
ACAD
1000
DSTYLE
1002
{
1070
   287
1070
     3
1070
    40
1040
0.5
1070
    42
1040
1.0
1070
    43
1040
12.0
1070
    48
1040
0.1
1070
    78
1070
     8
1070
   140
1040
3.2
1070
   176
1070
   256
1070
   177
1070
   256
1070
   271
1070
     0
1070
   272
1070
     3
1070
   275
1070
     0
1070
   284
1070
     0
1070
   289
1070
     3
1070
   340
1005
6B
1070
   371
1070
    -1
1070
   372
1070
    -1
1002
}
  0
DIMENSION
  5
A2ED
330
1F
100
AcDbEntity
  8
AM_5
100
AcDbDimension
  2
*D6
 10
-0.0000000000002538
 20
-32.99999618530318
 30
0.0
 11
-75.00012040138201
 21
-31.44999618530304
 31
0.0
 70
    32
  1
<>
 71
     5
 42
-1.0
 51
359.9999999999998
  3
AM_JIS$0
100
AcDbAlignedDimension
 13
-150.0002408027637
 23
-18.66099739074715
 33
0.0
 14
-0.0000000000002299
 24
-19.99999999999983
 34
0.0
 50
180.0
100
AcDbRotatedDimension
1001
GENIUS_GENDTOL_13
1000

1000
h7
1000

1040
0.0
1001
ACAD
1000
DSTYLE
1002
{
1070
   287
1070
     3
1070
    40
1040
0.5
1070
    42
1040
1.0
1070
    43
1040
12.0
1070
    48
1040
0.1
1070
    78
1070
     8
1070
   140
1040
3.2
1070
   176
1070
   256
1070
   177
1070
   256
1070
   271
1070
     0
1070
   272
1070
     3
1070
   275
1070
     0
1070
   284
1070
     0
1070
   289
1070
     3
1070
   340
1005
6B
1070
   371
1070
    -1
1070
   372
1070
    -1
1002
}
  0
DIMENSION
  5
A382
330
1F
100
AcDbEntity
  8
AM_5
100
AcDbDimension
  2
*D7
 10
-157.0002408027637
 20
-20.99999618530315
 30
0.0
 11
-158.5502408027638
 21
0.00000381469681
 31
0.0
 70
    32
  1
%%c<>
 71
     5
 42
-1.0
 51
359.9999999999998
  3
AM_JIS$0
100
AcDbAlignedDimension
 13
-147.0000038146961
 23
21.00000381469682
 33
0.0
 14
-147.0000038146961
 24
-20.99999618530316
 34
0.0
 50
90.0
100
AcDbRotatedDimension
1001
GENIUS_GENDTOL_13
1000

1000
h7
1000

1040
0.0
1001
ACAD
1000
DSTYLE
1002
{
1070
   287
1070
     3
1070
    40
1040
0.5
1070
    42
1040
1.0
1070
    43
1040
12.0
1070
    48
1040
0.1
1070
    78
1070
     8
1070
   140
1040
3.2
1070
   176
1070
   256
1070
   177
1070
   256
1070
   271
1070
     0
1070
   272
1070
     3
1070
   275
1070
     0
1070
   284
1070
     0
1070
   289
1070
     3
1070
   340
1005
6B
1070
   371
1070
    -1
1070
   372
1070
    -1
1002
}
  0
LINE
  5
A558
330
1F
100
AcDbEntity
  8
AM_11
100
AcDbLine
 10
-0.0000000000003064
 20
20.00000000000015
 30
0.0
 11
-53.00000000000029
 21
20.00000000000005
 31
0.0
  0
LINE
  5
A55C
330
1F
100
AcDbEntity
  8
AM_11
100
AcDbLine
 10
-53.00000000000029
 20
-19.99999999999994
 30
0.0
 11
-0.0000000000002203
 21
-19.99999999999984
 31
0.0
  0
LINE
  5
A563
330
1F
100
AcDbEntity
  8
AM_11
100
AcDbLine
 10
-53.00000000000029
 20
20.00000000000005
 30
0.0
 11
-53.00000000000029
 21
-19.99999999999994
 31
0.0
  0
LINE
  5
A568
330
1F
100
AcDbEntity
  8
AM_11
100
AcDbLine
 10
-0.0000000000002212
 20
-19.99999999999983
 30
0.0
 11
-0.0000000000003152
 21
20.00000000000015
 31
0.0
  0
VIEWPORT
  5
110
102
{ACAD_XDICTIONARY
360
A74F
102
}
330
101
100
AcDbEntity
 67
     1
  8
0
100
AcDbViewport
 10
420.5
 20
297.0
 30
0.0
 40
948.9782706766916
 41
628.452
 68
     1
 69
     1
 12
420.5
 22
297.0
 13
0.0
 23
0.0
 14
10.0
 24
10.0
 15
10.0
 25
10.0
 16
0.0
 26
0.0
 36
1.0
 17
0.0
 27
0.0
 37
0.0
 42
50.0
 43
0.0
 44
0.0
 45
628.452
 50
0.0
 51
0.0
 72
   100
 90
    32800
  1

281
     0
 71
     1
 74
     0
110
-0.0000000000002682
120
0.000000000000161
130
0.0
111
1.0
121
0.000000000000002
131
0.0
112
-0.000000000000002
122
1.0
132
0.0
 79
     0
146
0.0
1001
GENIUS_GENSCREG_15
1000
PF
1040
1.0
1000
DF
1040
1.0
1000
MIN
1011
-53.98913533834582
1021
-17.226
1031
0.0
1000
MAX
1011
894.9891353383458
1021
611.226
1031
0.0
1000
FLAGS
1070
     4
1001
GENIUS_GENODEF_13
1002
{
1000
HIER
1070
     0
1002
}
1002
{
1000
MANEDIT
1070
     0
1002
}
1002
{
1000
NOSEL
1070
     0
1002
}
1002
{
1000
BEHIND
1070
     0
1002
}
1002
{
1000
OTHER
1070
     0
1002
}
1002
{
1000
REACTOR
1002
}
1001
GENIUS_GENOBJ-N-SDF_13
1002
{
1000
OWNER
1000
GEN
1002
}
  0
ENDSEC
  0
SECTION
  2
OBJECTS
  0
DICTIONARY
  5
C
330
0
100
AcDbDictionary
281
     1
  3
ACAD_COLOR
350
A685
  3
ACAD_GROUP
350
D
  3
ACAD_LAYOUT
350
1A
  3
ACAD_MATERIAL
350
A684
  3
ACAD_MLINESTYLE
350
17
  3
ACAD_PLOTSETTINGS
350
19
  3
ACAD_PLOTSTYLENAME
350
E
  3
ACAD_TABLESTYLE
350
A686
  3
ACDBHEADERROUNDTRIPXREC
350
A74E
  3
ACDBVARIABLEDICTIONARY
350
34
  3
ACMDICTIONARY
350
43
  3
AMG
350
2B
  3
AMGSNAPSETTINGS
350
6E
  3
DWGPROPS
350
A74D
  0
DICTIONARY
  5
74
330
1F
100
AcDbDictionary
280
     1
281
     1
  3
ACAD_INDEX
360
A614
  3
ACAD_LAYOUTSELFREF
360
A641
  0
DICTIONARY
  5
A646
330
101
100
AcDbDictionary
280
     1
281
     1
  3
ACAD_LAYOUTSELFREF
360
A647
  0
DICTIONARY
  5
A74F
330
110
100
AcDbDictionary
280
     1
281
     1
  3
ACAD_XREC_ROUNDTRIP
360
A750
  0
DICTIONARY
  5
A685
102
{ACAD_REACTORS
330
C
102
}
330
C
100
AcDbDictionary
281
     1
  0
DICTIONARY
  5
D
102
{ACAD_REACTORS
330
C
102
}
330
C
100
AcDbDictionary
281
     1
  0
DICTIONARY
  5
1A
102
{ACAD_REACTORS
330
C
102
}
330
C
100
AcDbDictionary
281
     1
  3
Model
350
A688
  3
レイアウト1
350
A689
  0
DICTIONARY
  5
A684
102
{ACAD_REACTORS
330
C
102
}
330
C
100
AcDbDictionary
281
     1
  0
DICTIONARY
  5
17
102
{ACAD_REACTORS
330
C
102
}
330
C
100
AcDbDictionary
281
     1
  3
STANDARD
350
18
  0
DICTIONARY
  5
19
102
{ACAD_REACTORS
330
C
102
}
330
C
100
AcDbDictionary
281
     1
  3
ASAMI
350
399D
  0
ACDBDICTIONARYWDFLT
  5
E
102
{ACAD_REACTORS
330
C
102
}
330
C
100
AcDbDictionary
281
     1
  3
Normal
350
F
100
AcDbDictionaryWithDefault
340
F
  0
DICTIONARY
  5
A686
102
{ACAD_REACTORS
330
C
102
}
330
C
100
AcDbDictionary
281
     1
  3
Standard
350
A687
  0
DICTIONARY
  5
A74E
102
{ACAD_REACTORS
330
C
102
}
330
C
100
AcDbDictionary
281
     1
  0
DICTIONARY
  5
34
102
{ACAD_REACTORS
330
C
102
}
330
C
100
AcDbDictionary
281
     1
  3
CTABLESTYLE
350
A749
  3
DIMASSOC
350
A74A
  3
INDEXCTL
350
35
  3
PROJECTNAME
350
A74B
  3
SORTENTS
350
B5E
  0
DICTIONARY
  5
43
102
{ACAD_REACTORS
330
C
102
}
330
C
100
AcDbDictionary
281
     1
  3
ACMSTDDICTIONARY
350
260
  0
DICTIONARY
  5
2B
102
{ACAD_REACTORS
330
C
102
}
330
C
100
AcDbDictionary
281
     1
  0
DICTIONARY
  5
6E
102
{ACAD_REACTORS
330
C
102
}
330
C
100
AcDbDictionary
281
     1
  0
XRECORD
  5
A74D
102
{ACAD_REACTORS
330
C
102
}
330
C
100
AcDbXrecord
280
     1
  1
DWGPROPS COOKIE
  2

  3

  4

  6

  7

  8

  9

300
AmdtFileType=82
301
=
302
=
303
=
304
=
305
=
306
=
307
=
308
=
309
=
 40
0.8323518518518518
 41
2452802.716478762
 42
2453691.775033993
  1

 90
        1
  0
DICTIONARY
  5
A614
102
{ACAD_REACTORS
330
74
102
}
330
74
100
AcDbDictionary
281
     1
  3
*A1
350
A615
  0
XRECORD
  5
A641
102
{ACAD_REACTORS
330
74
102
}
330
74
100
AcDbXrecord
280
     1
340
1F
  0
XRECORD
  5
A647
102
{ACAD_REACTORS
330
A646
102
}
330
A646
100
AcDbXrecord
280
     1
340
101
  0
XRECORD
  5
A750
102
{ACAD_REACTORS
330
A74F
102
}
330
A74F
100
AcDbXrecord
280
     1
102
SHADEPLOT
 70
     0
  0
LAYOUT
  5
A688
102
{ACAD_XDICTIONARY
360
A753
102
}
102
{ACAD_REACTORS
330
1A
102
}
330
1A
100
AcDbPlotSettings
  1

  2
Canon LBP-1710 LIPS4
  4

  6

 40
0.0
 41
0.0
 42
0.0
 43
0.0
 44
0.0
 45
0.0
 46
0.0
 47
0.0
 48
0.0
 49
0.0
140
0.0
141
0.0
142
1.0
143
1.0
 70
  1712
 72
     0
 73
     0
 74
     0
  7
sei_cad.ctb
 75
     0
147
1.0
148
0.0
149
0.0
100
AcDbLayout
  1
Model
 70
     1
 71
     0
 10
0.0
 20
0.0
 11
12.0
 21
9.0
 12
0.0
 22
0.0
 32
0.0
 14
0.0
 24
0.0
 34
0.0
 15
0.0
 25
0.0
 35
0.0
146
0.0
 13
0.0
 23
0.0
 33
0.0
 16
1.0
 26
0.0
 36
0.0
 17
0.0
 27
1.0
 37
0.0
 76
     0
330
1F
  0
LAYOUT
  5
A689
102
{ACAD_XDICTIONARY
360
A755
102
}
102
{ACAD_REACTORS
330
1A
102
}
330
1A
100
AcDbPlotSettings
  1

  2
Canon LBP-1710 LIPS4
  4

  6

 40
0.0
 41
0.0
 42
0.0
 43
0.0
 44
0.0
 45
0.0
 46
0.0
 47
0.0
 48
0.0
 49
0.0
140
0.0
141
0.0
142
1.0
143
1.0
 70
   688
 72
     0
 73
     0
 74
     5
  7
sei_cad.ctb
 75
    16
147
1.0
148
0.0
149
0.0
100
AcDbLayout
  1
レイアウト1
 70
     0
 71
     1
 10
0.0
 20
0.0
 11
841.0
 21
594.0
 12
0.0
 22
0.0
 32
0.0
 14
1.000000000000000E+20
 24
1.000000000000000E+20
 34
1.000000000000000E+20
 15
-1.000000000000000E+20
 25
-1.000000000000000E+20
 35
-1.000000000000000E+20
146
0.0
 13
0.0
 23
0.0
 33
0.0
 16
1.0
 26
0.0
 36
0.0
 17
0.0
 27
1.0
 37
0.0
 76
     0
330
101
331
110
  0
MLINESTYLE
  5
18
102
{ACAD_REACTORS
330
17
102
}
330
17
100
AcDbMlineStyle
  2
STANDARD
 70
     0
  3

 62
   256
 51
90.0
 52
90.0
 71
     2
 49
0.5
 62
   256
  6
BYLAYER
 49
-0.5
 62
   256
  6
BYLAYER
  0
PLOTSETTINGS
  5
399D
102
{ACAD_XDICTIONARY
360
A751
102
}
102
{ACAD_REACTORS
330
19
102
}
330
19
100
AcDbPlotSettings
  1
asami
  2
RICOH imagio MF1540
  4
A4
  6

 40
5.831416606903076
 41
7.651742935180664
 42
4.90008544921875
 43
5.789077758789062
 44
296.9683227539062
 45
209.9733276367186
 46
0.0
 47
0.0
 48
-156.6707931774246
 49
-74.57609991074048
140
58.59973180214831
141
60.61068161925597
142
1.0
143
1.095343097833084
 70
  1712
 72
     1
 73
     1
 74
     4
  7
asami.ctb
 75
     0
147
0.9129559514076438
148
156.6707931774246
149
74.57609991074048
  0
ACDBPLACEHOLDER
  5
F
102
{ACAD_REACTORS
330
E
102
}
330
E
  0
TABLESTYLE
  5
A687
102
{ACAD_REACTORS
330
A686
102
}
330
A686
100
AcDbTableStyle
  3
Standard
 70
     0
 71
     0
 40
1.5
 41
1.5
280
     0
281
     0
  7
STANDARD
140
4.5
170
     2
 62
     0
 63
     7
283
     0
274
    -2
284
     1
 64
     0
275
    -2
285
     1
 65
     0
276
    -2
286
     1
 66
     0
277
    -2
287
     1
 67
     0
278
    -2
288
     1
 68
     0
279
    -2
289
     1
 69
     0
  7
STANDARD
140
6.0
170
     5
 62
     0
 63
     7
283
     0
274
    -2
284
     1
 64
     0
275
    -2
285
     1
 65
     0
276
    -2
286
     1
 66
     0
277
    -2
287
     1
 67
     0
278
    -2
288
     1
 68
     0
279
    -2
289
     1
 69
     0
  7
STANDARD
140
4.5
170
     5
 62
     0
 63
     7
283
     0
274
    -2
284
     1
 64
     0
275
    -2
285
     1
 65
     0
276
    -2
286
     1
 66
     0
277
    -2
287
     1
 67
     0
278
    -2
288
     1
 68
     0
279
    -2
289
     1
 69
     0
  0
DICTIONARYVAR
  5
A749
102
{ACAD_REACTORS
330
34
102
}
330
34
100
DictionaryVariables
280
     0
  1
STANDARD
  0
DICTIONARYVAR
  5
A74A
102
{ACAD_REACTORS
330
34
102
}
330
34
100
DictionaryVariables
280
     0
  1
1
  0
DICTIONARYVAR
  5
35
102
{ACAD_REACTORS
330
34
102
}
330
34
100
DictionaryVariables
280
     0
  1
1
  0
DICTIONARYVAR
  5
A74B
102
{ACAD_REACTORS
330
34
102
}
330
34
100
DictionaryVariables
280
     0
  1

  0
DICTIONARYVAR
  5
B5E
102
{ACAD_REACTORS
330
34
102
}
330
34
100
DictionaryVariables
280
     0
  1
96
  0
DICTIONARY
  5
260
102
{ACAD_REACTORS
330
43
102
}
330
43
100
AcDbDictionary
281
     1
  0
LAYER_INDEX
  5
A615
102
{ACAD_REACTORS
330
A614
102
}
330
A614
100
AcDbIndex
 40
2453691.775033993
100
AcDbLayerIndex
  8
0
360
A616
 90
        0
  8
AM_0
360
A617
 90
      643
  8
AM_5
360
A618
 90
        6
  8
AM_7
360
A619
 90
        1
  8
AM_6
360
A61A
 90
        1
  8
DEFPOINTS
360
A61B
 90
        0
  8
AM_11
360
A61C
 90
        4
  0
DICTIONARY
  5
A753
330
A688
100
AcDbDictionary
280
     1
281
     1
  3
ACAD_XREC_ROUNDTRIP
360
A754
  0
DICTIONARY
  5
A755
330
A689
100
AcDbDictionary
280
     1
281
     1
  3
ACAD_XREC_ROUNDTRIP
360
A756
  0
DICTIONARY
  5
A751
330
399D
100
AcDbDictionary
280
     1
281
     1
  3
ACAD_XREC_ROUNDTRIP
360
A752
  0
IDBUFFER
  5
A616
330
0
100
AcDbIdBuffer
  0
IDBUFFER
  5
A617
330
0
100
AcDbIdBuffer
330
995B
330
995C
330
995E
330
995F
330
9960
330
997B
330
997C
330
997D
330
9A8E
330
9A8F
330
9A90
330
9A91
330
9A92
330
9A93
330
9A94
330
9A95
330
9A96
330
9A97
330
9A98
330
9A99
330
9A9A
330
9A9B
330
9A9C
330
9A9D
330
9A9E
330
9A9F
330
9AA0
330
9AA1
330
9AA2
330
9AA3
330
9AA4
330
9AA5
330
9AA6
330
9AA7
330
9AA8
330
9AA9
330
9AAA
330
9AAB
330
9AAC
330
9AAD
330
9AAE
330
9AAF
330
9AB0
330
9AB1
330
9AB2
330
9AB3
330
9AB4
330
9AB5
330
9AB6
330
9AB7
330
9AB8
330
9AB9
330
9ABA
330
9ABB
330
9ABC
330
9ABD
330
9ABE
330
9ABF
330
9AC0
330
9AC1
330
9AC2
330
9AC3
330
9AC4
330
9AC5
330
9AC6
330
9AC7
330
9AC8
330
9AC9
330
9ACA
330
9ACB
330
9ACC
330
9ACD
330
9ACE
330
9ACF
330
9AD0
330
9AD1
330
9AD2
330
9AD3
330
9AD4
330
9AD5
330
9AD6
330
9AD7
330
9AD8
330
9AD9
330
9ADA
330
9ADB
330
9ADC
330
9ADD
330
9ADE
330
9ADF
330
9AE0
330
9AE1
330
9AE2
330
9AE3
330
9AE4
330
9AE5
330
9AE6
330
9AE7
330
9AE8
330
9AE9
330
9AEA
330
9AEB
330
9AEC
330
9AED
330
9AEE
330
9AEF
330
9AF0
330
9AF1
330
9AF2
330
9AF3
330
9AF4
330
9AF5
330
9AF6
330
9AF7
330
9AF8
330
9AF9
330
9AFA
330
9AFB
330
9AFC
330
9AFD
330
9AFE
330
9AFF
330
9B00
330
9B01
330
9B02
330
9B03
330
9B04
330
9B05
330
9B06
330
9B07
330
9B08
330
9B09
330
9B0A
330
9B0B
330
9B0C
330
9B0D
330
9B0E
330
9B0F
330
9B10
330
9B11
330
9B12
330
9B13
330
9B14
330
9B15
330
9B16
330
9B17
330
9B18
330
9B19
330
9B1A
330
9B1B
330
9B1C
330
9B1D
330
9B1E
330
9B1F
330
9B20
330
9B21
330
9B22
330
9B23
330
9B24
330
9B25
330
9B26
330
9B27
330
9B28
330
9B29
330
9B2A
330
9B2B
330
9B2C
330
9B2D
330
9B2E
330
9B2F
330
9B30
330
9B31
330
9B32
330
9B33
330
9B34
330
9B35
330
9B36
330
9B37
330
9B38
330
9B39
330
9B3A
330
9B3B
330
9B3C
330
9B3D
330
9B3E
330
9B3F
330
9B40
330
9B41
330
9B42
330
9B43
330
9B44
330
9B45
330
9B46
330
9B47
330
9B48
330
9B49
330
9B4A
330
9B4B
330
9B4C
330
9B4D
330
9B4E
330
9B4F
330
9B50
330
9B51
330
9B52
330
9B53
330
9B54
330
9B55
330
9B56
330
9B57
330
9B58
330
9B59
330
9B5A
330
9B5B
330
9B5C
330
9B5D
330
9B5E
330
9B5F
330
9B60
330
9B61
330
9B62
330
9B63
330
9B64
330
9B65
330
9B66
330
9B67
330
9B68
330
9B69
330
9B6A
330
9B6B
330
9B6C
330
9B6D
330
9B6E
330
9B6F
330
9B70
330
9B71
330
9B72
330
9B73
330
9B74
330
9B75
330
9B76
330
9B77
330
9B78
330
9B79
330
9B7A
330
9B7B
330
9B7C
330
9B7D
330
9B7E
330
9B7F
330
9B80
330
9B81
330
9B82
330
9B83
330
9B84
330
9B85
330
9B86
330
9B87
330
9B88
330
9B89
330
9B8A
330
9B8B
330
9B8C
330
9B8D
330
9B8E
330
9B8F
330
9B90
330
9B91
330
9B92
330
9B93
330
9B94
330
9B95
330
9B96
330
9B97
330
9B98
330
9B99
330
9B9A
330
9B9B
330
9B9C
330
9B9D
330
9B9E
330
9B9F
330
9BA0
330
9BA1
330
9BA2
330
9BA3
330
9BA4
330
9BA5
330
9BA6
330
9D7B
330
9D7C
330
9D7D
330
9D7E
330
9D7F
330
9D80
330
9D84
330
9D85
330
9D86
330
9D87
330
9D8A
330
9D8B
330
9D8E
330
9D8F
330
9D90
330
9D91
330
9D92
330
9D93
330
9D94
330
9D95
330
9D96
330
9D97
330
9D98
330
9D99
330
9D9A
330
9D9B
330
9D9C
330
9D9D
330
9D9E
330
9D9F
330
9DA0
330
9DA1
330
9DA2
330
9DA3
330
9DA4
330
9DA5
330
9DA6
330
9DA7
330
9DA8
330
9DA9
330
9DAA
330
9DAD
330
9DAE
330
9DAF
330
9DB0
330
9DB3
330
9DB4
330
9DB9
330
9DBC
330
9DBD
330
9DBE
330
9DC0
330
9DC1
330
9DC2
330
9DC3
330
9DC4
330
9DC5
330
9DC6
330
9DC7
330
9DC8
330
9DC9
330
9DCA
330
9DCB
330
9DCC
330
9DCD
330
9DCE
330
9DCF
330
9DD0
330
9DD1
330
9DD2
330
9DD3
330
9DD4
330
9DD5
330
9DD6
330
9DD7
330
9DD8
330
9DD9
330
9DDA
330
9DDB
330
9DDC
330
9DDD
330
9DDE
330
9DDF
330
9DE0
330
9DE1
330
9DE2
330
9DE3
330
9DE4
330
9DE5
330
9DE6
330
9DE7
330
9DE8
330
9DE9
330
9DEA
330
9DEB
330
9DEC
330
9DED
330
9DEE
330
9DEF
330
9DF0
330
9DF1
330
9DF2
330
9DF3
330
9DF4
330
9DF5
330
9DF6
330
9DF7
330
9DF8
330
9DF9
330
9DFA
330
9DFB
330
9DFC
330
9DFD
330
9DFE
330
9DFF
330
9E00
330
9E01
330
9E02
330
9E03
330
9E04
330
9E05
330
9E06
330
9E07
330
9E08
330
9E09
330
9E0A
330
9E0B
330
9E0C
330
9E0F
330
9E10
330
9E11
330
9E12
330
9E13
330
9E14
330
9E15
330
9E16
330
9E17
330
9E18
330
9E19
330
9E1A
330
9E1B
330
9E1C
330
9E1D
330
9E1E
330
9E1F
330
9E20
330
9E21
330
9E22
330
9E23
330
9E24
330
9E27
330
9E28
330
9E29
330
9E2A
330
9E2B
330
9E2C
330
9E2D
330
9E2E
330
9E2F
330
9E30
330
9E31
330
9E32
330
9E33
330
9E34
330
9E35
330
9E36
330
9E37
330
9E38
330
9E39
330
9E3A
330
9E3B
330
9E3C
330
9E3D
330
9E3E
330
9E3F
330
9E40
330
9E41
330
9E42
330
9E43
330
9E44
330
9E45
330
9E46
330
9E47
330
9E48
330
9E49
330
9E4A
330
9E4B
330
9E4C
330
9E4D
330
9E4E
330
9E4F
330
9E50
330
9E51
330
9E52
330
9E54
330
9E55
330
9E56
330
9E57
330
9E58
330
9E59
330
9E5A
330
9E5B
330
9E5C
330
9E5D
330
9E5E
330
9E5F
330
9E60
330
9E61
330
9E62
330
9E63
330
9E64
330
9E65
330
9E66
330
9E67
330
9E68
330
9E69
330
9E6A
330
9E6B
330
9E6C
330
9E6D
330
9E6E
330
9E6F
330
9E70
330
9E71
330
9E72
330
9E73
330
9E74
330
9E75
330
9E76
330
9E79
330
9E7A
330
9E7B
330
9E7C
330
9E7D
330
9E7E
330
9E7F
330
9E80
330
9E81
330
9E82
330
9E83
330
9E84
330
9E85
330
9E86
330
9E87
330
9E88
330
9E89
330
9E8A
330
9E8B
330
9E8C
330
9E8D
330
9E8E
330
9E8F
330
9E90
330
9E91
330
9E92
330
9E93
330
9E94
330
9E95
330
9E96
330
9E97
330
9E98
330
9E99
330
9E9A
330
9E9B
330
9E9C
330
9E9D
330
9E9E
330
9E9F
330
9EA0
330
9EA1
330
9EA2
330
9EA3
330
9EA4
330
9EA5
330
9EA6
330
9EA7
330
9EA8
330
9EA9
330
9EAA
330
9EAB
330
9EAC
330
9EAD
330
9EAE
330
9EAF
330
9EB0
330
9EB1
330
9EB2
330
9EB3
330
9EB4
330
9EB5
330
9EB6
330
9EB7
330
9EB8
330
9EB9
330
9EBA
330
9EBB
330
9EBC
330
9EBD
330
9EBE
330
9EBF
330
9EC0
330
9EC1
330
9EC2
330
9EC3
330
9EC4
330
9EC5
330
9EC6
330
9EC7
330
9EC8
330
9EC9
330
9ECA
330
9ECB
330
9ECC
330
9ECD
330
9ECE
330
9ECF
330
9ED0
330
9ED3
330
9ED4
330
9ED7
330
9ED8
330
9ED9
330
9EDA
330
9EDB
330
9EDC
330
9EDD
330
9EDE
330
9EDF
330
9EE0
330
9EE1
330
9EE2
330
9EE3
330
9EE4
330
9EE5
330
9EE6
330
9EE7
330
9EE8
330
9EE9
330
9EEA
330
9EEB
330
9EEC
330
9EED
330
9EEF
330
9EF0
330
9EF1
330
9EF2
330
9EF3
330
9EF4
330
9EF5
330
9EF6
330
9EF8
330
9EF9
330
9EFA
330
9EFB
  0
IDBUFFER
  5
A618
330
0
100
AcDbIdBuffer
330
A07F
330
A125
330
A1BA
330
A246
330
A2ED
330
A382
  0
IDBUFFER
  5
A619
330
0
100
AcDbIdBuffer
330
995D
  0
IDBUFFER
  5
A61A
330
0
100
AcDbIdBuffer
330
388D
  0
IDBUFFER
  5
A61B
330
0
100
AcDbIdBuffer
  0
IDBUFFER
  5
A61C
330
0
100
AcDbIdBuffer
330
A558
330
A55C
330
A563
330
A568
  0
XRECORD
  5
A754
102
{ACAD_REACTORS
330
A753
102
}
330
A753
100
AcDbXrecord
280
     1
102
SHADEPLOT
 70
     0
102
SHADEPLOTRESLEVEL
 70
     2
102
SHADEPLOTCUSTOMDPI
 70
   300
  0
XRECORD
  5
A756
102
{ACAD_REACTORS
330
A755
102
}
330
A755
100
AcDbXrecord
280
     1
102
SHADEPLOT
 70
     0
102
SHADEPLOTRESLEVEL
 70
     2
102
SHADEPLOTCUSTOMDPI
 70
   300
  0
XRECORD
  5
A752
102
{ACAD_REACTORS
330
A751
102
}
330
A751
100
AcDbXrecord
280
     1
102
SHADEPLOT
 70
     0
102
SHADEPLOTRESLEVEL
 70
     2
102
SHADEPLOTCUSTOMDPI
 70
   300
  0
ENDSEC
  0
EOF
