  0
SECTION
  2
HEADER
  9
$ACADVER
  1
AC1015
  9
$ACADMAINTVER
 70
    20
  9
$DWGCODEPAGE
  3
ANSI_932
  9
$INSBASE
 10
0.0
 20
0.0
 30
0.0
  9
$EXTMIN
 10
-830.666330730475
 20
-196.7721820000002
 30
0.0
  9
$EXTMAX
 10
270.2313673137259
 20
397.5991568884727
 30
0.0
  9
$LIMMIN
 10
-218.8326934526787
 20
-223.0230693094963
  9
$LIMMAX
 10
94.03307996523835
 20
195.2386640538841
  9
$ORTHOMODE
 70
     0
  9
$REGENMODE
 70
     1
  9
$FILLMODE
 70
     1
  9
$QTEXTMODE
 70
     0
  9
$MIRRTEXT
 70
     0
  9
$LTSCALE
 40
1.0
  9
$ATTMODE
 70
     1
  9
$TEXTSIZE
 40
2.5
  9
$TRACEWID
 40
1.0
  9
$TEXTSTYLE
  7
STANDARD
  9
$CLAYER
  8
AM_0
  9
$CELTYPE
  6
BYLAYER
  9
$CECOLOR
 62
   256
  9
$CELTSCALE
 40
1.0
  9
$DISPSILH
 70
     0
  9
$DIMSCALE
 40
1.0
  9
$DIMASZ
 40
2.5
  9
$DIMEXO
 40
1.0
  9
$DIMDLI
 40
12.0
  9
$DIMRND
 40
0.0
  9
$DIMDLE
 40
0.0
  9
$DIMEXE
 40
1.0
  9
$DIMTP
 40
0.1
  9
$DIMTM
 40
0.1
  9
$DIMTXT
 40
3.2
  9
$DIMCEN
 40
0.0
  9
$DIMTSZ
 40
0.0
  9
$DIMTOL
 70
     0
  9
$DIMLIM
 70
     0
  9
$DIMTIH
 70
     0
  9
$DIMTOH
 70
     0
  9
$DIMSE1
 70
     0
  9
$DIMSE2
 70
     0
  9
$DIMTAD
 70
     3
  9
$DIMZIN
 70
     8
  9
$DIMBLK
  1
OPEN30
  9
$DIMASO
 70
     1
  9
$DIMSHO
 70
     1
  9
$DIMPOST
  1

  9
$DIMAPOST
  1
"
  9
$DIMALT
 70
     0
  9
$DIMALTD
 70
     2
  9
$DIMALTF
 40
0.0393701
  9
$DIMLFAC
 40
1.0
  9
$DIMTOFL
 70
     1
  9
$DIMTVP
 40
0.0
  9
$DIMTIX
 70
     0
  9
$DIMSOXD
 70
     0
  9
$DIMSAH
 70
     0
  9
$DIMBLK1
  1

  9
$DIMBLK2
  1

  9
$DIMSTYLE
  2
AM_JIS
  9
$DIMCLRD
 70
   256
  9
$DIMCLRE
 70
   256
  9
$DIMCLRT
 70
     2
  9
$DIMTFAC
 40
0.71
  9
$DIMGAP
 40
1.5
  9
$DIMJUST
 70
     0
  9
$DIMSD1
 70
     0
  9
$DIMSD2
 70
     0
  9
$DIMTOLJ
 70
     0
  9
$DIMTZIN
 70
     0
  9
$DIMALTZ
 70
     0
  9
$DIMALTTZ
 70
     0
  9
$DIMUPT
 70
     0
  9
$DIMDEC
 70
     3
  9
$DIMTDEC
 70
     3
  9
$DIMALTU
 70
     2
  9
$DIMALTTD
 70
     2
  9
$DIMTXSTY
  7
ASAMI
  9
$DIMAUNIT
 70
     0
  9
$DIMADEC
 70
     0
  9
$DIMALTRND
 40
0.0
  9
$DIMAZIN
 70
     2
  9
$DIMDSEP
 70
    46
  9
$DIMATFIT
 70
     3
  9
$DIMFRAC
 70
     0
  9
$DIMLDRBLK
  1
OPEN30
  9
$DIMLUNIT
 70
     2
  9
$DIMLWD
 70
    -1
  9
$DIMLWE
 70
    -1
  9
$DIMTMOVE
 70
     0
  9
$LUNITS
 70
     2
  9
$LUPREC
 70
     2
  9
$SKETCHINC
 40
1.0
  9
$FILLETRAD
 40
2.0
  9
$AUNITS
 70
     0
  9
$AUPREC
 70
     0
  9
$MENU
  1
.
  9
$ELEVATION
 40
0.0
  9
$PELEVATION
 40
0.0
  9
$THICKNESS
 40
0.0
  9
$LIMCHECK
 70
     0
  9
$CHAMFERA
 40
1.3
  9
$CHAMFERB
 40
1.3
  9
$CHAMFERC
 40
20.0
  9
$CHAMFERD
 40
0.0
  9
$SKPOLY
 70
     0
  9
$TDCREATE
 40
2452836.771637361
  9
$TDUCREATE
 40
2452836.396637361
  9
$TDUPDATE
 40
2455594.625339618
  9
$TDUUPDATE
 40
2455594.250339618
  9
$TDINDWG
 40
0.3145815046
  9
$TDUSRTIMER
 40
0.3145815046
  9
$USRTIMER
 70
     1
  9
$ANGBASE
 50
0.0
  9
$ANGDIR
 70
     0
  9
$PDMODE
 70
     0
  9
$PDSIZE
 40
0.0
  9
$PLINEWID
 40
0.0
  9
$SPLFRAME
 70
     0
  9
$SPLINETYPE
 70
     6
  9
$SPLINESEGS
 70
     8
  9
$HANDSEED
  5
13477
  9
$SURFTAB1
 70
     6
  9
$SURFTAB2
 70
     6
  9
$SURFTYPE
 70
     6
  9
$SURFU
 70
     6
  9
$SURFV
 70
     6
  9
$UCSBASE
  2

  9
$UCSNAME
  2

  9
$UCSORG
 10
0.0
 20
0.0
 30
0.0
  9
$UCSXDIR
 10
1.0
 20
0.0
 30
0.0
  9
$UCSYDIR
 10
0.0
 20
1.0
 30
0.0
  9
$UCSORTHOREF
  2

  9
$UCSORTHOVIEW
 70
     0
  9
$UCSORGTOP
 10
0.0
 20
0.0
 30
0.0
  9
$UCSORGBOTTOM
 10
0.0
 20
0.0
 30
0.0
  9
$UCSORGLEFT
 10
0.0
 20
0.0
 30
0.0
  9
$UCSORGRIGHT
 10
0.0
 20
0.0
 30
0.0
  9
$UCSORGFRONT
 10
0.0
 20
0.0
 30
0.0
  9
$UCSORGBACK
 10
0.0
 20
0.0
 30
0.0
  9
$PUCSBASE
  2

  9
$PUCSNAME
  2

  9
$PUCSORG
 10
0.0
 20
0.0
 30
0.0
  9
$PUCSXDIR
 10
1.0
 20
0.0
 30
0.0
  9
$PUCSYDIR
 10
0.0
 20
1.0
 30
0.0
  9
$PUCSORTHOREF
  2

  9
$PUCSORTHOVIEW
 70
     0
  9
$PUCSORGTOP
 10
0.0
 20
0.0
 30
0.0
  9
$PUCSORGBOTTOM
 10
0.0
 20
0.0
 30
0.0
  9
$PUCSORGLEFT
 10
0.0
 20
0.0
 30
0.0
  9
$PUCSORGRIGHT
 10
0.0
 20
0.0
 30
0.0
  9
$PUCSORGFRONT
 10
0.0
 20
0.0
 30
0.0
  9
$PUCSORGBACK
 10
0.0
 20
0.0
 30
0.0
  9
$USERI1
 70
     0
  9
$USERI2
 70
     0
  9
$USERI3
 70
     0
  9
$USERI4
 70
     0
  9
$USERI5
 70
     0
  9
$USERR1
 40
0.0
  9
$USERR2
 40
0.0
  9
$USERR3
 40
0.0
  9
$USERR4
 40
0.0
  9
$USERR5
 40
0.0
  9
$WORLDVIEW
 70
     1
  9
$SHADEDGE
 70
     3
  9
$SHADEDIF
 70
    70
  9
$TILEMODE
 70
     1
  9
$MAXACTVP
 70
    64
  9
$PINSBASE
 10
0.0
 20
0.0
 30
0.0
  9
$PLIMCHECK
 70
     0
  9
$PEXTMIN
 10
1.000000000000000E+20
 20
1.000000000000000E+20
 30
1.000000000000000E+20
  9
$PEXTMAX
 10
-1.000000000000000E+20
 20
-1.000000000000000E+20
 30
-1.000000000000000E+20
  9
$PLIMMIN
 10
0.0
 20
0.0
  9
$PLIMMAX
 10
841.0
 20
594.0
  9
$UNITMODE
 70
     0
  9
$VISRETAIN
 70
     1
  9
$PLINEGEN
 70
     0
  9
$PSLTSCALE
 70
     0
  9
$TREEDEPTH
 70
  3020
  9
$CMLSTYLE
  2
STANDARD
  9
$CMLJUST
 70
     0
  9
$CMLSCALE
 40
20.0
  9
$PROXYGRAPHICS
 70
     1
  9
$MEASUREMENT
 70
     1
  9
$CELWEIGHT
370
    -1
  9
$ENDCAPS
280
     0
  9
$JOINSTYLE
280
     0
  9
$LWDISPLAY
290
     0
  9
$INSUNITS
 70
     4
  9
$HYPERLINKBASE
  1

  9
$STYLESHEET
  1
ASAMI.ctb
  9
$XEDIT
290
     1
  9
$CEPSNTYPE
380
     0
  9
$PSTYLEMODE
290
     1
  9
$FINGERPRINTGUID
  2
{AFB28963-8C59-40AE-9337-C84526B81ACE}
  9
$VERSIONGUID
  2
{CE9330F9-1DC4-40D9-9681-68A32DE54849}
  9
$EXTNAMES
290
     1
  9
$PSVPSCALE
 40
0.0
  9
$OLESTARTUP
290
     0
  0
ENDSEC
  0
SECTION
  2
CLASSES
  0
CLASS
  1
ACDBDICTIONARYWDFLT
  2
AcDbDictionaryWithDefault
  3
ObjectDBX Classes
 90
        0
280
     0
281
     0
  0
CLASS
  1
ACDBPLACEHOLDER
  2
AcDbPlaceHolder
  3
ObjectDBX Classes
 90
        0
280
     0
281
     0
  0
CLASS
  1
LAYOUT
  2
AcDbLayout
  3
ObjectDBX Classes
 90
        0
280
     0
281
     0
  0
CLASS
  1
AMGSETTINGSOBJ
  2
AmgSettingsObj
  3
"AcadM|Product Description: AutoCAD Mechanical 2000|Company: Autodesk"
 90
        0
280
     0
281
     0
  0
CLASS
  1
ACME_DOCUMENT
  2
AcMeDbDoc
  3
AcMeServices
 90
        0
280
     0
281
     0
  0
CLASS
  1
ACMESCOPE
  2
AcMeScope
  3
AcMeServices
 90
        0
280
     0
281
     0
  0
CLASS
  1
ACMECOMMANDHISTORY
  2
AcMeCommandHistory
  3
AcMeServices
 90
        0
280
     0
281
     0
  0
CLASS
  1
DICTIONARYVAR
  2
AcDbDictionaryVar
  3
ObjectDBX Classes
 90
        0
280
     0
281
     0
  0
CLASS
  1
ACIMSYSVARMAN
  2
AcImSysVarManager
  3
AcMeServices
 90
        0
280
     0
281
     0
  0
CLASS
  1
ACIMREALSYSVAR
  2
AcImRealSysVar
  3
AcMeServices
 90
        0
280
     0
281
     0
  0
CLASS
  1
ACIMINTSYSVAR
  2
AcImIntSysVar
  3
AcMeServices
 90
        0
280
     0
281
     0
  0
CLASS
  1
ACMEDRAWINGMAN
  2
AcMeDrawingMan
  3
AcMeServices
 90
        0
280
     0
281
     0
  0
CLASS
  1
ACMEVIEW
  2
AcMeView
  3
AcMeServices
 90
        0
280
     0
281
     0
  0
CLASS
  1
ACDBENTITYCACHE
  2
AcMeEntityCache
  3
AcMeServices
 90
        0
280
     0
281
     0
  0
CLASS
  1
GSMANAGER
  2
AcMeGSManager
  3
AcMeServices
 90
        0
280
     0
281
     0
  0
CLASS
  1
AMDTINTERNALREACTOR
  2
AmdtInternalReactor
  3
AcMeServices
 90
        0
280
     0
281
     0
  0
CLASS
  1
ACMESTATEMGR
  2
AcMeStateMgr
  3
AcMeServices
 90
        0
280
     0
281
     0
  0
CLASS
  1
ACME_DATABASE
  2
AcMeDbDatabase
  3
AcMeServices
 90
        0
280
     0
281
     0
  0
CLASS
  1
ACRFINSADJUSTERMGR
  2
AcRfInsAdjusterMgr
  3
AcMeServices
 90
        0
280
     0
281
     0
  0
CLASS
  1
ACMDATADICTIONARY
  2
AcmDataDictionary
  3
"AcmSymBB|Product Description: AutoCAD Mechanical 2004 DX|Company: Autodesk"
 90
        0
280
     0
281
     0
  0
CLASS
  1
ACMDATAENTRYBLOCK
  2
AcmDataEntryBlock
  3
"AcmSymBB|Product Description: AutoCAD Mechanical 2004 DX|Company: Autodesk"
 90
    32768
280
     0
281
     0
  0
CLASS
  1
AMGOBJPROPCFG
  2
AmgObjPropCfg
  3
"AmgLay|Product Description: AutoCAD Mechanical 2000|Company: Autodesk"
 90
        1
280
     0
281
     0
  0
CLASS
  1
ACAMGFILTERDAT
  2
AcAmgFilterDat
  3
"AcadM|Product Description: AutoCAD Mechanical 2000|Company: Autodesk"
 90
    32768
280
     0
281
     0
  0
CLASS
  1
LAYER_INDEX
  2
AcDbLayerIndex
  3
ObjectDBX Classes
 90
        0
280
     0
281
     0
  0
CLASS
  1
IDBUFFER
  2
AcDbIdBuffer
  3
ObjectDBX Classes
 90
        0
280
     0
281
     0
  0
CLASS
  1
ACIMSTRSYSVAR
  2
AcImStrSysVar
  3
AcMeServices
 90
        0
280
     0
281
     0
  0
CLASS
  1
ACMSTANDARDJIS
  2
AcmStandardJIS
  3
"Amdt_StdImp|Product Description: AutoCAD Mechanical 2004 DX|Company: Autodesk"
 90
    32768
280
     0
281
     0
  0
CLASS
  1
ACMSURFSTANDARDJIS
  2
AcmSurfTextStdJIS
  3
"Amdt_StdImp|Product Description: AutoCAD Mechanical 2004 DX|Company: Autodesk"
 90
    32768
280
     0
281
     0
  0
CLASS
  1
ACMFCFSTANDARDJIS
  2
AcmFCFStdJIS
  3
"Amdt_StdImp|Product Description: AutoCAD Mechanical 2004 DX|Company: Autodesk"
 90
    32768
280
     0
281
     0
  0
CLASS
  1
ACMWELDSTANDARDJIS
  2
AcmWeldingStdJIS
  3
"Amdt_StdImp|Product Description: AutoCAD Mechanical 2004 DX|Company: Autodesk"
 90
    32768
280
     0
281
     0
  0
CLASS
  1
ACMIDSTANDARDJIS
  2
AcmIdStdJIS
  3
"Amdt_StdImp|Product Description: AutoCAD Mechanical 2004 DX|Company: Autodesk"
 90
    32768
280
     0
281
     0
  0
CLASS
  1
ACMDATUMSTANDARDJIS
  2
AcmDatumStdJIS
  3
"Amdt_StdImp|Product Description: AutoCAD Mechanical 2004 DX|Company: Autodesk"
 90
    32768
280
     0
281
     0
  0
CLASS
  1
ACMBOMSTANDARDJIS
  2
AcmBOMStdJIS
  3
"Amdt_StdImp|Product Description: AutoCAD Mechanical 2004 DX|Company: Autodesk"
 90
    32768
280
     0
281
     0
  0
CLASS
  1
ACMSTANDARDANSI
  2
AcmStandardANSI
  3
"Amdt_StdImp|Product Description: AutoCAD Mechanical 2004 DX|Company: Autodesk"
 90
    32768
280
     0
281
     0
  0
CLASS
  1
ACMSURFSTANDARDANSI
  2
AcmSurfTextStdANSI
  3
"Amdt_StdImp|Product Description: AutoCAD Mechanical 2004 DX|Company: Autodesk"
 90
    32768
280
     0
281
     0
  0
CLASS
  1
ACMFCFSTANDARDANSI
  2
AcmFCFStdANSI
  3
"Amdt_StdImp|Product Description: AutoCAD Mechanical 2004 DX|Company: Autodesk"
 90
    32768
280
     0
281
     0
  0
CLASS
  1
ACMWELDSTANDARDANSI
  2
AcmWeldingStdANSI
  3
"Amdt_StdImp|Product Description: AutoCAD Mechanical 2004 DX|Company: Autodesk"
 90
    32768
280
     0
281
     0
  0
CLASS
  1
ACMIDSTANDARDANSI
  2
AcmIdStdANSI
  3
"Amdt_StdImp|Product Description: AutoCAD Mechanical 2004 DX|Company: Autodesk"
 90
    32768
280
     0
281
     0
  0
CLASS
  1
ACMDATUMSTANDARDANSI
  2
AcmDatumStdANSI
  3
"Amdt_StdImp|Product Description: AutoCAD Mechanical 2004 DX|Company: Autodesk"
 90
    32768
280
     0
281
     0
  0
CLASS
  1
ACMBOMSTANDARDANSI
  2
AcmBOMStdANSI
  3
"Amdt_StdImp|Product Description: AutoCAD Mechanical 2004 DX|Company: Autodesk"
 90
    32768
280
     0
281
     0
  0
CLASS
  1
ACMSTANDARDBSI
  2
AcmStandardBSI
  3
"Amdt_StdImp|Product Description: AutoCAD Mechanical 2004 DX|Company: Autodesk"
 90
    32768
280
     0
281
     0
  0
CLASS
  1
ACMSURFSTANDARDBSI
  2
AcmSurfTextStdBSI
  3
"Amdt_StdImp|Product Description: AutoCAD Mechanical 2004 DX|Company: Autodesk"
 90
    32768
280
     0
281
     0
  0
CLASS
  1
ACMFCFSTANDARDBSI
  2
AcmFCFStdBSI
  3
"Amdt_StdImp|Product Description: AutoCAD Mechanical 2004 DX|Company: Autodesk"
 90
    32768
280
     0
281
     0
  0
CLASS
  1
ACMWELDSTANDARDBSI
  2
AcmWeldingStdBSI
  3
"Amdt_StdImp|Product Description: AutoCAD Mechanical 2004 DX|Company: Autodesk"
 90
    32768
280
     0
281
     0
  0
CLASS
  1
ACMIDSTANDARDBSI
  2
AcmIdStdBSI
  3
"Amdt_StdImp|Product Description: AutoCAD Mechanical 2004 DX|Company: Autodesk"
 90
    32768
280
     0
281
     0
  0
CLASS
  1
ACMDATUMSTANDARDBSI
  2
AcmDatumStdBSI
  3
"Amdt_StdImp|Product Description: AutoCAD Mechanical 2004 DX|Company: Autodesk"
 90
    32768
280
     0
281
     0
  0
CLASS
  1
ACMBOMSTANDARDBSI
  2
AcmBOMStdBSI
  3
"Amdt_StdImp|Product Description: AutoCAD Mechanical 2004 DX|Company: Autodesk"
 90
    32768
280
     0
281
     0
  0
CLASS
  1
TABLESTYLE
  2
AcDbTableStyle
  3
ObjectDBX Classes
 90
     2047
280
     0
281
     0
  0
CLASS
  1
ACGREFMASTER
  2
AcGrefMaster
  3
AcAttribServices
 90
        0
280
     0
281
     0
  0
CLASS
  1
AM_DRAWING_MGR
  2
AcDmDwgMgr
  3
AcMechDwgViewMgmt
 90
        0
280
     0
281
     0
  0
CLASS
  1
AM_DWG_DOCUMENT
  2
AcDmDwgDocument
  3
AcMechDwgViewMgmt
 90
        0
280
     0
281
     0
  0
CLASS
  1
AM_DWG_SHEET
  2
AcDmSheet
  3
AcMechDwgViewMgmt
 90
        0
280
     0
281
     0
  0
CLASS
  1
AM_VIEWDIMPARMAP
  2
AcDmViewDimParMap
  3
AcMechDwgViewMgmt
 90
        0
280
     0
281
     0
  0
CLASS
  1
AM_DWGMGR_NAME
  2
AcDmDwgMgrName
  3
AcMechDwgViewMgmt
 90
        0
280
     0
281
     0
  0
CLASS
  1
ACGREFACADMASTER
  2
AcGrefacadMaster
  3
AcGrefServices
 90
        0
280
     0
281
     0
  0
CLASS
  1
AMDTMENUSTATEMGR
  2
AmdtMenuStateMgr
  3
McadcomServices
 90
        0
280
     0
281
     0
  0
CLASS
  1
AMDTMCOMMENUSTATE
  2
AmdtMcomMenuState
  3
McadcomServices
 90
        0
280
     0
281
     0
  0
CLASS
  1
AMIMASTER
  2
AmiMaster
  3
AmiServices
 90
        0
280
     0
281
     0
  0
CLASS
  1
MAPIAMMOUDLE
  2
MApiAmModule
  3
MApiAmServices
 90
        0
280
     0
281
     0
  0
CLASS
  1
AMDTADMENUSTATE
  2
AmdtAdMenuState
  3
DesignerServices
 90
        0
280
     0
281
     0
  0
CLASS
  1
ADAPPL
  2
AcAdAppl
  3
DesignerServices
 90
        0
280
     0
281
     0
  0
CLASS
  1
DEPMGR
  2
AcAdDepMgr
  3
DesignerServices
 90
        0
280
     0
281
     0
  0
CLASS
  1
PARAMMGR
  2
AcAdParamMgr
  3
DesignerServices
 90
        0
280
     0
281
     0
  0
CLASS
  1
PARAMSCOPE
  2
AcAdParamScope
  3
DesignerServices
 90
        0
280
     0
281
     0
  0
CLASS
  1
NAMEDAPPL
  2
AcAdNamedAppl
  3
DesignerServices
 90
        0
280
     0
281
     0
  0
CLASS
  1
AMDTDMMENUSTATE
  2
AmdtDmMenuState
  3
AcMechDwgViewMgmt
 90
        0
280
     0
281
     0
  0
CLASS
  1
AMDTAMMENUSTATE
  2
AmdtAmMenuState
  3
DesignerAssemblies
 90
        0
280
     0
281
     0
  0
CLASS
  1
ACAMPROJECT
  2
AcAmProject
  3
DesignerAssemblies
 90
        0
280
     0
281
     0
  0
CLASS
  1
ACAMGRCOMPDEF
  2
AcAmGrCompDef
  3
DesignerAssemblies
 90
        0
280
     0
281
     0
  0
CLASS
  1
ACCMCONTEXT
  2
AcCmContext
  3
DesignerAssemblies
 90
        0
280
     0
281
     0
  0
CLASS
  1
ACAMCOMPDEF
  2
AcAmCompDef
  3
DesignerAssemblies
 90
        0
280
     0
281
     0
  0
CLASS
  1
ACAMCOMPDEFMGR
  2
AcAmCompDefMgr
  3
DesignerAssemblies
 90
        0
280
     0
281
     0
  0
CLASS
  1
AMCONTEXTMGR
  2
AcAmContextMgr
  3
DesignerAssemblies
 90
        0
280
     0
281
     0
  0
CLASS
  1
ACAMCONTEXTMODELER
  2
AcAmContextModeler
  3
DesignerAssemblies
 90
        0
280
     0
281
     0
  0
CLASS
  1
CATALOGSTATE
  2
AcAmCatalogState
  3
DesignerAssemblies
 90
        0
280
     0
281
     0
  0
CLASS
  1
ACAMGRCOMPDEFSET
  2
AcAmGrCompDefSet
  3
DesignerAssemblies
 90
        0
280
     0
281
     0
  0
CLASS
  1
AMDTBROWSERDBTAB
  2
AmdtBrowserDbTab
  3
McadcomServices
 90
        0
280
     0
281
     0
  0
CLASS
  1
CBROWSERAPPOBJECT
  2
CBrowserAppObject
  3
McadcomServices
 90
        0
280
     0
281
     0
  0
CLASS
  1
DM_PLACEHOLDER
  2
AcDmSelsetPlaceholder
  3
AcMechDwgViewMgmt
 90
        0
280
     0
281
     0
  0
CLASS
  1
ACMSTANDARDISO
  2
AcmStandardISO
  3
"Amdt_StdImp|Product Description: AutoCAD Mechanical 2004 DX|Company: Autodesk"
 90
        0
280
     0
281
     0
  0
CLASS
  1
AMDTEDGESTANDARDISO13715
  2
AmdtEdgeStdISO13715
  3
"Amdt_StdImp|Product Description: AutoCAD Mechanical 2004 DX|Company: Autodesk"
 90
        0
280
     0
281
     0
  0
CLASS
  1
ACMSURFSTANDARDISO
  2
AcmSurfTextStdISO
  3
"Amdt_StdImp|Product Description: AutoCAD Mechanical 2004 DX|Company: Autodesk"
 90
        0
280
     0
281
     0
  0
CLASS
  1
ACMFCFSTANDARDISO
  2
AcmFCFStdISO
  3
"Amdt_StdImp|Product Description: AutoCAD Mechanical 2004 DX|Company: Autodesk"
 90
        0
280
     0
281
     0
  0
CLASS
  1
ACMWELDSTANDARDISO
  2
AcmWeldingStdISO
  3
"Amdt_StdImp|Product Description: AutoCAD Mechanical 2004 DX|Company: Autodesk"
 90
        0
280
     0
281
     0
  0
CLASS
  1
ACMIDSTANDARDISO
  2
AcmIdStdISO
  3
"Amdt_StdImp|Product Description: AutoCAD Mechanical 2004 DX|Company: Autodesk"
 90
        0
280
     0
281
     0
  0
CLASS
  1
ACMDATUMSTANDARDISO
  2
AcmDatumStdISO
  3
"Amdt_StdImp|Product Description: AutoCAD Mechanical 2004 DX|Company: Autodesk"
 90
        0
280
     0
281
     0
  0
CLASS
  1
ACMBOMSTANDARDISO
  2
AcmBOMStdISO
  3
"Amdt_StdImp|Product Description: AutoCAD Mechanical 2004 DX|Company: Autodesk"
 90
        0
280
     0
281
     0
  0
CLASS
  1
ACMDETAILSTANDARDISO
  2
AmdtDetailSymStdISO
  3
"Amdt_StdImp|Product Description: AutoCAD Mechanical 2004 DX|Company: Autodesk"
 90
        0
280
     0
281
     0
  0
CLASS
  1
ACMSECTIONSTANDARDISO
  2
AmdtSectionSymStdISO
  3
"Amdt_StdImp|Product Description: AutoCAD Mechanical 2004 DX|Company: Autodesk"
 90
        0
280
     0
281
     0
  0
CLASS
  1
ACMCENTERLINESTANDARDISO
  2
AmdtCenterLineStdISO
  3
"Amdt_StdImp|Product Description: AutoCAD Mechanical 2004 DX|Company: Autodesk"
 90
        0
280
     0
281
     0
  0
CLASS
  1
ACMTHREADLINESTANDARDISO
  2
AmdtThreadLineStdISO
  3
"Amdt_StdImp|Product Description: AutoCAD Mechanical 2004 DX|Company: Autodesk"
 90
        0
280
     0
281
     0
  0
CLASS
  1
ACMNOTESTANDARDISO
  2
AmdtNoteStdISO
  3
"Amdt_StdImp|Product Description: AutoCAD Mechanical 2004 DX|Company: Autodesk"
 90
        0
280
     0
281
     0
  0
CLASS
  1
AMDTNOTETEMPLATEDB
  2
AmdtNoteTemplateDB
  3
AMDT_STDIMP_MODULE_NAME
 90
        0
280
     0
281
     0
  0
CLASS
  1
ACAMGLAYSTD
  2
AcAmgLayStd
  3
"AcAmgLayStd|Product Description: AutoCAD Mechanical 2000|Company: Autodesk"
 90
        0
280
     0
281
     0
  0
CLASS
  1
ACAMGDIMSTD
  2
AcAmgDimStd
  3
"AcAmgDimStd|Product Description: AutoCAD Mechanical 2000|Company: Autodesk"
 90
        0
280
     0
281
     0
  0
CLASS
  1
ACAMGHOLECHARTSTDISO
  2
AcAmgHoleChartStdISO
  3
ACMSYMBB_MODULE_NAME
 90
        0
280
     0
281
     0
  0
CLASS
  1
ACAMGTITLESTD
  2
AcAmgTitleStd
  3
"TITLEAPP"
 90
        0
280
     0
281
     0
  0
CLASS
  1
ACRFATTGENMGR
  2
AcRfAttGeneralMgr
  3
AcAttribServices
 90
        0
280
     0
281
     0
  0
ENDSEC
  0
SECTION
  2
TABLES
  0
TABLE
  2
VPORT
  5
8
330
0
100
AcDbSymbolTable
 70
    49
  0
VPORT
  5
1346E
330
8
100
AcDbSymbolTableRecord
100
AcDbViewportTableRecord
  2
*Active
 70
     0
 10
0.0
 20
0.0
 11
1.0
 21
1.0
 12
-62.39980674372012
 22
-13.89220262780611
 13
0.0
 23
0.0
 14
2.5
 24
2.5
 15
10.0
 25
10.0
 16
0.0
 26
0.0
 36
1.0
 17
0.0
 27
0.0
 37
0.0
 40
418.2617333633804
 41
2.002364066193853
 42
50.0
 43
0.0
 44
0.0
 50
0.0
 51
0.0
 71
     0
 72
   100
 73
     1
 74
     3
 75
     0
 76
     0
 77
     0
 78
     0
281
     0
 65
     0
110
0.0
120
0.0
130
0.0
111
1.0
121
0.0
131
0.0
112
0.0
122
1.0
132
0.0
 79
     0
146
0.0
  0
ENDTAB
  0
TABLE
  2
LTYPE
  5
5
330
0
100
AcDbSymbolTable
 70
    16
  0
LTYPE
  5
14
330
5
100
AcDbSymbolTableRecord
100
AcDbLinetypeTableRecord
  2
BYBLOCK
 70
     0
  3

 72
    65
 73
     0
 40
0.0
  0
LTYPE
  5
15
330
5
100
AcDbSymbolTableRecord
100
AcDbLinetypeTableRecord
  2
BYLAYER
 70
     0
  3

 72
    65
 73
     0
 40
0.0
  0
LTYPE
  5
16
330
5
100
AcDbSymbolTableRecord
100
AcDbLinetypeTableRecord
  2
CONTINUOUS
 70
     0
  3
Solid line
 72
    65
 73
     0
 40
0.0
  0
LTYPE
  5
4B
330
5
100
AcDbSymbolTableRecord
100
AcDbLinetypeTableRecord
  2
AM_ISO02W050
 70
     0
  3
__ __ __ __ __ __ __ __ __ __ __ __ __ __ __
 72
    65
 73
     2
 40
7.5
 49
6.0
 74
     0
 49
-1.5
 74
     0
  0
LTYPE
  5
4C
330
5
100
AcDbSymbolTableRecord
100
AcDbLinetypeTableRecord
  2
AM_ISO08W050
 70
     0
  3
____ . ____ . ____ . ____ . ____ . ____ . ____
 72
    65
 73
     4
 40
18.0
 49
12.0
 74
     0
 49
-1.5
 74
     0
 49
3.0
 74
     0
 49
-1.5
 74
     0
  0
LTYPE
  5
4D
330
5
100
AcDbSymbolTableRecord
100
AcDbLinetypeTableRecord
  2
AM_ISO09W050
 70
     0
  3
_____ . . _____ . . _____ . . ____ .. ____
 72
    65
 73
     6
 40
22.5
 49
12.0
 74
     0
 49
-1.5
 74
     0
 49
3.0
 74
     0
 49
-1.5
 74
     0
 49
3.0
 74
     0
 49
-1.5
 74
     0
  0
LTYPE
  5
4E
330
5
100
AcDbSymbolTableRecord
100
AcDbLinetypeTableRecord
  2
AMCONSTR
 70
     0
  3
_______________________
 72
    65
 73
     2
 40
9999.0
 49
9999.0
 74
     0
 49
0.0
 74
     0
  0
LTYPE
  5
4F
330
5
100
AcDbSymbolTableRecord
100
AcDbLinetypeTableRecord
  2
AM_ISO02W050X2
 70
     0
  3
 _ _ _ _ _ _ _ _ _ _ _ _
 72
    65
 73
     2
 40
3.75
 49
3.0
 74
     0
 49
-0.75
 74
     0
  0
LTYPE
  5
50
330
5
100
AcDbSymbolTableRecord
100
AcDbLinetypeTableRecord
  2
AM_ISO08W050X2
 70
     0
  3
__ . __ . __ . __ . __ . __
 72
    65
 73
     4
 40
9.0
 49
6.0
 74
     0
 49
-0.75
 74
     0
 49
1.5
 74
     0
 49
-0.75
 74
     0
  0
LTYPE
  5
53
330
5
100
AcDbSymbolTableRecord
100
AcDbLinetypeTableRecord
  2
AMZIGZAG
 70
     0
  3
/\/-/\/-/\/-/\/-/\/-/\/
 72
    65
 73
     2
 40
11.00009999999999
 49
0.0001
 74
     4
 75
   135
340
52
 46
0.04
 50
0.0
 44
0.0
 45
0.0
 49
-11.0
 74
     0
  0
LTYPE
  5
132B8
330
5
100
AcDbSymbolTableRecord
100
AcDbLinetypeTableRecord
  2
HIDDEN
 70
     0
  3
Hidden __ __ __ __ __ __ __ __ __ __ __ __ __ _
 72
    65
 73
     2
 40
9.524999999999998
 49
6.349999999999999
 74
     0
 49
-3.174999999999999
 74
     0
  0
LTYPE
  5
132B9
330
5
100
AcDbSymbolTableRecord
100
AcDbLinetypeTableRecord
  2
PHANTOM2
 70
     0
  3
Phantom (.5x) ___ _ _ ___ _ _ ___ _ _ ___ _ _
 72
    65
 73
     6
 40
31.75
 49
15.875
 74
     0
 49
-3.174999999999999
 74
     0
 49
3.174999999999999
 74
     0
 49
-3.174999999999999
 74
     0
 49
3.174999999999999
 74
     0
 49
-3.174999999999999
 74
     0
  0
LTYPE
  5
132BA
330
5
100
AcDbSymbolTableRecord
100
AcDbLinetypeTableRecord
  2
CENTER
 70
     0
  3
Center ____ _ ____ _ ____ _ ____ _ ____ _ ____
 72
    65
 73
     4
 40
50.8
 49
31.75
 74
     0
 49
-6.349999999999999
 74
     0
 49
6.349999999999999
 74
     0
 49
-6.349999999999999
 74
     0
  0
LTYPE
  5
132FA
330
5
100
AcDbSymbolTableRecord
100
AcDbLinetypeTableRecord
  2
ACISOWELD
 70
     0
  3
_ _ _ _ _
 72
    65
 73
     2
 40
2.0
 49
2.0
 74
     0
 49
-1.0
 74
     0
  0
LTYPE
  5
132FB
330
5
100
AcDbSymbolTableRecord
100
AcDbLinetypeTableRecord
  2
ACISOTGB
 70
     0
  3
__ . . __ . .
 72
    65
 73
     6
 40
9.0
 49
4.0
 74
     0
 49
-1.0
 74
     0
 49
1.0
 74
     0
 49
-1.0
 74
     0
 49
1.0
 74
     0
 49
-1.0
 74
     0
  0
LTYPE
  5
132FC
330
5
100
AcDbSymbolTableRecord
100
AcDbLinetypeTableRecord
  2
ACISOTGL
 70
     0
  3
_ _ _ _ _
 72
    65
 73
     2
 40
3.0
 49
2.0
 74
     0
 49
-1.0
 74
     0
  0
ENDTAB
  0
TABLE
  2
LAYER
  5
2
330
0
100
AcDbSymbolTable
 70
    11
  0
LAYER
  5
10
330
2
100
AcDbSymbolTableRecord
100
AcDbLayerTableRecord
  2
0
 70
     0
 62
     7
  6
CONTINUOUS
370
    -3
390
F
  0
LAYER
  5
3F9
330
2
100
AcDbSymbolTableRecord
100
AcDbLayerTableRecord
  2
AM_0
 70
     0
 62
     7
  6
CONTINUOUS
370
    -3
390
F
  0
LAYER
  5
BD5
330
2
100
AcDbSymbolTableRecord
100
AcDbLayerTableRecord
  2
AM_7
 70
     0
 62
     4
  6
AM_ISO08W050
370
    -3
390
F
  0
LAYER
  5
BD6
330
2
100
AcDbSymbolTableRecord
100
AcDbLayerTableRecord
  2
AM_5
 70
     0
 62
     3
  6
CONTINUOUS
370
    -3
390
F
  0
LAYER
  5
BD7
330
2
100
AcDbSymbolTableRecord
100
AcDbLayerTableRecord
  2
DEFPOINTS
 70
     0
 62
     7
  6
CONTINUOUS
290
     0
370
    -3
390
F
  0
LAYER
  5
E59
330
2
100
AcDbSymbolTableRecord
100
AcDbLayerTableRecord
  2
AM_6
 70
     0
 62
     2
  6
CONTINUOUS
370
    -3
390
F
  0
LAYER
  5
1E31
330
2
100
AcDbSymbolTableRecord
100
AcDbLayerTableRecord
  2
AM_11
 70
     0
 62
     3
  6
AM_ISO09W050
370
    -3
390
F
  0
LAYER
  5
13209
330
2
100
AcDbSymbolTableRecord
100
AcDbLayerTableRecord
  2
AM_4
 70
     0
 62
     3
  6
CONTINUOUS
370
    -3
390
F
  0
ENDTAB
  0
TABLE
  2
STYLE
  5
3
330
0
100
AcDbSymbolTable
 70
     7
  0
STYLE
  5
11
330
3
100
AcDbSymbolTableRecord
100
AcDbTextStyleTableRecord
  2
STANDARD
 70
     0
 40
0.0
 41
1.0
 50
0.0
 71
     0
 42
2.5
  3
simplex.shx
  4
EXTFONT.SHX
  0
STYLE
  5
52
330
3
100
AcDbSymbolTableRecord
100
AcDbTextStyleTableRecord
  2

 70
     1
 40
0.0
 41
1.0
 50
0.0
 71
     0
 42
2.5
  3
ltypeshp.shx
  4

  0
STYLE
  5
6B
330
3
100
AcDbSymbolTableRecord
100
AcDbTextStyleTableRecord
  2
ASAMI
 70
     0
 40
0.0
 41
1.0
 50
0.0
 71
     0
 42
2.5
  3
simplex.shx
  4
EXTFONT.SHX
  0
STYLE
  5
132EC
330
3
100
AcDbSymbolTableRecord
100
AcDbTextStyleTableRecord
  2
ACISOTS
 70
     0
 40
1.0
 41
1.0
 50
0.0
 71
     0
 42
2.5
  3
isocp.shx
  4
extfont.shx
  0
STYLE
  5
132F9
330
3
100
AcDbSymbolTableRecord
100
AcDbTextStyleTableRecord
  2
ACISOGDT
 70
     0
 40
0.0
 41
1.0
 50
0.0
 71
     0
 42
2.5
  3
amgdt.shx
  4

  0
ENDTAB
  0
TABLE
  2
VIEW
  5
6
330
0
100
AcDbSymbolTable
 70
     0
  0
ENDTAB
  0
TABLE
  2
UCS
  5
7
330
0
100
AcDbSymbolTable
 70
     0
  0
ENDTAB
  0
TABLE
  2
APPID
  5
9
330
0
100
AcDbSymbolTable
 70
    20
  0
APPID
  5
12
330
9
100
AcDbSymbolTableRecord
100
AcDbRegAppTableRecord
  2
ACAD
 70
     0
  0
APPID
  5
30
330
9
100
AcDbSymbolTableRecord
100
AcDbRegAppTableRecord
  2
MCAD_NO_VIS
 70
     0
  0
APPID
  5
31
330
9
100
AcDbSymbolTableRecord
100
AcDbRegAppTableRecord
  2
ACAD_TEMP_GRAPHIC
 70
     0
  0
APPID
  5
2C2
330
9
100
AcDbSymbolTableRecord
100
AcDbRegAppTableRecord
  2
GENIUS_GENDTOL_13
 70
     0
  0
APPID
  5
339
330
9
100
AcDbSymbolTableRecord
100
AcDbRegAppTableRecord
  2
GENIUS_GENODEF_13
 70
     0
  0
APPID
  5
33A
330
9
100
AcDbSymbolTableRecord
100
AcDbRegAppTableRecord
  2
GENIUS_GENOBJ-N-RSBK_13
 70
     0
  0
APPID
  5
33B
330
9
100
AcDbSymbolTableRecord
100
AcDbRegAppTableRecord
  2
GENIUS_GENOBJ-N-LIB_13
 70
     0
  0
APPID
  5
33C
330
9
100
AcDbSymbolTableRecord
100
AcDbRegAppTableRecord
  2
GENIUS_GENSCALE_13
 70
     0
  0
APPID
  5
378
330
9
100
AcDbSymbolTableRecord
100
AcDbRegAppTableRecord
  2
GENIUS_GENDIMSH_14
 70
     0
  0
APPID
  5
BD8
330
9
100
AcDbSymbolTableRecord
100
AcDbRegAppTableRecord
  2
GENIUS_GENOBJ-N-CEN_13
 70
     0
  0
APPID
  5
BD9
330
9
100
AcDbSymbolTableRecord
100
AcDbRegAppTableRecord
  2
GENIUS_GENFIL_13
 70
     0
  0
APPID
  5
BDA
330
9
100
AcDbSymbolTableRecord
100
AcDbRegAppTableRecord
  2
GENIUS_GENOBJ-N-CHA_13
 70
     0
  0
APPID
  5
2BC1
330
9
100
AcDbSymbolTableRecord
100
AcDbRegAppTableRecord
  2
GENIUS_GENOBJ-N-FIL_13
 70
     0
  0
APPID
  5
132BC
330
9
100
AcDbSymbolTableRecord
100
AcDbRegAppTableRecord
  2
AD_DRAW
 70
     0
  0
APPID
  5
132BF
330
9
100
AcDbSymbolTableRecord
100
AcDbRegAppTableRecord
  2
ACATTRIBSERVICES
 70
     0
  0
APPID
  5
132DD
330
9
100
AcDbSymbolTableRecord
100
AcDbRegAppTableRecord
  2
DESIGNERASSEMBLIES
 70
     0
  0
APPID
  5
132E2
330
9
100
AcDbSymbolTableRecord
100
AcDbRegAppTableRecord
  2
ACADM_DIM_EDIT
 70
     0
  0
APPID
  5
132E3
330
9
100
AcDbSymbolTableRecord
100
AcDbRegAppTableRecord
  2
AMDT_DM_ADJ
 70
     0
  0
APPID
  5
1330F
330
9
100
AcDbSymbolTableRecord
100
AcDbRegAppTableRecord
  2
GENIUS_GENSCREG_15
 70
     0
  0
APPID
  5
13310
330
9
100
AcDbSymbolTableRecord
100
AcDbRegAppTableRecord
  2
GENIUS_GENOBJ-N-SDF_13
 70
     0
  0
ENDTAB
  0
TABLE
  2
DIMSTYLE
  5
A
330
0
100
AcDbSymbolTable
 70
    17
100
AcDbDimStyleTable
 71
     1
340
58
  0
DIMSTYLE
105
58
102
{ACAD_REACTORS
330
12CDC
330
12CDA
330
12CDB
330
12CDD
330
12CDE
330
12CE1
330
12CE0
330
12CE2
102
}
330
A
100
AcDbSymbolTableRecord
100
AcDbDimStyleTableRecord
  2
AM_JIS
 70
     0
  4
"
 41
2.5
 42
1.0
 43
12.0
 44
1.0
 47
0.1
 48
0.1
 73
     0
 74
     0
 77
     3
 78
     8
140
3.2
141
0.0
143
0.0393701
146
0.71
147
1.5
172
     1
176
   256
177
   256
178
     2
271
     3
272
     3
283
     0
340
6B
341
59
342
59
  0
DIMSTYLE
105
B34
102
{ACAD_REACTORS
330
13420
102
}
330
A
100
AcDbSymbolTableRecord
100
AcDbDimStyleTableRecord
  2
AM_JIS$2
 70
     0
  4
"
 41
2.5
 42
1.0
 43
12.0
 44
1.0
 47
0.1
 48
0.1
 73
     0
 74
     0
 77
     3
 78
     8
140
3.2
141
0.0
143
0.0393701
146
0.71
147
1.5
172
     1
176
   256
177
   256
178
     2
271
     3
272
     3
283
     0
340
6B
341
59
342
59
  0
DIMSTYLE
105
1E42
102
{ACAD_REACTORS
330
12CE3
330
12CDF
330
133CF
102
}
330
A
100
AcDbSymbolTableRecord
100
AcDbDimStyleTableRecord
  2
AM_JIS$0
 70
     0
  4
"
 40
2.0
 41
2.5
 42
1.0
 43
10.0
 44
1.0
 47
0.1
 48
0.1
 73
     0
 74
     0
 77
     3
 78
     8
140
2.5
141
0.0
143
0.0393701
146
0.71
147
1.0
172
     1
176
   256
177
   256
178
     4
271
     3
272
     3
283
     0
340
6B
341
59
342
59
  0
DIMSTYLE
105
13306
330
A
100
AcDbSymbolTableRecord
100
AcDbDimStyleTableRecord
  2
AM_ISO
 70
     0
  4
"
 41
2.5
 42
1.0
 43
10.0
 44
1.0
 47
0.1
 48
0.1
 73
     0
 74
     0
 77
     1
 78
     8
 79
     2
140
3.5
141
0.0
143
0.0393701
146
0.71
147
1.5
172
     1
176
   256
177
   256
178
     2
271
     2
272
     3
274
     4
283
     0
284
     8
340
11
371
    -1
372
    -1
  0
DIMSTYLE
105
13307
330
A
100
AcDbSymbolTableRecord
100
AcDbDimStyleTableRecord
  2
AM_ISO$3
 70
     0
  4
"
 41
2.5
 42
1.0
 43
10.0
 44
1.0
 47
0.1
 48
0.1
 73
     0
 77
     1
 78
     8
 79
     2
140
3.5
141
0.0
143
0.0393701
146
0.71
147
1.5
176
   256
177
   256
178
     2
271
     2
272
     3
274
     4
283
     0
284
     8
288
     1
289
     0
340
11
371
    -1
372
    -1
  0
DIMSTYLE
105
13308
330
A
100
AcDbSymbolTableRecord
100
AcDbDimStyleTableRecord
  2
AM_ISO$4
 70
     0
  4
"
 41
2.5
 42
1.0
 43
10.0
 44
1.0
 47
0.1
 48
0.1
 73
     0
 77
     1
 78
     8
 79
     2
140
3.5
141
0.0
143
0.0393701
146
0.71
147
1.5
176
   256
177
   256
178
     2
271
     2
272
     3
274
     4
283
     0
284
     8
288
     1
289
     0
340
11
371
    -1
372
    -1
  0
DIMSTYLE
105
13309
330
A
100
AcDbSymbolTableRecord
100
AcDbDimStyleTableRecord
  2
AM_ISO$6
 70
     0
  4
"
 41
2.5
 42
1.0
 43
10.0
 44
1.0
 47
0.1
 48
0.1
 73
     0
 74
     0
 78
     8
 79
     2
140
3.5
141
0.0
143
0.0393701
146
0.71
147
1.5
172
     1
176
   256
177
   256
178
     2
271
     2
272
     3
274
     4
283
     0
284
     8
340
11
371
    -1
372
    -1
  0
DIMSTYLE
105
1330A
330
A
100
AcDbSymbolTableRecord
100
AcDbDimStyleTableRecord
  2
AM_ISO$7
 70
     0
  4
"
 41
2.5
 42
1.0
 43
10.0
 44
1.0
 47
0.1
 48
0.1
 73
     0
 74
     0
 77
     1
 78
     8
 79
     2
140
5.0
141
0.0
143
0.0393701
146
0.71
147
1.5
172
     1
176
   256
177
   256
178
     2
271
     2
272
     3
274
     4
283
     0
284
     8
340
11
371
    -1
372
    -1
  0
DIMSTYLE
105
1330B
330
A
100
AcDbSymbolTableRecord
100
AcDbDimStyleTableRecord
  2
AM_ISO$SF
 70
     0
  4
"
 41
2.5
 42
1.0
 43
10.0
 44
1.0
 47
0.1
 48
0.1
 73
     0
 74
     0
 75
     1
 76
     1
 77
     1
 78
     8
 79
     2
140
3.5
141
0.0
143
0.0393701
146
0.71
147
1.5
172
     1
176
   256
177
   256
178
     2
271
     2
272
     3
274
     4
283
     0
284
     8
340
11
371
    -1
372
    -1
  0
DIMSTYLE
105
1330C
330
A
100
AcDbSymbolTableRecord
100
AcDbDimStyleTableRecord
  2
AM_ISO$SH
 70
     0
  4
"
 41
2.5
 42
1.0
 43
10.0
 44
1.0
 47
0.1
 48
0.1
 73
     0
 74
     0
 75
     1
 76
     1
 77
     1
 78
     8
 79
     2
140
3.5
141
0.0
143
0.0393701
144
2.0
146
0.71
147
1.5
172
     1
173
     1
176
   256
177
   256
178
     2
271
     2
272
     3
274
     4
283
     0
284
     8
340
11
343
64
371
    -1
372
    -1
  0
DIMSTYLE
105
13313
330
A
100
AcDbSymbolTableRecord
100
AcDbDimStyleTableRecord
  2
STANDARD
 70
     0
340
11
  0
ENDTAB
  0
TABLE
  2
BLOCK_RECORD
  5
1
330
0
100
AcDbSymbolTable
 70
    16
  0
BLOCK_RECORD
  5
1F
102
{ACAD_XDICTIONARY
360
74
102
}
330
1
100
AcDbSymbolTableRecord
100
AcDbBlockTableRecord
  2
*MODEL_SPACE
340
13285
  0
BLOCK_RECORD
  5
101
102
{ACAD_XDICTIONARY
360
13279
102
}
330
1
100
AcDbSymbolTableRecord
100
AcDbBlockTableRecord
  2
*PAPER_SPACE
340
13286
  0
BLOCK_RECORD
  5
59
330
1
100
AcDbSymbolTableRecord
100
AcDbBlockTableRecord
  2
_OPEN30
340
0
102
{BLKREFS
331
130D6
331
130D7
331
130A9
331
130AA
331
130A0
331
130A1
331
130DF
331
130E0
331
1308E
331
1308F
331
130C4
331
130C5
331
130BB
331
130BC
331
13097
331
13098
331
130E9
331
130EA
331
130CD
331
130CE
331
131C7
331
131C8
331
133FF
331
13400
331
13460
331
13461
102
}
  0
BLOCK_RECORD
  5
64
330
1
100
AcDbSymbolTableRecord
100
AcDbBlockTableRecord
  2
GENAXEH
340
0
  0
BLOCK_RECORD
  5
12CE4
330
1
100
AcDbSymbolTableRecord
100
AcDbBlockTableRecord
  2
*D2
340
0
  0
BLOCK_RECORD
  5
12CF0
330
1
100
AcDbSymbolTableRecord
100
AcDbBlockTableRecord
  2
*D3
340
0
  0
BLOCK_RECORD
  5
12CFC
330
1
100
AcDbSymbolTableRecord
100
AcDbBlockTableRecord
  2
*D4
340
0
  0
BLOCK_RECORD
  5
12D08
330
1
100
AcDbSymbolTableRecord
100
AcDbBlockTableRecord
  2
*D5
340
0
  0
BLOCK_RECORD
  5
12D14
330
1
100
AcDbSymbolTableRecord
100
AcDbBlockTableRecord
  2
*D6
340
0
  0
BLOCK_RECORD
  5
12D20
330
1
100
AcDbSymbolTableRecord
100
AcDbBlockTableRecord
  2
*D7
340
0
  0
BLOCK_RECORD
  5
12D2C
330
1
100
AcDbSymbolTableRecord
100
AcDbBlockTableRecord
  2
*D8
340
0
  0
BLOCK_RECORD
  5
12D38
330
1
100
AcDbSymbolTableRecord
100
AcDbBlockTableRecord
  2
*D9
340
0
  0
BLOCK_RECORD
  5
12D44
330
1
100
AcDbSymbolTableRecord
100
AcDbBlockTableRecord
  2
*D10
340
0
  0
BLOCK_RECORD
  5
12D50
330
1
100
AcDbSymbolTableRecord
100
AcDbBlockTableRecord
  2
*D11
340
0
  0
BLOCK_RECORD
  5
133D0
330
1
100
AcDbSymbolTableRecord
100
AcDbBlockTableRecord
  2
*D14
340
0
  0
BLOCK_RECORD
  5
13421
330
1
100
AcDbSymbolTableRecord
100
AcDbBlockTableRecord
  2
*D15
340
0
  0
ENDTAB
  0
ENDSEC
  0
SECTION
  2
BLOCKS
  0
BLOCK
  5
20
330
1F
100
AcDbEntity
  8
0
100
AcDbBlockBegin
  2
*MODEL_SPACE
 70
     0
 10
0.0
 20
0.0
 30
0.0
  3
*MODEL_SPACE
  1

  0
ENDBLK
  5
21
330
1F
100
AcDbEntity
  8
0
100
AcDbBlockEnd
  0
BLOCK
  5
103
330
101
100
AcDbEntity
 67
     1
  8
0
100
AcDbBlockBegin
  2
*PAPER_SPACE
 70
     0
 10
0.0
 20
0.0
 30
0.0
  3
*PAPER_SPACE
  1

  0
ENDBLK
  5
104
330
101
100
AcDbEntity
 67
     1
  8
0
100
AcDbBlockEnd
  0
BLOCK
  5
5D
330
59
100
AcDbEntity
  8
0
100
AcDbBlockBegin
  2
_OPEN30
 70
     0
 10
0.0
 20
0.0
 30
0.0
  3
_OPEN30
  1

  0
LINE
  5
5A
330
59
100
AcDbEntity
  8
0
 62
     0
100
AcDbLine
 10
-1.0
 20
0.26794919
 30
0.0
 11
0.0
 21
0.0
 31
0.0
  0
LINE
  5
5B
330
59
100
AcDbEntity
  8
0
 62
     0
100
AcDbLine
 10
0.0
 20
0.0
 30
0.0
 11
-1.0
 21
-0.26794919
 31
0.0
  0
LINE
  5
5C
330
59
100
AcDbEntity
  8
0
 62
     0
100
AcDbLine
 10
0.0
 20
0.0
 30
0.0
 11
-1.0
 21
0.0
 31
0.0
  0
ENDBLK
  5
5E
330
59
100
AcDbEntity
  8
0
100
AcDbBlockEnd
  0
BLOCK
  5
66
330
64
100
AcDbEntity
  8
0
100
AcDbBlockBegin
  2
GENAXEH
 70
     0
 10
0.0
 20
0.0
 30
0.0
  3
GENAXEH
  1

  0
LINE
  5
65
330
64
100
AcDbEntity
  8
0
100
AcDbLine
 10
-1.0
 20
0.0
 30
0.0
 11
1.0
 21
0.0
 31
0.0
  0
ENDBLK
  5
67
330
64
100
AcDbEntity
  8
0
100
AcDbBlockEnd
  0
BLOCK
  5
12CEE
330
12CE4
100
AcDbEntity
  8
0
100
AcDbBlockBegin
  2
*D2
 70
     1
 10
0.0
 20
0.0
 30
0.0
  3
*D2
  1

  0
LINE
  5
130D3
330
12CE4
100
AcDbEntity
  8
AM_5
100
AcDbLine
 10
-69.19999999999986
 20
23.81249999999992
 30
0.0
 11
-99.32409633116778
 21
23.81249999999993
 31
0.0
  0
LINE
  5
130D4
330
12CE4
100
AcDbEntity
  8
AM_5
100
AcDbLine
 10
-69.19999999999986
 20
-23.81249999999992
 30
0.0
 11
-99.32409633116778
 21
-23.81249999999992
 31
0.0
  0
LINE
  5
130D5
330
12CE4
100
AcDbEntity
  8
AM_5
100
AcDbLine
 10
-98.32409633116778
 20
21.31249999999993
 30
0.0
 11
-98.32409633116778
 21
-21.31249999999992
 31
0.0
  0
INSERT
  5
130D6
330
12CE4
100
AcDbEntity
  8
AM_5
100
AcDbBlockReference
  2
_OPEN30
 10
-98.32409633116778
 20
23.81249999999993
 30
0.0
 41
2.5
 42
2.5
 43
2.5
 50
90.0
  0
INSERT
  5
130D7
330
12CE4
100
AcDbEntity
  8
AM_5
100
AcDbBlockReference
  2
_OPEN30
 10
-98.32409633116778
 20
-23.81249999999992
 30
0.0
 41
2.5
 42
2.5
 43
2.5
 50
270.0
  0
MTEXT
  5
130D8
330
12CE4
100
AcDbEntity
  8
AM_5
 62
     2
100
AcDbMText
 10
-101.4240963311677
 20
-0.0000000000000043
 30
0.0
 40
3.2
 41
0.0
 71
     5
 72
     1
  1
%%c47.625
  7
ASAMI
 11
0.0000000000000001
 21
1.0
 31
0.0
 73
     1
 44
1.0
1001
ACAD
1000
MTEXTBEGIN
1070
    73
1070
     1
1070
    44
1040
1.0
1070
    74
1070
     0
1000
MTEXTEND
  0
POINT
  5
130D9
330
12CE4
100
AcDbEntity
  8
DEFPOINTS
 62
     0
100
AcDbPoint
 10
-68.19999999999986
 20
23.81249999999992
 30
0.0
  0
POINT
  5
130DA
330
12CE4
100
AcDbEntity
  8
DEFPOINTS
 62
     0
100
AcDbPoint
 10
-68.19999999999986
 20
-23.81249999999992
 30
0.0
  0
POINT
  5
130DB
330
12CE4
100
AcDbEntity
  8
DEFPOINTS
 62
     0
100
AcDbPoint
 10
-98.32409633116778
 20
-23.81249999999992
 30
0.0
  0
ENDBLK
  5
12CEF
330
12CE4
100
AcDbEntity
  8
0
100
AcDbBlockEnd
  0
BLOCK
  5
12CFA
330
12CF0
100
AcDbEntity
  8
0
100
AcDbBlockBegin
  2
*D3
 70
     1
 10
0.0
 20
0.0
 30
0.0
  3
*D3
  1

  0
LINE
  5
130A6
330
12CF0
100
AcDbEntity
  8
AM_5
100
AcDbLine
 10
-69.19999999999953
 20
99.99999999999985
 30
0.0
 11
-109.3240963311677
 21
99.99999999999985
 31
0.0
  0
LINE
  5
130A7
330
12CF0
100
AcDbEntity
  8
AM_5
100
AcDbLine
 10
-69.19999999999942
 20
-99.99999999999994
 30
0.0
 11
-109.3240963311677
 21
-99.99999999999992
 31
0.0
  0
LINE
  5
130A8
330
12CF0
100
AcDbEntity
  8
AM_5
100
AcDbLine
 10
-108.3240963311677
 20
97.49999999999985
 30
0.0
 11
-108.3240963311677
 21
-97.49999999999992
 31
0.0
  0
INSERT
  5
130A9
330
12CF0
100
AcDbEntity
  8
AM_5
100
AcDbBlockReference
  2
_OPEN30
 10
-108.3240963311677
 20
99.99999999999985
 30
0.0
 41
2.5
 42
2.5
 43
2.5
 50
90.0
  0
INSERT
  5
130AA
330
12CF0
100
AcDbEntity
  8
AM_5
100
AcDbBlockReference
  2
_OPEN30
 10
-108.3240963311677
 20
-99.99999999999992
 30
0.0
 41
2.5
 42
2.5
 43
2.5
 50
270.0
  0
MTEXT
  5
130AB
330
12CF0
100
AcDbEntity
  8
AM_5
 62
     2
100
AcDbMText
 10
-111.4240963311677
 20
-0.000000000000064
 30
0.0
 40
3.2
 41
0.0
 71
     5
 72
     1
  1
%%c200
  7
ASAMI
 11
0.0000000000000001
 21
1.0
 31
0.0
 73
     1
 44
1.0
1001
ACAD
1000
MTEXTBEGIN
1070
    73
1070
     1
1070
    44
1040
1.0
1070
    74
1070
     0
1000
MTEXTEND
  0
POINT
  5
130AC
330
12CF0
100
AcDbEntity
  8
DEFPOINTS
 62
     0
100
AcDbPoint
 10
-68.19999999999954
 20
99.99999999999985
 30
0.0
  0
POINT
  5
130AD
330
12CF0
100
AcDbEntity
  8
DEFPOINTS
 62
     0
100
AcDbPoint
 10
-68.19999999999942
 20
-99.99999999999994
 30
0.0
  0
POINT
  5
130AE
330
12CF0
100
AcDbEntity
  8
DEFPOINTS
 62
     0
100
AcDbPoint
 10
-108.3240963311677
 20
-99.99999999999992
 30
0.0
  0
ENDBLK
  5
12CFB
330
12CF0
100
AcDbEntity
  8
0
100
AcDbBlockEnd
  0
BLOCK
  5
12D06
330
12CFC
100
AcDbEntity
  8
0
100
AcDbBlockBegin
  2
*D4
 70
     1
 10
0.0
 20
0.0
 30
0.0
  3
*D4
  1

  0
LINE
  5
1309D
330
12CFC
100
AcDbEntity
  8
AM_5
100
AcDbLine
 10
-54.46534602404137
 20
129.05
 30
0.0
 11
-119.3240963311677
 21
129.0500000000001
 31
0.0
  0
LINE
  5
1309E
330
12CFC
100
AcDbEntity
  8
AM_5
100
AcDbLine
 10
-54.46534602404137
 20
-129.05
 30
0.0
 11
-119.3240963311677
 21
-129.05
 31
0.0
  0
LINE
  5
1309F
330
12CFC
100
AcDbEntity
  8
AM_5
100
AcDbLine
 10
-118.3240963311677
 20
126.55
 30
0.0
 11
-118.3240963311677
 21
-126.55
 31
0.0
  0
INSERT
  5
130A0
330
12CFC
100
AcDbEntity
  8
AM_5
100
AcDbBlockReference
  2
_OPEN30
 10
-118.3240963311677
 20
129.0500000000001
 30
0.0
 41
2.5
 42
2.5
 43
2.5
 50
90.0
  0
INSERT
  5
130A1
330
12CFC
100
AcDbEntity
  8
AM_5
100
AcDbBlockReference
  2
_OPEN30
 10
-118.3240963311677
 20
-129.05
 30
0.0
 41
2.5
 42
2.5
 43
2.5
 50
270.0
  0
MTEXT
  5
130A2
330
12CFC
100
AcDbEntity
  8
AM_5
 62
     2
100
AcDbMText
 10
-121.4240963311677
 20
0.0000000000000076
 30
0.0
 40
3.2
 41
0.0
 71
     5
 72
     1
  1
%%c258.1
  7
ASAMI
 11
0.0000000000000001
 21
1.0
 31
0.0
 73
     1
 44
1.0
1001
ACAD
1000
MTEXTBEGIN
1070
    73
1070
     1
1070
    44
1040
1.0
1070
    74
1070
     0
1000
MTEXTEND
  0
POINT
  5
130A3
330
12CFC
100
AcDbEntity
  8
DEFPOINTS
 62
     0
100
AcDbPoint
 10
-53.46534602404137
 20
129.05
 30
0.0
  0
POINT
  5
130A4
330
12CFC
100
AcDbEntity
  8
DEFPOINTS
 62
     0
100
AcDbPoint
 10
-53.46534602404137
 20
-129.05
 30
0.0
  0
POINT
  5
130A5
330
12CFC
100
AcDbEntity
  8
DEFPOINTS
 62
     0
100
AcDbPoint
 10
-118.3240963311677
 20
-129.05
 30
0.0
  0
ENDBLK
  5
12D07
330
12CFC
100
AcDbEntity
  8
0
100
AcDbBlockEnd
  0
BLOCK
  5
12D12
330
12D08
100
AcDbEntity
  8
0
100
AcDbBlockBegin
  2
*D5
 70
     1
 10
0.0
 20
0.0
 30
0.0
  3
*D5
  1

  0
LINE
  5
130DC
330
12D08
100
AcDbEntity
  8
AM_5
100
AcDbLine
 10
-69.69999999999948
 20
12.70000000000004
 30
0.0
 11
-89.32409633116778
 21
12.70000000000005
 31
0.0
  0
LINE
  5
130DD
330
12D08
100
AcDbEntity
  8
AM_5
100
AcDbLine
 10
-69.69999999999948
 20
-12.70000000000004
 30
0.0
 11
-89.32409633116778
 21
-12.70000000000004
 31
0.0
  0
LINE
  5
130DE
330
12D08
100
AcDbEntity
  8
AM_5
100
AcDbLine
 10
-88.32409633116778
 20
10.20000000000005
 30
0.0
 11
-88.32409633116778
 21
-10.20000000000004
 31
0.0
  0
INSERT
  5
130DF
330
12D08
100
AcDbEntity
  8
AM_5
100
AcDbBlockReference
  2
_OPEN30
 10
-88.32409633116778
 20
12.70000000000005
 30
0.0
 41
2.5
 42
2.5
 43
2.5
 50
90.0
  0
INSERT
  5
130E0
330
12D08
100
AcDbEntity
  8
AM_5
100
AcDbBlockReference
  2
_OPEN30
 10
-88.32409633116778
 20
-12.70000000000004
 30
0.0
 41
2.5
 42
2.5
 43
2.5
 50
270.0
  0
MTEXT
  5
130E1
330
12D08
100
AcDbEntity
  8
AM_5
 62
     2
100
AcDbMText
 10
-91.42409633116777
 20
-0.0000000000001488
 30
0.0
 40
3.2
 41
0.0
 71
     5
 72
     1
  1
25.4
  7
ASAMI
 11
0.0000000000000001
 21
1.0
 31
0.0
 73
     1
 44
1.0
1001
ACAD
1000
MTEXTBEGIN
1070
    73
1070
     1
1070
    44
1040
1.0
1070
    74
1070
     0
1000
MTEXTEND
  0
POINT
  5
130E2
330
12D08
100
AcDbEntity
  8
DEFPOINTS
 62
     0
100
AcDbPoint
 10
-68.69999999999946
 20
12.70000000000004
 30
0.0
  0
POINT
  5
130E3
330
12D08
100
AcDbEntity
  8
DEFPOINTS
 62
     0
100
AcDbPoint
 10
-68.69999999999946
 20
-12.70000000000004
 30
0.0
  0
POINT
  5
130E4
330
12D08
100
AcDbEntity
  8
DEFPOINTS
 62
     0
100
AcDbPoint
 10
-88.32409633116778
 20
-12.70000000000004
 30
0.0
  0
ENDBLK
  5
12D13
330
12D08
100
AcDbEntity
  8
0
100
AcDbBlockEnd
  0
BLOCK
  5
12D1E
330
12D14
100
AcDbEntity
  8
0
100
AcDbBlockBegin
  2
*D6
 70
     1
 10
0.0
 20
0.0
 30
0.0
  3
*D6
  1

  0
LINE
  5
1308B
330
12D14
100
AcDbEntity
  8
AM_5
100
AcDbLine
 10
-69.99999999999954
 20
-99.19999999999985
 30
0.0
 11
-69.99999999999954
 21
-145.272182
 31
0.0
  0
LINE
  5
1308C
330
12D14
100
AcDbEntity
  8
AM_5
100
AcDbLine
 10
-56.4999999999996
 20
-12.70000000000009
 30
0.0
 11
-56.49999999999961
 21
-145.272182
 31
0.0
  0
LINE
  5
1308D
330
12D14
100
AcDbEntity
  8
AM_5
100
AcDbLine
 10
-67.49999999999954
 20
-144.272182
 30
0.0
 11
-58.99999999999961
 21
-144.272182
 31
0.0
  0
INSERT
  5
1308E
330
12D14
100
AcDbEntity
  8
AM_5
100
AcDbBlockReference
  2
_OPEN30
 10
-69.99999999999954
 20
-144.272182
 30
0.0
 41
2.5
 42
2.5
 43
2.5
 50
180.0
  0
INSERT
  5
1308F
330
12D14
100
AcDbEntity
  8
AM_5
100
AcDbBlockReference
  2
_OPEN30
 10
-56.49999999999961
 20
-144.272182
 30
0.0
 41
2.5
 42
2.5
 43
2.5
  0
MTEXT
  5
13090
330
12D14
100
AcDbEntity
  8
AM_5
 62
     2
100
AcDbMText
 10
-63.24999999999957
 20
-141.172182
 30
0.0
 40
3.2
 41
0.0
 71
     5
 72
     1
  1
13.5
  7
ASAMI
 73
     1
 44
1.0
1001
ACAD
1000
MTEXTBEGIN
1070
    73
1070
     1
1070
    44
1040
1.0
1070
    74
1070
     0
1000
MTEXTEND
  0
POINT
  5
13091
330
12D14
100
AcDbEntity
  8
DEFPOINTS
 62
     0
100
AcDbPoint
 10
-69.99999999999954
 20
-98.19999999999986
 30
0.0
  0
POINT
  5
13092
330
12D14
100
AcDbEntity
  8
DEFPOINTS
 62
     0
100
AcDbPoint
 10
-56.4999999999996
 20
-11.70000000000009
 30
0.0
  0
POINT
  5
13093
330
12D14
100
AcDbEntity
  8
DEFPOINTS
 62
     0
100
AcDbPoint
 10
-56.49999999999961
 20
-144.272182
 30
0.0
  0
ENDBLK
  5
12D1F
330
12D14
100
AcDbEntity
  8
0
100
AcDbBlockEnd
  0
BLOCK
  5
12D2A
330
12D20
100
AcDbEntity
  8
0
100
AcDbBlockBegin
  2
*D7
 70
     1
 10
0.0
 20
0.0
 30
0.0
  3
*D7
  1

  0
LINE
  5
130C1
330
12D20
100
AcDbEntity
  8
AM_5
100
AcDbLine
 10
-69.99999999999954
 20
-99.19999999999985
 30
0.0
 11
-69.99999999999954
 21
-165.272182
 31
0.0
  0
LINE
  5
130C2
330
12D20
100
AcDbEntity
  8
AM_5
100
AcDbLine
 10
-29.99999999999937
 20
-78.50000000000014
 30
0.0
 11
-29.99999999999938
 21
-165.272182
 31
0.0
  0
LINE
  5
130C3
330
12D20
100
AcDbEntity
  8
AM_5
100
AcDbLine
 10
-67.49999999999954
 20
-164.272182
 30
0.0
 11
-32.49999999999937
 21
-164.272182
 31
0.0
  0
INSERT
  5
130C4
330
12D20
100
AcDbEntity
  8
AM_5
100
AcDbBlockReference
  2
_OPEN30
 10
-69.99999999999954
 20
-164.272182
 30
0.0
 41
2.5
 42
2.5
 43
2.5
 50
180.0
  0
INSERT
  5
130C5
330
12D20
100
AcDbEntity
  8
AM_5
100
AcDbBlockReference
  2
_OPEN30
 10
-29.99999999999937
 20
-164.272182
 30
0.0
 41
2.5
 42
2.5
 43
2.5
  0
MTEXT
  5
130C6
330
12D20
100
AcDbEntity
  8
AM_5
 62
     2
100
AcDbMText
 10
-49.99999999999945
 20
-161.172182
 30
0.0
 40
3.2
 41
0.0
 71
     5
 72
     1
  1
40
  7
ASAMI
 73
     1
 44
1.0
1001
ACAD
1000
MTEXTBEGIN
1070
    73
1070
     1
1070
    44
1040
1.0
1070
    74
1070
     0
1000
MTEXTEND
  0
POINT
  5
130C7
330
12D20
100
AcDbEntity
  8
DEFPOINTS
 62
     0
100
AcDbPoint
 10
-69.99999999999954
 20
-98.19999999999986
 30
0.0
  0
POINT
  5
130C8
330
12D20
100
AcDbEntity
  8
DEFPOINTS
 62
     0
100
AcDbPoint
 10
-29.99999999999937
 20
-77.50000000000014
 30
0.0
  0
POINT
  5
130C9
330
12D20
100
AcDbEntity
  8
DEFPOINTS
 62
     0
100
AcDbPoint
 10
-29.99999999999937
 20
-164.272182
 30
0.0
  0
ENDBLK
  5
12D2B
330
12D20
100
AcDbEntity
  8
0
100
AcDbBlockEnd
  0
BLOCK
  5
12D36
330
12D2C
100
AcDbEntity
  8
0
100
AcDbBlockBegin
  2
*D8
 70
     1
 10
0.0
 20
0.0
 30
0.0
  3
*D8
  1

  0
LINE
  5
130B8
330
12D2C
100
AcDbEntity
  8
AM_5
100
AcDbLine
 10
-69.99999999999954
 20
-99.19999999999985
 30
0.0
 11
-69.99999999999954
 21
-175.272182
 31
0.0
  0
LINE
  5
130B9
330
12D2C
100
AcDbEntity
  8
AM_5
100
AcDbLine
 10
-0.0000000000007959
 20
-126.0000000000044
 30
0.0
 11
-0.0000000000007989
 21
-175.272182
 31
0.0
  0
LINE
  5
130BA
330
12D2C
100
AcDbEntity
  8
AM_5
100
AcDbLine
 10
-67.49999999999954
 20
-174.272182
 30
0.0
 11
-2.500000000000798
 21
-174.272182
 31
0.0
  0
INSERT
  5
130BB
330
12D2C
100
AcDbEntity
  8
AM_5
100
AcDbBlockReference
  2
_OPEN30
 10
-69.99999999999954
 20
-174.272182
 30
0.0
 41
2.5
 42
2.5
 43
2.5
 50
180.0
  0
INSERT
  5
130BC
330
12D2C
100
AcDbEntity
  8
AM_5
100
AcDbBlockReference
  2
_OPEN30
 10
-0.0000000000007988
 20
-174.272182
 30
0.0
 41
2.5
 42
2.5
 43
2.5
  0
MTEXT
  5
130BD
330
12D2C
100
AcDbEntity
  8
AM_5
 62
     2
100
AcDbMText
 10
-35.00000000000017
 20
-171.172182
 30
0.0
 40
3.2
 41
0.0
 71
     5
 72
     1
  1
70
  7
ASAMI
 73
     1
 44
1.0
1001
ACAD
1000
MTEXTBEGIN
1070
    73
1070
     1
1070
    44
1040
1.0
1070
    74
1070
     0
1000
MTEXTEND
  0
POINT
  5
130BE
330
12D2C
100
AcDbEntity
  8
DEFPOINTS
 62
     0
100
AcDbPoint
 10
-69.99999999999954
 20
-98.19999999999986
 30
0.0
  0
POINT
  5
130BF
330
12D2C
100
AcDbEntity
  8
DEFPOINTS
 62
     0
100
AcDbPoint
 10
-0.0000000000007958
 20
-125.0000000000044
 30
0.0
  0
POINT
  5
130C0
330
12D2C
100
AcDbEntity
  8
DEFPOINTS
 62
     0
100
AcDbPoint
 10
-0.0000000000007988
 20
-174.272182
 30
0.0
  0
ENDBLK
  5
12D37
330
12D2C
100
AcDbEntity
  8
0
100
AcDbBlockEnd
  0
BLOCK
  5
12D42
330
12D38
100
AcDbEntity
  8
0
100
AcDbBlockBegin
  2
*D9
 70
     1
 10
0.0
 20
0.0
 30
0.0
  3
*D9
  1

  0
LINE
  5
13094
330
12D38
100
AcDbEntity
  8
AM_5
100
AcDbLine
 10
1.000000000000737
 20
125.0
 30
0.0
 11
30.08391295814272
 21
125.0
 31
0.0
  0
LINE
  5
13095
330
12D38
100
AcDbEntity
  8
AM_5
100
AcDbLine
 10
0.999999999999204
 20
-125.0000000000044
 30
0.0
 11
30.08391295814266
 21
-125.0000000000044
 31
0.0
  0
LINE
  5
13096
330
12D38
100
AcDbEntity
  8
AM_5
100
AcDbLine
 10
29.08391295814272
 20
122.5
 30
0.0
 11
29.08391295814266
 21
-122.5000000000044
 31
0.0
  0
INSERT
  5
13097
330
12D38
100
AcDbEntity
  8
AM_5
100
AcDbBlockReference
  2
_OPEN30
 10
29.08391295814272
 20
125.0
 30
0.0
 41
2.5
 42
2.5
 43
2.5
 50
90.0
  0
INSERT
  5
13098
330
12D38
100
AcDbEntity
  8
AM_5
100
AcDbBlockReference
  2
_OPEN30
 10
29.08391295814266
 20
-125.0000000000044
 30
0.0
 41
2.5
 42
2.5
 43
2.5
 50
270.0
  0
MTEXT
  5
13099
330
12D38
100
AcDbEntity
  8
AM_5
 62
     2
100
AcDbMText
 10
25.98391295814268
 20
-0.0000000000022254
 30
0.0
 40
3.2
 41
0.0
 71
     5
 72
     1
  1
%%c250
  7
ASAMI
 11
0.0000000000000001
 21
1.0
 31
0.0
 73
     1
 44
1.0
1001
ACAD
1000
MTEXTBEGIN
1070
    73
1070
     1
1070
    44
1040
1.0
1070
    74
1070
     0
1000
MTEXTEND
  0
POINT
  5
1309A
330
12D38
100
AcDbEntity
  8
DEFPOINTS
 62
     0
100
AcDbPoint
 10
0.000000000000739
 20
125.0
 30
0.0
  0
POINT
  5
1309B
330
12D38
100
AcDbEntity
  8
DEFPOINTS
 62
     0
100
AcDbPoint
 10
-0.0000000000007958
 20
-125.0000000000044
 30
0.0
  0
POINT
  5
1309C
330
12D38
100
AcDbEntity
  8
DEFPOINTS
 62
     0
100
AcDbPoint
 10
29.08391295814266
 20
-125.0000000000044
 30
0.0
  0
ENDBLK
  5
12D43
330
12D38
100
AcDbEntity
  8
0
100
AcDbBlockEnd
  0
BLOCK
  5
12D4E
330
12D44
100
AcDbEntity
  8
0
100
AcDbBlockBegin
  2
*D10
 70
     1
 10
0.0
 20
0.0
 30
0.0
  3
*D10
  1

  0
LINE
  5
130E6
330
12D44
100
AcDbEntity
  8
AM_5
100
AcDbLine
 10
-28.99999999999937
 20
77.50000000000014
 30
0.0
 11
20.08391295814267
 21
77.50000000000014
 31
0.0
  0
LINE
  5
130E7
330
12D44
100
AcDbEntity
  8
AM_5
100
AcDbLine
 10
-28.99999999999937
 20
-77.50000000000014
 30
0.0
 11
20.08391295814264
 21
-77.50000000000014
 31
0.0
  0
LINE
  5
130E8
330
12D44
100
AcDbEntity
  8
AM_5
100
AcDbLine
 10
19.08391295814268
 20
75.00000000000014
 30
0.0
 11
19.08391295814264
 21
-75.00000000000014
 31
0.0
  0
INSERT
  5
130E9
330
12D44
100
AcDbEntity
  8
AM_5
100
AcDbBlockReference
  2
_OPEN30
 10
19.08391295814268
 20
77.50000000000014
 30
0.0
 41
2.5
 42
2.5
 43
2.5
 50
90.0
  0
INSERT
  5
130EA
330
12D44
100
AcDbEntity
  8
AM_5
100
AcDbBlockReference
  2
_OPEN30
 10
19.08391295814264
 20
-77.50000000000014
 30
0.0
 41
2.5
 42
2.5
 43
2.5
 50
270.0
  0
MTEXT
  5
130EB
330
12D44
100
AcDbEntity
  8
AM_5
 62
     2
100
AcDbMText
 10
15.98391295814266
 20
0.8749999999998866
 30
0.0
 40
3.2
 41
0.0
 71
     5
 72
     1
  1
%%c155
  7
ASAMI
 11
0.0000000000000001
 21
1.0
 31
0.0
 73
     1
 44
1.0
1001
ACAD
1000
MTEXTBEGIN
1070
    73
1070
     1
1070
    44
1040
1.0
1070
    74
1070
     0
1000
MTEXTEND
  0
POINT
  5
130EC
330
12D44
100
AcDbEntity
  8
DEFPOINTS
 62
     0
100
AcDbPoint
 10
-29.99999999999937
 20
77.50000000000014
 30
0.0
  0
POINT
  5
130ED
330
12D44
100
AcDbEntity
  8
DEFPOINTS
 62
     0
100
AcDbPoint
 10
-29.99999999999937
 20
-77.50000000000014
 30
0.0
  0
POINT
  5
130EE
330
12D44
100
AcDbEntity
  8
DEFPOINTS
 62
     0
100
AcDbPoint
 10
19.08391295814264
 20
-77.50000000000014
 30
0.0
  0
ENDBLK
  5
12D4F
330
12D44
100
AcDbEntity
  8
0
100
AcDbBlockEnd
  0
BLOCK
  5
12D5A
330
12D50
100
AcDbEntity
  8
0
100
AcDbBlockBegin
  2
*D11
 70
     1
 10
0.0
 20
0.0
 30
0.0
  3
*D11
  1

  0
LINE
  5
130CA
330
12D50
100
AcDbEntity
  8
AM_5
100
AcDbLine
 10
-69.99999999999954
 20
-99.19999999999985
 30
0.0
 11
-69.99999999999954
 21
-155.2721819999999
 31
0.0
  0
LINE
  5
130CB
330
12D50
100
AcDbEntity
  8
AM_5
100
AcDbLine
 10
-37.99999999999971
 20
-64.80000000000001
 30
0.0
 11
-37.99999999999972
 21
-155.2721819999999
 31
0.0
  0
LINE
  5
130CC
330
12D50
100
AcDbEntity
  8
AM_5
100
AcDbLine
 10
-67.49999999999954
 20
-154.2721819999999
 30
0.0
 11
-40.49999999999971
 21
-154.2721819999999
 31
0.0
  0
INSERT
  5
130CD
330
12D50
100
AcDbEntity
  8
AM_5
100
AcDbBlockReference
  2
_OPEN30
 10
-69.99999999999954
 20
-154.2721819999999
 30
0.0
 41
2.5
 42
2.5
 43
2.5
 50
180.0
  0
INSERT
  5
130CE
330
12D50
100
AcDbEntity
  8
AM_5
100
AcDbBlockReference
  2
_OPEN30
 10
-37.99999999999972
 20
-154.2721819999999
 30
0.0
 41
2.5
 42
2.5
 43
2.5
  0
MTEXT
  5
130CF
330
12D50
100
AcDbEntity
  8
AM_5
 62
     2
100
AcDbMText
 10
-53.99999999999963
 20
-151.1721819999999
 30
0.0
 40
3.2
 41
0.0
 71
     5
 72
     1
  1
32
  7
ASAMI
 73
     1
 44
1.0
1001
ACAD
1000
MTEXTBEGIN
1070
    73
1070
     1
1070
    44
1040
1.0
1070
    74
1070
     0
1000
MTEXTEND
  0
POINT
  5
130D0
330
12D50
100
AcDbEntity
  8
DEFPOINTS
 62
     0
100
AcDbPoint
 10
-69.99999999999954
 20
-98.19999999999986
 30
0.0
  0
POINT
  5
130D1
330
12D50
100
AcDbEntity
  8
DEFPOINTS
 62
     0
100
AcDbPoint
 10
-37.99999999999971
 20
-63.80000000000001
 30
0.0
  0
POINT
  5
130D2
330
12D50
100
AcDbEntity
  8
DEFPOINTS
 62
     0
100
AcDbPoint
 10
-37.99999999999972
 20
-154.2721819999999
 30
0.0
  0
ENDBLK
  5
12D5B
330
12D50
100
AcDbEntity
  8
0
100
AcDbBlockEnd
  0
BLOCK
  5
133E6
330
133D0
100
AcDbEntity
  8
0
100
AcDbBlockBegin
  2
*D14
 70
     1
 10
0.0
 20
0.0
 30
0.0
  3
*D14
  1

  0
LINE
  5
133FC
330
133D0
100
AcDbEntity
  8
AM_5
370
    -2
100
AcDbLine
 10
-16.87986299999932
 20
130.3318870000001
 30
0.0
 11
40.08391295814266
 21
130.3318870000001
 31
0.0
  0
LINE
  5
133FD
330
133D0
100
AcDbEntity
  8
AM_5
370
    -2
100
AcDbLine
 10
-16.87986299999932
 20
-130.3318870000001
 30
0.0
 11
40.08391295814259
 21
-130.3318870000001
 31
0.0
  0
LINE
  5
133FE
330
133D0
100
AcDbEntity
  8
AM_5
370
    -2
100
AcDbLine
 10
39.08391295814265
 20
127.8318870000001
 30
0.0
 11
39.0839129581426
 21
-127.8318870000001
 31
0.0
  0
INSERT
  5
133FF
330
133D0
100
AcDbEntity
  8
AM_5
370
    -2
100
AcDbBlockReference
  2
_OPEN30
 10
39.08391295814265
 20
130.3318870000001
 30
0.0
 41
2.5
 42
2.5
 43
2.5
 50
90.0
  0
INSERT
  5
13400
330
133D0
100
AcDbEntity
  8
AM_5
370
    -2
100
AcDbBlockReference
  2
_OPEN30
 10
39.0839129581426
 20
-130.3318870000001
 30
0.0
 41
2.5
 42
2.5
 43
2.5
 50
270.0
  0
MTEXT
  5
13401
330
133D0
100
AcDbEntity
  8
AM_5
 62
     2
100
AcDbMText
 10
35.98391295814263
 20
0.0000000000000122
 30
0.0
 40
3.2
 41
0.0
 71
     5
 72
     1
  1
%%c260.66
  7
ASAMI
 11
0.0000000000000001
 21
1.0
 31
0.0
 73
     1
 44
1.0
1001
ACAD
1000
MTEXTBEGIN
1070
    73
1070
     1
1070
    44
1040
1.0
1070
    74
1070
     0
1000
MTEXTEND
  0
POINT
  5
13402
330
133D0
100
AcDbEntity
  8
DEFPOINTS
 62
     0
100
AcDbPoint
 10
-17.87986299999932
 20
130.3318870000001
 30
0.0
  0
POINT
  5
13403
330
133D0
100
AcDbEntity
  8
DEFPOINTS
 62
     0
100
AcDbPoint
 10
-17.87986299999932
 20
-130.3318870000001
 30
0.0
  0
POINT
  5
13404
330
133D0
100
AcDbEntity
  8
DEFPOINTS
 62
     0
100
AcDbPoint
 10
39.0839129581426
 20
-130.3318870000001
 30
0.0
  0
ENDBLK
  5
133E7
330
133D0
100
AcDbEntity
  8
0
100
AcDbBlockEnd
  0
BLOCK
  5
13468
330
13421
100
AcDbEntity
  8
0
100
AcDbBlockBegin
  2
*D15
 70
     1
 10
0.0
 20
0.0
 30
0.0
  3
*D15
  1

  0
LINE
  5
1345D
330
13421
100
AcDbEntity
  8
AM_5
100
AcDbLine
 10
-0.9007712243798735
 20
-126.212972830081
 30
0.0
 11
-23.67085165330854
 21
-137.1912401424002
 31
0.0
  0
LINE
  5
1345E
330
13421
100
AcDbEntity
  8
AM_5
100
AcDbLine
 10
-0.0000000000007958
 20
-126.778678918852
 30
0.0
 11
-0.00000000000081
 21
-152.0571067956131
 31
0.0
  0
ARC
  5
1345F
330
13421
100
AcDbEntity
  8
AM_5
100
AcDbCircle
 10
-0.0000000000007887
 20
-125.778678918852
 30
0.0
 40
25.27842787676117
100
AcDbArc
 50
211.4091545368011
 51
264.3312183257423
  0
INSERT
  5
13460
330
13421
100
AcDbEntity
  8
AM_5
100
AcDbBlockReference
  2
_OPEN30
 10
-22.77008042892944
 20
-136.7569462311712
 30
0.0
 41
2.5
 42
2.5
 43
2.5
 50
118.5747636996722
  0
INSERT
  5
13461
330
13421
100
AcDbEntity
  8
AM_5
100
AcDbBlockReference
  2
_OPEN30
 10
-0.0000000000007958
 20
-151.0571067956131
 30
0.0
 41
2.5
 42
2.5
 43
2.5
 50
357.1656091628711
  0
MTEXT
  5
13462
330
13421
100
AcDbEntity
  8
AM_5
 62
     2
100
AcDbMText
 10
-11.79535962715712
 20
-144.5603762423301
 30
0.0
 40
3.2
 41
0.0
 71
     5
 72
     1
  1
65%%d
  7
ASAMI
 11
0.8468452961518465
 21
-0.5318393031597905
 31
0.0
 73
     1
 44
1.0
1001
ACAD
1000
MTEXTBEGIN
1070
    73
1070
     1
1070
    44
1040
1.0
1070
    74
1070
     0
1000
MTEXTEND
  0
POINT
  5
13463
330
13421
100
AcDbEntity
  8
DEFPOINTS
 62
     0
100
AcDbPoint
 10
-17.18807202786
 20
-144.3142958734003
 30
0.0
  0
POINT
  5
13464
330
13421
100
AcDbEntity
  8
DEFPOINTS
 62
     0
100
AcDbPoint
 10
-0.0000000000007887
 20
-125.778678918852
 30
0.0
  0
POINT
  5
13465
330
13421
100
AcDbEntity
  8
DEFPOINTS
 62
     0
100
AcDbPoint
 10
-0.0000000000007887
 20
-125.778678918852
 30
0.0
  0
POINT
  5
13466
330
13421
100
AcDbEntity
  8
DEFPOINTS
 62
     0
100
AcDbPoint
 10
-0.0000000000007816
 20
174.221321081148
 30
0.0
  0
POINT
  5
13467
330
13421
100
AcDbEntity
  8
DEFPOINTS
 62
     0
100
AcDbPoint
 10
270.2313673137259
 20
4.509494449853065
 30
0.0
  0
ENDBLK
  5
13469
330
13421
100
AcDbEntity
  8
0
100
AcDbBlockEnd
  0
ENDSEC
  0
SECTION
  2
ENTITIES
  0
TEXT
  5
E5A
330
1F
100
AcDbEntity
  8
AM_6
100
AcDbText
 10
-53.80952380952396
 20
-196.772182
 30
0.0
 40
5.0
  1
APG4250R
 72
     4
 11
-35.00000000000015
 21
-194.272182
 31
0.0
100
AcDbText
  0
LINE
  5
11EB8
330
1F
100
AcDbEntity
  8
AM_0
100
AcDbLine
 10
-68.55799999999942
 20
64.94200000000001
 30
0.0
 11
-31.44199999999938
 21
64.94200000000001
 31
0.0
  0
LINE
  5
11EB9
330
1F
100
AcDbEntity
  8
AM_0
100
AcDbLine
 10
-68.55799999999942
 20
75.05800000000005
 30
0.0
 11
-31.44199999999926
 21
75.05799999999998
 31
0.0
  0
LINE
  5
11EBA
330
1F
100
AcDbEntity
  8
AM_4
100
AcDbLine
 10
-69.49999999999943
 20
64.0000000000001
 30
0.0
 11
-30.49999999999926
 21
63.99999999999988
 31
0.0
  0
LINE
  5
11EBB
330
1F
100
AcDbEntity
  8
AM_4
100
AcDbLine
 10
-69.49999999999943
 20
76.00000000000004
 30
0.0
 11
-30.49999999999949
 21
76.00000000000004
 31
0.0
  0
LINE
  5
11EBC
330
1F
100
AcDbEntity
  8
AM_7
100
AcDbLine
 10
-74.32409533116765
 20
70.0
 30
0.0
 11
-26.40344516030705
 21
70.0
 31
0.0
  0
LINE
  5
11EBD
330
1F
100
AcDbEntity
  8
AM_11
100
AcDbLine
 10
-37.9999999999996
 20
63.80000000000001
 30
0.0
 11
-30.99999999999937
 21
63.79999999999991
 31
0.0
  0
LINE
  5
11EBE
330
1F
100
AcDbEntity
  8
AM_7
100
AcDbLine
 10
-74.32409533116777
 20
50.80000000000001
 30
0.0
 11
-26.40344516030717
 21
50.80000000000001
 31
0.0
  0
LINE
  5
11EBF
330
1F
100
AcDbEntity
  8
AM_11
100
AcDbLine
 10
-37.9999999999996
 20
37.80000000000001
 30
0.0
 11
-30.99999999999949
 21
37.80000000000001
 31
0.0
  0
LINE
  5
11EC0
330
1F
100
AcDbEntity
  8
AM_0
100
AcDbLine
 10
-68.19999999999986
 20
23.81249999999992
 30
0.0
 11
-31.4999999999996
 21
23.81249999999997
 31
0.0
  0
LINE
  5
11EC1
330
1F
100
AcDbEntity
  8
AM_0
100
AcDbLine
 10
-53.46534602404137
 20
129.05
 30
0.0
 11
-32.29999999999916
 21
129.0499999999999
 31
0.0
  0
LINE
  5
11EC2
330
1F
100
AcDbEntity
  8
AM_7
100
AcDbLine
 10
-74.32409533116777
 20
0.0
 30
0.0
 11
5.083911958142663
 21
0.0
 31
0.0
  0
LINE
  5
11EC3
330
1F
100
AcDbEntity
  8
AM_0
100
AcDbLine
 10
-56.4999999999996
 20
11.70000000000008
 30
0.0
 11
-56.49999999999966
 21
0.0000000000000568
 31
0.0
  0
LINE
  5
11EC4
330
1F
100
AcDbEntity
  8
AM_0
100
AcDbLine
 10
-69.99999999999943
 20
98.19999999999994
 30
0.0
 11
-69.99999999999992
 21
14.00000000000004
 31
0.0
  0
LINE
  5
11EC5
330
1F
100
AcDbEntity
  8
AM_11
100
AcDbLine
 10
-37.99999999999971
 20
63.80000000000001
 30
0.0
 11
-37.99999999999903
 21
37.80000000000001
 31
0.0
  0
LINE
  5
11EC6
330
1F
100
AcDbEntity
  8
AM_0
100
AcDbLine
 10
-68.69999999999993
 20
12.70000000000005
 30
0.0
 11
-57.4999999999996
 21
12.7000000000001
 31
0.0
  0
LINE
  5
11EC7
330
1F
100
AcDbEntity
  8
AM_11
100
AcDbLine
 10
-68.99999999999955
 20
59.80000000000001
 30
0.0
 11
-38.4999999999996
 21
59.79999999999995
 31
0.0
  0
LINE
  5
11EC8
330
1F
100
AcDbEntity
  8
AM_11
100
AcDbLine
 10
-68.99999999999955
 20
41.80000000000001
 30
0.0
 11
-38.4999999999996
 21
41.80000000000001
 31
0.0
  0
LINE
  5
11EC9
330
1F
100
AcDbEntity
  8
AM_0
100
AcDbLine
 10
-69.99999999999943
 20
63.49999999999994
 30
0.0
 11
-68.55799999999942
 21
64.94199999999989
 31
0.0
  0
LINE
  5
11ECA
330
1F
100
AcDbEntity
  8
AM_0
100
AcDbLine
 10
-68.55799999999942
 20
75.05800000000011
 30
0.0
 11
-68.55799999999942
 21
64.94200000000006
 31
0.0
  0
LINE
  5
11ECB
330
1F
100
AcDbEntity
  8
AM_0
100
AcDbLine
 10
-69.99999999999943
 20
76.50000000000004
 30
0.0
 11
-68.55799999999942
 21
75.05800000000011
 31
0.0
  0
LINE
  5
11ECC
330
1F
100
AcDbEntity
  8
AM_0
100
AcDbLine
 10
-55.39719767661949
 20
127.5676380902051
 30
0.0
 11
-62.38672636350321
 21
101.4823619097949
 31
0.0
  0
LINE
  5
11ECD
330
1F
100
AcDbEntity
  8
AM_0
100
AcDbLine
 10
-68.19999999999942
 20
99.99999999999994
 30
0.0
 11
-64.31857801608135
 21
99.99999999999996
 31
0.0
  0
LINE
  5
11ECF
330
1F
100
AcDbEntity
  8
AM_0
100
AcDbLine
 10
-14.39999999999924
 20
88.00666419935833
 30
0.0
 11
-14.39999999999912
 21
-0.0003598180563102
 31
0.0
  0
LINE
  5
11ED0
330
1F
100
AcDbEntity
  8
AM_11
100
AcDbLine
 10
-29.99999999999937
 20
77.50000000000014
 30
0.0
 11
-29.99999999999932
 21
77.03811978464838
 31
0.0
  0
LINE
  5
11ED1
330
1F
100
AcDbEntity
  8
AM_11
100
AcDbLine
 10
-29.99999999999937
 20
77.50000000000014
 30
0.0
 11
-29.59999999999917
 21
77.73094010767602
 31
0.0
  0
LINE
  5
11ED2
330
1F
100
AcDbEntity
  8
AM_0
100
AcDbLine
 10
-29.99999999999926
 20
76.50000000000004
 30
0.0
 11
-31.44199999999926
 21
75.05800000000011
 31
0.0
  0
LINE
  5
11ED3
330
1F
100
AcDbEntity
  8
AM_0
100
AcDbLine
 10
-31.44199999999926
 20
75.05800000000011
 30
0.0
 11
-31.44199999999926
 21
64.94200000000006
 31
0.0
  0
LINE
  5
11ED4
330
1F
100
AcDbEntity
  8
AM_0
100
AcDbLine
 10
-29.99999999999926
 20
63.49999999999994
 30
0.0
 11
-31.44199999999926
 21
64.94199999999989
 31
0.0
  0
LINE
  5
11ED6
330
1F
100
AcDbEntity
  8
AM_0
100
AcDbLine
 10
-14.39999999999924
 20
93.34500000000003
 30
0.0
 11
-14.39999999999924
 21
88.00666419935833
 31
0.0
  0
LINE
  5
11ED7
330
1F
100
AcDbEntity
  8
AM_0
100
AcDbLine
 10
-15.39937677684412
 20
95.34500000000004
 30
0.0
 11
-15.39937677684412
 21
93.34500000000003
 31
0.0
  0
LINE
  5
11ED8
330
1F
100
AcDbEntity
  8
AM_0
100
AcDbLine
 10
-15.39937677684412
 20
93.34500000000003
 30
0.0
 11
-14.39999999999924
 21
93.34500000000003
 31
0.0
  0
LINE
  5
11ED9
330
1F
100
AcDbEntity
  8
AM_0
100
AcDbLine
 10
-15.39937677684412
 20
95.34500000000004
 30
0.0
 11
-14.39937677684412
 21
95.34500000000004
 31
0.0
  0
ARC
  5
12C57
330
1F
100
AcDbEntity
  8
AM_0
100
AcDbCircle
 10
-29.1999999999993
 20
77.0381197846485
 30
0.0
 40
0.8
100
AcDbArc
 50
119.9999999999997
 51
179.9999999999996
1001
GENIUS_GENODEF_13
1002
{
1000
HIER
1070
     0
1002
}
1002
{
1000
MANEDIT
1070
     0
1002
}
1002
{
1000
NOSEL
1070
     0
1002
}
1002
{
1000
BEHIND
1070
     0
1002
}
1002
{
1000
REACTOR
1002
}
1001
GENIUS_GENOBJ-N-FIL_13
1002
{
1000
OWNER
1000
GEN
1002
}
  0
LINE
  5
12C58
330
1F
100
AcDbEntity
  8
AM_0
100
AcDbLine
 10
-29.59999999999928
 20
77.73094010767604
 30
0.0
 11
-15.69903810567592
 21
85.75666419935833
 31
0.0
  0
LINE
  5
12C59
330
1F
100
AcDbEntity
  8
AM_0
100
AcDbLine
 10
-29.99999999999932
 20
77.0381197846485
 30
0.0
 11
-29.99999999999971
 21
0.0
 31
0.0
  0
ARC
  5
12C5C
330
1F
100
AcDbEntity
  8
AM_0
100
AcDbCircle
 10
-57.4999999999996
 20
11.70000000000009
 30
0.0
 40
1.0
100
AcDbArc
 50
359.9999999999994
 51
90.00000000000019
1001
GENIUS_GENODEF_13
1002
{
1000
HIER
1070
     0
1002
}
1002
{
1000
MANEDIT
1070
     0
1002
}
1002
{
1000
NOSEL
1070
     0
1002
}
1002
{
1000
BEHIND
1070
     0
1002
}
1002
{
1000
REACTOR
1002
}
1001
GENIUS_GENOBJ-N-FIL_13
1002
{
1000
OWNER
1000
GEN
1002
}
  0
ARC
  5
12C5F
330
1F
100
AcDbEntity
  8
AM_0
100
AcDbCircle
 10
-53.46534602404137
 20
127.05
 30
0.0
 40
2.0
100
AcDbArc
 50
89.99999999999984
 51
164.9999999999998
1001
GENIUS_GENODEF_13
1002
{
1000
HIER
1070
     0
1002
}
1002
{
1000
MANEDIT
1070
     0
1002
}
1002
{
1000
NOSEL
1070
     0
1002
}
1002
{
1000
BEHIND
1070
     0
1002
}
1002
{
1000
REACTOR
1002
}
1001
GENIUS_GENOBJ-N-FIL_13
1002
{
1000
OWNER
1000
GEN
1002
}
  0
ARC
  5
12C62
330
1F
100
AcDbEntity
  8
AM_0
100
AcDbCircle
 10
-64.31857801608135
 20
101.9999999999999
 30
0.0
 40
2.0
100
AcDbArc
 50
270.0
 51
344.9999999999998
1001
GENIUS_GENODEF_13
1002
{
1000
HIER
1070
     0
1002
}
1002
{
1000
MANEDIT
1070
     0
1002
}
1002
{
1000
NOSEL
1070
     0
1002
}
1002
{
1000
BEHIND
1070
     0
1002
}
1002
{
1000
REACTOR
1002
}
1001
GENIUS_GENOBJ-N-FIL_13
1002
{
1000
OWNER
1000
GEN
1002
}
  0
LINE
  5
12C66
330
1F
100
AcDbEntity
  8
AM_0
100
AcDbLine
 10
-32.29999999999916
 20
129.0499999999999
 30
0.0
 11
-31.99999999999932
 21
128.75
 31
0.0
1001
GENIUS_GENFIL_13
1070
     0
1040
0.5
1040
0.5
1040
20.0
1040
0.0
1002
{
1002
}
1001
GENIUS_GENODEF_13
1002
{
1000
HIER
1070
     0
1002
}
1002
{
1000
MANEDIT
1070
     0
1002
}
1002
{
1000
NOSEL
1070
     0
1002
}
1002
{
1000
BEHIND
1070
     0
1002
}
1002
{
1000
REACTOR
1002
}
1001
GENIUS_GENOBJ-N-CHA_13
1002
{
1000
OWNER
1000
GEN
1002
}
  0
LINE
  5
12C6D
330
1F
100
AcDbEntity
  8
AM_11
100
AcDbLine
 10
-38.4999999999996
 20
59.79999999999995
 30
0.0
 11
-37.9999999999996
 21
60.29999999999995
 31
0.0
1001
GENIUS_GENFIL_13
1070
     0
1040
0.5
1040
0.5
1040
20.0
1040
0.0
1002
{
1002
}
1001
GENIUS_GENODEF_13
1002
{
1000
HIER
1070
     0
1002
}
1002
{
1000
MANEDIT
1070
     0
1002
}
1002
{
1000
NOSEL
1070
     0
1002
}
1002
{
1000
BEHIND
1070
     0
1002
}
1002
{
1000
REACTOR
1002
}
1001
GENIUS_GENOBJ-N-CHA_13
1002
{
1000
OWNER
1000
GEN
1002
}
  0
LINE
  5
12C71
330
1F
100
AcDbEntity
  8
AM_11
100
AcDbLine
 10
-38.4999999999996
 20
41.80000000000001
 30
0.0
 11
-37.9999999999996
 21
41.30000000000001
 31
0.0
1001
GENIUS_GENFIL_13
1070
     0
1040
0.5
1040
0.5
1040
20.0
1040
0.0
1002
{
1002
}
1001
GENIUS_GENODEF_13
1002
{
1000
HIER
1070
     0
1002
}
1002
{
1000
MANEDIT
1070
     0
1002
}
1002
{
1000
NOSEL
1070
     0
1002
}
1002
{
1000
BEHIND
1070
     0
1002
}
1002
{
1000
REACTOR
1002
}
1001
GENIUS_GENOBJ-N-CHA_13
1002
{
1000
OWNER
1000
GEN
1002
}
  0
LINE
  5
12C73
330
1F
100
AcDbEntity
  8
AM_11
100
AcDbLine
 10
-38.4999999999996
 20
59.79999999999995
 30
0.0
 11
-38.4999999999996
 21
41.80000000000001
 31
0.0
  0
LINE
  5
12C76
330
1F
100
AcDbEntity
  8
AM_11
100
AcDbLine
 10
-30.99999999999937
 20
63.79999999999991
 30
0.0
 11
-29.99999999999937
 21
64.79999999999989
 31
0.0
1001
GENIUS_GENFIL_13
1070
     0
1040
1.0
1040
1.0
1040
20.0
1040
0.0
1002
{
1002
}
1001
GENIUS_GENODEF_13
1002
{
1000
HIER
1070
     0
1002
}
1002
{
1000
MANEDIT
1070
     0
1002
}
1002
{
1000
NOSEL
1070
     0
1002
}
1002
{
1000
BEHIND
1070
     0
1002
}
1002
{
1000
REACTOR
1002
}
1001
GENIUS_GENOBJ-N-CHA_13
1002
{
1000
OWNER
1000
GEN
1002
}
  0
LINE
  5
12C77
330
1F
100
AcDbEntity
  8
AM_0
100
AcDbLine
 10
-29.99999999999948
 20
36.80000000000001
 30
0.0
 11
-29.9999999999996
 21
23.81249999999997
 31
0.0
  0
LINE
  5
12C7A
330
1F
100
AcDbEntity
  8
AM_11
100
AcDbLine
 10
-30.99999999999949
 20
37.80000000000001
 30
0.0
 11
-29.99999999999948
 21
36.80000000000001
 31
0.0
1001
GENIUS_GENFIL_13
1070
     0
1040
1.0
1040
1.0
1040
20.0
1040
0.0
1002
{
1002
}
1001
GENIUS_GENODEF_13
1002
{
1000
HIER
1070
     0
1002
}
1002
{
1000
MANEDIT
1070
     0
1002
}
1002
{
1000
NOSEL
1070
     0
1002
}
1002
{
1000
BEHIND
1070
     0
1002
}
1002
{
1000
REACTOR
1002
}
1001
GENIUS_GENOBJ-N-CHA_13
1002
{
1000
OWNER
1000
GEN
1002
}
  0
LINE
  5
12C7D
330
1F
100
AcDbEntity
  8
AM_11
100
AcDbLine
 10
-69.99999999999954
 20
60.80000000000001
 30
0.0
 11
-68.99999999999955
 21
59.80000000000001
 31
0.0
1001
GENIUS_GENFIL_13
1070
     0
1040
1.0
1040
1.0
1040
20.0
1040
0.0
1002
{
1002
}
1001
GENIUS_GENODEF_13
1002
{
1000
HIER
1070
     0
1002
}
1002
{
1000
MANEDIT
1070
     0
1002
}
1002
{
1000
NOSEL
1070
     0
1002
}
1002
{
1000
BEHIND
1070
     0
1002
}
1002
{
1000
REACTOR
1002
}
1001
GENIUS_GENOBJ-N-CHA_13
1002
{
1000
OWNER
1000
GEN
1002
}
  0
LINE
  5
12C81
330
1F
100
AcDbEntity
  8
AM_11
100
AcDbLine
 10
-68.99999999999955
 20
41.80000000000001
 30
0.0
 11
-69.99999999999954
 21
40.8
 31
0.0
1001
GENIUS_GENFIL_13
1070
     0
1040
1.0
1040
1.0
1040
20.0
1040
0.0
1002
{
1002
}
1001
GENIUS_GENODEF_13
1002
{
1000
HIER
1070
     0
1002
}
1002
{
1000
MANEDIT
1070
     0
1002
}
1002
{
1000
NOSEL
1070
     0
1002
}
1002
{
1000
BEHIND
1070
     0
1002
}
1002
{
1000
REACTOR
1002
}
1001
GENIUS_GENOBJ-N-CHA_13
1002
{
1000
OWNER
1000
GEN
1002
}
  0
LINE
  5
12C83
330
1F
100
AcDbEntity
  8
AM_11
100
AcDbLine
 10
-68.99999999999955
 20
59.80000000000001
 30
0.0
 11
-68.99999999999955
 21
41.80000000000001
 31
0.0
  0
LINE
  5
12C84
330
1F
100
AcDbEntity
  8
AM_11
100
AcDbLine
 10
-30.99999999999937
 20
63.79999999999991
 30
0.0
 11
-30.99999999999949
 21
37.80000000000001
 31
0.0
  0
LINE
  5
12C87
330
1F
100
AcDbEntity
  8
AM_0
100
AcDbLine
 10
-14.39999999999924
 20
88.00666419935833
 30
0.0
 11
-15.69903810567592
 21
85.75666419935833
 31
0.0
1001
GENIUS_GENFIL_13
1070
     0
1040
1.5
1040
1.5
1040
20.0
1040
0.0
1002
{
1002
}
1001
GENIUS_GENODEF_13
1002
{
1000
HIER
1070
     0
1002
}
1002
{
1000
MANEDIT
1070
     0
1002
}
1002
{
1000
NOSEL
1070
     0
1002
}
1002
{
1000
BEHIND
1070
     0
1002
}
1002
{
1000
REACTOR
1002
}
1001
GENIUS_GENOBJ-N-CHA_13
1002
{
1000
OWNER
1000
GEN
1002
}
  0
LINE
  5
12C8A
330
1F
100
AcDbEntity
  8
AM_0
100
AcDbLine
 10
-31.4999999999996
 20
23.81249999999997
 30
0.0
 11
-29.9999999999996
 21
25.31249999999998
 31
0.0
1001
GENIUS_GENFIL_13
1070
     0
1040
1.5
1040
1.5
1040
20.0
1040
0.0
1002
{
1002
}
1001
GENIUS_GENODEF_13
1002
{
1000
HIER
1070
     0
1002
}
1002
{
1000
MANEDIT
1070
     0
1002
}
1002
{
1000
NOSEL
1070
     0
1002
}
1002
{
1000
BEHIND
1070
     0
1002
}
1002
{
1000
REACTOR
1002
}
1001
GENIUS_GENOBJ-N-CHA_13
1002
{
1000
OWNER
1000
GEN
1002
}
  0
LINE
  5
12C8B
330
1F
100
AcDbEntity
  8
AM_0
100
AcDbLine
 10
-31.4999999999996
 20
23.81249999999997
 30
0.0
 11
-31.4999999999996
 21
0.0
 31
0.0
  0
LINE
  5
12C8F
330
1F
100
AcDbEntity
  8
AM_0
100
AcDbLine
 10
-68.19999999999942
 20
99.99999999999994
 30
0.0
 11
-69.99999999999943
 21
98.19999999999994
 31
0.0
1001
GENIUS_GENFIL_13
1070
     0
1040
1.8
1040
1.8
1040
20.0
1040
0.0
1002
{
1002
}
1001
GENIUS_GENODEF_13
1002
{
1000
HIER
1070
     0
1002
}
1002
{
1000
MANEDIT
1070
     0
1002
}
1002
{
1000
NOSEL
1070
     0
1002
}
1002
{
1000
BEHIND
1070
     0
1002
}
1002
{
1000
REACTOR
1002
}
1001
GENIUS_GENOBJ-N-CHA_13
1002
{
1000
OWNER
1000
GEN
1002
}
  0
LINE
  5
12C92
330
1F
100
AcDbEntity
  8
AM_0
100
AcDbLine
 10
-68.19999999999986
 20
23.81249999999992
 30
0.0
 11
-69.9999999999999
 21
25.61249999999992
 31
0.0
1001
GENIUS_GENFIL_13
1070
     0
1040
1.8
1040
1.8
1040
20.0
1040
0.0
1002
{
1002
}
1001
GENIUS_GENODEF_13
1002
{
1000
HIER
1070
     0
1002
}
1002
{
1000
MANEDIT
1070
     0
1002
}
1002
{
1000
NOSEL
1070
     0
1002
}
1002
{
1000
BEHIND
1070
     0
1002
}
1002
{
1000
REACTOR
1002
}
1001
GENIUS_GENOBJ-N-CHA_13
1002
{
1000
OWNER
1000
GEN
1002
}
  0
LINE
  5
12C95
330
1F
100
AcDbEntity
  8
AM_0
100
AcDbLine
 10
-68.69999999999993
 20
12.70000000000005
 30
0.0
 11
-69.99999999999992
 21
14.00000000000004
 31
0.0
1001
GENIUS_GENFIL_13
1070
     0
1040
1.3
1040
1.3
1040
20.0
1040
0.0
1002
{
1002
}
1001
GENIUS_GENODEF_13
1002
{
1000
HIER
1070
     0
1002
}
1002
{
1000
MANEDIT
1070
     0
1002
}
1002
{
1000
NOSEL
1070
     0
1002
}
1002
{
1000
BEHIND
1070
     0
1002
}
1002
{
1000
REACTOR
1002
}
1001
GENIUS_GENOBJ-N-CHA_13
1002
{
1000
OWNER
1000
GEN
1002
}
  0
LINE
  5
12C96
330
1F
100
AcDbEntity
  8
AM_0
100
AcDbLine
 10
-68.19999999999986
 20
23.81249999999992
 30
0.0
 11
-68.19999999999986
 21
12.70000000000005
 31
0.0
  0
LINE
  5
12C97
330
1F
100
AcDbEntity
  8
AM_7
100
AcDbLine
 10
-74.32409533116777
 20
-50.80000000000001
 30
0.0
 11
-26.40344516030717
 21
-50.80000000000001
 31
0.0
  0
LINE
  5
12C98
330
1F
100
AcDbEntity
  8
AM_7
100
AcDbLine
 10
-74.32409533116765
 20
-70.0
 30
0.0
 11
-26.40344516030705
 21
-70.0
 31
0.0
  0
LINE
  5
12C99
330
1F
100
AcDbEntity
  8
AM_0
100
AcDbLine
 10
-69.99999999999943
 20
-98.19999999999994
 30
0.0
 11
-69.99999999999992
 21
-14.00000000000004
 31
0.0
  0
LINE
  5
12C9A
330
1F
100
AcDbEntity
  8
AM_0
100
AcDbLine
 10
-29.99999999999932
 20
-77.0381197846485
 30
0.0
 11
-29.99999999999971
 21
0.0
 31
0.0
  0
LINE
  5
12C9B
330
1F
100
AcDbEntity
  8
AM_0
100
AcDbLine
 10
-14.39999999999924
 20
-88.00666419935833
 30
0.0
 11
-14.39999999999912
 21
0.0003598180563102
 31
0.0
  0
LINE
  5
12C9C
330
1F
100
AcDbEntity
  8
AM_11
100
AcDbLine
 10
-30.99999999999937
 20
-63.79999999999991
 30
0.0
 11
-30.99999999999949
 21
-37.80000000000001
 31
0.0
  0
LINE
  5
12C9D
330
1F
100
AcDbEntity
  8
AM_11
100
AcDbLine
 10
-68.99999999999955
 20
-59.80000000000001
 30
0.0
 11
-68.99999999999955
 21
-41.80000000000001
 31
0.0
  0
LINE
  5
12C9E
330
1F
100
AcDbEntity
  8
AM_11
100
AcDbLine
 10
-38.4999999999996
 20
-59.79999999999995
 30
0.0
 11
-38.4999999999996
 21
-41.80000000000001
 31
0.0
  0
LINE
  5
12C9F
330
1F
100
AcDbEntity
  8
AM_11
100
AcDbLine
 10
-37.99999999999971
 20
-63.80000000000001
 30
0.0
 11
-37.99999999999903
 21
-37.80000000000001
 31
0.0
  0
LINE
  5
12CA0
330
1F
100
AcDbEntity
  8
AM_0
100
AcDbLine
 10
-1.899999999999181
 20
-118.1983388475927
 30
0.0
 11
-1.899999999999237
 21
0.0
 31
0.0
  0
LINE
  5
12CA1
330
1F
100
AcDbEntity
  8
AM_0
100
AcDbLine
 10
-68.19999999999986
 20
-23.81249999999992
 30
0.0
 11
-31.4999999999996
 21
-23.81249999999997
 31
0.0
  0
LINE
  5
12CA2
330
1F
100
AcDbEntity
  8
AM_11
100
AcDbLine
 10
-68.99999999999955
 20
-41.80000000000001
 30
0.0
 11
-38.4999999999996
 21
-41.80000000000001
 31
0.0
  0
LINE
  5
12CA3
330
1F
100
AcDbEntity
  8
AM_0
100
AcDbLine
 10
-68.69999999999993
 20
-12.70000000000005
 30
0.0
 11
-57.4999999999996
 21
-12.7000000000001
 31
0.0
  0
LINE
  5
12CA4
330
1F
100
AcDbEntity
  8
AM_0
100
AcDbLine
 10
-68.19999999999986
 20
-23.81249999999992
 30
0.0
 11
-68.19999999999986
 21
-12.70000000000005
 31
0.0
  0
LINE
  5
12CA5
330
1F
100
AcDbEntity
  8
AM_0
100
AcDbLine
 10
-68.69999999999993
 20
-12.70000000000005
 30
0.0
 11
-69.99999999999992
 21
-14.00000000000004
 31
0.0
1001
GENIUS_GENFIL_13
1070
     0
1040
1.3
1040
1.3
1040
20.0
1040
0.0
1002
{
1002
}
1001
GENIUS_GENODEF_13
1002
{
1000
HIER
1070
     0
1002
}
1002
{
1000
MANEDIT
1070
     0
1002
}
1002
{
1000
NOSEL
1070
     0
1002
}
1002
{
1000
BEHIND
1070
     0
1002
}
1002
{
1000
REACTOR
1002
}
1001
GENIUS_GENOBJ-N-CHA_13
1002
{
1000
OWNER
1000
GEN
1002
}
  0
LINE
  5
12CA6
330
1F
100
AcDbEntity
  8
AM_0
100
AcDbLine
 10
-68.19999999999986
 20
-23.81249999999992
 30
0.0
 11
-69.9999999999999
 21
-25.61249999999992
 31
0.0
1001
GENIUS_GENFIL_13
1070
     0
1040
1.8
1040
1.8
1040
20.0
1040
0.0
1002
{
1002
}
1001
GENIUS_GENODEF_13
1002
{
1000
HIER
1070
     0
1002
}
1002
{
1000
MANEDIT
1070
     0
1002
}
1002
{
1000
NOSEL
1070
     0
1002
}
1002
{
1000
BEHIND
1070
     0
1002
}
1002
{
1000
REACTOR
1002
}
1001
GENIUS_GENOBJ-N-CHA_13
1002
{
1000
OWNER
1000
GEN
1002
}
  0
LINE
  5
12CA7
330
1F
100
AcDbEntity
  8
AM_0
100
AcDbLine
 10
-56.4999999999996
 20
-11.70000000000008
 30
0.0
 11
-56.49999999999966
 21
-0.0000000000000568
 31
0.0
  0
ARC
  5
12CA8
330
1F
100
AcDbEntity
  8
AM_0
100
AcDbCircle
 10
-57.4999999999996
 20
-11.70000000000009
 30
0.0
 40
1.0
100
AcDbArc
 50
269.9999999999998
 51
0.0000000000005229
1001
GENIUS_GENODEF_13
1002
{
1000
HIER
1070
     0
1002
}
1002
{
1000
MANEDIT
1070
     0
1002
}
1002
{
1000
NOSEL
1070
     0
1002
}
1002
{
1000
BEHIND
1070
     0
1002
}
1002
{
1000
REACTOR
1002
}
1001
GENIUS_GENOBJ-N-FIL_13
1002
{
1000
OWNER
1000
GEN
1002
}
  0
LINE
  5
12CA9
330
1F
100
AcDbEntity
  8
AM_11
100
AcDbLine
 10
-68.99999999999955
 20
-41.80000000000001
 30
0.0
 11
-69.99999999999954
 21
-40.8
 31
0.0
1001
GENIUS_GENFIL_13
1070
     0
1040
1.0
1040
1.0
1040
20.0
1040
0.0
1002
{
1002
}
1001
GENIUS_GENODEF_13
1002
{
1000
HIER
1070
     0
1002
}
1002
{
1000
MANEDIT
1070
     0
1002
}
1002
{
1000
NOSEL
1070
     0
1002
}
1002
{
1000
BEHIND
1070
     0
1002
}
1002
{
1000
REACTOR
1002
}
1001
GENIUS_GENOBJ-N-CHA_13
1002
{
1000
OWNER
1000
GEN
1002
}
  0
LINE
  5
12CAA
330
1F
100
AcDbEntity
  8
AM_0
100
AcDbLine
 10
-29.99999999999948
 20
-36.80000000000001
 30
0.0
 11
-29.9999999999996
 21
-23.81249999999997
 31
0.0
  0
LINE
  5
12CAB
330
1F
100
AcDbEntity
  8
AM_0
100
AcDbLine
 10
-31.4999999999996
 20
-23.81249999999997
 30
0.0
 11
-31.4999999999996
 21
0.0
 31
0.0
  0
LINE
  5
12CAC
330
1F
100
AcDbEntity
  8
AM_0
100
AcDbLine
 10
-31.4999999999996
 20
-23.81249999999997
 30
0.0
 11
-29.9999999999996
 21
-25.31249999999998
 31
0.0
1001
GENIUS_GENFIL_13
1070
     0
1040
1.5
1040
1.5
1040
20.0
1040
0.0
1002
{
1002
}
1001
GENIUS_GENODEF_13
1002
{
1000
HIER
1070
     0
1002
}
1002
{
1000
MANEDIT
1070
     0
1002
}
1002
{
1000
NOSEL
1070
     0
1002
}
1002
{
1000
BEHIND
1070
     0
1002
}
1002
{
1000
REACTOR
1002
}
1001
GENIUS_GENOBJ-N-CHA_13
1002
{
1000
OWNER
1000
GEN
1002
}
  0
LINE
  5
12CAD
330
1F
100
AcDbEntity
  8
AM_11
100
AcDbLine
 10
-37.9999999999996
 20
-37.80000000000001
 30
0.0
 11
-30.99999999999949
 21
-37.80000000000001
 31
0.0
  0
LINE
  5
12CAE
330
1F
100
AcDbEntity
  8
AM_11
100
AcDbLine
 10
-38.4999999999996
 20
-41.80000000000001
 30
0.0
 11
-37.9999999999996
 21
-41.30000000000001
 31
0.0
1001
GENIUS_GENFIL_13
1070
     0
1040
0.5
1040
0.5
1040
20.0
1040
0.0
1002
{
1002
}
1001
GENIUS_GENODEF_13
1002
{
1000
HIER
1070
     0
1002
}
1002
{
1000
MANEDIT
1070
     0
1002
}
1002
{
1000
NOSEL
1070
     0
1002
}
1002
{
1000
BEHIND
1070
     0
1002
}
1002
{
1000
REACTOR
1002
}
1001
GENIUS_GENOBJ-N-CHA_13
1002
{
1000
OWNER
1000
GEN
1002
}
  0
LINE
  5
12CAF
330
1F
100
AcDbEntity
  8
AM_11
100
AcDbLine
 10
-30.99999999999949
 20
-37.80000000000001
 30
0.0
 11
-29.99999999999948
 21
-36.80000000000001
 31
0.0
1001
GENIUS_GENFIL_13
1070
     0
1040
1.0
1040
1.0
1040
20.0
1040
0.0
1002
{
1002
}
1001
GENIUS_GENODEF_13
1002
{
1000
HIER
1070
     0
1002
}
1002
{
1000
MANEDIT
1070
     0
1002
}
1002
{
1000
NOSEL
1070
     0
1002
}
1002
{
1000
BEHIND
1070
     0
1002
}
1002
{
1000
REACTOR
1002
}
1001
GENIUS_GENOBJ-N-CHA_13
1002
{
1000
OWNER
1000
GEN
1002
}
  0
LINE
  5
12CB0
330
1F
100
AcDbEntity
  8
AM_0
100
AcDbLine
 10
-29.59999999999928
 20
-77.73094010767604
 30
0.0
 11
-15.69903810567592
 21
-85.75666419935833
 31
0.0
  0
LINE
  5
12CB2
330
1F
100
AcDbEntity
  8
AM_0
100
AcDbLine
 10
-55.39719767661949
 20
-127.5676380902051
 30
0.0
 11
-62.38672636350321
 21
-101.4823619097949
 31
0.0
  0
LINE
  5
12CB3
330
1F
100
AcDbEntity
  8
AM_11
100
AcDbLine
 10
-68.99999999999955
 20
-59.80000000000001
 30
0.0
 11
-38.4999999999996
 21
-59.79999999999995
 31
0.0
  0
LINE
  5
12CB4
330
1F
100
AcDbEntity
  8
AM_4
100
AcDbLine
 10
-69.49999999999943
 20
-76.00000000000004
 30
0.0
 11
-30.49999999999949
 21
-76.00000000000004
 31
0.0
  0
LINE
  5
12CB5
330
1F
100
AcDbEntity
  8
AM_4
100
AcDbLine
 10
-69.49999999999943
 20
-64.0000000000001
 30
0.0
 11
-30.49999999999926
 21
-63.99999999999988
 31
0.0
  0
LINE
  5
12CB6
330
1F
100
AcDbEntity
  8
AM_0
100
AcDbLine
 10
-68.55799999999942
 20
-75.05800000000005
 30
0.0
 11
-31.44199999999926
 21
-75.05799999999998
 31
0.0
  0
LINE
  5
12CB7
330
1F
100
AcDbEntity
  8
AM_0
100
AcDbLine
 10
-68.55799999999942
 20
-64.94200000000001
 30
0.0
 11
-31.44199999999938
 21
-64.94200000000001
 31
0.0
  0
LINE
  5
12CB8
330
1F
100
AcDbEntity
  8
AM_0
100
AcDbLine
 10
-68.55799999999942
 20
-75.05800000000011
 30
0.0
 11
-68.55799999999942
 21
-64.94200000000006
 31
0.0
  0
LINE
  5
12CB9
330
1F
100
AcDbEntity
  8
AM_11
100
AcDbLine
 10
-69.99999999999954
 20
-60.80000000000001
 30
0.0
 11
-68.99999999999955
 21
-59.80000000000001
 31
0.0
1001
GENIUS_GENFIL_13
1070
     0
1040
1.0
1040
1.0
1040
20.0
1040
0.0
1002
{
1002
}
1001
GENIUS_GENODEF_13
1002
{
1000
HIER
1070
     0
1002
}
1002
{
1000
MANEDIT
1070
     0
1002
}
1002
{
1000
NOSEL
1070
     0
1002
}
1002
{
1000
BEHIND
1070
     0
1002
}
1002
{
1000
REACTOR
1002
}
1001
GENIUS_GENOBJ-N-CHA_13
1002
{
1000
OWNER
1000
GEN
1002
}
  0
LINE
  5
12CBA
330
1F
100
AcDbEntity
  8
AM_0
100
AcDbLine
 10
-69.99999999999943
 20
-63.49999999999994
 30
0.0
 11
-68.55799999999942
 21
-64.94199999999989
 31
0.0
  0
LINE
  5
12CBB
330
1F
100
AcDbEntity
  8
AM_0
100
AcDbLine
 10
-69.99999999999943
 20
-76.50000000000004
 30
0.0
 11
-68.55799999999942
 21
-75.05800000000011
 31
0.0
  0
LINE
  5
12CBC
330
1F
100
AcDbEntity
  8
AM_0
100
AcDbLine
 10
-68.19999999999942
 20
-99.99999999999994
 30
0.0
 11
-69.99999999999943
 21
-98.19999999999994
 31
0.0
1001
GENIUS_GENFIL_13
1070
     0
1040
1.8
1040
1.8
1040
20.0
1040
0.0
1002
{
1002
}
1001
GENIUS_GENODEF_13
1002
{
1000
HIER
1070
     0
1002
}
1002
{
1000
MANEDIT
1070
     0
1002
}
1002
{
1000
NOSEL
1070
     0
1002
}
1002
{
1000
BEHIND
1070
     0
1002
}
1002
{
1000
REACTOR
1002
}
1001
GENIUS_GENOBJ-N-CHA_13
1002
{
1000
OWNER
1000
GEN
1002
}
  0
LINE
  5
12CBD
330
1F
100
AcDbEntity
  8
AM_0
100
AcDbLine
 10
-68.19999999999942
 20
-99.99999999999994
 30
0.0
 11
-64.31857801608135
 21
-99.99999999999996
 31
0.0
  0
ARC
  5
12CBE
330
1F
100
AcDbEntity
  8
AM_0
100
AcDbCircle
 10
-64.31857801608135
 20
-101.9999999999999
 30
0.0
 40
2.0
100
AcDbArc
 50
15.00000000000003
 51
90.00000000000005
1001
GENIUS_GENODEF_13
1002
{
1000
HIER
1070
     0
1002
}
1002
{
1000
MANEDIT
1070
     0
1002
}
1002
{
1000
NOSEL
1070
     0
1002
}
1002
{
1000
BEHIND
1070
     0
1002
}
1002
{
1000
REACTOR
1002
}
1001
GENIUS_GENOBJ-N-FIL_13
1002
{
1000
OWNER
1000
GEN
1002
}
  0
LINE
  5
12CBF
330
1F
100
AcDbEntity
  8
AM_11
100
AcDbLine
 10
-37.9999999999996
 20
-63.80000000000001
 30
0.0
 11
-30.99999999999937
 21
-63.79999999999991
 31
0.0
  0
LINE
  5
12CC0
330
1F
100
AcDbEntity
  8
AM_11
100
AcDbLine
 10
-38.4999999999996
 20
-59.79999999999995
 30
0.0
 11
-37.9999999999996
 21
-60.29999999999995
 31
0.0
1001
GENIUS_GENFIL_13
1070
     0
1040
0.5
1040
0.5
1040
20.0
1040
0.0
1002
{
1002
}
1001
GENIUS_GENODEF_13
1002
{
1000
HIER
1070
     0
1002
}
1002
{
1000
MANEDIT
1070
     0
1002
}
1002
{
1000
NOSEL
1070
     0
1002
}
1002
{
1000
BEHIND
1070
     0
1002
}
1002
{
1000
REACTOR
1002
}
1001
GENIUS_GENOBJ-N-CHA_13
1002
{
1000
OWNER
1000
GEN
1002
}
  0
LINE
  5
12CC1
330
1F
100
AcDbEntity
  8
AM_0
100
AcDbLine
 10
-31.44199999999926
 20
-75.05800000000011
 30
0.0
 11
-31.44199999999926
 21
-64.94200000000006
 31
0.0
  0
LINE
  5
12CC2
330
1F
100
AcDbEntity
  8
AM_11
100
AcDbLine
 10
-30.99999999999937
 20
-63.79999999999991
 30
0.0
 11
-29.99999999999937
 21
-64.79999999999989
 31
0.0
1001
GENIUS_GENFIL_13
1070
     0
1040
1.0
1040
1.0
1040
20.0
1040
0.0
1002
{
1002
}
1001
GENIUS_GENODEF_13
1002
{
1000
HIER
1070
     0
1002
}
1002
{
1000
MANEDIT
1070
     0
1002
}
1002
{
1000
NOSEL
1070
     0
1002
}
1002
{
1000
BEHIND
1070
     0
1002
}
1002
{
1000
REACTOR
1002
}
1001
GENIUS_GENOBJ-N-CHA_13
1002
{
1000
OWNER
1000
GEN
1002
}
  0
LINE
  5
12CC3
330
1F
100
AcDbEntity
  8
AM_0
100
AcDbLine
 10
-29.99999999999926
 20
-63.49999999999994
 30
0.0
 11
-31.44199999999926
 21
-64.94199999999989
 31
0.0
  0
LINE
  5
12CC4
330
1F
100
AcDbEntity
  8
AM_0
100
AcDbLine
 10
-29.99999999999926
 20
-76.50000000000004
 30
0.0
 11
-31.44199999999926
 21
-75.05800000000011
 31
0.0
  0
LINE
  5
12CC5
330
1F
100
AcDbEntity
  8
AM_11
100
AcDbLine
 10
-29.99999999999937
 20
-77.50000000000014
 30
0.0
 11
-29.59999999999917
 21
-77.73094010767602
 31
0.0
  0
LINE
  5
12CC6
330
1F
100
AcDbEntity
  8
AM_11
100
AcDbLine
 10
-29.99999999999937
 20
-77.50000000000014
 30
0.0
 11
-29.99999999999932
 21
-77.03811978464838
 31
0.0
  0
ARC
  5
12CC7
330
1F
100
AcDbEntity
  8
AM_0
100
AcDbCircle
 10
-29.1999999999993
 20
-77.0381197846485
 30
0.0
 40
0.8
100
AcDbArc
 50
180.0000000000003
 51
240.0000000000003
1001
GENIUS_GENODEF_13
1002
{
1000
HIER
1070
     0
1002
}
1002
{
1000
MANEDIT
1070
     0
1002
}
1002
{
1000
NOSEL
1070
     0
1002
}
1002
{
1000
BEHIND
1070
     0
1002
}
1002
{
1000
REACTOR
1002
}
1001
GENIUS_GENOBJ-N-FIL_13
1002
{
1000
OWNER
1000
GEN
1002
}
  0
LINE
  5
12CC8
330
1F
100
AcDbEntity
  8
AM_0
100
AcDbLine
 10
-53.46534602404137
 20
-129.05
 30
0.0
 11
-32.29999999999916
 21
-129.0499999999999
 31
0.0
  0
ARC
  5
12CC9
330
1F
100
AcDbEntity
  8
AM_0
100
AcDbCircle
 10
-53.46534602404137
 20
-127.05
 30
0.0
 40
2.0
100
AcDbArc
 50
195.0000000000001
 51
270.0000000000001
1001
GENIUS_GENODEF_13
1002
{
1000
HIER
1070
     0
1002
}
1002
{
1000
MANEDIT
1070
     0
1002
}
1002
{
1000
NOSEL
1070
     0
1002
}
1002
{
1000
BEHIND
1070
     0
1002
}
1002
{
1000
REACTOR
1002
}
1001
GENIUS_GENOBJ-N-FIL_13
1002
{
1000
OWNER
1000
GEN
1002
}
  0
LINE
  5
12CD2
330
1F
100
AcDbEntity
  8
AM_0
100
AcDbLine
 10
-14.39999999999924
 20
-93.34500000000003
 30
0.0
 11
-14.39999999999924
 21
-88.00666419935833
 31
0.0
  0
LINE
  5
12CD3
330
1F
100
AcDbEntity
  8
AM_0
100
AcDbLine
 10
-14.39999999999924
 20
-88.00666419935833
 30
0.0
 11
-15.69903810567592
 21
-85.75666419935833
 31
0.0
1001
GENIUS_GENFIL_13
1070
     0
1040
1.5
1040
1.5
1040
20.0
1040
0.0
1002
{
1002
}
1001
GENIUS_GENODEF_13
1002
{
1000
HIER
1070
     0
1002
}
1002
{
1000
MANEDIT
1070
     0
1002
}
1002
{
1000
NOSEL
1070
     0
1002
}
1002
{
1000
BEHIND
1070
     0
1002
}
1002
{
1000
REACTOR
1002
}
1001
GENIUS_GENOBJ-N-CHA_13
1002
{
1000
OWNER
1000
GEN
1002
}
  0
LINE
  5
12CD4
330
1F
100
AcDbEntity
  8
AM_0
100
AcDbLine
 10
-15.39937677684412
 20
-93.34500000000003
 30
0.0
 11
-14.39999999999924
 21
-93.34500000000003
 31
0.0
  0
LINE
  5
12CD5
330
1F
100
AcDbEntity
  8
AM_0
100
AcDbLine
 10
-15.39937677684412
 20
-95.34500000000004
 30
0.0
 11
-14.39937677684412
 21
-95.34500000000004
 31
0.0
  0
LINE
  5
12CD6
330
1F
100
AcDbEntity
  8
AM_0
100
AcDbLine
 10
-15.39937677684412
 20
-95.34500000000004
 30
0.0
 11
-15.39937677684412
 21
-93.34500000000003
 31
0.0
  0
DIMENSION
  5
12CDA
330
1F
100
AcDbEntity
  8
AM_5
100
AcDbDimension
  2
*D3
 10
-108.3240963311677
 20
-99.99999999999992
 30
0.0
 11
-111.4240963311677
 21
-0.000000000000064
 31
0.0
 70
    32
  1
%%c<>
 71
     5
 42
-1.0
  3
AM_JIS
100
AcDbAlignedDimension
 13
-68.19999999999954
 23
99.99999999999985
 33
0.0
 14
-68.19999999999942
 24
-99.99999999999994
 34
0.0
 50
90.0
100
AcDbRotatedDimension
1001
GENIUS_GENDTOL_13
1000

1000
h7
1000

1040
0.0
  0
DIMENSION
  5
12CDB
330
1F
100
AcDbEntity
  8
AM_5
100
AcDbDimension
  2
*D4
 10
-118.3240963311677
 20
-129.05
 30
0.0
 11
-121.4240963311677
 21
0.0000000000000076
 31
0.0
 70
    32
  1
%%c<>
 71
     5
 42
-1.0
  3
AM_JIS
100
AcDbAlignedDimension
 13
-53.46534602404137
 23
129.05
 33
0.0
 14
-53.46534602404137
 24
-129.05
 34
0.0
 50
90.0
100
AcDbRotatedDimension
1001
GENIUS_GENDTOL_13
1000

1000
h7
1000

1040
0.0
  0
DIMENSION
  5
12CDC
330
1F
100
AcDbEntity
  8
AM_5
100
AcDbDimension
  2
*D2
 10
-98.32409633116778
 20
-23.81249999999992
 30
0.0
 11
-101.4240963311677
 21
-0.0000000000000043
 31
0.0
 70
    32
  1
%%c<>
 71
     5
 42
-1.0
  3
AM_JIS
100
AcDbAlignedDimension
 13
-68.19999999999986
 23
23.81249999999992
 33
0.0
 14
-68.19999999999986
 24
-23.81249999999992
 34
0.0
 50
90.0
100
AcDbRotatedDimension
1001
GENIUS_GENDTOL_13
1000

1000
h7
1000

1040
0.0
  0
DIMENSION
  5
12CDD
330
1F
100
AcDbEntity
  8
AM_5
100
AcDbDimension
  2
*D5
 10
-88.32409633116778
 20
-12.70000000000004
 30
0.0
 11
-88.32409633116778
 21
-0.0000000000001492
 31
0.0
 70
   160
 71
     5
 42
-1.0
  3
AM_JIS
100
AcDbAlignedDimension
 13
-68.69999999999946
 23
12.70000000000004
 33
0.0
 14
-68.69999999999946
 24
-12.70000000000004
 34
0.0
 50
90.0
100
AcDbRotatedDimension
  0
DIMENSION
  5
12CDE
330
1F
100
AcDbEntity
  8
AM_5
100
AcDbDimension
  2
*D6
 10
-56.49999999999961
 20
-144.272182
 30
0.0
 11
-63.24999999999957
 21
-141.172182
 31
0.0
 70
    32
 71
     5
 42
-1.0
  3
AM_JIS
100
AcDbAlignedDimension
 13
-69.99999999999954
 23
-98.19999999999986
 33
0.0
 14
-56.4999999999996
 24
-11.70000000000009
 34
0.0
100
AcDbRotatedDimension
  0
DIMENSION
  5
12CDF
330
1F
100
AcDbEntity
  8
AM_5
100
AcDbDimension
  2
*D11
 10
-37.99999999999972
 20
-154.2721819999999
 30
0.0
 11
-53.99999999999963
 21
-151.1721819999999
 31
0.0
 70
    32
  1
<>
 71
     5
 42
-1.0
  3
AM_JIS$0
100
AcDbAlignedDimension
 13
-69.99999999999954
 23
-98.19999999999986
 33
0.0
 14
-37.99999999999971
 24
-63.80000000000001
 34
0.0
 50
0.0000000000001018
100
AcDbRotatedDimension
1001
ACAD
1000
DSTYLE
1002
{
1070
    40
1040
1.0
1070
    43
1040
12.0
1070
   140
1040
3.2
1070
   147
1040
1.5
1070
   178
1070
     2
1002
}
1001
GENIUS_GENDTOL_13
1000

1000
h7
1000

1040
0.0
  0
DIMENSION
  5
12CE0
330
1F
100
AcDbEntity
  8
AM_5
100
AcDbDimension
  2
*D8
 10
-0.0000000000007988
 20
-174.272182
 30
0.0
 11
-35.00000000000017
 21
-171.172182
 31
0.0
 70
    32
 71
     5
 42
-1.0
  3
AM_JIS
100
AcDbAlignedDimension
 13
-69.99999999999954
 23
-98.19999999999986
 33
0.0
 14
-0.0000000000007958
 24
-125.0000000000044
 34
0.0
100
AcDbRotatedDimension
  0
DIMENSION
  5
12CE1
330
1F
100
AcDbEntity
  8
AM_5
100
AcDbDimension
  2
*D7
 10
-29.99999999999937
 20
-164.272182
 30
0.0
 11
-49.99999999999945
 21
-161.172182
 31
0.0
 70
    32
 71
     5
 42
-1.0
  3
AM_JIS
100
AcDbAlignedDimension
 13
-69.99999999999954
 23
-98.19999999999986
 33
0.0
 14
-29.99999999999937
 24
-77.50000000000014
 34
0.0
100
AcDbRotatedDimension
  0
DIMENSION
  5
12CE2
330
1F
100
AcDbEntity
  8
AM_5
100
AcDbDimension
  2
*D10
 10
19.08391295814264
 20
-77.50000000000014
 30
0.0
 11
19.08391295814266
 21
0.8749999999998863
 31
0.0
 70
   160
  1
%%c<>
 71
     5
 42
-1.0
  3
AM_JIS
100
AcDbAlignedDimension
 13
-29.99999999999937
 23
77.50000000000014
 33
0.0
 14
-29.99999999999937
 24
-77.50000000000014
 34
0.0
 50
90.0
100
AcDbRotatedDimension
1001
GENIUS_GENDTOL_13
1000

1000
h7
1000

1040
0.0
  0
DIMENSION
  5
12CE3
330
1F
100
AcDbEntity
  8
AM_5
100
AcDbDimension
  2
*D9
 10
29.08391295814266
 20
-125.0000000000044
 30
0.0
 11
25.98391295814268
 21
-0.0000000000022254
 31
0.0
 70
    32
  1
%%c<>
 71
     5
 42
-1.0
  3
AM_JIS$0
100
AcDbAlignedDimension
 13
0.000000000000739
 23
125.0
 33
0.0
 14
-0.0000000000007958
 24
-125.0000000000044
 34
0.0
 50
90.0
100
AcDbRotatedDimension
1001
ACAD
1000
DSTYLE
1002
{
1070
    40
1040
1.0
1070
    43
1040
12.0
1070
   140
1040
3.2
1070
   147
1040
1.5
1070
   178
1070
     2
1002
}
1001
GENIUS_GENDTOL_13
1000

1000
h7
1000

1040
0.0
  0
LINE
  5
12F14
330
1F
100
AcDbEntity
  8
AM_11
100
AcDbLine
 10
0.000000000000739
 20
125.0
 30
0.0
 11
-0.0000000000007958
 21
-125.0000000000044
 31
0.0
  0
LINE
  5
12F99
330
1F
100
AcDbEntity
  8
AM_0
100
AcDbLine
 10
-6.424597156325286
 20
112.446970085741
 30
0.0
 11
-14.39937677684412
 21
95.34500000000004
 31
0.0
  0
LINE
  5
12F9A
330
1F
100
AcDbEntity
  8
AM_0
100
AcDbLine
 10
-1.899999999999181
 20
118.1983388475927
 30
0.0
 11
-1.899999999999237
 21
0.0
 31
0.0
  0
LINE
  5
131E7
330
1F
100
AcDbEntity
  8
AM_0
100
AcDbLine
 10
-15.69903810567592
 20
85.75666419935833
 30
0.0
 11
-15.69903810567586
 21
0.0
 31
0.0
  0
LINE
  5
131E8
330
1F
100
AcDbEntity
  8
AM_0
100
AcDbLine
 10
-15.69903810567586
 20
0.0
 30
0.0
 11
-15.69903810567592
 21
-85.75666419935833
 31
0.0
  0
LINE
  5
13374
330
1F
100
AcDbEntity
  8
0
100
AcDbLine
 10
-10.50229054937779
 20
128.796844133776
 30
0.0
 11
-11.02133699999933
 21
129.0500000000001
 31
0.0
  0
LINE
  5
13375
330
1F
100
AcDbEntity
  8
0
100
AcDbLine
 10
-31.99999999999932
 20
121.0500000000001
 30
0.0
 11
-31.99999999999932
 21
129.0500000000001
 31
0.0
  0
LINE
  5
13376
330
1F
100
AcDbEntity
  8
0
100
AcDbLine
 10
-25.99999999999932
 20
121.0500000000001
 30
0.0
 11
-25.99999999999932
 21
129.0500000000001
 31
0.0
  0
LINE
  5
13377
330
1F
100
AcDbEntity
  8
0
100
AcDbLine
 10
-31.99999999999932
 20
121.0500000000001
 30
0.0
 11
-25.99999999999932
 21
121.0500000000001
 31
0.0
  0
LINE
  5
13378
330
1F
100
AcDbEntity
  8
0
100
AcDbLine
 10
-11.02133699999933
 20
129.0500000000001
 30
0.0
 11
-25.99999999999932
 21
129.0500000000001
 31
0.0
  0
LINE
  5
13379
330
1F
100
AcDbEntity
  8
0
100
AcDbLine
 10
-17.87986299999932
 20
112.4331660000001
 30
0.0
 11
-17.87986299999932
 21
130.3318870000001
 31
0.0
  0
LINE
  5
1337A
330
1F
100
AcDbEntity
  8
0
100
AcDbLine
 10
-31.99999999999932
 20
128.9295070000001
 30
0.0
 11
-31.99999999999932
 21
129.0764610000001
 31
0.0
  0
LINE
  5
1337B
330
1F
100
AcDbEntity
  8
0
100
AcDbLine
 10
-13.6615249999993
 20
119.1697030000001
 30
0.0
 11
-13.6615249999993
 21
121.6697020000001
 31
0.0
  0
LINE
  5
1337C
330
1F
100
AcDbEntity
  8
0
100
AcDbLine
 10
0.0000000000006821
 20
122.5015540000001
 30
0.0
 11
0.0000000000006821
 21
125.0000000000001
 31
0.0
  0
SPLINE
  5
1337D
330
1F
100
AcDbEntity
  8
0
100
AcDbSpline
210
0.0
220
0.0
230
1.0
 70
     8
 71
     3
 72
    11
 73
     7
 74
     5
 42
0.0000000001
 43
0.0000000001
 44
0.0000000001
 40
0.0
 40
0.0
 40
0.0
 40
0.0
 40
1.225447308258074
 40
2.450894189555713
 40
3.676340464386216
 40
4.9017872530148
 40
4.9017872530148
 40
4.9017872530148
 40
4.9017872530148
 10
-13.42620099999931
 20
128.167431
 30
0.0
 10
-13.79293256482026
 20
128.347336187339
 30
0.0
 10
-14.52639556668862
 20
128.7071464993358
 30
0.0
 10
-15.62608765761968
 20
129.2478844742713
 30
0.0
 10
-16.7254505590738
 20
129.7892909916404
 30
0.0
 10
-17.4580334684988
 20
130.1508889719455
 30
0.0
 10
-17.82432499999936
 20
130.3316880000001
 30
0.0
 11
-13.42620099999931
 21
128.167431
 31
0.0
 11
-14.52631199999928
 21
128.7073170000001
 31
0.0
 11
-15.62603299999932
 21
129.2479960000001
 31
0.0
 11
-16.72536899999932
 21
129.7894560000001
 31
0.0
 11
-17.82432499999936
 21
130.3316880000001
 31
0.0
  0
SPLINE
  5
1337E
330
1F
100
AcDbEntity
  8
0
100
AcDbSpline
210
0.0
220
0.0
230
1.0
 70
     8
 71
     3
 72
    11
 73
     7
 74
     5
 42
0.0000000001
 43
0.0000000001
 44
0.0000000001
 40
0.0
 40
0.0
 40
0.0
 40
0.0
 40
3.255179543070529
 40
6.510345345931776
 40
9.765511589459077
 40
13.02069138959378
 40
13.02069138959378
 40
13.02069138959378
 40
13.02069138959378
 10
-13.42620099999931
 20
128.167431
 30
0.0
 10
-12.45168115311287
 20
127.6902865417738
 30
0.0
 10
-10.50264557281741
 20
126.7359996393621
 30
0.0
 10
-7.575419389072635
 20
125.3120964395216
 30
0.0
 10
-4.645645997351607
 20
123.8934401876624
 30
0.0
 10
-2.689818023334964
 20
122.9531520485469
 30
0.0
 10
-1.711901999999327
 20
122.4830070000001
 30
0.0
 11
-13.42620099999931
 21
128.167431
 31
0.0
 11
-10.50202899999931
 21
126.7372520000001
 31
0.0
 11
-7.574994999999262
 21
125.3129710000001
 31
0.0
 11
-4.644988999999327
 21
123.8948130000001
 31
0.0
 11
-1.711901999999327
 21
122.4830070000001
 31
0.0
  0
SPLINE
  5
1337F
330
1F
100
AcDbEntity
  8
0
100
AcDbSpline
210
0.0
220
0.0
230
1.0
 70
     8
 71
     3
 72
    11
 73
     7
 74
     5
 42
0.0000000001
 43
0.0000000001
 44
0.0000000001
 40
0.0
 40
0.0
 40
0.0
 40
0.0
 40
0.0138850900248745
 40
0.0277691764910034
 40
0.0416532665224781
 40
0.0555383565473528
 40
0.0555383565473528
 40
0.0555383565473528
 40
0.0555383565473528
 10
-17.82432499999936
 20
130.3316880000001
 30
0.0
 10
-17.82895333293061
 20
130.3317047794723
 30
0.0
 10
-17.83820966427549
 20
130.331738337204
 30
0.0
 10
-17.85209400246083
 20
130.3317866428705
 30
0.0
 10
-17.86597833300686
 20
130.3318370913916
 30
0.0
 10
-17.87523466655875
 20
130.3318703633979
 30
0.0
 10
-17.87986299999932
 20
130.3318870000001
 30
0.0
 11
-17.82432499999936
 21
130.3316880000001
 31
0.0
 11
-17.83820999999932
 21
130.3317380000001
 31
0.0
 11
-17.85209399999928
 21
130.3317870000001
 31
0.0
 11
-17.86597799999936
 21
130.3318370000001
 31
0.0
 11
-17.87986299999932
 21
130.3318870000001
 31
0.0
  0
SPLINE
  5
13380
330
1F
100
AcDbEntity
  8
0
100
AcDbSpline
210
0.0
220
0.0
230
1.0
 70
     8
 71
     3
 72
    11
 73
     7
 74
     5
 42
0.0000000001
 43
0.0000000001
 44
0.0000000001
 40
0.0
 40
0.0
 40
0.0
 40
0.0
 40
1.113419152109863
 40
2.226837522668774
 40
3.340255325425594
 40
4.453674778830324
 40
4.453674778830324
 40
4.453674778830324
 40
4.453674778830324
 10
-13.42620099999931
 20
112.4238530000001
 30
0.0
 10
-13.79734073927659
 20
112.4239637440014
 30
0.0
 10
-14.53961995731436
 20
112.4241852319261
 30
0.0
 10
-15.65303715785455
 20
112.4260160702134
 30
0.0
 10
-16.7664523760917
 20
112.4288424854182
 30
0.0
 10
-17.50872594195937
 20
112.4317248277606
 30
0.0
 10
-17.87986299999932
 20
112.4331660000001
 30
0.0
 11
-13.42620099999931
 21
112.4238530000001
 31
0.0
 11
-14.53961999999933
 21
112.4244350000001
 31
0.0
 11
-15.65303699999936
 21
112.4261820000001
 31
0.0
 11
-16.76645099999928
 21
112.4290920000001
 31
0.0
 11
-17.87986299999932
 21
112.4331660000001
 31
0.0
  0
SPLINE
  5
13381
330
1F
100
AcDbEntity
  8
0
100
AcDbSpline
210
0.0
220
0.0
230
1.0
 70
     8
 71
     3
 72
    11
 73
     7
 74
     5
 42
0.0000000001
 43
0.0000000001
 44
0.0000000001
 40
0.0
 40
0.0
 40
0.0
 40
0.0
 40
1.819879665191369
 40
3.639752644251653
 40
5.459626248523459
 40
7.279505789344206
 40
7.279505789344206
 40
7.279505789344206
 40
7.279505789344206
 10
-13.42620099999931
 20
112.4238530000001
 30
0.0
 10
-12.81957435033291
 20
112.4241495937067
 30
0.0
 10
-11.60632327971086
 20
112.4247427800302
 30
0.0
 10
-9.786453273700431
 20
112.429629855678
 30
0.0
 10
-7.966592416534695
 20
112.4371818044703
 30
0.0
 10
-6.753365465114484
 20
112.4448812639708
 30
0.0
 10
-6.146750999999312
 20
112.4487310000001
 30
0.0
 11
-13.42620099999931
 21
112.4238530000001
 31
0.0
 11
-11.60632199999929
 21
112.4254090000001
 31
0.0
 11
-9.786454999999364
 21
112.4300740000001
 31
0.0
 11
-7.966597999999294
 21
112.4378480000001
 31
0.0
 11
-6.146750999999312
 21
112.4487310000001
 31
0.0
  0
SPLINE
  5
13382
330
1F
100
AcDbEntity
  8
0
100
AcDbSpline
210
0.0
220
0.0
230
1.0
 70
     8
 71
     3
 72
    11
 73
     7
 74
     5
 42
0.0000000001
 43
0.0000000001
 44
0.0000000001
 40
0.0
 40
0.0
 40
0.0
 40
0.0
 40
2.74265639205497
 40
5.48531178414198
 40
8.227968404910452
 40
10.97062360537145
 40
10.97062360537145
 40
10.97062360537145
 40
10.97062360537145
 10
-6.146750999999312
 20
112.4487310000001
 30
0.0
 10
-5.777019283477216
 20
113.2848496933709
 30
0.0
 10
-5.037555985236963
 20
114.9570867752651
 30
0.0
 10
-3.92873983693255
 20
117.4656101395336
 30
0.0
 10
-2.820157834215592
 20
119.974236550932
 30
0.0
 10
-2.081320547635868
 20
121.6467503279983
 30
0.0
 10
-1.711901999999327
 20
122.4830070000001
 30
0.0
 11
-6.146750999999312
 21
112.4487310000001
 31
0.0
 11
-5.037618999999267
 21
114.9571150000001
 31
0.0
 11
-3.928778999999281
 21
117.4656270000001
 31
0.0
 11
-2.820211999999287
 21
119.9742610000001
 31
0.0
 11
-1.711901999999327
 21
122.4830070000001
 31
0.0
  0
SPLINE
  5
13383
330
1F
100
AcDbEntity
  8
0
100
AcDbSpline
210
0.0
220
0.0
230
1.0
 70
     8
 71
     3
 72
    11
 73
     7
 74
     5
 42
0.0000000001
 43
0.0000000001
 44
0.0000000001
 40
0.0
 40
0.0
 40
0.0
 40
0.0
 40
1.225447308258074
 40
2.450894189555713
 40
3.676340464386216
 40
4.9017872530148
 40
4.9017872530148
 40
4.9017872530148
 40
4.9017872530148
 10
-13.42620099999931
 20
128.167431
 30
0.0
 10
-13.79293256482026
 20
128.347336187339
 30
0.0
 10
-14.52639556668862
 20
128.7071464993358
 30
0.0
 10
-15.62608765761968
 20
129.2478844742713
 30
0.0
 10
-16.7254505590738
 20
129.7892909916404
 30
0.0
 10
-17.4580334684988
 20
130.1508889719455
 30
0.0
 10
-17.82432499999936
 20
130.3316880000001
 30
0.0
 11
-13.42620099999931
 21
128.167431
 31
0.0
 11
-14.52631199999928
 21
128.7073170000001
 31
0.0
 11
-15.62603299999932
 21
129.2479960000001
 31
0.0
 11
-16.72536899999932
 21
129.7894560000001
 31
0.0
 11
-17.82432499999936
 21
130.3316880000001
 31
0.0
  0
SPLINE
  5
13384
330
1F
100
AcDbEntity
  8
0
100
AcDbSpline
210
0.0
220
0.0
230
1.0
 70
     8
 71
     3
 72
    11
 73
     7
 74
     5
 42
0.0000000001
 43
0.0000000001
 44
0.0000000001
 40
0.0
 40
0.0
 40
0.0
 40
0.0
 40
3.255179543070529
 40
6.510345345931776
 40
9.765511589459077
 40
13.02069138959378
 40
13.02069138959378
 40
13.02069138959378
 40
13.02069138959378
 10
-13.42620099999931
 20
128.167431
 30
0.0
 10
-12.45168115311287
 20
127.6902865417738
 30
0.0
 10
-10.50264557281741
 20
126.7359996393621
 30
0.0
 10
-7.575419389072635
 20
125.3120964395216
 30
0.0
 10
-4.645645997351607
 20
123.8934401876624
 30
0.0
 10
-2.689818023334964
 20
122.9531520485469
 30
0.0
 10
-1.711901999999327
 20
122.4830070000001
 30
0.0
 11
-13.42620099999931
 21
128.167431
 31
0.0
 11
-10.50202899999931
 21
126.7372520000001
 31
0.0
 11
-7.574994999999262
 21
125.3129710000001
 31
0.0
 11
-4.644988999999327
 21
123.8948130000001
 31
0.0
 11
-1.711901999999327
 21
122.4830070000001
 31
0.0
  0
SPLINE
  5
13385
330
1F
100
AcDbEntity
  8
0
100
AcDbSpline
210
0.0
220
0.0
230
1.0
 70
     8
 71
     3
 72
    11
 73
     7
 74
     5
 42
0.0000000001
 43
0.0000000001
 44
0.0000000001
 40
0.0
 40
0.0
 40
0.0
 40
0.0
 40
3.539164707815991
 40
7.07830105251616
 40
10.61743664130743
 40
14.15660201483213
 40
14.15660201483213
 40
14.15660201483213
 40
14.15660201483213
 10
-12.84370899999931
 20
129.0970540000001
 30
0.0
 10
-14.02343109740184
 20
129.098030216086
 30
0.0
 10
-16.38286583783076
 20
129.0999826404344
 30
0.0
 10
-19.92198121637057
 20
129.1160772592532
 30
0.0
 10
-23.46104600665001
 20
129.1409483391207
 30
0.0
 10
-25.82034535965636
 20
129.1662960774869
 30
0.0
 10
-26.99999999999932
 20
129.1789700000001
 30
0.0
 11
-12.84370899999931
 21
129.0970540000001
 31
0.0
 11
-16.38286999999934
 21
129.1021770000001
 31
0.0
 11
-19.92197299999929
 21
129.1175400000001
 31
0.0
 11
-23.46101599999929
 21
129.1431400000001
 31
0.0
 11
-26.99999999999932
 21
129.1789700000001
 31
0.0
  0
SPLINE
  5
13386
330
1F
100
AcDbEntity
  8
0
100
AcDbSpline
210
0.0
220
0.0
230
1.0
 70
     8
 71
     3
 72
    11
 73
     7
 74
     5
 42
0.0000000001
 43
0.0000000001
 44
0.0000000001
 40
0.0
 40
0.0
 40
0.0
 40
0.0
 40
0.6455880226467712
 40
1.291175224882047
 40
1.936762787086522
 40
2.582350889376188
 40
2.582350889376188
 40
2.582350889376188
 40
2.582350889376188
 10
-12.84370899999931
 20
129.0970540000001
 30
0.0
 10
-12.62851298932048
 20
129.0970867320737
 30
0.0
 10
-12.19812124143357
 20
129.0971521961794
 30
0.0
 10
-11.55253382856642
 20
129.0976872144433
 30
0.0
 10
-10.90694669781089
 20
129.0985149469385
 30
0.0
 10
-10.4765556259457
 20
129.0993589821952
 30
0.0
 10
-10.26135999999928
 20
129.0997810000001
 30
0.0
 11
-12.84370899999931
 21
129.0970540000001
 31
0.0
 11
-12.19812099999933
 21
129.0972250000001
 31
0.0
 11
-11.55253399999935
 21
129.0977360000001
 31
0.0
 11
-10.90694699999926
 21
129.098588
 31
0.0
 11
-10.26135999999928
 21
129.0997810000001
 31
0.0
  0
SPLINE
  5
13387
330
1F
100
AcDbEntity
  8
0
100
AcDbSpline
210
0.0
220
0.0
230
1.0
 70
     8
 71
     3
 72
    11
 73
     7
 74
     5
 42
0.0000000001
 43
0.0000000001
 44
0.0000000001
 40
0.0
 40
0.0
 40
0.0
 40
0.0
 40
1.250263706078029
 40
2.500526723634368
 40
3.750789396193185
 40
5.001054006907265
 40
5.001054006907265
 40
5.001054006907265
 40
5.001054006907265
 10
-26.99999999999932
 20
129.1789700000001
 30
0.0
 10
-27.41665133923709
 20
129.169692780665
 30
0.0
 10
-28.24995378826236
 20
129.1511383471041
 30
0.0
 10
-29.49994312579759
 20
129.1249606486923
 30
0.0
 10
-30.7499553201834
 20
129.099883066475
 30
0.0
 10
-31.58331822474793
 20
129.084268359526
 30
0.0
 10
-31.99999999999932
 20
129.0764610000001
 30
0.0
 11
-26.99999999999932
 21
129.1789700000001
 31
0.0
 11
-28.24995999999931
 21
129.1514140000001
 31
0.0
 11
-29.49994699999934
 21
129.1251440000001
 31
0.0
 11
-30.74995999999931
 21
129.1001590000001
 31
0.0
 11
-31.99999999999932
 21
129.0764610000001
 31
0.0
  0
SPLINE
  5
13388
330
1F
100
AcDbEntity
  8
0
100
AcDbSpline
210
0.0
220
0.0
230
1.0
 70
     8
 71
     3
 72
    11
 73
     7
 74
     5
 42
0.0000000001
 43
0.0000000001
 44
0.0000000001
 40
0.0
 40
0.0
 40
0.0
 40
0.0
 40
2.139972057945674
 40
4.279903608079218
 40
6.419834268552626
 40
8.559806591577823
 40
8.559806591577823
 40
8.559806591577823
 40
8.559806591577823
 10
-23.44049099999927
 20
128.8715730000001
 30
0.0
 10
-24.15381612264525
 20
128.8710728179778
 30
0.0
 10
-25.58045286531239
 20
128.8700724634012
 30
0.0
 10
-27.72038072426801
 20
128.8805629464043
 30
0.0
 10
-29.86025454633898
 20
128.8990457906839
 30
0.0
 10
-31.28674688673402
 20
128.9193531976674
 30
0.0
 10
-31.99999999999932
 20
128.9295070000001
 30
0.0
 11
-23.44049099999927
 21
128.8715730000001
 31
0.0
 11
-25.58046299999933
 21
128.8720710000001
 31
0.0
 11
-27.72037199999932
 21
128.8818950000001
 31
0.0
 11
-29.86021699999935
 21
128.901042
 31
0.0
 11
-31.99999999999932
 21
128.9295070000001
 31
0.0
  0
SPLINE
  5
13389
330
1F
100
AcDbEntity
  8
0
100
AcDbSpline
210
0.0
220
0.0
230
1.0
 70
     8
 71
     3
 72
    11
 73
     7
 74
     0
 42
0.0000000001
 43
0.0000000001
 40
0.0
 40
0.0
 40
0.0
 40
0.0
 40
3.367485039533362
 40
6.734943612669043
 40
10.10240189749233
 40
13.07266506885838
 40
13.07266506885838
 40
13.07266506885838
 40
13.07266506885838
 10
-23.44049099999927
 20
128.8715730000001
 30
0.0
 10
-22.3179952737795
 20
128.8710742018427
 30
0.0
 10
-20.07301264347814
 20
128.8700766094482
 30
0.0
 10
-16.70555627703504
 20
128.8806544786341
 30
0.0
 10
-13.47054031178652
 20
128.8985490888795
 30
0.0
 10
-11.35804929643734
 20
128.9173563122225
 30
0.0
 10
-10.36800177978455
 20
128.926355098349
 30
0.0
  0
SPLINE
  5
1338A
330
1F
100
AcDbEntity
  8
0
100
AcDbSpline
210
0.0
220
0.0
230
1.0
 70
     8
 71
     3
 72
    11
 73
     7
 74
     5
 42
0.0000000001
 43
0.0000000001
 44
0.0000000001
 40
0.0
 40
0.0
 40
0.0
 40
0.0
 40
3.539164707815991
 40
7.07830105251616
 40
10.61743664130743
 40
14.15660201483213
 40
14.15660201483213
 40
14.15660201483213
 40
14.15660201483213
 10
-12.84370899999931
 20
129.0970540000001
 30
0.0
 10
-14.02343109740184
 20
129.098030216086
 30
0.0
 10
-16.38286583783076
 20
129.0999826404344
 30
0.0
 10
-19.92198121637057
 20
129.1160772592532
 30
0.0
 10
-23.46104600665001
 20
129.1409483391207
 30
0.0
 10
-25.82034535965636
 20
129.1662960774869
 30
0.0
 10
-26.99999999999932
 20
129.1789700000001
 30
0.0
 11
-12.84370899999931
 21
129.0970540000001
 31
0.0
 11
-16.38286999999934
 21
129.1021770000001
 31
0.0
 11
-19.92197299999929
 21
129.1175400000001
 31
0.0
 11
-23.46101599999929
 21
129.1431400000001
 31
0.0
 11
-26.99999999999932
 21
129.1789700000001
 31
0.0
  0
SPLINE
  5
1338B
330
1F
100
AcDbEntity
  8
0
100
AcDbSpline
210
0.0
220
0.0
230
1.0
 70
     8
 71
     3
 72
    11
 73
     7
 74
     5
 42
0.0000000001
 43
0.0000000001
 44
0.0000000001
 40
0.0
 40
0.0
 40
0.0
 40
0.0
 40
0.6455880226467712
 40
1.291175224882047
 40
1.936762787086522
 40
2.582350889376188
 40
2.582350889376188
 40
2.582350889376188
 40
2.582350889376188
 10
-12.84370899999931
 20
129.0970540000001
 30
0.0
 10
-12.62851298932048
 20
129.0970867320737
 30
0.0
 10
-12.19812124143357
 20
129.0971521961794
 30
0.0
 10
-11.55253382856642
 20
129.0976872144433
 30
0.0
 10
-10.90694669781089
 20
129.0985149469385
 30
0.0
 10
-10.4765556259457
 20
129.0993589821952
 30
0.0
 10
-10.26135999999928
 20
129.0997810000001
 30
0.0
 11
-12.84370899999931
 21
129.0970540000001
 31
0.0
 11
-12.19812099999933
 21
129.0972250000001
 31
0.0
 11
-11.55253399999935
 21
129.0977360000001
 31
0.0
 11
-10.90694699999926
 21
129.098588
 31
0.0
 11
-10.26135999999928
 21
129.0997810000001
 31
0.0
  0
SPLINE
  5
1338C
330
1F
100
AcDbEntity
  8
0
100
AcDbSpline
210
0.0
220
0.0
230
1.0
 70
     8
 71
     3
 72
    10
 73
     6
 74
     0
 42
0.0000000001
 43
0.0000000001
 40
0.0
 40
0.0
 40
0.0
 40
0.0
 40
0.1440089416147493
 40
0.2880174619876763
 40
0.3375273193052326
 40
0.3375273193052326
 40
0.3375273193052326
 40
0.3375273193052326
 10
-10.26135999999928
 20
129.0997810000001
 30
0.0
 10
-10.21335884921745
 20
129.0993589822972
 30
0.0
 10
-10.11735668806238
 20
129.0985149481257
 30
0.0
 10
-10.00484930302468
 20
129.0978682678912
 30
0.0
 10
-9.940343747626002
 20
129.0975855956302
 30
0.0
 10
-9.923840584086747
 20
129.0975200189223
 30
0.0
  0
SPLINE
  5
1338D
330
1F
100
AcDbEntity
  8
0
100
AcDbSpline
210
0.0
220
0.0
230
1.0
 70
     8
 71
     3
 72
    11
 73
     7
 74
     5
 42
0.0000000001
 43
0.0000000001
 44
0.0000000001
 40
0.0
 40
0.0
 40
0.0
 40
0.0
 40
1.905069259536033
 40
3.81013579985687
 40
5.715201855935677
 40
7.620270720896992
 40
7.620270720896992
 40
7.620270720896992
 40
7.620270720896992
 10
-7.18939399999931
 20
129.2449420000001
 30
0.0
 10
-6.617964907468717
 20
128.9679524266428
 30
0.0
 10
-5.475107538041356
 20
128.4139736752914
 30
0.0
 10
-3.75953370477066
 20
127.5856681321249
 30
0.0
 10
-2.04308063329438
 20
126.7591862748388
 30
0.0
 10
-0.8978804925166059
 20
126.2100675598856
 30
0.0
 10
-0.3252799999993385
 20
125.9355080000001
 30
0.0
 11
-7.18939399999931
 21
129.2449420000001
 31
0.0
 11
-5.474891999999272
 21
128.414417
 31
0.0
 11
-3.759386999999264
 21
127.5859720000001
 31
0.0
 11
-2.042856999999344
 21
126.7596540000001
 31
0.0
 11
-0.3252799999993385
 21
125.9355080000001
 31
0.0
  0
SPLINE
  5
1338E
330
1F
100
AcDbEntity
  8
0
100
AcDbSpline
210
0.0
220
0.0
230
1.0
 70
     8
 71
     3
 72
    11
 73
     7
 74
     5
 42
0.0000000001
 43
0.0000000001
 44
0.0000000001
 40
0.0
 40
0.0
 40
0.0
 40
0.0
 40
0.5944159963670637
 40
1.18883066081093
 40
1.783246137704023
 40
2.377661563200401
 40
2.377661563200401
 40
2.377661563200401
 40
2.377661563200401
 10
-7.18939399999931
 20
129.2449420000001
 30
0.0
 10
-7.387530236428915
 20
129.2439600005854
 30
0.0
 10
-7.783802265319081
 20
129.2419960039562
 30
0.0
 10
-8.378212101746839
 20
129.239421997433
 30
0.0
 10
-8.972622762284913
 20
129.2370940004848
 30
0.0
 10
-9.368897593138513
 20
129.2357900001428
 30
0.0
 10
-9.56703499999935
 20
129.2351380000001
 30
0.0
 11
-7.18939399999931
 21
129.2449420000001
 31
0.0
 11
-7.783802999999352
 21
129.2420580000001
 31
0.0
 11
-8.37821199999928
 21
129.2394630000001
 31
0.0
 11
-8.972622999999316
 21
129.2371560000001
 31
0.0
 11
-9.56703499999935
 21
129.2351380000001
 31
0.0
  0
SPLINE
  5
1338F
330
1F
100
AcDbEntity
  8
0
100
AcDbSpline
210
0.0
220
0.0
230
1.0
 70
     8
 71
     3
 72
    11
 73
     7
 74
     5
 42
0.0000000001
 43
0.0000000001
 44
0.0000000001
 40
0.0
 40
0.0
 40
0.0
 40
0.0
 40
0.2394502906846928
 40
0.4789010497355143
 40
0.7183513499817148
 40
0.9578011972441341
 40
0.9578011972441341
 40
0.9578011972441341
 40
0.9578011972441341
 10
-9.56703499999935
 20
129.2351380000001
 30
0.0
 10
-9.641502362171536
 20
129.2064094819976
 30
0.0
 10
-9.790437232174213
 20
129.1489523897994
 30
0.0
 10
-10.01385694825296
 20
129.0628121025707
 30
0.0
 10
-10.23728798068771
 20
128.9767015831078
 30
0.0
 10
-10.38625337386338
 20
128.919324509612
 30
0.0
 10
-10.46073599999931
 20
128.8906360000001
 30
0.0
 11
-9.56703499999935
 21
129.2351380000001
 31
0.0
 11
-9.790439999999307
 21
129.1489600000001
 31
0.0
 11
-10.01385899999934
 21
129.0628170000001
 31
0.0
 11
-10.23729099999934
 21
128.9767090000001
 31
0.0
 11
-10.46073599999931
 21
128.8906360000001
 31
0.0
  0
SPLINE
  5
13390
330
1F
100
AcDbEntity
  8
0
100
AcDbSpline
210
0.0
220
0.0
230
1.0
 70
     8
 71
     3
 72
    11
 73
     7
 74
     5
 42
0.0000000001
 43
0.0000000001
 44
0.0000000001
 40
0.0
 40
0.0
 40
0.0
 40
0.0
 40
0.1451107819633319
 40
0.290222374753142
 40
0.435332139283343
 40
0.5804436287973739
 40
0.5804436287973739
 40
0.5804436287973739
 40
0.5804436287973739
 10
-13.42620099999931
 20
122.2003030000001
 30
0.0
 10
-13.44581052735145
 20
122.1560859382149
 30
0.0
 10
-13.48502969162655
 20
122.0676515675755
 30
0.0
 10
-13.54386075343086
 20
121.9350015573119
 30
0.0
 10
-13.60269190783208
 20
121.8023513301128
 30
0.0
 10
-13.64191389156906
 20
121.7139186185764
 30
0.0
 10
-13.6615249999993
 20
121.6697020000001
 30
0.0
 11
-13.42620099999931
 21
122.2003030000001
 31
0.0
 11
-13.48502999999937
 21
122.0676520000001
 31
0.0
 11
-13.54386099999931
 21
121.9350010000001
 31
0.0
 11
-13.60269199999936
 21
121.8023520000001
 31
0.0
 11
-13.6615249999993
 21
121.6697020000001
 31
0.0
  0
SPLINE
  5
13391
330
1F
100
AcDbEntity
  8
0
100
AcDbSpline
210
0.0
220
0.0
230
1.0
 70
     8
 71
     3
 72
    11
 73
     7
 74
     5
 42
0.0000000001
 43
0.0000000001
 44
0.0000000001
 40
0.0
 40
0.0
 40
0.0
 40
0.0
 40
1.829524288563813
 40
3.659047728544844
 40
5.488572260538036
 40
7.318096675236012
 40
7.318096675236012
 40
7.318096675236012
 40
7.318096675236012
 10
-13.42620099999931
 20
122.2003030000001
 30
0.0
 10
-13.17898454747353
 20
122.7577889598967
 30
0.0
 10
-12.68455175708766
 20
123.8727606211128
 30
0.0
 10
-11.94312062667222
 20
125.5453150382306
 30
0.0
 10
-11.20182883417885
 20
127.2179312610832
 30
0.0
 10
-10.70776693944651
 20
128.3330677656101
 30
0.0
 10
-10.46073599999931
 20
128.8906360000001
 30
0.0
 11
-13.42620099999931
 21
122.2003030000001
 31
0.0
 11
-12.68458799999928
 21
123.8727770000001
 31
0.0
 11
-11.94314399999928
 21
125.5453250000001
 31
0.0
 11
-11.20186199999932
 21
127.2179460000001
 31
0.0
 11
-10.46073599999931
 21
128.8906360000001
 31
0.0
  0
SPLINE
  5
13392
330
1F
100
AcDbEntity
  8
0
100
AcDbSpline
210
0.0
220
0.0
230
1.0
 70
     8
 71
     3
 72
    11
 73
     7
 74
     5
 42
0.0000000001
 43
0.0000000001
 44
0.0000000001
 40
0.0
 40
0.0
 40
0.0
 40
0.0
 40
0.1798553467233795
 40
0.3597106934468292
 40
0.5395653859655056
 40
0.7194210234751819
 40
0.7194210234751819
 40
0.7194210234751819
 40
0.7194210234751819
 10
-13.42620099999931
 20
118.4898580000001
 30
0.0
 10
-13.44581162598172
 20
118.5465116807494
 30
0.0
 10
-13.48503287794654
 20
118.659819042248
 30
0.0
 10
-13.54386541687779
 20
118.8297796249371
 30
0.0
 10
-13.60269505825693
 20
118.9997413131692
 30
0.0
 10
-13.64191498507387
 20
119.1130490051667
 30
0.0
 10
-13.6615249999993
 20
119.1697030000001
 30
0.0
 11
-13.42620099999931
 21
118.4898580000001
 31
0.0
 11
-13.48503299999936
 21
118.6598190000001
 31
0.0
 11
-13.5438649999993
 21
118.8297800000001
 31
0.0
 11
-13.60269499999936
 21
118.9997410000001
 31
0.0
 11
-13.6615249999993
 21
119.1697030000001
 31
0.0
  0
SPLINE
  5
13393
330
1F
100
AcDbEntity
  8
0
100
AcDbSpline
210
0.0
220
0.0
230
1.0
 70
     8
 71
     3
 72
    11
 73
     7
 74
     5
 42
0.0000000001
 43
0.0000000001
 44
0.0000000001
 40
0.0
 40
0.0
 40
0.0
 40
0.0
 40
0.0687492997055309
 40
0.1374985994110991
 40
0.2062488441015233
 40
0.2749984709296444
 40
0.2749984709296444
 40
0.2749984709296444
 40
0.2749984709296444
 10
-13.42620099999931
 20
118.4898580000001
 30
0.0
 10
-13.41870468118122
 20
118.4682023283088
 30
0.0
 10
-13.40371204354505
 20
118.4248909849262
 30
0.0
 10
-13.38122272277576
 20
118.3599237626305
 30
0.0
 10
-13.35873441144645
 20
118.2949560755163
 30
0.0
 10
-13.34374078135659
 20
118.2516446269648
 30
0.0
 10
-13.33624399999928
 20
118.2299890000001
 30
0.0
 11
-13.42620099999931
 21
118.4898580000001
 31
0.0
 11
-13.40371199999936
 21
118.4248910000001
 31
0.0
 11
-13.38122299999929
 21
118.3599240000001
 31
0.0
 11
-13.35873399999934
 21
118.2949560000001
 31
0.0
 11
-13.33624399999928
 21
118.2299890000001
 31
0.0
  0
SPLINE
  5
13394
330
1F
100
AcDbEntity
  8
0
100
AcDbSpline
210
0.0
220
0.0
230
1.0
 70
     8
 71
     3
 72
    11
 73
     7
 74
     5
 42
0.0000000001
 43
0.0000000001
 44
0.0000000001
 40
0.0
 40
0.0
 40
0.0
 40
0.0
 40
1.908759848119711
 40
3.817517418607097
 40
5.726274826793364
 40
7.635034863861411
 40
7.635034863861411
 40
7.635034863861411
 40
7.635034863861411
 10
-6.472130999999308
 20
114.8866990000001
 30
0.0
 10
-7.04476444775662
 20
115.1640242767482
 30
0.0
 10
-8.190030659974581
 20
115.7186744993252
 30
0.0
 10
-9.906505530356866
 20
116.5535846585162
 30
0.0
 10
-11.62205298299568
 20
117.3903987528609
 30
0.0
 10
-12.76484673200832
 20
117.9501254558043
 30
0.0
 10
-13.33624399999928
 20
118.2299890000001
 30
0.0
 11
-6.472130999999308
 21
114.8866990000001
 31
0.0
 11
-8.189793999999324
 21
115.7191640000001
 31
0.0
 11
-9.90635099999929
 21
116.5539020000001
 31
0.0
 11
-11.62182599999926
 21
117.3908610000001
 31
0.0
 11
-13.33624399999928
 21
118.2299890000001
 31
0.0
  0
SPLINE
  5
13395
330
1F
100
AcDbEntity
  8
0
100
AcDbSpline
210
0.0
220
0.0
230
1.0
 70
     8
 71
     3
 72
    11
 73
     7
 74
     5
 42
0.0000000001
 43
0.0000000001
 44
0.0000000001
 40
0.0
 40
0.0
 40
0.0
 40
0.0
 40
0.5944271906600794
 40
1.188854642532807
 40
1.783281511173559
 40
2.377708996973177
 40
2.377708996973177
 40
2.377708996973177
 40
2.377708996973177
 10
-6.472130999999308
 20
114.8866990000001
 30
0.0
 10
-6.273992840070263
 20
114.8879956431667
 30
0.0
 10
-5.877716433143064
 20
114.8905889300696
 30
0.0
 10
-5.28330485234801
 20
114.8948992825168
 30
0.0
 10
-4.688895225515693
 20
114.8994839319001
 30
0.0
 10
-4.292624477075491
 20
114.9028206433893
 30
0.0
 10
-4.094488999999271
 20
114.9044890000001
 30
0.0
 11
-6.472130999999308
 21
114.8866990000001
 31
0.0
 11
-5.877716999999279
 21
114.8906590000001
 31
0.0
 11
-5.283304999999359
 21
114.8949450000001
 31
0.0
 11
-4.688895999999317
 21
114.8995540000001
 31
0.0
 11
-4.094488999999271
 21
114.9044890000001
 31
0.0
  0
SPLINE
  5
13396
330
1F
100
AcDbEntity
  8
0
100
AcDbSpline
210
0.0
220
0.0
230
1.0
 70
     8
 71
     3
 72
    11
 73
     7
 74
     5
 42
0.0000000001
 43
0.0000000001
 44
0.0000000001
 40
0.0
 40
0.0
 40
0.0
 40
0.0
 40
0.2399391968999349
 40
0.4798786378115853
 40
0.7198181671705785
 40
0.9597572249185509
 40
0.9597572249185509
 40
0.9597572249185509
 40
0.9597572249185509
 10
-4.094488999999271
 20
114.9044890000001
 30
0.0
 10
-4.020005555714874
 20
114.9336261609119
 30
0.0
 10
-3.87103859139836
 20
114.9919005123672
 30
0.0
 10
-3.647608076739743
 20
115.0793631687615
 30
0.0
 10
-3.424188980104986
 20
115.1668548601545
 30
0.0
 10
-3.275255611245484
 20
115.2252149725031
 30
0.0
 10
-3.200788999999303
 20
115.2543950000001
 30
0.0
 11
-4.094488999999271
 21
114.9044890000001
 31
0.0
 11
-3.871041999999306
 21
114.9919090000001
 31
0.0
 11
-3.647609999999303
 21
115.0793680000001
 31
0.0
 11
-3.424191999999266
 21
115.1668630000001
 31
0.0
 11
-3.200788999999303
 21
115.2543950000001
 31
0.0
  0
SPLINE
  5
13397
330
1F
100
AcDbEntity
  8
0
100
AcDbSpline
210
0.0
220
0.0
230
1.0
 70
     8
 71
     3
 72
    11
 73
     7
 74
     5
 42
0.0000000001
 43
0.0000000001
 44
0.0000000001
 40
0.0
 40
0.0
 40
0.0
 40
0.0
 40
1.980630239212772
 40
3.961260872602551
 40
5.941891588998952
 40
7.922522589242323
 40
7.922522589242323
 40
7.922522589242323
 40
7.922522589242323
 10
0.0000000000006821
 20
122.5015540000001
 30
0.0
 10
-0.2666614486255412
 20
121.897592890687
 30
0.0
 10
-0.7999843989479132
 20
120.689670551863
 30
0.0
 10
-1.600122786907945
 20
118.8778549258688
 30
0.0
 10
-2.400370622973468
 20
117.0660873607479
 30
0.0
 10
-2.933982861578556
 20
115.8582924824312
 30
0.0
 10
-3.200788999999303
 20
115.2543950000001
 30
0.0
 11
0.0000000000006821
 21
122.5015540000001
 31
0.0
 11
-0.8000099999993608
 21
120.6896820000001
 31
0.0
 11
-1.600140999999325
 21
118.8778630000001
 31
0.0
 11
-2.40039899999931
 21
117.0661000000001
 31
0.0
 11
-3.200788999999303
 21
115.2543950000001
 31
0.0
  0
SPLINE
  5
13398
330
1F
100
AcDbEntity
  8
0
100
AcDbSpline
210
0.0
220
0.0
230
1.0
 70
     8
 71
     3
 72
    11
 73
     7
 74
     5
 42
0.0000000001
 43
0.0000000001
 44
0.0000000001
 40
0.0
 40
0.0
 40
0.0
 40
0.0
 40
0.2476111290915744
 40
0.4952228335201082
 40
0.7428338811129094
 40
0.9904455041559396
 40
0.9904455041559396
 40
0.9904455041559396
 40
0.9904455041559396
 10
0.0000000000006821
 20
125.0000000000001
 30
0.0
 10
-0.0271086897972737
 20
125.0779582093842
 30
0.0
 10
-0.0813261323819461
 20
125.2338748092921
 30
0.0
 10
-0.162645839464858
 20
125.4677518240158
 30
0.0
 10
-0.2439661323958262
 20
125.7016288093574
 30
0.0
 10
-0.2981753564677092
 20
125.8575482093929
 30
0.0
 10
-0.3252799999993385
 20
125.9355080000001
 30
0.0
 11
0.0000000000006821
 21
125.0000000000001
 31
0.0
 11
-0.0813249999993104
 21
125.2338750000001
 31
0.0
 11
-0.1626459999993131
 21
125.4677520000001
 31
0.0
 11
-0.2439649999993207
 21
125.7016290000001
 31
0.0
 11
-0.3252799999993385
 21
125.9355080000001
 31
0.0
  0
LINE
  5
13399
330
1F
100
AcDbEntity
  8
AM_0
100
AcDbLine
 10
-32.29999999999916
 20
-129.0499999999998
 30
0.0
 11
-31.99999999999932
 21
-128.75
 31
0.0
1001
GENIUS_GENFIL_13
1070
     0
1040
0.5
1040
0.5
1040
20.0
1040
0.0
1002
{
1002
}
1001
GENIUS_GENODEF_13
1002
{
1000
HIER
1070
     0
1002
}
1002
{
1000
MANEDIT
1070
     0
1002
}
1002
{
1000
NOSEL
1070
     0
1002
}
1002
{
1000
BEHIND
1070
     0
1002
}
1002
{
1000
REACTOR
1002
}
1001
GENIUS_GENOBJ-N-CHA_13
1002
{
1000
OWNER
1000
GEN
1002
}
  0
LINE
  5
1339A
330
1F
100
AcDbEntity
  8
AM_0
100
AcDbLine
 10
-6.424597156325286
 20
-112.446970085741
 30
0.0
 11
-14.39937677684412
 21
-95.34500000000003
 31
0.0
  0
LINE
  5
1339B
330
1F
100
AcDbEntity
  8
0
100
AcDbLine
 10
-10.50229054937779
 20
-128.796844133776
 30
0.0
 11
-11.02133699999933
 21
-129.0500000000001
 31
0.0
  0
LINE
  5
1339C
330
1F
100
AcDbEntity
  8
0
100
AcDbLine
 10
-31.99999999999932
 20
-121.0500000000001
 30
0.0
 11
-31.99999999999932
 21
-129.0500000000001
 31
0.0
  0
LINE
  5
1339D
330
1F
100
AcDbEntity
  8
0
100
AcDbLine
 10
-25.99999999999932
 20
-121.0500000000001
 30
0.0
 11
-25.99999999999932
 21
-129.0500000000001
 31
0.0
  0
LINE
  5
1339E
330
1F
100
AcDbEntity
  8
0
100
AcDbLine
 10
-31.99999999999932
 20
-121.0500000000001
 30
0.0
 11
-25.99999999999932
 21
-121.0500000000001
 31
0.0
  0
LINE
  5
1339F
330
1F
100
AcDbEntity
  8
0
100
AcDbLine
 10
-11.02133699999933
 20
-129.0500000000001
 30
0.0
 11
-25.99999999999932
 21
-129.0500000000001
 31
0.0
  0
LINE
  5
133A0
330
1F
100
AcDbEntity
  8
0
100
AcDbLine
 10
-17.87986299999932
 20
-112.433166
 30
0.0
 11
-17.87986299999932
 21
-130.3318870000001
 31
0.0
  0
LINE
  5
133A1
330
1F
100
AcDbEntity
  8
0
100
AcDbLine
 10
-31.99999999999932
 20
-128.9295070000001
 30
0.0
 11
-31.99999999999932
 21
-129.076461
 31
0.0
  0
LINE
  5
133A2
330
1F
100
AcDbEntity
  8
0
100
AcDbLine
 10
-13.6615249999993
 20
-119.1697030000001
 30
0.0
 11
-13.6615249999993
 21
-121.6697020000001
 31
0.0
  0
LINE
  5
133A3
330
1F
100
AcDbEntity
  8
0
100
AcDbLine
 10
0.0000000000006821
 20
-122.5015540000001
 30
0.0
 11
0.0000000000006821
 21
-125.0000000000001
 31
0.0
  0
SPLINE
  5
133A4
330
1F
100
AcDbEntity
  8
0
100
AcDbSpline
210
0.0
220
0.0
230
1.0
 70
     8
 71
     3
 72
    11
 73
     7
 74
     5
 42
0.0000000001
 43
0.0000000001
 44
0.0000000001
 40
0.0
 40
0.0
 40
0.0
 40
0.0
 40
1.225447308258074
 40
2.450894189555713
 40
3.676340464386216
 40
4.9017872530148
 40
4.9017872530148
 40
4.9017872530148
 40
4.9017872530148
 10
-13.42620099999931
 20
-128.167431
 30
0.0
 10
-13.79293256482031
 20
-128.3473361873389
 30
0.0
 10
-14.52639556668867
 20
-128.7071464993358
 30
0.0
 10
-15.62608765761968
 20
-129.2478844742712
 30
0.0
 10
-16.72545055907382
 20
-129.7892909916404
 30
0.0
 10
-17.45803346849867
 20
-130.1508889719454
 30
0.0
 10
-17.82432499999936
 20
-130.3316880000001
 30
0.0
 11
-13.42620099999931
 21
-128.167431
 31
0.0
 11
-14.52631199999928
 21
-128.7073170000001
 31
0.0
 11
-15.62603299999932
 21
-129.2479960000001
 31
0.0
 11
-16.72536899999932
 21
-129.789456
 31
0.0
 11
-17.82432499999936
 21
-130.3316880000001
 31
0.0
  0
SPLINE
  5
133A5
330
1F
100
AcDbEntity
  8
0
100
AcDbSpline
210
0.0
220
0.0
230
1.0
 70
     8
 71
     3
 72
    11
 73
     7
 74
     5
 42
0.0000000001
 43
0.0000000001
 44
0.0000000001
 40
0.0
 40
0.0
 40
0.0
 40
0.0
 40
3.255179543070529
 40
6.510345345931776
 40
9.765511589459077
 40
13.02069138959378
 40
13.02069138959378
 40
13.02069138959378
 40
13.02069138959378
 10
-13.42620099999931
 20
-128.167431
 30
0.0
 10
-12.45168115311299
 20
-127.6902865417738
 30
0.0
 10
-10.50264557281748
 20
-126.7359996393621
 30
0.0
 10
-7.575419389072764
 20
-125.3120964395217
 30
0.0
 10
-4.645645997351715
 20
-123.8934401876624
 30
0.0
 10
-2.689818023335052
 20
-122.953152048547
 30
0.0
 10
-1.711901999999327
 20
-122.483007
 30
0.0
 11
-13.42620099999931
 21
-128.167431
 31
0.0
 11
-10.50202899999931
 21
-126.7372520000001
 31
0.0
 11
-7.574994999999262
 21
-125.3129710000001
 31
0.0
 11
-4.644988999999327
 21
-123.8948130000001
 31
0.0
 11
-1.711901999999327
 21
-122.483007
 31
0.0
  0
SPLINE
  5
133A6
330
1F
100
AcDbEntity
  8
0
100
AcDbSpline
210
0.0
220
0.0
230
1.0
 70
     8
 71
     3
 72
    11
 73
     7
 74
     5
 42
0.0000000001
 43
0.0000000001
 44
0.0000000001
 40
0.0
 40
0.0
 40
0.0
 40
0.0
 40
0.0138850900248745
 40
0.0277691764910034
 40
0.0416532665224781
 40
0.0555383565473528
 40
0.0555383565473528
 40
0.0555383565473528
 40
0.0555383565473528
 10
-17.82432499999936
 20
-130.3316880000001
 30
0.0
 10
-17.82895333293051
 20
-130.3317047794723
 30
0.0
 10
-17.83820966427542
 20
-130.3317383372039
 30
0.0
 10
-17.852094002461
 20
-130.3317866428704
 30
0.0
 10
-17.86597833300674
 20
-130.3318370913917
 30
0.0
 10
-17.8752346665588
 20
-130.3318703633979
 30
0.0
 10
-17.87986299999932
 20
-130.3318870000001
 30
0.0
 11
-17.82432499999936
 21
-130.3316880000001
 31
0.0
 11
-17.83820999999932
 21
-130.331738
 31
0.0
 11
-17.85209399999928
 21
-130.3317870000001
 31
0.0
 11
-17.86597799999936
 21
-130.3318370000001
 31
0.0
 11
-17.87986299999932
 21
-130.3318870000001
 31
0.0
  0
SPLINE
  5
133A7
330
1F
100
AcDbEntity
  8
0
100
AcDbSpline
210
0.0
220
0.0
230
1.0
 70
     8
 71
     3
 72
    11
 73
     7
 74
     5
 42
0.0000000001
 43
0.0000000001
 44
0.0000000001
 40
0.0
 40
0.0
 40
0.0
 40
0.0
 40
1.113419152109863
 40
2.226837522668774
 40
3.340255325425594
 40
4.453674778830324
 40
4.453674778830324
 40
4.453674778830324
 40
4.453674778830324
 10
-13.42620099999931
 20
-112.4238530000001
 30
0.0
 10
-13.79734073927661
 20
-112.4239637440013
 30
0.0
 10
-14.53961995731421
 20
-112.4241852319261
 30
0.0
 10
-15.65303715785478
 20
-112.4260160702134
 30
0.0
 10
-16.76645237609163
 20
-112.4288424854182
 30
0.0
 10
-17.50872594195946
 20
-112.4317248277606
 30
0.0
 10
-17.87986299999932
 20
-112.433166
 30
0.0
 11
-13.42620099999931
 21
-112.4238530000001
 31
0.0
 11
-14.53961999999933
 21
-112.4244350000001
 31
0.0
 11
-15.65303699999936
 21
-112.4261820000001
 31
0.0
 11
-16.76645099999928
 21
-112.429092
 31
0.0
 11
-17.87986299999932
 21
-112.433166
 31
0.0
  0
SPLINE
  5
133A8
330
1F
100
AcDbEntity
  8
0
100
AcDbSpline
210
0.0
220
0.0
230
1.0
 70
     8
 71
     3
 72
    11
 73
     7
 74
     5
 42
0.0000000001
 43
0.0000000001
 44
0.0000000001
 40
0.0
 40
0.0
 40
0.0
 40
0.0
 40
1.819879665191369
 40
3.639752644251653
 40
5.459626248523459
 40
7.279505789344206
 40
7.279505789344206
 40
7.279505789344206
 40
7.279505789344206
 10
-13.42620099999931
 20
-112.4238530000001
 30
0.0
 10
-12.81957435033292
 20
-112.4241495937067
 30
0.0
 10
-11.60632327971086
 20
-112.4247427800302
 30
0.0
 10
-9.786453273700377
 20
-112.429629855678
 30
0.0
 10
-7.966592416534794
 20
-112.4371818044703
 30
0.0
 10
-6.753365465114586
 20
-112.4448812639708
 30
0.0
 10
-6.146750999999312
 20
-112.4487310000001
 30
0.0
 11
-13.42620099999931
 21
-112.4238530000001
 31
0.0
 11
-11.60632199999929
 21
-112.4254090000001
 31
0.0
 11
-9.786454999999364
 21
-112.430074
 31
0.0
 11
-7.966597999999294
 21
-112.4378480000001
 31
0.0
 11
-6.146750999999312
 21
-112.4487310000001
 31
0.0
  0
SPLINE
  5
133A9
330
1F
100
AcDbEntity
  8
0
100
AcDbSpline
210
0.0
220
0.0
230
1.0
 70
     8
 71
     3
 72
    11
 73
     7
 74
     5
 42
0.0000000001
 43
0.0000000001
 44
0.0000000001
 40
0.0
 40
0.0
 40
0.0
 40
0.0
 40
2.74265639205497
 40
5.48531178414198
 40
8.227968404910452
 40
10.97062360537145
 40
10.97062360537145
 40
10.97062360537145
 40
10.97062360537145
 10
-6.146750999999312
 20
-112.4487310000001
 30
0.0
 10
-5.777019283477368
 20
-113.2848496933709
 30
0.0
 10
-5.037555985237052
 20
-114.9570867752651
 30
0.0
 10
-3.928739836932525
 20
-117.4656101395335
 30
0.0
 10
-2.820157834215595
 20
-119.9742365509321
 30
0.0
 10
-2.081320547635897
 20
-121.6467503279983
 30
0.0
 10
-1.711901999999327
 20
-122.483007
 30
0.0
 11
-6.146750999999312
 21
-112.4487310000001
 31
0.0
 11
-5.037618999999267
 21
-114.957115
 31
0.0
 11
-3.928778999999281
 21
-117.465627
 31
0.0
 11
-2.820211999999287
 21
-119.9742610000001
 31
0.0
 11
-1.711901999999327
 21
-122.483007
 31
0.0
  0
SPLINE
  5
133AA
330
1F
100
AcDbEntity
  8
0
100
AcDbSpline
210
0.0
220
0.0
230
1.0
 70
     8
 71
     3
 72
    11
 73
     7
 74
     5
 42
0.0000000001
 43
0.0000000001
 44
0.0000000001
 40
0.0
 40
0.0
 40
0.0
 40
0.0
 40
1.225447308258074
 40
2.450894189555713
 40
3.676340464386216
 40
4.9017872530148
 40
4.9017872530148
 40
4.9017872530148
 40
4.9017872530148
 10
-13.42620099999931
 20
-128.167431
 30
0.0
 10
-13.79293256482031
 20
-128.3473361873389
 30
0.0
 10
-14.52639556668867
 20
-128.7071464993358
 30
0.0
 10
-15.62608765761968
 20
-129.2478844742712
 30
0.0
 10
-16.72545055907382
 20
-129.7892909916404
 30
0.0
 10
-17.45803346849867
 20
-130.1508889719454
 30
0.0
 10
-17.82432499999936
 20
-130.3316880000001
 30
0.0
 11
-13.42620099999931
 21
-128.167431
 31
0.0
 11
-14.52631199999928
 21
-128.7073170000001
 31
0.0
 11
-15.62603299999932
 21
-129.2479960000001
 31
0.0
 11
-16.72536899999932
 21
-129.789456
 31
0.0
 11
-17.82432499999936
 21
-130.3316880000001
 31
0.0
  0
SPLINE
  5
133AB
330
1F
100
AcDbEntity
  8
0
100
AcDbSpline
210
0.0
220
0.0
230
1.0
 70
     8
 71
     3
 72
    11
 73
     7
 74
     5
 42
0.0000000001
 43
0.0000000001
 44
0.0000000001
 40
0.0
 40
0.0
 40
0.0
 40
0.0
 40
3.255179543070529
 40
6.510345345931776
 40
9.765511589459077
 40
13.02069138959378
 40
13.02069138959378
 40
13.02069138959378
 40
13.02069138959378
 10
-13.42620099999931
 20
-128.167431
 30
0.0
 10
-12.45168115311299
 20
-127.6902865417738
 30
0.0
 10
-10.50264557281748
 20
-126.7359996393621
 30
0.0
 10
-7.575419389072764
 20
-125.3120964395217
 30
0.0
 10
-4.645645997351715
 20
-123.8934401876624
 30
0.0
 10
-2.689818023335052
 20
-122.953152048547
 30
0.0
 10
-1.711901999999327
 20
-122.483007
 30
0.0
 11
-13.42620099999931
 21
-128.167431
 31
0.0
 11
-10.50202899999931
 21
-126.7372520000001
 31
0.0
 11
-7.574994999999262
 21
-125.3129710000001
 31
0.0
 11
-4.644988999999327
 21
-123.8948130000001
 31
0.0
 11
-1.711901999999327
 21
-122.483007
 31
0.0
  0
SPLINE
  5
133AC
330
1F
100
AcDbEntity
  8
0
100
AcDbSpline
210
0.0
220
0.0
230
1.0
 70
     8
 71
     3
 72
    11
 73
     7
 74
     5
 42
0.0000000001
 43
0.0000000001
 44
0.0000000001
 40
0.0
 40
0.0
 40
0.0
 40
0.0
 40
3.539164707815991
 40
7.07830105251616
 40
10.61743664130743
 40
14.15660201483213
 40
14.15660201483213
 40
14.15660201483213
 40
14.15660201483213
 10
-12.84370899999931
 20
-129.0970540000001
 30
0.0
 10
-14.02343109740181
 20
-129.098030216086
 30
0.0
 10
-16.38286583783066
 20
-129.0999826404344
 30
0.0
 10
-19.9219812163703
 20
-129.1160772592531
 30
0.0
 10
-23.46104600665014
 20
-129.1409483391208
 30
0.0
 10
-25.82034535965648
 20
-129.1662960774868
 30
0.0
 10
-26.99999999999932
 20
-129.17897
 30
0.0
 11
-12.84370899999931
 21
-129.0970540000001
 31
0.0
 11
-16.38286999999934
 21
-129.102177
 31
0.0
 11
-19.92197299999929
 21
-129.11754
 31
0.0
 11
-23.46101599999929
 21
-129.1431400000001
 31
0.0
 11
-26.99999999999932
 21
-129.17897
 31
0.0
  0
SPLINE
  5
133AD
330
1F
100
AcDbEntity
  8
0
100
AcDbSpline
210
0.0
220
0.0
230
1.0
 70
     8
 71
     3
 72
    11
 73
     7
 74
     5
 42
0.0000000001
 43
0.0000000001
 44
0.0000000001
 40
0.0
 40
0.0
 40
0.0
 40
0.0
 40
0.6455880226467712
 40
1.291175224882047
 40
1.936762787086522
 40
2.582350889376188
 40
2.582350889376188
 40
2.582350889376188
 40
2.582350889376188
 10
-12.84370899999931
 20
-129.0970540000001
 30
0.0
 10
-12.6285129893205
 20
-129.0970867320737
 30
0.0
 10
-12.1981212414334
 20
-129.0971521961794
 30
0.0
 10
-11.55253382856661
 20
-129.0976872144433
 30
0.0
 10
-10.90694669781073
 20
-129.0985149469385
 30
0.0
 10
-10.47655562594578
 20
-129.0993589821952
 30
0.0
 10
-10.26135999999928
 20
-129.0997810000001
 30
0.0
 11
-12.84370899999931
 21
-129.0970540000001
 31
0.0
 11
-12.19812099999933
 21
-129.097225
 31
0.0
 11
-11.55253399999935
 21
-129.0977360000001
 31
0.0
 11
-10.90694699999926
 21
-129.098588
 31
0.0
 11
-10.26135999999928
 21
-129.0997810000001
 31
0.0
  0
SPLINE
  5
133AE
330
1F
100
AcDbEntity
  8
0
100
AcDbSpline
210
0.0
220
0.0
230
1.0
 70
     8
 71
     3
 72
    11
 73
     7
 74
     5
 42
0.0000000001
 43
0.0000000001
 44
0.0000000001
 40
0.0
 40
0.0
 40
0.0
 40
0.0
 40
1.250263706078029
 40
2.500526723634368
 40
3.750789396193185
 40
5.001054006907265
 40
5.001054006907265
 40
5.001054006907265
 40
5.001054006907265
 10
-26.99999999999932
 20
-129.17897
 30
0.0
 10
-27.41665133923711
 20
-129.1696927806651
 30
0.0
 10
-28.24995378826233
 20
-129.151138347104
 30
0.0
 10
-29.49994312579748
 20
-129.1249606486922
 30
0.0
 10
-30.74995532018357
 20
-129.099883066475
 30
0.0
 10
-31.58331822474792
 20
-129.084268359526
 30
0.0
 10
-31.99999999999932
 20
-129.076461
 30
0.0
 11
-26.99999999999932
 21
-129.17897
 31
0.0
 11
-28.24995999999931
 21
-129.151414
 31
0.0
 11
-29.49994699999934
 21
-129.125144
 31
0.0
 11
-30.74995999999931
 21
-129.1001590000001
 31
0.0
 11
-31.99999999999932
 21
-129.076461
 31
0.0
  0
SPLINE
  5
133AF
330
1F
100
AcDbEntity
  8
0
100
AcDbSpline
210
0.0
220
0.0
230
1.0
 70
     8
 71
     3
 72
    11
 73
     7
 74
     5
 42
0.0000000001
 43
0.0000000001
 44
0.0000000001
 40
0.0
 40
0.0
 40
0.0
 40
0.0
 40
2.139972057945674
 40
4.279903608079218
 40
6.419834268552626
 40
8.559806591577823
 40
8.559806591577823
 40
8.559806591577823
 40
8.559806591577823
 10
-23.44049099999927
 20
-128.8715730000001
 30
0.0
 10
-24.15381612264526
 20
-128.8710728179778
 30
0.0
 10
-25.58045286531232
 20
-128.8700724634012
 30
0.0
 10
-27.72038072426818
 20
-128.8805629464043
 30
0.0
 10
-29.86025454633879
 20
-128.8990457906838
 30
0.0
 10
-31.2867468867341
 20
-128.9193531976674
 30
0.0
 10
-31.99999999999932
 20
-128.9295070000001
 30
0.0
 11
-23.44049099999927
 21
-128.8715730000001
 31
0.0
 11
-25.58046299999933
 21
-128.8720710000001
 31
0.0
 11
-27.72037199999932
 21
-128.881895
 31
0.0
 11
-29.86021699999935
 21
-128.901042
 31
0.0
 11
-31.99999999999932
 21
-128.9295070000001
 31
0.0
  0
SPLINE
  5
133B0
330
1F
100
AcDbEntity
  8
0
100
AcDbSpline
210
0.0
220
0.0
230
1.0
 70
     8
 71
     3
 72
    11
 73
     7
 74
     0
 42
0.0000000001
 43
0.0000000001
 40
0.0
 40
0.0
 40
0.0
 40
0.0
 40
3.367485039533362
 40
6.734943612669043
 40
10.10240189749233
 40
13.07266506885838
 40
13.07266506885838
 40
13.07266506885838
 40
13.07266506885838
 10
-23.44049099999927
 20
-128.8715730000001
 30
0.0
 10
-22.3179952737795
 20
-128.8710742018427
 30
0.0
 10
-20.07301264347814
 20
-128.8700766094482
 30
0.0
 10
-16.70555627703504
 20
-128.8806544786341
 30
0.0
 10
-13.47054031178652
 20
-128.8985490888795
 30
0.0
 10
-11.35804929643734
 20
-128.9173563122225
 30
0.0
 10
-10.36800177978455
 20
-128.9263550983489
 30
0.0
  0
SPLINE
  5
133B1
330
1F
100
AcDbEntity
  8
0
100
AcDbSpline
210
0.0
220
0.0
230
1.0
 70
     8
 71
     3
 72
    11
 73
     7
 74
     5
 42
0.0000000001
 43
0.0000000001
 44
0.0000000001
 40
0.0
 40
0.0
 40
0.0
 40
0.0
 40
3.539164707815991
 40
7.07830105251616
 40
10.61743664130743
 40
14.15660201483213
 40
14.15660201483213
 40
14.15660201483213
 40
14.15660201483213
 10
-12.84370899999931
 20
-129.0970540000001
 30
0.0
 10
-14.02343109740181
 20
-129.098030216086
 30
0.0
 10
-16.38286583783066
 20
-129.0999826404344
 30
0.0
 10
-19.9219812163703
 20
-129.1160772592531
 30
0.0
 10
-23.46104600665014
 20
-129.1409483391208
 30
0.0
 10
-25.82034535965648
 20
-129.1662960774868
 30
0.0
 10
-26.99999999999932
 20
-129.17897
 30
0.0
 11
-12.84370899999931
 21
-129.0970540000001
 31
0.0
 11
-16.38286999999934
 21
-129.102177
 31
0.0
 11
-19.92197299999929
 21
-129.11754
 31
0.0
 11
-23.46101599999929
 21
-129.1431400000001
 31
0.0
 11
-26.99999999999932
 21
-129.17897
 31
0.0
  0
SPLINE
  5
133B2
330
1F
100
AcDbEntity
  8
0
100
AcDbSpline
210
0.0
220
0.0
230
1.0
 70
     8
 71
     3
 72
    11
 73
     7
 74
     5
 42
0.0000000001
 43
0.0000000001
 44
0.0000000001
 40
0.0
 40
0.0
 40
0.0
 40
0.0
 40
0.6455880226467712
 40
1.291175224882047
 40
1.936762787086522
 40
2.582350889376188
 40
2.582350889376188
 40
2.582350889376188
 40
2.582350889376188
 10
-12.84370899999931
 20
-129.0970540000001
 30
0.0
 10
-12.6285129893205
 20
-129.0970867320737
 30
0.0
 10
-12.1981212414334
 20
-129.0971521961794
 30
0.0
 10
-11.55253382856661
 20
-129.0976872144433
 30
0.0
 10
-10.90694669781073
 20
-129.0985149469385
 30
0.0
 10
-10.47655562594578
 20
-129.0993589821952
 30
0.0
 10
-10.26135999999928
 20
-129.0997810000001
 30
0.0
 11
-12.84370899999931
 21
-129.0970540000001
 31
0.0
 11
-12.19812099999933
 21
-129.097225
 31
0.0
 11
-11.55253399999935
 21
-129.0977360000001
 31
0.0
 11
-10.90694699999926
 21
-129.098588
 31
0.0
 11
-10.26135999999928
 21
-129.0997810000001
 31
0.0
  0
SPLINE
  5
133B3
330
1F
100
AcDbEntity
  8
0
100
AcDbSpline
210
0.0
220
0.0
230
1.0
 70
     8
 71
     3
 72
    10
 73
     6
 74
     0
 42
0.0000000001
 43
0.0000000001
 40
0.0
 40
0.0
 40
0.0
 40
0.0
 40
0.1440089416147493
 40
0.2880174619876763
 40
0.3375273193052326
 40
0.3375273193052326
 40
0.3375273193052326
 40
0.3375273193052326
 10
-10.26135999999928
 20
-129.0997810000001
 30
0.0
 10
-10.21335884921745
 20
-129.0993589822971
 30
0.0
 10
-10.11735668806238
 20
-129.0985149481257
 30
0.0
 10
-10.00484930302468
 20
-129.0978682678912
 30
0.0
 10
-9.940343747626002
 20
-129.0975855956302
 30
0.0
 10
-9.923840584086747
 20
-129.0975200189222
 30
0.0
  0
SPLINE
  5
133B4
330
1F
100
AcDbEntity
  8
0
100
AcDbSpline
210
0.0
220
0.0
230
1.0
 70
     8
 71
     3
 72
    11
 73
     7
 74
     5
 42
0.0000000001
 43
0.0000000001
 44
0.0000000001
 40
0.0
 40
0.0
 40
0.0
 40
0.0
 40
1.905069259536033
 40
3.81013579985687
 40
5.715201855935677
 40
7.620270720896992
 40
7.620270720896992
 40
7.620270720896992
 40
7.620270720896992
 10
-7.18939399999931
 20
-129.244942
 30
0.0
 10
-6.617964907468781
 20
-128.9679524266427
 30
0.0
 10
-5.475107538041415
 20
-128.4139736752914
 30
0.0
 10
-3.759533704770356
 20
-127.5856681321248
 30
0.0
 10
-2.043080633294491
 20
-126.7591862748389
 30
0.0
 10
-0.897880492516685
 20
-126.2100675598856
 30
0.0
 10
-0.3252799999993385
 20
-125.9355080000001
 30
0.0
 11
-7.18939399999931
 21
-129.244942
 31
0.0
 11
-5.474891999999272
 21
-128.414417
 31
0.0
 11
-3.759386999999264
 21
-127.585972
 31
0.0
 11
-2.042856999999344
 21
-126.7596540000001
 31
0.0
 11
-0.3252799999993385
 21
-125.9355080000001
 31
0.0
  0
SPLINE
  5
133B5
330
1F
100
AcDbEntity
  8
0
100
AcDbSpline
210
0.0
220
0.0
230
1.0
 70
     8
 71
     3
 72
    11
 73
     7
 74
     5
 42
0.0000000001
 43
0.0000000001
 44
0.0000000001
 40
0.0
 40
0.0
 40
0.0
 40
0.0
 40
0.5944159963670637
 40
1.18883066081093
 40
1.783246137704023
 40
2.377661563200401
 40
2.377661563200401
 40
2.377661563200401
 40
2.377661563200401
 10
-7.18939399999931
 20
-129.244942
 30
0.0
 10
-7.387530236428889
 20
-129.2439600005853
 30
0.0
 10
-7.78380226531909
 20
-129.2419960039562
 30
0.0
 10
-8.37821210174707
 20
-129.2394219974331
 30
0.0
 10
-8.972622762284734
 20
-129.2370940004847
 30
0.0
 10
-9.368897593138527
 20
-129.2357900001428
 30
0.0
 10
-9.56703499999935
 20
-129.2351380000001
 30
0.0
 11
-7.18939399999931
 21
-129.244942
 31
0.0
 11
-7.783802999999352
 21
-129.2420580000001
 31
0.0
 11
-8.37821199999928
 21
-129.2394630000001
 31
0.0
 11
-8.972622999999316
 21
-129.2371560000001
 31
0.0
 11
-9.56703499999935
 21
-129.2351380000001
 31
0.0
  0
SPLINE
  5
133B6
330
1F
100
AcDbEntity
  8
0
100
AcDbSpline
210
0.0
220
0.0
230
1.0
 70
     8
 71
     3
 72
    11
 73
     7
 74
     5
 42
0.0000000001
 43
0.0000000001
 44
0.0000000001
 40
0.0
 40
0.0
 40
0.0
 40
0.0
 40
0.2394502906846928
 40
0.4789010497355143
 40
0.7183513499817148
 40
0.9578011972441341
 40
0.9578011972441341
 40
0.9578011972441341
 40
0.9578011972441341
 10
-9.56703499999935
 20
-129.2351380000001
 30
0.0
 10
-9.641502362171479
 20
-129.2064094819976
 30
0.0
 10
-9.790437232174316
 20
-129.1489523897995
 30
0.0
 10
-10.01385694825301
 20
-129.0628121025707
 30
0.0
 10
-10.23728798068773
 20
-128.9767015831078
 30
0.0
 10
-10.38625337386343
 20
-128.9193245096119
 30
0.0
 10
-10.46073599999931
 20
-128.890636
 30
0.0
 11
-9.56703499999935
 21
-129.2351380000001
 31
0.0
 11
-9.790439999999307
 21
-129.14896
 31
0.0
 11
-10.01385899999934
 21
-129.0628170000001
 31
0.0
 11
-10.23729099999934
 21
-128.9767090000001
 31
0.0
 11
-10.46073599999931
 21
-128.890636
 31
0.0
  0
SPLINE
  5
133B7
330
1F
100
AcDbEntity
  8
0
100
AcDbSpline
210
0.0
220
0.0
230
1.0
 70
     8
 71
     3
 72
    11
 73
     7
 74
     5
 42
0.0000000001
 43
0.0000000001
 44
0.0000000001
 40
0.0
 40
0.0
 40
0.0
 40
0.0
 40
0.1451107819633319
 40
0.290222374753142
 40
0.435332139283343
 40
0.5804436287973739
 40
0.5804436287973739
 40
0.5804436287973739
 40
0.5804436287973739
 10
-13.42620099999931
 20
-122.2003030000001
 30
0.0
 10
-13.44581052735147
 20
-122.1560859382149
 30
0.0
 10
-13.48502969162673
 20
-122.0676515675755
 30
0.0
 10
-13.5438607534307
 20
-121.9350015573118
 30
0.0
 10
-13.60269190783222
 20
-121.8023513301129
 30
0.0
 10
-13.64191389156923
 20
-121.7139186185764
 30
0.0
 10
-13.6615249999993
 20
-121.6697020000001
 30
0.0
 11
-13.42620099999931
 21
-122.2003030000001
 31
0.0
 11
-13.48502999999937
 21
-122.0676520000001
 31
0.0
 11
-13.54386099999931
 21
-121.9350010000001
 31
0.0
 11
-13.60269199999936
 21
-121.802352
 31
0.0
 11
-13.6615249999993
 21
-121.6697020000001
 31
0.0
  0
SPLINE
  5
133B8
330
1F
100
AcDbEntity
  8
0
100
AcDbSpline
210
0.0
220
0.0
230
1.0
 70
     8
 71
     3
 72
    11
 73
     7
 74
     5
 42
0.0000000001
 43
0.0000000001
 44
0.0000000001
 40
0.0
 40
0.0
 40
0.0
 40
0.0
 40
1.829524288563813
 40
3.659047728544844
 40
5.488572260538036
 40
7.318096675236012
 40
7.318096675236012
 40
7.318096675236012
 40
7.318096675236012
 10
-13.42620099999931
 20
-122.2003030000001
 30
0.0
 10
-13.17898454747347
 20
-122.7577889598967
 30
0.0
 10
-12.68455175708746
 20
-123.8727606211128
 30
0.0
 10
-11.94312062667222
 20
-125.5453150382307
 30
0.0
 10
-11.20182883417883
 20
-127.2179312610831
 30
0.0
 10
-10.70776693944657
 20
-128.3330677656101
 30
0.0
 10
-10.46073599999931
 20
-128.890636
 30
0.0
 11
-13.42620099999931
 21
-122.2003030000001
 31
0.0
 11
-12.68458799999928
 21
-123.8727770000001
 31
0.0
 11
-11.94314399999928
 21
-125.5453250000001
 31
0.0
 11
-11.20186199999932
 21
-127.217946
 31
0.0
 11
-10.46073599999931
 21
-128.890636
 31
0.0
  0
SPLINE
  5
133B9
330
1F
100
AcDbEntity
  8
0
100
AcDbSpline
210
0.0
220
0.0
230
1.0
 70
     8
 71
     3
 72
    11
 73
     7
 74
     5
 42
0.0000000001
 43
0.0000000001
 44
0.0000000001
 40
0.0
 40
0.0
 40
0.0
 40
0.0
 40
0.1798553467233795
 40
0.3597106934468292
 40
0.5395653859655056
 40
0.7194210234751819
 40
0.7194210234751819
 40
0.7194210234751819
 40
0.7194210234751819
 10
-13.42620099999931
 20
-118.4898580000001
 30
0.0
 10
-13.44581162598176
 20
-118.5465116807494
 30
0.0
 10
-13.48503287794667
 20
-118.6598190422479
 30
0.0
 10
-13.54386541687776
 20
-118.8297796249371
 30
0.0
 10
-13.60269505825704
 20
-118.9997413131691
 30
0.0
 10
-13.6419149850738
 20
-119.1130490051667
 30
0.0
 10
-13.6615249999993
 20
-119.1697030000001
 30
0.0
 11
-13.42620099999931
 21
-118.4898580000001
 31
0.0
 11
-13.48503299999936
 21
-118.659819
 31
0.0
 11
-13.5438649999993
 21
-118.8297800000001
 31
0.0
 11
-13.60269499999936
 21
-118.999741
 31
0.0
 11
-13.6615249999993
 21
-119.1697030000001
 31
0.0
  0
SPLINE
  5
133BA
330
1F
100
AcDbEntity
  8
0
100
AcDbSpline
210
0.0
220
0.0
230
1.0
 70
     8
 71
     3
 72
    11
 73
     7
 74
     5
 42
0.0000000001
 43
0.0000000001
 44
0.0000000001
 40
0.0
 40
0.0
 40
0.0
 40
0.0
 40
0.0687492997055309
 40
0.1374985994110991
 40
0.2062488441015233
 40
0.2749984709296444
 40
0.2749984709296444
 40
0.2749984709296444
 40
0.2749984709296444
 10
-13.42620099999931
 20
-118.4898580000001
 30
0.0
 10
-13.41870468118122
 20
-118.4682023283088
 30
0.0
 10
-13.40371204354503
 20
-118.4248909849262
 30
0.0
 10
-13.3812227227758
 20
-118.3599237626304
 30
0.0
 10
-13.35873441144635
 20
-118.2949560755164
 30
0.0
 10
-13.34374078135677
 20
-118.2516446269648
 30
0.0
 10
-13.33624399999928
 20
-118.2299890000001
 30
0.0
 11
-13.42620099999931
 21
-118.4898580000001
 31
0.0
 11
-13.40371199999936
 21
-118.4248910000001
 31
0.0
 11
-13.38122299999929
 21
-118.359924
 31
0.0
 11
-13.35873399999934
 21
-118.2949560000001
 31
0.0
 11
-13.33624399999928
 21
-118.2299890000001
 31
0.0
  0
SPLINE
  5
133BB
330
1F
100
AcDbEntity
  8
0
100
AcDbSpline
210
0.0
220
0.0
230
1.0
 70
     8
 71
     3
 72
    11
 73
     7
 74
     5
 42
0.0000000001
 43
0.0000000001
 44
0.0000000001
 40
0.0
 40
0.0
 40
0.0
 40
0.0
 40
1.908759848119711
 40
3.817517418607097
 40
5.726274826793364
 40
7.635034863861411
 40
7.635034863861411
 40
7.635034863861411
 40
7.635034863861411
 10
-6.472130999999308
 20
-114.8866990000001
 30
0.0
 10
-7.044764447756463
 20
-115.1640242767481
 30
0.0
 10
-8.190030659974521
 20
-115.7186744993252
 30
0.0
 10
-9.906505530356819
 20
-116.5535846585161
 30
0.0
 10
-11.62205298299557
 20
-117.3903987528609
 30
0.0
 10
-12.76484673200822
 20
-117.9501254558043
 30
0.0
 10
-13.33624399999928
 20
-118.2299890000001
 30
0.0
 11
-6.472130999999308
 21
-114.8866990000001
 31
0.0
 11
-8.189793999999324
 21
-115.719164
 31
0.0
 11
-9.90635099999929
 21
-116.5539020000001
 31
0.0
 11
-11.62182599999926
 21
-117.3908610000001
 31
0.0
 11
-13.33624399999928
 21
-118.2299890000001
 31
0.0
  0
SPLINE
  5
133BC
330
1F
100
AcDbEntity
  8
0
100
AcDbSpline
210
0.0
220
0.0
230
1.0
 70
     8
 71
     3
 72
    11
 73
     7
 74
     5
 42
0.0000000001
 43
0.0000000001
 44
0.0000000001
 40
0.0
 40
0.0
 40
0.0
 40
0.0
 40
0.5944271906600794
 40
1.188854642532807
 40
1.783281511173559
 40
2.377708996973177
 40
2.377708996973177
 40
2.377708996973177
 40
2.377708996973177
 10
-6.472130999999308
 20
-114.8866990000001
 30
0.0
 10
-6.273992840070238
 20
-114.8879956431666
 30
0.0
 10
-5.87771643314308
 20
-114.8905889300695
 30
0.0
 10
-5.283304852347939
 20
-114.8948992825167
 30
0.0
 10
-4.688895225515775
 20
-114.8994839319001
 30
0.0
 10
-4.292624477075551
 20
-114.9028206433893
 30
0.0
 10
-4.094488999999271
 20
-114.9044890000001
 30
0.0
 11
-6.472130999999308
 21
-114.8866990000001
 31
0.0
 11
-5.877716999999279
 21
-114.8906590000001
 31
0.0
 11
-5.283304999999359
 21
-114.8949450000001
 31
0.0
 11
-4.688895999999317
 21
-114.8995540000001
 31
0.0
 11
-4.094488999999271
 21
-114.9044890000001
 31
0.0
  0
SPLINE
  5
133BD
330
1F
100
AcDbEntity
  8
0
100
AcDbSpline
210
0.0
220
0.0
230
1.0
 70
     8
 71
     3
 72
    11
 73
     7
 74
     5
 42
0.0000000001
 43
0.0000000001
 44
0.0000000001
 40
0.0
 40
0.0
 40
0.0
 40
0.0
 40
0.2399391968999349
 40
0.4798786378115853
 40
0.7198181671705785
 40
0.9597572249185509
 40
0.9597572249185509
 40
0.9597572249185509
 40
0.9597572249185509
 10
-4.094488999999271
 20
-114.9044890000001
 30
0.0
 10
-4.020005555714815
 20
-114.9336261609118
 30
0.0
 10
-3.871038591398244
 20
-114.9919005123671
 30
0.0
 10
-3.647608076739761
 20
-115.0793631687615
 30
0.0
 10
-3.424188980104976
 20
-115.1668548601544
 30
0.0
 10
-3.275255611245369
 20
-115.2252149725031
 30
0.0
 10
-3.200788999999303
 20
-115.254395
 30
0.0
 11
-4.094488999999271
 21
-114.9044890000001
 31
0.0
 11
-3.871041999999306
 21
-114.9919090000001
 31
0.0
 11
-3.647609999999303
 21
-115.079368
 31
0.0
 11
-3.424191999999266
 21
-115.166863
 31
0.0
 11
-3.200788999999303
 21
-115.254395
 31
0.0
  0
SPLINE
  5
133BE
330
1F
100
AcDbEntity
  8
0
100
AcDbSpline
210
0.0
220
0.0
230
1.0
 70
     8
 71
     3
 72
    11
 73
     7
 74
     5
 42
0.0000000001
 43
0.0000000001
 44
0.0000000001
 40
0.0
 40
0.0
 40
0.0
 40
0.0
 40
1.980630239212772
 40
3.961260872602551
 40
5.941891588998952
 40
7.922522589242323
 40
7.922522589242323
 40
7.922522589242323
 40
7.922522589242323
 10
0.0000000000006821
 20
-122.5015540000001
 30
0.0
 10
-0.2666614486255334
 20
-121.897592890687
 30
0.0
 10
-0.7999843989478456
 20
-120.6896705518628
 30
0.0
 10
-1.600122786908088
 20
-118.8778549258689
 30
0.0
 10
-2.400370622973428
 20
-117.0660873607478
 30
0.0
 10
-2.933982861578559
 20
-115.8582924824311
 30
0.0
 10
-3.200788999999303
 20
-115.254395
 30
0.0
 11
0.0000000000006821
 21
-122.5015540000001
 31
0.0
 11
-0.8000099999993608
 21
-120.6896820000001
 31
0.0
 11
-1.600140999999325
 21
-118.877863
 31
0.0
 11
-2.40039899999931
 21
-117.0661000000001
 31
0.0
 11
-3.200788999999303
 21
-115.254395
 31
0.0
  0
SPLINE
  5
133BF
330
1F
100
AcDbEntity
  8
0
100
AcDbSpline
210
0.0
220
0.0
230
1.0
 70
     8
 71
     3
 72
    11
 73
     7
 74
     5
 42
0.0000000001
 43
0.0000000001
 44
0.0000000001
 40
0.0
 40
0.0
 40
0.0
 40
0.0
 40
0.2476111290915744
 40
0.4952228335201082
 40
0.7428338811129094
 40
0.9904455041559396
 40
0.9904455041559396
 40
0.9904455041559396
 40
0.9904455041559396
 10
0.0000000000006821
 20
-125.0000000000001
 30
0.0
 10
-0.0271086897974003
 20
-125.0779582093841
 30
0.0
 10
-0.0813261323819745
 20
-125.2338748092921
 30
0.0
 10
-0.1626458394648235
 20
-125.4677518240158
 30
0.0
 10
-0.2439661323955904
 20
-125.7016288093574
 30
0.0
 10
-0.2981753564676621
 20
-125.8575482093929
 30
0.0
 10
-0.3252799999993385
 20
-125.9355080000001
 30
0.0
 11
0.0000000000006821
 21
-125.0000000000001
 31
0.0
 11
-0.0813249999993104
 21
-125.2338750000001
 31
0.0
 11
-0.1626459999993131
 21
-125.4677520000001
 31
0.0
 11
-0.2439649999993207
 21
-125.7016290000001
 31
0.0
 11
-0.3252799999993385
 21
-125.9355080000001
 31
0.0
  0
DIMENSION
  5
133CF
330
1F
100
AcDbEntity
  8
AM_5
100
AcDbDimension
  2
*D14
 10
39.0839129581426
 20
-130.3318870000001
 30
0.0
 11
35.98391295814263
 21
0.0000000000000122
 31
0.0
 70
    32
  1
%%c<>
 71
     5
 42
260.6637740000003
  3
AM_JIS$0
100
AcDbAlignedDimension
 13
-17.87986299999932
 23
130.3318870000001
 33
0.0
 14
-17.87986299999932
 24
-130.3318870000001
 34
0.0
 50
90.0
100
AcDbRotatedDimension
1001
ACAD
1000
DSTYLE
1002
{
1070
    40
1040
1.0
1070
    43
1040
12.0
1070
   140
1040
3.2
1070
   147
1040
1.5
1070
   178
1070
     2
1070
   271
1070
     2
1002
}
  0
DIMENSION
  5
13420
330
1F
100
AcDbEntity
  8
AM_5
100
AcDbDimension
  2
*D15
 10
270.2313673137259
 20
4.509494449853065
 30
0.0
 11
-11.79535962715712
 21
-144.5603762423301
 31
0.0
 70
    34
  1
65%%d
 71
     5
 42
1.121542069652516
  3
AM_JIS$2
100
AcDb2LineAngularDimension
 13
-0.0000000000007959
 23
-125.778678918852
 33
0.0
 14
-0.0000000000007775
 24
174.221321081148
 34
0.0
 15
-0.0000000000007958
 25
-125.778678918852
 35
0.0
 16
-17.18807202786
 26
-144.3142958734003
 36
0.0
1001
ACAD
1000
DSTYLE
1002
{
1070
    79
1070
     2
1070
   371
1070
    -1
1070
   372
1070
    -1
1002
}
  0
VIEWPORT
  5
110
102
{ACAD_XDICTIONARY
360
13471
102
}
330
101
100
AcDbEntity
 67
     1
  8
0
100
AcDbViewport
 10
420.5
 20
297.0
 30
0.0
 40
948.9782706766916
 41
628.452
 68
     1
 69
     1
 12
420.5
 22
297.0
 13
0.0
 23
0.0
 14
10.0
 24
10.0
 15
10.0
 25
10.0
 16
0.0
 26
0.0
 36
1.0
 17
0.0
 27
0.0
 37
0.0
 42
50.0
 43
0.0
 44
0.0
 45
628.452
 50
0.0
 51
0.0
 72
   100
 90
    32800
  1

281
     0
 71
     1
 74
     0
110
0.0
120
0.0
130
0.0
111
1.0
121
0.0
131
0.0
112
0.0
122
1.0
132
0.0
 79
     0
146
0.0
1001
GENIUS_GENSCREG_15
1000
PF
1040
1.0
1000
DF
1040
1.0
1000
MIN
1011
-53.98913533834582
1021
-17.226
1031
0.0
1000
MAX
1011
894.9891353383458
1021
611.226
1031
0.0
1000
FLAGS
1070
     4
1001
GENIUS_GENOBJ-N-SDF_13
1002
{
1000
OWNER
1000
GEN
1002
}
1001
GENIUS_GENODEF_13
1002
{
1000
HIER
1070
     0
1002
}
1002
{
1000
MANEDIT
1070
     0
1002
}
1002
{
1000
NOSEL
1070
     0
1002
}
1002
{
1000
BEHIND
1070
     0
1002
}
1002
{
1000
OTHER
1070
     0
1002
}
1002
{
1000
REACTOR
1002
}
  0
ENDSEC
  0
SECTION
  2
OBJECTS
  0
DICTIONARY
  5
C
330
0
100
AcDbDictionary
281
     1
  3
ACAD_COLOR
350
13282
  3
ACAD_GROUP
350
D
  3
ACAD_LAYOUT
350
1A
  3
ACAD_MATERIAL
350
13281
  3
ACAD_MLINESTYLE
350
17
  3
ACAD_PLOTSETTINGS
350
19
  3
ACAD_PLOTSTYLENAME
350
E
  3
ACAD_TABLESTYLE
350
13283
  3
ACDBHEADERROUNDTRIPXREC
350
13470
  3
ACDBVARIABLEDICTIONARY
350
34
  3
ACMDICTIONARY
350
43
  3
AMG
350
2B
  3
AMGSNAPSETTINGS
350
6E
  3
DWGPROPS
350
1346F
  0
DICTIONARY
  5
74
330
1F
100
AcDbDictionary
280
     1
281
     1
  3
ACAD_INDEX
360
13245
  3
ACAD_LAYOUTSELFREF
360
13274
  0
DICTIONARY
  5
13279
330
101
100
AcDbDictionary
280
     1
281
     1
  3
ACAD_LAYOUTSELFREF
360
1327A
  0
DICTIONARY
  5
13471
330
110
100
AcDbDictionary
280
     1
281
     1
  3
ACAD_XREC_ROUNDTRIP
360
13472
  0
DICTIONARY
  5
13282
102
{ACAD_REACTORS
330
C
102
}
330
C
100
AcDbDictionary
281
     1
  0
DICTIONARY
  5
D
102
{ACAD_REACTORS
330
C
102
}
330
C
100
AcDbDictionary
281
     1
  0
DICTIONARY
  5
1A
102
{ACAD_REACTORS
330
C
102
}
330
C
100
AcDbDictionary
281
     1
  3
Model
350
13285
  3
レイアウト1
350
13286
  0
DICTIONARY
  5
13281
102
{ACAD_REACTORS
330
C
102
}
330
C
100
AcDbDictionary
281
     1
  0
DICTIONARY
  5
17
102
{ACAD_REACTORS
330
C
102
}
330
C
100
AcDbDictionary
281
     1
  3
STANDARD
350
18
  0
DICTIONARY
  5
19
102
{ACAD_REACTORS
330
C
102
}
330
C
100
AcDbDictionary
281
     1
  0
ACDBDICTIONARYWDFLT
  5
E
102
{ACAD_REACTORS
330
C
102
}
330
C
100
AcDbDictionary
281
     1
  3
Normal
350
F
100
AcDbDictionaryWithDefault
340
F
  0
DICTIONARY
  5
13283
102
{ACAD_REACTORS
330
C
102
}
330
C
100
AcDbDictionary
281
     1
  3
Standard
350
13284
  0
DICTIONARY
  5
13470
102
{ACAD_REACTORS
330
C
102
}
330
C
100
AcDbDictionary
281
     1
  0
DICTIONARY
  5
34
102
{ACAD_REACTORS
330
C
102
}
330
C
100
AcDbDictionary
281
     1
  3
CTABLESTYLE
350
1346B
  3
DIMASSOC
350
1346C
  3
INDEXCTL
350
35
  3
PROJECTNAME
350
1346D
  3
SORTENTS
350
B5E
  0
DICTIONARY
  5
43
102
{ACAD_REACTORS
330
C
102
}
330
C
100
AcDbDictionary
281
     1
  3
ACMSTDDICTIONARY
350
260
  3
AMDTSECTSYM_ARROWCOLOR
350
132FE
  0
DICTIONARY
  5
2B
102
{ACAD_REACTORS
330
C
102
}
330
C
100
AcDbDictionary
281
     1
  0
DICTIONARY
  5
6E
102
{ACAD_REACTORS
330
C
102
}
330
C
100
AcDbDictionary
281
     1
  0
XRECORD
  5
1346F
102
{ACAD_REACTORS
330
C
102
}
330
C
100
AcDbXrecord
280
     1
  1
DWGPROPS COOKIE
  2

  3

  4

  6

  7

  8

  9

300
AmdtFileType=82
301
=
302
=
303
=
304
=
305
=
306
=
307
=
308
=
309
=
 40
0.3145809606481482
 41
2452836.771637361
 42
2455594.625339618
  1

 90
        1
  0
DICTIONARY
  5
13245
102
{ACAD_REACTORS
330
74
102
}
330
74
100
AcDbDictionary
281
     1
  3
*A1
350
13246
  0
XRECORD
  5
13274
102
{ACAD_REACTORS
330
74
102
}
330
74
100
AcDbXrecord
280
     1
340
1F
  0
XRECORD
  5
1327A
102
{ACAD_REACTORS
330
13279
102
}
330
13279
100
AcDbXrecord
280
     1
340
101
  0
XRECORD
  5
13472
102
{ACAD_REACTORS
330
13471
102
}
330
13471
100
AcDbXrecord
280
     1
102
SHADEPLOT
 70
     0
  0
LAYOUT
  5
13285
102
{ACAD_XDICTIONARY
360
13473
102
}
102
{ACAD_REACTORS
330
1A
102
}
330
1A
100
AcDbPlotSettings
  1

  2
SII LP-1010 (C2 VR)2R
  4

  6

 40
0.0
 41
0.0
 42
0.0
 43
0.0
 44
0.0
 45
0.0
 46
0.0
 47
0.0
 48
0.0
 49
0.0
140
0.0
141
0.0
142
1.0
143
1.0
 70
  1712
 72
     0
 73
     0
 74
     0
  7
sei_cad.ctb
 75
     0
147
1.0
148
0.0
149
0.0
100
AcDbLayout
  1
Model
 70
     1
 71
     0
 10
0.0
 20
0.0
 11
12.0
 21
9.0
 12
0.0
 22
0.0
 32
0.0
 14
0.0
 24
0.0
 34
0.0
 15
0.0
 25
0.0
 35
0.0
146
0.0
 13
0.0
 23
0.0
 33
0.0
 16
1.0
 26
0.0
 36
0.0
 17
0.0
 27
1.0
 37
0.0
 76
     0
330
1F
  0
LAYOUT
  5
13286
102
{ACAD_XDICTIONARY
360
13475
102
}
102
{ACAD_REACTORS
330
1A
102
}
330
1A
100
AcDbPlotSettings
  1

  2
SII LP-1010 (C2 VR)2R
  4

  6

 40
0.0
 41
0.0
 42
0.0
 43
0.0
 44
0.0
 45
0.0
 46
0.0
 47
0.0
 48
0.0
 49
0.0
140
0.0
141
0.0
142
1.0
143
1.0
 70
   688
 72
     0
 73
     0
 74
     5
  7
sei_cad.ctb
 75
    16
147
1.0
148
0.0
149
0.0
100
AcDbLayout
  1
レイアウト1
 70
     0
 71
     1
 10
0.0
 20
0.0
 11
841.0
 21
594.0
 12
0.0
 22
0.0
 32
0.0
 14
1.000000000000000E+20
 24
1.000000000000000E+20
 34
1.000000000000000E+20
 15
-1.000000000000000E+20
 25
-1.000000000000000E+20
 35
-1.000000000000000E+20
146
0.0
 13
0.0
 23
0.0
 33
0.0
 16
1.0
 26
0.0
 36
0.0
 17
0.0
 27
1.0
 37
0.0
 76
     0
330
101
331
110
  0
MLINESTYLE
  5
18
102
{ACAD_REACTORS
330
17
102
}
330
17
100
AcDbMlineStyle
  2
STANDARD
 70
     0
  3

 62
   256
 51
90.0
 52
90.0
 71
     2
 49
0.5
 62
   256
  6
BYLAYER
 49
-0.5
 62
   256
  6
BYLAYER
  0
ACDBPLACEHOLDER
  5
F
102
{ACAD_REACTORS
330
E
102
}
330
E
  0
TABLESTYLE
  5
13284
102
{ACAD_REACTORS
330
13283
102
}
330
13283
100
AcDbTableStyle
  3
Standard
 70
     0
 71
     0
 40
1.5
 41
1.5
280
     0
281
     0
  7
STANDARD
140
4.5
170
     2
 62
     0
 63
     7
283
     0
274
    -2
284
     1
 64
     0
275
    -2
285
     1
 65
     0
276
    -2
286
     1
 66
     0
277
    -2
287
     1
 67
     0
278
    -2
288
     1
 68
     0
279
    -2
289
     1
 69
     0
  7
STANDARD
140
6.0
170
     5
 62
     0
 63
     7
283
     0
274
    -2
284
     1
 64
     0
275
    -2
285
     1
 65
     0
276
    -2
286
     1
 66
     0
277
    -2
287
     1
 67
     0
278
    -2
288
     1
 68
     0
279
    -2
289
     1
 69
     0
  7
STANDARD
140
4.5
170
     5
 62
     0
 63
     7
283
     0
274
    -2
284
     1
 64
     0
275
    -2
285
     1
 65
     0
276
    -2
286
     1
 66
     0
277
    -2
287
     1
 67
     0
278
    -2
288
     1
 68
     0
279
    -2
289
     1
 69
     0
  0
DICTIONARYVAR
  5
1346B
102
{ACAD_REACTORS
330
34
102
}
330
34
100
DictionaryVariables
280
     0
  1
STANDARD
  0
DICTIONARYVAR
  5
1346C
102
{ACAD_REACTORS
330
34
102
}
330
34
100
DictionaryVariables
280
     0
  1
1
  0
DICTIONARYVAR
  5
35
102
{ACAD_REACTORS
330
34
102
}
330
34
100
DictionaryVariables
280
     0
  1
1
  0
DICTIONARYVAR
  5
1346D
102
{ACAD_REACTORS
330
34
102
}
330
34
100
DictionaryVariables
280
     0
  1

  0
DICTIONARYVAR
  5
B5E
102
{ACAD_REACTORS
330
34
102
}
330
34
100
DictionaryVariables
280
     0
  1
96
  0
DICTIONARY
  5
260
102
{ACAD_REACTORS
330
43
102
}
330
43
100
AcDbDictionary
281
     1
  0
XRECORD
  5
132FE
102
{ACAD_REACTORS
330
43
102
}
330
43
100
AcDbXrecord
280
     1
 90
-1023410169
  0
LAYER_INDEX
  5
13246
102
{ACAD_REACTORS
330
13245
102
}
330
13245
100
AcDbIndex
 40
2455594.625339618
100
AcDbLayerIndex
  8
0
360
13247
 90
       74
  8
AM_0
360
13248
 90
       76
  8
AM_7
360
13249
 90
        5
  8
AM_5
360
1324A
 90
       12
  8
DEFPOINTS
360
1324B
 90
        0
  8
AM_6
360
1324C
 90
        1
  8
AM_11
360
1324D
 90
       33
  8
AM_4
360
1324E
 90
        4
  0
DICTIONARY
  5
13473
330
13285
100
AcDbDictionary
280
     1
281
     1
  3
ACAD_XREC_ROUNDTRIP
360
13474
  0
DICTIONARY
  5
13475
330
13286
100
AcDbDictionary
280
     1
281
     1
  3
ACAD_XREC_ROUNDTRIP
360
13476
  0
IDBUFFER
  5
13247
330
0
100
AcDbIdBuffer
330
13374
330
13375
330
13376
330
13377
330
13378
330
13379
330
1337A
330
1337B
330
1337C
330
1337D
330
1337E
330
1337F
330
13380
330
13381
330
13382
330
13383
330
13384
330
13385
330
13386
330
13387
330
13388
330
13389
330
1338A
330
1338B
330
1338C
330
1338D
330
1338E
330
1338F
330
13390
330
13391
330
13392
330
13393
330
13394
330
13395
330
13396
330
13397
330
13398
330
1339B
330
1339C
330
1339D
330
1339E
330
1339F
330
133A0
330
133A1
330
133A2
330
133A3
330
133A4
330
133A5
330
133A6
330
133A7
330
133A8
330
133A9
330
133AA
330
133AB
330
133AC
330
133AD
330
133AE
330
133AF
330
133B0
330
133B1
330
133B2
330
133B3
330
133B4
330
133B5
330
133B6
330
133B7
330
133B8
330
133B9
330
133BA
330
133BB
330
133BC
330
133BD
330
133BE
330
133BF
  0
IDBUFFER
  5
13248
330
0
100
AcDbIdBuffer
330
11EB8
330
11EB9
330
11EC0
330
11EC1
330
11EC3
330
11EC4
330
11EC6
330
11EC9
330
11ECA
330
11ECB
330
11ECC
330
11ECD
330
11ECF
330
11ED2
330
11ED3
330
11ED4
330
11ED6
330
11ED7
330
11ED8
330
11ED9
330
12C57
330
12C58
330
12C59
330
12C5C
330
12C5F
330
12C62
330
12C66
330
12C77
330
12C87
330
12C8A
330
12C8B
330
12C8F
330
12C92
330
12C95
330
12C96
330
12C99
330
12C9A
330
12C9B
330
12CA0
330
12CA1
330
12CA3
330
12CA4
330
12CA5
330
12CA6
330
12CA7
330
12CA8
330
12CAA
330
12CAB
330
12CAC
330
12CB0
330
12CB2
330
12CB6
330
12CB7
330
12CB8
330
12CBA
330
12CBB
330
12CBC
330
12CBD
330
12CBE
330
12CC1
330
12CC3
330
12CC4
330
12CC7
330
12CC8
330
12CC9
330
12CD2
330
12CD3
330
12CD4
330
12CD5
330
12CD6
330
12F99
330
12F9A
330
131E7
330
131E8
330
13399
330
1339A
  0
IDBUFFER
  5
13249
330
0
100
AcDbIdBuffer
330
11EBC
330
11EBE
330
11EC2
330
12C97
330
12C98
  0
IDBUFFER
  5
1324A
330
0
100
AcDbIdBuffer
330
13420
330
12CDA
330
12CDB
330
12CDC
330
12CDD
330
12CDE
330
12CDF
330
12CE0
330
12CE1
330
12CE2
330
12CE3
330
133CF
  0
IDBUFFER
  5
1324B
330
0
100
AcDbIdBuffer
  0
IDBUFFER
  5
1324C
330
0
100
AcDbIdBuffer
330
E5A
  0
IDBUFFER
  5
1324D
330
0
100
AcDbIdBuffer
330
11EBD
330
11EBF
330
11EC5
330
11EC7
330
11EC8
330
11ED0
330
11ED1
330
12C6D
330
12C71
330
12C73
330
12C76
330
12C7A
330
12C7D
330
12C81
330
12C83
330
12C84
330
12C9C
330
12C9D
330
12C9E
330
12C9F
330
12CA2
330
12CA9
330
12CAD
330
12CAE
330
12CAF
330
12CB3
330
12CB9
330
12CBF
330
12CC0
330
12CC2
330
12CC5
330
12CC6
330
12F14
  0
IDBUFFER
  5
1324E
330
0
100
AcDbIdBuffer
330
11EBA
330
11EBB
330
12CB4
330
12CB5
  0
XRECORD
  5
13474
102
{ACAD_REACTORS
330
13473
102
}
330
13473
100
AcDbXrecord
280
     1
102
SHADEPLOT
 70
     0
102
SHADEPLOTRESLEVEL
 70
     2
102
SHADEPLOTCUSTOMDPI
 70
   300
  0
XRECORD
  5
13476
102
{ACAD_REACTORS
330
13475
102
}
330
13475
100
AcDbXrecord
280
     1
102
SHADEPLOT
 70
     0
102
SHADEPLOTRESLEVEL
 70
     2
102
SHADEPLOTCUSTOMDPI
 70
   300
  0
ENDSEC
  0
EOF
