  0
SECTION
  2
HEADER
  9
$ACADVER
  1
AC1015
  9
$ACADMAINTVER
 70
    20
  9
$DWGCODEPAGE
  3
ANSI_932
  9
$INSBASE
 10
0.0
 20
0.0
 30
0.0
  9
$EXTMIN
 10
-98.7132959831921
 20
-114.6434807729259
 30
-0.0000000000022887
  9
$EXTMAX
 10
270.9816738285909
 20
77.83295282690926
 30
0.0000000000000001
  9
$LIMMIN
 10
-115.6940802891472
 20
-139.6684166138654
  9
$LIMMAX
 10
82.92320485683648
 20
91.55027196380103
  9
$ORTHOMODE
 70
     0
  9
$REGENMODE
 70
     1
  9
$FILLMODE
 70
     1
  9
$QTEXTMODE
 70
     0
  9
$MIRRTEXT
 70
     0
  9
$LTSCALE
 40
1.0
  9
$ATTMODE
 70
     1
  9
$TEXTSIZE
 40
2.5
  9
$TRACEWID
 40
1.0
  9
$TEXTSTYLE
  7
STANDARD
  9
$CLAYER
  8
AM_0
  9
$CELTYPE
  6
BYLAYER
  9
$CECOLOR
 62
   256
  9
$CELTSCALE
 40
1.0
  9
$DISPSILH
 70
     0
  9
$DIMSCALE
 40
1.0
  9
$DIMASZ
 40
2.5
  9
$DIMEXO
 40
1.0
  9
$DIMDLI
 40
12.0
  9
$DIMRND
 40
0.0
  9
$DIMDLE
 40
0.0
  9
$DIMEXE
 40
1.0
  9
$DIMTP
 40
0.1
  9
$DIMTM
 40
0.1
  9
$DIMTXT
 40
3.2
  9
$DIMCEN
 40
0.0
  9
$DIMTSZ
 40
0.0
  9
$DIMTOL
 70
     0
  9
$DIMLIM
 70
     0
  9
$DIMTIH
 70
     0
  9
$DIMTOH
 70
     0
  9
$DIMSE1
 70
     0
  9
$DIMSE2
 70
     0
  9
$DIMTAD
 70
     3
  9
$DIMZIN
 70
     8
  9
$DIMBLK
  1
OPEN30
  9
$DIMASO
 70
     1
  9
$DIMSHO
 70
     1
  9
$DIMPOST
  1

  9
$DIMAPOST
  1
"
  9
$DIMALT
 70
     0
  9
$DIMALTD
 70
     2
  9
$DIMALTF
 40
0.0393701
  9
$DIMLFAC
 40
1.0
  9
$DIMTOFL
 70
     1
  9
$DIMTVP
 40
0.0
  9
$DIMTIX
 70
     0
  9
$DIMSOXD
 70
     0
  9
$DIMSAH
 70
     0
  9
$DIMBLK1
  1

  9
$DIMBLK2
  1

  9
$DIMSTYLE
  2
AM_JIS
  9
$DIMCLRD
 70
   256
  9
$DIMCLRE
 70
   256
  9
$DIMCLRT
 70
     2
  9
$DIMTFAC
 40
0.71
  9
$DIMGAP
 40
1.5
  9
$DIMJUST
 70
     0
  9
$DIMSD1
 70
     0
  9
$DIMSD2
 70
     0
  9
$DIMTOLJ
 70
     0
  9
$DIMTZIN
 70
     0
  9
$DIMALTZ
 70
     0
  9
$DIMALTTZ
 70
     0
  9
$DIMUPT
 70
     0
  9
$DIMDEC
 70
     3
  9
$DIMTDEC
 70
     3
  9
$DIMALTU
 70
     2
  9
$DIMALTTD
 70
     2
  9
$DIMTXSTY
  7
ASAMI
  9
$DIMAUNIT
 70
     0
  9
$DIMADEC
 70
     0
  9
$DIMALTRND
 40
0.0
  9
$DIMAZIN
 70
     2
  9
$DIMDSEP
 70
    46
  9
$DIMATFIT
 70
     3
  9
$DIMFRAC
 70
     0
  9
$DIMLDRBLK
  1
OPEN30
  9
$DIMLUNIT
 70
     2
  9
$DIMLWD
 70
    -1
  9
$DIMLWE
 70
    -1
  9
$DIMTMOVE
 70
     0
  9
$LUNITS
 70
     2
  9
$LUPREC
 70
     2
  9
$SKETCHINC
 40
1.0
  9
$FILLETRAD
 40
0.8
  9
$AUNITS
 70
     0
  9
$AUPREC
 70
     0
  9
$MENU
  1
.
  9
$ELEVATION
 40
0.0
  9
$PELEVATION
 40
0.0
  9
$THICKNESS
 40
0.0
  9
$LIMCHECK
 70
     0
  9
$CHAMFERA
 40
1.0
  9
$CHAMFERB
 40
1.0
  9
$CHAMFERC
 40
20.0
  9
$CHAMFERD
 40
0.0
  9
$SKPOLY
 70
     0
  9
$TDCREATE
 40
2452836.771637361
  9
$TDUCREATE
 40
2452836.396637361
  9
$TDUPDATE
 40
2455596.563806782
  9
$TDUUPDATE
 40
2455596.188806783
  9
$TDINDWG
 40
0.1442905324
  9
$TDUSRTIMER
 40
0.1442905324
  9
$USRTIMER
 70
     1
  9
$ANGBASE
 50
0.0
  9
$ANGDIR
 70
     0
  9
$PDMODE
 70
     0
  9
$PDSIZE
 40
0.0
  9
$PLINEWID
 40
0.0
  9
$SPLFRAME
 70
     0
  9
$SPLINETYPE
 70
     6
  9
$SPLINESEGS
 70
     8
  9
$HANDSEED
  5
856F
  9
$SURFTAB1
 70
     6
  9
$SURFTAB2
 70
     6
  9
$SURFTYPE
 70
     6
  9
$SURFU
 70
     6
  9
$SURFV
 70
     6
  9
$UCSBASE
  2

  9
$UCSNAME
  2

  9
$UCSORG
 10
0.0
 20
0.0
 30
0.0
  9
$UCSXDIR
 10
1.0
 20
0.0
 30
0.0
  9
$UCSYDIR
 10
0.0
 20
1.0
 30
0.0
  9
$UCSORTHOREF
  2

  9
$UCSORTHOVIEW
 70
     0
  9
$UCSORGTOP
 10
0.0
 20
0.0
 30
0.0
  9
$UCSORGBOTTOM
 10
0.0
 20
0.0
 30
0.0
  9
$UCSORGLEFT
 10
0.0
 20
0.0
 30
0.0
  9
$UCSORGRIGHT
 10
0.0
 20
0.0
 30
0.0
  9
$UCSORGFRONT
 10
0.0
 20
0.0
 30
0.0
  9
$UCSORGBACK
 10
0.0
 20
0.0
 30
0.0
  9
$PUCSBASE
  2

  9
$PUCSNAME
  2

  9
$PUCSORG
 10
0.0
 20
0.0
 30
0.0
  9
$PUCSXDIR
 10
1.0
 20
0.0
 30
0.0
  9
$PUCSYDIR
 10
0.0
 20
1.0
 30
0.0
  9
$PUCSORTHOREF
  2

  9
$PUCSORTHOVIEW
 70
     0
  9
$PUCSORGTOP
 10
0.0
 20
0.0
 30
0.0
  9
$PUCSORGBOTTOM
 10
0.0
 20
0.0
 30
0.0
  9
$PUCSORGLEFT
 10
0.0
 20
0.0
 30
0.0
  9
$PUCSORGRIGHT
 10
0.0
 20
0.0
 30
0.0
  9
$PUCSORGFRONT
 10
0.0
 20
0.0
 30
0.0
  9
$PUCSORGBACK
 10
0.0
 20
0.0
 30
0.0
  9
$USERI1
 70
     0
  9
$USERI2
 70
     0
  9
$USERI3
 70
     0
  9
$USERI4
 70
     0
  9
$USERI5
 70
     0
  9
$USERR1
 40
0.0
  9
$USERR2
 40
0.0
  9
$USERR3
 40
0.0
  9
$USERR4
 40
0.0
  9
$USERR5
 40
0.0
  9
$WORLDVIEW
 70
     1
  9
$SHADEDGE
 70
     3
  9
$SHADEDIF
 70
    70
  9
$TILEMODE
 70
     1
  9
$MAXACTVP
 70
    64
  9
$PINSBASE
 10
0.0
 20
0.0
 30
0.0
  9
$PLIMCHECK
 70
     0
  9
$PEXTMIN
 10
1.000000000000000E+20
 20
1.000000000000000E+20
 30
1.000000000000000E+20
  9
$PEXTMAX
 10
-1.000000000000000E+20
 20
-1.000000000000000E+20
 30
-1.000000000000000E+20
  9
$PLIMMIN
 10
0.0
 20
0.0
  9
$PLIMMAX
 10
841.0
 20
594.0
  9
$UNITMODE
 70
     0
  9
$VISRETAIN
 70
     1
  9
$PLINEGEN
 70
     0
  9
$PSLTSCALE
 70
     0
  9
$TREEDEPTH
 70
  3020
  9
$CMLSTYLE
  2
STANDARD
  9
$CMLJUST
 70
     0
  9
$CMLSCALE
 40
20.0
  9
$PROXYGRAPHICS
 70
     1
  9
$MEASUREMENT
 70
     1
  9
$CELWEIGHT
370
    -1
  9
$ENDCAPS
280
     0
  9
$JOINSTYLE
280
     0
  9
$LWDISPLAY
290
     0
  9
$INSUNITS
 70
     4
  9
$HYPERLINKBASE
  1

  9
$STYLESHEET
  1
ASAMI.ctb
  9
$XEDIT
290
     1
  9
$CEPSNTYPE
380
     0
  9
$PSTYLEMODE
290
     1
  9
$FINGERPRINTGUID
  2
{AFB28963-8C59-40AE-9337-C84526B81ACE}
  9
$VERSIONGUID
  2
{5465E429-536C-4E7D-80C1-E755A14788FF}
  9
$EXTNAMES
290
     1
  9
$PSVPSCALE
 40
0.0
  9
$OLESTARTUP
290
     0
  0
ENDSEC
  0
SECTION
  2
CLASSES
  0
CLASS
  1
ACDBDICTIONARYWDFLT
  2
AcDbDictionaryWithDefault
  3
ObjectDBX Classes
 90
        0
280
     0
281
     0
  0
CLASS
  1
ACDBPLACEHOLDER
  2
AcDbPlaceHolder
  3
ObjectDBX Classes
 90
        0
280
     0
281
     0
  0
CLASS
  1
LAYOUT
  2
AcDbLayout
  3
ObjectDBX Classes
 90
        0
280
     0
281
     0
  0
CLASS
  1
AMGSETTINGSOBJ
  2
AmgSettingsObj
  3
"AcadM|Product Description: AutoCAD Mechanical 2000|Company: Autodesk"
 90
        0
280
     0
281
     0
  0
CLASS
  1
ACME_DOCUMENT
  2
AcMeDbDoc
  3
AcMeServices
 90
        0
280
     0
281
     0
  0
CLASS
  1
ACMESCOPE
  2
AcMeScope
  3
AcMeServices
 90
        0
280
     0
281
     0
  0
CLASS
  1
ACMECOMMANDHISTORY
  2
AcMeCommandHistory
  3
AcMeServices
 90
        0
280
     0
281
     0
  0
CLASS
  1
DICTIONARYVAR
  2
AcDbDictionaryVar
  3
ObjectDBX Classes
 90
        0
280
     0
281
     0
  0
CLASS
  1
ACIMSYSVARMAN
  2
AcImSysVarManager
  3
AcMeServices
 90
        0
280
     0
281
     0
  0
CLASS
  1
ACIMREALSYSVAR
  2
AcImRealSysVar
  3
AcMeServices
 90
        0
280
     0
281
     0
  0
CLASS
  1
ACIMINTSYSVAR
  2
AcImIntSysVar
  3
AcMeServices
 90
        0
280
     0
281
     0
  0
CLASS
  1
ACMEDRAWINGMAN
  2
AcMeDrawingMan
  3
AcMeServices
 90
        0
280
     0
281
     0
  0
CLASS
  1
ACMEVIEW
  2
AcMeView
  3
AcMeServices
 90
        0
280
     0
281
     0
  0
CLASS
  1
ACDBENTITYCACHE
  2
AcMeEntityCache
  3
AcMeServices
 90
        0
280
     0
281
     0
  0
CLASS
  1
GSMANAGER
  2
AcMeGSManager
  3
AcMeServices
 90
        0
280
     0
281
     0
  0
CLASS
  1
AMDTINTERNALREACTOR
  2
AmdtInternalReactor
  3
AcMeServices
 90
        0
280
     0
281
     0
  0
CLASS
  1
ACMESTATEMGR
  2
AcMeStateMgr
  3
AcMeServices
 90
        0
280
     0
281
     0
  0
CLASS
  1
ACME_DATABASE
  2
AcMeDbDatabase
  3
AcMeServices
 90
        0
280
     0
281
     0
  0
CLASS
  1
ACRFINSADJUSTERMGR
  2
AcRfInsAdjusterMgr
  3
AcMeServices
 90
        0
280
     0
281
     0
  0
CLASS
  1
ACMDATADICTIONARY
  2
AcmDataDictionary
  3
"AcmSymBB|Product Description: AutoCAD Mechanical 2004 DX|Company: Autodesk"
 90
        0
280
     0
281
     0
  0
CLASS
  1
ACMDATAENTRYBLOCK
  2
AcmDataEntryBlock
  3
"AcmSymBB|Product Description: AutoCAD Mechanical 2004 DX|Company: Autodesk"
 90
    32768
280
     0
281
     0
  0
CLASS
  1
AMGOBJPROPCFG
  2
AmgObjPropCfg
  3
"AmgLay|Product Description: AutoCAD Mechanical 2000|Company: Autodesk"
 90
        1
280
     0
281
     0
  0
CLASS
  1
ACAMGFILTERDAT
  2
AcAmgFilterDat
  3
"AcadM|Product Description: AutoCAD Mechanical 2000|Company: Autodesk"
 90
    32768
280
     0
281
     0
  0
CLASS
  1
LAYER_INDEX
  2
AcDbLayerIndex
  3
ObjectDBX Classes
 90
        0
280
     0
281
     0
  0
CLASS
  1
IDBUFFER
  2
AcDbIdBuffer
  3
ObjectDBX Classes
 90
        0
280
     0
281
     0
  0
CLASS
  1
ACIMSTRSYSVAR
  2
AcImStrSysVar
  3
AcMeServices
 90
        0
280
     0
281
     0
  0
CLASS
  1
ACMSTANDARDJIS
  2
AcmStandardJIS
  3
"Amdt_StdImp|Product Description: AutoCAD Mechanical 2004 DX|Company: Autodesk"
 90
    32768
280
     0
281
     0
  0
CLASS
  1
ACMSURFSTANDARDJIS
  2
AcmSurfTextStdJIS
  3
"Amdt_StdImp|Product Description: AutoCAD Mechanical 2004 DX|Company: Autodesk"
 90
    32768
280
     0
281
     0
  0
CLASS
  1
ACMFCFSTANDARDJIS
  2
AcmFCFStdJIS
  3
"Amdt_StdImp|Product Description: AutoCAD Mechanical 2004 DX|Company: Autodesk"
 90
    32768
280
     0
281
     0
  0
CLASS
  1
ACMWELDSTANDARDJIS
  2
AcmWeldingStdJIS
  3
"Amdt_StdImp|Product Description: AutoCAD Mechanical 2004 DX|Company: Autodesk"
 90
    32768
280
     0
281
     0
  0
CLASS
  1
ACMIDSTANDARDJIS
  2
AcmIdStdJIS
  3
"Amdt_StdImp|Product Description: AutoCAD Mechanical 2004 DX|Company: Autodesk"
 90
    32768
280
     0
281
     0
  0
CLASS
  1
ACMDATUMSTANDARDJIS
  2
AcmDatumStdJIS
  3
"Amdt_StdImp|Product Description: AutoCAD Mechanical 2004 DX|Company: Autodesk"
 90
    32768
280
     0
281
     0
  0
CLASS
  1
ACMBOMSTANDARDJIS
  2
AcmBOMStdJIS
  3
"Amdt_StdImp|Product Description: AutoCAD Mechanical 2004 DX|Company: Autodesk"
 90
    32768
280
     0
281
     0
  0
CLASS
  1
ACMSTANDARDANSI
  2
AcmStandardANSI
  3
"Amdt_StdImp|Product Description: AutoCAD Mechanical 2004 DX|Company: Autodesk"
 90
    32768
280
     0
281
     0
  0
CLASS
  1
ACMSURFSTANDARDANSI
  2
AcmSurfTextStdANSI
  3
"Amdt_StdImp|Product Description: AutoCAD Mechanical 2004 DX|Company: Autodesk"
 90
    32768
280
     0
281
     0
  0
CLASS
  1
ACMFCFSTANDARDANSI
  2
AcmFCFStdANSI
  3
"Amdt_StdImp|Product Description: AutoCAD Mechanical 2004 DX|Company: Autodesk"
 90
    32768
280
     0
281
     0
  0
CLASS
  1
ACMWELDSTANDARDANSI
  2
AcmWeldingStdANSI
  3
"Amdt_StdImp|Product Description: AutoCAD Mechanical 2004 DX|Company: Autodesk"
 90
    32768
280
     0
281
     0
  0
CLASS
  1
ACMIDSTANDARDANSI
  2
AcmIdStdANSI
  3
"Amdt_StdImp|Product Description: AutoCAD Mechanical 2004 DX|Company: Autodesk"
 90
    32768
280
     0
281
     0
  0
CLASS
  1
ACMDATUMSTANDARDANSI
  2
AcmDatumStdANSI
  3
"Amdt_StdImp|Product Description: AutoCAD Mechanical 2004 DX|Company: Autodesk"
 90
    32768
280
     0
281
     0
  0
CLASS
  1
ACMBOMSTANDARDANSI
  2
AcmBOMStdANSI
  3
"Amdt_StdImp|Product Description: AutoCAD Mechanical 2004 DX|Company: Autodesk"
 90
    32768
280
     0
281
     0
  0
CLASS
  1
ACMSTANDARDBSI
  2
AcmStandardBSI
  3
"Amdt_StdImp|Product Description: AutoCAD Mechanical 2004 DX|Company: Autodesk"
 90
    32768
280
     0
281
     0
  0
CLASS
  1
ACMSURFSTANDARDBSI
  2
AcmSurfTextStdBSI
  3
"Amdt_StdImp|Product Description: AutoCAD Mechanical 2004 DX|Company: Autodesk"
 90
    32768
280
     0
281
     0
  0
CLASS
  1
ACMFCFSTANDARDBSI
  2
AcmFCFStdBSI
  3
"Amdt_StdImp|Product Description: AutoCAD Mechanical 2004 DX|Company: Autodesk"
 90
    32768
280
     0
281
     0
  0
CLASS
  1
ACMWELDSTANDARDBSI
  2
AcmWeldingStdBSI
  3
"Amdt_StdImp|Product Description: AutoCAD Mechanical 2004 DX|Company: Autodesk"
 90
    32768
280
     0
281
     0
  0
CLASS
  1
ACMIDSTANDARDBSI
  2
AcmIdStdBSI
  3
"Amdt_StdImp|Product Description: AutoCAD Mechanical 2004 DX|Company: Autodesk"
 90
    32768
280
     0
281
     0
  0
CLASS
  1
ACMDATUMSTANDARDBSI
  2
AcmDatumStdBSI
  3
"Amdt_StdImp|Product Description: AutoCAD Mechanical 2004 DX|Company: Autodesk"
 90
    32768
280
     0
281
     0
  0
CLASS
  1
ACMBOMSTANDARDBSI
  2
AcmBOMStdBSI
  3
"Amdt_StdImp|Product Description: AutoCAD Mechanical 2004 DX|Company: Autodesk"
 90
    32768
280
     0
281
     0
  0
CLASS
  1
TABLESTYLE
  2
AcDbTableStyle
  3
ObjectDBX Classes
 90
     2047
280
     0
281
     0
  0
CLASS
  1
ACGREFMASTER
  2
AcGrefMaster
  3
AcAttribServices
 90
        0
280
     0
281
     0
  0
CLASS
  1
AM_DRAWING_MGR
  2
AcDmDwgMgr
  3
AcMechDwgViewMgmt
 90
        0
280
     0
281
     0
  0
CLASS
  1
AM_DWG_DOCUMENT
  2
AcDmDwgDocument
  3
AcMechDwgViewMgmt
 90
        0
280
     0
281
     0
  0
CLASS
  1
AM_DWG_SHEET
  2
AcDmSheet
  3
AcMechDwgViewMgmt
 90
        0
280
     0
281
     0
  0
CLASS
  1
AM_VIEWDIMPARMAP
  2
AcDmViewDimParMap
  3
AcMechDwgViewMgmt
 90
        0
280
     0
281
     0
  0
CLASS
  1
AM_DWGMGR_NAME
  2
AcDmDwgMgrName
  3
AcMechDwgViewMgmt
 90
        0
280
     0
281
     0
  0
CLASS
  1
ACGREFACADMASTER
  2
AcGrefacadMaster
  3
AcGrefServices
 90
        0
280
     0
281
     0
  0
CLASS
  1
AMDTMENUSTATEMGR
  2
AmdtMenuStateMgr
  3
McadcomServices
 90
        0
280
     0
281
     0
  0
CLASS
  1
AMDTMCOMMENUSTATE
  2
AmdtMcomMenuState
  3
McadcomServices
 90
        0
280
     0
281
     0
  0
CLASS
  1
AMIMASTER
  2
AmiMaster
  3
AmiServices
 90
        0
280
     0
281
     0
  0
CLASS
  1
MAPIAMMOUDLE
  2
MApiAmModule
  3
MApiAmServices
 90
        0
280
     0
281
     0
  0
CLASS
  1
AMDTADMENUSTATE
  2
AmdtAdMenuState
  3
DesignerServices
 90
        0
280
     0
281
     0
  0
CLASS
  1
ADAPPL
  2
AcAdAppl
  3
DesignerServices
 90
        0
280
     0
281
     0
  0
CLASS
  1
DEPMGR
  2
AcAdDepMgr
  3
DesignerServices
 90
        0
280
     0
281
     0
  0
CLASS
  1
PARAMMGR
  2
AcAdParamMgr
  3
DesignerServices
 90
        0
280
     0
281
     0
  0
CLASS
  1
PARAMSCOPE
  2
AcAdParamScope
  3
DesignerServices
 90
        0
280
     0
281
     0
  0
CLASS
  1
NAMEDAPPL
  2
AcAdNamedAppl
  3
DesignerServices
 90
        0
280
     0
281
     0
  0
CLASS
  1
AMDTDMMENUSTATE
  2
AmdtDmMenuState
  3
AcMechDwgViewMgmt
 90
        0
280
     0
281
     0
  0
CLASS
  1
AMDTAMMENUSTATE
  2
AmdtAmMenuState
  3
DesignerAssemblies
 90
        0
280
     0
281
     0
  0
CLASS
  1
ACAMPROJECT
  2
AcAmProject
  3
DesignerAssemblies
 90
        0
280
     0
281
     0
  0
CLASS
  1
ACAMGRCOMPDEF
  2
AcAmGrCompDef
  3
DesignerAssemblies
 90
        0
280
     0
281
     0
  0
CLASS
  1
ACCMCONTEXT
  2
AcCmContext
  3
DesignerAssemblies
 90
        0
280
     0
281
     0
  0
CLASS
  1
ACAMCOMPDEF
  2
AcAmCompDef
  3
DesignerAssemblies
 90
        0
280
     0
281
     0
  0
CLASS
  1
ACAMCOMPDEFMGR
  2
AcAmCompDefMgr
  3
DesignerAssemblies
 90
        0
280
     0
281
     0
  0
CLASS
  1
AMCONTEXTMGR
  2
AcAmContextMgr
  3
DesignerAssemblies
 90
        0
280
     0
281
     0
  0
CLASS
  1
ACAMCONTEXTMODELER
  2
AcAmContextModeler
  3
DesignerAssemblies
 90
        0
280
     0
281
     0
  0
CLASS
  1
CATALOGSTATE
  2
AcAmCatalogState
  3
DesignerAssemblies
 90
        0
280
     0
281
     0
  0
CLASS
  1
ACAMGRCOMPDEFSET
  2
AcAmGrCompDefSet
  3
DesignerAssemblies
 90
        0
280
     0
281
     0
  0
CLASS
  1
AMDTBROWSERDBTAB
  2
AmdtBrowserDbTab
  3
McadcomServices
 90
        0
280
     0
281
     0
  0
CLASS
  1
CBROWSERAPPOBJECT
  2
CBrowserAppObject
  3
McadcomServices
 90
        0
280
     0
281
     0
  0
CLASS
  1
DM_PLACEHOLDER
  2
AcDmSelsetPlaceholder
  3
AcMechDwgViewMgmt
 90
        0
280
     0
281
     0
  0
CLASS
  1
ACMSTANDARDISO
  2
AcmStandardISO
  3
"Amdt_StdImp|Product Description: AutoCAD Mechanical 2004 DX|Company: Autodesk"
 90
        0
280
     0
281
     0
  0
CLASS
  1
AMDTEDGESTANDARDISO13715
  2
AmdtEdgeStdISO13715
  3
"Amdt_StdImp|Product Description: AutoCAD Mechanical 2004 DX|Company: Autodesk"
 90
        0
280
     0
281
     0
  0
CLASS
  1
ACMSURFSTANDARDISO
  2
AcmSurfTextStdISO
  3
"Amdt_StdImp|Product Description: AutoCAD Mechanical 2004 DX|Company: Autodesk"
 90
        0
280
     0
281
     0
  0
CLASS
  1
ACMFCFSTANDARDISO
  2
AcmFCFStdISO
  3
"Amdt_StdImp|Product Description: AutoCAD Mechanical 2004 DX|Company: Autodesk"
 90
        0
280
     0
281
     0
  0
CLASS
  1
ACMWELDSTANDARDISO
  2
AcmWeldingStdISO
  3
"Amdt_StdImp|Product Description: AutoCAD Mechanical 2004 DX|Company: Autodesk"
 90
        0
280
     0
281
     0
  0
CLASS
  1
ACMIDSTANDARDISO
  2
AcmIdStdISO
  3
"Amdt_StdImp|Product Description: AutoCAD Mechanical 2004 DX|Company: Autodesk"
 90
        0
280
     0
281
     0
  0
CLASS
  1
ACMDATUMSTANDARDISO
  2
AcmDatumStdISO
  3
"Amdt_StdImp|Product Description: AutoCAD Mechanical 2004 DX|Company: Autodesk"
 90
        0
280
     0
281
     0
  0
CLASS
  1
ACMBOMSTANDARDISO
  2
AcmBOMStdISO
  3
"Amdt_StdImp|Product Description: AutoCAD Mechanical 2004 DX|Company: Autodesk"
 90
        0
280
     0
281
     0
  0
CLASS
  1
ACMDETAILSTANDARDISO
  2
AmdtDetailSymStdISO
  3
"Amdt_StdImp|Product Description: AutoCAD Mechanical 2004 DX|Company: Autodesk"
 90
        0
280
     0
281
     0
  0
CLASS
  1
ACMSECTIONSTANDARDISO
  2
AmdtSectionSymStdISO
  3
"Amdt_StdImp|Product Description: AutoCAD Mechanical 2004 DX|Company: Autodesk"
 90
        0
280
     0
281
     0
  0
CLASS
  1
ACMCENTERLINESTANDARDISO
  2
AmdtCenterLineStdISO
  3
"Amdt_StdImp|Product Description: AutoCAD Mechanical 2004 DX|Company: Autodesk"
 90
        0
280
     0
281
     0
  0
CLASS
  1
ACMTHREADLINESTANDARDISO
  2
AmdtThreadLineStdISO
  3
"Amdt_StdImp|Product Description: AutoCAD Mechanical 2004 DX|Company: Autodesk"
 90
        0
280
     0
281
     0
  0
CLASS
  1
ACMNOTESTANDARDISO
  2
AmdtNoteStdISO
  3
"Amdt_StdImp|Product Description: AutoCAD Mechanical 2004 DX|Company: Autodesk"
 90
        0
280
     0
281
     0
  0
CLASS
  1
AMDTNOTETEMPLATEDB
  2
AmdtNoteTemplateDB
  3
AMDT_STDIMP_MODULE_NAME
 90
        0
280
     0
281
     0
  0
CLASS
  1
ACAMGLAYSTD
  2
AcAmgLayStd
  3
"AcAmgLayStd|Product Description: AutoCAD Mechanical 2000|Company: Autodesk"
 90
        0
280
     0
281
     0
  0
CLASS
  1
ACAMGDIMSTD
  2
AcAmgDimStd
  3
"AcAmgDimStd|Product Description: AutoCAD Mechanical 2000|Company: Autodesk"
 90
        0
280
     0
281
     0
  0
CLASS
  1
ACAMGHOLECHARTSTDISO
  2
AcAmgHoleChartStdISO
  3
ACMSYMBB_MODULE_NAME
 90
        0
280
     0
281
     0
  0
CLASS
  1
ACAMGTITLESTD
  2
AcAmgTitleStd
  3
"TITLEAPP"
 90
        0
280
     0
281
     0
  0
CLASS
  1
ACRFATTGENMGR
  2
AcRfAttGeneralMgr
  3
AcAttribServices
 90
        0
280
     0
281
     0
  0
ENDSEC
  0
SECTION
  2
TABLES
  0
TABLE
  2
VPORT
  5
8
330
0
100
AcDbSymbolTable
 70
    68
  0
VPORT
  5
8566
330
8
100
AcDbSymbolTableRecord
100
AcDbViewportTableRecord
  2
*Active
 70
     0
 10
0.0
 20
0.0
 11
1.0
 21
1.0
 12
-16.38543771615535
 22
-24.05907232503219
 13
0.0
 23
0.0
 14
2.5
 24
2.5
 15
10.0
 25
10.0
 16
0.0
 26
0.0
 36
1.0
 17
0.0
 27
0.0
 37
0.0
 40
231.2186885776664
 41
2.002364066193853
 42
50.0
 43
0.0
 44
0.0
 50
0.0
 51
0.0
 71
     0
 72
   100
 73
     1
 74
     3
 75
     0
 76
     0
 77
     0
 78
     0
281
     0
 65
     0
110
0.0
120
0.0
130
0.0
111
1.0
121
0.0
131
0.0
112
0.0
122
1.0
132
0.0
 79
     0
146
0.0
  0
ENDTAB
  0
TABLE
  2
LTYPE
  5
5
330
0
100
AcDbSymbolTable
 70
    16
  0
LTYPE
  5
14
330
5
100
AcDbSymbolTableRecord
100
AcDbLinetypeTableRecord
  2
BYBLOCK
 70
     0
  3

 72
    65
 73
     0
 40
0.0
  0
LTYPE
  5
15
330
5
100
AcDbSymbolTableRecord
100
AcDbLinetypeTableRecord
  2
BYLAYER
 70
     0
  3

 72
    65
 73
     0
 40
0.0
  0
LTYPE
  5
16
330
5
100
AcDbSymbolTableRecord
100
AcDbLinetypeTableRecord
  2
CONTINUOUS
 70
     0
  3
Solid line
 72
    65
 73
     0
 40
0.0
  0
LTYPE
  5
4B
330
5
100
AcDbSymbolTableRecord
100
AcDbLinetypeTableRecord
  2
AM_ISO02W050
 70
     0
  3
__ __ __ __ __ __ __ __ __ __ __ __ __ __ __
 72
    65
 73
     2
 40
7.5
 49
6.0
 74
     0
 49
-1.5
 74
     0
  0
LTYPE
  5
4C
330
5
100
AcDbSymbolTableRecord
100
AcDbLinetypeTableRecord
  2
AM_ISO08W050
 70
     0
  3
____ . ____ . ____ . ____ . ____ . ____ . ____
 72
    65
 73
     4
 40
18.0
 49
12.0
 74
     0
 49
-1.5
 74
     0
 49
3.0
 74
     0
 49
-1.5
 74
     0
  0
LTYPE
  5
4D
330
5
100
AcDbSymbolTableRecord
100
AcDbLinetypeTableRecord
  2
AM_ISO09W050
 70
     0
  3
_____ . . _____ . . _____ . . ____ .. ____
 72
    65
 73
     6
 40
22.5
 49
12.0
 74
     0
 49
-1.5
 74
     0
 49
3.0
 74
     0
 49
-1.5
 74
     0
 49
3.0
 74
     0
 49
-1.5
 74
     0
  0
LTYPE
  5
4E
330
5
100
AcDbSymbolTableRecord
100
AcDbLinetypeTableRecord
  2
AMCONSTR
 70
     0
  3
_______________________
 72
    65
 73
     2
 40
9999.0
 49
9999.0
 74
     0
 49
0.0
 74
     0
  0
LTYPE
  5
4F
330
5
100
AcDbSymbolTableRecord
100
AcDbLinetypeTableRecord
  2
AM_ISO02W050X2
 70
     0
  3
 _ _ _ _ _ _ _ _ _ _ _ _
 72
    65
 73
     2
 40
3.75
 49
3.0
 74
     0
 49
-0.75
 74
     0
  0
LTYPE
  5
50
330
5
100
AcDbSymbolTableRecord
100
AcDbLinetypeTableRecord
  2
AM_ISO08W050X2
 70
     0
  3
__ . __ . __ . __ . __ . __
 72
    65
 73
     4
 40
9.0
 49
6.0
 74
     0
 49
-0.75
 74
     0
 49
1.5
 74
     0
 49
-0.75
 74
     0
  0
LTYPE
  5
53
330
5
100
AcDbSymbolTableRecord
100
AcDbLinetypeTableRecord
  2
AMZIGZAG
 70
     0
  3
/\/-/\/-/\/-/\/-/\/-/\/
 72
    65
 73
     2
 40
11.00009999999999
 49
0.0001
 74
     4
 75
   135
340
52
 46
0.04
 50
0.0
 44
0.0
 45
0.0
 49
-11.0
 74
     0
  0
LTYPE
  5
83F1
330
5
100
AcDbSymbolTableRecord
100
AcDbLinetypeTableRecord
  2
HIDDEN
 70
     0
  3
Hidden __ __ __ __ __ __ __ __ __ __ __ __ __ _
 72
    65
 73
     2
 40
9.524999999999998
 49
6.349999999999999
 74
     0
 49
-3.174999999999999
 74
     0
  0
LTYPE
  5
83F2
330
5
100
AcDbSymbolTableRecord
100
AcDbLinetypeTableRecord
  2
PHANTOM2
 70
     0
  3
Phantom (.5x) ___ _ _ ___ _ _ ___ _ _ ___ _ _
 72
    65
 73
     6
 40
31.75
 49
15.875
 74
     0
 49
-3.174999999999999
 74
     0
 49
3.174999999999999
 74
     0
 49
-3.174999999999999
 74
     0
 49
3.174999999999999
 74
     0
 49
-3.174999999999999
 74
     0
  0
LTYPE
  5
83F3
330
5
100
AcDbSymbolTableRecord
100
AcDbLinetypeTableRecord
  2
CENTER
 70
     0
  3
Center ____ _ ____ _ ____ _ ____ _ ____ _ ____
 72
    65
 73
     4
 40
50.8
 49
31.75
 74
     0
 49
-6.349999999999999
 74
     0
 49
6.349999999999999
 74
     0
 49
-6.349999999999999
 74
     0
  0
LTYPE
  5
8433
330
5
100
AcDbSymbolTableRecord
100
AcDbLinetypeTableRecord
  2
ACISOWELD
 70
     0
  3
_ _ _ _ _
 72
    65
 73
     2
 40
2.0
 49
2.0
 74
     0
 49
-1.0
 74
     0
  0
LTYPE
  5
8434
330
5
100
AcDbSymbolTableRecord
100
AcDbLinetypeTableRecord
  2
ACISOTGB
 70
     0
  3
__ . . __ . .
 72
    65
 73
     6
 40
9.0
 49
4.0
 74
     0
 49
-1.0
 74
     0
 49
1.0
 74
     0
 49
-1.0
 74
     0
 49
1.0
 74
     0
 49
-1.0
 74
     0
  0
LTYPE
  5
8435
330
5
100
AcDbSymbolTableRecord
100
AcDbLinetypeTableRecord
  2
ACISOTGL
 70
     0
  3
_ _ _ _ _
 72
    65
 73
     2
 40
3.0
 49
2.0
 74
     0
 49
-1.0
 74
     0
  0
ENDTAB
  0
TABLE
  2
LAYER
  5
2
330
0
100
AcDbSymbolTable
 70
    10
  0
LAYER
  5
10
330
2
100
AcDbSymbolTableRecord
100
AcDbLayerTableRecord
  2
0
 70
     0
 62
     7
  6
CONTINUOUS
370
    -3
390
F
  0
LAYER
  5
3F9
330
2
100
AcDbSymbolTableRecord
100
AcDbLayerTableRecord
  2
AM_0
 70
     0
 62
     7
  6
CONTINUOUS
370
    -3
390
F
  0
LAYER
  5
BD5
330
2
100
AcDbSymbolTableRecord
100
AcDbLayerTableRecord
  2
AM_7
 70
     0
 62
     4
  6
AM_ISO08W050
370
    -3
390
F
  0
LAYER
  5
BD6
330
2
100
AcDbSymbolTableRecord
100
AcDbLayerTableRecord
  2
AM_5
 70
     0
 62
     3
  6
CONTINUOUS
370
    -3
390
F
  0
LAYER
  5
BD7
330
2
100
AcDbSymbolTableRecord
100
AcDbLayerTableRecord
  2
DEFPOINTS
 70
     0
 62
     7
  6
CONTINUOUS
290
     0
370
    -3
390
F
  0
LAYER
  5
E59
330
2
100
AcDbSymbolTableRecord
100
AcDbLayerTableRecord
  2
AM_6
 70
     0
 62
     2
  6
CONTINUOUS
370
    -3
390
F
  0
LAYER
  5
1E31
330
2
100
AcDbSymbolTableRecord
100
AcDbLayerTableRecord
  2
AM_11
 70
     0
 62
     3
  6
AM_ISO09W050
370
    -3
390
F
  0
ENDTAB
  0
TABLE
  2
STYLE
  5
3
330
0
100
AcDbSymbolTable
 70
     7
  0
STYLE
  5
11
330
3
100
AcDbSymbolTableRecord
100
AcDbTextStyleTableRecord
  2
STANDARD
 70
     0
 40
0.0
 41
1.0
 50
0.0
 71
     0
 42
2.5
  3
simplex.shx
  4
EXTFONT.SHX
  0
STYLE
  5
52
330
3
100
AcDbSymbolTableRecord
100
AcDbTextStyleTableRecord
  2

 70
     1
 40
0.0
 41
1.0
 50
0.0
 71
     0
 42
2.5
  3
ltypeshp.shx
  4

  0
STYLE
  5
6B
330
3
100
AcDbSymbolTableRecord
100
AcDbTextStyleTableRecord
  2
ASAMI
 70
     0
 40
0.0
 41
1.0
 50
0.0
 71
     0
 42
2.5
  3
simplex.shx
  4
EXTFONT.SHX
  0
STYLE
  5
8425
330
3
100
AcDbSymbolTableRecord
100
AcDbTextStyleTableRecord
  2
ACISOTS
 70
     0
 40
1.0
 41
1.0
 50
0.0
 71
     0
 42
2.5
  3
isocp.shx
  4
extfont.shx
  0
STYLE
  5
8432
330
3
100
AcDbSymbolTableRecord
100
AcDbTextStyleTableRecord
  2
ACISOGDT
 70
     0
 40
0.0
 41
1.0
 50
0.0
 71
     0
 42
2.5
  3
amgdt.shx
  4

  0
ENDTAB
  0
TABLE
  2
VIEW
  5
6
330
0
100
AcDbSymbolTable
 70
     0
  0
ENDTAB
  0
TABLE
  2
UCS
  5
7
330
0
100
AcDbSymbolTable
 70
     0
  0
ENDTAB
  0
TABLE
  2
APPID
  5
9
330
0
100
AcDbSymbolTable
 70
    20
  0
APPID
  5
12
330
9
100
AcDbSymbolTableRecord
100
AcDbRegAppTableRecord
  2
ACAD
 70
     0
  0
APPID
  5
30
330
9
100
AcDbSymbolTableRecord
100
AcDbRegAppTableRecord
  2
MCAD_NO_VIS
 70
     0
  0
APPID
  5
31
330
9
100
AcDbSymbolTableRecord
100
AcDbRegAppTableRecord
  2
ACAD_TEMP_GRAPHIC
 70
     0
  0
APPID
  5
2C2
330
9
100
AcDbSymbolTableRecord
100
AcDbRegAppTableRecord
  2
GENIUS_GENDTOL_13
 70
     0
  0
APPID
  5
339
330
9
100
AcDbSymbolTableRecord
100
AcDbRegAppTableRecord
  2
GENIUS_GENODEF_13
 70
     0
  0
APPID
  5
33A
330
9
100
AcDbSymbolTableRecord
100
AcDbRegAppTableRecord
  2
GENIUS_GENOBJ-N-RSBK_13
 70
     0
  0
APPID
  5
33B
330
9
100
AcDbSymbolTableRecord
100
AcDbRegAppTableRecord
  2
GENIUS_GENOBJ-N-LIB_13
 70
     0
  0
APPID
  5
33C
330
9
100
AcDbSymbolTableRecord
100
AcDbRegAppTableRecord
  2
GENIUS_GENSCALE_13
 70
     0
  0
APPID
  5
378
330
9
100
AcDbSymbolTableRecord
100
AcDbRegAppTableRecord
  2
GENIUS_GENDIMSH_14
 70
     0
  0
APPID
  5
BD8
330
9
100
AcDbSymbolTableRecord
100
AcDbRegAppTableRecord
  2
GENIUS_GENOBJ-N-CEN_13
 70
     0
  0
APPID
  5
BD9
330
9
100
AcDbSymbolTableRecord
100
AcDbRegAppTableRecord
  2
GENIUS_GENFIL_13
 70
     0
  0
APPID
  5
BDA
330
9
100
AcDbSymbolTableRecord
100
AcDbRegAppTableRecord
  2
GENIUS_GENOBJ-N-CHA_13
 70
     0
  0
APPID
  5
2BC1
330
9
100
AcDbSymbolTableRecord
100
AcDbRegAppTableRecord
  2
GENIUS_GENOBJ-N-FIL_13
 70
     0
  0
APPID
  5
83F5
330
9
100
AcDbSymbolTableRecord
100
AcDbRegAppTableRecord
  2
AD_DRAW
 70
     0
  0
APPID
  5
83F8
330
9
100
AcDbSymbolTableRecord
100
AcDbRegAppTableRecord
  2
ACATTRIBSERVICES
 70
     0
  0
APPID
  5
8416
330
9
100
AcDbSymbolTableRecord
100
AcDbRegAppTableRecord
  2
DESIGNERASSEMBLIES
 70
     0
  0
APPID
  5
841B
330
9
100
AcDbSymbolTableRecord
100
AcDbRegAppTableRecord
  2
ACADM_DIM_EDIT
 70
     0
  0
APPID
  5
841C
330
9
100
AcDbSymbolTableRecord
100
AcDbRegAppTableRecord
  2
AMDT_DM_ADJ
 70
     0
  0
APPID
  5
8448
330
9
100
AcDbSymbolTableRecord
100
AcDbRegAppTableRecord
  2
GENIUS_GENSCREG_15
 70
     0
  0
APPID
  5
8449
330
9
100
AcDbSymbolTableRecord
100
AcDbRegAppTableRecord
  2
GENIUS_GENOBJ-N-SDF_13
 70
     0
  0
ENDTAB
  0
TABLE
  2
DIMSTYLE
  5
A
330
0
100
AcDbSymbolTable
 70
    17
100
AcDbDimStyleTable
 71
     1
340
58
  0
DIMSTYLE
105
58
102
{ACAD_REACTORS
330
7D89
330
7D88
330
7D8C
330
7D8E
330
7D8D
330
7D8B
330
7F50
102
}
330
A
100
AcDbSymbolTableRecord
100
AcDbDimStyleTableRecord
  2
AM_JIS
 70
     0
  4
"
 41
2.5
 42
1.0
 43
12.0
 44
1.0
 47
0.1
 48
0.1
 73
     0
 74
     0
 77
     3
 78
     8
140
3.2
141
0.0
143
0.0393701
146
0.71
147
1.5
172
     1
176
   256
177
   256
178
     2
271
     3
272
     3
283
     0
340
6B
341
59
342
59
  0
DIMSTYLE
105
B34
102
{ACAD_REACTORS
330
84EF
102
}
330
A
100
AcDbSymbolTableRecord
100
AcDbDimStyleTableRecord
  2
AM_JIS$2
 70
     0
  4
"
 41
2.5
 42
1.0
 43
12.0
 44
1.0
 47
0.1
 48
0.1
 73
     0
 74
     0
 77
     3
 78
     8
140
3.2
141
0.0
143
0.0393701
146
0.71
147
1.5
172
     1
176
   256
177
   256
178
     2
271
     3
272
     3
283
     0
340
6B
341
59
342
59
  0
DIMSTYLE
105
1E42
102
{ACAD_REACTORS
330
82AD
330
852C
102
}
330
A
100
AcDbSymbolTableRecord
100
AcDbDimStyleTableRecord
  2
AM_JIS$0
 70
     0
  4
"
 40
2.0
 41
2.5
 42
1.0
 43
10.0
 44
1.0
 47
0.1
 48
0.1
 73
     0
 74
     0
 77
     3
 78
     8
140
2.5
141
0.0
143
0.0393701
146
0.71
147
1.0
172
     1
176
   256
177
   256
178
     4
271
     3
272
     3
283
     0
340
6B
341
59
342
59
  0
DIMSTYLE
105
843F
330
A
100
AcDbSymbolTableRecord
100
AcDbDimStyleTableRecord
  2
AM_ISO
 70
     0
  4
"
 41
2.5
 42
1.0
 43
10.0
 44
1.0
 47
0.1
 48
0.1
 73
     0
 74
     0
 77
     1
 78
     8
 79
     2
140
3.5
141
0.0
143
0.0393701
146
0.71
147
1.5
172
     1
176
   256
177
   256
178
     2
271
     2
272
     3
274
     4
283
     0
284
     8
340
11
371
    -1
372
    -1
  0
DIMSTYLE
105
8440
330
A
100
AcDbSymbolTableRecord
100
AcDbDimStyleTableRecord
  2
AM_ISO$3
 70
     0
  4
"
 41
2.5
 42
1.0
 43
10.0
 44
1.0
 47
0.1
 48
0.1
 73
     0
 77
     1
 78
     8
 79
     2
140
3.5
141
0.0
143
0.0393701
146
0.71
147
1.5
176
   256
177
   256
178
     2
271
     2
272
     3
274
     4
283
     0
284
     8
288
     1
289
     0
340
11
371
    -1
372
    -1
  0
DIMSTYLE
105
8441
330
A
100
AcDbSymbolTableRecord
100
AcDbDimStyleTableRecord
  2
AM_ISO$4
 70
     0
  4
"
 41
2.5
 42
1.0
 43
10.0
 44
1.0
 47
0.1
 48
0.1
 73
     0
 77
     1
 78
     8
 79
     2
140
3.5
141
0.0
143
0.0393701
146
0.71
147
1.5
176
   256
177
   256
178
     2
271
     2
272
     3
274
     4
283
     0
284
     8
288
     1
289
     0
340
11
371
    -1
372
    -1
  0
DIMSTYLE
105
8442
330
A
100
AcDbSymbolTableRecord
100
AcDbDimStyleTableRecord
  2
AM_ISO$6
 70
     0
  4
"
 41
2.5
 42
1.0
 43
10.0
 44
1.0
 47
0.1
 48
0.1
 73
     0
 74
     0
 78
     8
 79
     2
140
3.5
141
0.0
143
0.0393701
146
0.71
147
1.5
172
     1
176
   256
177
   256
178
     2
271
     2
272
     3
274
     4
283
     0
284
     8
340
11
371
    -1
372
    -1
  0
DIMSTYLE
105
8443
330
A
100
AcDbSymbolTableRecord
100
AcDbDimStyleTableRecord
  2
AM_ISO$7
 70
     0
  4
"
 41
2.5
 42
1.0
 43
10.0
 44
1.0
 47
0.1
 48
0.1
 73
     0
 74
     0
 77
     1
 78
     8
 79
     2
140
5.0
141
0.0
143
0.0393701
146
0.71
147
1.5
172
     1
176
   256
177
   256
178
     2
271
     2
272
     3
274
     4
283
     0
284
     8
340
11
371
    -1
372
    -1
  0
DIMSTYLE
105
8444
330
A
100
AcDbSymbolTableRecord
100
AcDbDimStyleTableRecord
  2
AM_ISO$SF
 70
     0
  4
"
 41
2.5
 42
1.0
 43
10.0
 44
1.0
 47
0.1
 48
0.1
 73
     0
 74
     0
 75
     1
 76
     1
 77
     1
 78
     8
 79
     2
140
3.5
141
0.0
143
0.0393701
146
0.71
147
1.5
172
     1
176
   256
177
   256
178
     2
271
     2
272
     3
274
     4
283
     0
284
     8
340
11
371
    -1
372
    -1
  0
DIMSTYLE
105
8445
330
A
100
AcDbSymbolTableRecord
100
AcDbDimStyleTableRecord
  2
AM_ISO$SH
 70
     0
  4
"
 41
2.5
 42
1.0
 43
10.0
 44
1.0
 47
0.1
 48
0.1
 73
     0
 74
     0
 75
     1
 76
     1
 77
     1
 78
     8
 79
     2
140
3.5
141
0.0
143
0.0393701
144
2.0
146
0.71
147
1.5
172
     1
173
     1
176
   256
177
   256
178
     2
271
     2
272
     3
274
     4
283
     0
284
     8
340
11
343
64
371
    -1
372
    -1
  0
DIMSTYLE
105
844C
330
A
100
AcDbSymbolTableRecord
100
AcDbDimStyleTableRecord
  2
STANDARD
 70
     0
340
11
  0
ENDTAB
  0
TABLE
  2
BLOCK_RECORD
  5
1
330
0
100
AcDbSymbolTable
 70
    14
  0
BLOCK_RECORD
  5
1F
102
{ACAD_XDICTIONARY
360
74
102
}
330
1
100
AcDbSymbolTableRecord
100
AcDbBlockTableRecord
  2
*MODEL_SPACE
340
83BE
  0
BLOCK_RECORD
  5
101
102
{ACAD_XDICTIONARY
360
83B2
102
}
330
1
100
AcDbSymbolTableRecord
100
AcDbBlockTableRecord
  2
*PAPER_SPACE
340
83BF
  0
BLOCK_RECORD
  5
59
330
1
100
AcDbSymbolTableRecord
100
AcDbBlockTableRecord
  2
_OPEN30
340
0
102
{BLKREFS
331
8352
331
8353
331
835D
331
835E
331
80D8
331
80D9
331
80EA
331
80EB
331
80E1
331
80E2
331
80C6
331
80C7
331
80CF
331
80D0
331
81EF
331
81F0
331
8349
331
834A
331
8512
331
8513
331
855C
331
855D
102
}
  0
BLOCK_RECORD
  5
64
330
1
100
AcDbSymbolTableRecord
100
AcDbBlockTableRecord
  2
GENAXEH
340
0
  0
BLOCK_RECORD
  5
7D8F
330
1
100
AcDbSymbolTableRecord
100
AcDbBlockTableRecord
  2
*D2
340
0
  0
BLOCK_RECORD
  5
7D9B
330
1
100
AcDbSymbolTableRecord
100
AcDbBlockTableRecord
  2
*D3
340
0
  0
BLOCK_RECORD
  5
7DA7
330
1
100
AcDbSymbolTableRecord
100
AcDbBlockTableRecord
  2
*D4
340
0
  0
BLOCK_RECORD
  5
7DB5
330
1
100
AcDbSymbolTableRecord
100
AcDbBlockTableRecord
  2
*D5
340
0
  0
BLOCK_RECORD
  5
7DC1
330
1
100
AcDbSymbolTableRecord
100
AcDbBlockTableRecord
  2
*D6
340
0
  0
BLOCK_RECORD
  5
7DCD
330
1
100
AcDbSymbolTableRecord
100
AcDbBlockTableRecord
  2
*D7
340
0
  0
BLOCK_RECORD
  5
7F51
330
1
100
AcDbSymbolTableRecord
100
AcDbBlockTableRecord
  2
*D8
340
0
  0
BLOCK_RECORD
  5
82AE
330
1
100
AcDbSymbolTableRecord
100
AcDbBlockTableRecord
  2
*D10
340
0
  0
BLOCK_RECORD
  5
84F0
330
1
100
AcDbSymbolTableRecord
100
AcDbBlockTableRecord
  2
*D12
340
0
  0
BLOCK_RECORD
  5
852D
330
1
100
AcDbSymbolTableRecord
100
AcDbBlockTableRecord
  2
*D13
340
0
  0
ENDTAB
  0
ENDSEC
  0
SECTION
  2
BLOCKS
  0
BLOCK
  5
20
330
1F
100
AcDbEntity
  8
0
100
AcDbBlockBegin
  2
*MODEL_SPACE
 70
     0
 10
0.0
 20
0.0
 30
0.0
  3
*MODEL_SPACE
  1

  0
ENDBLK
  5
21
330
1F
100
AcDbEntity
  8
0
100
AcDbBlockEnd
  0
BLOCK
  5
103
330
101
100
AcDbEntity
 67
     1
  8
0
100
AcDbBlockBegin
  2
*PAPER_SPACE
 70
     0
 10
0.0
 20
0.0
 30
0.0
  3
*PAPER_SPACE
  1

  0
ENDBLK
  5
104
330
101
100
AcDbEntity
 67
     1
  8
0
100
AcDbBlockEnd
  0
BLOCK
  5
5D
330
59
100
AcDbEntity
  8
0
100
AcDbBlockBegin
  2
_OPEN30
 70
     0
 10
0.0
 20
0.0
 30
0.0
  3
_OPEN30
  1

  0
LINE
  5
5A
330
59
100
AcDbEntity
  8
0
 62
     0
100
AcDbLine
 10
-1.0
 20
0.26794919
 30
0.0
 11
0.0
 21
0.0
 31
0.0
  0
LINE
  5
5B
330
59
100
AcDbEntity
  8
0
 62
     0
100
AcDbLine
 10
0.0
 20
0.0
 30
0.0
 11
-1.0
 21
-0.26794919
 31
0.0
  0
LINE
  5
5C
330
59
100
AcDbEntity
  8
0
 62
     0
100
AcDbLine
 10
0.0
 20
0.0
 30
0.0
 11
-1.0
 21
0.0
 31
0.0
  0
ENDBLK
  5
5E
330
59
100
AcDbEntity
  8
0
100
AcDbBlockEnd
  0
BLOCK
  5
66
330
64
100
AcDbEntity
  8
0
100
AcDbBlockBegin
  2
GENAXEH
 70
     0
 10
0.0
 20
0.0
 30
0.0
  3
GENAXEH
  1

  0
LINE
  5
65
330
64
100
AcDbEntity
  8
0
100
AcDbLine
 10
-1.0
 20
0.0
 30
0.0
 11
1.0
 21
0.0
 31
0.0
  0
ENDBLK
  5
67
330
64
100
AcDbEntity
  8
0
100
AcDbBlockEnd
  0
BLOCK
  5
7D99
330
7D8F
100
AcDbEntity
  8
0
100
AcDbBlockBegin
  2
*D2
 70
     1
 10
0.0
 20
0.0
 30
0.0
  3
*D2
  1

  0
LINE
  5
834F
330
7D8F
100
AcDbEntity
  8
AM_5
100
AcDbLine
 10
-59.24648456429867
 20
15.875
 30
0.0
 11
-85.0
 21
15.87500000000001
 31
0.0
  0
LINE
  5
8350
330
7D8F
100
AcDbEntity
  8
AM_5
100
AcDbLine
 10
-59.50000000000001
 20
-15.875
 30
0.0
 11
-85.0
 21
-15.87499999999999
 31
0.0
  0
LINE
  5
8351
330
7D8F
100
AcDbEntity
  8
AM_5
100
AcDbLine
 10
-84.0
 20
13.375
 30
0.0
 11
-84.0
 21
-13.37499999999999
 31
0.0
  0
INSERT
  5
8352
330
7D8F
100
AcDbEntity
  8
AM_5
100
AcDbBlockReference
  2
_OPEN30
 10
-84.0
 20
15.875
 30
0.0
 41
2.5
 42
2.5
 43
2.5
 50
90.0
  0
INSERT
  5
8353
330
7D8F
100
AcDbEntity
  8
AM_5
100
AcDbBlockReference
  2
_OPEN30
 10
-84.0
 20
-15.87499999999999
 30
0.0
 41
2.5
 42
2.5
 43
2.5
 50
270.0
  0
MTEXT
  5
8354
330
7D8F
100
AcDbEntity
  8
AM_5
 62
     2
100
AcDbMText
 10
-87.09999999999999
 20
-0.000000000000006
 30
0.0
 40
3.2
 41
0.0
 71
     5
 72
     1
  1
%%c31.75
  7
ASAMI
 11
0.0000000000000001
 21
1.0
 31
0.0
 73
     1
 44
1.0
1001
ACAD
1000
MTEXTBEGIN
1070
    73
1070
     1
1070
    44
1040
1.0
1070
    74
1070
     0
1000
MTEXTEND
  0
POINT
  5
8355
330
7D8F
100
AcDbEntity
  8
DEFPOINTS
 62
     0
100
AcDbPoint
 10
-58.24648456429867
 20
15.875
 30
0.0
  0
POINT
  5
8356
330
7D8F
100
AcDbEntity
  8
DEFPOINTS
 62
     0
100
AcDbPoint
 10
-58.50000000000001
 20
-15.875
 30
0.0
  0
POINT
  5
8357
330
7D8F
100
AcDbEntity
  8
DEFPOINTS
 62
     0
100
AcDbPoint
 10
-84.0
 20
-15.87499999999999
 30
0.0
  0
ENDBLK
  5
7D9A
330
7D8F
100
AcDbEntity
  8
0
100
AcDbBlockEnd
  0
BLOCK
  5
7DA5
330
7D9B
100
AcDbEntity
  8
0
100
AcDbBlockBegin
  2
*D3
 70
     1
 10
0.0
 20
0.0
 30
0.0
  3
*D3
  1

  0
LINE
  5
8358
330
7D9B
100
AcDbEntity
  8
AM_5
100
AcDbLine
 10
-60.0
 20
6.349999999999994
 30
0.0
 11
-74.99999999999999
 21
6.349999999999997
 31
0.0
  0
LINE
  5
8359
330
7D9B
100
AcDbEntity
  8
AM_5
100
AcDbLine
 10
-60.0
 20
-6.349999999999994
 30
0.0
 11
-74.99999999999999
 21
-6.349999999999988
 31
0.0
  0
LINE
  5
835A
330
7D9B
100
AcDbEntity
  8
AM_5
100
AcDbLine
 10
-73.99999999999998
 20
8.849999999999997
 30
0.0
 11
-73.99999999999998
 21
11.34999999999999
 31
0.0
  0
LINE
  5
835B
330
7D9B
100
AcDbEntity
  8
AM_5
100
AcDbLine
 10
-73.99999999999998
 20
-8.84999999999999
 30
0.0
 11
-73.99999999999998
 21
-11.34999999999999
 31
0.0
  0
LINE
  5
835C
330
7D9B
100
AcDbEntity
  8
AM_5
100
AcDbLine
 10
-73.99999999999998
 20
6.349999999999997
 30
0.0
 11
-73.99999999999998
 21
-6.34999999999999
 31
0.0
  0
INSERT
  5
835D
330
7D9B
100
AcDbEntity
  8
AM_5
100
AcDbBlockReference
  2
_OPEN30
 10
-73.99999999999998
 20
6.349999999999997
 30
0.0
 41
2.5
 42
2.5
 43
2.5
 50
270.0
  0
INSERT
  5
835E
330
7D9B
100
AcDbEntity
  8
AM_5
100
AcDbBlockReference
  2
_OPEN30
 10
-73.99999999999998
 20
-6.34999999999999
 30
0.0
 41
2.5
 42
2.5
 43
2.5
 50
90.0
  0
MTEXT
  5
835F
330
7D9B
100
AcDbEntity
  8
AM_5
 62
     2
100
AcDbMText
 10
-77.09999999999998
 20
-0.0000000000000423
 30
0.0
 40
3.2
 41
0.0
 71
     5
 72
     1
  1
12.7
  7
ASAMI
 11
0.0000000000000001
 21
1.0
 31
0.0
 73
     1
 44
1.0
1001
ACAD
1000
MTEXTBEGIN
1070
    73
1070
     1
1070
    44
1040
1.0
1070
    74
1070
     0
1000
MTEXTEND
  0
POINT
  5
8360
330
7D9B
100
AcDbEntity
  8
DEFPOINTS
 62
     0
100
AcDbPoint
 10
-59.00000000000002
 20
6.349999999999994
 30
0.0
  0
POINT
  5
8361
330
7D9B
100
AcDbEntity
  8
DEFPOINTS
 62
     0
100
AcDbPoint
 10
-59.00000000000002
 20
-6.349999999999994
 30
0.0
  0
POINT
  5
8362
330
7D9B
100
AcDbEntity
  8
DEFPOINTS
 62
     0
100
AcDbPoint
 10
-73.99999999999998
 20
-6.34999999999999
 30
0.0
  0
ENDBLK
  5
7DA6
330
7D9B
100
AcDbEntity
  8
0
100
AcDbBlockEnd
  0
BLOCK
  5
7DB3
330
7DA7
100
AcDbEntity
  8
0
100
AcDbBlockBegin
  2
*D4
 70
     1
 10
0.0
 20
0.0
 30
0.0
  3
*D4
  1

  0
LINE
  5
80D5
330
7DA7
100
AcDbEntity
  8
AM_5
100
AcDbLine
 10
-60.0
 20
-36.5
 30
0.0
 11
-60.0
 21
-73.13154973203066
 31
0.0
  0
LINE
  5
80D6
330
7DA7
100
AcDbEntity
  8
AM_5
100
AcDbLine
 10
-51.99999999999989
 20
-6.349999999999972
 30
0.0
 11
-51.99999999999991
 21
-73.13154973203062
 31
0.0
  0
LINE
  5
80D7
330
7DA7
100
AcDbEntity
  8
AM_5
100
AcDbLine
 10
-57.5
 20
-72.13154973203066
 30
0.0
 11
-54.49999999999991
 21
-72.13154973203066
 31
0.0
  0
INSERT
  5
80D8
330
7DA7
100
AcDbEntity
  8
AM_5
100
AcDbBlockReference
  2
_OPEN30
 10
-60.0
 20
-72.13154973203066
 30
0.0
 41
2.5
 42
2.5
 43
2.5
 50
180.0
  0
INSERT
  5
80D9
330
7DA7
100
AcDbEntity
  8
AM_5
100
AcDbBlockReference
  2
_OPEN30
 10
-51.99999999999991
 20
-72.13154973203066
 30
0.0
 41
2.5
 42
2.5
 43
2.5
  0
MTEXT
  5
80DA
330
7DA7
100
AcDbEntity
  8
AM_5
 62
     2
100
AcDbMText
 10
-55.99999999999996
 20
-69.03154973203065
 30
0.0
 40
3.2
 41
0.0
 71
     5
 72
     1
  1
8
  7
ASAMI
 73
     1
 44
1.0
1001
ACAD
1000
MTEXTBEGIN
1070
    73
1070
     1
1070
    44
1040
1.0
1070
    74
1070
     0
1000
MTEXTEND
  0
POINT
  5
80DB
330
7DA7
100
AcDbEntity
  8
DEFPOINTS
 62
     0
100
AcDbPoint
 10
-60.0
 20
-35.5
 30
0.0
  0
POINT
  5
80DC
330
7DA7
100
AcDbEntity
  8
DEFPOINTS
 62
     0
100
AcDbPoint
 10
-51.99999999999989
 20
-5.349999999999971
 30
0.0
  0
POINT
  5
80DD
330
7DA7
100
AcDbEntity
  8
DEFPOINTS
 62
     0
100
AcDbPoint
 10
-51.99999999999991
 20
-72.13154973203066
 30
0.0
  0
ENDBLK
  5
7DB4
330
7DA7
100
AcDbEntity
  8
0
100
AcDbBlockEnd
  0
BLOCK
  5
7DBF
330
7DB5
100
AcDbEntity
  8
0
100
AcDbBlockBegin
  2
*D5
 70
     1
 10
0.0
 20
0.0
 30
0.0
  3
*D5
  1

  0
LINE
  5
80E7
330
7DB5
100
AcDbEntity
  8
AM_5
100
AcDbLine
 10
-60.0
 20
-36.5
 30
0.0
 11
-60.0
 21
-93.13154973203063
 31
0.0
  0
LINE
  5
80E8
330
7DB5
100
AcDbEntity
  8
AM_5
100
AcDbLine
 10
-0.0000000000592167
 20
-50.60773673210042
 30
0.0
 11
-0.0000000000592193
 21
-93.13154973203063
 31
0.0
  0
LINE
  5
80E9
330
7DB5
100
AcDbEntity
  8
AM_5
100
AcDbLine
 10
-57.5
 20
-92.13154973203064
 30
0.0
 11
-2.500000000059219
 21
-92.13154973203064
 31
0.0
  0
INSERT
  5
80EA
330
7DB5
100
AcDbEntity
  8
AM_5
100
AcDbBlockReference
  2
_OPEN30
 10
-60.0
 20
-92.13154973203064
 30
0.0
 41
2.5
 42
2.5
 43
2.5
 50
180.0
  0
INSERT
  5
80EB
330
7DB5
100
AcDbEntity
  8
AM_5
100
AcDbBlockReference
  2
_OPEN30
 10
-0.0000000000592192
 20
-92.13154973203064
 30
0.0
 41
2.5
 42
2.5
 43
2.5
  0
MTEXT
  5
80EC
330
7DB5
100
AcDbEntity
  8
AM_5
 62
     2
100
AcDbMText
 10
-30.00000000002961
 20
-89.03154973203065
 30
0.0
 40
3.2
 41
0.0
 71
     5
 72
     1
  1
60
  7
ASAMI
 73
     1
 44
1.0
1001
ACAD
1000
MTEXTBEGIN
1070
    73
1070
     1
1070
    44
1040
1.0
1070
    74
1070
     0
1000
MTEXTEND
  0
POINT
  5
80ED
330
7DB5
100
AcDbEntity
  8
DEFPOINTS
 62
     0
100
AcDbPoint
 10
-60.0
 20
-35.5
 30
0.0
  0
POINT
  5
80EE
330
7DB5
100
AcDbEntity
  8
DEFPOINTS
 62
     0
100
AcDbPoint
 10
-0.0000000000592166
 20
-49.60773673210042
 30
0.0
  0
POINT
  5
80EF
330
7DB5
100
AcDbEntity
  8
DEFPOINTS
 62
     0
100
AcDbPoint
 10
-0.0000000000592192
 20
-92.13154973203064
 30
0.0
  0
ENDBLK
  5
7DC0
330
7DB5
100
AcDbEntity
  8
0
100
AcDbBlockEnd
  0
BLOCK
  5
7DCB
330
7DC1
100
AcDbEntity
  8
0
100
AcDbBlockBegin
  2
*D6
 70
     1
 10
0.0
 20
0.0
 30
0.0
  3
*D6
  1

  0
LINE
  5
80DE
330
7DC1
100
AcDbEntity
  8
AM_5
100
AcDbLine
 10
-60.0
 20
-36.5
 30
0.0
 11
-60.0
 21
-83.13154973203067
 31
0.0
  0
LINE
  5
80DF
330
7DC1
100
AcDbEntity
  8
AM_5
100
AcDbLine
 10
-27.99999999999973
 20
-21.99999999999998
 30
0.0
 11
-27.99999999999973
 21
-83.13154973203067
 31
0.0
  0
LINE
  5
80E0
330
7DC1
100
AcDbEntity
  8
AM_5
100
AcDbLine
 10
-57.5
 20
-82.13154973203065
 30
0.0
 11
-30.49999999999973
 21
-82.13154973203065
 31
0.0
  0
INSERT
  5
80E1
330
7DC1
100
AcDbEntity
  8
AM_5
100
AcDbBlockReference
  2
_OPEN30
 10
-60.0
 20
-82.13154973203065
 30
0.0
 41
2.5
 42
2.5
 43
2.5
 50
180.0
  0
INSERT
  5
80E2
330
7DC1
100
AcDbEntity
  8
AM_5
100
AcDbBlockReference
  2
_OPEN30
 10
-27.99999999999973
 20
-82.13154973203065
 30
0.0
 41
2.5
 42
2.5
 43
2.5
  0
MTEXT
  5
80E3
330
7DC1
100
AcDbEntity
  8
AM_5
 62
     2
100
AcDbMText
 10
-43.99999999999987
 20
-79.03154973203065
 30
0.0
 40
3.2
 41
0.0
 71
     5
 72
     1
  1
32
  7
ASAMI
 73
     1
 44
1.0
1001
ACAD
1000
MTEXTBEGIN
1070
    73
1070
     1
1070
    44
1040
1.0
1070
    74
1070
     0
1000
MTEXTEND
  0
POINT
  5
80E4
330
7DC1
100
AcDbEntity
  8
DEFPOINTS
 62
     0
100
AcDbPoint
 10
-60.0
 20
-35.5
 30
0.0
  0
POINT
  5
80E5
330
7DC1
100
AcDbEntity
  8
DEFPOINTS
 62
     0
100
AcDbPoint
 10
-27.99999999999973
 20
-20.99999999999998
 30
0.0
  0
POINT
  5
80E6
330
7DC1
100
AcDbEntity
  8
DEFPOINTS
 62
     0
100
AcDbPoint
 10
-27.99999999999973
 20
-82.13154973203065
 30
0.0
  0
ENDBLK
  5
7DCC
330
7DC1
100
AcDbEntity
  8
0
100
AcDbBlockEnd
  0
BLOCK
  5
7DD9
330
7DCD
100
AcDbEntity
  8
0
100
AcDbBlockBegin
  2
*D7
 70
     1
 10
0.0
 20
0.0
 30
0.0
  3
*D7
  1

  0
LINE
  5
80C3
330
7DCD
100
AcDbEntity
  8
AM_5
100
AcDbLine
 10
-27.00000000000004
 20
20.99999999999999
 30
0.0
 11
17.2951561272234
 21
20.99999999999997
 31
0.0
  0
LINE
  5
80C4
330
7DCD
100
AcDbEntity
  8
AM_5
100
AcDbLine
 10
-26.99999999999973
 20
-20.99999999999998
 30
0.0
 11
17.29515612722339
 21
-21.0
 31
0.0
  0
LINE
  5
80C5
330
7DCD
100
AcDbEntity
  8
AM_5
100
AcDbLine
 10
16.2951561272234
 20
18.49999999999997
 30
0.0
 11
16.29515612722339
 21
-18.5
 31
0.0
  0
INSERT
  5
80C6
330
7DCD
100
AcDbEntity
  8
AM_5
100
AcDbBlockReference
  2
_OPEN30
 10
16.2951561272234
 20
20.99999999999997
 30
0.0
 41
2.5
 42
2.5
 43
2.5
 50
90.0
  0
INSERT
  5
80C7
330
7DCD
100
AcDbEntity
  8
AM_5
100
AcDbBlockReference
  2
_OPEN30
 10
16.29515612722339
 20
-21.0
 30
0.0
 41
2.5
 42
2.5
 43
2.5
 50
270.0
  0
MTEXT
  5
80C8
330
7DCD
100
AcDbEntity
  8
AM_5
 62
     2
100
AcDbMText
 10
13.19515612722339
 20
0.8750000000000003
 30
0.0
 40
3.2
 41
0.0
 71
     5
 72
     1
  1
%%c42
  7
ASAMI
 11
0.0000000000000001
 21
1.0
 31
0.0
 73
     1
 44
1.0
1001
ACAD
1000
MTEXTBEGIN
1070
    73
1070
     1
1070
    44
1040
1.0
1070
    74
1070
     0
1000
MTEXTEND
  0
POINT
  5
80C9
330
7DCD
100
AcDbEntity
  8
DEFPOINTS
 62
     0
100
AcDbPoint
 10
-28.00000000000004
 20
20.99999999999999
 30
0.0
  0
POINT
  5
80CA
330
7DCD
100
AcDbEntity
  8
DEFPOINTS
 62
     0
100
AcDbPoint
 10
-27.99999999999973
 20
-20.99999999999998
 30
0.0
  0
POINT
  5
80CB
330
7DCD
100
AcDbEntity
  8
DEFPOINTS
 62
     0
100
AcDbPoint
 10
16.29515612722339
 20
-21.0
 30
0.0
  0
ENDBLK
  5
7DDA
330
7DCD
100
AcDbEntity
  8
0
100
AcDbBlockEnd
  0
BLOCK
  5
7F5B
330
7F51
100
AcDbEntity
  8
0
100
AcDbBlockBegin
  2
*D8
 70
     1
 10
0.0
 20
0.0
 30
0.0
  3
*D8
  1

  0
LINE
  5
80CC
330
7F51
100
AcDbEntity
  8
AM_5
100
AcDbLine
 10
2.098731869887814
 20
50.0
 30
0.0
 11
27.29515612722341
 21
49.99999999999998
 31
0.0
  0
LINE
  5
80CD
330
7F51
100
AcDbEntity
  8
AM_5
100
AcDbLine
 10
2.098731869887088
 20
-50.00000000000041
 30
0.0
 11
27.2951561272234
 21
-50.00000000000042
 31
0.0
  0
LINE
  5
80CE
330
7F51
100
AcDbEntity
  8
AM_5
100
AcDbLine
 10
26.29515612722341
 20
47.49999999999998
 30
0.0
 11
26.2951561272234
 21
-47.50000000000041
 31
0.0
  0
INSERT
  5
80CF
330
7F51
100
AcDbEntity
  8
AM_5
100
AcDbBlockReference
  2
_OPEN30
 10
26.29515612722341
 20
49.99999999999998
 30
0.0
 41
2.5
 42
2.5
 43
2.5
 50
90.0
  0
INSERT
  5
80D0
330
7F51
100
AcDbEntity
  8
AM_5
100
AcDbBlockReference
  2
_OPEN30
 10
26.2951561272234
 20
-50.00000000000042
 30
0.0
 41
2.5
 42
2.5
 43
2.5
 50
270.0
  0
MTEXT
  5
80D1
330
7F51
100
AcDbEntity
  8
AM_5
 62
     2
100
AcDbMText
 10
23.19515612722339
 20
0.8750000000000003
 30
0.0
 40
3.2
 41
0.0
 71
     5
 72
     1
  1
%%c100
  7
ASAMI
 11
0.0000000000000001
 21
1.0
 31
0.0
 73
     1
 44
1.0
1001
ACAD
1000
MTEXTBEGIN
1070
    73
1070
     1
1070
    44
1040
1.0
1070
    74
1070
     0
1000
MTEXTEND
  0
POINT
  5
80D2
330
7F51
100
AcDbEntity
  8
DEFPOINTS
 62
     0
100
AcDbPoint
 10
1.098731869887814
 20
50.0
 30
0.0
  0
POINT
  5
80D3
330
7F51
100
AcDbEntity
  8
DEFPOINTS
 62
     0
100
AcDbPoint
 10
1.098731869887089
 20
-50.00000000000041
 30
0.0
  0
POINT
  5
80D4
330
7F51
100
AcDbEntity
  8
DEFPOINTS
 62
     0
100
AcDbPoint
 10
26.2951561272234
 20
-50.00000000000042
 30
0.0
  0
ENDBLK
  5
7F5C
330
7F51
100
AcDbEntity
  8
0
100
AcDbBlockEnd
  0
BLOCK
  5
82B8
330
82AE
100
AcDbEntity
  8
0
100
AcDbBlockBegin
  2
*D10
 70
     1
 10
0.0
 20
0.0
 30
0.0
  3
*D10
  1

  0
LINE
  5
8346
330
82AE
100
AcDbEntity
  8
AM_5
100
AcDbLine
 10
-59.00000000000002
 20
37.5
 30
0.0
 11
-94.99999999999992
 21
37.5
 31
0.0
  0
LINE
  5
8347
330
82AE
100
AcDbEntity
  8
AM_5
100
AcDbLine
 10
-59.00000000000002
 20
-37.5
 30
0.0
 11
-94.99999999999996
 21
-37.5
 31
0.0
  0
LINE
  5
8348
330
82AE
100
AcDbEntity
  8
AM_5
100
AcDbLine
 10
-93.99999999999993
 20
35.0
 30
0.0
 11
-93.99999999999996
 21
-35.0
 31
0.0
  0
INSERT
  5
8349
330
82AE
100
AcDbEntity
  8
AM_5
100
AcDbBlockReference
  2
_OPEN30
 10
-93.99999999999993
 20
37.5
 30
0.0
 41
2.5
 42
2.5
 43
2.5
 50
90.0
  0
INSERT
  5
834A
330
82AE
100
AcDbEntity
  8
AM_5
100
AcDbBlockReference
  2
_OPEN30
 10
-93.99999999999996
 20
-37.5
 30
0.0
 41
2.5
 42
2.5
 43
2.5
 50
270.0
  0
MTEXT
  5
834B
330
82AE
100
AcDbEntity
  8
AM_5
 62
     2
100
AcDbMText
 10
-97.09999999999993
 20
-0.0000000000000081
 30
0.0
 40
3.2
 41
0.0
 71
     5
 72
     1
  1
%%c75
  7
ASAMI
 11
0.0000000000000001
 21
1.0
 31
0.0
 73
     1
 44
1.0
1001
ACAD
1000
MTEXTBEGIN
1070
    73
1070
     1
1070
    44
1040
1.0
1070
    74
1070
     0
1000
MTEXTEND
  0
POINT
  5
834C
330
82AE
100
AcDbEntity
  8
DEFPOINTS
 62
     0
100
AcDbPoint
 10
-58.0
 20
37.5
 30
0.0
  0
POINT
  5
834D
330
82AE
100
AcDbEntity
  8
DEFPOINTS
 62
     0
100
AcDbPoint
 10
-58.0
 20
-37.5
 30
0.0
  0
POINT
  5
834E
330
82AE
100
AcDbEntity
  8
DEFPOINTS
 62
     0
100
AcDbPoint
 10
-93.99999999999996
 20
-37.5
 30
0.0
  0
ENDBLK
  5
82B9
330
82AE
100
AcDbEntity
  8
0
100
AcDbBlockEnd
  0
BLOCK
  5
851B
330
84F0
100
AcDbEntity
  8
0
100
AcDbBlockBegin
  2
*D12
 70
     1
 10
0.0
 20
0.0
 30
0.0
  3
*D12
  1

  0
LINE
  5
850F
330
84F0
100
AcDbEntity
  8
AM_5
100
AcDbLine
 10
-0.9032523270303123
 20
-51.34284202250751
 30
0.0
 11
-23.9942197012487
 21
-62.31271218166707
 31
0.0
  0
LINE
  5
8510
330
84F0
100
AcDbEntity
  8
AM_5
100
AcDbLine
 10
-0.0000000000000178
 20
-51.91373220705888
 30
0.0
 11
-0.0000000000000213
 21
-77.47798118069468
 31
0.0
  0
ARC
  5
8511
330
84F0
100
AcDbEntity
  8
AM_5
100
AcDbCircle
 10
-0.0000000000000142
 20
-50.91373220705889
 30
0.0
 40
25.56424897363579
100
AcDbArc
 50
211.0164310256549
 51
264.3946490280566
  0
INSERT
  5
8512
330
84F0
100
AcDbEntity
  8
AM_5
100
AcDbBlockReference
  2
_OPEN30
 10
-23.09096737421841
 20
-61.88360236621845
 30
0.0
 41
2.5
 42
2.5
 43
2.5
 50
118.2137555396832
  0
INSERT
  5
8513
330
84F0
100
AcDbEntity
  8
AM_5
100
AcDbBlockReference
  2
_OPEN30
 10
-0.0000000000000142
 20
-76.47798118069466
 30
0.0
 41
2.5
 42
2.5
 43
2.5
 50
357.1973245140283
  0
MTEXT
  5
8514
330
84F0
100
AcDbEntity
  8
AM_5
 62
     2
100
AcDbMText
 10
-12.00198816139668
 20
-69.90306505798312
 30
0.0
 40
3.2
 41
0.0
 71
     5
 72
     1
  1
65°
  7
ASAMI
 11
0.8453134967124997
 21
-0.5342706170806017
 31
0.0
 73
     1
 44
1.0
1001
ACAD
1000
MTEXTBEGIN
1070
    73
1070
     1
1070
    44
1040
1.0
1070
    74
1070
     0
1000
MTEXTEND
  0
POINT
  5
8515
330
84F0
100
AcDbEntity
  8
DEFPOINTS
 62
     0
100
AcDbPoint
 10
-17.45411051976042
 20
-69.59219176747305
 30
0.0
  0
POINT
  5
8516
330
84F0
100
AcDbEntity
  8
DEFPOINTS
 62
     0
100
AcDbPoint
 10
-0.0000000000000142
 20
-50.91373220705889
 30
0.0
  0
POINT
  5
8517
330
84F0
100
AcDbEntity
  8
DEFPOINTS
 62
     0
100
AcDbPoint
 10
-0.0000000000000036
 20
49.60773673202993
 30
0.0
  0
POINT
  5
8518
330
84F0
100
AcDbEntity
  8
DEFPOINTS
 62
     0
100
AcDbPoint
 10
-0.0000000000000142
 20
-49.6077367320304
 30
0.0
  0
POINT
  5
8519
330
84F0
100
AcDbEntity
  8
DEFPOINTS
 62
     0
100
AcDbPoint
 10
270.975698109089
 20
77.819212427529
 30
0.0
  0
ENDBLK
  5
851C
330
84F0
100
AcDbEntity
  8
0
100
AcDbBlockEnd
  0
BLOCK
  5
8543
330
852D
100
AcDbEntity
  8
0
100
AcDbBlockBegin
  2
*D13
 70
     1
 10
0.0
 20
0.0
 30
0.0
  3
*D13
  1

  0
LINE
  5
8559
330
852D
100
AcDbEntity
  8
AM_5
370
    -2
100
AcDbLine
 10
-35.15999999999997
 20
59.087879
 30
0.0
 11
37.2951561272234
 21
59.08787899999998
 31
0.0
  0
LINE
  5
855A
330
852D
100
AcDbEntity
  8
AM_5
370
    -2
100
AcDbLine
 10
-35.15999999999997
 20
-59.087879
 30
0.0
 11
37.29515612722337
 21
-59.08787900000002
 31
0.0
  0
LINE
  5
855B
330
852D
100
AcDbEntity
  8
AM_5
370
    -2
100
AcDbLine
 10
36.2951561272234
 20
56.58787899999998
 30
0.0
 11
36.29515612722336
 21
-56.58787900000002
 31
0.0
  0
INSERT
  5
855C
330
852D
100
AcDbEntity
  8
AM_5
370
    -2
100
AcDbBlockReference
  2
_OPEN30
 10
36.2951561272234
 20
59.08787899999998
 30
0.0
 41
2.5
 42
2.5
 43
2.5
 50
90.0
  0
INSERT
  5
855D
330
852D
100
AcDbEntity
  8
AM_5
370
    -2
100
AcDbBlockReference
  2
_OPEN30
 10
36.29515612722336
 20
-59.08787900000002
 30
0.0
 41
2.5
 42
2.5
 43
2.5
 50
270.0
  0
MTEXT
  5
855E
330
852D
100
AcDbEntity
  8
AM_5
 62
     2
100
AcDbMText
 10
33.19515612722338
 20
-0.0000000000000161
 30
0.0
 40
3.2
 41
0.0
 71
     5
 72
     1
  1
%%c118.18
  7
ASAMI
 11
0.0000000000000001
 21
1.0
 31
0.0
 73
     1
 44
1.0
1001
ACAD
1000
MTEXTBEGIN
1070
    73
1070
     1
1070
    44
1040
1.0
1070
    74
1070
     0
1000
MTEXTEND
  0
POINT
  5
855F
330
852D
100
AcDbEntity
  8
DEFPOINTS
 62
     0
100
AcDbPoint
 10
-36.15999999999997
 20
59.087879
 30
0.0
  0
POINT
  5
8560
330
852D
100
AcDbEntity
  8
DEFPOINTS
 62
     0
100
AcDbPoint
 10
-36.15999999999997
 20
-59.087879
 30
0.0
  0
POINT
  5
8561
330
852D
100
AcDbEntity
  8
DEFPOINTS
 62
     0
100
AcDbPoint
 10
36.29515612722336
 20
-59.08787900000002
 30
0.0
  0
ENDBLK
  5
8544
330
852D
100
AcDbEntity
  8
0
100
AcDbBlockEnd
  0
ENDSEC
  0
SECTION
  2
ENTITIES
  0
TEXT
  5
E5A
330
1F
100
AcDbEntity
  8
AM_6
100
AcDbText
 10
-47.97619047622008
 20
-114.6315497320306
 30
0.0
 40
5.0
  1
DNF4100R
 72
     4
 11
-30.0000000000296
 21
-112.1315497320306
 31
0.0
100
AcDbText
  0
LINE
  5
70F7
330
1F
100
AcDbEntity
  8
AM_0
100
AcDbLine
 10
-47.39719767662019
 20
56.51763809020504
 30
0.0
 11
-52.09576076821789
 21
38.98236190979494
 31
0.0
  0
LINE
  5
70F8
330
1F
100
AcDbEntity
  8
AM_0
100
AcDbLine
 10
-58.50000000000001
 20
15.875
 30
0.0
 11
-29.00000000000004
 21
15.875
 31
0.0
  0
LINE
  5
70F9
330
1F
100
AcDbEntity
  8
AM_7
100
AcDbLine
 10
-64.32409533116821
 20
0.0
 30
0.0
 11
2.295155127223395
 21
0.0
 31
0.0
  0
LINE
  5
70FA
330
1F
100
AcDbEntity
  8
AM_0
100
AcDbLine
 10
-60.0
 20
35.5
 30
0.0
 11
-60.0
 21
7.349999999999994
 31
0.0
  0
LINE
  5
70FB
330
1F
100
AcDbEntity
  8
AM_0
100
AcDbLine
 10
-59.00000000000002
 20
6.349999999999994
 30
0.0
 11
-52.9999999999999
 21
6.349999999999994
 31
0.0
  0
LINE
  5
70FC
330
1F
100
AcDbEntity
  8
AM_0
100
AcDbLine
 10
-51.99999999999989
 20
5.349999999999971
 30
0.0
 11
-51.99999999999999
 21
0.0
 31
0.0
  0
LINE
  5
70FD
330
1F
100
AcDbEntity
  8
AM_0
100
AcDbLine
 10
-58.0
 20
37.5
 30
0.0
 11
-54.02761242079602
 21
37.5
 31
0.0
  0
LINE
  5
70FE
330
1F
100
AcDbEntity
  8
AM_0
100
AcDbLine
 10
-9.599999999999953
 20
24.74441644503583
 30
0.0
 11
-9.599999999999953
 21
0.0
 31
0.0
  0
LINE
  5
70FF
330
1F
100
AcDbEntity
  8
AM_11
100
AcDbLine
 10
-28.00000000000004
 20
20.99999999999999
 30
0.0
 11
-28.00000000000004
 21
20.32872029505817
 31
0.0
  0
LINE
  5
7100
330
1F
100
AcDbEntity
  8
AM_11
100
AcDbLine
 10
-28.00000000000004
 20
20.99999999999999
 30
0.0
 11
-27.33891854213358
 21
21.11656649746793
 31
0.0
  0
LINE
  5
7101
330
1F
100
AcDbEntity
  8
AM_0
100
AcDbLine
 10
-9.599999999999953
 20
29.04022321886975
 30
0.0
 11
-9.599999999999953
 21
24.74441644503583
 31
0.0
  0
LINE
  5
7102
330
1F
100
AcDbEntity
  8
AM_0
100
AcDbLine
 10
-10.09999999999983
 20
29.04022321886975
 30
0.0
 11
-9.599999999999836
 21
29.04022321886975
 31
0.0
  0
LINE
  5
7103
330
1F
100
AcDbEntity
  8
AM_0
100
AcDbLine
 10
-10.09999999999995
 20
32.04022321887006
 30
0.0
 11
-10.09999999999983
 21
29.04022321886975
 31
0.0
  0
LINE
  5
7105
330
1F
100
AcDbEntity
  8
AM_0
100
AcDbLine
 10
-45.46534602404206
 20
58.0
 30
0.0
 11
-36.6600000000001
 21
57.99999999999998
 31
0.0
  0
ARC
  5
7D40
330
1F
100
AcDbEntity
  8
AM_0
100
AcDbCircle
 10
-45.46534602404206
 20
56.0
 30
0.0
 40
2.0
100
AcDbArc
 50
90.0
 51
164.9999999999996
1001
GENIUS_GENODEF_13
1002
{
1000
HIER
1070
     0
1002
}
1002
{
1000
MANEDIT
1070
     0
1002
}
1002
{
1000
NOSEL
1070
     0
1002
}
1002
{
1000
BEHIND
1070
     0
1002
}
1002
{
1000
REACTOR
1002
}
1001
GENIUS_GENOBJ-N-FIL_13
1002
{
1000
OWNER
1000
GEN
1002
}
  0
ARC
  5
7D43
330
1F
100
AcDbEntity
  8
AM_0
100
AcDbCircle
 10
-54.02761242079602
 20
39.5
 30
0.0
 40
2.0
100
AcDbArc
 50
270.0
 51
344.9999999999997
1001
GENIUS_GENODEF_13
1002
{
1000
HIER
1070
     0
1002
}
1002
{
1000
MANEDIT
1070
     0
1002
}
1002
{
1000
NOSEL
1070
     0
1002
}
1002
{
1000
BEHIND
1070
     0
1002
}
1002
{
1000
REACTOR
1002
}
1001
GENIUS_GENOBJ-N-FIL_13
1002
{
1000
OWNER
1000
GEN
1002
}
  0
ARC
  5
7D46
330
1F
100
AcDbEntity
  8
AM_0
100
AcDbCircle
 10
-52.9999999999999
 20
5.349999999999994
 30
0.0
 40
1.0
100
AcDbArc
 50
359.9999999999988
 51
90.0
1001
GENIUS_GENODEF_13
1002
{
1000
HIER
1070
     0
1002
}
1002
{
1000
MANEDIT
1070
     0
1002
}
1002
{
1000
NOSEL
1070
     0
1002
}
1002
{
1000
BEHIND
1070
     0
1002
}
1002
{
1000
REACTOR
1002
}
1001
GENIUS_GENOBJ-N-FIL_13
1002
{
1000
OWNER
1000
GEN
1002
}
  0
ARC
  5
7D4B
330
1F
100
AcDbEntity
  8
AM_0
100
AcDbCircle
 10
-27.20000000000004
 20
20.32872029505817
 30
0.0
 40
0.8
100
AcDbArc
 50
100.0000000000001
 51
180.0
1001
GENIUS_GENODEF_13
1002
{
1000
HIER
1070
     0
1002
}
1002
{
1000
MANEDIT
1070
     0
1002
}
1002
{
1000
NOSEL
1070
     0
1002
}
1002
{
1000
BEHIND
1070
     0
1002
}
1002
{
1000
REACTOR
1002
}
1001
GENIUS_GENOBJ-N-FIL_13
1002
{
1000
OWNER
1000
GEN
1002
}
  0
LINE
  5
7D4E
330
1F
100
AcDbEntity
  8
AM_0
100
AcDbLine
 10
-9.599999999999953
 20
24.74441644503583
 30
0.0
 11
-10.09240387650605
 21
24.15759235620236
 31
0.0
1001
GENIUS_GENFIL_13
1070
     0
1040
0.5
1040
0.5
1040
20.0
1040
0.0
1002
{
1002
}
1001
GENIUS_GENODEF_13
1002
{
1000
HIER
1070
     0
1002
}
1002
{
1000
MANEDIT
1070
     0
1002
}
1002
{
1000
NOSEL
1070
     0
1002
}
1002
{
1000
BEHIND
1070
     0
1002
}
1002
{
1000
REACTOR
1002
}
1001
GENIUS_GENOBJ-N-CHA_13
1002
{
1000
OWNER
1000
GEN
1002
}
  0
LINE
  5
7D57
330
1F
100
AcDbEntity
  8
AM_0
100
AcDbLine
 10
-28.00000000000004
 20
16.875
 30
0.0
 11
-29.00000000000004
 21
15.875
 31
0.0
1001
GENIUS_GENFIL_13
1070
     0
1040
1.0
1040
1.0
1040
20.0
1040
0.0
1002
{
1002
}
1001
GENIUS_GENODEF_13
1002
{
1000
HIER
1070
     0
1002
}
1002
{
1000
MANEDIT
1070
     0
1002
}
1002
{
1000
NOSEL
1070
     0
1002
}
1002
{
1000
BEHIND
1070
     0
1002
}
1002
{
1000
REACTOR
1002
}
1001
GENIUS_GENOBJ-N-CHA_13
1002
{
1000
OWNER
1000
GEN
1002
}
  0
LINE
  5
7D58
330
1F
100
AcDbEntity
  8
AM_0
100
AcDbLine
 10
-29.00000000000004
 20
15.875
 30
0.0
 11
-29.00000000000004
 21
0.0
 31
0.0
  0
LINE
  5
7D5B
330
1F
100
AcDbEntity
  8
AM_0
100
AcDbLine
 10
-58.0
 20
37.5
 30
0.0
 11
-60.0
 21
35.5
 31
0.0
1001
GENIUS_GENFIL_13
1070
     0
1040
2.0
1040
2.0
1040
20.0
1040
0.0
1002
{
1002
}
1001
GENIUS_GENODEF_13
1002
{
1000
HIER
1070
     0
1002
}
1002
{
1000
MANEDIT
1070
     0
1002
}
1002
{
1000
NOSEL
1070
     0
1002
}
1002
{
1000
BEHIND
1070
     0
1002
}
1002
{
1000
REACTOR
1002
}
1001
GENIUS_GENOBJ-N-CHA_13
1002
{
1000
OWNER
1000
GEN
1002
}
  0
LINE
  5
7D5E
330
1F
100
AcDbEntity
  8
AM_0
100
AcDbLine
 10
-58.50000000000001
 20
15.875
 30
0.0
 11
-60.0
 21
17.375
 31
0.0
1001
GENIUS_GENFIL_13
1070
     0
1040
1.5
1040
1.5
1040
20.0
1040
0.0
1002
{
1002
}
1001
GENIUS_GENODEF_13
1002
{
1000
HIER
1070
     0
1002
}
1002
{
1000
MANEDIT
1070
     0
1002
}
1002
{
1000
NOSEL
1070
     0
1002
}
1002
{
1000
BEHIND
1070
     0
1002
}
1002
{
1000
REACTOR
1002
}
1001
GENIUS_GENOBJ-N-CHA_13
1002
{
1000
OWNER
1000
GEN
1002
}
  0
LINE
  5
7D61
330
1F
100
AcDbEntity
  8
AM_0
100
AcDbLine
 10
-59.00000000000002
 20
6.349999999999994
 30
0.0
 11
-60.0
 21
7.349999999999994
 31
0.0
1001
GENIUS_GENFIL_13
1070
     0
1040
1.0
1040
1.0
1040
20.0
1040
0.0
1002
{
1002
}
1001
GENIUS_GENODEF_13
1002
{
1000
HIER
1070
     0
1002
}
1002
{
1000
MANEDIT
1070
     0
1002
}
1002
{
1000
NOSEL
1070
     0
1002
}
1002
{
1000
BEHIND
1070
     0
1002
}
1002
{
1000
REACTOR
1002
}
1001
GENIUS_GENOBJ-N-CHA_13
1002
{
1000
OWNER
1000
GEN
1002
}
  0
LINE
  5
7D62
330
1F
100
AcDbEntity
  8
AM_0
100
AcDbLine
 10
-58.50000000000001
 20
15.875
 30
0.0
 11
-58.50000000000001
 21
6.349999999999994
 31
0.0
  0
LINE
  5
7D64
330
1F
100
AcDbEntity
  8
AM_0
100
AcDbLine
 10
-58.50000000000001
 20
-15.875
 30
0.0
 11
-58.50000000000001
 21
-6.349999999999994
 31
0.0
  0
LINE
  5
7D65
330
1F
100
AcDbEntity
  8
AM_0
100
AcDbLine
 10
-60.0
 20
-35.5
 30
0.0
 11
-60.0
 21
-7.349999999999994
 31
0.0
  0
LINE
  5
7D66
330
1F
100
AcDbEntity
  8
AM_0
100
AcDbLine
 10
-29.00000000000004
 20
-15.87500000000001
 30
0.0
 11
-29.00000000000004
 21
0.0
 31
0.0
  0
LINE
  5
7D67
330
1F
100
AcDbEntity
  8
AM_0
100
AcDbLine
 10
-28.00000000000004
 20
-20.32872029505817
 30
0.0
 11
-28.00000000000004
 21
0.0000000000000071
 31
0.0
  0
LINE
  5
7D68
330
1F
100
AcDbEntity
  8
AM_0
100
AcDbLine
 10
-9.599999999999953
 20
-24.74441644503583
 30
0.0
 11
-9.599999999999953
 21
0.0
 31
0.0
  0
LINE
  5
7D69
330
1F
100
AcDbEntity
  8
AM_0
100
AcDbLine
 10
-2.099999999999937
 20
-43.5741923067299
 30
0.0
 11
-2.09999999999995
 21
0.0
 31
0.0
  0
ARC
  5
7D6A
330
1F
100
AcDbEntity
  8
AM_0
100
AcDbCircle
 10
-52.9999999999999
 20
-5.349999999999994
 30
0.0
 40
1.0
100
AcDbArc
 50
270.0
 51
0.0000000000010318
1001
GENIUS_GENODEF_13
1002
{
1000
HIER
1070
     0
1002
}
1002
{
1000
MANEDIT
1070
     0
1002
}
1002
{
1000
NOSEL
1070
     0
1002
}
1002
{
1000
BEHIND
1070
     0
1002
}
1002
{
1000
REACTOR
1002
}
1001
GENIUS_GENOBJ-N-FIL_13
1002
{
1000
OWNER
1000
GEN
1002
}
  0
LINE
  5
7D6B
330
1F
100
AcDbEntity
  8
AM_0
100
AcDbLine
 10
-59.00000000000002
 20
-6.349999999999994
 30
0.0
 11
-60.0
 21
-7.349999999999994
 31
0.0
1001
GENIUS_GENFIL_13
1070
     0
1040
1.0
1040
1.0
1040
20.0
1040
0.0
1002
{
1002
}
1001
GENIUS_GENODEF_13
1002
{
1000
HIER
1070
     0
1002
}
1002
{
1000
MANEDIT
1070
     0
1002
}
1002
{
1000
NOSEL
1070
     0
1002
}
1002
{
1000
BEHIND
1070
     0
1002
}
1002
{
1000
REACTOR
1002
}
1001
GENIUS_GENOBJ-N-CHA_13
1002
{
1000
OWNER
1000
GEN
1002
}
  0
LINE
  5
7D6C
330
1F
100
AcDbEntity
  8
AM_0
100
AcDbLine
 10
-59.00000000000002
 20
-6.349999999999994
 30
0.0
 11
-52.9999999999999
 21
-6.349999999999994
 31
0.0
  0
LINE
  5
7D6D
330
1F
100
AcDbEntity
  8
AM_0
100
AcDbLine
 10
-51.99999999999989
 20
-5.349999999999971
 30
0.0
 11
-51.99999999999999
 21
0.0
 31
0.0
  0
LINE
  5
7D6F
330
1F
100
AcDbEntity
  8
AM_0
100
AcDbLine
 10
-27.33891854213358
 20
-21.11656649746795
 30
0.0
 11
-10.09240387650605
 21
-24.15759235620236
 31
0.0
  0
LINE
  5
7D70
330
1F
100
AcDbEntity
  8
AM_0
100
AcDbLine
 10
-47.39719767662019
 20
-56.51763809020504
 30
0.0
 11
-52.09576076821789
 21
-38.98236190979494
 31
0.0
  0
LINE
  5
7D71
330
1F
100
AcDbEntity
  8
AM_0
100
AcDbLine
 10
-58.50000000000001
 20
-15.875
 30
0.0
 11
-29.00000000000004
 21
-15.87500000000001
 31
0.0
  0
ARC
  5
7D72
330
1F
100
AcDbEntity
  8
AM_0
100
AcDbCircle
 10
-54.02761242079602
 20
-39.5
 30
0.0
 40
2.0
100
AcDbArc
 50
15.0000000000003
 51
90.00000000000005
1001
GENIUS_GENODEF_13
1002
{
1000
HIER
1070
     0
1002
}
1002
{
1000
MANEDIT
1070
     0
1002
}
1002
{
1000
NOSEL
1070
     0
1002
}
1002
{
1000
BEHIND
1070
     0
1002
}
1002
{
1000
REACTOR
1002
}
1001
GENIUS_GENOBJ-N-FIL_13
1002
{
1000
OWNER
1000
GEN
1002
}
  0
LINE
  5
7D73
330
1F
100
AcDbEntity
  8
AM_0
100
AcDbLine
 10
-58.50000000000001
 20
-15.875
 30
0.0
 11
-60.0
 21
-17.375
 31
0.0
1001
GENIUS_GENFIL_13
1070
     0
1040
1.5
1040
1.5
1040
20.0
1040
0.0
1002
{
1002
}
1001
GENIUS_GENODEF_13
1002
{
1000
HIER
1070
     0
1002
}
1002
{
1000
MANEDIT
1070
     0
1002
}
1002
{
1000
NOSEL
1070
     0
1002
}
1002
{
1000
BEHIND
1070
     0
1002
}
1002
{
1000
REACTOR
1002
}
1001
GENIUS_GENOBJ-N-CHA_13
1002
{
1000
OWNER
1000
GEN
1002
}
  0
LINE
  5
7D74
330
1F
100
AcDbEntity
  8
AM_0
100
AcDbLine
 10
-58.0
 20
-37.5
 30
0.0
 11
-60.0
 21
-35.5
 31
0.0
1001
GENIUS_GENFIL_13
1070
     0
1040
2.0
1040
2.0
1040
20.0
1040
0.0
1002
{
1002
}
1001
GENIUS_GENODEF_13
1002
{
1000
HIER
1070
     0
1002
}
1002
{
1000
MANEDIT
1070
     0
1002
}
1002
{
1000
NOSEL
1070
     0
1002
}
1002
{
1000
BEHIND
1070
     0
1002
}
1002
{
1000
REACTOR
1002
}
1001
GENIUS_GENOBJ-N-CHA_13
1002
{
1000
OWNER
1000
GEN
1002
}
  0
LINE
  5
7D75
330
1F
100
AcDbEntity
  8
AM_0
100
AcDbLine
 10
-58.0
 20
-37.5
 30
0.0
 11
-54.02761242079602
 21
-37.5
 31
0.0
  0
LINE
  5
7D76
330
1F
100
AcDbEntity
  8
AM_0
100
AcDbLine
 10
-28.00000000000004
 20
-16.875
 30
0.0
 11
-29.00000000000004
 21
-15.87500000000001
 31
0.0
1001
GENIUS_GENFIL_13
1070
     0
1040
1.0
1040
1.0
1040
20.0
1040
0.0
1002
{
1002
}
1001
GENIUS_GENODEF_13
1002
{
1000
HIER
1070
     0
1002
}
1002
{
1000
MANEDIT
1070
     0
1002
}
1002
{
1000
NOSEL
1070
     0
1002
}
1002
{
1000
BEHIND
1070
     0
1002
}
1002
{
1000
REACTOR
1002
}
1001
GENIUS_GENOBJ-N-CHA_13
1002
{
1000
OWNER
1000
GEN
1002
}
  0
ARC
  5
7D77
330
1F
100
AcDbEntity
  8
AM_0
100
AcDbCircle
 10
-27.20000000000004
 20
-20.32872029505817
 30
0.0
 40
0.8
100
AcDbArc
 50
180.0
 51
259.9999999999998
1001
GENIUS_GENODEF_13
1002
{
1000
HIER
1070
     0
1002
}
1002
{
1000
MANEDIT
1070
     0
1002
}
1002
{
1000
NOSEL
1070
     0
1002
}
1002
{
1000
BEHIND
1070
     0
1002
}
1002
{
1000
REACTOR
1002
}
1001
GENIUS_GENOBJ-N-FIL_13
1002
{
1000
OWNER
1000
GEN
1002
}
  0
LINE
  5
7D78
330
1F
100
AcDbEntity
  8
AM_0
100
AcDbLine
 10
-45.46534602404206
 20
-58.0
 30
0.0
 11
-36.6600000000001
 21
-57.99999999999998
 31
0.0
  0
ARC
  5
7D79
330
1F
100
AcDbEntity
  8
AM_0
100
AcDbCircle
 10
-45.46534602404206
 20
-56.0
 30
0.0
 40
2.0
100
AcDbArc
 50
195.0000000000002
 51
270.0
1001
GENIUS_GENODEF_13
1002
{
1000
HIER
1070
     0
1002
}
1002
{
1000
MANEDIT
1070
     0
1002
}
1002
{
1000
NOSEL
1070
     0
1002
}
1002
{
1000
BEHIND
1070
     0
1002
}
1002
{
1000
REACTOR
1002
}
1001
GENIUS_GENOBJ-N-FIL_13
1002
{
1000
OWNER
1000
GEN
1002
}
  0
LINE
  5
7D82
330
1F
100
AcDbEntity
  8
AM_0
100
AcDbLine
 10
-10.09999999999995
 20
-32.04022321887006
 30
0.0
 11
-10.09999999999983
 21
-29.04022321886975
 31
0.0
  0
LINE
  5
7D83
330
1F
100
AcDbEntity
  8
AM_0
100
AcDbLine
 10
-9.599999999999953
 20
-29.04022321886975
 30
0.0
 11
-9.599999999999953
 21
-24.74441644503583
 31
0.0
  0
LINE
  5
7D84
330
1F
100
AcDbEntity
  8
AM_0
100
AcDbLine
 10
-9.599999999999953
 20
-24.74441644503583
 30
0.0
 11
-10.09240387650605
 21
-24.15759235620236
 31
0.0
1001
GENIUS_GENFIL_13
1070
     0
1040
0.5
1040
0.5
1040
20.0
1040
0.0
1002
{
1002
}
1001
GENIUS_GENODEF_13
1002
{
1000
HIER
1070
     0
1002
}
1002
{
1000
MANEDIT
1070
     0
1002
}
1002
{
1000
NOSEL
1070
     0
1002
}
1002
{
1000
BEHIND
1070
     0
1002
}
1002
{
1000
REACTOR
1002
}
1001
GENIUS_GENOBJ-N-CHA_13
1002
{
1000
OWNER
1000
GEN
1002
}
  0
LINE
  5
7D85
330
1F
100
AcDbEntity
  8
AM_0
100
AcDbLine
 10
-10.09999999999983
 20
-29.04022321886975
 30
0.0
 11
-9.599999999999836
 21
-29.04022321886975
 31
0.0
  0
DIMENSION
  5
7D88
330
1F
100
AcDbEntity
  8
AM_5
100
AcDbDimension
  2
*D3
 10
-73.99999999999998
 20
-6.34999999999999
 30
0.0
 11
-73.99999999999998
 21
-0.0000000000000426
 31
0.0
 70
   160
 71
     5
 42
-1.0
  3
AM_JIS
100
AcDbAlignedDimension
 13
-59.00000000000002
 23
6.349999999999994
 33
0.0
 14
-59.00000000000002
 24
-6.349999999999994
 34
0.0
 50
90.0
100
AcDbRotatedDimension
  0
DIMENSION
  5
7D89
330
1F
100
AcDbEntity
  8
AM_5
100
AcDbDimension
  2
*D2
 10
-84.0
 20
-15.87499999999999
 30
0.0
 11
-87.09999999999999
 21
-0.000000000000006
 31
0.0
 70
    32
  1
%%c<>
 71
     5
 42
-1.0
  3
AM_JIS
100
AcDbAlignedDimension
 13
-58.24648456429867
 23
15.875
 33
0.0
 14
-58.50000000000001
 24
-15.875
 34
0.0
 50
90.0
100
AcDbRotatedDimension
1001
GENIUS_GENDTOL_13
1000

1000
h7
1000

1040
0.0
  0
DIMENSION
  5
7D8B
330
1F
100
AcDbEntity
  8
AM_5
100
AcDbDimension
  2
*D7
 10
16.29515612722339
 20
-21.0
 30
0.0
 11
16.2951561272234
 21
0.875
 31
0.0
 70
   160
  1
%%c<>
 71
     5
 42
-1.0
  3
AM_JIS
100
AcDbAlignedDimension
 13
-28.00000000000004
 23
20.99999999999999
 33
0.0
 14
-27.99999999999973
 24
-20.99999999999998
 34
0.0
 50
90.0
100
AcDbRotatedDimension
1001
GENIUS_GENDTOL_13
1000

1000
h7
1000

1040
0.0
  0
DIMENSION
  5
7D8C
330
1F
100
AcDbEntity
  8
AM_5
100
AcDbDimension
  2
*D4
 10
-51.99999999999991
 20
-72.13154973203066
 30
0.0
 11
-55.99999999999996
 21
-69.03154973203065
 31
0.0
 70
    32
 71
     5
 42
-1.0
  3
AM_JIS
100
AcDbAlignedDimension
 13
-60.0
 23
-35.5
 33
0.0
 14
-51.99999999999989
 24
-5.349999999999971
 34
0.0
100
AcDbRotatedDimension
  0
DIMENSION
  5
7D8D
330
1F
100
AcDbEntity
  8
AM_5
100
AcDbDimension
  2
*D6
 10
-27.99999999999973
 20
-82.13154973203065
 30
0.0
 11
-43.99999999999987
 21
-79.03154973203065
 31
0.0
 70
    32
 71
     5
 42
-1.0
  3
AM_JIS
100
AcDbAlignedDimension
 13
-60.0
 23
-35.5
 33
0.0
 14
-27.99999999999973
 24
-20.99999999999998
 34
0.0
100
AcDbRotatedDimension
  0
DIMENSION
  5
7D8E
330
1F
100
AcDbEntity
  8
AM_5
100
AcDbDimension
  2
*D5
 10
-0.0000000000592192
 20
-92.13154973203064
 30
0.0
 11
-30.00000000002961
 21
-89.03154973203065
 31
0.0
 70
    32
 71
     5
 42
-1.0
  3
AM_JIS
100
AcDbAlignedDimension
 13
-60.0
 23
-35.5
 33
0.0
 14
-0.0000000000592166
 24
-49.60773673210042
 34
0.0
100
AcDbRotatedDimension
  0
LINE
  5
7E9C
330
1F
100
AcDbEntity
  8
AM_0
100
AcDbLine
 10
-27.33891854213358
 20
21.11656649746793
 30
0.0
 11
-10.09240387650605
 21
24.15759235620236
 31
0.0
  0
LINE
  5
7E9D
330
1F
100
AcDbEntity
  8
AM_0
100
AcDbLine
 10
-28.00000000000004
 20
20.32872029505817
 30
0.0
 11
-28.00000000000004
 21
-0.0000000000000071
 31
0.0
  0
LINE
  5
7E9E
330
1F
100
AcDbEntity
  8
AM_11
100
AcDbLine
 10
-27.99999999999973
 20
-20.99999999999998
 30
0.0
 11
-27.33891854213327
 21
-21.11656649746791
 31
0.0
  0
LINE
  5
7E9F
330
1F
100
AcDbEntity
  8
AM_11
100
AcDbLine
 10
-27.99999999999973
 20
-20.99999999999998
 30
0.0
 11
-27.99999999999975
 21
-20.32872029505817
 31
0.0
  0
LINE
  5
7ED6
330
1F
100
AcDbEntity
  8
AM_11
100
AcDbLine
 10
0.0
 20
49.60773673202993
 30
0.0
 11
-0.0000000000000142
 21
-49.6077367320304
 31
0.0
  0
DIMENSION
  5
7F50
330
1F
100
AcDbEntity
  8
AM_5
100
AcDbDimension
  2
*D8
 10
26.2951561272234
 20
-50.00000000000042
 30
0.0
 11
26.2951561272234
 21
0.875
 31
0.0
 70
   160
  1
%%c<>
 71
     5
 42
100.0000000000004
  3
AM_JIS
100
AcDbAlignedDimension
 13
1.098731869887814
 23
50.0
 33
0.0
 14
1.098731869887089
 24
-50.00000000000041
 34
0.0
 50
90.0
100
AcDbRotatedDimension
1001
GENIUS_GENDTOL_13
1000

1000
h7
1000

1040
0.0
  0
LINE
  5
7F70
330
1F
100
AcDbEntity
  8
AM_0
100
AcDbLine
 10
-10.09999999999995
 20
32.04022321887006
 30
0.0
 11
-6.345029197482435
 21
40.09278409117676
 31
0.0
  0
LINE
  5
7F71
330
1F
100
AcDbEntity
  8
AM_0
100
AcDbLine
 10
-2.099999999999937
 20
43.57419230672996
 30
0.0
 11
-2.09999999999995
 21
0.0
 31
0.0
  0
LINE
  5
7F77
330
1F
100
AcDbEntity
  8
AM_0
100
AcDbLine
 10
-36.6600000000001
 20
57.99999999999998
 30
0.0
 11
-36.16000000000001
 21
57.49999999999992
 31
0.0
  0
LINE
  5
820D
330
1F
100
AcDbEntity
  8
AM_0
100
AcDbLine
 10
-10.09240387650605
 20
24.15759235620236
 30
0.0
 11
-10.09240387650603
 21
0.0
 31
0.0
  0
LINE
  5
820E
330
1F
100
AcDbEntity
  8
AM_0
100
AcDbLine
 10
-10.09240387650603
 20
0.0
 30
0.0
 11
-10.09240387650605
 21
-24.15759235620236
 31
0.0
  0
DIMENSION
  5
82AD
330
1F
100
AcDbEntity
  8
AM_5
100
AcDbDimension
  2
*D10
 10
-93.99999999999996
 20
-37.5
 30
0.0
 11
-97.09999999999993
 21
-0.0000000000000081
 31
0.0
 70
    32
  1
%%c<>
 71
     5
 42
-1.0
  3
AM_JIS$0
100
AcDbAlignedDimension
 13
-58.0
 23
37.5
 33
0.0
 14
-58.0
 24
-37.5
 34
0.0
 50
270.0
100
AcDbRotatedDimension
1001
GENIUS_GENDTOL_13
1000

1000
h7
1000

1040
0.0
1001
ACAD
1000
DSTYLE
1002
{
1070
    40
1040
1.0
1070
    43
1040
12.0
1070
   140
1040
3.2
1070
   147
1040
1.5
1070
   178
1070
     2
1002
}
  0
LINE
  5
84A8
330
1F
100
AcDbEntity
  8
0
100
AcDbLine
 10
-36.15999999999997
 20
50.5
 30
0.0
 11
-36.15999999999997
 21
58.0
 31
0.0
  0
LINE
  5
84A9
330
1F
100
AcDbEntity
  8
0
100
AcDbLine
 10
-30.16000000000003
 20
58.0
 30
0.0
 11
-18.09237000000002
 21
58.0
 31
0.0
  0
LINE
  5
84AA
330
1F
100
AcDbEntity
  8
0
100
AcDbLine
 10
-30.16000000000003
 20
50.5
 30
0.0
 11
-36.15999999999997
 21
50.5
 31
0.0
  0
LINE
  5
84AB
330
1F
100
AcDbEntity
  8
0
100
AcDbLine
 10
-30.16000000000003
 20
50.5
 30
0.0
 11
-30.16000000000003
 21
58.0
 31
0.0
  0
LINE
  5
84AC
330
1F
100
AcDbEntity
  8
0
100
AcDbLine
 10
-18.09237000000002
 20
58.0
 30
0.0
 11
-10.48500525705589
 21
54.2896403100376
 31
0.0
  0
LINE
  5
84AD
330
1F
100
AcDbEntity
  8
0
100
AcDbLine
 10
-36.15999999999997
 20
57.88678199999999
 30
0.0
 11
-36.15999999999997
 21
59.087879
 31
0.0
  0
LINE
  5
84AE
330
1F
100
AcDbEntity
  8
0
100
AcDbLine
 10
-36.15999999999997
 20
52.47046
 30
0.0
 11
-36.15999999999997
 21
57.88678199999999
 31
0.0
  0
SPLINE
  5
84AF
330
1F
100
AcDbEntity
  8
0
100
AcDbSpline
210
0.0
220
0.0
230
1.0
 70
     8
 71
     3
 72
    11
 73
     7
 74
     5
 42
0.0000000001
 43
0.0000000001
 44
0.0000000001
 40
0.0
 40
0.0
 40
0.0
 40
0.0
 40
3.119063656717824
 40
6.238127084400236
 40
9.35718963447603
 40
12.47625374628659
 40
12.47625374628659
 40
12.47625374628659
 40
12.47625374628659
 10
-23.685881
 20
58.85715400000001
 30
0.0
 10
-24.7254035514066
 20
58.87569570852694
 30
0.0
 10
-26.80444857788677
 20
58.91277912421921
 30
0.0
 10
-29.92298786163781
 20
58.96995148809754
 30
0.0
 10
-33.04150837231868
 20
59.02814689383316
 30
0.0
 10
-35.12050261727865
 20
59.06796829462127
 30
0.0
 10
-36.15999999999997
 20
59.087879
 30
0.0
 11
-23.685881
 21
58.85715400000001
 31
0.0
 11
-26.80444399999999
 21
58.913037
 31
0.0
 11
-29.92298499999998
 21
58.970122
 31
0.0
 11
-33.04150300000003
 21
59.028403
 31
0.0
 11
-36.15999999999997
 21
59.087879
 31
0.0
  0
SPLINE
  5
84B0
330
1F
100
AcDbEntity
  8
0
100
AcDbSpline
210
0.0
220
0.0
230
1.0
 70
     8
 71
     3
 72
    10
 73
     6
 74
     0
 42
0.0000000001
 43
0.0000000001
 40
12.46340814700795
 40
12.46340814700795
 40
12.46340814700795
 40
12.46340814700795
 40
13.01266366945591
 40
19.51899501553566
 40
26.0253266406175
 40
26.0253266406175
 40
26.0253266406175
 40
26.0253266406175
 10
-12.62431152549118
 20
51.01066988173792
 30
0.0
 10
-12.77365873930728
 20
51.11657356927861
 30
0.0
 10
-14.69212287987608
 20
52.47699689349855
 30
0.0
 10
-18.37948649185085
 20
55.09224663353816
 30
0.0
 10
-21.91708280533396
 20
57.60218485990768
 30
0.0
 10
-23.685881
 20
58.85715400000001
 30
0.0
  0
SPLINE
  5
84B1
330
1F
100
AcDbEntity
  8
0
100
AcDbSpline
210
0.0
220
0.0
230
1.0
 70
     8
 71
     3
 72
    11
 73
     7
 74
     5
 42
0.0000000001
 43
0.0000000001
 44
0.0000000001
 40
0.0
 40
0.0
 40
0.0
 40
0.0
 40
1.848057657159251
 40
3.696114956722497
 40
5.544171570176223
 40
7.392228976865733
 40
7.392228976865733
 40
7.392228976865733
 40
7.392228976865733
 10
-7.968350999999984
 20
54.699272
 30
0.0
 10
-7.411964878865546
 20
54.43485913561909
 30
0.0
 10
-6.299192744256544
 20
53.90603345802069
 30
0.0
 10
-4.629958983182575
 20
53.11295462417149
 30
0.0
 10
-2.960672637879042
 20
52.31998666996699
 30
0.0
 10
-1.84775962557498
 20
51.7914582611321
 30
0.0
 10
-1.291302999999999
 20
51.52719400000001
 30
0.0
 11
-7.968350999999984
 21
54.699272
 31
0.0
 11
-6.299180000000006
 21
53.90606
 31
0.0
 11
-4.629950000000008
 21
53.11297299999999
 31
0.0
 11
-2.960658999999992
 21
52.320016
 31
0.0
 11
-1.291302999999999
 21
51.52719400000001
 31
0.0
  0
SPLINE
  5
84B2
330
1F
100
AcDbEntity
  8
0
100
AcDbSpline
210
0.0
220
0.0
230
1.0
 70
     8
 71
     3
 72
    11
 73
     7
 74
     5
 42
0.0000000001
 43
0.0000000001
 44
0.0000000001
 40
0.0
 40
0.0
 40
0.0
 40
0.0
 40
0.4999863388933717
 40
0.9999734414040403
 40
1.49995989824662
 40
1.999946237139992
 40
1.999946237139992
 40
1.999946237139992
 40
1.999946237139992
 10
0.0
 20
50.0
 30
0.0
 10
-0.1076086903990472
 20
50.12726597993324
 30
0.0
 10
-0.322826235545449
 20
50.38179813417009
 30
0.0
 10
-0.645652069292197
 20
50.76359665956485
 30
0.0
 10
-0.9684766535120274
 20
51.14539624148196
 30
0.0
 10
-1.183694226299166
 20
51.39992809050155
 30
0.0
 10
-1.291302999999999
 20
51.52719400000001
 30
0.0
 11
0.0
 21
50.0
 31
0.0
 11
-0.3228259999999921
 21
50.381798
 31
0.0
 11
-0.6456520000000126
 21
50.76359700000001
 31
0.0
 11
-0.9684770000000071
 21
51.145396
 31
0.0
 11
-1.291302999999999
 21
51.52719400000001
 31
0.0
  0
SPLINE
  5
84B3
330
1F
100
AcDbEntity
  8
0
100
AcDbSpline
210
0.0
220
0.0
230
1.0
 70
     8
 71
     3
 72
    11
 73
     7
 74
     5
 42
0.0000000001
 43
0.0000000001
 44
0.0000000001
 40
0.0
 40
0.0
 40
0.0
 40
0.0
 40
0.4981528853926354
 40
0.9963063414410784
 40
1.49445937060783
 40
1.992612975071364
 40
1.992612975071364
 40
1.992612975071364
 40
1.992612975071364
 10
-7.968350999999984
 20
54.699272
 30
0.0
 10
-8.134378707387611
 20
54.7020509058492
 30
0.0
 10
-8.466434312354863
 20
54.70760872073097
 30
0.0
 10
-8.96451693964957
 20
54.71598913702428
 30
0.0
 10
-9.46259931506097
 20
54.72439872082339
 30
0.0
 10
-9.79465370777433
 20
54.73003423918974
 30
0.0
 10
-9.960681000000022
 20
54.73285200000001
 30
0.0
 11
-7.968350999999984
 21
54.699272
 31
0.0
 11
-8.466433999999992
 21
54.707616
 31
0.0
 11
-8.964517
 21
54.71599399999999
 31
0.0
 11
-9.462599000000011
 21
54.72440600000002
 31
0.0
 11
-9.960681000000022
 21
54.73285200000001
 31
0.0
  0
SPLINE
  5
84B4
330
1F
100
AcDbEntity
  8
0
100
AcDbSpline
210
0.0
220
0.0
230
1.0
 70
     8
 71
     3
 72
    11
 73
     7
 74
     5
 42
0.0000000001
 43
0.0000000001
 44
0.0000000001
 40
0.0
 40
0.0
 40
0.0
 40
0.0
 40
0.4966528912560299
 40
0.9933068641516491
 40
1.489959868405149
 40
1.986612553941001
 40
1.986612553941001
 40
1.986612553941001
 40
1.986612553941001
 10
-9.960681000000022
 20
54.73285200000001
 30
0.0
 10
-10.08710952445125
 20
54.62597379900042
 30
0.0
 10
-10.33996684869714
 20
54.41221716423567
 30
0.0
 10
-10.71929128610929
 20
54.09162792223336
 30
0.0
 10
-11.09864247480266
 20
53.77107044153113
 30
0.0
 10
-11.35156885198603
 20
53.55739612432349
 30
0.0
 10
-11.47803199999998
 20
53.450559
 30
0.0
 11
-9.960681000000022
 21
54.73285200000001
 31
0.0
 11
-10.33997299999998
 21
54.41222500000001
 31
0.0
 11
-10.71929599999998
 21
54.091633
 31
0.0
 11
-11.09864900000002
 21
53.771078
 31
0.0
 11
-11.47803199999998
 21
53.450559
 31
0.0
  0
SPLINE
  5
84B5
330
1F
100
AcDbEntity
  8
0
100
AcDbSpline
210
0.0
220
0.0
230
1.0
 70
     8
 71
     3
 72
    11
 73
     7
 74
     5
 42
0.0000000001
 43
0.0000000001
 44
0.0000000001
 40
0.0
 40
0.0
 40
0.0
 40
0.0
 40
1.837998310065874
 40
3.675997009610845
 40
5.513995273814584
 40
7.351993529283038
 40
7.351993529283038
 40
7.351993529283038
 40
7.351993529283038
 10
-14.60599100000002
 20
46.79716299999999
 30
0.0
 10
-14.34511835581645
 20
47.351514171756
 30
0.0
 10
-13.82337301216933
 20
48.46021663273721
 30
0.0
 10
-13.04125862623721
 20
50.12350716007398
 30
0.0
 10
-12.25944686103912
 20
51.78693992253676
 30
0.0
 10
-11.73850361993368
 20
52.89601930839075
 30
0.0
 10
-11.47803199999998
 20
53.450559
 30
0.0
 11
-14.60599100000002
 21
46.79716299999999
 31
0.0
 11
-13.82345700000002
 21
48.460256
 31
0.0
 11
-13.04130900000001
 21
50.123531
 31
0.0
 11
-12.25951300000003
 21
51.78697099999999
 31
0.0
 11
-11.47803199999998
 21
53.450559
 31
0.0
  0
SPLINE
  5
84B6
330
1F
100
AcDbEntity
  8
0
100
AcDbSpline
210
0.0
220
0.0
230
1.0
 70
     8
 71
     3
 72
    11
 73
     7
 74
     5
 42
0.0000000001
 43
0.0000000001
 44
0.0000000001
 40
0.0
 40
0.0
 40
0.0
 40
0.0
 40
0.4975624666401043
 40
0.9951249332802369
 40
1.492687410428583
 40
1.990249887576931
 40
1.990249887576931
 40
1.990249887576931
 40
1.990249887576931
 10
-14.60599100000002
 20
46.79716299999999
 30
0.0
 10
-14.60773369047359
 20
46.63131800025019
 30
0.0
 10
-14.6112190714208
 20
46.29962800075057
 30
0.0
 10
-14.61644671435397
 20
45.80209299349525
 30
0.0
 10
-14.62167607142066
 20
45.30455800075054
 30
0.0
 10
-14.62516202380686
 20
44.97286800025018
 30
0.0
 10
-14.62690500000002
 20
44.80702299999999
 30
0.0
 11
-14.60599100000002
 21
46.79716299999999
 31
0.0
 11
-14.611219
 21
46.29962800000001
 31
0.0
 11
-14.61644699999999
 21
45.80209299999999
 31
0.0
 11
-14.62167599999998
 21
45.304558
 31
0.0
 11
-14.62690500000002
 21
44.80702299999999
 31
0.0
  0
SPLINE
  5
84B7
330
1F
100
AcDbEntity
  8
0
100
AcDbSpline
210
0.0
220
0.0
230
1.0
 70
     8
 71
     3
 72
    11
 73
     7
 74
     5
 42
0.0000000001
 43
0.0000000001
 44
0.0000000001
 40
0.0
 40
0.0
 40
0.0
 40
0.0
 40
1.849087563359294
 40
3.698173987692411
 40
5.547260739150278
 40
7.396348380150829
 40
7.396348380150829
 40
7.396348380150829
 40
7.396348380150829
 10
-6.65855399999998
 20
40.09864
 30
0.0
 10
-7.215000316653686
 20
40.36372537184814
 30
0.0
 10
-8.327892607193859
 20
40.89389595225354
 30
0.0
 10
-9.997171270334149
 20
41.68927709476358
 30
0.0
 10
-11.66641292544898
 20
42.48473596127714
 30
0.0
 10
-12.77920621926085
 20
43.01511461123405
 30
0.0
 10
-13.33560299999999
 20
43.280304
 30
0.0
 11
-6.65855399999998
 21
40.09864
 31
0.0
 11
-8.327882999999985
 21
40.893917
 31
0.0
 11
-9.997164999999995
 21
41.68929
 31
0.0
 11
-11.666404
 21
42.48475399999999
 31
0.0
 11
-13.33560299999999
 21
43.280304
 31
0.0
  0
SPLINE
  5
84B8
330
1F
100
AcDbEntity
  8
0
100
AcDbSpline
210
0.0
220
0.0
230
1.0
 70
     8
 71
     3
 72
    11
 73
     7
 74
     5
 42
0.0000000001
 43
0.0000000001
 44
0.0000000001
 40
0.0
 40
0.0
 40
0.0
 40
0.0
 40
0.4998957098605836
 40
0.999791301984596
 40
1.499687539894003
 40
1.999582896556782
 40
1.999582896556782
 40
1.999582896556782
 40
1.999582896556782
 10
-14.62690500000002
 20
44.80702299999999
 30
0.0
 10
-14.51929709153421
 20
44.67979592258056
 30
0.0
 10
-14.30408129994669
 20
44.42534179770649
 30
0.0
 10
-13.9812558386094
 20
44.0436618545709
 30
0.0
 10
-13.65843058756832
 20
43.66198188776215
 30
0.0
 10
-13.4432121326227
 20
43.40752988782681
 30
0.0
 10
-13.33560299999999
 20
43.280304
 30
0.0
 11
-14.62690500000002
 21
44.80702299999999
 31
0.0
 11
-14.304081
 21
44.42534199999999
 31
0.0
 11
-13.98125599999997
 21
44.043662
 31
0.0
 11
-13.65843000000001
 21
43.66198199999999
 31
0.0
 11
-13.33560299999999
 21
43.280304
 31
0.0
  0
SPLINE
  5
84B9
330
1F
100
AcDbEntity
  8
0
100
AcDbSpline
210
0.0
220
0.0
230
1.0
 70
     8
 71
     3
 72
    11
 73
     7
 74
     5
 42
0.0000000001
 43
0.0000000001
 44
0.0000000001
 40
0.0
 40
0.0
 40
0.0
 40
0.0
 40
0.4981677596653411
 40
0.9963356628114413
 40
1.494503732166561
 40
1.992671971797518
 40
1.992671971797518
 40
1.992671971797518
 40
1.992671971797518
 10
-6.65855399999998
 20
40.09864
 30
0.0
 10
-6.492527061563237
 20
40.09553769624543
 30
0.0
 10
-6.160473136871303
 20
40.08933308784274
 30
0.0
 10
-5.662391062390838
 20
40.08008564136598
 30
0.0
 10
-5.164308121243209
 20
40.07087633757204
 30
0.0
 10
-4.832252059330755
 20
40.0647754462049
 30
0.0
 10
-4.666223999999999
 20
40.06172499999999
 30
0.0
 11
-6.65855399999998
 21
40.09864
 31
0.0
 11
-6.160472999999996
 21
40.08934299999999
 31
0.0
 11
-5.662391000000013
 21
40.080092
 31
0.0
 11
-5.164308000000005
 21
40.070886
 31
0.0
 11
-4.666223999999999
 21
40.06172499999999
 31
0.0
  0
SPLINE
  5
84BA
330
1F
100
AcDbEntity
  8
0
100
AcDbSpline
210
0.0
220
0.0
230
1.0
 70
     8
 71
     3
 72
    11
 73
     7
 74
     5
 42
0.0000000001
 43
0.0000000001
 44
0.0000000001
 40
0.0
 40
0.0
 40
0.0
 40
0.0
 40
0.4962465232925989
 40
0.9924933333468473
 40
1.488739915324992
 40
1.984986278968089
 40
1.984986278968089
 40
1.984986278968089
 40
1.984986278968089
 10
-4.666223999999999
 20
40.06172499999999
 30
0.0
 10
-4.539752007031751
 20
40.16834172155074
 30
0.0
 10
-4.286807948012011
 20
40.38157522626187
 30
0.0
 10
-3.907451754527187
 20
40.70149647725595
 30
0.0
 10
-3.528133423241115
 20
41.02146253630289
 30
0.0
 10
-3.27529312253992
 20
41.23481886107946
 30
0.0
 10
-3.148873000000008
 20
41.341497
 30
0.0
 11
-4.666223999999999
 21
40.06172499999999
 31
0.0
 11
-4.28681800000001
 21
40.38158699999999
 31
0.0
 11
-3.907457999999991
 21
40.701504
 31
0.0
 11
-3.528143
 21
41.02147399999999
 31
0.0
 11
-3.148873000000008
 21
41.341497
 31
0.0
  0
SPLINE
  5
84BB
330
1F
100
AcDbEntity
  8
0
100
AcDbSpline
210
0.0
220
0.0
230
1.0
 70
     8
 71
     3
 72
    11
 73
     7
 74
     5
 42
0.0000000001
 43
0.0000000001
 44
0.0000000001
 40
0.0
 40
0.0
 40
0.0
 40
0.0
 40
1.840172876439599
 40
3.680345393182789
 40
5.520518423582925
 40
7.360691479089395
 40
7.360691479089395
 40
7.360691479089395
 40
7.360691479089395
 10
-0.0209140000000048
 20
48.004503
 30
0.0
 10
-0.281400427648748
 20
47.44916950429352
 30
0.0
 10
-0.8023732320292538
 20
46.33850262143096
 30
0.0
 10
-1.58419678812578
 20
44.67267311909258
 30
0.0
 10
-2.366298077387682
 20
43.00697391822473
 30
0.0
 10
-2.888014691276197
 20
41.89665597526633
 30
0.0
 10
-3.148873000000008
 20
41.341497
 30
0.0
 11
-0.0209140000000048
 21
48.004503
 31
0.0
 11
-0.8024340000000051
 21
46.338531
 31
0.0
 11
-1.584242999999986
 21
44.672695
 31
0.0
 11
-2.366376999999999
 21
43.007011
 31
0.0
 11
-3.148873000000008
 21
41.341497
 31
0.0
  0
SPLINE
  5
84BC
330
1F
100
AcDbEntity
  8
0
100
AcDbSpline
210
0.0
220
0.0
230
1.0
 70
     8
 71
     3
 72
    11
 73
     7
 74
     5
 42
0.0000000001
 43
0.0000000001
 44
0.0000000001
 40
0.0
 40
0.0
 40
0.0
 40
0.0
 40
0.4989014034025169
 40
0.9978038067501035
 40
1.496705199672593
 40
1.995606592595083
 40
1.995606592595083
 40
1.995606592595083
 40
1.995606592595083
 10
-0.0209140000000048
 20
48.004503
 30
0.0
 10
-0.019171022621606
 20
48.17079433357043
 30
0.0
 10
-0.0156850643714108
 20
48.50337733400798
 30
0.0
 10
-0.0104557215895795
 20
49.00225166025524
 30
0.0
 10
-0.0052280704849181
 20
49.50112600073872
 30
0.0
 10
-0.0017426901616489
 20
49.83370866691288
 30
0.0
 10
0.0
 20
50.0
 30
0.0
 11
-0.0209140000000048
 21
48.004503
 31
0.0
 11
-0.0156849999999906
 21
48.503377
 31
0.0
 11
-0.0104560000000049
 21
49.002252
 31
0.0
 11
-0.0052279999999882
 21
49.501126
 31
0.0
 11
0.0
 21
50.0
 31
0.0
  0
LINE
  5
84C8
330
1F
100
AcDbEntity
  8
AM_0
100
AcDbLine
 10
-10.09999999999995
 20
-32.04022321887006
 30
0.0
 11
-6.345029197482435
 21
-40.09278409117676
 31
0.0
  0
LINE
  5
84C9
330
1F
100
AcDbEntity
  8
AM_0
100
AcDbLine
 10
-36.6600000000001
 20
-57.99999999999998
 30
0.0
 11
-36.16000000000001
 21
-57.49999999999992
 31
0.0
  0
LINE
  5
84CA
330
1F
100
AcDbEntity
  8
0
100
AcDbLine
 10
-36.15999999999997
 20
-50.5
 30
0.0
 11
-36.15999999999997
 21
-58.0
 31
0.0
  0
LINE
  5
84CB
330
1F
100
AcDbEntity
  8
0
100
AcDbLine
 10
-30.16000000000003
 20
-58.0
 30
0.0
 11
-18.09237000000002
 21
-58.0
 31
0.0
  0
LINE
  5
84CC
330
1F
100
AcDbEntity
  8
0
100
AcDbLine
 10
-30.16000000000003
 20
-50.5
 30
0.0
 11
-36.15999999999997
 21
-50.5
 31
0.0
  0
LINE
  5
84CD
330
1F
100
AcDbEntity
  8
0
100
AcDbLine
 10
-30.16000000000003
 20
-50.5
 30
0.0
 11
-30.16000000000003
 21
-58.0
 31
0.0
  0
LINE
  5
84CE
330
1F
100
AcDbEntity
  8
0
100
AcDbLine
 10
-18.09237000000002
 20
-58.0
 30
0.0
 11
-10.48500525705589
 21
-54.2896403100376
 31
0.0
  0
LINE
  5
84CF
330
1F
100
AcDbEntity
  8
0
100
AcDbLine
 10
-36.15999999999997
 20
-57.88678199999999
 30
0.0
 11
-36.15999999999997
 21
-59.087879
 31
0.0
  0
LINE
  5
84D0
330
1F
100
AcDbEntity
  8
0
100
AcDbLine
 10
-36.15999999999997
 20
-52.47046
 30
0.0
 11
-36.15999999999997
 21
-57.88678199999999
 31
0.0
  0
SPLINE
  5
84D1
330
1F
100
AcDbEntity
  8
0
100
AcDbSpline
210
0.0
220
0.0
230
1.0
 70
     8
 71
     3
 72
    11
 73
     7
 74
     5
 42
0.0000000001
 43
0.0000000001
 44
0.0000000001
 40
0.0
 40
0.0
 40
0.0
 40
0.0
 40
3.119063656717824
 40
6.238127084400236
 40
9.35718963447603
 40
12.47625374628659
 40
12.47625374628659
 40
12.47625374628659
 40
12.47625374628659
 10
-23.685881
 20
-58.85715400000001
 30
0.0
 10
-24.72540355140659
 20
-58.87569570852694
 30
0.0
 10
-26.80444857788678
 20
-58.91277912421924
 30
0.0
 10
-29.92298786163781
 20
-58.96995148809753
 30
0.0
 10
-33.04150837231861
 20
-59.02814689383315
 30
0.0
 10
-35.12050261727858
 20
-59.06796829462125
 30
0.0
 10
-36.15999999999997
 20
-59.087879
 30
0.0
 11
-23.685881
 21
-58.85715400000001
 31
0.0
 11
-26.80444399999999
 21
-58.913037
 31
0.0
 11
-29.92298499999998
 21
-58.970122
 31
0.0
 11
-33.04150300000003
 21
-59.028403
 31
0.0
 11
-36.15999999999997
 21
-59.087879
 31
0.0
  0
SPLINE
  5
84D2
330
1F
100
AcDbEntity
  8
0
100
AcDbSpline
210
0.0
220
0.0
230
1.0
 70
     8
 71
     3
 72
    10
 73
     6
 74
     0
 42
0.0000000001
 43
0.0000000001
 40
12.46340814700795
 40
12.46340814700795
 40
12.46340814700795
 40
12.46340814700795
 40
13.01266366945591
 40
19.51899501553566
 40
26.0253266406175
 40
26.0253266406175
 40
26.0253266406175
 40
26.0253266406175
 10
-12.62431152549118
 20
-51.01066988173792
 30
0.0
 10
-12.77365873930728
 20
-51.11657356927861
 30
0.0
 10
-14.69212287987608
 20
-52.47699689349855
 30
0.0
 10
-18.37948649185085
 20
-55.09224663353816
 30
0.0
 10
-21.91708280533396
 20
-57.60218485990768
 30
0.0
 10
-23.685881
 20
-58.85715400000001
 30
0.0
  0
SPLINE
  5
84D3
330
1F
100
AcDbEntity
  8
0
100
AcDbSpline
210
0.0
220
0.0
230
1.0
 70
     8
 71
     3
 72
    11
 73
     7
 74
     5
 42
0.0000000001
 43
0.0000000001
 44
0.0000000001
 40
0.0
 40
0.0
 40
0.0
 40
0.0
 40
1.848057657159251
 40
3.696114956722497
 40
5.544171570176223
 40
7.392228976865733
 40
7.392228976865733
 40
7.392228976865733
 40
7.392228976865733
 10
-7.968350999999984
 20
-54.699272
 30
0.0
 10
-7.411964878865584
 20
-54.43485913561907
 30
0.0
 10
-6.299192744256552
 20
-53.90603345802067
 30
0.0
 10
-4.629958983182508
 20
-53.11295462417149
 30
0.0
 10
-2.960672637879032
 20
-52.31998666996698
 30
0.0
 10
-1.847759625575043
 20
-51.79145826113209
 30
0.0
 10
-1.291302999999999
 20
-51.52719400000001
 30
0.0
 11
-7.968350999999984
 21
-54.699272
 31
0.0
 11
-6.299180000000006
 21
-53.90606
 31
0.0
 11
-4.629950000000008
 21
-53.11297299999999
 31
0.0
 11
-2.960658999999992
 21
-52.320016
 31
0.0
 11
-1.291302999999999
 21
-51.52719400000001
 31
0.0
  0
SPLINE
  5
84D4
330
1F
100
AcDbEntity
  8
0
100
AcDbSpline
210
0.0
220
0.0
230
1.0
 70
     8
 71
     3
 72
    11
 73
     7
 74
     5
 42
0.0000000001
 43
0.0000000001
 44
0.0000000001
 40
0.0
 40
0.0
 40
0.0
 40
0.0
 40
0.4999863388933717
 40
0.9999734414040403
 40
1.49995989824662
 40
1.999946237139992
 40
1.999946237139992
 40
1.999946237139992
 40
1.999946237139992
 10
0.0
 20
-50.0
 30
0.0
 10
-0.1076086903990811
 20
-50.12726597993324
 30
0.0
 10
-0.3228262355454483
 20
-50.38179813417007
 30
0.0
 10
-0.645652069292225
 20
-50.76359665956486
 30
0.0
 10
-0.9684766535120617
 20
-51.14539624148197
 30
0.0
 10
-1.183694226299164
 20
-51.39992809050155
 30
0.0
 10
-1.291302999999999
 20
-51.52719400000001
 30
0.0
 11
0.0
 21
-50.0
 31
0.0
 11
-0.3228259999999921
 21
-50.381798
 31
0.0
 11
-0.6456520000000126
 21
-50.76359700000001
 31
0.0
 11
-0.9684770000000071
 21
-51.145396
 31
0.0
 11
-1.291302999999999
 21
-51.52719400000001
 31
0.0
  0
SPLINE
  5
84D5
330
1F
100
AcDbEntity
  8
0
100
AcDbSpline
210
0.0
220
0.0
230
1.0
 70
     8
 71
     3
 72
    11
 73
     7
 74
     5
 42
0.0000000001
 43
0.0000000001
 44
0.0000000001
 40
0.0
 40
0.0
 40
0.0
 40
0.0
 40
0.4981528853926354
 40
0.9963063414410784
 40
1.49445937060783
 40
1.992612975071364
 40
1.992612975071364
 40
1.992612975071364
 40
1.992612975071364
 10
-7.968350999999984
 20
-54.699272
 30
0.0
 10
-8.134378707387616
 20
-54.7020509058492
 30
0.0
 10
-8.466434312354847
 20
-54.70760872073096
 30
0.0
 10
-8.964516939649588
 20
-54.71598913702428
 30
0.0
 10
-9.462599315060927
 20
-54.7243987208234
 30
0.0
 10
-9.79465370777433
 20
-54.73003423918975
 30
0.0
 10
-9.960681000000022
 20
-54.73285200000001
 30
0.0
 11
-7.968350999999984
 21
-54.699272
 31
0.0
 11
-8.466433999999992
 21
-54.707616
 31
0.0
 11
-8.964517
 21
-54.71599399999999
 31
0.0
 11
-9.462599000000011
 21
-54.72440600000002
 31
0.0
 11
-9.960681000000022
 21
-54.73285200000001
 31
0.0
  0
SPLINE
  5
84D6
330
1F
100
AcDbEntity
  8
0
100
AcDbSpline
210
0.0
220
0.0
230
1.0
 70
     8
 71
     3
 72
    11
 73
     7
 74
     5
 42
0.0000000001
 43
0.0000000001
 44
0.0000000001
 40
0.0
 40
0.0
 40
0.0
 40
0.0
 40
0.4966528912560299
 40
0.9933068641516491
 40
1.489959868405149
 40
1.986612553941001
 40
1.986612553941001
 40
1.986612553941001
 40
1.986612553941001
 10
-9.960681000000022
 20
-54.73285200000001
 30
0.0
 10
-10.08710952445126
 20
-54.62597379900042
 30
0.0
 10
-10.33996684869716
 20
-54.41221716423568
 30
0.0
 10
-10.71929128610934
 20
-54.09162792223336
 30
0.0
 10
-11.09864247480274
 20
-53.77107044153116
 30
0.0
 10
-11.35156885198603
 20
-53.55739612432348
 30
0.0
 10
-11.47803199999998
 20
-53.450559
 30
0.0
 11
-9.960681000000022
 21
-54.73285200000001
 31
0.0
 11
-10.33997299999998
 21
-54.41222500000001
 31
0.0
 11
-10.71929599999998
 21
-54.091633
 31
0.0
 11
-11.09864900000002
 21
-53.771078
 31
0.0
 11
-11.47803199999998
 21
-53.450559
 31
0.0
  0
SPLINE
  5
84D7
330
1F
100
AcDbEntity
  8
0
100
AcDbSpline
210
0.0
220
0.0
230
1.0
 70
     8
 71
     3
 72
    11
 73
     7
 74
     5
 42
0.0000000001
 43
0.0000000001
 44
0.0000000001
 40
0.0
 40
0.0
 40
0.0
 40
0.0
 40
1.837998310065874
 40
3.675997009610845
 40
5.513995273814584
 40
7.351993529283038
 40
7.351993529283038
 40
7.351993529283038
 40
7.351993529283038
 10
-14.60599100000002
 20
-46.79716299999999
 30
0.0
 10
-14.34511835581643
 20
-47.35151417175599
 30
0.0
 10
-13.82337301216932
 20
-48.46021663273719
 30
0.0
 10
-13.04125862623725
 20
-50.12350716007402
 30
0.0
 10
-12.25944686103905
 20
-51.78693992253675
 30
0.0
 10
-11.7385036199337
 20
-52.89601930839075
 30
0.0
 10
-11.47803199999998
 20
-53.450559
 30
0.0
 11
-14.60599100000002
 21
-46.79716299999999
 31
0.0
 11
-13.82345700000002
 21
-48.460256
 31
0.0
 11
-13.04130900000001
 21
-50.123531
 31
0.0
 11
-12.25951300000003
 21
-51.78697099999999
 31
0.0
 11
-11.47803199999998
 21
-53.450559
 31
0.0
  0
SPLINE
  5
84D8
330
1F
100
AcDbEntity
  8
0
100
AcDbSpline
210
0.0
220
0.0
230
1.0
 70
     8
 71
     3
 72
    11
 73
     7
 74
     5
 42
0.0000000001
 43
0.0000000001
 44
0.0000000001
 40
0.0
 40
0.0
 40
0.0
 40
0.0
 40
0.4975624666401043
 40
0.9951249332802369
 40
1.492687410428583
 40
1.990249887576931
 40
1.990249887576931
 40
1.990249887576931
 40
1.990249887576931
 10
-14.60599100000002
 20
-46.79716299999999
 30
0.0
 10
-14.60773369047357
 20
-46.63131800025019
 30
0.0
 10
-14.61121907142069
 20
-46.29962800075055
 30
0.0
 10
-14.61644671435407
 20
-45.80209299349525
 30
0.0
 10
-14.62167607142065
 20
-45.30455800075054
 30
0.0
 10
-14.6251620238069
 20
-44.97286800025018
 30
0.0
 10
-14.62690500000002
 20
-44.80702299999999
 30
0.0
 11
-14.60599100000002
 21
-46.79716299999999
 31
0.0
 11
-14.611219
 21
-46.29962800000001
 31
0.0
 11
-14.61644699999999
 21
-45.80209299999999
 31
0.0
 11
-14.62167599999998
 21
-45.304558
 31
0.0
 11
-14.62690500000002
 21
-44.80702299999999
 31
0.0
  0
SPLINE
  5
84D9
330
1F
100
AcDbEntity
  8
0
100
AcDbSpline
210
0.0
220
0.0
230
1.0
 70
     8
 71
     3
 72
    11
 73
     7
 74
     5
 42
0.0000000001
 43
0.0000000001
 44
0.0000000001
 40
0.0
 40
0.0
 40
0.0
 40
0.0
 40
1.849087563359294
 40
3.698173987692411
 40
5.547260739150278
 40
7.396348380150829
 40
7.396348380150829
 40
7.396348380150829
 40
7.396348380150829
 10
-6.65855399999998
 20
-40.09864
 30
0.0
 10
-7.215000316653713
 20
-40.36372537184814
 30
0.0
 10
-8.327892607193788
 20
-40.89389595225352
 30
0.0
 10
-9.997171270334142
 20
-41.68927709476359
 30
0.0
 10
-11.66641292544901
 20
-42.48473596127712
 30
0.0
 10
-12.77920621926085
 20
-43.01511461123406
 30
0.0
 10
-13.33560299999999
 20
-43.280304
 30
0.0
 11
-6.65855399999998
 21
-40.09864
 31
0.0
 11
-8.327882999999985
 21
-40.893917
 31
0.0
 11
-9.997164999999995
 21
-41.68929
 31
0.0
 11
-11.666404
 21
-42.48475399999999
 31
0.0
 11
-13.33560299999999
 21
-43.280304
 31
0.0
  0
SPLINE
  5
84DA
330
1F
100
AcDbEntity
  8
0
100
AcDbSpline
210
0.0
220
0.0
230
1.0
 70
     8
 71
     3
 72
    11
 73
     7
 74
     5
 42
0.0000000001
 43
0.0000000001
 44
0.0000000001
 40
0.0
 40
0.0
 40
0.0
 40
0.0
 40
0.4998957098605836
 40
0.999791301984596
 40
1.499687539894003
 40
1.999582896556782
 40
1.999582896556782
 40
1.999582896556782
 40
1.999582896556782
 10
-14.62690500000002
 20
-44.80702299999999
 30
0.0
 10
-14.51929709153421
 20
-44.67979592258055
 30
0.0
 10
-14.30408129994664
 20
-44.42534179770648
 30
0.0
 10
-13.98125583860934
 20
-44.04366185457089
 30
0.0
 10
-13.65843058756836
 20
-43.66198188776217
 30
0.0
 10
-13.44321213262276
 20
-43.40752988782681
 30
0.0
 10
-13.33560299999999
 20
-43.280304
 30
0.0
 11
-14.62690500000002
 21
-44.80702299999999
 31
0.0
 11
-14.304081
 21
-44.42534199999999
 31
0.0
 11
-13.98125599999997
 21
-44.043662
 31
0.0
 11
-13.65843000000001
 21
-43.66198199999999
 31
0.0
 11
-13.33560299999999
 21
-43.280304
 31
0.0
  0
SPLINE
  5
84DB
330
1F
100
AcDbEntity
  8
0
100
AcDbSpline
210
0.0
220
0.0
230
1.0
 70
     8
 71
     3
 72
    11
 73
     7
 74
     5
 42
0.0000000001
 43
0.0000000001
 44
0.0000000001
 40
0.0
 40
0.0
 40
0.0
 40
0.0
 40
0.4981677596653411
 40
0.9963356628114413
 40
1.494503732166561
 40
1.992671971797518
 40
1.992671971797518
 40
1.992671971797518
 40
1.992671971797518
 10
-6.65855399999998
 20
-40.09864
 30
0.0
 10
-6.492527061563285
 20
-40.09553769624541
 30
0.0
 10
-6.160473136871321
 20
-40.08933308784273
 30
0.0
 10
-5.662391062390867
 20
-40.08008564136599
 30
0.0
 10
-5.164308121243203
 20
-40.07087633757203
 30
0.0
 10
-4.832252059330746
 20
-40.06477544620489
 30
0.0
 10
-4.666223999999999
 20
-40.06172499999999
 30
0.0
 11
-6.65855399999998
 21
-40.09864
 31
0.0
 11
-6.160472999999996
 21
-40.08934299999999
 31
0.0
 11
-5.662391000000013
 21
-40.080092
 31
0.0
 11
-5.164308000000005
 21
-40.070886
 31
0.0
 11
-4.666223999999999
 21
-40.06172499999999
 31
0.0
  0
SPLINE
  5
84DC
330
1F
100
AcDbEntity
  8
0
100
AcDbSpline
210
0.0
220
0.0
230
1.0
 70
     8
 71
     3
 72
    11
 73
     7
 74
     5
 42
0.0000000001
 43
0.0000000001
 44
0.0000000001
 40
0.0
 40
0.0
 40
0.0
 40
0.0
 40
0.4962465232925989
 40
0.9924933333468473
 40
1.488739915324992
 40
1.984986278968089
 40
1.984986278968089
 40
1.984986278968089
 40
1.984986278968089
 10
-4.666223999999999
 20
-40.06172499999999
 30
0.0
 10
-4.539752007031768
 20
-40.16834172155072
 30
0.0
 10
-4.286807948012036
 20
-40.38157522626185
 30
0.0
 10
-3.907451754527075
 20
-40.70149647725595
 30
0.0
 10
-3.528133423241154
 20
-41.02146253630289
 30
0.0
 10
-3.275293122539905
 20
-41.23481886107946
 30
0.0
 10
-3.148873000000008
 20
-41.341497
 30
0.0
 11
-4.666223999999999
 21
-40.06172499999999
 31
0.0
 11
-4.28681800000001
 21
-40.38158699999999
 31
0.0
 11
-3.907457999999991
 21
-40.701504
 31
0.0
 11
-3.528143
 21
-41.02147399999999
 31
0.0
 11
-3.148873000000008
 21
-41.341497
 31
0.0
  0
SPLINE
  5
84DD
330
1F
100
AcDbEntity
  8
0
100
AcDbSpline
210
0.0
220
0.0
230
1.0
 70
     8
 71
     3
 72
    11
 73
     7
 74
     5
 42
0.0000000001
 43
0.0000000001
 44
0.0000000001
 40
0.0
 40
0.0
 40
0.0
 40
0.0
 40
1.840172876439599
 40
3.680345393182789
 40
5.520518423582925
 40
7.360691479089395
 40
7.360691479089395
 40
7.360691479089395
 40
7.360691479089395
 10
-0.0209140000000048
 20
-48.004503
 30
0.0
 10
-0.2814004276487538
 20
-47.44916950429353
 30
0.0
 10
-0.8023732320292788
 20
-46.33850262143097
 30
0.0
 10
-1.584196788125838
 20
-44.67267311909258
 30
0.0
 10
-2.366298077387587
 20
-43.00697391822471
 30
0.0
 10
-2.888014691276197
 20
-41.89665597526633
 30
0.0
 10
-3.148873000000008
 20
-41.341497
 30
0.0
 11
-0.0209140000000048
 21
-48.004503
 31
0.0
 11
-0.8024340000000051
 21
-46.338531
 31
0.0
 11
-1.584242999999986
 21
-44.672695
 31
0.0
 11
-2.366376999999999
 21
-43.007011
 31
0.0
 11
-3.148873000000008
 21
-41.341497
 31
0.0
  0
SPLINE
  5
84DE
330
1F
100
AcDbEntity
  8
0
100
AcDbSpline
210
0.0
220
0.0
230
1.0
 70
     8
 71
     3
 72
    11
 73
     7
 74
     5
 42
0.0000000001
 43
0.0000000001
 44
0.0000000001
 40
0.0
 40
0.0
 40
0.0
 40
0.0
 40
0.4989014034025169
 40
0.9978038067501035
 40
1.496705199672593
 40
1.995606592595083
 40
1.995606592595083
 40
1.995606592595083
 40
1.995606592595083
 10
-0.0209140000000048
 20
-48.004503
 30
0.0
 10
-0.0191710226216214
 20
-48.17079433357042
 30
0.0
 10
-0.0156850643714157
 20
-48.50337733400799
 30
0.0
 10
-0.0104557215895781
 20
-49.00225166025522
 30
0.0
 10
-0.0052280704848842
 20
-49.50112600073873
 30
0.0
 10
-0.0017426901616281
 20
-49.83370866691291
 30
0.0
 10
0.0
 20
-50.0
 30
0.0
 11
-0.0209140000000048
 21
-48.004503
 31
0.0
 11
-0.0156849999999906
 21
-48.503377
 31
0.0
 11
-0.0104560000000049
 21
-49.002252
 31
0.0
 11
-0.0052279999999882
 21
-49.501126
 31
0.0
 11
0.0
 21
-50.0
 31
0.0
  0
DIMENSION
  5
84EF
330
1F
100
AcDbEntity
  8
AM_5
100
AcDbDimension
  2
*D12
 10
270.975698109089
 20
77.81921242752898
 30
0.0
 11
-12.00198816139668
 21
-69.90306505798312
 31
0.0
 70
    34
 71
     5
 42
1.127289313369772
  3
AM_JIS$2
100
AcDb2LineAngularDimension
 13
0.0
 23
49.60773673202993
 33
0.0
 14
-0.0000000000000142
 24
-49.6077367320304
 34
0.0
 15
-0.0000000000000107
 25
-50.91373220705888
 35
0.0
 16
-17.45411051976042
 26
-69.59219176747305
 36
0.0
1001
ACAD
1000
DSTYLE
1002
{
1070
    79
1070
     2
1070
   371
1070
    -1
1070
   372
1070
    -1
1002
}
  0
DIMENSION
  5
852C
330
1F
100
AcDbEntity
  8
AM_5
100
AcDbDimension
  2
*D13
 10
36.29515612722336
 20
-59.08787900000002
 30
0.0
 11
33.19515612722338
 21
-0.0000000000000161
 31
0.0
 70
    32
  1
%%c<>
 71
     5
 42
118.175758
  3
AM_JIS$0
100
AcDbAlignedDimension
 13
-36.15999999999997
 23
59.087879
 33
0.0
 14
-36.15999999999997
 24
-59.087879
 34
0.0
 50
90.0
100
AcDbRotatedDimension
1001
ACAD
1000
DSTYLE
1002
{
1070
    40
1040
1.0
1070
    43
1040
12.0
1070
   140
1040
3.2
1070
   147
1040
1.5
1070
   178
1070
     2
1070
   271
1070
     2
1002
}
  0
VIEWPORT
  5
110
102
{ACAD_XDICTIONARY
360
8569
102
}
330
101
100
AcDbEntity
 67
     1
  8
0
100
AcDbViewport
 10
420.5
 20
297.0
 30
0.0
 40
948.9782706766916
 41
628.452
 68
     1
 69
     1
 12
420.5
 22
297.0
 13
0.0
 23
0.0
 14
10.0
 24
10.0
 15
10.0
 25
10.0
 16
0.0
 26
0.0
 36
1.0
 17
0.0
 27
0.0
 37
0.0
 42
50.0
 43
0.0
 44
0.0
 45
628.452
 50
0.0
 51
0.0
 72
   100
 90
    32800
  1

281
     0
 71
     1
 74
     0
110
0.0
120
0.0
130
0.0
111
1.0
121
0.0
131
0.0
112
0.0
122
1.0
132
0.0
 79
     0
146
0.0
1001
GENIUS_GENSCREG_15
1000
PF
1040
1.0
1000
DF
1040
1.0
1000
MIN
1011
-53.98913533834582
1021
-17.226
1031
0.0
1000
MAX
1011
894.9891353383458
1021
611.226
1031
0.0
1000
FLAGS
1070
     4
1001
GENIUS_GENODEF_13
1002
{
1000
HIER
1070
     0
1002
}
1002
{
1000
MANEDIT
1070
     0
1002
}
1002
{
1000
NOSEL
1070
     0
1002
}
1002
{
1000
BEHIND
1070
     0
1002
}
1002
{
1000
OTHER
1070
     0
1002
}
1002
{
1000
REACTOR
1002
}
1001
GENIUS_GENOBJ-N-SDF_13
1002
{
1000
OWNER
1000
GEN
1002
}
  0
ENDSEC
  0
SECTION
  2
OBJECTS
  0
DICTIONARY
  5
C
330
0
100
AcDbDictionary
281
     1
  3
ACAD_COLOR
350
83BB
  3
ACAD_GROUP
350
D
  3
ACAD_LAYOUT
350
1A
  3
ACAD_MATERIAL
350
83BA
  3
ACAD_MLINESTYLE
350
17
  3
ACAD_PLOTSETTINGS
350
19
  3
ACAD_PLOTSTYLENAME
350
E
  3
ACAD_TABLESTYLE
350
83BC
  3
ACDBHEADERROUNDTRIPXREC
350
8568
  3
ACDBVARIABLEDICTIONARY
350
34
  3
ACMDICTIONARY
350
43
  3
AMG
350
2B
  3
AMGSNAPSETTINGS
350
6E
  3
DWGPROPS
350
8567
  0
DICTIONARY
  5
74
330
1F
100
AcDbDictionary
280
     1
281
     1
  3
ACAD_INDEX
360
837F
  3
ACAD_LAYOUTSELFREF
360
83AD
  0
DICTIONARY
  5
83B2
330
101
100
AcDbDictionary
280
     1
281
     1
  3
ACAD_LAYOUTSELFREF
360
83B3
  0
DICTIONARY
  5
8569
330
110
100
AcDbDictionary
280
     1
281
     1
  3
ACAD_XREC_ROUNDTRIP
360
856A
  0
DICTIONARY
  5
83BB
102
{ACAD_REACTORS
330
C
102
}
330
C
100
AcDbDictionary
281
     1
  0
DICTIONARY
  5
D
102
{ACAD_REACTORS
330
C
102
}
330
C
100
AcDbDictionary
281
     1
  0
DICTIONARY
  5
1A
102
{ACAD_REACTORS
330
C
102
}
330
C
100
AcDbDictionary
281
     1
  3
Model
350
83BE
  3
レイアウト1
350
83BF
  0
DICTIONARY
  5
83BA
102
{ACAD_REACTORS
330
C
102
}
330
C
100
AcDbDictionary
281
     1
  0
DICTIONARY
  5
17
102
{ACAD_REACTORS
330
C
102
}
330
C
100
AcDbDictionary
281
     1
  3
STANDARD
350
18
  0
DICTIONARY
  5
19
102
{ACAD_REACTORS
330
C
102
}
330
C
100
AcDbDictionary
281
     1
  0
ACDBDICTIONARYWDFLT
  5
E
102
{ACAD_REACTORS
330
C
102
}
330
C
100
AcDbDictionary
281
     1
  3
Normal
350
F
100
AcDbDictionaryWithDefault
340
F
  0
DICTIONARY
  5
83BC
102
{ACAD_REACTORS
330
C
102
}
330
C
100
AcDbDictionary
281
     1
  3
Standard
350
83BD
  0
DICTIONARY
  5
8568
102
{ACAD_REACTORS
330
C
102
}
330
C
100
AcDbDictionary
281
     1
  0
DICTIONARY
  5
34
102
{ACAD_REACTORS
330
C
102
}
330
C
100
AcDbDictionary
281
     1
  3
CTABLESTYLE
350
8563
  3
DIMASSOC
350
8564
  3
INDEXCTL
350
35
  3
PROJECTNAME
350
8565
  3
SORTENTS
350
B5E
  0
DICTIONARY
  5
43
102
{ACAD_REACTORS
330
C
102
}
330
C
100
AcDbDictionary
281
     1
  3
ACMSTDDICTIONARY
350
260
  3
AMDTSECTSYM_ARROWCOLOR
350
8437
  0
DICTIONARY
  5
2B
102
{ACAD_REACTORS
330
C
102
}
330
C
100
AcDbDictionary
281
     1
  0
DICTIONARY
  5
6E
102
{ACAD_REACTORS
330
C
102
}
330
C
100
AcDbDictionary
281
     1
  0
XRECORD
  5
8567
102
{ACAD_REACTORS
330
C
102
}
330
C
100
AcDbXrecord
280
     1
  1
DWGPROPS COOKIE
  2

  3

  4

  6

  7

  8

  9

300
AmdtFileType=82
301
=
302
=
303
=
304
=
305
=
306
=
307
=
308
=
309
=
 40
0.1442899884259259
 41
2452836.771637361
 42
2455596.563806782
  1

 90
        1
  0
DICTIONARY
  5
837F
102
{ACAD_REACTORS
330
74
102
}
330
74
100
AcDbDictionary
281
     1
  3
*A1
350
8380
  0
XRECORD
  5
83AD
102
{ACAD_REACTORS
330
74
102
}
330
74
100
AcDbXrecord
280
     1
340
1F
  0
XRECORD
  5
83B3
102
{ACAD_REACTORS
330
83B2
102
}
330
83B2
100
AcDbXrecord
280
     1
340
101
  0
XRECORD
  5
856A
102
{ACAD_REACTORS
330
8569
102
}
330
8569
100
AcDbXrecord
280
     1
102
SHADEPLOT
 70
     0
  0
LAYOUT
  5
83BE
102
{ACAD_XDICTIONARY
360
856B
102
}
102
{ACAD_REACTORS
330
1A
102
}
330
1A
100
AcDbPlotSettings
  1

  2
SII LP-1010 (C2 VR)2R
  4

  6

 40
0.0
 41
0.0
 42
0.0
 43
0.0
 44
0.0
 45
0.0
 46
0.0
 47
0.0
 48
0.0
 49
0.0
140
0.0
141
0.0
142
1.0
143
1.0
 70
  1712
 72
     0
 73
     0
 74
     0
  7
sei_cad.ctb
 75
     0
147
1.0
148
0.0
149
0.0
100
AcDbLayout
  1
Model
 70
     1
 71
     0
 10
0.0
 20
0.0
 11
12.0
 21
9.0
 12
0.0
 22
0.0
 32
0.0
 14
0.0
 24
0.0
 34
0.0
 15
0.0
 25
0.0
 35
0.0
146
0.0
 13
0.0
 23
0.0
 33
0.0
 16
1.0
 26
0.0
 36
0.0
 17
0.0
 27
1.0
 37
0.0
 76
     0
330
1F
  0
LAYOUT
  5
83BF
102
{ACAD_XDICTIONARY
360
856D
102
}
102
{ACAD_REACTORS
330
1A
102
}
330
1A
100
AcDbPlotSettings
  1

  2
SII LP-1010 (C2 VR)2R
  4

  6

 40
0.0
 41
0.0
 42
0.0
 43
0.0
 44
0.0
 45
0.0
 46
0.0
 47
0.0
 48
0.0
 49
0.0
140
0.0
141
0.0
142
1.0
143
1.0
 70
   688
 72
     0
 73
     0
 74
     5
  7
sei_cad.ctb
 75
    16
147
1.0
148
0.0
149
0.0
100
AcDbLayout
  1
レイアウト1
 70
     0
 71
     1
 10
0.0
 20
0.0
 11
841.0
 21
594.0
 12
0.0
 22
0.0
 32
0.0
 14
1.000000000000000E+20
 24
1.000000000000000E+20
 34
1.000000000000000E+20
 15
-1.000000000000000E+20
 25
-1.000000000000000E+20
 35
-1.000000000000000E+20
146
0.0
 13
0.0
 23
0.0
 33
0.0
 16
1.0
 26
0.0
 36
0.0
 17
0.0
 27
1.0
 37
0.0
 76
     0
330
101
331
110
  0
MLINESTYLE
  5
18
102
{ACAD_REACTORS
330
17
102
}
330
17
100
AcDbMlineStyle
  2
STANDARD
 70
     0
  3

 62
   256
 51
90.0
 52
90.0
 71
     2
 49
0.5
 62
   256
  6
BYLAYER
 49
-0.5
 62
   256
  6
BYLAYER
  0
ACDBPLACEHOLDER
  5
F
102
{ACAD_REACTORS
330
E
102
}
330
E
  0
TABLESTYLE
  5
83BD
102
{ACAD_REACTORS
330
83BC
102
}
330
83BC
100
AcDbTableStyle
  3
Standard
 70
     0
 71
     0
 40
1.5
 41
1.5
280
     0
281
     0
  7
STANDARD
140
4.5
170
     2
 62
     0
 63
     7
283
     0
274
    -2
284
     1
 64
     0
275
    -2
285
     1
 65
     0
276
    -2
286
     1
 66
     0
277
    -2
287
     1
 67
     0
278
    -2
288
     1
 68
     0
279
    -2
289
     1
 69
     0
  7
STANDARD
140
6.0
170
     5
 62
     0
 63
     7
283
     0
274
    -2
284
     1
 64
     0
275
    -2
285
     1
 65
     0
276
    -2
286
     1
 66
     0
277
    -2
287
     1
 67
     0
278
    -2
288
     1
 68
     0
279
    -2
289
     1
 69
     0
  7
STANDARD
140
4.5
170
     5
 62
     0
 63
     7
283
     0
274
    -2
284
     1
 64
     0
275
    -2
285
     1
 65
     0
276
    -2
286
     1
 66
     0
277
    -2
287
     1
 67
     0
278
    -2
288
     1
 68
     0
279
    -2
289
     1
 69
     0
  0
DICTIONARYVAR
  5
8563
102
{ACAD_REACTORS
330
34
102
}
330
34
100
DictionaryVariables
280
     0
  1
STANDARD
  0
DICTIONARYVAR
  5
8564
102
{ACAD_REACTORS
330
34
102
}
330
34
100
DictionaryVariables
280
     0
  1
1
  0
DICTIONARYVAR
  5
35
102
{ACAD_REACTORS
330
34
102
}
330
34
100
DictionaryVariables
280
     0
  1
1
  0
DICTIONARYVAR
  5
8565
102
{ACAD_REACTORS
330
34
102
}
330
34
100
DictionaryVariables
280
     0
  1

  0
DICTIONARYVAR
  5
B5E
102
{ACAD_REACTORS
330
34
102
}
330
34
100
DictionaryVariables
280
     0
  1
96
  0
DICTIONARY
  5
260
102
{ACAD_REACTORS
330
43
102
}
330
43
100
AcDbDictionary
281
     1
  0
XRECORD
  5
8437
102
{ACAD_REACTORS
330
43
102
}
330
43
100
AcDbXrecord
280
     1
 90
-1023410169
  0
LAYER_INDEX
  5
8380
102
{ACAD_REACTORS
330
837F
102
}
330
837F
100
AcDbIndex
 40
2455596.563806782
100
AcDbLayerIndex
  8
0
360
8381
 90
       42
  8
AM_0
360
8382
 90
       56
  8
AM_7
360
8383
 90
        1
  8
AM_5
360
8384
 90
       10
  8
DEFPOINTS
360
8385
 90
        0
  8
AM_6
360
8386
 90
        1
  8
AM_11
360
8387
 90
        5
  0
DICTIONARY
  5
856B
330
83BE
100
AcDbDictionary
280
     1
281
     1
  3
ACAD_XREC_ROUNDTRIP
360
856C
  0
DICTIONARY
  5
856D
330
83BF
100
AcDbDictionary
280
     1
281
     1
  3
ACAD_XREC_ROUNDTRIP
360
856E
  0
IDBUFFER
  5
8381
330
0
100
AcDbIdBuffer
330
84B8
330
84B9
330
84BA
330
84BB
330
84BC
330
84CA
330
84CB
330
84CC
330
84CD
330
84CE
330
84CF
330
84D0
330
84D1
330
84D2
330
84D3
330
84D4
330
84D5
330
84D6
330
84D7
330
84D8
330
84D9
330
84DA
330
84DB
330
84DC
330
84DD
330
84DE
330
84A8
330
84A9
330
84AA
330
84AB
330
84AC
330
84AD
330
84AE
330
84AF
330
84B0
330
84B1
330
84B2
330
84B3
330
84B4
330
84B5
330
84B6
330
84B7
  0
IDBUFFER
  5
8382
330
0
100
AcDbIdBuffer
330
70F7
330
70F8
330
70FA
330
70FB
330
70FC
330
70FD
330
70FE
330
7101
330
7102
330
7103
330
7105
330
7D40
330
7D43
330
7D46
330
7D4B
330
7D4E
330
7D57
330
7D58
330
7D5B
330
7D5E
330
7D61
330
7D62
330
7D64
330
7D65
330
7D66
330
7D67
330
7D68
330
7D69
330
7D6A
330
7D6B
330
7D6C
330
7D6D
330
7D6F
330
7D70
330
7D71
330
7D72
330
7D73
330
7D74
330
7D75
330
7D76
330
7D77
330
7D78
330
7D79
330
7D82
330
7D83
330
7D84
330
7D85
330
7E9C
330
7E9D
330
7F70
330
7F71
330
7F77
330
820D
330
820E
330
84C8
330
84C9
  0
IDBUFFER
  5
8383
330
0
100
AcDbIdBuffer
330
70F9
  0
IDBUFFER
  5
8384
330
0
100
AcDbIdBuffer
330
852C
330
7D88
330
7D89
330
7D8B
330
7D8C
330
7D8D
330
7D8E
330
7F50
330
82AD
330
84EF
  0
IDBUFFER
  5
8385
330
0
100
AcDbIdBuffer
  0
IDBUFFER
  5
8386
330
0
100
AcDbIdBuffer
330
E5A
  0
IDBUFFER
  5
8387
330
0
100
AcDbIdBuffer
330
70FF
330
7100
330
7E9E
330
7E9F
330
7ED6
  0
XRECORD
  5
856C
102
{ACAD_REACTORS
330
856B
102
}
330
856B
100
AcDbXrecord
280
     1
102
SHADEPLOT
 70
     0
102
SHADEPLOTRESLEVEL
 70
     2
102
SHADEPLOTCUSTOMDPI
 70
   300
  0
XRECORD
  5
856E
102
{ACAD_REACTORS
330
856D
102
}
330
856D
100
AcDbXrecord
280
     1
102
SHADEPLOT
 70
     0
102
SHADEPLOTRESLEVEL
 70
     2
102
SHADEPLOTCUSTOMDPI
 70
   300
  0
ENDSEC
  0
EOF
