  0
SECTION
  2
HEADER
  9
$ACADVER
  1
AC1015
  9
$ACADMAINTVER
 70
    20
  9
$DWGCODEPAGE
  3
ANSI_932
  9
$INSBASE
 10
0.0
 20
0.0
 30
0.0
  9
$EXTMIN
 10
-98.75169050279623
 20
-127.1585609274974
 30
-0.0015258207003583
  9
$EXTMAX
 10
41.28406372294239
 20
71.50711027798547
 30
0.0000000349246037
  9
$LIMMIN
 10
-117.379388700472
 20
-148.9503794227729
  9
$LIMMAX
 10
59.44115095142024
 20
84.62055683344456
  9
$ORTHOMODE
 70
     0
  9
$REGENMODE
 70
     1
  9
$FILLMODE
 70
     1
  9
$QTEXTMODE
 70
     0
  9
$MIRRTEXT
 70
     0
  9
$LTSCALE
 40
1.0
  9
$ATTMODE
 70
     1
  9
$TEXTSIZE
 40
2.5
  9
$TRACEWID
 40
1.0
  9
$TEXTSTYLE
  7
STANDARD
  9
$CLAYER
  8
AM_0
  9
$CELTYPE
  6
BYLAYER
  9
$CECOLOR
 62
   256
  9
$CELTSCALE
 40
1.0
  9
$DISPSILH
 70
     0
  9
$DIMSCALE
 40
1.0
  9
$DIMASZ
 40
2.5
  9
$DIMEXO
 40
1.0
  9
$DIMDLI
 40
12.0
  9
$DIMRND
 40
0.0
  9
$DIMDLE
 40
0.0
  9
$DIMEXE
 40
1.0
  9
$DIMTP
 40
0.1
  9
$DIMTM
 40
0.1
  9
$DIMTXT
 40
3.2
  9
$DIMCEN
 40
0.0
  9
$DIMTSZ
 40
0.0
  9
$DIMTOL
 70
     0
  9
$DIMLIM
 70
     0
  9
$DIMTIH
 70
     0
  9
$DIMTOH
 70
     0
  9
$DIMSE1
 70
     0
  9
$DIMSE2
 70
     0
  9
$DIMTAD
 70
     3
  9
$DIMZIN
 70
     8
  9
$DIMBLK
  1
OPEN30
  9
$DIMASO
 70
     1
  9
$DIMSHO
 70
     1
  9
$DIMPOST
  1

  9
$DIMAPOST
  1
"
  9
$DIMALT
 70
     0
  9
$DIMALTD
 70
     2
  9
$DIMALTF
 40
0.0393701
  9
$DIMLFAC
 40
1.0
  9
$DIMTOFL
 70
     1
  9
$DIMTVP
 40
0.0
  9
$DIMTIX
 70
     0
  9
$DIMSOXD
 70
     0
  9
$DIMSAH
 70
     0
  9
$DIMBLK1
  1

  9
$DIMBLK2
  1

  9
$DIMSTYLE
  2
AM_JIS
  9
$DIMCLRD
 70
   256
  9
$DIMCLRE
 70
   256
  9
$DIMCLRT
 70
     2
  9
$DIMTFAC
 40
0.71
  9
$DIMGAP
 40
1.5
  9
$DIMJUST
 70
     0
  9
$DIMSD1
 70
     0
  9
$DIMSD2
 70
     0
  9
$DIMTOLJ
 70
     0
  9
$DIMTZIN
 70
     0
  9
$DIMALTZ
 70
     0
  9
$DIMALTTZ
 70
     0
  9
$DIMUPT
 70
     0
  9
$DIMDEC
 70
     3
  9
$DIMTDEC
 70
     3
  9
$DIMALTU
 70
     2
  9
$DIMALTTD
 70
     2
  9
$DIMTXSTY
  7
ASAMI
  9
$DIMAUNIT
 70
     0
  9
$DIMADEC
 70
     0
  9
$DIMALTRND
 40
0.0
  9
$DIMAZIN
 70
     2
  9
$DIMDSEP
 70
    46
  9
$DIMATFIT
 70
     3
  9
$DIMFRAC
 70
     0
  9
$DIMLDRBLK
  1
OPEN30
  9
$DIMLUNIT
 70
     2
  9
$DIMLWD
 70
    -1
  9
$DIMLWE
 70
    -1
  9
$DIMTMOVE
 70
     0
  9
$LUNITS
 70
     2
  9
$LUPREC
 70
     2
  9
$SKETCHINC
 40
1.0
  9
$FILLETRAD
 40
0.8
  9
$AUNITS
 70
     0
  9
$AUPREC
 70
     0
  9
$MENU
  1
.
  9
$ELEVATION
 40
0.0
  9
$PELEVATION
 40
0.0
  9
$THICKNESS
 40
0.0
  9
$LIMCHECK
 70
     0
  9
$CHAMFERA
 40
1.0
  9
$CHAMFERB
 40
1.0
  9
$CHAMFERC
 40
20.0
  9
$CHAMFERD
 40
0.0
  9
$SKPOLY
 70
     0
  9
$TDCREATE
 40
2452836.771637361
  9
$TDUCREATE
 40
2452836.396637361
  9
$TDUPDATE
 40
2455596.570351192
  9
$TDUUPDATE
 40
2455596.195351192
  9
$TDINDWG
 40
0.1545719213
  9
$TDUSRTIMER
 40
0.1545717361
  9
$USRTIMER
 70
     1
  9
$ANGBASE
 50
0.0
  9
$ANGDIR
 70
     0
  9
$PDMODE
 70
     0
  9
$PDSIZE
 40
0.0
  9
$PLINEWID
 40
0.0
  9
$SPLFRAME
 70
     0
  9
$SPLINETYPE
 70
     6
  9
$SPLINESEGS
 70
     8
  9
$HANDSEED
  5
9508
  9
$SURFTAB1
 70
     6
  9
$SURFTAB2
 70
     6
  9
$SURFTYPE
 70
     6
  9
$SURFU
 70
     6
  9
$SURFV
 70
     6
  9
$UCSBASE
  2

  9
$UCSNAME
  2

  9
$UCSORG
 10
0.0
 20
0.0
 30
0.0
  9
$UCSXDIR
 10
1.0
 20
0.0
 30
0.0
  9
$UCSYDIR
 10
0.0
 20
1.0
 30
0.0
  9
$UCSORTHOREF
  2

  9
$UCSORTHOVIEW
 70
     0
  9
$UCSORGTOP
 10
0.0
 20
0.0
 30
0.0
  9
$UCSORGBOTTOM
 10
0.0
 20
0.0
 30
0.0
  9
$UCSORGLEFT
 10
0.0
 20
0.0
 30
0.0
  9
$UCSORGRIGHT
 10
0.0
 20
0.0
 30
0.0
  9
$UCSORGFRONT
 10
0.0
 20
0.0
 30
0.0
  9
$UCSORGBACK
 10
0.0
 20
0.0
 30
0.0
  9
$PUCSBASE
  2

  9
$PUCSNAME
  2

  9
$PUCSORG
 10
0.0
 20
0.0
 30
0.0
  9
$PUCSXDIR
 10
1.0
 20
0.0
 30
0.0
  9
$PUCSYDIR
 10
0.0
 20
1.0
 30
0.0
  9
$PUCSORTHOREF
  2

  9
$PUCSORTHOVIEW
 70
     0
  9
$PUCSORGTOP
 10
0.0
 20
0.0
 30
0.0
  9
$PUCSORGBOTTOM
 10
0.0
 20
0.0
 30
0.0
  9
$PUCSORGLEFT
 10
0.0
 20
0.0
 30
0.0
  9
$PUCSORGRIGHT
 10
0.0
 20
0.0
 30
0.0
  9
$PUCSORGFRONT
 10
0.0
 20
0.0
 30
0.0
  9
$PUCSORGBACK
 10
0.0
 20
0.0
 30
0.0
  9
$USERI1
 70
     0
  9
$USERI2
 70
     0
  9
$USERI3
 70
     0
  9
$USERI4
 70
     0
  9
$USERI5
 70
     0
  9
$USERR1
 40
0.0
  9
$USERR2
 40
0.0
  9
$USERR3
 40
0.0
  9
$USERR4
 40
0.0
  9
$USERR5
 40
0.0
  9
$WORLDVIEW
 70
     1
  9
$SHADEDGE
 70
     3
  9
$SHADEDIF
 70
    70
  9
$TILEMODE
 70
     1
  9
$MAXACTVP
 70
    64
  9
$PINSBASE
 10
0.0
 20
0.0
 30
0.0
  9
$PLIMCHECK
 70
     0
  9
$PEXTMIN
 10
1.000000000000000E+20
 20
1.000000000000000E+20
 30
1.000000000000000E+20
  9
$PEXTMAX
 10
-1.000000000000000E+20
 20
-1.000000000000000E+20
 30
-1.000000000000000E+20
  9
$PLIMMIN
 10
0.0
 20
0.0
  9
$PLIMMAX
 10
841.0
 20
594.0
  9
$UNITMODE
 70
     0
  9
$VISRETAIN
 70
     1
  9
$PLINEGEN
 70
     0
  9
$PSLTSCALE
 70
     0
  9
$TREEDEPTH
 70
  3020
  9
$CMLSTYLE
  2
STANDARD
  9
$CMLJUST
 70
     0
  9
$CMLSCALE
 40
20.0
  9
$PROXYGRAPHICS
 70
     1
  9
$MEASUREMENT
 70
     1
  9
$CELWEIGHT
370
    -1
  9
$ENDCAPS
280
     0
  9
$JOINSTYLE
280
     0
  9
$LWDISPLAY
290
     0
  9
$INSUNITS
 70
     4
  9
$HYPERLINKBASE
  1

  9
$STYLESHEET
  1
ASAMI.ctb
  9
$XEDIT
290
     1
  9
$CEPSNTYPE
380
     0
  9
$PSTYLEMODE
290
     1
  9
$FINGERPRINTGUID
  2
{AFB28963-8C59-40AE-9337-C84526B81ACE}
  9
$VERSIONGUID
  2
{3D3637B4-A61D-40D5-B374-4C9703AB26E4}
  9
$EXTNAMES
290
     1
  9
$PSVPSCALE
 40
0.0
  9
$OLESTARTUP
290
     0
  0
ENDSEC
  0
SECTION
  2
CLASSES
  0
CLASS
  1
ACDBDICTIONARYWDFLT
  2
AcDbDictionaryWithDefault
  3
ObjectDBX Classes
 90
        0
280
     0
281
     0
  0
CLASS
  1
ACDBPLACEHOLDER
  2
AcDbPlaceHolder
  3
ObjectDBX Classes
 90
        0
280
     0
281
     0
  0
CLASS
  1
LAYOUT
  2
AcDbLayout
  3
ObjectDBX Classes
 90
        0
280
     0
281
     0
  0
CLASS
  1
AMGSETTINGSOBJ
  2
AmgSettingsObj
  3
"AcadM|Product Description: AutoCAD Mechanical 2000|Company: Autodesk"
 90
        0
280
     0
281
     0
  0
CLASS
  1
ACME_DOCUMENT
  2
AcMeDbDoc
  3
AcMeServices
 90
        0
280
     0
281
     0
  0
CLASS
  1
ACMESCOPE
  2
AcMeScope
  3
AcMeServices
 90
        0
280
     0
281
     0
  0
CLASS
  1
ACMECOMMANDHISTORY
  2
AcMeCommandHistory
  3
AcMeServices
 90
        0
280
     0
281
     0
  0
CLASS
  1
DICTIONARYVAR
  2
AcDbDictionaryVar
  3
ObjectDBX Classes
 90
        0
280
     0
281
     0
  0
CLASS
  1
ACIMSYSVARMAN
  2
AcImSysVarManager
  3
AcMeServices
 90
        0
280
     0
281
     0
  0
CLASS
  1
ACIMREALSYSVAR
  2
AcImRealSysVar
  3
AcMeServices
 90
        0
280
     0
281
     0
  0
CLASS
  1
ACIMINTSYSVAR
  2
AcImIntSysVar
  3
AcMeServices
 90
        0
280
     0
281
     0
  0
CLASS
  1
ACMEDRAWINGMAN
  2
AcMeDrawingMan
  3
AcMeServices
 90
        0
280
     0
281
     0
  0
CLASS
  1
ACMEVIEW
  2
AcMeView
  3
AcMeServices
 90
        0
280
     0
281
     0
  0
CLASS
  1
ACDBENTITYCACHE
  2
AcMeEntityCache
  3
AcMeServices
 90
        0
280
     0
281
     0
  0
CLASS
  1
GSMANAGER
  2
AcMeGSManager
  3
AcMeServices
 90
        0
280
     0
281
     0
  0
CLASS
  1
AMDTINTERNALREACTOR
  2
AmdtInternalReactor
  3
AcMeServices
 90
        0
280
     0
281
     0
  0
CLASS
  1
ACMESTATEMGR
  2
AcMeStateMgr
  3
AcMeServices
 90
        0
280
     0
281
     0
  0
CLASS
  1
ACME_DATABASE
  2
AcMeDbDatabase
  3
AcMeServices
 90
        0
280
     0
281
     0
  0
CLASS
  1
ACRFINSADJUSTERMGR
  2
AcRfInsAdjusterMgr
  3
AcMeServices
 90
        0
280
     0
281
     0
  0
CLASS
  1
ACMDATADICTIONARY
  2
AcmDataDictionary
  3
"AcmSymBB|Product Description: AutoCAD Mechanical 2004 DX|Company: Autodesk"
 90
        0
280
     0
281
     0
  0
CLASS
  1
ACMDATAENTRYBLOCK
  2
AcmDataEntryBlock
  3
"AcmSymBB|Product Description: AutoCAD Mechanical 2004 DX|Company: Autodesk"
 90
    32768
280
     0
281
     0
  0
CLASS
  1
AMGOBJPROPCFG
  2
AmgObjPropCfg
  3
"AmgLay|Product Description: AutoCAD Mechanical 2000|Company: Autodesk"
 90
        1
280
     0
281
     0
  0
CLASS
  1
ACAMGFILTERDAT
  2
AcAmgFilterDat
  3
"AcadM|Product Description: AutoCAD Mechanical 2000|Company: Autodesk"
 90
    32768
280
     0
281
     0
  0
CLASS
  1
LAYER_INDEX
  2
AcDbLayerIndex
  3
ObjectDBX Classes
 90
        0
280
     0
281
     0
  0
CLASS
  1
IDBUFFER
  2
AcDbIdBuffer
  3
ObjectDBX Classes
 90
        0
280
     0
281
     0
  0
CLASS
  1
ACIMSTRSYSVAR
  2
AcImStrSysVar
  3
AcMeServices
 90
        0
280
     0
281
     0
  0
CLASS
  1
ACMSTANDARDJIS
  2
AcmStandardJIS
  3
"Amdt_StdImp|Product Description: AutoCAD Mechanical 2004 DX|Company: Autodesk"
 90
    32768
280
     0
281
     0
  0
CLASS
  1
ACMSURFSTANDARDJIS
  2
AcmSurfTextStdJIS
  3
"Amdt_StdImp|Product Description: AutoCAD Mechanical 2004 DX|Company: Autodesk"
 90
    32768
280
     0
281
     0
  0
CLASS
  1
ACMFCFSTANDARDJIS
  2
AcmFCFStdJIS
  3
"Amdt_StdImp|Product Description: AutoCAD Mechanical 2004 DX|Company: Autodesk"
 90
    32768
280
     0
281
     0
  0
CLASS
  1
ACMWELDSTANDARDJIS
  2
AcmWeldingStdJIS
  3
"Amdt_StdImp|Product Description: AutoCAD Mechanical 2004 DX|Company: Autodesk"
 90
    32768
280
     0
281
     0
  0
CLASS
  1
ACMIDSTANDARDJIS
  2
AcmIdStdJIS
  3
"Amdt_StdImp|Product Description: AutoCAD Mechanical 2004 DX|Company: Autodesk"
 90
    32768
280
     0
281
     0
  0
CLASS
  1
ACMDATUMSTANDARDJIS
  2
AcmDatumStdJIS
  3
"Amdt_StdImp|Product Description: AutoCAD Mechanical 2004 DX|Company: Autodesk"
 90
    32768
280
     0
281
     0
  0
CLASS
  1
ACMBOMSTANDARDJIS
  2
AcmBOMStdJIS
  3
"Amdt_StdImp|Product Description: AutoCAD Mechanical 2004 DX|Company: Autodesk"
 90
    32768
280
     0
281
     0
  0
CLASS
  1
ACMSTANDARDANSI
  2
AcmStandardANSI
  3
"Amdt_StdImp|Product Description: AutoCAD Mechanical 2004 DX|Company: Autodesk"
 90
    32768
280
     0
281
     0
  0
CLASS
  1
ACMSURFSTANDARDANSI
  2
AcmSurfTextStdANSI
  3
"Amdt_StdImp|Product Description: AutoCAD Mechanical 2004 DX|Company: Autodesk"
 90
    32768
280
     0
281
     0
  0
CLASS
  1
ACMFCFSTANDARDANSI
  2
AcmFCFStdANSI
  3
"Amdt_StdImp|Product Description: AutoCAD Mechanical 2004 DX|Company: Autodesk"
 90
    32768
280
     0
281
     0
  0
CLASS
  1
ACMWELDSTANDARDANSI
  2
AcmWeldingStdANSI
  3
"Amdt_StdImp|Product Description: AutoCAD Mechanical 2004 DX|Company: Autodesk"
 90
    32768
280
     0
281
     0
  0
CLASS
  1
ACMIDSTANDARDANSI
  2
AcmIdStdANSI
  3
"Amdt_StdImp|Product Description: AutoCAD Mechanical 2004 DX|Company: Autodesk"
 90
    32768
280
     0
281
     0
  0
CLASS
  1
ACMDATUMSTANDARDANSI
  2
AcmDatumStdANSI
  3
"Amdt_StdImp|Product Description: AutoCAD Mechanical 2004 DX|Company: Autodesk"
 90
    32768
280
     0
281
     0
  0
CLASS
  1
ACMBOMSTANDARDANSI
  2
AcmBOMStdANSI
  3
"Amdt_StdImp|Product Description: AutoCAD Mechanical 2004 DX|Company: Autodesk"
 90
    32768
280
     0
281
     0
  0
CLASS
  1
ACMSTANDARDBSI
  2
AcmStandardBSI
  3
"Amdt_StdImp|Product Description: AutoCAD Mechanical 2004 DX|Company: Autodesk"
 90
    32768
280
     0
281
     0
  0
CLASS
  1
ACMSURFSTANDARDBSI
  2
AcmSurfTextStdBSI
  3
"Amdt_StdImp|Product Description: AutoCAD Mechanical 2004 DX|Company: Autodesk"
 90
    32768
280
     0
281
     0
  0
CLASS
  1
ACMFCFSTANDARDBSI
  2
AcmFCFStdBSI
  3
"Amdt_StdImp|Product Description: AutoCAD Mechanical 2004 DX|Company: Autodesk"
 90
    32768
280
     0
281
     0
  0
CLASS
  1
ACMWELDSTANDARDBSI
  2
AcmWeldingStdBSI
  3
"Amdt_StdImp|Product Description: AutoCAD Mechanical 2004 DX|Company: Autodesk"
 90
    32768
280
     0
281
     0
  0
CLASS
  1
ACMIDSTANDARDBSI
  2
AcmIdStdBSI
  3
"Amdt_StdImp|Product Description: AutoCAD Mechanical 2004 DX|Company: Autodesk"
 90
    32768
280
     0
281
     0
  0
CLASS
  1
ACMDATUMSTANDARDBSI
  2
AcmDatumStdBSI
  3
"Amdt_StdImp|Product Description: AutoCAD Mechanical 2004 DX|Company: Autodesk"
 90
    32768
280
     0
281
     0
  0
CLASS
  1
ACMBOMSTANDARDBSI
  2
AcmBOMStdBSI
  3
"Amdt_StdImp|Product Description: AutoCAD Mechanical 2004 DX|Company: Autodesk"
 90
    32768
280
     0
281
     0
  0
CLASS
  1
TABLESTYLE
  2
AcDbTableStyle
  3
ObjectDBX Classes
 90
     2047
280
     0
281
     0
  0
CLASS
  1
ACGREFMASTER
  2
AcGrefMaster
  3
AcAttribServices
 90
        0
280
     0
281
     0
  0
CLASS
  1
AM_DRAWING_MGR
  2
AcDmDwgMgr
  3
AcMechDwgViewMgmt
 90
        0
280
     0
281
     0
  0
CLASS
  1
AM_DWG_DOCUMENT
  2
AcDmDwgDocument
  3
AcMechDwgViewMgmt
 90
        0
280
     0
281
     0
  0
CLASS
  1
AM_DWG_SHEET
  2
AcDmSheet
  3
AcMechDwgViewMgmt
 90
        0
280
     0
281
     0
  0
CLASS
  1
AM_VIEWDIMPARMAP
  2
AcDmViewDimParMap
  3
AcMechDwgViewMgmt
 90
        0
280
     0
281
     0
  0
CLASS
  1
AM_DWGMGR_NAME
  2
AcDmDwgMgrName
  3
AcMechDwgViewMgmt
 90
        0
280
     0
281
     0
  0
CLASS
  1
ACGREFACADMASTER
  2
AcGrefacadMaster
  3
AcGrefServices
 90
        0
280
     0
281
     0
  0
CLASS
  1
AMDTMENUSTATEMGR
  2
AmdtMenuStateMgr
  3
McadcomServices
 90
        0
280
     0
281
     0
  0
CLASS
  1
AMDTMCOMMENUSTATE
  2
AmdtMcomMenuState
  3
McadcomServices
 90
        0
280
     0
281
     0
  0
CLASS
  1
AMIMASTER
  2
AmiMaster
  3
AmiServices
 90
        0
280
     0
281
     0
  0
CLASS
  1
MAPIAMMOUDLE
  2
MApiAmModule
  3
MApiAmServices
 90
        0
280
     0
281
     0
  0
CLASS
  1
AMDTADMENUSTATE
  2
AmdtAdMenuState
  3
DesignerServices
 90
        0
280
     0
281
     0
  0
CLASS
  1
ADAPPL
  2
AcAdAppl
  3
DesignerServices
 90
        0
280
     0
281
     0
  0
CLASS
  1
DEPMGR
  2
AcAdDepMgr
  3
DesignerServices
 90
        0
280
     0
281
     0
  0
CLASS
  1
PARAMMGR
  2
AcAdParamMgr
  3
DesignerServices
 90
        0
280
     0
281
     0
  0
CLASS
  1
PARAMSCOPE
  2
AcAdParamScope
  3
DesignerServices
 90
        0
280
     0
281
     0
  0
CLASS
  1
NAMEDAPPL
  2
AcAdNamedAppl
  3
DesignerServices
 90
        0
280
     0
281
     0
  0
CLASS
  1
AMDTDMMENUSTATE
  2
AmdtDmMenuState
  3
AcMechDwgViewMgmt
 90
        0
280
     0
281
     0
  0
CLASS
  1
AMDTAMMENUSTATE
  2
AmdtAmMenuState
  3
DesignerAssemblies
 90
        0
280
     0
281
     0
  0
CLASS
  1
ACAMPROJECT
  2
AcAmProject
  3
DesignerAssemblies
 90
        0
280
     0
281
     0
  0
CLASS
  1
ACAMGRCOMPDEF
  2
AcAmGrCompDef
  3
DesignerAssemblies
 90
        0
280
     0
281
     0
  0
CLASS
  1
ACCMCONTEXT
  2
AcCmContext
  3
DesignerAssemblies
 90
        0
280
     0
281
     0
  0
CLASS
  1
ACAMCOMPDEF
  2
AcAmCompDef
  3
DesignerAssemblies
 90
        0
280
     0
281
     0
  0
CLASS
  1
ACAMCOMPDEFMGR
  2
AcAmCompDefMgr
  3
DesignerAssemblies
 90
        0
280
     0
281
     0
  0
CLASS
  1
AMCONTEXTMGR
  2
AcAmContextMgr
  3
DesignerAssemblies
 90
        0
280
     0
281
     0
  0
CLASS
  1
ACAMCONTEXTMODELER
  2
AcAmContextModeler
  3
DesignerAssemblies
 90
        0
280
     0
281
     0
  0
CLASS
  1
CATALOGSTATE
  2
AcAmCatalogState
  3
DesignerAssemblies
 90
        0
280
     0
281
     0
  0
CLASS
  1
ACAMGRCOMPDEFSET
  2
AcAmGrCompDefSet
  3
DesignerAssemblies
 90
        0
280
     0
281
     0
  0
CLASS
  1
AMDTBROWSERDBTAB
  2
AmdtBrowserDbTab
  3
McadcomServices
 90
        0
280
     0
281
     0
  0
CLASS
  1
CBROWSERAPPOBJECT
  2
CBrowserAppObject
  3
McadcomServices
 90
        0
280
     0
281
     0
  0
CLASS
  1
DM_PLACEHOLDER
  2
AcDmSelsetPlaceholder
  3
AcMechDwgViewMgmt
 90
        0
280
     0
281
     0
  0
CLASS
  1
ACMSTANDARDISO
  2
AcmStandardISO
  3
"Amdt_StdImp|Product Description: AutoCAD Mechanical 2004 DX|Company: Autodesk"
 90
        0
280
     0
281
     0
  0
CLASS
  1
AMDTEDGESTANDARDISO13715
  2
AmdtEdgeStdISO13715
  3
"Amdt_StdImp|Product Description: AutoCAD Mechanical 2004 DX|Company: Autodesk"
 90
        0
280
     0
281
     0
  0
CLASS
  1
ACMSURFSTANDARDISO
  2
AcmSurfTextStdISO
  3
"Amdt_StdImp|Product Description: AutoCAD Mechanical 2004 DX|Company: Autodesk"
 90
        0
280
     0
281
     0
  0
CLASS
  1
ACMFCFSTANDARDISO
  2
AcmFCFStdISO
  3
"Amdt_StdImp|Product Description: AutoCAD Mechanical 2004 DX|Company: Autodesk"
 90
        0
280
     0
281
     0
  0
CLASS
  1
ACMWELDSTANDARDISO
  2
AcmWeldingStdISO
  3
"Amdt_StdImp|Product Description: AutoCAD Mechanical 2004 DX|Company: Autodesk"
 90
        0
280
     0
281
     0
  0
CLASS
  1
ACMIDSTANDARDISO
  2
AcmIdStdISO
  3
"Amdt_StdImp|Product Description: AutoCAD Mechanical 2004 DX|Company: Autodesk"
 90
        0
280
     0
281
     0
  0
CLASS
  1
ACMDATUMSTANDARDISO
  2
AcmDatumStdISO
  3
"Amdt_StdImp|Product Description: AutoCAD Mechanical 2004 DX|Company: Autodesk"
 90
        0
280
     0
281
     0
  0
CLASS
  1
ACMBOMSTANDARDISO
  2
AcmBOMStdISO
  3
"Amdt_StdImp|Product Description: AutoCAD Mechanical 2004 DX|Company: Autodesk"
 90
        0
280
     0
281
     0
  0
CLASS
  1
ACMDETAILSTANDARDISO
  2
AmdtDetailSymStdISO
  3
"Amdt_StdImp|Product Description: AutoCAD Mechanical 2004 DX|Company: Autodesk"
 90
        0
280
     0
281
     0
  0
CLASS
  1
ACMSECTIONSTANDARDISO
  2
AmdtSectionSymStdISO
  3
"Amdt_StdImp|Product Description: AutoCAD Mechanical 2004 DX|Company: Autodesk"
 90
        0
280
     0
281
     0
  0
CLASS
  1
ACMCENTERLINESTANDARDISO
  2
AmdtCenterLineStdISO
  3
"Amdt_StdImp|Product Description: AutoCAD Mechanical 2004 DX|Company: Autodesk"
 90
        0
280
     0
281
     0
  0
CLASS
  1
ACMTHREADLINESTANDARDISO
  2
AmdtThreadLineStdISO
  3
"Amdt_StdImp|Product Description: AutoCAD Mechanical 2004 DX|Company: Autodesk"
 90
        0
280
     0
281
     0
  0
CLASS
  1
ACMNOTESTANDARDISO
  2
AmdtNoteStdISO
  3
"Amdt_StdImp|Product Description: AutoCAD Mechanical 2004 DX|Company: Autodesk"
 90
        0
280
     0
281
     0
  0
CLASS
  1
AMDTNOTETEMPLATEDB
  2
AmdtNoteTemplateDB
  3
AMDT_STDIMP_MODULE_NAME
 90
        0
280
     0
281
     0
  0
CLASS
  1
ACAMGLAYSTD
  2
AcAmgLayStd
  3
"AcAmgLayStd|Product Description: AutoCAD Mechanical 2000|Company: Autodesk"
 90
        0
280
     0
281
     0
  0
CLASS
  1
ACAMGDIMSTD
  2
AcAmgDimStd
  3
"AcAmgDimStd|Product Description: AutoCAD Mechanical 2000|Company: Autodesk"
 90
        0
280
     0
281
     0
  0
CLASS
  1
ACAMGHOLECHARTSTDISO
  2
AcAmgHoleChartStdISO
  3
ACMSYMBB_MODULE_NAME
 90
        0
280
     0
281
     0
  0
CLASS
  1
ACAMGTITLESTD
  2
AcAmgTitleStd
  3
"TITLEAPP"
 90
        0
280
     0
281
     0
  0
CLASS
  1
ACRFATTGENMGR
  2
AcRfAttGeneralMgr
  3
AcAttribServices
 90
        0
280
     0
281
     0
  0
ENDSEC
  0
SECTION
  2
TABLES
  0
TABLE
  2
VPORT
  5
8
330
0
100
AcDbSymbolTable
 70
    40
  0
VPORT
  5
94FF
330
8
100
AcDbSymbolTableRecord
100
AcDbViewportTableRecord
  2
*Active
 70
     0
 10
0.0
 20
0.0
 11
1.0
 21
1.0
 12
-28.73381338992692
 22
-27.82572532475598
 13
0.0
 23
0.0
 14
2.5
 24
2.5
 15
10.0
 25
10.0
 16
0.0
 26
0.0
 36
1.0
 17
0.0
 27
0.0
 37
0.0
 40
200.0729841065843
 41
2.002364066193853
 42
50.0
 43
0.0
 44
0.0
 50
0.0
 51
0.0
 71
     0
 72
   100
 73
     1
 74
     3
 75
     0
 76
     0
 77
     0
 78
     0
281
     0
 65
     0
110
0.0
120
0.0
130
0.0
111
1.0
121
0.0
131
0.0
112
0.0
122
1.0
132
0.0
 79
     0
146
0.0
  0
ENDTAB
  0
TABLE
  2
LTYPE
  5
5
330
0
100
AcDbSymbolTable
 70
    16
  0
LTYPE
  5
14
330
5
100
AcDbSymbolTableRecord
100
AcDbLinetypeTableRecord
  2
BYBLOCK
 70
     0
  3

 72
    65
 73
     0
 40
0.0
  0
LTYPE
  5
15
330
5
100
AcDbSymbolTableRecord
100
AcDbLinetypeTableRecord
  2
BYLAYER
 70
     0
  3

 72
    65
 73
     0
 40
0.0
  0
LTYPE
  5
16
330
5
100
AcDbSymbolTableRecord
100
AcDbLinetypeTableRecord
  2
CONTINUOUS
 70
     0
  3
Solid line
 72
    65
 73
     0
 40
0.0
  0
LTYPE
  5
4B
330
5
100
AcDbSymbolTableRecord
100
AcDbLinetypeTableRecord
  2
AM_ISO02W050
 70
     0
  3
__ __ __ __ __ __ __ __ __ __ __ __ __ __ __
 72
    65
 73
     2
 40
7.5
 49
6.0
 74
     0
 49
-1.5
 74
     0
  0
LTYPE
  5
4C
330
5
100
AcDbSymbolTableRecord
100
AcDbLinetypeTableRecord
  2
AM_ISO08W050
 70
     0
  3
____ . ____ . ____ . ____ . ____ . ____ . ____
 72
    65
 73
     4
 40
18.0
 49
12.0
 74
     0
 49
-1.5
 74
     0
 49
3.0
 74
     0
 49
-1.5
 74
     0
  0
LTYPE
  5
4D
330
5
100
AcDbSymbolTableRecord
100
AcDbLinetypeTableRecord
  2
AM_ISO09W050
 70
     0
  3
_____ . . _____ . . _____ . . ____ .. ____
 72
    65
 73
     6
 40
22.5
 49
12.0
 74
     0
 49
-1.5
 74
     0
 49
3.0
 74
     0
 49
-1.5
 74
     0
 49
3.0
 74
     0
 49
-1.5
 74
     0
  0
LTYPE
  5
4E
330
5
100
AcDbSymbolTableRecord
100
AcDbLinetypeTableRecord
  2
AMCONSTR
 70
     0
  3
_______________________
 72
    65
 73
     2
 40
9999.0
 49
9999.0
 74
     0
 49
0.0
 74
     0
  0
LTYPE
  5
4F
330
5
100
AcDbSymbolTableRecord
100
AcDbLinetypeTableRecord
  2
AM_ISO02W050X2
 70
     0
  3
 _ _ _ _ _ _ _ _ _ _ _ _
 72
    65
 73
     2
 40
3.75
 49
3.0
 74
     0
 49
-0.75
 74
     0
  0
LTYPE
  5
50
330
5
100
AcDbSymbolTableRecord
100
AcDbLinetypeTableRecord
  2
AM_ISO08W050X2
 70
     0
  3
__ . __ . __ . __ . __ . __
 72
    65
 73
     4
 40
9.0
 49
6.0
 74
     0
 49
-0.75
 74
     0
 49
1.5
 74
     0
 49
-0.75
 74
     0
  0
LTYPE
  5
53
330
5
100
AcDbSymbolTableRecord
100
AcDbLinetypeTableRecord
  2
AMZIGZAG
 70
     0
  3
/\/-/\/-/\/-/\/-/\/-/\/
 72
    65
 73
     2
 40
11.00009999999999
 49
0.0001
 74
     4
 75
   135
340
52
 46
0.04
 50
0.0
 44
0.0
 45
0.0
 49
-11.0
 74
     0
  0
LTYPE
  5
9393
330
5
100
AcDbSymbolTableRecord
100
AcDbLinetypeTableRecord
  2
HIDDEN
 70
     0
  3
Hidden __ __ __ __ __ __ __ __ __ __ __ __ __ _
 72
    65
 73
     2
 40
9.524999999999998
 49
6.349999999999999
 74
     0
 49
-3.174999999999999
 74
     0
  0
LTYPE
  5
9394
330
5
100
AcDbSymbolTableRecord
100
AcDbLinetypeTableRecord
  2
PHANTOM2
 70
     0
  3
Phantom (.5x) ___ _ _ ___ _ _ ___ _ _ ___ _ _
 72
    65
 73
     6
 40
31.75
 49
15.875
 74
     0
 49
-3.174999999999999
 74
     0
 49
3.174999999999999
 74
     0
 49
-3.174999999999999
 74
     0
 49
3.174999999999999
 74
     0
 49
-3.174999999999999
 74
     0
  0
LTYPE
  5
9395
330
5
100
AcDbSymbolTableRecord
100
AcDbLinetypeTableRecord
  2
CENTER
 70
     0
  3
Center ____ _ ____ _ ____ _ ____ _ ____ _ ____
 72
    65
 73
     4
 40
50.8
 49
31.75
 74
     0
 49
-6.349999999999999
 74
     0
 49
6.349999999999999
 74
     0
 49
-6.349999999999999
 74
     0
  0
LTYPE
  5
93D5
330
5
100
AcDbSymbolTableRecord
100
AcDbLinetypeTableRecord
  2
ACISOWELD
 70
     0
  3
_ _ _ _ _
 72
    65
 73
     2
 40
2.0
 49
2.0
 74
     0
 49
-1.0
 74
     0
  0
LTYPE
  5
93D6
330
5
100
AcDbSymbolTableRecord
100
AcDbLinetypeTableRecord
  2
ACISOTGB
 70
     0
  3
__ . . __ . .
 72
    65
 73
     6
 40
9.0
 49
4.0
 74
     0
 49
-1.0
 74
     0
 49
1.0
 74
     0
 49
-1.0
 74
     0
 49
1.0
 74
     0
 49
-1.0
 74
     0
  0
LTYPE
  5
93D7
330
5
100
AcDbSymbolTableRecord
100
AcDbLinetypeTableRecord
  2
ACISOTGL
 70
     0
  3
_ _ _ _ _
 72
    65
 73
     2
 40
3.0
 49
2.0
 74
     0
 49
-1.0
 74
     0
  0
ENDTAB
  0
TABLE
  2
LAYER
  5
2
330
0
100
AcDbSymbolTable
 70
    10
  0
LAYER
  5
10
330
2
100
AcDbSymbolTableRecord
100
AcDbLayerTableRecord
  2
0
 70
     0
 62
     7
  6
CONTINUOUS
370
    -3
390
F
  0
LAYER
  5
3F9
330
2
100
AcDbSymbolTableRecord
100
AcDbLayerTableRecord
  2
AM_0
 70
     0
 62
     7
  6
CONTINUOUS
370
    -3
390
F
  0
LAYER
  5
BD5
330
2
100
AcDbSymbolTableRecord
100
AcDbLayerTableRecord
  2
AM_7
 70
     0
 62
     4
  6
AM_ISO08W050
370
    -3
390
F
  0
LAYER
  5
BD6
330
2
100
AcDbSymbolTableRecord
100
AcDbLayerTableRecord
  2
AM_5
 70
     0
 62
     3
  6
CONTINUOUS
370
    -3
390
F
  0
LAYER
  5
BD7
330
2
100
AcDbSymbolTableRecord
100
AcDbLayerTableRecord
  2
DEFPOINTS
 70
     0
 62
     7
  6
CONTINUOUS
290
     0
370
    -3
390
F
  0
LAYER
  5
E59
330
2
100
AcDbSymbolTableRecord
100
AcDbLayerTableRecord
  2
AM_6
 70
     0
 62
     2
  6
CONTINUOUS
370
    -3
390
F
  0
LAYER
  5
1E31
330
2
100
AcDbSymbolTableRecord
100
AcDbLayerTableRecord
  2
AM_11
 70
     0
 62
     3
  6
AM_ISO09W050
370
    -3
390
F
  0
ENDTAB
  0
TABLE
  2
STYLE
  5
3
330
0
100
AcDbSymbolTable
 70
     7
  0
STYLE
  5
11
330
3
100
AcDbSymbolTableRecord
100
AcDbTextStyleTableRecord
  2
STANDARD
 70
     0
 40
0.0
 41
1.0
 50
0.0
 71
     0
 42
2.5
  3
simplex.shx
  4
EXTFONT.SHX
  0
STYLE
  5
52
330
3
100
AcDbSymbolTableRecord
100
AcDbTextStyleTableRecord
  2

 70
     1
 40
0.0
 41
1.0
 50
0.0
 71
     0
 42
2.5
  3
ltypeshp.shx
  4

  0
STYLE
  5
6B
330
3
100
AcDbSymbolTableRecord
100
AcDbTextStyleTableRecord
  2
ASAMI
 70
     0
 40
0.0
 41
1.0
 50
0.0
 71
     0
 42
2.5
  3
simplex.shx
  4
EXTFONT.SHX
  0
STYLE
  5
93C7
330
3
100
AcDbSymbolTableRecord
100
AcDbTextStyleTableRecord
  2
ACISOTS
 70
     0
 40
1.0
 41
1.0
 50
0.0
 71
     0
 42
2.5
  3
isocp.shx
  4
extfont.shx
  0
STYLE
  5
93D4
330
3
100
AcDbSymbolTableRecord
100
AcDbTextStyleTableRecord
  2
ACISOGDT
 70
     0
 40
0.0
 41
1.0
 50
0.0
 71
     0
 42
2.5
  3
amgdt.shx
  4

  0
ENDTAB
  0
TABLE
  2
VIEW
  5
6
330
0
100
AcDbSymbolTable
 70
     0
  0
ENDTAB
  0
TABLE
  2
UCS
  5
7
330
0
100
AcDbSymbolTable
 70
     0
  0
ENDTAB
  0
TABLE
  2
APPID
  5
9
330
0
100
AcDbSymbolTable
 70
    20
  0
APPID
  5
12
330
9
100
AcDbSymbolTableRecord
100
AcDbRegAppTableRecord
  2
ACAD
 70
     0
  0
APPID
  5
30
330
9
100
AcDbSymbolTableRecord
100
AcDbRegAppTableRecord
  2
MCAD_NO_VIS
 70
     0
  0
APPID
  5
31
330
9
100
AcDbSymbolTableRecord
100
AcDbRegAppTableRecord
  2
ACAD_TEMP_GRAPHIC
 70
     0
  0
APPID
  5
2C2
330
9
100
AcDbSymbolTableRecord
100
AcDbRegAppTableRecord
  2
GENIUS_GENDTOL_13
 70
     0
  0
APPID
  5
339
330
9
100
AcDbSymbolTableRecord
100
AcDbRegAppTableRecord
  2
GENIUS_GENODEF_13
 70
     0
  0
APPID
  5
33A
330
9
100
AcDbSymbolTableRecord
100
AcDbRegAppTableRecord
  2
GENIUS_GENOBJ-N-RSBK_13
 70
     0
  0
APPID
  5
33B
330
9
100
AcDbSymbolTableRecord
100
AcDbRegAppTableRecord
  2
GENIUS_GENOBJ-N-LIB_13
 70
     0
  0
APPID
  5
33C
330
9
100
AcDbSymbolTableRecord
100
AcDbRegAppTableRecord
  2
GENIUS_GENSCALE_13
 70
     0
  0
APPID
  5
378
330
9
100
AcDbSymbolTableRecord
100
AcDbRegAppTableRecord
  2
GENIUS_GENDIMSH_14
 70
     0
  0
APPID
  5
BD8
330
9
100
AcDbSymbolTableRecord
100
AcDbRegAppTableRecord
  2
GENIUS_GENOBJ-N-CEN_13
 70
     0
  0
APPID
  5
BD9
330
9
100
AcDbSymbolTableRecord
100
AcDbRegAppTableRecord
  2
GENIUS_GENFIL_13
 70
     0
  0
APPID
  5
BDA
330
9
100
AcDbSymbolTableRecord
100
AcDbRegAppTableRecord
  2
GENIUS_GENOBJ-N-CHA_13
 70
     0
  0
APPID
  5
2BC1
330
9
100
AcDbSymbolTableRecord
100
AcDbRegAppTableRecord
  2
GENIUS_GENOBJ-N-FIL_13
 70
     0
  0
APPID
  5
9397
330
9
100
AcDbSymbolTableRecord
100
AcDbRegAppTableRecord
  2
AD_DRAW
 70
     0
  0
APPID
  5
939A
330
9
100
AcDbSymbolTableRecord
100
AcDbRegAppTableRecord
  2
ACATTRIBSERVICES
 70
     0
  0
APPID
  5
93B8
330
9
100
AcDbSymbolTableRecord
100
AcDbRegAppTableRecord
  2
DESIGNERASSEMBLIES
 70
     0
  0
APPID
  5
93BD
330
9
100
AcDbSymbolTableRecord
100
AcDbRegAppTableRecord
  2
ACADM_DIM_EDIT
 70
     0
  0
APPID
  5
93BE
330
9
100
AcDbSymbolTableRecord
100
AcDbRegAppTableRecord
  2
AMDT_DM_ADJ
 70
     0
  0
APPID
  5
93EA
330
9
100
AcDbSymbolTableRecord
100
AcDbRegAppTableRecord
  2
GENIUS_GENSCREG_15
 70
     0
  0
APPID
  5
93EB
330
9
100
AcDbSymbolTableRecord
100
AcDbRegAppTableRecord
  2
GENIUS_GENOBJ-N-SDF_13
 70
     0
  0
ENDTAB
  0
TABLE
  2
DIMSTYLE
  5
A
330
0
100
AcDbSymbolTable
 70
    17
100
AcDbDimStyleTable
 71
     1
340
58
  0
DIMSTYLE
105
58
102
{ACAD_REACTORS
330
8E3B
330
8E3A
330
8E40
330
8E3C
330
8E3D
330
8E3E
330
8E3F
102
}
330
A
100
AcDbSymbolTableRecord
100
AcDbDimStyleTableRecord
  2
AM_JIS
 70
     0
  4
"
 41
2.5
 42
1.0
 43
12.0
 44
1.0
 47
0.1
 48
0.1
 73
     0
 74
     0
 77
     3
 78
     8
140
3.2
141
0.0
143
0.0393701
146
0.71
147
1.5
172
     1
176
   256
177
   256
178
     2
271
     3
272
     3
283
     0
340
6B
341
59
342
59
  0
DIMSTYLE
105
1E42
102
{ACAD_REACTORS
330
9250
330
94C5
102
}
330
A
100
AcDbSymbolTableRecord
100
AcDbDimStyleTableRecord
  2
AM_JIS$0
 70
     0
  4
"
 40
2.0
 41
2.5
 42
1.0
 43
10.0
 44
1.0
 47
0.1
 48
0.1
 73
     0
 74
     0
 77
     3
 78
     8
140
2.5
141
0.0
143
0.0393701
146
0.71
147
1.0
172
     1
176
   256
177
   256
178
     4
271
     3
272
     3
283
     0
340
6B
341
59
342
59
  0
DIMSTYLE
105
93E1
330
A
100
AcDbSymbolTableRecord
100
AcDbDimStyleTableRecord
  2
AM_ISO
 70
     0
  4
"
 41
2.5
 42
1.0
 43
10.0
 44
1.0
 47
0.1
 48
0.1
 73
     0
 74
     0
 77
     1
 78
     8
 79
     2
140
3.5
141
0.0
143
0.0393701
146
0.71
147
1.5
172
     1
176
   256
177
   256
178
     2
271
     2
272
     3
274
     4
283
     0
284
     8
340
11
371
    -1
372
    -1
  0
DIMSTYLE
105
93E2
330
A
100
AcDbSymbolTableRecord
100
AcDbDimStyleTableRecord
  2
AM_ISO$3
 70
     0
  4
"
 41
2.5
 42
1.0
 43
10.0
 44
1.0
 47
0.1
 48
0.1
 73
     0
 77
     1
 78
     8
 79
     2
140
3.5
141
0.0
143
0.0393701
146
0.71
147
1.5
176
   256
177
   256
178
     2
271
     2
272
     3
274
     4
283
     0
284
     8
288
     1
289
     0
340
11
371
    -1
372
    -1
  0
DIMSTYLE
105
93E3
330
A
100
AcDbSymbolTableRecord
100
AcDbDimStyleTableRecord
  2
AM_ISO$4
 70
     0
  4
"
 41
2.5
 42
1.0
 43
10.0
 44
1.0
 47
0.1
 48
0.1
 73
     0
 77
     1
 78
     8
 79
     2
140
3.5
141
0.0
143
0.0393701
146
0.71
147
1.5
176
   256
177
   256
178
     2
271
     2
272
     3
274
     4
283
     0
284
     8
288
     1
289
     0
340
11
371
    -1
372
    -1
  0
DIMSTYLE
105
93E4
330
A
100
AcDbSymbolTableRecord
100
AcDbDimStyleTableRecord
  2
AM_ISO$6
 70
     0
  4
"
 41
2.5
 42
1.0
 43
10.0
 44
1.0
 47
0.1
 48
0.1
 73
     0
 74
     0
 78
     8
 79
     2
140
3.5
141
0.0
143
0.0393701
146
0.71
147
1.5
172
     1
176
   256
177
   256
178
     2
271
     2
272
     3
274
     4
283
     0
284
     8
340
11
371
    -1
372
    -1
  0
DIMSTYLE
105
93E5
330
A
100
AcDbSymbolTableRecord
100
AcDbDimStyleTableRecord
  2
AM_ISO$7
 70
     0
  4
"
 41
2.5
 42
1.0
 43
10.0
 44
1.0
 47
0.1
 48
0.1
 73
     0
 74
     0
 77
     1
 78
     8
 79
     2
140
5.0
141
0.0
143
0.0393701
146
0.71
147
1.5
172
     1
176
   256
177
   256
178
     2
271
     2
272
     3
274
     4
283
     0
284
     8
340
11
371
    -1
372
    -1
  0
DIMSTYLE
105
93E6
330
A
100
AcDbSymbolTableRecord
100
AcDbDimStyleTableRecord
  2
AM_ISO$SF
 70
     0
  4
"
 41
2.5
 42
1.0
 43
10.0
 44
1.0
 47
0.1
 48
0.1
 73
     0
 74
     0
 75
     1
 76
     1
 77
     1
 78
     8
 79
     2
140
3.5
141
0.0
143
0.0393701
146
0.71
147
1.5
172
     1
176
   256
177
   256
178
     2
271
     2
272
     3
274
     4
283
     0
284
     8
340
11
371
    -1
372
    -1
  0
DIMSTYLE
105
93E7
330
A
100
AcDbSymbolTableRecord
100
AcDbDimStyleTableRecord
  2
AM_ISO$SH
 70
     0
  4
"
 41
2.5
 42
1.0
 43
10.0
 44
1.0
 47
0.1
 48
0.1
 73
     0
 74
     0
 75
     1
 76
     1
 77
     1
 78
     8
 79
     2
140
3.5
141
0.0
143
0.0393701
144
2.0
146
0.71
147
1.5
172
     1
173
     1
176
   256
177
   256
178
     2
271
     2
272
     3
274
     4
283
     0
284
     8
340
11
343
64
371
    -1
372
    -1
  0
DIMSTYLE
105
93EE
330
A
100
AcDbSymbolTableRecord
100
AcDbDimStyleTableRecord
  2
STANDARD
 70
     0
340
11
  0
ENDTAB
  0
TABLE
  2
BLOCK_RECORD
  5
1
330
0
100
AcDbSymbolTable
 70
    13
  0
BLOCK_RECORD
  5
1F
102
{ACAD_XDICTIONARY
360
74
102
}
330
1
100
AcDbSymbolTableRecord
100
AcDbBlockTableRecord
  2
*MODEL_SPACE
340
9360
  0
BLOCK_RECORD
  5
101
102
{ACAD_XDICTIONARY
360
9354
102
}
330
1
100
AcDbSymbolTableRecord
100
AcDbBlockTableRecord
  2
*PAPER_SPACE
340
9361
  0
BLOCK_RECORD
  5
59
330
1
100
AcDbSymbolTableRecord
100
AcDbBlockTableRecord
  2
_OPEN30
340
0
102
{BLKREFS
331
92FF
331
9300
331
92F4
331
92F5
331
90ED
331
90EE
331
90DB
331
90DC
331
90D2
331
90D3
331
90C9
331
90CA
331
90E4
331
90E5
331
91EF
331
91F0
331
92EB
331
92EC
331
94F5
331
94F6
102
}
  0
BLOCK_RECORD
  5
64
330
1
100
AcDbSymbolTableRecord
100
AcDbBlockTableRecord
  2
GENAXEH
340
0
  0
BLOCK_RECORD
  5
8E41
330
1
100
AcDbSymbolTableRecord
100
AcDbBlockTableRecord
  2
*D2
340
0
  0
BLOCK_RECORD
  5
8E4F
330
1
100
AcDbSymbolTableRecord
100
AcDbBlockTableRecord
  2
*D3
340
0
  0
BLOCK_RECORD
  5
8E5B
330
1
100
AcDbSymbolTableRecord
100
AcDbBlockTableRecord
  2
*D4
340
0
  0
BLOCK_RECORD
  5
8E67
330
1
100
AcDbSymbolTableRecord
100
AcDbBlockTableRecord
  2
*D5
340
0
  0
BLOCK_RECORD
  5
8E73
330
1
100
AcDbSymbolTableRecord
100
AcDbBlockTableRecord
  2
*D6
340
0
  0
BLOCK_RECORD
  5
8E7F
330
1
100
AcDbSymbolTableRecord
100
AcDbBlockTableRecord
  2
*D7
340
0
  0
BLOCK_RECORD
  5
8E8B
330
1
100
AcDbSymbolTableRecord
100
AcDbBlockTableRecord
  2
*D8
340
0
  0
BLOCK_RECORD
  5
9251
330
1
100
AcDbSymbolTableRecord
100
AcDbBlockTableRecord
  2
*D10
340
0
  0
BLOCK_RECORD
  5
94C6
330
1
100
AcDbSymbolTableRecord
100
AcDbBlockTableRecord
  2
*D12
340
0
  0
ENDTAB
  0
ENDSEC
  0
SECTION
  2
BLOCKS
  0
BLOCK
  5
20
330
1F
100
AcDbEntity
  8
0
100
AcDbBlockBegin
  2
*MODEL_SPACE
 70
     0
 10
0.0
 20
0.0
 30
0.0
  3
*MODEL_SPACE
  1

  0
ENDBLK
  5
21
330
1F
100
AcDbEntity
  8
0
100
AcDbBlockEnd
  0
BLOCK
  5
103
330
101
100
AcDbEntity
 67
     1
  8
0
100
AcDbBlockBegin
  2
*PAPER_SPACE
 70
     0
 10
0.0
 20
0.0
 30
0.0
  3
*PAPER_SPACE
  1

  0
ENDBLK
  5
104
330
101
100
AcDbEntity
 67
     1
  8
0
100
AcDbBlockEnd
  0
BLOCK
  5
5D
330
59
100
AcDbEntity
  8
0
100
AcDbBlockBegin
  2
_OPEN30
 70
     0
 10
0.0
 20
0.0
 30
0.0
  3
_OPEN30
  1

  0
LINE
  5
5A
330
59
100
AcDbEntity
  8
0
 62
     0
100
AcDbLine
 10
-1.0
 20
0.26794919
 30
0.0
 11
0.0
 21
0.0
 31
0.0
  0
LINE
  5
5B
330
59
100
AcDbEntity
  8
0
 62
     0
100
AcDbLine
 10
0.0
 20
0.0
 30
0.0
 11
-1.0
 21
-0.26794919
 31
0.0
  0
LINE
  5
5C
330
59
100
AcDbEntity
  8
0
 62
     0
100
AcDbLine
 10
0.0
 20
0.0
 30
0.0
 11
-1.0
 21
0.0
 31
0.0
  0
ENDBLK
  5
5E
330
59
100
AcDbEntity
  8
0
100
AcDbBlockEnd
  0
BLOCK
  5
66
330
64
100
AcDbEntity
  8
0
100
AcDbBlockBegin
  2
GENAXEH
 70
     0
 10
0.0
 20
0.0
 30
0.0
  3
GENAXEH
  1

  0
LINE
  5
65
330
64
100
AcDbEntity
  8
0
100
AcDbLine
 10
-1.0
 20
0.0
 30
0.0
 11
1.0
 21
0.0
 31
0.0
  0
ENDBLK
  5
67
330
64
100
AcDbEntity
  8
0
100
AcDbBlockEnd
  0
BLOCK
  5
8E4D
330
8E41
100
AcDbEntity
  8
0
100
AcDbBlockBegin
  2
*D2
 70
     1
 10
0.0
 20
0.0
 30
0.0
  3
*D2
  1

  0
LINE
  5
92FA
330
8E41
100
AcDbEntity
  8
AM_5
100
AcDbLine
 10
-60.0
 20
7.949999999999986
 30
0.0
 11
-74.99999999999992
 21
7.949999999999991
 31
0.0
  0
LINE
  5
92FB
330
8E41
100
AcDbEntity
  8
AM_5
100
AcDbLine
 10
-60.0
 20
-7.949999999999986
 30
0.0
 11
-74.99999999999992
 21
-7.949999999999983
 31
0.0
  0
LINE
  5
92FC
330
8E41
100
AcDbEntity
  8
AM_5
100
AcDbLine
 10
-73.99999999999995
 20
10.44999999999999
 30
0.0
 11
-73.99999999999995
 21
12.94999999999999
 31
0.0
  0
LINE
  5
92FD
330
8E41
100
AcDbEntity
  8
AM_5
100
AcDbLine
 10
-73.99999999999995
 20
-10.44999999999998
 30
0.0
 11
-73.99999999999995
 21
-12.94999999999998
 31
0.0
  0
LINE
  5
92FE
330
8E41
100
AcDbEntity
  8
AM_5
100
AcDbLine
 10
-73.99999999999995
 20
7.949999999999991
 30
0.0
 11
-73.99999999999995
 21
-7.949999999999985
 31
0.0
  0
INSERT
  5
92FF
330
8E41
100
AcDbEntity
  8
AM_5
100
AcDbBlockReference
  2
_OPEN30
 10
-73.99999999999995
 20
7.949999999999991
 30
0.0
 41
2.5
 42
2.5
 43
2.5
 50
270.0
  0
INSERT
  5
9300
330
8E41
100
AcDbEntity
  8
AM_5
100
AcDbBlockReference
  2
_OPEN30
 10
-73.99999999999995
 20
-7.949999999999985
 30
0.0
 41
2.5
 42
2.5
 43
2.5
 50
90.0
  0
MTEXT
  5
9301
330
8E41
100
AcDbEntity
  8
AM_5
 62
     2
100
AcDbMText
 10
-77.09999999999993
 20
-0.0000000000000565
 30
0.0
 40
3.2
 41
0.0
 71
     5
 72
     1
  1
15.9
  7
ASAMI
 11
0.0000000000000001
 21
1.0
 31
0.0
 73
     1
 44
1.0
1001
ACAD
1000
MTEXTBEGIN
1070
    73
1070
     1
1070
    44
1040
1.0
1070
    74
1070
     0
1000
MTEXTEND
  0
POINT
  5
9302
330
8E41
100
AcDbEntity
  8
DEFPOINTS
 62
     0
100
AcDbPoint
 10
-59.0
 20
7.949999999999986
 30
0.0
  0
POINT
  5
9303
330
8E41
100
AcDbEntity
  8
DEFPOINTS
 62
     0
100
AcDbPoint
 10
-59.0
 20
-7.949999999999986
 30
0.0
  0
POINT
  5
9304
330
8E41
100
AcDbEntity
  8
DEFPOINTS
 62
     0
100
AcDbPoint
 10
-73.99999999999995
 20
-7.949999999999985
 30
0.0
  0
ENDBLK
  5
8E4E
330
8E41
100
AcDbEntity
  8
0
100
AcDbBlockEnd
  0
BLOCK
  5
8E59
330
8E4F
100
AcDbEntity
  8
0
100
AcDbBlockBegin
  2
*D3
 70
     1
 10
0.0
 20
0.0
 30
0.0
  3
*D3
  1

  0
LINE
  5
92F1
330
8E4F
100
AcDbEntity
  8
AM_5
100
AcDbLine
 10
-59.50000000000002
 20
19.04999999999999
 30
0.0
 11
-84.99999999999996
 21
19.05
 31
0.0
  0
LINE
  5
92F2
330
8E4F
100
AcDbEntity
  8
AM_5
100
AcDbLine
 10
-59.50000000000002
 20
-19.04999999999999
 30
0.0
 11
-84.99999999999996
 21
-19.04999999999999
 31
0.0
  0
LINE
  5
92F3
330
8E4F
100
AcDbEntity
  8
AM_5
100
AcDbLine
 10
-83.99999999999996
 20
16.55
 30
0.0
 11
-83.99999999999996
 21
-16.54999999999999
 31
0.0
  0
INSERT
  5
92F4
330
8E4F
100
AcDbEntity
  8
AM_5
100
AcDbBlockReference
  2
_OPEN30
 10
-83.99999999999996
 20
19.05
 30
0.0
 41
2.5
 42
2.5
 43
2.5
 50
90.0
  0
INSERT
  5
92F5
330
8E4F
100
AcDbEntity
  8
AM_5
100
AcDbBlockReference
  2
_OPEN30
 10
-83.99999999999996
 20
-19.04999999999999
 30
0.0
 41
2.5
 42
2.5
 43
2.5
 50
270.0
  0
MTEXT
  5
92F6
330
8E4F
100
AcDbEntity
  8
AM_5
 62
     2
100
AcDbMText
 10
-87.09999999999997
 20
-0.0000000000000087
 30
0.0
 40
3.2
 41
0.0
 71
     5
 72
     1
  1
%%c38.1
  7
ASAMI
 11
0.0000000000000001
 21
1.0
 31
0.0
 73
     1
 44
1.0
1001
ACAD
1000
MTEXTBEGIN
1070
    73
1070
     1
1070
    44
1040
1.0
1070
    74
1070
     0
1000
MTEXTEND
  0
POINT
  5
92F7
330
8E4F
100
AcDbEntity
  8
DEFPOINTS
 62
     0
100
AcDbPoint
 10
-58.50000000000003
 20
19.04999999999999
 30
0.0
  0
POINT
  5
92F8
330
8E4F
100
AcDbEntity
  8
DEFPOINTS
 62
     0
100
AcDbPoint
 10
-58.50000000000003
 20
-19.04999999999999
 30
0.0
  0
POINT
  5
92F9
330
8E4F
100
AcDbEntity
  8
DEFPOINTS
 62
     0
100
AcDbPoint
 10
-83.99999999999996
 20
-19.04999999999999
 30
0.0
  0
ENDBLK
  5
8E5A
330
8E4F
100
AcDbEntity
  8
0
100
AcDbBlockEnd
  0
BLOCK
  5
8E65
330
8E5B
100
AcDbEntity
  8
0
100
AcDbBlockBegin
  2
*D4
 70
     1
 10
0.0
 20
0.0
 30
0.0
  3
*D4
  1

  0
LINE
  5
90EA
330
8E5B
100
AcDbEntity
  8
AM_5
100
AcDbLine
 10
-21.0000000000002
 20
27.99999999999999
 30
0.0
 11
21.26553665350406
 21
27.99999999999998
 31
0.0
  0
LINE
  5
90EB
330
8E5B
100
AcDbEntity
  8
AM_5
100
AcDbLine
 10
-21.0000000000002
 20
-27.99999999999999
 30
0.0
 11
21.26553665350404
 21
-28.0
 31
0.0
  0
LINE
  5
90EC
330
8E5B
100
AcDbEntity
  8
AM_5
100
AcDbLine
 10
20.26553665350406
 20
25.49999999999998
 30
0.0
 11
20.26553665350405
 21
-25.5
 31
0.0
  0
INSERT
  5
90ED
330
8E5B
100
AcDbEntity
  8
AM_5
100
AcDbBlockReference
  2
_OPEN30
 10
20.26553665350406
 20
27.99999999999998
 30
0.0
 41
2.5
 42
2.5
 43
2.5
 50
90.0
  0
INSERT
  5
90EE
330
8E5B
100
AcDbEntity
  8
AM_5
100
AcDbBlockReference
  2
_OPEN30
 10
20.26553665350405
 20
-28.0
 30
0.0
 41
2.5
 42
2.5
 43
2.5
 50
270.0
  0
MTEXT
  5
90EF
330
8E5B
100
AcDbEntity
  8
AM_5
 62
     2
100
AcDbMText
 10
17.16553665350405
 20
0.8749999999999861
 30
0.0
 40
3.2
 41
0.0
 71
     5
 72
     1
  1
%%c56
  7
ASAMI
 11
0.0000000000000001
 21
1.0
 31
0.0
 73
     1
 44
1.0
1001
ACAD
1000
MTEXTBEGIN
1070
    73
1070
     1
1070
    44
1040
1.0
1070
    74
1070
     0
1000
MTEXTEND
  0
POINT
  5
90F0
330
8E5B
100
AcDbEntity
  8
DEFPOINTS
 62
     0
100
AcDbPoint
 10
-22.0000000000002
 20
27.99999999999999
 30
0.0
  0
POINT
  5
90F1
330
8E5B
100
AcDbEntity
  8
DEFPOINTS
 62
     0
100
AcDbPoint
 10
-22.0000000000002
 20
-27.99999999999999
 30
0.0
  0
POINT
  5
90F2
330
8E5B
100
AcDbEntity
  8
DEFPOINTS
 62
     0
100
AcDbPoint
 10
20.26553665350405
 20
-28.0
 30
0.0
  0
ENDBLK
  5
8E66
330
8E5B
100
AcDbEntity
  8
0
100
AcDbBlockEnd
  0
BLOCK
  5
8E71
330
8E67
100
AcDbEntity
  8
0
100
AcDbBlockBegin
  2
*D5
 70
     1
 10
0.0
 20
0.0
 30
0.0
  3
*D5
  1

  0
LINE
  5
90D8
330
8E67
100
AcDbEntity
  8
AM_5
100
AcDbLine
 10
-59.99999999999997
 20
-37.49999999999998
 30
0.0
 11
-59.99999999999997
 21
-85.63154973203078
 31
0.0
  0
LINE
  5
90D9
330
8E67
100
AcDbEntity
  8
AM_5
100
AcDbLine
 10
-49.99999999999977
 20
-7.949999999999986
 30
0.0
 11
-49.99999999999978
 21
-85.63154973203078
 31
0.0
  0
LINE
  5
90DA
330
8E67
100
AcDbEntity
  8
AM_5
100
AcDbLine
 10
-57.49999999999997
 20
-84.63154973203078
 30
0.0
 11
-52.49999999999978
 21
-84.63154973203078
 31
0.0
  0
INSERT
  5
90DB
330
8E67
100
AcDbEntity
  8
AM_5
100
AcDbBlockReference
  2
_OPEN30
 10
-59.99999999999997
 20
-84.63154973203078
 30
0.0
 41
2.5
 42
2.5
 43
2.5
 50
180.0
  0
INSERT
  5
90DC
330
8E67
100
AcDbEntity
  8
AM_5
100
AcDbBlockReference
  2
_OPEN30
 10
-49.99999999999978
 20
-84.63154973203078
 30
0.0
 41
2.5
 42
2.5
 43
2.5
  0
MTEXT
  5
90DD
330
8E67
100
AcDbEntity
  8
AM_5
 62
     2
100
AcDbMText
 10
-54.99999999999986
 20
-81.53154973203077
 30
0.0
 40
3.2
 41
0.0
 71
     5
 72
     1
  1
10
  7
ASAMI
 73
     1
 44
1.0
1001
ACAD
1000
MTEXTBEGIN
1070
    73
1070
     1
1070
    44
1040
1.0
1070
    74
1070
     0
1000
MTEXTEND
  0
POINT
  5
90DE
330
8E67
100
AcDbEntity
  8
DEFPOINTS
 62
     0
100
AcDbPoint
 10
-59.99999999999997
 20
-36.49999999999998
 30
0.0
  0
POINT
  5
90DF
330
8E67
100
AcDbEntity
  8
DEFPOINTS
 62
     0
100
AcDbPoint
 10
-49.99999999999977
 20
-6.949999999999986
 30
0.0
  0
POINT
  5
90E0
330
8E67
100
AcDbEntity
  8
DEFPOINTS
 62
     0
100
AcDbPoint
 10
-49.99999999999978
 20
-84.63154973203078
 30
0.0
  0
ENDBLK
  5
8E72
330
8E67
100
AcDbEntity
  8
0
100
AcDbBlockEnd
  0
BLOCK
  5
8E7D
330
8E73
100
AcDbEntity
  8
0
100
AcDbBlockBegin
  2
*D6
 70
     1
 10
0.0
 20
0.0
 30
0.0
  3
*D6
  1

  0
LINE
  5
90CF
330
8E73
100
AcDbEntity
  8
AM_5
100
AcDbLine
 10
-59.99999999999997
 20
-37.49999999999998
 30
0.0
 11
-59.99999999999998
 21
-95.63154973203078
 31
0.0
  0
LINE
  5
90D0
330
8E73
100
AcDbEntity
  8
AM_5
100
AcDbLine
 10
-22.0000000000002
 20
-28.99999999999999
 30
0.0
 11
-22.0000000000002
 21
-95.63154973203078
 31
0.0
  0
LINE
  5
90D1
330
8E73
100
AcDbEntity
  8
AM_5
100
AcDbLine
 10
-57.49999999999998
 20
-94.63154973203078
 30
0.0
 11
-24.5000000000002
 21
-94.63154973203078
 31
0.0
  0
INSERT
  5
90D2
330
8E73
100
AcDbEntity
  8
AM_5
100
AcDbBlockReference
  2
_OPEN30
 10
-59.99999999999998
 20
-94.63154973203078
 30
0.0
 41
2.5
 42
2.5
 43
2.5
 50
180.0
  0
INSERT
  5
90D3
330
8E73
100
AcDbEntity
  8
AM_5
100
AcDbBlockReference
  2
_OPEN30
 10
-22.0000000000002
 20
-94.63154973203078
 30
0.0
 41
2.5
 42
2.5
 43
2.5
  0
MTEXT
  5
90D4
330
8E73
100
AcDbEntity
  8
AM_5
 62
     2
100
AcDbMText
 10
-41.00000000000009
 20
-91.53154973203077
 30
0.0
 40
3.2
 41
0.0
 71
     5
 72
     1
  1
38
  7
ASAMI
 73
     1
 44
1.0
1001
ACAD
1000
MTEXTBEGIN
1070
    73
1070
     1
1070
    44
1040
1.0
1070
    74
1070
     0
1000
MTEXTEND
  0
POINT
  5
90D5
330
8E73
100
AcDbEntity
  8
DEFPOINTS
 62
     0
100
AcDbPoint
 10
-59.99999999999997
 20
-36.49999999999998
 30
0.0
  0
POINT
  5
90D6
330
8E73
100
AcDbEntity
  8
DEFPOINTS
 62
     0
100
AcDbPoint
 10
-22.0000000000002
 20
-27.99999999999999
 30
0.0
  0
POINT
  5
90D7
330
8E73
100
AcDbEntity
  8
DEFPOINTS
 62
     0
100
AcDbPoint
 10
-22.0000000000002
 20
-94.63154973203078
 30
0.0
  0
ENDBLK
  5
8E7E
330
8E73
100
AcDbEntity
  8
0
100
AcDbBlockEnd
  0
BLOCK
  5
8E89
330
8E7F
100
AcDbEntity
  8
0
100
AcDbBlockBegin
  2
*D7
 70
     1
 10
0.0
 20
0.0
 30
0.0
  3
*D7
  1

  0
LINE
  5
90C6
330
8E7F
100
AcDbEntity
  8
AM_5
100
AcDbLine
 10
-59.99999999999997
 20
-37.49999999999998
 30
0.0
 11
-59.99999999999998
 21
-105.6315497320307
 31
0.0
  0
LINE
  5
90C7
330
8E7F
100
AcDbEntity
  8
AM_5
100
AcDbLine
 10
0.0000000000000284
 20
-63.10773673203087
 30
0.0
 11
0.0000000000000258
 21
-105.6315497320307
 31
0.0
  0
LINE
  5
90C8
330
8E7F
100
AcDbEntity
  8
AM_5
100
AcDbLine
 10
-57.49999999999998
 20
-104.6315497320307
 30
0.0
 11
-2.499999999999974
 21
-104.6315497320307
 31
0.0
  0
INSERT
  5
90C9
330
8E7F
100
AcDbEntity
  8
AM_5
100
AcDbBlockReference
  2
_OPEN30
 10
-59.99999999999998
 20
-104.6315497320307
 30
0.0
 41
2.5
 42
2.5
 43
2.5
 50
180.0
  0
INSERT
  5
90CA
330
8E7F
100
AcDbEntity
  8
AM_5
100
AcDbBlockReference
  2
_OPEN30
 10
0.0000000000000258
 20
-104.6315497320307
 30
0.0
 41
2.5
 42
2.5
 43
2.5
  0
MTEXT
  5
90CB
330
8E7F
100
AcDbEntity
  8
AM_5
 62
     2
100
AcDbMText
 10
-29.99999999999997
 20
-101.5315497320307
 30
0.0
 40
3.2
 41
0.0
 71
     5
 72
     1
  1
60
  7
ASAMI
 73
     1
 44
1.0
1001
ACAD
1000
MTEXTBEGIN
1070
    73
1070
     1
1070
    44
1040
1.0
1070
    74
1070
     0
1000
MTEXTEND
  0
POINT
  5
90CC
330
8E7F
100
AcDbEntity
  8
DEFPOINTS
 62
     0
100
AcDbPoint
 10
-59.99999999999997
 20
-36.49999999999998
 30
0.0
  0
POINT
  5
90CD
330
8E7F
100
AcDbEntity
  8
DEFPOINTS
 62
     0
100
AcDbPoint
 10
0.0000000000000284
 20
-62.10773673203086
 30
0.0
  0
POINT
  5
90CE
330
8E7F
100
AcDbEntity
  8
DEFPOINTS
 62
     0
100
AcDbPoint
 10
0.0000000000000258
 20
-104.6315497320307
 30
0.0
  0
ENDBLK
  5
8E8A
330
8E7F
100
AcDbEntity
  8
0
100
AcDbBlockEnd
  0
BLOCK
  5
8E95
330
8E8B
100
AcDbEntity
  8
0
100
AcDbBlockBegin
  2
*D8
 70
     1
 10
0.0
 20
0.0
 30
0.0
  3
*D8
  1

  0
LINE
  5
90E1
330
8E8B
100
AcDbEntity
  8
AM_5
100
AcDbLine
 10
2.09873186988787
 20
62.5
 30
0.0
 11
31.26553665350407
 21
62.5
 31
0.0
  0
LINE
  5
90E2
330
8E8B
100
AcDbEntity
  8
AM_5
100
AcDbLine
 10
2.09873186988787
 20
-62.5
 30
0.0
 11
31.26553665350404
 21
-62.5
 31
0.0
  0
LINE
  5
90E3
330
8E8B
100
AcDbEntity
  8
AM_5
100
AcDbLine
 10
30.26553665350407
 20
60.0
 30
0.0
 11
30.26553665350404
 21
-60.0
 31
0.0
  0
INSERT
  5
90E4
330
8E8B
100
AcDbEntity
  8
AM_5
100
AcDbBlockReference
  2
_OPEN30
 10
30.26553665350407
 20
62.5
 30
0.0
 41
2.5
 42
2.5
 43
2.5
 50
90.0
  0
INSERT
  5
90E5
330
8E8B
100
AcDbEntity
  8
AM_5
100
AcDbBlockReference
  2
_OPEN30
 10
30.26553665350404
 20
-62.5
 30
0.0
 41
2.5
 42
2.5
 43
2.5
 50
270.0
  0
MTEXT
  5
90E6
330
8E8B
100
AcDbEntity
  8
AM_5
 62
     2
100
AcDbMText
 10
27.16553665350405
 20
0.8749999999999861
 30
0.0
 40
3.2
 41
0.0
 71
     5
 72
     1
  1
%%c125
  7
ASAMI
 11
0.0000000000000001
 21
1.0
 31
0.0
 73
     1
 44
1.0
1001
ACAD
1000
MTEXTBEGIN
1070
    73
1070
     1
1070
    44
1040
1.0
1070
    74
1070
     0
1000
MTEXTEND
  0
POINT
  5
90E7
330
8E8B
100
AcDbEntity
  8
DEFPOINTS
 62
     0
100
AcDbPoint
 10
1.098731869887869
 20
62.5
 30
0.0
  0
POINT
  5
90E8
330
8E8B
100
AcDbEntity
  8
DEFPOINTS
 62
     0
100
AcDbPoint
 10
1.098731869887869
 20
-62.5
 30
0.0
  0
POINT
  5
90E9
330
8E8B
100
AcDbEntity
  8
DEFPOINTS
 62
     0
100
AcDbPoint
 10
30.26553665350404
 20
-62.5
 30
0.0
  0
ENDBLK
  5
8E96
330
8E8B
100
AcDbEntity
  8
0
100
AcDbBlockEnd
  0
BLOCK
  5
925B
330
9251
100
AcDbEntity
  8
0
100
AcDbBlockBegin
  2
*D10
 70
     1
 10
0.0
 20
0.0
 30
0.0
  3
*D10
  1

  0
LINE
  5
92E8
330
9251
100
AcDbEntity
  8
AM_5
100
AcDbLine
 10
-59.99999999999997
 20
37.49999999999998
 30
0.0
 11
-94.99999999999987
 21
37.5
 31
0.0
  0
LINE
  5
92E9
330
9251
100
AcDbEntity
  8
AM_5
100
AcDbLine
 10
-59.99999999999997
 20
-37.49999999999998
 30
0.0
 11
-94.99999999999992
 21
-37.49999999999998
 31
0.0
  0
LINE
  5
92EA
330
9251
100
AcDbEntity
  8
AM_5
100
AcDbLine
 10
-93.99999999999987
 20
35.0
 30
0.0
 11
-93.99999999999993
 21
-34.99999999999998
 31
0.0
  0
INSERT
  5
92EB
330
9251
100
AcDbEntity
  8
AM_5
100
AcDbBlockReference
  2
_OPEN30
 10
-93.99999999999987
 20
37.5
 30
0.0
 41
2.5
 42
2.5
 43
2.5
 50
90.0
  0
INSERT
  5
92EC
330
9251
100
AcDbEntity
  8
AM_5
100
AcDbBlockReference
  2
_OPEN30
 10
-93.99999999999993
 20
-37.49999999999998
 30
0.0
 41
2.5
 42
2.5
 43
2.5
 50
270.0
  0
MTEXT
  5
92ED
330
9251
100
AcDbEntity
  8
AM_5
 62
     2
100
AcDbMText
 10
-97.09999999999991
 20
-0.0000000000000081
 30
0.0
 40
3.2
 41
0.0
 71
     5
 72
     1
  1
%%c75
  7
ASAMI
 11
0.0000000000000001
 21
1.0
 31
0.0
 73
     1
 44
1.0
1001
ACAD
1000
MTEXTBEGIN
1070
    73
1070
     1
1070
    44
1040
1.0
1070
    74
1070
     0
1000
MTEXTEND
  0
POINT
  5
92EE
330
9251
100
AcDbEntity
  8
DEFPOINTS
 62
     0
100
AcDbPoint
 10
-58.99999999999997
 20
37.49999999999998
 30
0.0
  0
POINT
  5
92EF
330
9251
100
AcDbEntity
  8
DEFPOINTS
 62
     0
100
AcDbPoint
 10
-58.99999999999997
 20
-37.49999999999998
 30
0.0
  0
POINT
  5
92F0
330
9251
100
AcDbEntity
  8
DEFPOINTS
 62
     0
100
AcDbPoint
 10
-93.99999999999993
 20
-37.49999999999998
 30
0.0
  0
ENDBLK
  5
925C
330
9251
100
AcDbEntity
  8
0
100
AcDbBlockEnd
  0
BLOCK
  5
94DC
330
94C6
100
AcDbEntity
  8
0
100
AcDbBlockBegin
  2
*D12
 70
     1
 10
0.0
 20
0.0
 30
0.0
  3
*D12
  1

  0
LINE
  5
94F2
330
94C6
100
AcDbEntity
  8
AM_5
370
    -2
100
AcDbLine
 10
-35.15999999999997
 20
71.48931899999997
 30
0.0
 11
41.26553665350404
 21
71.48931899999993
 31
0.0
  0
LINE
  5
94F3
330
94C6
100
AcDbEntity
  8
AM_5
370
    -2
100
AcDbLine
 10
-35.15999999999997
 20
-71.48931899999998
 30
0.0
 11
41.26553665350401
 21
-71.489319
 31
0.0
  0
LINE
  5
94F4
330
94C6
100
AcDbEntity
  8
AM_5
370
    -2
100
AcDbLine
 10
40.26553665350404
 20
68.98931899999993
 30
0.0
 11
40.26553665350401
 21
-68.989319
 31
0.0
  0
INSERT
  5
94F5
330
94C6
100
AcDbEntity
  8
AM_5
370
    -2
100
AcDbBlockReference
  2
_OPEN30
 10
40.26553665350404
 20
71.48931899999993
 30
0.0
 41
2.5
 42
2.5
 43
2.5
 50
90.0
  0
INSERT
  5
94F6
330
94C6
100
AcDbEntity
  8
AM_5
370
    -2
100
AcDbBlockReference
  2
_OPEN30
 10
40.26553665350401
 20
-71.489319
 30
0.0
 41
2.5
 42
2.5
 43
2.5
 50
270.0
  0
MTEXT
  5
94F7
330
94C6
100
AcDbEntity
  8
AM_5
 62
     2
100
AcDbMText
 10
37.16553665350403
 20
-0.0000000000000234
 30
0.0
 40
3.2
 41
0.0
 71
     5
 72
     1
  1
%%c142.98
  7
ASAMI
 11
0.0000000000000001
 21
1.0
 31
0.0
 73
     1
 44
1.0
1001
ACAD
1000
MTEXTBEGIN
1070
    73
1070
     1
1070
    44
1040
1.0
1070
    74
1070
     0
1000
MTEXTEND
  0
POINT
  5
94F8
330
94C6
100
AcDbEntity
  8
DEFPOINTS
 62
     0
100
AcDbPoint
 10
-36.15999999999997
 20
71.48931899999997
 30
0.0
  0
POINT
  5
94F9
330
94C6
100
AcDbEntity
  8
DEFPOINTS
 62
     0
100
AcDbPoint
 10
-36.15999999999997
 20
-71.48931899999998
 30
0.0
  0
POINT
  5
94FA
330
94C6
100
AcDbEntity
  8
DEFPOINTS
 62
     0
100
AcDbPoint
 10
40.26553665350401
 20
-71.489319
 30
0.0
  0
ENDBLK
  5
94DD
330
94C6
100
AcDbEntity
  8
0
100
AcDbBlockEnd
  0
ENDSEC
  0
SECTION
  2
ENTITIES
  0
TEXT
  5
E5A
330
1F
100
AcDbEntity
  8
AM_6
100
AcDbText
 10
-47.97619047619043
 20
-127.1315497320307
 30
0.0
 40
5.0
  1
DNF4125R
 72
     4
 11
-29.99999999999996
 21
-124.6315497320307
 31
0.0
100
AcDbText
  0
LINE
  5
821D
330
1F
100
AcDbEntity
  8
AM_0
100
AcDbLine
 10
-47.39719767662029
 20
69.01763809020504
 30
0.0
 11
-55.44512567360686
 21
38.98236190979494
 31
0.0
  0
LINE
  5
821E
330
1F
100
AcDbEntity
  8
AM_0
100
AcDbLine
 10
-58.50000000000003
 20
19.04999999999999
 30
0.0
 11
-23.00000000000011
 21
19.05
 31
0.0
  0
LINE
  5
821F
330
1F
100
AcDbEntity
  8
AM_7
100
AcDbLine
 10
-64.32409533116822
 20
0.0
 30
0.0
 11
6.265535653504057
 21
0.0
 31
0.0
  0
LINE
  5
8220
330
1F
100
AcDbEntity
  8
AM_0
100
AcDbLine
 10
-49.99999999999985
 20
6.949999999999986
 30
0.0
 11
-49.99999999999989
 21
-0.0000000000000142
 31
0.0
  0
LINE
  5
8221
330
1F
100
AcDbEntity
  8
AM_0
100
AcDbLine
 10
-59.99999999999997
 20
36.49999999999998
 30
0.0
 11
-60.0
 21
8.949999999999988
 31
0.0
  0
LINE
  5
8222
330
1F
100
AcDbEntity
  8
AM_0
100
AcDbLine
 10
-59.0
 20
7.949999999999986
 30
0.0
 11
-50.99999999999986
 21
7.949999999999986
 31
0.0
  0
LINE
  5
8223
330
1F
100
AcDbEntity
  8
AM_0
100
AcDbLine
 10
-58.99999999999997
 20
37.49999999999998
 30
0.0
 11
-57.37697732618499
 21
37.49999999999998
 31
0.0
  0
LINE
  5
8224
330
1F
100
AcDbEntity
  8
AM_0
100
AcDbLine
 10
-12.59999999999999
 20
31.01872240885258
 30
0.0
 11
-12.59999999999985
 21
0.0
 31
0.0
  0
LINE
  5
8225
330
1F
100
AcDbEntity
  8
AM_11
100
AcDbLine
 10
-22.0000000000002
 20
27.99999999999999
 30
0.0
 11
-22.00000000000022
 21
27.38613840961685
 31
0.0
  0
LINE
  5
8226
330
1F
100
AcDbEntity
  8
AM_11
100
AcDbLine
 10
-22.0000000000002
 20
27.99999999999999
 30
0.0
 11
-21.40705523608218
 21
28.15887907064808
 31
0.0
  0
LINE
  5
8227
330
1F
100
AcDbEntity
  8
AM_0
100
AcDbLine
 10
-12.59999999999985
 20
36.11042387439522
 30
0.0
 11
-12.59999999999999
 21
31.01872240885258
 31
0.0
  0
LINE
  5
8228
330
1F
100
AcDbEntity
  8
AM_0
100
AcDbLine
 10
-12.59999999999985
 20
36.11042387439522
 30
0.0
 11
-13.09999999999985
 21
36.11042387439522
 31
0.0
  0
LINE
  5
8229
330
1F
100
AcDbEntity
  8
AM_0
100
AcDbLine
 10
-13.09999999999985
 20
38.1104238743952
 30
0.0
 11
-13.09999999999985
 21
36.11042387439522
 31
0.0
  0
LINE
  5
8230
330
1F
100
AcDbEntity
  8
AM_0
100
AcDbLine
 10
-45.46534602404215
 20
70.5
 30
0.0
 11
-36.65999999999999
 21
70.5
 31
0.0
  0
ARC
  5
8DEE
330
1F
100
AcDbEntity
  8
AM_0
100
AcDbCircle
 10
-45.46534602404215
 20
68.5
 30
0.0
 40
2.0
100
AcDbArc
 50
90.0
 51
165.0000000000002
1001
GENIUS_GENODEF_13
1002
{
1000
HIER
1070
     0
1002
}
1002
{
1000
MANEDIT
1070
     0
1002
}
1002
{
1000
NOSEL
1070
     0
1002
}
1002
{
1000
BEHIND
1070
     0
1002
}
1002
{
1000
REACTOR
1002
}
1001
GENIUS_GENOBJ-N-FIL_13
1002
{
1000
OWNER
1000
GEN
1002
}
  0
ARC
  5
8DF1
330
1F
100
AcDbEntity
  8
AM_0
100
AcDbCircle
 10
-57.37697732618499
 20
39.49999999999998
 30
0.0
 40
2.0
100
AcDbArc
 50
270.0
 51
345.0000000000002
1001
GENIUS_GENODEF_13
1002
{
1000
HIER
1070
     0
1002
}
1002
{
1000
MANEDIT
1070
     0
1002
}
1002
{
1000
NOSEL
1070
     0
1002
}
1002
{
1000
BEHIND
1070
     0
1002
}
1002
{
1000
REACTOR
1002
}
1001
GENIUS_GENOBJ-N-FIL_13
1002
{
1000
OWNER
1000
GEN
1002
}
  0
ARC
  5
8DF4
330
1F
100
AcDbEntity
  8
AM_0
100
AcDbCircle
 10
-50.99999999999986
 20
6.949999999999986
 30
0.0
 40
1.0
100
AcDbArc
 50
0.0
 51
90.0
1001
GENIUS_GENODEF_13
1002
{
1000
HIER
1070
     0
1002
}
1002
{
1000
MANEDIT
1070
     0
1002
}
1002
{
1000
NOSEL
1070
     0
1002
}
1002
{
1000
BEHIND
1070
     0
1002
}
1002
{
1000
REACTOR
1002
}
1001
GENIUS_GENOBJ-N-FIL_13
1002
{
1000
OWNER
1000
GEN
1002
}
  0
ARC
  5
8DF8
330
1F
100
AcDbEntity
  8
AM_0
100
AcDbCircle
 10
-21.20000000000016
 20
27.3861384096168
 30
0.0
 40
0.8
100
AcDbArc
 50
105.0
 51
180.0000000000004
1001
GENIUS_GENODEF_13
1002
{
1000
HIER
1070
     0
1002
}
1002
{
1000
MANEDIT
1070
     0
1002
}
1002
{
1000
NOSEL
1070
     0
1002
}
1002
{
1000
BEHIND
1070
     0
1002
}
1002
{
1000
REACTOR
1002
}
1001
GENIUS_GENOBJ-N-FIL_13
1002
{
1000
OWNER
1000
GEN
1002
}
  0
LINE
  5
8DF9
330
1F
100
AcDbEntity
  8
AM_0
100
AcDbLine
 10
-21.40705523608218
 20
28.15887907064807
 30
0.0
 11
-13.08296291314454
 21
30.38931288630132
 31
0.0
  0
LINE
  5
8DFA
330
1F
100
AcDbEntity
  8
AM_0
100
AcDbLine
 10
-22.00000000000022
 20
27.38613840961679
 30
0.0
 11
-21.99999999999982
 21
0.0
 31
0.0
  0
LINE
  5
8DFE
330
1F
100
AcDbEntity
  8
AM_0
100
AcDbLine
 10
-36.15999999999999
 20
70.0
 30
0.0
 11
-36.65999999999999
 21
70.5
 31
0.0
1001
GENIUS_GENFIL_13
1070
     0
1040
0.5
1040
0.5
1040
20.0
1040
0.0
1002
{
1002
}
1001
GENIUS_GENODEF_13
1002
{
1000
HIER
1070
     0
1002
}
1002
{
1000
MANEDIT
1070
     0
1002
}
1002
{
1000
NOSEL
1070
     0
1002
}
1002
{
1000
BEHIND
1070
     0
1002
}
1002
{
1000
REACTOR
1002
}
1001
GENIUS_GENOBJ-N-CHA_13
1002
{
1000
OWNER
1000
GEN
1002
}
  0
LINE
  5
8E05
330
1F
100
AcDbEntity
  8
AM_0
100
AcDbLine
 10
-12.59999999999999
 20
31.01872240885258
 30
0.0
 11
-13.08296291314454
 21
30.38931288630132
 31
0.0
1001
GENIUS_GENFIL_13
1070
     0
1040
0.5
1040
0.5
1040
20.0
1040
0.0
1002
{
1002
}
1001
GENIUS_GENODEF_13
1002
{
1000
HIER
1070
     0
1002
}
1002
{
1000
MANEDIT
1070
     0
1002
}
1002
{
1000
NOSEL
1070
     0
1002
}
1002
{
1000
BEHIND
1070
     0
1002
}
1002
{
1000
REACTOR
1002
}
1001
GENIUS_GENOBJ-N-CHA_13
1002
{
1000
OWNER
1000
GEN
1002
}
  0
LINE
  5
8E08
330
1F
100
AcDbEntity
  8
AM_0
100
AcDbLine
 10
-22.00000000000011
 20
20.05
 30
0.0
 11
-23.00000000000011
 21
19.05
 31
0.0
1001
GENIUS_GENFIL_13
1070
     0
1040
1.0
1040
1.0
1040
20.0
1040
0.0
1002
{
1002
}
1001
GENIUS_GENODEF_13
1002
{
1000
HIER
1070
     0
1002
}
1002
{
1000
MANEDIT
1070
     0
1002
}
1002
{
1000
NOSEL
1070
     0
1002
}
1002
{
1000
BEHIND
1070
     0
1002
}
1002
{
1000
REACTOR
1002
}
1001
GENIUS_GENOBJ-N-CHA_13
1002
{
1000
OWNER
1000
GEN
1002
}
  0
LINE
  5
8E0B
330
1F
100
AcDbEntity
  8
AM_0
100
AcDbLine
 10
-58.50000000000003
 20
19.04999999999999
 30
0.0
 11
-60.00000000000003
 21
20.54999999999999
 31
0.0
1001
GENIUS_GENFIL_13
1070
     0
1040
1.5
1040
1.5
1040
20.0
1040
0.0
1002
{
1002
}
1001
GENIUS_GENODEF_13
1002
{
1000
HIER
1070
     0
1002
}
1002
{
1000
MANEDIT
1070
     0
1002
}
1002
{
1000
NOSEL
1070
     0
1002
}
1002
{
1000
BEHIND
1070
     0
1002
}
1002
{
1000
REACTOR
1002
}
1001
GENIUS_GENOBJ-N-CHA_13
1002
{
1000
OWNER
1000
GEN
1002
}
  0
LINE
  5
8E0F
330
1F
100
AcDbEntity
  8
AM_0
100
AcDbLine
 10
-59.0
 20
7.949999999999986
 30
0.0
 11
-60.0
 21
8.949999999999988
 31
0.0
1001
GENIUS_GENFIL_13
1070
     0
1040
1.0
1040
1.0
1040
20.0
1040
0.0
1002
{
1002
}
1001
GENIUS_GENODEF_13
1002
{
1000
HIER
1070
     0
1002
}
1002
{
1000
MANEDIT
1070
     0
1002
}
1002
{
1000
NOSEL
1070
     0
1002
}
1002
{
1000
BEHIND
1070
     0
1002
}
1002
{
1000
REACTOR
1002
}
1001
GENIUS_GENOBJ-N-CHA_13
1002
{
1000
OWNER
1000
GEN
1002
}
  0
LINE
  5
8E12
330
1F
100
AcDbEntity
  8
AM_0
100
AcDbLine
 10
-58.99999999999997
 20
37.49999999999998
 30
0.0
 11
-59.99999999999997
 21
36.49999999999998
 31
0.0
1001
GENIUS_GENFIL_13
1070
     0
1040
1.0
1040
1.0
1040
20.0
1040
0.0
1002
{
1002
}
1001
GENIUS_GENODEF_13
1002
{
1000
HIER
1070
     0
1002
}
1002
{
1000
MANEDIT
1070
     0
1002
}
1002
{
1000
NOSEL
1070
     0
1002
}
1002
{
1000
BEHIND
1070
     0
1002
}
1002
{
1000
REACTOR
1002
}
1001
GENIUS_GENOBJ-N-CHA_13
1002
{
1000
OWNER
1000
GEN
1002
}
  0
LINE
  5
8E13
330
1F
100
AcDbEntity
  8
AM_0
100
AcDbLine
 10
-58.50000000000003
 20
19.04999999999999
 30
0.0
 11
-58.50000000000003
 21
7.949999999999986
 31
0.0
  0
LINE
  5
8E16
330
1F
100
AcDbEntity
  8
AM_0
100
AcDbLine
 10
-58.50000000000003
 20
-19.04999999999999
 30
0.0
 11
-58.50000000000003
 21
-7.949999999999986
 31
0.0
  0
LINE
  5
8E17
330
1F
100
AcDbEntity
  8
AM_0
100
AcDbLine
 10
-59.99999999999997
 20
-36.49999999999998
 30
0.0
 11
-60.0
 21
-8.949999999999988
 31
0.0
  0
LINE
  5
8E18
330
1F
100
AcDbEntity
  8
AM_0
100
AcDbLine
 10
-22.00000000000022
 20
-27.38613840961679
 30
0.0
 11
-21.99999999999982
 21
0.0
 31
0.0
  0
LINE
  5
8E19
330
1F
100
AcDbEntity
  8
AM_0
100
AcDbLine
 10
-12.59999999999999
 20
-31.01872240885258
 30
0.0
 11
-12.59999999999985
 21
0.0
 31
0.0
  0
LINE
  5
8E1A
330
1F
100
AcDbEntity
  8
AM_0
100
AcDbLine
 10
-59.0
 20
-7.949999999999986
 30
0.0
 11
-60.0
 21
-8.949999999999988
 31
0.0
1001
GENIUS_GENFIL_13
1070
     0
1040
1.0
1040
1.0
1040
20.0
1040
0.0
1002
{
1002
}
1001
GENIUS_GENODEF_13
1002
{
1000
HIER
1070
     0
1002
}
1002
{
1000
MANEDIT
1070
     0
1002
}
1002
{
1000
NOSEL
1070
     0
1002
}
1002
{
1000
BEHIND
1070
     0
1002
}
1002
{
1000
REACTOR
1002
}
1001
GENIUS_GENOBJ-N-CHA_13
1002
{
1000
OWNER
1000
GEN
1002
}
  0
LINE
  5
8E1B
330
1F
100
AcDbEntity
  8
AM_0
100
AcDbLine
 10
-59.0
 20
-7.949999999999986
 30
0.0
 11
-50.99999999999986
 21
-7.949999999999986
 31
0.0
  0
LINE
  5
8E1C
330
1F
100
AcDbEntity
  8
AM_0
100
AcDbLine
 10
-49.99999999999985
 20
-6.949999999999986
 30
0.0
 11
-49.99999999999989
 21
0.0000000000000142
 31
0.0
  0
ARC
  5
8E1D
330
1F
100
AcDbEntity
  8
AM_0
100
AcDbCircle
 10
-50.99999999999986
 20
-6.949999999999986
 30
0.0
 40
1.0
100
AcDbArc
 50
270.0
 51
0.0
1001
GENIUS_GENODEF_13
1002
{
1000
HIER
1070
     0
1002
}
1002
{
1000
MANEDIT
1070
     0
1002
}
1002
{
1000
NOSEL
1070
     0
1002
}
1002
{
1000
BEHIND
1070
     0
1002
}
1002
{
1000
REACTOR
1002
}
1001
GENIUS_GENOBJ-N-FIL_13
1002
{
1000
OWNER
1000
GEN
1002
}
  0
LINE
  5
8E1E
330
1F
100
AcDbEntity
  8
AM_0
100
AcDbLine
 10
-58.99999999999997
 20
-37.49999999999998
 30
0.0
 11
-59.99999999999997
 21
-36.49999999999998
 31
0.0
1001
GENIUS_GENFIL_13
1070
     0
1040
1.0
1040
1.0
1040
20.0
1040
0.0
1002
{
1002
}
1001
GENIUS_GENODEF_13
1002
{
1000
HIER
1070
     0
1002
}
1002
{
1000
MANEDIT
1070
     0
1002
}
1002
{
1000
NOSEL
1070
     0
1002
}
1002
{
1000
BEHIND
1070
     0
1002
}
1002
{
1000
REACTOR
1002
}
1001
GENIUS_GENOBJ-N-CHA_13
1002
{
1000
OWNER
1000
GEN
1002
}
  0
LINE
  5
8E1F
330
1F
100
AcDbEntity
  8
AM_0
100
AcDbLine
 10
-58.50000000000003
 20
-19.04999999999999
 30
0.0
 11
-60.00000000000003
 21
-20.54999999999999
 31
0.0
1001
GENIUS_GENFIL_13
1070
     0
1040
1.5
1040
1.5
1040
20.0
1040
0.0
1002
{
1002
}
1001
GENIUS_GENODEF_13
1002
{
1000
HIER
1070
     0
1002
}
1002
{
1000
MANEDIT
1070
     0
1002
}
1002
{
1000
NOSEL
1070
     0
1002
}
1002
{
1000
BEHIND
1070
     0
1002
}
1002
{
1000
REACTOR
1002
}
1001
GENIUS_GENOBJ-N-CHA_13
1002
{
1000
OWNER
1000
GEN
1002
}
  0
LINE
  5
8E20
330
1F
100
AcDbEntity
  8
AM_0
100
AcDbLine
 10
-47.39719767662029
 20
-69.01763809020504
 30
0.0
 11
-55.44512567360686
 21
-38.98236190979494
 31
0.0
  0
LINE
  5
8E21
330
1F
100
AcDbEntity
  8
AM_0
100
AcDbLine
 10
-58.50000000000003
 20
-19.04999999999999
 30
0.0
 11
-23.00000000000011
 21
-19.05
 31
0.0
  0
ARC
  5
8E22
330
1F
100
AcDbEntity
  8
AM_0
100
AcDbCircle
 10
-57.37697732618499
 20
-39.49999999999998
 30
0.0
 40
2.0
100
AcDbArc
 50
14.99999999999989
 51
90.00000000000005
1001
GENIUS_GENODEF_13
1002
{
1000
HIER
1070
     0
1002
}
1002
{
1000
MANEDIT
1070
     0
1002
}
1002
{
1000
NOSEL
1070
     0
1002
}
1002
{
1000
BEHIND
1070
     0
1002
}
1002
{
1000
REACTOR
1002
}
1001
GENIUS_GENOBJ-N-FIL_13
1002
{
1000
OWNER
1000
GEN
1002
}
  0
LINE
  5
8E23
330
1F
100
AcDbEntity
  8
AM_0
100
AcDbLine
 10
-58.99999999999997
 20
-37.49999999999998
 30
0.0
 11
-57.37697732618499
 21
-37.49999999999998
 31
0.0
  0
LINE
  5
8E24
330
1F
100
AcDbEntity
  8
AM_0
100
AcDbLine
 10
-12.59999999999985
 20
-36.11042387439522
 30
0.0
 11
-12.59999999999999
 21
-31.01872240885258
 31
0.0
  0
LINE
  5
8E25
330
1F
100
AcDbEntity
  8
AM_0
100
AcDbLine
 10
-21.40705523608218
 20
-28.15887907064807
 30
0.0
 11
-13.08296291314454
 21
-30.38931288630132
 31
0.0
  0
LINE
  5
8E26
330
1F
100
AcDbEntity
  8
AM_0
100
AcDbLine
 10
-22.00000000000011
 20
-20.05
 30
0.0
 11
-23.00000000000011
 21
-19.05
 31
0.0
1001
GENIUS_GENFIL_13
1070
     0
1040
1.0
1040
1.0
1040
20.0
1040
0.0
1002
{
1002
}
1001
GENIUS_GENODEF_13
1002
{
1000
HIER
1070
     0
1002
}
1002
{
1000
MANEDIT
1070
     0
1002
}
1002
{
1000
NOSEL
1070
     0
1002
}
1002
{
1000
BEHIND
1070
     0
1002
}
1002
{
1000
REACTOR
1002
}
1001
GENIUS_GENOBJ-N-CHA_13
1002
{
1000
OWNER
1000
GEN
1002
}
  0
LINE
  5
8E27
330
1F
100
AcDbEntity
  8
AM_11
100
AcDbLine
 10
-22.0000000000002
 20
-27.99999999999999
 30
0.0
 11
-21.40705523608218
 21
-28.15887907064808
 31
0.0
  0
LINE
  5
8E28
330
1F
100
AcDbEntity
  8
AM_11
100
AcDbLine
 10
-22.0000000000002
 20
-27.99999999999999
 30
0.0
 11
-22.00000000000022
 21
-27.38613840961685
 31
0.0
  0
ARC
  5
8E29
330
1F
100
AcDbEntity
  8
AM_0
100
AcDbCircle
 10
-21.20000000000016
 20
-27.3861384096168
 30
0.0
 40
0.8
100
AcDbArc
 50
179.9999999999995
 51
254.9999999999999
1001
GENIUS_GENODEF_13
1002
{
1000
HIER
1070
     0
1002
}
1002
{
1000
MANEDIT
1070
     0
1002
}
1002
{
1000
NOSEL
1070
     0
1002
}
1002
{
1000
BEHIND
1070
     0
1002
}
1002
{
1000
REACTOR
1002
}
1001
GENIUS_GENOBJ-N-FIL_13
1002
{
1000
OWNER
1000
GEN
1002
}
  0
LINE
  5
8E2A
330
1F
100
AcDbEntity
  8
AM_0
100
AcDbLine
 10
-12.59999999999999
 20
-31.01872240885258
 30
0.0
 11
-13.08296291314454
 21
-30.38931288630132
 31
0.0
1001
GENIUS_GENFIL_13
1070
     0
1040
0.5
1040
0.5
1040
20.0
1040
0.0
1002
{
1002
}
1001
GENIUS_GENODEF_13
1002
{
1000
HIER
1070
     0
1002
}
1002
{
1000
MANEDIT
1070
     0
1002
}
1002
{
1000
NOSEL
1070
     0
1002
}
1002
{
1000
BEHIND
1070
     0
1002
}
1002
{
1000
REACTOR
1002
}
1001
GENIUS_GENOBJ-N-CHA_13
1002
{
1000
OWNER
1000
GEN
1002
}
  0
LINE
  5
8E2B
330
1F
100
AcDbEntity
  8
AM_0
100
AcDbLine
 10
-13.09999999999985
 20
-38.1104238743952
 30
0.0
 11
-13.09999999999985
 21
-36.11042387439522
 31
0.0
  0
LINE
  5
8E2C
330
1F
100
AcDbEntity
  8
AM_0
100
AcDbLine
 10
-12.59999999999985
 20
-36.11042387439522
 30
0.0
 11
-13.09999999999985
 21
-36.11042387439522
 31
0.0
  0
ARC
  5
8E2F
330
1F
100
AcDbEntity
  8
AM_0
100
AcDbCircle
 10
-45.46534602404215
 20
-68.5
 30
0.0
 40
2.0
100
AcDbArc
 50
194.9999999999997
 51
270.0
1001
GENIUS_GENODEF_13
1002
{
1000
HIER
1070
     0
1002
}
1002
{
1000
MANEDIT
1070
     0
1002
}
1002
{
1000
NOSEL
1070
     0
1002
}
1002
{
1000
BEHIND
1070
     0
1002
}
1002
{
1000
REACTOR
1002
}
1001
GENIUS_GENOBJ-N-FIL_13
1002
{
1000
OWNER
1000
GEN
1002
}
  0
LINE
  5
8E32
330
1F
100
AcDbEntity
  8
AM_0
100
AcDbLine
 10
-45.46534602404215
 20
-70.5
 30
0.0
 11
-36.65999999999999
 21
-70.5
 31
0.0
  0
LINE
  5
8E37
330
1F
100
AcDbEntity
  8
AM_0
100
AcDbLine
 10
-2.099999999999823
 20
-55.67787449557845
 30
0.0
 11
-2.099999999999851
 21
0.0
 31
0.0
  0
DIMENSION
  5
8E3A
330
1F
100
AcDbEntity
  8
AM_5
100
AcDbDimension
  2
*D3
 10
-83.99999999999996
 20
-19.04999999999999
 30
0.0
 11
-87.09999999999997
 21
-0.0000000000000087
 31
0.0
 70
    32
  1
%%c<>
 71
     5
 42
-1.0
  3
AM_JIS
100
AcDbAlignedDimension
 13
-58.50000000000003
 23
19.04999999999999
 33
0.0
 14
-58.50000000000003
 24
-19.04999999999999
 34
0.0
 50
90.0
100
AcDbRotatedDimension
1001
GENIUS_GENDTOL_13
1000

1000
h7
1000

1040
0.0
  0
DIMENSION
  5
8E3B
330
1F
100
AcDbEntity
  8
AM_5
100
AcDbDimension
  2
*D2
 10
-73.99999999999995
 20
-7.949999999999985
 30
0.0
 11
-73.99999999999995
 21
-0.0000000000000568
 31
0.0
 70
   160
 71
     5
 42
-1.0
  3
AM_JIS
100
AcDbAlignedDimension
 13
-59.0
 23
7.949999999999986
 33
0.0
 14
-59.0
 24
-7.949999999999986
 34
0.0
 50
90.0
100
AcDbRotatedDimension
  0
DIMENSION
  5
8E3C
330
1F
100
AcDbEntity
  8
AM_5
100
AcDbDimension
  2
*D5
 10
-49.99999999999978
 20
-84.63154973203078
 30
0.0
 11
-54.99999999999986
 21
-81.53154973203077
 31
0.0
 70
    32
 71
     5
 42
-1.0
  3
AM_JIS
100
AcDbAlignedDimension
 13
-59.99999999999997
 23
-36.49999999999998
 33
0.0
 14
-49.99999999999977
 24
-6.949999999999986
 34
0.0
100
AcDbRotatedDimension
  0
DIMENSION
  5
8E3D
330
1F
100
AcDbEntity
  8
AM_5
100
AcDbDimension
  2
*D6
 10
-22.0000000000002
 20
-94.63154973203078
 30
0.0
 11
-41.00000000000009
 21
-91.53154973203077
 31
0.0
 70
    32
 71
     5
 42
-1.0
  3
AM_JIS
100
AcDbAlignedDimension
 13
-59.99999999999997
 23
-36.49999999999998
 33
0.0
 14
-22.0000000000002
 24
-27.99999999999999
 34
0.0
100
AcDbRotatedDimension
  0
DIMENSION
  5
8E3E
330
1F
100
AcDbEntity
  8
AM_5
100
AcDbDimension
  2
*D7
 10
0.0000000000000258
 20
-104.6315497320307
 30
0.0
 11
-29.99999999999997
 21
-101.5315497320307
 31
0.0
 70
    32
 71
     5
 42
-1.0
  3
AM_JIS
100
AcDbAlignedDimension
 13
-59.99999999999997
 23
-36.49999999999998
 33
0.0
 14
0.0000000000000284
 24
-62.10773673203086
 34
0.0
100
AcDbRotatedDimension
  0
DIMENSION
  5
8E3F
330
1F
100
AcDbEntity
  8
AM_5
100
AcDbDimension
  2
*D8
 10
30.26553665350404
 20
-62.5
 30
0.0
 11
30.26553665350406
 21
0.8749999999999856
 31
0.0
 70
   160
  1
%%c<>
 71
     5
 42
-1.0
  3
AM_JIS
100
AcDbAlignedDimension
 13
1.098731869887869
 23
62.5
 33
0.0
 14
1.098731869887869
 24
-62.5
 34
0.0
 50
90.0
100
AcDbRotatedDimension
1001
GENIUS_GENDTOL_13
1000

1000
h7
1000

1040
0.0
  0
DIMENSION
  5
8E40
330
1F
100
AcDbEntity
  8
AM_5
100
AcDbDimension
  2
*D4
 10
20.26553665350405
 20
-28.0
 30
0.0
 11
20.26553665350405
 21
0.8749999999999856
 31
0.0
 70
   160
  1
%%c<>
 71
     5
 42
-1.0
  3
AM_JIS
100
AcDbAlignedDimension
 13
-22.0000000000002
 23
27.99999999999999
 33
0.0
 14
-22.0000000000002
 24
-27.99999999999999
 34
0.0
 50
90.0
100
AcDbRotatedDimension
1001
GENIUS_GENDTOL_13
1000

1000
h7
1000

1040
0.0
  0
LINE
  5
8F89
330
1F
100
AcDbEntity
  8
AM_0
100
AcDbLine
 10
-23.00000000000011
 20
19.05
 30
0.0
 11
-23.00000000000011
 21
0.0
 31
0.0
  0
LINE
  5
8F8A
330
1F
100
AcDbEntity
  8
AM_0
100
AcDbLine
 10
-23.00000000000011
 20
0.0
 30
0.0
 11
-23.00000000000011
 21
-19.05
 31
0.0
  0
LINE
  5
8FE6
330
1F
100
AcDbEntity
  8
AM_11
100
AcDbLine
 10
0.0000000000000284
 20
62.10773673203053
 30
0.0
 11
-0.0000000000000568
 21
-62.10773673203096
 31
0.0
  0
LINE
  5
9051
330
1F
100
AcDbEntity
  8
AM_0
100
AcDbLine
 10
-13.09999999999985
 20
38.1104238743952
 30
0.0
 11
-6.348694652743703
 21
52.58864491405923
 31
0.0
  0
LINE
  5
9052
330
1F
100
AcDbEntity
  8
AM_0
100
AcDbLine
 10
-2.099999999999823
 20
56.07329110488112
 30
0.0
 11
-2.099999999999851
 21
0.0
 31
0.0
  0
LINE
  5
9210
330
1F
100
AcDbEntity
  8
AM_0
100
AcDbLine
 10
-13.08296291314454
 20
30.38931288630132
 30
0.0
 11
-13.08296291314452
 21
0.0
 31
0.0
  0
LINE
  5
9211
330
1F
100
AcDbEntity
  8
AM_0
100
AcDbLine
 10
-13.08296291314452
 20
0.0
 30
0.0
 11
-13.08296291314454
 21
-30.38931288630132
 31
0.0
  0
DIMENSION
  5
9250
330
1F
100
AcDbEntity
  8
AM_5
100
AcDbDimension
  2
*D10
 10
-93.99999999999993
 20
-37.49999999999998
 30
0.0
 11
-97.09999999999991
 21
-0.0000000000000081
 31
0.0
 70
    32
  1
%%c<>
 71
     5
 42
-1.0
  3
AM_JIS$0
100
AcDbAlignedDimension
 13
-58.99999999999997
 23
37.49999999999998
 33
0.0
 14
-58.99999999999997
 24
-37.49999999999998
 34
0.0
 50
270.0
100
AcDbRotatedDimension
1001
GENIUS_GENDTOL_13
1000

1000
h7
1000

1040
0.0
1001
ACAD
1000
DSTYLE
1002
{
1070
    40
1040
1.0
1070
    43
1040
12.0
1070
   140
1040
3.2
1070
   147
1040
1.5
1070
   178
1070
     2
1002
}
  0
LINE
  5
9488
330
1F
100
AcDbEntity
  8
0
100
AcDbLine
 10
-18.09236999999996
 20
70.49999999999997
 30
0.0
 11
-10.4844734721878
 21
66.78938094122788
 31
0.0
  0
LINE
  5
9489
330
1F
100
AcDbEntity
  8
0
100
AcDbLine
 10
-36.15999999999997
 20
62.99999999999997
 30
0.0
 11
-36.15999999999997
 21
70.49999999999997
 31
0.0
  0
LINE
  5
948A
330
1F
100
AcDbEntity
  8
0
100
AcDbLine
 10
-30.15999999999997
 20
70.49999999999997
 30
0.0
 11
-18.09236999999996
 21
70.49999999999997
 31
0.0
  0
LINE
  5
948B
330
1F
100
AcDbEntity
  8
0
100
AcDbLine
 10
-30.15999999999997
 20
62.99999999999997
 30
0.0
 11
-36.15999999999997
 21
62.99999999999997
 31
0.0
  0
LINE
  5
948C
330
1F
100
AcDbEntity
  8
0
100
AcDbLine
 10
-30.15999999999997
 20
62.99999999999997
 30
0.0
 11
-30.15999999999997
 21
70.49999999999997
 31
0.0
  0
LINE
  5
948D
330
1F
100
AcDbEntity
  8
0
100
AcDbLine
 10
-36.15999999999997
 20
66.60455399999998
 30
0.0
 11
-36.15999999999997
 21
71.48931899999997
 31
0.0
  0
LINE
  5
948E
330
1F
100
AcDbEntity
  8
0
100
AcDbLine
 10
-36.15999999999997
 20
70.37410299999996
 30
0.0
 11
-36.15999999999997
 21
71.48931899999997
 31
0.0
  0
SPLINE
  5
948F
330
1F
100
AcDbEntity
  8
0
100
AcDbSpline
210
0.0
220
0.0
230
1.0
 70
     8
 71
     3
 72
    11
 73
     7
 74
     5
 42
0.0000000001
 43
0.0000000001
 44
0.0000000001
 40
0.0
 40
0.0
 40
0.0
 40
0.0
 40
3.118957498771041
 40
6.237915261230265
 40
9.356873558542623
 40
12.47583167618278
 40
12.47583167618278
 40
12.47583167618278
 40
12.47583167618278
 10
-23.685881
 20
71.28265199999995
 30
0.0
 10
-24.72540015854781
 20
71.29930312515615
 30
0.0
 10
-26.80443856352815
 20
71.33260537687625
 30
0.0
 10
-29.92297553933912
 20
71.38384650540505
 30
0.0
 10
-33.0414985549364
 20
71.43594262262107
 30
0.0
 10
-35.12049953827276
 20
71.47152687454866
 30
0.0
 10
-36.15999999999997
 20
71.48931899999997
 30
0.0
 11
-23.685881
 21
71.28265199999995
 31
0.0
 11
-26.80443500000001
 21
71.33281999999997
 31
0.0
 11
-29.92297299999996
 21
71.38398899999995
 31
0.0
 11
-33.04149500000006
 21
71.43615599999998
 31
0.0
 11
-36.15999999999997
 21
71.48931899999997
 31
0.0
  0
SPLINE
  5
9490
330
1F
100
AcDbEntity
  8
0
100
AcDbSpline
210
0.0
220
0.0
230
1.0
 70
     8
 71
     3
 72
    10
 73
     6
 74
     0
 42
0.0000000001
 43
0.0000000001
 40
12.50633709542126
 40
12.50633709542126
 40
12.50633709542126
 40
12.50633709542126
 40
13.01920481369064
 40
19.52880839955376
 40
26.03841091778666
 40
26.03841091778666
 40
26.03841091778666
 40
26.03841091778666
 10
-12.65328799729536
 20
63.4469061224178
 30
0.0
 10
-12.79267220218719
 20
63.54589079437054
 30
0.0
 10
-14.70119575042031
 20
64.90124823210587
 30
0.0
 10
-18.37878786073963
 20
67.51307748723559
 30
0.0
 10
-21.91685005029194
 20
70.02612723110544
 30
0.0
 10
-23.685881
 20
71.28265199999995
 30
0.0
  0
SPLINE
  5
9491
330
1F
100
AcDbEntity
  8
0
100
AcDbSpline
210
0.0
220
0.0
230
1.0
 70
     8
 71
     3
 72
    11
 73
     7
 74
     5
 42
0.0000000001
 43
0.0000000001
 44
0.0000000001
 40
0.0
 40
0.0
 40
0.0
 40
0.0
 40
3.118957498771041
 40
6.237915261230265
 40
9.356873558542623
 40
12.47583167618278
 40
12.47583167618278
 40
12.47583167618278
 40
12.47583167618278
 10
-23.685881
 20
71.28265199999995
 30
0.0
 10
-24.72540015854781
 20
71.29930312515615
 30
0.0
 10
-26.80443856352815
 20
71.33260537687625
 30
0.0
 10
-29.92297553933912
 20
71.38384650540505
 30
0.0
 10
-33.0414985549364
 20
71.43594262262107
 30
0.0
 10
-35.12049953827276
 20
71.47152687454866
 30
0.0
 10
-36.15999999999997
 20
71.48931899999997
 30
0.0
 11
-23.685881
 21
71.28265199999995
 31
0.0
 11
-26.80443500000001
 21
71.33281999999997
 31
0.0
 11
-29.92297299999996
 21
71.38398899999995
 31
0.0
 11
-33.04149500000006
 21
71.43615599999998
 31
0.0
 11
-36.15999999999997
 21
71.48931899999997
 31
0.0
  0
SPLINE
  5
9492
330
1F
100
AcDbEntity
  8
0
100
AcDbSpline
210
0.0
220
0.0
230
1.0
 70
     8
 71
     3
 72
    11
 73
     7
 74
     5
 42
0.0000000001
 43
0.0000000001
 44
0.0000000001
 40
0.0
 40
0.0
 40
0.0
 40
0.0
 40
1.848028760406585
 40
3.696058007409241
 40
5.544087409224266
 40
7.392115257479026
 40
7.392115257479026
 40
7.392115257479026
 40
7.392115257479026
 10
-7.968350999999984
 20
67.19900699999996
 30
0.0
 10
-7.411958770058959
 20
66.93462943333404
 30
0.0
 10
-6.299174163675758
 20
66.40587423039017
 30
0.0
 10
-4.629935273158537
 20
65.61287156905088
 30
0.0
 10
-2.960652738662901
 20
64.81996149099734
 30
0.0
 10
-1.847752756959579
 20
64.29144975628284
 30
0.0
 10
-1.29130299999997
 20
64.02719399999998
 30
0.0
 11
-7.968350999999984
 21
67.19900699999996
 31
0.0
 11
-6.299164000000018
 21
66.40589599999995
 31
0.0
 11
-4.629927999999949
 21
65.61288699999997
 31
0.0
 11
-2.960641000000009
 21
64.81998499999997
 31
0.0
 11
-1.29130299999997
 21
64.02719399999998
 31
0.0
  0
SPLINE
  5
9493
330
1F
100
AcDbEntity
  8
0
100
AcDbSpline
210
0.0
220
0.0
230
1.0
 70
     8
 71
     3
 72
    11
 73
     7
 74
     5
 42
0.0000000001
 43
0.0000000001
 44
0.0000000001
 40
0.0
 40
0.0
 40
0.0
 40
0.0
 40
0.4981518673838983
 40
0.9963042011232388
 40
1.494456002931637
 40
1.992608257448333
 40
1.992608257448333
 40
1.992608257448333
 40
1.992608257448333
 10
-7.968350999999984
 20
67.19900699999996
 30
0.0
 10
-8.134378699847786
 20
67.20176600690476
 30
0.0
 10
-8.466434254973762
 20
67.20728402329726
 30
0.0
 10
-8.964516890831447
 20
67.21559692197141
 30
0.0
 10
-9.4625992470134
 20
67.22393427319413
 30
0.0
 10
-9.794653698710646
 20
67.22951542355267
 30
0.0
 10
-9.960681000000022
 20
67.23230599999997
 30
0.0
 11
-7.968350999999984
 21
67.19900699999996
 31
0.0
 11
-8.466434000000049
 21
67.20728999999997
 31
0.0
 11
-8.964517
 21
67.21560099999996
 31
0.0
 11
-9.462598999999954
 21
67.22393999999997
 31
0.0
 11
-9.960681000000022
 21
67.23230599999997
 31
0.0
  0
SPLINE
  5
9494
330
1F
100
AcDbEntity
  8
0
100
AcDbSpline
210
0.0
220
0.0
230
1.0
 70
     8
 71
     3
 72
    11
 73
     7
 74
     5
 42
0.0000000001
 43
0.0000000001
 44
0.0000000001
 40
0.0
 40
0.0
 40
0.0
 40
0.0
 40
0.4967405874346652
 40
0.9934800129980335
 40
1.490219806802616
 40
1.986959853608772
 40
1.986959853608772
 40
1.986959853608772
 40
1.986959853608772
 10
-9.960681000000022
 20
67.23230599999997
 30
0.0
 10
-10.08711331404544
 20
67.12538700619032
 30
0.0
 10
-10.33997764641231
 20
66.91154926865346
 30
0.0
 10
-10.71930443793397
 20
66.59082859661364
 30
0.0
 10
-11.09865302666242
 20
66.27013398576031
 30
0.0
 10
-11.35157232075119
 20
66.05636134673334
 30
0.0
 10
-11.47803199999998
 20
65.94947499999998
 30
0.0
 11
-9.960681000000022
 21
67.23230599999997
 31
0.0
 11
-10.33998299999996
 21
66.91155499999999
 31
0.0
 11
-10.71930799999995
 21
66.59083299999995
 31
0.0
 11
-11.098658
 21
66.27013999999997
 31
0.0
 11
-11.47803199999998
 21
65.94947499999998
 31
0.0
  0
SPLINE
  5
9495
330
1F
100
AcDbEntity
  8
0
100
AcDbSpline
210
0.0
220
0.0
230
1.0
 70
     8
 71
     3
 72
    11
 73
     7
 74
     5
 42
0.0000000001
 43
0.0000000001
 44
0.0000000001
 40
0.0
 40
0.0
 40
0.0
 40
0.0
 40
1.838874024305351
 40
3.677747973139311
 40
5.516622256359889
 40
7.355496793378921
 40
7.355496793378921
 40
7.355496793378921
 40
7.355496793378921
 10
-14.60599100000002
 20
59.29220799999995
 30
0.0
 10
-14.3451737020375
 20
59.84690779163402
 30
0.0
 10
-13.82353911681696
 20
60.95630735213607
 30
0.0
 10
-13.04145256024102
 20
62.62057853296356
 30
0.0
 10
-12.25959028515567
 20
64.28495527598633
 30
0.0
 10
-11.73855144037068
 20
65.39463506646938
 30
0.0
 10
-11.47803199999998
 20
65.94947499999998
 30
0.0
 11
-14.60599100000002
 21
59.29220799999995
 31
0.0
 11
-13.82360000000005
 21
60.95633599999996
 31
0.0
 11
-13.04148999999995
 21
62.62059599999997
 31
0.0
 11
-12.25964099999999
 21
64.28497899999999
 31
0.0
 11
-11.47803199999998
 21
65.94947499999998
 31
0.0
  0
SPLINE
  5
9496
330
1F
100
AcDbEntity
  8
0
100
AcDbSpline
210
0.0
220
0.0
230
1.0
 70
     8
 71
     3
 72
    11
 73
     7
 74
     5
 42
0.0000000001
 43
0.0000000001
 44
0.0000000001
 40
0.0
 40
0.0
 40
0.0
 40
0.0
 40
0.4979074476084695
 40
0.9958149057179147
 40
1.493722353326412
 40
1.991628811490978
 40
1.991628811490978
 40
1.991628811490978
 40
1.991628811490978
 10
-14.60599100000002
 20
59.29220799999995
 30
0.0
 10
-14.60773354756969
 20
59.12624799874926
 30
0.0
 10
-14.61121864274577
 20
58.79432799274775
 30
0.0
 10
-14.6164484292376
 20
58.29644800800814
 30
0.0
 10
-14.62167563662075
 20
57.79856832601672
 30
0.0
 10
-14.62516188002817
 20
57.46664866540673
 30
0.0
 10
-14.62690499999996
 20
57.30068899999998
 30
0.0
 11
-14.60599100000002
 21
59.29220799999995
 31
0.0
 11
-14.611219
 21
58.79432799999998
 31
0.0
 11
-14.61644799999999
 21
58.29644799999996
 31
0.0
 11
-14.62167599999998
 21
57.79856799999996
 31
0.0
 11
-14.62690499999996
 21
57.30068899999998
 31
0.0
  0
SPLINE
  5
9497
330
1F
100
AcDbEntity
  8
0
100
AcDbSpline
210
0.0
220
0.0
230
1.0
 70
     8
 71
     3
 72
    11
 73
     7
 74
     5
 42
0.0000000001
 43
0.0000000001
 44
0.0000000001
 40
0.0
 40
0.0
 40
0.0
 40
0.0
 40
0.4999498041063568
 40
0.9998980810570497
 40
1.499847767301633
 40
1.999796689969726
 40
1.999796689969726
 40
1.999796689969726
 40
1.999796689969726
 10
-14.62690499999996
 20
57.30068899999998
 30
0.0
 10
-14.5192967555044
 20
57.17343859154141
 30
0.0
 10
-14.30408059521531
 20
56.91893816332566
 30
0.0
 10
-13.98125461672359
 20
56.5371887089008
 30
0.0
 10
-13.65842930760055
 20
56.15543907321134
 30
0.0
 10
-13.44321171441623
 20
55.90093962628724
 30
0.0
 10
-13.33560299999999
 20
55.77368999999996
 30
0.0
 11
-14.62690499999996
 21
57.30068899999998
 31
0.0
 11
-14.30408
 21
56.91893799999997
 31
0.0
 11
-13.98125500000003
 21
56.53718899999998
 31
0.0
 11
-13.65842899999995
 21
56.15543899999997
 31
0.0
 11
-13.33560299999999
 21
55.77368999999996
 31
0.0
  0
SPLINE
  5
9498
330
1F
100
AcDbEntity
  8
0
100
AcDbSpline
210
0.0
220
0.0
230
1.0
 70
     8
 71
     3
 72
    11
 73
     7
 74
     5
 42
0.0000000001
 43
0.0000000001
 44
0.0000000001
 40
0.0
 40
0.0
 40
0.0
 40
0.0
 40
1.848849101077278
 40
3.697697250331788
 40
5.546545828478956
 40
7.395394968847395
 40
7.395394968847395
 40
7.395394968847395
 40
7.395394968847395
 10
-6.65855399999998
 20
52.59424299999998
 30
0.0
 10
-7.214997934928959
 20
52.85914850217976
 30
0.0
 10
-8.327885518318936
 20
53.38895937016089
 30
0.0
 10
-9.997164050559462
 20
54.18378662610172
 30
0.0
 10
-11.66640706572747
 20
54.97868849985555
 30
0.0
 10
-12.77920429884355
 20
55.50868947309026
 30
0.0
 10
-13.33560299999999
 20
55.77368999999996
 30
0.0
 11
-6.65855399999998
 21
52.59424299999998
 31
0.0
 11
-8.327877000000057
 21
53.38897799999998
 31
0.0
 11
-9.997158000000013
 21
54.18379899999997
 31
0.0
 11
-11.66639899999995
 21
54.97870499999996
 31
0.0
 11
-13.33560299999999
 21
55.77368999999996
 31
0.0
  0
SPLINE
  5
9499
330
1F
100
AcDbEntity
  8
0
100
AcDbSpline
210
0.0
220
0.0
230
1.0
 70
     8
 71
     3
 72
    11
 73
     7
 74
     5
 42
0.0000000001
 43
0.0000000001
 44
0.0000000001
 40
0.0
 40
0.0
 40
0.0
 40
0.0
 40
0.4981621970773743
 40
0.9963247633196276
 40
1.494487701187301
 40
1.992651013141385
 40
1.992651013141385
 40
1.992651013141385
 40
1.992651013141385
 10
-6.65855399999998
 20
52.59424299999998
 30
0.0
 10
-6.492527045093197
 20
52.59124249952643
 30
0.0
 10
-6.160473012244807
 20
52.58524149635583
 30
0.0
 10
-5.662390965921076
 20
52.5762849968236
 30
0.0
 10
-5.164308009373769
 20
52.5673584963388
 30
0.0
 10
-4.832252044683059
 20
52.56143749952063
 30
0.0
 10
-4.666223999999942
 20
52.55847699999998
 30
0.0
 11
-6.65855399999998
 21
52.59424299999998
 31
0.0
 11
-6.160473000000024
 21
52.58524899999997
 31
0.0
 11
-5.662390999999956
 21
52.57628999999997
 31
0.0
 11
-5.164308000000005
 21
52.56736599999996
 31
0.0
 11
-4.666223999999942
 21
52.55847699999998
 31
0.0
  0
SPLINE
  5
949A
330
1F
100
AcDbEntity
  8
0
100
AcDbSpline
210
0.0
220
0.0
230
1.0
 70
     8
 71
     3
 72
    11
 73
     7
 74
     5
 42
0.0000000001
 43
0.0000000001
 44
0.0000000001
 40
0.0
 40
0.0
 40
0.0
 40
0.0
 40
0.496457672629764
 40
0.9929152844326413
 40
1.489372840665803
 40
1.9858304653479
 40
1.9858304653479
 40
1.9858304653479
 40
1.9858304653479
 10
-4.666223999999942
 20
52.55847699999998
 30
0.0
 10
-4.53975931830385
 20
52.66521155118446
 30
0.0
 10
-4.28682997040633
 20
52.87868064047613
 30
0.0
 10
-3.907478240985369
 20
53.19893433459819
 30
0.0
 10
-3.528155162785679
 20
53.51922193912455
 30
0.0
 10
-3.275300393405586
 20
53.73277930813415
 30
0.0
 10
-3.14887299999998
 20
53.83955799999998
 30
0.0
 11
-4.666223999999942
 21
52.55847699999998
 31
0.0
 11
-4.286836999999991
 21
52.87868899999998
 31
0.0
 11
-3.907482999999956
 21
53.19893999999997
 31
0.0
 11
-3.528161999999952
 21
53.51922999999996
 31
0.0
 11
-3.14887299999998
 21
53.83955799999998
 31
0.0
  0
SPLINE
  5
949B
330
1F
100
AcDbEntity
  8
0
100
AcDbSpline
210
0.0
220
0.0
230
1.0
 70
     8
 71
     3
 72
    11
 73
     7
 74
     5
 42
0.0000000001
 43
0.0000000001
 44
0.0000000001
 40
0.0
 40
0.0
 40
0.0
 40
0.0
 40
1.840603288855334
 40
3.681207617945131
 40
5.521810655165507
 40
7.362414069219165
 40
7.362414069219165
 40
7.362414069219165
 40
7.362414069219165
 10
-0.0209139999999479
 20
60.50446699999998
 30
0.0
 10
-0.2814437499066571
 20
59.94899535628261
 30
0.0
 10
-0.8025033969609296
 20
58.83805175491779
 30
0.0
 10
-1.58437326010295
 20
57.17176817274452
 30
0.0
 10
-2.366450482653419
 20
55.50558185528863
 30
0.0
 10
-2.888065476419114
 20
54.3948993229952
 30
0.0
 10
-3.14887299999998
 20
53.83955799999998
 30
0.0
 11
-0.0209139999999479
 21
60.50446699999998
 31
0.0
 11
-0.8025499999999965
 21
58.83807399999998
 31
0.0
 11
-1.584408000000053
 21
57.17178399999998
 31
0.0
 11
-2.366507999999953
 21
55.50560899999997
 31
0.0
 11
-3.14887299999998
 21
53.83955799999998
 31
0.0
  0
SPLINE
  5
949C
330
1F
100
AcDbEntity
  8
0
100
AcDbSpline
210
0.0
220
0.0
230
1.0
 70
     8
 71
     3
 72
    11
 73
     7
 74
     5
 42
0.0000000001
 43
0.0000000001
 44
0.0000000001
 40
0.0
 40
0.0
 40
0.0
 40
0.0
 40
0.4989104029081838
 40
0.997820805816339
 40
1.496732198189778
 40
1.995642590618124
 40
1.995642590618124
 40
1.995642590618124
 40
1.995642590618124
 10
-0.0209139999999479
 20
60.50446699999998
 30
0.0
 10
-0.0191710241186911
 20
60.67076133358608
 30
0.0
 10
-0.0156850723561775
 20
61.00335000075829
 30
0.0
 10
-0.0104557071180409
 20
61.50223332677033
 30
0.0
 10
-0.0052280784686616
 20
62.00111666748902
 30
0.0
 10
-0.0017426916585919
 20
62.33370566692855
 30
0.0
 10
0.0
 20
62.49999999999997
 30
0.0
 11
-0.0209139999999479
 21
60.50446699999998
 31
0.0
 11
-0.0156849999999622
 21
61.00334999999998
 31
0.0
 11
-0.0104559999999765
 21
61.50223299999996
 31
0.0
 11
-0.0052279999999882
 21
62.00111699999997
 31
0.0
 11
0.0
 21
62.49999999999997
 31
0.0
  0
SPLINE
  5
949D
330
1F
100
AcDbEntity
  8
0
100
AcDbSpline
210
0.0
220
0.0
230
1.0
 70
     8
 71
     3
 72
    11
 73
     7
 74
     5
 42
0.0000000001
 43
0.0000000001
 44
0.0000000001
 40
0.0
 40
0.0
 40
0.0
 40
0.0
 40
0.4999863388933533
 40
0.9999727957359885
 40
1.499959134629341
 40
1.999946237139973
 40
1.999946237139973
 40
1.999946237139973
 40
1.999946237139973
 10
0.0
 20
62.49999999999997
 30
0.0
 10
-0.1076087913095307
 20
62.62726589460955
 30
0.0
 10
-0.3228263993140388
 20
62.88179771385141
 30
0.0
 10
-0.6456505550558802
 20
63.26359732473061
 30
0.0
 10
-0.9684773924989258
 20
63.64539500145977
 30
0.0
 10
-1.183694409383633
 20
63.89992760236302
 30
0.0
 10
-1.29130299999997
 20
64.02719399999998
 30
0.0
 11
0.0
 21
62.49999999999997
 31
0.0
 11
-0.3228259999999636
 21
62.88179799999998
 31
0.0
 11
-0.6456510000000435
 21
63.26359699999997
 31
0.0
 11
-0.9684770000000071
 21
63.64539499999998
 31
0.0
 11
-1.29130299999997
 21
64.02719399999998
 31
0.0
  0
LINE
  5
949E
330
1F
100
AcDbEntity
  8
AM_0
100
AcDbLine
 10
-36.15999999999999
 20
-70.0
 30
0.0
 11
-36.65999999999999
 21
-70.5
 31
0.0
1001
GENIUS_GENFIL_13
1070
     0
1040
0.5
1040
0.5
1040
20.0
1040
0.0
1002
{
1002
}
1001
GENIUS_GENODEF_13
1002
{
1000
HIER
1070
     0
1002
}
1002
{
1000
MANEDIT
1070
     0
1002
}
1002
{
1000
NOSEL
1070
     0
1002
}
1002
{
1000
BEHIND
1070
     0
1002
}
1002
{
1000
REACTOR
1002
}
1001
GENIUS_GENOBJ-N-CHA_13
1002
{
1000
OWNER
1000
GEN
1002
}
  0
LINE
  5
949F
330
1F
100
AcDbEntity
  8
AM_0
100
AcDbLine
 10
-13.09999999999985
 20
-38.1104238743952
 30
0.0
 11
-6.348694652743703
 21
-52.58864491405923
 31
0.0
  0
LINE
  5
94A0
330
1F
100
AcDbEntity
  8
0
100
AcDbLine
 10
-18.09236999999996
 20
-70.49999999999997
 30
0.0
 11
-10.4844734721878
 21
-66.78938094122788
 31
0.0
  0
LINE
  5
94A1
330
1F
100
AcDbEntity
  8
0
100
AcDbLine
 10
-36.15999999999997
 20
-62.99999999999997
 30
0.0
 11
-36.15999999999997
 21
-70.49999999999997
 31
0.0
  0
LINE
  5
94A2
330
1F
100
AcDbEntity
  8
0
100
AcDbLine
 10
-30.15999999999997
 20
-70.49999999999997
 30
0.0
 11
-18.09236999999996
 21
-70.49999999999997
 31
0.0
  0
LINE
  5
94A3
330
1F
100
AcDbEntity
  8
0
100
AcDbLine
 10
-30.15999999999997
 20
-62.99999999999997
 30
0.0
 11
-36.15999999999997
 21
-62.99999999999997
 31
0.0
  0
LINE
  5
94A4
330
1F
100
AcDbEntity
  8
0
100
AcDbLine
 10
-30.15999999999997
 20
-62.99999999999997
 30
0.0
 11
-30.15999999999997
 21
-70.49999999999997
 31
0.0
  0
LINE
  5
94A5
330
1F
100
AcDbEntity
  8
0
100
AcDbLine
 10
-36.15999999999997
 20
-66.60455399999998
 30
0.0
 11
-36.15999999999997
 21
-71.48931899999997
 31
0.0
  0
LINE
  5
94A6
330
1F
100
AcDbEntity
  8
0
100
AcDbLine
 10
-36.15999999999997
 20
-70.37410299999996
 30
0.0
 11
-36.15999999999997
 21
-71.48931899999997
 31
0.0
  0
SPLINE
  5
94A7
330
1F
100
AcDbEntity
  8
0
100
AcDbSpline
210
0.0
220
0.0
230
1.0
 70
     8
 71
     3
 72
    11
 73
     7
 74
     5
 42
0.0000000001
 43
0.0000000001
 44
0.0000000001
 40
0.0
 40
0.0
 40
0.0
 40
0.0
 40
3.118957498771041
 40
6.237915261230265
 40
9.356873558542623
 40
12.47583167618278
 40
12.47583167618278
 40
12.47583167618278
 40
12.47583167618278
 10
-23.685881
 20
-71.28265199999995
 30
0.0
 10
-24.7254001585478
 20
-71.29930312515615
 30
0.0
 10
-26.80443856352819
 20
-71.33260537687625
 30
0.0
 10
-29.9229755393391
 20
-71.38384650540507
 30
0.0
 10
-33.0414985549364
 20
-71.43594262262104
 30
0.0
 10
-35.12049953827276
 20
-71.47152687454862
 30
0.0
 10
-36.15999999999997
 20
-71.48931899999997
 30
0.0
 11
-23.685881
 21
-71.28265199999995
 31
0.0
 11
-26.80443500000001
 21
-71.33281999999997
 31
0.0
 11
-29.92297299999996
 21
-71.38398899999995
 31
0.0
 11
-33.04149500000006
 21
-71.43615599999998
 31
0.0
 11
-36.15999999999997
 21
-71.48931899999997
 31
0.0
  0
SPLINE
  5
94A8
330
1F
100
AcDbEntity
  8
0
100
AcDbSpline
210
0.0
220
0.0
230
1.0
 70
     8
 71
     3
 72
    10
 73
     6
 74
     0
 42
0.0000000001
 43
0.0000000001
 40
12.50633709542126
 40
12.50633709542126
 40
12.50633709542126
 40
12.50633709542126
 40
13.01920481369064
 40
19.52880839955376
 40
26.03841091778666
 40
26.03841091778666
 40
26.03841091778666
 40
26.03841091778666
 10
-12.65328799729536
 20
-63.4469061224178
 30
0.0
 10
-12.79267220218719
 20
-63.54589079437054
 30
0.0
 10
-14.70119575042031
 20
-64.90124823210587
 30
0.0
 10
-18.37878786073963
 20
-67.51307748723559
 30
0.0
 10
-21.91685005029194
 20
-70.02612723110544
 30
0.0
 10
-23.685881
 20
-71.28265199999995
 30
0.0
  0
SPLINE
  5
94A9
330
1F
100
AcDbEntity
  8
0
100
AcDbSpline
210
0.0
220
0.0
230
1.0
 70
     8
 71
     3
 72
    11
 73
     7
 74
     5
 42
0.0000000001
 43
0.0000000001
 44
0.0000000001
 40
0.0
 40
0.0
 40
0.0
 40
0.0
 40
3.118957498771041
 40
6.237915261230265
 40
9.356873558542623
 40
12.47583167618278
 40
12.47583167618278
 40
12.47583167618278
 40
12.47583167618278
 10
-23.685881
 20
-71.28265199999995
 30
0.0
 10
-24.7254001585478
 20
-71.29930312515615
 30
0.0
 10
-26.80443856352819
 20
-71.33260537687625
 30
0.0
 10
-29.9229755393391
 20
-71.38384650540507
 30
0.0
 10
-33.0414985549364
 20
-71.43594262262104
 30
0.0
 10
-35.12049953827276
 20
-71.47152687454862
 30
0.0
 10
-36.15999999999997
 20
-71.48931899999997
 30
0.0
 11
-23.685881
 21
-71.28265199999995
 31
0.0
 11
-26.80443500000001
 21
-71.33281999999997
 31
0.0
 11
-29.92297299999996
 21
-71.38398899999995
 31
0.0
 11
-33.04149500000006
 21
-71.43615599999998
 31
0.0
 11
-36.15999999999997
 21
-71.48931899999997
 31
0.0
  0
SPLINE
  5
94AA
330
1F
100
AcDbEntity
  8
0
100
AcDbSpline
210
0.0
220
0.0
230
1.0
 70
     8
 71
     3
 72
    11
 73
     7
 74
     5
 42
0.0000000001
 43
0.0000000001
 44
0.0000000001
 40
0.0
 40
0.0
 40
0.0
 40
0.0
 40
1.848028760406585
 40
3.696058007409241
 40
5.544087409224266
 40
7.392115257479026
 40
7.392115257479026
 40
7.392115257479026
 40
7.392115257479026
 10
-7.968350999999984
 20
-67.19900699999996
 30
0.0
 10
-7.411958770058959
 20
-66.93462943333405
 30
0.0
 10
-6.299174163675796
 20
-66.40587423039017
 30
0.0
 10
-4.629935273158527
 20
-65.61287156905089
 30
0.0
 10
-2.960652738662952
 20
-64.81996149099732
 30
0.0
 10
-1.847752756959564
 20
-64.29144975628282
 30
0.0
 10
-1.29130299999997
 20
-64.02719399999998
 30
0.0
 11
-7.968350999999984
 21
-67.19900699999996
 31
0.0
 11
-6.299164000000018
 21
-66.40589599999995
 31
0.0
 11
-4.629927999999949
 21
-65.61288699999997
 31
0.0
 11
-2.960641000000009
 21
-64.81998499999997
 31
0.0
 11
-1.29130299999997
 21
-64.02719399999998
 31
0.0
  0
SPLINE
  5
94AB
330
1F
100
AcDbEntity
  8
0
100
AcDbSpline
210
0.0
220
0.0
230
1.0
 70
     8
 71
     3
 72
    11
 73
     7
 74
     5
 42
0.0000000001
 43
0.0000000001
 44
0.0000000001
 40
0.0
 40
0.0
 40
0.0
 40
0.0
 40
0.4981518673838983
 40
0.9963042011232388
 40
1.494456002931637
 40
1.992608257448333
 40
1.992608257448333
 40
1.992608257448333
 40
1.992608257448333
 10
-7.968350999999984
 20
-67.19900699999996
 30
0.0
 10
-8.134378699847793
 20
-67.20176600690476
 30
0.0
 10
-8.466434254973767
 20
-67.20728402329726
 30
0.0
 10
-8.964516890831445
 20
-67.21559692197139
 30
0.0
 10
-9.462599247013395
 20
-67.22393427319412
 30
0.0
 10
-9.794653698710661
 20
-67.22951542355268
 30
0.0
 10
-9.960681000000022
 20
-67.23230599999997
 30
0.0
 11
-7.968350999999984
 21
-67.19900699999996
 31
0.0
 11
-8.466434000000049
 21
-67.20728999999997
 31
0.0
 11
-8.964517
 21
-67.21560099999996
 31
0.0
 11
-9.462598999999954
 21
-67.22393999999997
 31
0.0
 11
-9.960681000000022
 21
-67.23230599999997
 31
0.0
  0
SPLINE
  5
94AC
330
1F
100
AcDbEntity
  8
0
100
AcDbSpline
210
0.0
220
0.0
230
1.0
 70
     8
 71
     3
 72
    11
 73
     7
 74
     5
 42
0.0000000001
 43
0.0000000001
 44
0.0000000001
 40
0.0
 40
0.0
 40
0.0
 40
0.0
 40
0.4967405874346652
 40
0.9934800129980335
 40
1.490219806802616
 40
1.986959853608772
 40
1.986959853608772
 40
1.986959853608772
 40
1.986959853608772
 10
-9.960681000000022
 20
-67.23230599999997
 30
0.0
 10
-10.08711331404542
 20
-67.12538700619032
 30
0.0
 10
-10.33997764641229
 20
-66.91154926865348
 30
0.0
 10
-10.71930443793396
 20
-66.59082859661364
 30
0.0
 10
-11.09865302666243
 20
-66.27013398576031
 30
0.0
 10
-11.35157232075115
 20
-66.05636134673334
 30
0.0
 10
-11.47803199999998
 20
-65.94947499999998
 30
0.0
 11
-9.960681000000022
 21
-67.23230599999997
 31
0.0
 11
-10.33998299999996
 21
-66.91155499999999
 31
0.0
 11
-10.71930799999995
 21
-66.59083299999995
 31
0.0
 11
-11.098658
 21
-66.27013999999997
 31
0.0
 11
-11.47803199999998
 21
-65.94947499999998
 31
0.0
  0
SPLINE
  5
94AD
330
1F
100
AcDbEntity
  8
0
100
AcDbSpline
210
0.0
220
0.0
230
1.0
 70
     8
 71
     3
 72
    11
 73
     7
 74
     5
 42
0.0000000001
 43
0.0000000001
 44
0.0000000001
 40
0.0
 40
0.0
 40
0.0
 40
0.0
 40
1.838874024305351
 40
3.677747973139311
 40
5.516622256359889
 40
7.355496793378921
 40
7.355496793378921
 40
7.355496793378921
 40
7.355496793378921
 10
-14.60599100000002
 20
-59.29220799999995
 30
0.0
 10
-14.34517370203748
 20
-59.84690779163402
 30
0.0
 10
-13.82353911681693
 20
-60.95630735213605
 30
0.0
 10
-13.04145256024099
 20
-62.62057853296357
 30
0.0
 10
-12.25959028515565
 20
-64.28495527598632
 30
0.0
 10
-11.73855144037069
 20
-65.39463506646938
 30
0.0
 10
-11.47803199999998
 20
-65.94947499999998
 30
0.0
 11
-14.60599100000002
 21
-59.29220799999995
 31
0.0
 11
-13.82360000000005
 21
-60.95633599999996
 31
0.0
 11
-13.04148999999995
 21
-62.62059599999997
 31
0.0
 11
-12.25964099999999
 21
-64.28497899999999
 31
0.0
 11
-11.47803199999998
 21
-65.94947499999998
 31
0.0
  0
SPLINE
  5
94AE
330
1F
100
AcDbEntity
  8
0
100
AcDbSpline
210
0.0
220
0.0
230
1.0
 70
     8
 71
     3
 72
    11
 73
     7
 74
     5
 42
0.0000000001
 43
0.0000000001
 44
0.0000000001
 40
0.0
 40
0.0
 40
0.0
 40
0.0
 40
0.4979074476084695
 40
0.9958149057179147
 40
1.493722353326412
 40
1.991628811490978
 40
1.991628811490978
 40
1.991628811490978
 40
1.991628811490978
 10
-14.60599100000002
 20
-59.29220799999995
 30
0.0
 10
-14.60773354756967
 20
-59.12624799874926
 30
0.0
 10
-14.61121864274574
 20
-58.79432799274774
 30
0.0
 10
-14.6164484292376
 20
-58.29644800800813
 30
0.0
 10
-14.62167563662074
 20
-57.79856832601675
 30
0.0
 10
-14.6251618800282
 20
-57.46664866540674
 30
0.0
 10
-14.62690499999996
 20
-57.30068899999998
 30
0.0
 11
-14.60599100000002
 21
-59.29220799999995
 31
0.0
 11
-14.611219
 21
-58.79432799999998
 31
0.0
 11
-14.61644799999999
 21
-58.29644799999996
 31
0.0
 11
-14.62167599999998
 21
-57.79856799999996
 31
0.0
 11
-14.62690499999996
 21
-57.30068899999998
 31
0.0
  0
SPLINE
  5
94AF
330
1F
100
AcDbEntity
  8
0
100
AcDbSpline
210
0.0
220
0.0
230
1.0
 70
     8
 71
     3
 72
    11
 73
     7
 74
     5
 42
0.0000000001
 43
0.0000000001
 44
0.0000000001
 40
0.0
 40
0.0
 40
0.0
 40
0.0
 40
0.4999498041063568
 40
0.9998980810570497
 40
1.499847767301633
 40
1.999796689969726
 40
1.999796689969726
 40
1.999796689969726
 40
1.999796689969726
 10
-14.62690499999996
 20
-57.30068899999998
 30
0.0
 10
-14.51929675550441
 20
-57.17343859154143
 30
0.0
 10
-14.30408059521537
 20
-56.91893816332569
 30
0.0
 10
-13.98125461672355
 20
-56.53718870890078
 30
0.0
 10
-13.65842930760054
 20
-56.15543907321132
 30
0.0
 10
-13.44321171441625
 20
-55.90093962628724
 30
0.0
 10
-13.33560299999999
 20
-55.77368999999996
 30
0.0
 11
-14.62690499999996
 21
-57.30068899999998
 31
0.0
 11
-14.30408
 21
-56.91893799999997
 31
0.0
 11
-13.98125500000003
 21
-56.53718899999998
 31
0.0
 11
-13.65842899999995
 21
-56.15543899999997
 31
0.0
 11
-13.33560299999999
 21
-55.77368999999996
 31
0.0
  0
SPLINE
  5
94B0
330
1F
100
AcDbEntity
  8
0
100
AcDbSpline
210
0.0
220
0.0
230
1.0
 70
     8
 71
     3
 72
    11
 73
     7
 74
     5
 42
0.0000000001
 43
0.0000000001
 44
0.0000000001
 40
0.0
 40
0.0
 40
0.0
 40
0.0
 40
1.848849101077278
 40
3.697697250331788
 40
5.546545828478956
 40
7.395394968847395
 40
7.395394968847395
 40
7.395394968847395
 40
7.395394968847395
 10
-6.65855399999998
 20
-52.59424299999998
 30
0.0
 10
-7.214997934928947
 20
-52.85914850217976
 30
0.0
 10
-8.327885518318931
 20
-53.3889593701609
 30
0.0
 10
-9.99716405055951
 20
-54.18378662610169
 30
0.0
 10
-11.6664070657275
 20
-54.97868849985557
 30
0.0
 10
-12.77920429884359
 20
-55.50868947309027
 30
0.0
 10
-13.33560299999999
 20
-55.77368999999996
 30
0.0
 11
-6.65855399999998
 21
-52.59424299999998
 31
0.0
 11
-8.327877000000057
 21
-53.38897799999998
 31
0.0
 11
-9.997158000000013
 21
-54.18379899999997
 31
0.0
 11
-11.66639899999995
 21
-54.97870499999996
 31
0.0
 11
-13.33560299999999
 21
-55.77368999999996
 31
0.0
  0
SPLINE
  5
94B1
330
1F
100
AcDbEntity
  8
0
100
AcDbSpline
210
0.0
220
0.0
230
1.0
 70
     8
 71
     3
 72
    11
 73
     7
 74
     5
 42
0.0000000001
 43
0.0000000001
 44
0.0000000001
 40
0.0
 40
0.0
 40
0.0
 40
0.0
 40
0.4981621970773743
 40
0.9963247633196276
 40
1.494487701187301
 40
1.992651013141385
 40
1.992651013141385
 40
1.992651013141385
 40
1.992651013141385
 10
-6.65855399999998
 20
-52.59424299999998
 30
0.0
 10
-6.492527045093206
 20
-52.59124249952643
 30
0.0
 10
-6.160473012244789
 20
-52.58524149635583
 30
0.0
 10
-5.662390965921105
 20
-52.57628499682361
 30
0.0
 10
-5.164308009373721
 20
-52.5673584963388
 30
0.0
 10
-4.832252044683084
 20
-52.56143749952062
 30
0.0
 10
-4.666223999999942
 20
-52.55847699999998
 30
0.0
 11
-6.65855399999998
 21
-52.59424299999998
 31
0.0
 11
-6.160473000000024
 21
-52.58524899999997
 31
0.0
 11
-5.662390999999956
 21
-52.57628999999997
 31
0.0
 11
-5.164308000000005
 21
-52.56736599999996
 31
0.0
 11
-4.666223999999942
 21
-52.55847699999998
 31
0.0
  0
SPLINE
  5
94B2
330
1F
100
AcDbEntity
  8
0
100
AcDbSpline
210
0.0
220
0.0
230
1.0
 70
     8
 71
     3
 72
    11
 73
     7
 74
     5
 42
0.0000000001
 43
0.0000000001
 44
0.0000000001
 40
0.0
 40
0.0
 40
0.0
 40
0.0
 40
0.496457672629764
 40
0.9929152844326413
 40
1.489372840665803
 40
1.9858304653479
 40
1.9858304653479
 40
1.9858304653479
 40
1.9858304653479
 10
-4.666223999999942
 20
-52.55847699999998
 30
0.0
 10
-4.539759318303842
 20
-52.66521155118446
 30
0.0
 10
-4.286829970406325
 20
-52.87868064047611
 30
0.0
 10
-3.907478240985348
 20
-53.19893433459819
 30
0.0
 10
-3.528155162785675
 20
-53.51922193912454
 30
0.0
 10
-3.27530039340559
 20
-53.73277930813415
 30
0.0
 10
-3.14887299999998
 20
-53.83955799999998
 30
0.0
 11
-4.666223999999942
 21
-52.55847699999998
 31
0.0
 11
-4.286836999999991
 21
-52.87868899999998
 31
0.0
 11
-3.907482999999956
 21
-53.19893999999997
 31
0.0
 11
-3.528161999999952
 21
-53.51922999999996
 31
0.0
 11
-3.14887299999998
 21
-53.83955799999998
 31
0.0
  0
SPLINE
  5
94B3
330
1F
100
AcDbEntity
  8
0
100
AcDbSpline
210
0.0
220
0.0
230
1.0
 70
     8
 71
     3
 72
    11
 73
     7
 74
     5
 42
0.0000000001
 43
0.0000000001
 44
0.0000000001
 40
0.0
 40
0.0
 40
0.0
 40
0.0
 40
1.840603288855334
 40
3.681207617945131
 40
5.521810655165507
 40
7.362414069219165
 40
7.362414069219165
 40
7.362414069219165
 40
7.362414069219165
 10
-0.0209139999999479
 20
-60.50446699999998
 30
0.0
 10
-0.2814437499066551
 20
-59.94899535628261
 30
0.0
 10
-0.8025033969609365
 20
-58.83805175491779
 30
0.0
 10
-1.584373260102928
 20
-57.17176817274451
 30
0.0
 10
-2.366450482653445
 20
-55.5055818552886
 30
0.0
 10
-2.888065476419118
 20
-54.39489932299519
 30
0.0
 10
-3.14887299999998
 20
-53.83955799999998
 30
0.0
 11
-0.0209139999999479
 21
-60.50446699999998
 31
0.0
 11
-0.8025499999999965
 21
-58.83807399999998
 31
0.0
 11
-1.584408000000053
 21
-57.17178399999998
 31
0.0
 11
-2.366507999999953
 21
-55.50560899999997
 31
0.0
 11
-3.14887299999998
 21
-53.83955799999998
 31
0.0
  0
SPLINE
  5
94B4
330
1F
100
AcDbEntity
  8
0
100
AcDbSpline
210
0.0
220
0.0
230
1.0
 70
     8
 71
     3
 72
    11
 73
     7
 74
     5
 42
0.0000000001
 43
0.0000000001
 44
0.0000000001
 40
0.0
 40
0.0
 40
0.0
 40
0.0
 40
0.4989104029081838
 40
0.997820805816339
 40
1.496732198189778
 40
1.995642590618124
 40
1.995642590618124
 40
1.995642590618124
 40
1.995642590618124
 10
-0.0209139999999479
 20
-60.50446699999998
 30
0.0
 10
-0.019171024118692
 20
-60.67076133358609
 30
0.0
 10
-0.0156850723561803
 20
-61.00335000075831
 30
0.0
 10
-0.0104557071180565
 20
-61.50223332677031
 30
0.0
 10
-0.0052280784686364
 20
-62.00111666748902
 30
0.0
 10
-0.001742691658611
 20
-62.33370566692856
 30
0.0
 10
0.0
 20
-62.49999999999997
 30
0.0
 11
-0.0209139999999479
 21
-60.50446699999998
 31
0.0
 11
-0.0156849999999622
 21
-61.00334999999998
 31
0.0
 11
-0.0104559999999765
 21
-61.50223299999996
 31
0.0
 11
-0.0052279999999882
 21
-62.00111699999997
 31
0.0
 11
0.0
 21
-62.49999999999997
 31
0.0
  0
SPLINE
  5
94B5
330
1F
100
AcDbEntity
  8
0
100
AcDbSpline
210
0.0
220
0.0
230
1.0
 70
     8
 71
     3
 72
    11
 73
     7
 74
     5
 42
0.0000000001
 43
0.0000000001
 44
0.0000000001
 40
0.0
 40
0.0
 40
0.0
 40
0.0
 40
0.4999863388933533
 40
0.9999727957359885
 40
1.499959134629341
 40
1.999946237139973
 40
1.999946237139973
 40
1.999946237139973
 40
1.999946237139973
 10
0.0
 20
-62.49999999999997
 30
0.0
 10
-0.1076087913095328
 20
-62.62726589460956
 30
0.0
 10
-0.3228263993140514
 20
-62.88179771385141
 30
0.0
 10
-0.6456505550558527
 20
-63.26359732473061
 30
0.0
 10
-0.9684773924989416
 20
-63.64539500145979
 30
0.0
 10
-1.183694409383694
 20
-63.89992760236302
 30
0.0
 10
-1.29130299999997
 20
-64.02719399999998
 30
0.0
 11
0.0
 21
-62.49999999999997
 31
0.0
 11
-0.3228259999999636
 21
-62.88179799999998
 31
0.0
 11
-0.6456510000000435
 21
-63.26359699999997
 31
0.0
 11
-0.9684770000000071
 21
-63.64539499999998
 31
0.0
 11
-1.29130299999997
 21
-64.02719399999998
 31
0.0
  0
DIMENSION
  5
94C5
330
1F
100
AcDbEntity
  8
AM_5
100
AcDbDimension
  2
*D12
 10
40.26553665350401
 20
-71.489319
 30
0.0
 11
37.16553665350403
 21
-0.0000000000000234
 31
0.0
 70
    32
  1
%%c<>
 71
     5
 42
142.9786379999999
  3
AM_JIS$0
100
AcDbAlignedDimension
 13
-36.15999999999997
 23
71.48931899999997
 33
0.0
 14
-36.15999999999997
 24
-71.48931899999998
 34
0.0
 50
90.0
100
AcDbRotatedDimension
1001
ACAD
1000
DSTYLE
1002
{
1070
    40
1040
1.0
1070
    43
1040
12.0
1070
   140
1040
3.2
1070
   147
1040
1.5
1070
   178
1070
     2
1070
   271
1070
     2
1002
}
  0
VIEWPORT
  5
110
102
{ACAD_XDICTIONARY
360
9502
102
}
330
101
100
AcDbEntity
 67
     1
  8
0
100
AcDbViewport
 10
420.5
 20
297.0
 30
0.0
 40
948.9782706766916
 41
628.452
 68
     1
 69
     1
 12
420.5
 22
297.0
 13
0.0
 23
0.0
 14
10.0
 24
10.0
 15
10.0
 25
10.0
 16
0.0
 26
0.0
 36
1.0
 17
0.0
 27
0.0
 37
0.0
 42
50.0
 43
0.0
 44
0.0
 45
628.452
 50
0.0
 51
0.0
 72
   100
 90
    32800
  1

281
     0
 71
     1
 74
     0
110
0.0
120
0.0
130
0.0
111
1.0
121
0.0
131
0.0
112
0.0
122
1.0
132
0.0
 79
     0
146
0.0
1001
GENIUS_GENSCREG_15
1000
PF
1040
1.0
1000
DF
1040
1.0
1000
MIN
1011
-53.98913533834582
1021
-17.226
1031
0.0
1000
MAX
1011
894.9891353383458
1021
611.226
1031
0.0
1000
FLAGS
1070
     4
1001
GENIUS_GENODEF_13
1002
{
1000
HIER
1070
     0
1002
}
1002
{
1000
MANEDIT
1070
     0
1002
}
1002
{
1000
NOSEL
1070
     0
1002
}
1002
{
1000
BEHIND
1070
     0
1002
}
1002
{
1000
OTHER
1070
     0
1002
}
1002
{
1000
REACTOR
1002
}
1001
GENIUS_GENOBJ-N-SDF_13
1002
{
1000
OWNER
1000
GEN
1002
}
  0
ENDSEC
  0
SECTION
  2
OBJECTS
  0
DICTIONARY
  5
C
330
0
100
AcDbDictionary
281
     1
  3
ACAD_COLOR
350
935D
  3
ACAD_GROUP
350
D
  3
ACAD_LAYOUT
350
1A
  3
ACAD_MATERIAL
350
935C
  3
ACAD_MLINESTYLE
350
17
  3
ACAD_PLOTSETTINGS
350
19
  3
ACAD_PLOTSTYLENAME
350
E
  3
ACAD_TABLESTYLE
350
935E
  3
ACDBHEADERROUNDTRIPXREC
350
9501
  3
ACDBVARIABLEDICTIONARY
350
34
  3
ACMDICTIONARY
350
43
  3
AMG
350
2B
  3
AMGSNAPSETTINGS
350
6E
  3
DWGPROPS
350
9500
  0
DICTIONARY
  5
74
330
1F
100
AcDbDictionary
280
     1
281
     1
  3
ACAD_INDEX
360
9321
  3
ACAD_LAYOUTSELFREF
360
934F
  0
DICTIONARY
  5
9354
330
101
100
AcDbDictionary
280
     1
281
     1
  3
ACAD_LAYOUTSELFREF
360
9355
  0
DICTIONARY
  5
9502
330
110
100
AcDbDictionary
280
     1
281
     1
  3
ACAD_XREC_ROUNDTRIP
360
9503
  0
DICTIONARY
  5
935D
102
{ACAD_REACTORS
330
C
102
}
330
C
100
AcDbDictionary
281
     1
  0
DICTIONARY
  5
D
102
{ACAD_REACTORS
330
C
102
}
330
C
100
AcDbDictionary
281
     1
  0
DICTIONARY
  5
1A
102
{ACAD_REACTORS
330
C
102
}
330
C
100
AcDbDictionary
281
     1
  3
Model
350
9360
  3
レイアウト1
350
9361
  0
DICTIONARY
  5
935C
102
{ACAD_REACTORS
330
C
102
}
330
C
100
AcDbDictionary
281
     1
  0
DICTIONARY
  5
17
102
{ACAD_REACTORS
330
C
102
}
330
C
100
AcDbDictionary
281
     1
  3
STANDARD
350
18
  0
DICTIONARY
  5
19
102
{ACAD_REACTORS
330
C
102
}
330
C
100
AcDbDictionary
281
     1
  0
ACDBDICTIONARYWDFLT
  5
E
102
{ACAD_REACTORS
330
C
102
}
330
C
100
AcDbDictionary
281
     1
  3
Normal
350
F
100
AcDbDictionaryWithDefault
340
F
  0
DICTIONARY
  5
935E
102
{ACAD_REACTORS
330
C
102
}
330
C
100
AcDbDictionary
281
     1
  3
Standard
350
935F
  0
DICTIONARY
  5
9501
102
{ACAD_REACTORS
330
C
102
}
330
C
100
AcDbDictionary
281
     1
  0
DICTIONARY
  5
34
102
{ACAD_REACTORS
330
C
102
}
330
C
100
AcDbDictionary
281
     1
  3
CTABLESTYLE
350
94FC
  3
DIMASSOC
350
94FD
  3
INDEXCTL
350
35
  3
PROJECTNAME
350
94FE
  3
SORTENTS
350
B5E
  0
DICTIONARY
  5
43
102
{ACAD_REACTORS
330
C
102
}
330
C
100
AcDbDictionary
281
     1
  3
ACMSTDDICTIONARY
350
260
  3
AMDTSECTSYM_ARROWCOLOR
350
93D9
  0
DICTIONARY
  5
2B
102
{ACAD_REACTORS
330
C
102
}
330
C
100
AcDbDictionary
281
     1
  0
DICTIONARY
  5
6E
102
{ACAD_REACTORS
330
C
102
}
330
C
100
AcDbDictionary
281
     1
  0
XRECORD
  5
9500
102
{ACAD_REACTORS
330
C
102
}
330
C
100
AcDbXrecord
280
     1
  1
DWGPROPS COOKIE
  2

  3

  4

  6

  7

  8

  9

300
AmdtFileType=82
301
=
302
=
303
=
304
=
305
=
306
=
307
=
308
=
309
=
 40
0.1545713773148148
 41
2452836.771637361
 42
2455596.570351192
  1

 90
        1
  0
DICTIONARY
  5
9321
102
{ACAD_REACTORS
330
74
102
}
330
74
100
AcDbDictionary
281
     1
  3
*A1
350
9322
  0
XRECORD
  5
934F
102
{ACAD_REACTORS
330
74
102
}
330
74
100
AcDbXrecord
280
     1
340
1F
  0
XRECORD
  5
9355
102
{ACAD_REACTORS
330
9354
102
}
330
9354
100
AcDbXrecord
280
     1
340
101
  0
XRECORD
  5
9503
102
{ACAD_REACTORS
330
9502
102
}
330
9502
100
AcDbXrecord
280
     1
102
SHADEPLOT
 70
     0
  0
LAYOUT
  5
9360
102
{ACAD_XDICTIONARY
360
9504
102
}
102
{ACAD_REACTORS
330
1A
102
}
330
1A
100
AcDbPlotSettings
  1

  2
SII LP-1010 (C2 VR)2R
  4

  6

 40
0.0
 41
0.0
 42
0.0
 43
0.0
 44
0.0
 45
0.0
 46
0.0
 47
0.0
 48
0.0
 49
0.0
140
0.0
141
0.0
142
1.0
143
1.0
 70
  1712
 72
     0
 73
     0
 74
     0
  7
sei_cad.ctb
 75
     0
147
1.0
148
0.0
149
0.0
100
AcDbLayout
  1
Model
 70
     1
 71
     0
 10
0.0
 20
0.0
 11
12.0
 21
9.0
 12
0.0
 22
0.0
 32
0.0
 14
0.0
 24
0.0
 34
0.0
 15
0.0
 25
0.0
 35
0.0
146
0.0
 13
0.0
 23
0.0
 33
0.0
 16
1.0
 26
0.0
 36
0.0
 17
0.0
 27
1.0
 37
0.0
 76
     0
330
1F
  0
LAYOUT
  5
9361
102
{ACAD_XDICTIONARY
360
9506
102
}
102
{ACAD_REACTORS
330
1A
102
}
330
1A
100
AcDbPlotSettings
  1

  2
SII LP-1010 (C2 VR)2R
  4

  6

 40
0.0
 41
0.0
 42
0.0
 43
0.0
 44
0.0
 45
0.0
 46
0.0
 47
0.0
 48
0.0
 49
0.0
140
0.0
141
0.0
142
1.0
143
1.0
 70
   688
 72
     0
 73
     0
 74
     5
  7
sei_cad.ctb
 75
    16
147
1.0
148
0.0
149
0.0
100
AcDbLayout
  1
レイアウト1
 70
     0
 71
     1
 10
0.0
 20
0.0
 11
841.0
 21
594.0
 12
0.0
 22
0.0
 32
0.0
 14
1.000000000000000E+20
 24
1.000000000000000E+20
 34
1.000000000000000E+20
 15
-1.000000000000000E+20
 25
-1.000000000000000E+20
 35
-1.000000000000000E+20
146
0.0
 13
0.0
 23
0.0
 33
0.0
 16
1.0
 26
0.0
 36
0.0
 17
0.0
 27
1.0
 37
0.0
 76
     0
330
101
331
110
  0
MLINESTYLE
  5
18
102
{ACAD_REACTORS
330
17
102
}
330
17
100
AcDbMlineStyle
  2
STANDARD
 70
     0
  3

 62
   256
 51
90.0
 52
90.0
 71
     2
 49
0.5
 62
   256
  6
BYLAYER
 49
-0.5
 62
   256
  6
BYLAYER
  0
ACDBPLACEHOLDER
  5
F
102
{ACAD_REACTORS
330
E
102
}
330
E
  0
TABLESTYLE
  5
935F
102
{ACAD_REACTORS
330
935E
102
}
330
935E
100
AcDbTableStyle
  3
Standard
 70
     0
 71
     0
 40
1.5
 41
1.5
280
     0
281
     0
  7
STANDARD
140
4.5
170
     2
 62
     0
 63
     7
283
     0
274
    -2
284
     1
 64
     0
275
    -2
285
     1
 65
     0
276
    -2
286
     1
 66
     0
277
    -2
287
     1
 67
     0
278
    -2
288
     1
 68
     0
279
    -2
289
     1
 69
     0
  7
STANDARD
140
6.0
170
     5
 62
     0
 63
     7
283
     0
274
    -2
284
     1
 64
     0
275
    -2
285
     1
 65
     0
276
    -2
286
     1
 66
     0
277
    -2
287
     1
 67
     0
278
    -2
288
     1
 68
     0
279
    -2
289
     1
 69
     0
  7
STANDARD
140
4.5
170
     5
 62
     0
 63
     7
283
     0
274
    -2
284
     1
 64
     0
275
    -2
285
     1
 65
     0
276
    -2
286
     1
 66
     0
277
    -2
287
     1
 67
     0
278
    -2
288
     1
 68
     0
279
    -2
289
     1
 69
     0
  0
DICTIONARYVAR
  5
94FC
102
{ACAD_REACTORS
330
34
102
}
330
34
100
DictionaryVariables
280
     0
  1
STANDARD
  0
DICTIONARYVAR
  5
94FD
102
{ACAD_REACTORS
330
34
102
}
330
34
100
DictionaryVariables
280
     0
  1
1
  0
DICTIONARYVAR
  5
35
102
{ACAD_REACTORS
330
34
102
}
330
34
100
DictionaryVariables
280
     0
  1
1
  0
DICTIONARYVAR
  5
94FE
102
{ACAD_REACTORS
330
34
102
}
330
34
100
DictionaryVariables
280
     0
  1

  0
DICTIONARYVAR
  5
B5E
102
{ACAD_REACTORS
330
34
102
}
330
34
100
DictionaryVariables
280
     0
  1
96
  0
DICTIONARY
  5
260
102
{ACAD_REACTORS
330
43
102
}
330
43
100
AcDbDictionary
281
     1
  0
XRECORD
  5
93D9
102
{ACAD_REACTORS
330
43
102
}
330
43
100
AcDbXrecord
280
     1
 90
-1023410169
  0
LAYER_INDEX
  5
9322
102
{ACAD_REACTORS
330
9321
102
}
330
9321
100
AcDbIndex
 40
2455596.570351192
100
AcDbLayerIndex
  8
0
360
9323
 90
       44
  8
AM_0
360
9324
 90
       56
  8
AM_7
360
9325
 90
        1
  8
AM_5
360
9326
 90
        9
  8
DEFPOINTS
360
9327
 90
        0
  8
AM_6
360
9328
 90
        1
  8
AM_11
360
9329
 90
        5
  0
DICTIONARY
  5
9504
330
9360
100
AcDbDictionary
280
     1
281
     1
  3
ACAD_XREC_ROUNDTRIP
360
9505
  0
DICTIONARY
  5
9506
330
9361
100
AcDbDictionary
280
     1
281
     1
  3
ACAD_XREC_ROUNDTRIP
360
9507
  0
IDBUFFER
  5
9323
330
0
100
AcDbIdBuffer
330
9498
330
9499
330
949A
330
949B
330
949C
330
949D
330
94A0
330
94A1
330
94A2
330
94A3
330
94A4
330
94A5
330
94A6
330
94A7
330
94A8
330
94A9
330
94AA
330
94AB
330
94AC
330
94AD
330
94AE
330
94AF
330
94B0
330
94B1
330
94B2
330
94B3
330
94B4
330
94B5
330
9488
330
9489
330
948A
330
948B
330
948C
330
948D
330
948E
330
948F
330
9490
330
9491
330
9492
330
9493
330
9494
330
9495
330
9496
330
9497
  0
IDBUFFER
  5
9324
330
0
100
AcDbIdBuffer
330
821D
330
821E
330
8220
330
8221
330
8222
330
8223
330
8224
330
8227
330
8228
330
8229
330
8230
330
8DEE
330
8DF1
330
8DF4
330
8DF8
330
8DF9
330
8DFA
330
8DFE
330
8E05
330
8E08
330
8E0B
330
8E0F
330
8E12
330
8E13
330
8E16
330
8E17
330
8E18
330
8E19
330
8E1A
330
8E1B
330
8E1C
330
8E1D
330
8E1E
330
8E1F
330
8E20
330
8E21
330
8E22
330
8E23
330
8E24
330
8E25
330
8E26
330
8E29
330
8E2A
330
8E2B
330
8E2C
330
8E2F
330
8E32
330
8E37
330
8F89
330
8F8A
330
9051
330
9052
330
9210
330
9211
330
949E
330
949F
  0
IDBUFFER
  5
9325
330
0
100
AcDbIdBuffer
330
821F
  0
IDBUFFER
  5
9326
330
0
100
AcDbIdBuffer
330
8E3A
330
8E3B
330
8E3C
330
8E3D
330
8E3E
330
8E3F
330
8E40
330
9250
330
94C5
  0
IDBUFFER
  5
9327
330
0
100
AcDbIdBuffer
  0
IDBUFFER
  5
9328
330
0
100
AcDbIdBuffer
330
E5A
  0
IDBUFFER
  5
9329
330
0
100
AcDbIdBuffer
330
8225
330
8226
330
8E27
330
8E28
330
8FE6
  0
XRECORD
  5
9505
102
{ACAD_REACTORS
330
9504
102
}
330
9504
100
AcDbXrecord
280
     1
102
SHADEPLOT
 70
     0
102
SHADEPLOTRESLEVEL
 70
     2
102
SHADEPLOTCUSTOMDPI
 70
   300
  0
XRECORD
  5
9507
102
{ACAD_REACTORS
330
9506
102
}
330
9506
100
AcDbXrecord
280
     1
102
SHADEPLOT
 70
     0
102
SHADEPLOTRESLEVEL
 70
     2
102
SHADEPLOTCUSTOMDPI
 70
   300
  0
ENDSEC
  0
EOF
