  0
SECTION
  2
HEADER
  9
$ACADVER
  1
AC1015
  9
$ACADMAINTVER
 70
    20
  9
$DWGCODEPAGE
  3
ANSI_932
  9
$INSBASE
 10
0.0
 20
0.0
 30
0.0
  9
$EXTMIN
 10
-127.9340377755496
 20
-104.6069059972667
 30
0.0
  9
$EXTMAX
 10
13.78582963654914
 20
363.8571618375597
 30
0.0
  9
$LIMMIN
 10
0.0
 20
0.0
  9
$LIMMAX
 10
420.0
 20
297.0
  9
$ORTHOMODE
 70
     0
  9
$REGENMODE
 70
     1
  9
$FILLMODE
 70
     1
  9
$QTEXTMODE
 70
     0
  9
$MIRRTEXT
 70
     1
  9
$LTSCALE
 40
1.0
  9
$ATTMODE
 70
     1
  9
$TEXTSIZE
 40
3.799999999999999
  9
$TRACEWID
 40
1.0
  9
$TEXTSTYLE
  7
ACISOTS
  9
$CLAYER
  8
AM_0
  9
$CELTYPE
  6
ByLayer
  9
$CECOLOR
 62
   256
  9
$CELTSCALE
 40
1.0
  9
$DISPSILH
 70
     0
  9
$DIMSCALE
 40
1.0
  9
$DIMASZ
 40
2.5
  9
$DIMEXO
 40
1.0
  9
$DIMDLI
 40
10.0
  9
$DIMRND
 40
0.0
  9
$DIMDLE
 40
0.0
  9
$DIMEXE
 40
1.0
  9
$DIMTP
 40
0.1
  9
$DIMTM
 40
0.1000000001
  9
$DIMTXT
 40
3.799999999999998
  9
$DIMCEN
 40
0.0
  9
$DIMTSZ
 40
0.0
  9
$DIMTOL
 70
     0
  9
$DIMLIM
 70
     0
  9
$DIMTIH
 70
     0
  9
$DIMTOH
 70
     0
  9
$DIMSE1
 70
     0
  9
$DIMSE2
 70
     0
  9
$DIMTAD
 70
     3
  9
$DIMZIN
 70
     8
  9
$DIMBLK
  1
Open30
  9
$DIMASO
 70
     1
  9
$DIMSHO
 70
     1
  9
$DIMPOST
  1

  9
$DIMAPOST
  1
"
  9
$DIMALT
 70
     0
  9
$DIMALTD
 70
     2
  9
$DIMALTF
 40
0.0393701
  9
$DIMLFAC
 40
1.0
  9
$DIMTOFL
 70
     1
  9
$DIMTVP
 40
0.0
  9
$DIMTIX
 70
     0
  9
$DIMSOXD
 70
     0
  9
$DIMSAH
 70
     0
  9
$DIMBLK1
  1

  9
$DIMBLK2
  1

  9
$DIMSTYLE
  2
AM_JIS
  9
$DIMCLRD
 70
   256
  9
$DIMCLRE
 70
   256
  9
$DIMCLRT
 70
     2
  9
$DIMTFAC
 40
0.71
  9
$DIMGAP
 40
1.5
  9
$DIMJUST
 70
     0
  9
$DIMSD1
 70
     0
  9
$DIMSD2
 70
     0
  9
$DIMTOLJ
 70
     0
  9
$DIMTZIN
 70
     8
  9
$DIMALTZ
 70
     0
  9
$DIMALTTZ
 70
     0
  9
$DIMUPT
 70
     0
  9
$DIMDEC
 70
     0
  9
$DIMTDEC
 70
     2
  9
$DIMALTU
 70
     2
  9
$DIMALTTD
 70
     2
  9
$DIMTXSTY
  7
STANDARD
  9
$DIMAUNIT
 70
     1
  9
$DIMADEC
 70
     0
  9
$DIMALTRND
 40
0.0
  9
$DIMAZIN
 70
     2
  9
$DIMDSEP
 70
    46
  9
$DIMATFIT
 70
     3
  9
$DIMFRAC
 70
     0
  9
$DIMLDRBLK
  1
Open30
  9
$DIMLUNIT
 70
     2
  9
$DIMLWD
 70
    -1
  9
$DIMLWE
 70
    -1
  9
$DIMTMOVE
 70
     0
  9
$LUNITS
 70
     2
  9
$LUPREC
 70
     2
  9
$SKETCHINC
 40
1.0
  9
$FILLETRAD
 40
1.0
  9
$AUNITS
 70
     0
  9
$AUPREC
 70
     0
  9
$MENU
  1
.
  9
$ELEVATION
 40
0.0
  9
$PELEVATION
 40
0.0
  9
$THICKNESS
 40
0.0
  9
$LIMCHECK
 70
     0
  9
$CHAMFERA
 40
2.5
  9
$CHAMFERB
 40
2.5
  9
$CHAMFERC
 40
20.0
  9
$CHAMFERD
 40
0.0
  9
$SKPOLY
 70
     0
  9
$TDCREATE
 40
2455412.730832604
  9
$TDUCREATE
 40
2455412.355832604
  9
$TDUPDATE
 40
2455555.426221065
  9
$TDUUPDATE
 40
2455555.051221065
  9
$TDINDWG
 40
0.0419957870
  9
$TDUSRTIMER
 40
0.0419956019
  9
$USRTIMER
 70
     1
  9
$ANGBASE
 50
0.0
  9
$ANGDIR
 70
     0
  9
$PDMODE
 70
     0
  9
$PDSIZE
 40
0.0
  9
$PLINEWID
 40
0.0
  9
$SPLFRAME
 70
     0
  9
$SPLINETYPE
 70
     6
  9
$SPLINESEGS
 70
    40
  9
$HANDSEED
  5
1B4B
  9
$SURFTAB1
 70
     6
  9
$SURFTAB2
 70
     6
  9
$SURFTYPE
 70
     6
  9
$SURFU
 70
     6
  9
$SURFV
 70
     6
  9
$UCSBASE
  2

  9
$UCSNAME
  2

  9
$UCSORG
 10
0.0
 20
0.0
 30
0.0
  9
$UCSXDIR
 10
1.0
 20
0.0
 30
0.0
  9
$UCSYDIR
 10
0.0
 20
1.0
 30
0.0
  9
$UCSORTHOREF
  2

  9
$UCSORTHOVIEW
 70
     0
  9
$UCSORGTOP
 10
0.0
 20
0.0
 30
0.0
  9
$UCSORGBOTTOM
 10
0.0
 20
0.0
 30
0.0
  9
$UCSORGLEFT
 10
0.0
 20
0.0
 30
0.0
  9
$UCSORGRIGHT
 10
0.0
 20
0.0
 30
0.0
  9
$UCSORGFRONT
 10
0.0
 20
0.0
 30
0.0
  9
$UCSORGBACK
 10
0.0
 20
0.0
 30
0.0
  9
$PUCSBASE
  2

  9
$PUCSNAME
  2

  9
$PUCSORG
 10
0.0
 20
0.0
 30
0.0
  9
$PUCSXDIR
 10
1.0
 20
0.0
 30
0.0
  9
$PUCSYDIR
 10
0.0
 20
1.0
 30
0.0
  9
$PUCSORTHOREF
  2

  9
$PUCSORTHOVIEW
 70
     0
  9
$PUCSORGTOP
 10
0.0
 20
0.0
 30
0.0
  9
$PUCSORGBOTTOM
 10
0.0
 20
0.0
 30
0.0
  9
$PUCSORGLEFT
 10
0.0
 20
0.0
 30
0.0
  9
$PUCSORGRIGHT
 10
0.0
 20
0.0
 30
0.0
  9
$PUCSORGFRONT
 10
0.0
 20
0.0
 30
0.0
  9
$PUCSORGBACK
 10
0.0
 20
0.0
 30
0.0
  9
$USERI1
 70
     0
  9
$USERI2
 70
     0
  9
$USERI3
 70
     0
  9
$USERI4
 70
     0
  9
$USERI5
 70
     0
  9
$USERR1
 40
0.0
  9
$USERR2
 40
0.0
  9
$USERR3
 40
0.0
  9
$USERR4
 40
0.0
  9
$USERR5
 40
0.0
  9
$WORLDVIEW
 70
     1
  9
$SHADEDGE
 70
     3
  9
$SHADEDIF
 70
    70
  9
$TILEMODE
 70
     1
  9
$MAXACTVP
 70
    64
  9
$PINSBASE
 10
0.0
 20
0.0
 30
0.0
  9
$PLIMCHECK
 70
     0
  9
$PEXTMIN
 10
1.000000000000000E+20
 20
1.000000000000000E+20
 30
1.000000000000000E+20
  9
$PEXTMAX
 10
-1.000000000000000E+20
 20
-1.000000000000000E+20
 30
-1.000000000000000E+20
  9
$PLIMMIN
 10
0.0
 20
0.0
  9
$PLIMMAX
 10
420.0
 20
297.0
  9
$UNITMODE
 70
     0
  9
$VISRETAIN
 70
     1
  9
$PLINEGEN
 70
     0
  9
$PSLTSCALE
 70
     1
  9
$TREEDEPTH
 70
  3020
  9
$CMLSTYLE
  2
Standard
  9
$CMLJUST
 70
     0
  9
$CMLSCALE
 40
20.0
  9
$PROXYGRAPHICS
 70
     1
  9
$MEASUREMENT
 70
     1
  9
$CELWEIGHT
370
    -1
  9
$ENDCAPS
280
     0
  9
$JOINSTYLE
280
     0
  9
$LWDISPLAY
290
     0
  9
$INSUNITS
 70
     4
  9
$HYPERLINKBASE
  1

  9
$STYLESHEET
  1

  9
$XEDIT
290
     1
  9
$CEPSNTYPE
380
     0
  9
$PSTYLEMODE
290
     1
  9
$FINGERPRINTGUID
  2
{E7468357-6252-4FFE-8F14-C6C26F483914}
  9
$VERSIONGUID
  2
{C9CC02E8-86DC-4876-8F61-302E77F3A7EE}
  9
$EXTNAMES
290
     1
  9
$PSVPSCALE
 40
0.0
  9
$OLESTARTUP
290
     0
  0
ENDSEC
  0
SECTION
  2
CLASSES
  0
CLASS
  1
ACDBDICTIONARYWDFLT
  2
AcDbDictionaryWithDefault
  3
ObjectDBX Classes
 90
        0
280
     0
281
     0
  0
CLASS
  1
ACME_DOCUMENT
  2
AcMeDbDoc
  3
AcMeServices
 90
        0
280
     0
281
     0
  0
CLASS
  1
AMGSETTINGSOBJ
  2
AmgSettingsObj
  3
"AcadM|Product Description: AutoCAD Mechanical 2000|Company: Autodesk"
 90
        0
280
     0
281
     0
  0
CLASS
  1
ACMESCOPE
  2
AcMeScope
  3
AcMeServices
 90
        0
280
     0
281
     0
  0
CLASS
  1
ACMECOMMANDHISTORY
  2
AcMeCommandHistory
  3
AcMeServices
 90
        0
280
     0
281
     0
  0
CLASS
  1
ACIMSYSVARMAN
  2
AcImSysVarManager
  3
AcMeServices
 90
        0
280
     0
281
     0
  0
CLASS
  1
ACIMREALSYSVAR
  2
AcImRealSysVar
  3
AcMeServices
 90
        0
280
     0
281
     0
  0
CLASS
  1
ACIMINTSYSVAR
  2
AcImIntSysVar
  3
AcMeServices
 90
        0
280
     0
281
     0
  0
CLASS
  1
ACMEDRAWINGMAN
  2
AcMeDrawingMan
  3
AcMeServices
 90
        0
280
     0
281
     0
  0
CLASS
  1
ACMEVIEW
  2
AcMeView
  3
AcMeServices
 90
        0
280
     0
281
     0
  0
CLASS
  1
ACDBENTITYCACHE
  2
AcMeEntityCache
  3
AcMeServices
 90
        0
280
     0
281
     0
  0
CLASS
  1
GSMANAGER
  2
AcMeGSManager
  3
AcMeServices
 90
        0
280
     0
281
     0
  0
CLASS
  1
AMDTINTERNALREACTOR
  2
AmdtInternalReactor
  3
AcMeServices
 90
        0
280
     0
281
     0
  0
CLASS
  1
ACMESTATEMGR
  2
AcMeStateMgr
  3
AcMeServices
 90
        0
280
     0
281
     0
  0
CLASS
  1
ACGREFMASTER
  2
AcGrefMaster
  3
AcAttribServices
 90
        0
280
     0
281
     0
  0
CLASS
  1
ACME_DATABASE
  2
AcMeDbDatabase
  3
AcMeServices
 90
        0
280
     0
281
     0
  0
CLASS
  1
ACRFINSADJUSTERMGR
  2
AcRfInsAdjusterMgr
  3
AcMeServices
 90
        0
280
     0
281
     0
  0
CLASS
  1
ACGREFACADMASTER
  2
AcGrefacadMaster
  3
AcGrefServices
 90
        0
280
     0
281
     0
  0
CLASS
  1
AMIMASTER
  2
AmiMaster
  3
AmiServices
 90
        0
280
     0
281
     0
  0
CLASS
  1
ACMDATADICTIONARY
  2
AcmDataDictionary
  3
"AcmSymBB|Product Description: AutoCAD Mechanical 2004 DX|Company: Autodesk"
 90
        0
280
     0
281
     0
  0
CLASS
  1
ACMDATAENTRYBLOCK
  2
AcmDataEntryBlock
  3
"AcmSymBB|Product Description: AutoCAD Mechanical 2004 DX|Company: Autodesk"
 90
    32768
280
     0
281
     0
  0
CLASS
  1
ACIMSTRSYSVAR
  2
AcImStrSysVar
  3
AcMeServices
 90
        0
280
     0
281
     0
  0
CLASS
  1
ACMSTANDARDISO
  2
AcmStandardISO
  3
"Amdt_StdImp|Product Description: AutoCAD Mechanical 2004 DX|Company: Autodesk"
 90
        0
280
     0
281
     0
  0
CLASS
  1
AMGOBJPROPCFG
  2
AmgObjPropCfg
  3
"AmgLay|Product Description: AutoCAD Mechanical 2000|Company: Autodesk"
 90
        1
280
     0
281
     0
  0
CLASS
  1
AMDTEDGESTANDARDISO
  2
AmdtEdgeStdISO
  3
"Amdt_StdImp|Product Description: AutoCAD Mechanical 2004 DX|Company: Autodesk"
 90
        0
280
     0
281
     0
  0
CLASS
  1
ACMSURFSTANDARDISO
  2
AcmSurfTextStdISO
  3
"Amdt_StdImp|Product Description: AutoCAD Mechanical 2004 DX|Company: Autodesk"
 90
        0
280
     0
281
     0
  0
CLASS
  1
ACMFCFSTANDARDISO
  2
AcmFCFStdISO
  3
"Amdt_StdImp|Product Description: AutoCAD Mechanical 2004 DX|Company: Autodesk"
 90
        0
280
     0
281
     0
  0
CLASS
  1
ACMWELDSTANDARDISO
  2
AcmWeldingStdISO
  3
"Amdt_StdImp|Product Description: AutoCAD Mechanical 2004 DX|Company: Autodesk"
 90
        0
280
     0
281
     0
  0
CLASS
  1
ACMIDSTANDARDISO
  2
AcmIdStdISO
  3
"Amdt_StdImp|Product Description: AutoCAD Mechanical 2004 DX|Company: Autodesk"
 90
        0
280
     0
281
     0
  0
CLASS
  1
ACMDATUMSTANDARDISO
  2
AcmDatumStdISO
  3
"Amdt_StdImp|Product Description: AutoCAD Mechanical 2004 DX|Company: Autodesk"
 90
        0
280
     0
281
     0
  0
CLASS
  1
ACMBOMSTANDARDISO
  2
AcmBOMStdISO
  3
"Amdt_StdImp|Product Description: AutoCAD Mechanical 2004 DX|Company: Autodesk"
 90
        0
280
     0
281
     0
  0
CLASS
  1
ACMDETAILSTANDARDISO
  2
AmdtDetailSymStdISO
  3
"Amdt_StdImp|Product Description: AutoCAD Mechanical 2004 DX|Company: Autodesk"
 90
        0
280
     0
281
     0
  0
CLASS
  1
ACMSECTIONSTANDARDISO
  2
AmdtSectionSymStdISO
  3
"Amdt_StdImp|Product Description: AutoCAD Mechanical 2004 DX|Company: Autodesk"
 90
        0
280
     0
281
     0
  0
CLASS
  1
ACMCENTERLINESTANDARDISO
  2
AmdtCenterLineStdISO
  3
"Amdt_StdImp|Product Description: AutoCAD Mechanical 2004 DX|Company: Autodesk"
 90
        0
280
     0
281
     0
  0
CLASS
  1
ACMNOTESTANDARDISO
  2
AmdtNoteStdISO
  3
"Amdt_StdImp|Product Description: AutoCAD Mechanical 2004 DX|Company: Autodesk"
 90
        0
280
     0
281
     0
  0
CLASS
  1
ACAMGLAYSTD
  2
AcAmgLayStd
  3
"AcAmgLayStd|Product Description: AutoCAD Mechanical 2000|Company: Autodesk"
 90
        0
280
     0
281
     0
  0
CLASS
  1
ACAMGDIMSTD
  2
AcAmgDimStd
  3
"AcAmgDimStd|Product Description: AutoCAD Mechanical 2000|Company: Autodesk"
 90
        0
280
     0
281
     0
  0
CLASS
  1
ACAMGHOLECHARTSTDISO
  2
AcAmgHoleChartStdISO
  3
ACMSYMBB_MODULE_NAME
 90
        0
280
     0
281
     0
  0
CLASS
  1
ACAMGTITLESTD
  2
AcAmgTitleStd
  3
"TITLEAPP"
 90
        0
280
     0
281
     0
  0
CLASS
  1
LAYER_INDEX
  2
AcDbLayerIndex
  3
ObjectDBX Classes
 90
    32768
280
     0
281
     0
  0
CLASS
  1
IDBUFFER
  2
AcDbIdBuffer
  3
ObjectDBX Classes
 90
    32768
280
     0
281
     0
  0
CLASS
  1
DICTIONARYVAR
  2
AcDbDictionaryVar
  3
ObjectDBX Classes
 90
        0
280
     0
281
     0
  0
CLASS
  1
AM_DRAWING_MGR
  2
AcDmDwgMgr
  3
AcMechDwgViewMgmt
 90
        0
280
     0
281
     0
  0
CLASS
  1
AM_DWG_DOCUMENT
  2
AcDmDwgDocument
  3
AcMechDwgViewMgmt
 90
        0
280
     0
281
     0
  0
CLASS
  1
AM_DWG_SHEET
  2
AcDmSheet
  3
AcMechDwgViewMgmt
 90
        0
280
     0
281
     0
  0
CLASS
  1
AM_VIEWDIMPARMAP
  2
AcDmViewDimParMap
  3
AcMechDwgViewMgmt
 90
        0
280
     0
281
     0
  0
CLASS
  1
AM_DWGMGR_NAME
  2
AcDmDwgMgrName
  3
AcMechDwgViewMgmt
 90
        0
280
     0
281
     0
  0
CLASS
  1
AMDTMENUSTATEMGR
  2
AmdtMenuStateMgr
  3
McadcomServices
 90
        0
280
     0
281
     0
  0
CLASS
  1
AMDTMCOMMENUSTATE
  2
AmdtMcomMenuState
  3
McadcomServices
 90
        0
280
     0
281
     0
  0
CLASS
  1
MAPIAMMOUDLE
  2
MApiAmModule
  3
MApiAmServices
 90
        0
280
     0
281
     0
  0
CLASS
  1
AMDTADMENUSTATE
  2
AmdtAdMenuState
  3
DesignerServices
 90
        0
280
     0
281
     0
  0
CLASS
  1
ADAPPL
  2
AcAdAppl
  3
DesignerServices
 90
        0
280
     0
281
     0
  0
CLASS
  1
DEPMGR
  2
AcAdDepMgr
  3
DesignerServices
 90
        0
280
     0
281
     0
  0
CLASS
  1
PARAMMGR
  2
AcAdParamMgr
  3
DesignerServices
 90
        0
280
     0
281
     0
  0
CLASS
  1
PARAMSCOPE
  2
AcAdParamScope
  3
DesignerServices
 90
        0
280
     0
281
     0
  0
CLASS
  1
NAMEDAPPL
  2
AcAdNamedAppl
  3
DesignerServices
 90
        0
280
     0
281
     0
  0
CLASS
  1
AMDTDMMENUSTATE
  2
AmdtDmMenuState
  3
AcMechDwgViewMgmt
 90
        0
280
     0
281
     0
  0
CLASS
  1
AMDTAMMENUSTATE
  2
AmdtAmMenuState
  3
DesignerAssemblies
 90
        0
280
     0
281
     0
  0
CLASS
  1
ACAMPROJECT
  2
AcAmProject
  3
DesignerAssemblies
 90
        0
280
     0
281
     0
  0
CLASS
  1
ACAMGRCOMPDEF
  2
AcAmGrCompDef
  3
DesignerAssemblies
 90
        0
280
     0
281
     0
  0
CLASS
  1
ACCMCONTEXT
  2
AcCmContext
  3
DesignerAssemblies
 90
        0
280
     0
281
     0
  0
CLASS
  1
ACAMCOMPDEF
  2
AcAmCompDef
  3
DesignerAssemblies
 90
        0
280
     0
281
     0
  0
CLASS
  1
ACAMCOMPDEFMGR
  2
AcAmCompDefMgr
  3
DesignerAssemblies
 90
        0
280
     0
281
     0
  0
CLASS
  1
AMCONTEXTMGR
  2
AcAmContextMgr
  3
DesignerAssemblies
 90
        0
280
     0
281
     0
  0
CLASS
  1
ACAMCONTEXTMODELER
  2
AcAmContextModeler
  3
DesignerAssemblies
 90
        0
280
     0
281
     0
  0
CLASS
  1
ACMTHREADLINESTANDARDISO
  2
AmdtThreadLineStdISO
  3
"Amdt_StdImp|Product Description: AutoCAD Mechanical 2004 DX|Company: Autodesk"
 90
        0
280
     0
281
     0
  0
CLASS
  1
CATALOGSTATE
  2
AcAmCatalogState
  3
DesignerAssemblies
 90
        0
280
     0
281
     0
  0
CLASS
  1
ACAMGRCOMPDEFSET
  2
AcAmGrCompDefSet
  3
DesignerAssemblies
 90
        0
280
     0
281
     0
  0
CLASS
  1
AMDTBROWSERDBTAB
  2
AmdtBrowserDbTab
  3
McadcomServices
 90
        0
280
     0
281
     0
  0
CLASS
  1
CBROWSERAPPOBJECT
  2
CBrowserAppObject
  3
McadcomServices
 90
        0
280
     0
281
     0
  0
CLASS
  1
DM_PLACEHOLDER
  2
AcDmSelsetPlaceholder
  3
AcMechDwgViewMgmt
 90
        0
280
     0
281
     0
  0
CLASS
  1
TABLESTYLE
  2
AcDbTableStyle
  3
ObjectDBX Classes
 90
     2047
280
     0
281
     0
  0
CLASS
  1
VAACXREFPANELOBJECT
  2
VaAcXREFPanelObject
  3
VAAC_ADDIN
 90
    32768
280
     0
281
     0
  0
CLASS
  1
VAACIMAGEINVENTORY
  2
VaAcImageInventory
  3
VAAC_ADDIN
 90
    32768
280
     0
281
     0
  0
CLASS
  1
AMDTNOTETEMPLATEDB
  2
AmdtNoteTemplateDB
  3
AMDT_STDIMP_MODULE_NAME
 90
        0
280
     0
281
     0
  0
CLASS
  1
ACMBOM
  2
AcmBom
  3
"AcmSymBB|Product Description: AutoCAD Mechanical 2004 DX|Company: Autodesk"
 90
    32768
280
     0
281
     0
  0
CLASS
  1
AMDTFORMULAUPDATEDISPATCHER
  2
AmdtFormulaUpdateDispatcher
  3
AcMeServices
 90
    32768
280
     0
281
     0
  0
CLASS
  1
ACMPARTLIST
  2
AcmPartList
  3
"AcmSymBB|Product Description: AutoCAD Mechanical 2004 DX|Company: Autodesk"
 90
    33791
280
     0
281
     1
  0
CLASS
  1
ACAMGFILTERDAT
  2
AcAmgFilterDat
  3
"AcadM|Product Description: AutoCAD Mechanical 2000|Company: Autodesk"
 90
    32768
280
     0
281
     0
  0
CLASS
  1
ACMSTANDARDJIS
  2
AcmStandardJIS
  3
"Amdt_StdImp|Product Description: AutoCAD Mechanical 2004 DX|Company: Autodesk"
 90
        0
280
     0
281
     0
  0
CLASS
  1
ACMSURFSTANDARDJIS
  2
AcmSurfTextStdJIS
  3
"Amdt_StdImp|Product Description: AutoCAD Mechanical 2004 DX|Company: Autodesk"
 90
        0
280
     0
281
     0
  0
CLASS
  1
ACMFCFSTANDARDJIS98
  2
AcmFCFStdJIS98
  3
"Amdt_StdImp|Product Description: AutoCAD Mechanical 2004 DX|Company: Autodesk"
 90
        0
280
     0
281
     0
  0
CLASS
  1
ACMWELDSTANDARDJIS
  2
AcmWeldingStdJIS
  3
"Amdt_StdImp|Product Description: AutoCAD Mechanical 2004 DX|Company: Autodesk"
 90
        0
280
     0
281
     0
  0
CLASS
  1
ACMIDSTANDARDJIS
  2
AcmIdStdJIS
  3
"Amdt_StdImp|Product Description: AutoCAD Mechanical 2004 DX|Company: Autodesk"
 90
        0
280
     0
281
     0
  0
CLASS
  1
ACMDATUMSTANDARDJIS
  2
AcmDatumStdJIS
  3
"Amdt_StdImp|Product Description: AutoCAD Mechanical 2004 DX|Company: Autodesk"
 90
        0
280
     0
281
     0
  0
CLASS
  1
ACMBOMSTANDARDJIS
  2
AcmBOMStdJIS
  3
"Amdt_StdImp|Product Description: AutoCAD Mechanical 2004 DX|Company: Autodesk"
 90
        0
280
     0
281
     0
  0
CLASS
  1
ACMDETAILSTANDARDJIS
  2
AmdtDetailSymStdJIS
  3
"Amdt_StdImp|Product Description: AutoCAD Mechanical 2004 DX|Company: Autodesk"
 90
        0
280
     0
281
     0
  0
CLASS
  1
ACMSECTIONSTANDARDJIS
  2
AmdtSectionSymStdJIS
  3
"Amdt_StdImp|Product Description: AutoCAD Mechanical 2004 DX|Company: Autodesk"
 90
        0
280
     0
281
     0
  0
CLASS
  1
ACMCENTERLINESTANDARDJIS
  2
AmdtCenterLineStdJIS
  3
"Amdt_StdImp|Product Description: AutoCAD Mechanical 2004 DX|Company: Autodesk"
 90
        0
280
     0
281
     0
  0
CLASS
  1
ACMTHREADLINESTANDARDJIS
  2
AmdtThreadLineStdJIS
  3
"Amdt_StdImp|Product Description: AutoCAD Mechanical 2004 DX|Company: Autodesk"
 90
        0
280
     0
281
     0
  0
CLASS
  1
ACMNOTESTANDARDJIS
  2
AmdtNoteStdJIS
  3
"Amdt_StdImp|Product Description: AutoCAD Mechanical 2004 DX|Company: Autodesk"
 90
        0
280
     0
281
     0
  0
CLASS
  1
ACAMGHOLECHARTSTDJIS
  2
AcAmgHoleChartStdJIS
  3
ACMSYMBB_MODULE_NAME
 90
        0
280
     0
281
     0
  0
CLASS
  1
DIMASSOC
  2
AcDbDimAssoc
  3
"AcDbDimAssoc|Product Desc:     AcDim ARX App For Dimension|Company:          Autodesk, Inc.|WEB Address:      www.autodesk.com"
 90
        0
280
     0
281
     0
  0
CLASS
  1
SORTENTSTABLE
  2
AcDbSortentsTable
  3
ObjectDBX Classes
 90
        0
280
     0
281
     0
  0
CLASS
  1
AMDTNOTE
  2
AmdtNote
  3
"AcmSymBB|Product Description: AutoCAD Mechanical 2004 DX|Company: Autodesk"
 90
    33791
280
     0
281
     1
  0
CLASS
  1
ACDBCIRCARCRES
  2
AcDbCircArcRes
  3
AcGrefServices
 90
    32768
280
     0
281
     0
  0
CLASS
  1
ACRFATTGENMGR
  2
AcRfAttGeneralMgr
  3
AcAttribServices
 90
        0
280
     0
281
     0
  0
CLASS
  1
ACDBPLACEHOLDER
  2
AcDbPlaceHolder
  3
ObjectDBX Classes
 90
        0
280
     0
281
     0
  0
CLASS
  1
LAYOUT
  2
AcDbLayout
  3
ObjectDBX Classes
 90
        0
280
     0
281
     0
  0
ENDSEC
  0
SECTION
  2
TABLES
  0
TABLE
  2
VPORT
  5
8
330
0
100
AcDbSymbolTable
 70
     3
  0
VPORT
  5
1B42
330
8
100
AcDbSymbolTableRecord
100
AcDbViewportTableRecord
  2
*Active
 70
     0
 10
0.0
 20
0.0
 11
1.0
 21
1.0
 12
-12.38428254861017
 22
2.475238460466187
 13
0.0
 23
0.0
 14
2.5
 24
2.5
 15
10.0
 25
10.0
 16
0.0
 26
0.0
 36
1.0
 17
0.0
 27
0.0
 37
0.0
 40
252.4593402058025
 41
1.514762516046213
 42
50.0
 43
0.0
 44
0.0
 50
0.0
 51
0.0
 71
     0
 72
 10000
 73
     1
 74
     3
 75
     0
 76
     0
 77
     0
 78
     0
281
     0
 65
     1
110
0.0
120
0.0
130
0.0
111
1.0
121
0.0
131
0.0
112
0.0
122
1.0
132
0.0
 79
     0
146
0.0
  0
ENDTAB
  0
TABLE
  2
LTYPE
  5
5
330
0
100
AcDbSymbolTable
 70
    17
  0
LTYPE
  5
14
330
5
100
AcDbSymbolTableRecord
100
AcDbLinetypeTableRecord
  2
ByBlock
 70
     0
  3

 72
    65
 73
     0
 40
0.0
  0
LTYPE
  5
15
330
5
100
AcDbSymbolTableRecord
100
AcDbLinetypeTableRecord
  2
ByLayer
 70
     0
  3

 72
    65
 73
     0
 40
0.0
  0
LTYPE
  5
16
330
5
100
AcDbSymbolTableRecord
100
AcDbLinetypeTableRecord
  2
Continuous
 70
     0
  3
Solid line
 72
    65
 73
     0
 40
0.0
  0
LTYPE
  5
64
330
5
100
AcDbSymbolTableRecord
100
AcDbLinetypeTableRecord
  2
AM_ISO02W050
 70
     0
  3
__ __ __ __ __ __ __ __ __ __ __ __ __ __ __
 72
    65
 73
     2
 40
7.5
 49
6.0
 74
     0
 49
-1.5
 74
     0
  0
LTYPE
  5
65
330
5
100
AcDbSymbolTableRecord
100
AcDbLinetypeTableRecord
  2
AM_ISO08W050
 70
     0
  3
____ . ____ . ____ . ____ . ____ . ____ . ____
 72
    65
 73
     4
 40
18.0
 49
12.0
 74
     0
 49
-1.5
 74
     0
 49
3.0
 74
     0
 49
-1.5
 74
     0
  0
LTYPE
  5
66
330
5
100
AcDbSymbolTableRecord
100
AcDbLinetypeTableRecord
  2
AM_ISO09W050
 70
     0
  3
_____ . . _____ . . _____ . . ____ .. ____
 72
    65
 73
     6
 40
22.5
 49
12.0
 74
     0
 49
-1.5
 74
     0
 49
3.0
 74
     0
 49
-1.5
 74
     0
 49
3.0
 74
     0
 49
-1.5
 74
     0
  0
LTYPE
  5
67
330
5
100
AcDbSymbolTableRecord
100
AcDbLinetypeTableRecord
  2
Amconstr
 70
     0
  3
_______________________
 72
    65
 73
     2
 40
9999.0
 49
9999.0
 74
     0
 49
0.0
 74
     0
  0
LTYPE
  5
68
330
5
100
AcDbSymbolTableRecord
100
AcDbLinetypeTableRecord
  2
AM_ISO08W050x2
 70
     0
  3
__ . __ . __ . __ . __ . __
 72
    65
 73
     4
 40
9.0
 49
6.0
 74
     0
 49
-0.75
 74
     0
 49
1.5
 74
     0
 49
-0.75
 74
     0
  0
LTYPE
  5
69
330
5
100
AcDbSymbolTableRecord
100
AcDbLinetypeTableRecord
  2
AM_ISO02W050x2
 70
     0
  3
 _ _ _ _ _ _ _ _ _ _ _ _
 72
    65
 73
     2
 40
3.75
 49
3.0
 74
     0
 49
-0.75
 74
     0
  0
LTYPE
  5
6C
330
5
100
AcDbSymbolTableRecord
100
AcDbLinetypeTableRecord
  2
Amzigzag
 70
     0
  3
/\/-/\/-/\/-/\/-/\/-/\/
 72
    65
 73
     2
 40
11.0001
 49
0.0001
 74
     4
 75
   135
340
6B
 46
0.04
 50
0.0
 44
0.0
 45
0.0
 49
-11.0
 74
     0
  0
LTYPE
  5
7A
330
5
100
AcDbSymbolTableRecord
100
AcDbLinetypeTableRecord
  2
ACISOWELD
 70
     0
  3
_ _ _ _ _
 72
    65
 73
     2
 40
2.0
 49
2.0
 74
     0
 49
-1.0
 74
     0
  0
LTYPE
  5
7B
330
5
100
AcDbSymbolTableRecord
100
AcDbLinetypeTableRecord
  2
ACISOTGB
 70
     0
  3
__ . . __ . .
 72
    65
 73
     6
 40
9.0
 49
4.0
 74
     0
 49
-1.0
 74
     0
 49
1.0
 74
     0
 49
-1.0
 74
     0
 49
1.0
 74
     0
 49
-1.0
 74
     0
  0
LTYPE
  5
7C
330
5
100
AcDbSymbolTableRecord
100
AcDbLinetypeTableRecord
  2
ACISOTGL
 70
     0
  3
_ _ _ _ _
 72
    65
 73
     2
 40
3.0
 49
2.0
 74
     0
 49
-1.0
 74
     0
  0
LTYPE
  5
7E
330
5
100
AcDbSymbolTableRecord
100
AcDbLinetypeTableRecord
  2
CENTER
 70
     0
  3
__ . __
 72
    65
 73
     4
 40
7.0
 49
4.0
 74
     0
 49
-1.0
 74
     0
 49
1.0
 74
     0
 49
-1.0
 74
     0
  0
LTYPE
  5
D8
330
5
100
AcDbSymbolTableRecord
100
AcDbLinetypeTableRecord
  2
HIDDEN
 70
     0
  3
Hidden __ __ __ __ __ __ __ __ __ __ __ __ __ _
 72
    65
 73
     2
 40
9.524999999999996
 49
6.349999999999998
 74
     0
 49
-3.174999999999998
 74
     0
  0
LTYPE
  5
D9
330
5
100
AcDbSymbolTableRecord
100
AcDbLinetypeTableRecord
  2
PHANTOM2
 70
     0
  3
Phantom (.5x) ___ _ _ ___ _ _ ___ _ _ ___ _ _
 72
    65
 73
     6
 40
31.75
 49
15.875
 74
     0
 49
-3.174999999999998
 74
     0
 49
3.174999999999998
 74
     0
 49
-3.174999999999998
 74
     0
 49
3.174999999999998
 74
     0
 49
-3.174999999999998
 74
     0
  0
LTYPE
  5
20C
330
5
100
AcDbSymbolTableRecord
100
AcDbLinetypeTableRecord
  2
ACJISWELD
 70
     0
  3
_ _ _ _ _
 72
    65
 73
     2
 40
2.0
 49
2.0
 74
     0
 49
-1.0
 74
     0
  0
LTYPE
  5
20D
330
5
100
AcDbSymbolTableRecord
100
AcDbLinetypeTableRecord
  2
ACJISTGB
 70
     0
  3
__ . . __ . .
 72
    65
 73
     6
 40
9.0
 49
4.0
 74
     0
 49
-1.0
 74
     0
 49
1.0
 74
     0
 49
-1.0
 74
     0
 49
1.0
 74
     0
 49
-1.0
 74
     0
  0
LTYPE
  5
20E
330
5
100
AcDbSymbolTableRecord
100
AcDbLinetypeTableRecord
  2
ACJISTGL
 70
     0
  3
_ _ _ _ _
 72
    65
 73
     2
 40
3.0
 49
2.0
 74
     0
 49
-1.0
 74
     0
  0
ENDTAB
  0
TABLE
  2
LAYER
  5
2
102
{ACAD_XDICTIONARY
360
34B
102
}
330
0
100
AcDbSymbolTable
 70
     7
  0
LAYER
  5
10
330
2
100
AcDbSymbolTableRecord
100
AcDbLayerTableRecord
  2
0
 70
     0
 62
     7
  6
Continuous
370
    -3
390
F
  0
LAYER
  5
34A
330
2
100
AcDbSymbolTableRecord
100
AcDbLayerTableRecord
  2
AM_0
 70
     0
 62
     7
  6
Continuous
370
    30
390
F
  0
LAYER
  5
3AF
330
2
100
AcDbSymbolTableRecord
100
AcDbLayerTableRecord
  2
AM_4
 70
     0
 62
     3
  6
Continuous
370
    13
390
F
  0
LAYER
  5
3B0
330
2
100
AcDbSymbolTableRecord
100
AcDbLayerTableRecord
  2
AM_5
 70
     0
 62
     3
  6
Continuous
370
    13
390
F
  0
LAYER
  5
3B1
330
2
100
AcDbSymbolTableRecord
100
AcDbLayerTableRecord
  2
AM_7
 70
     0
 62
     4
  6
AM_ISO08W050
370
    13
390
F
  0
LAYER
  5
456
330
2
100
AcDbSymbolTableRecord
100
AcDbLayerTableRecord
  2
1
 70
     0
 62
     7
  6
Continuous
370
    -3
390
F
  0
LAYER
  5
457
330
2
100
AcDbSymbolTableRecord
100
AcDbLayerTableRecord
  2
Defpoints
 70
     0
 62
     7
  6
Continuous
290
     0
370
    -3
390
F
  0
ENDTAB
  0
TABLE
  2
STYLE
  5
3
330
0
100
AcDbSymbolTable
 70
     6
  0
STYLE
  5
11
330
3
100
AcDbSymbolTableRecord
100
AcDbTextStyleTableRecord
  2
STANDARD
 70
     0
 40
0.0
 41
1.0
 50
0.0
 71
     0
 42
3.799999999999998
  3
ISOCP.SHX
  4
EXTFONT.SHX
  0
STYLE
  5
6B
330
3
100
AcDbSymbolTableRecord
100
AcDbTextStyleTableRecord
  2

 70
     1
 40
0.0
 41
1.0
 50
0.0
 71
     0
 42
2.5
  3
ltypeshp.shx
  4

  0
STYLE
  5
6D
330
3
100
AcDbSymbolTableRecord
100
AcDbTextStyleTableRecord
  2
ACISOTS
 70
     0
 40
3.799999999999999
 41
1.0
 50
0.0
 71
     0
 42
3.799999999999999
  3
isocp.shx
  4
extfont.shx
  0
STYLE
  5
79
330
3
100
AcDbSymbolTableRecord
100
AcDbTextStyleTableRecord
  2
ACISOGDT
 70
     0
 40
0.0
 41
1.0
 50
0.0
 71
     0
 42
2.5
  3
amgdt.shx
  4
extfont.shx
  0
STYLE
  5
1FF
330
3
100
AcDbSymbolTableRecord
100
AcDbTextStyleTableRecord
  2
ACJISTS
 70
     0
 40
1.0
 41
1.0
 50
0.0
 71
     0
 42
1.0
  3
isocp.shx
  4
extfont.shx
  0
STYLE
  5
20B
330
3
100
AcDbSymbolTableRecord
100
AcDbTextStyleTableRecord
  2
ACJISGDT
 70
     0
 40
0.0
 41
1.0
 50
0.0
 71
     0
 42
1.0
  3
amgdt.shx
  4

  0
ENDTAB
  0
TABLE
  2
VIEW
  5
6
330
0
100
AcDbSymbolTable
 70
     0
  0
ENDTAB
  0
TABLE
  2
UCS
  5
7
330
0
100
AcDbSymbolTable
 70
     0
  0
ENDTAB
  0
TABLE
  2
APPID
  5
9
330
0
100
AcDbSymbolTable
 70
    23
  0
APPID
  5
12
330
9
100
AcDbSymbolTableRecord
100
AcDbRegAppTableRecord
  2
ACAD
 70
     0
  0
APPID
  5
46
330
9
100
AcDbSymbolTableRecord
100
AcDbRegAppTableRecord
  2
MCAD_NO_VIS
 70
     0
  0
APPID
  5
47
330
9
100
AcDbSymbolTableRecord
100
AcDbRegAppTableRecord
  2
ACAD_TEMP_GRAPHIC
 70
     0
  0
APPID
  5
58
330
9
100
AcDbSymbolTableRecord
100
AcDbRegAppTableRecord
  2
ACATTRIBSERVICES
 70
     0
  0
APPID
  5
EE
330
9
100
AcDbSymbolTableRecord
100
AcDbRegAppTableRecord
  2
AD_DRAW
 70
     0
  0
APPID
  5
10C
330
9
100
AcDbSymbolTableRecord
100
AcDbRegAppTableRecord
  2
DESIGNERASSEMBLIES
 70
     0
  0
APPID
  5
111
330
9
100
AcDbSymbolTableRecord
100
AcDbRegAppTableRecord
  2
ACADM_DIM_EDIT
 70
     0
  0
APPID
  5
112
330
9
100
AcDbSymbolTableRecord
100
AcDbRegAppTableRecord
  2
AMDT_DM_ADJ
 70
     0
  0
APPID
  5
243
330
9
100
AcDbSymbolTableRecord
100
AcDbRegAppTableRecord
  2
ACAD_DSTYLE_DIMTEXT_FILL
 70
     0
  0
APPID
  5
3B4
330
9
100
AcDbSymbolTableRecord
100
AcDbRegAppTableRecord
  2
ACAD_PSEXT
 70
     0
  0
APPID
  5
45A
330
9
100
AcDbSymbolTableRecord
100
AcDbRegAppTableRecord
  2
GENIUS_GENODEF_13
 70
     0
  0
APPID
  5
45B
330
9
100
AcDbSymbolTableRecord
100
AcDbRegAppTableRecord
  2
GENIUS_GENOBJ-N-CEN_13
 70
     0
  0
APPID
  5
45C
330
9
100
AcDbSymbolTableRecord
100
AcDbRegAppTableRecord
  2
GENIUS_GENCEN_19
 70
     0
  0
APPID
  5
45D
330
9
100
AcDbSymbolTableRecord
100
AcDbRegAppTableRecord
  2
ACAD_DIMASSOC_DIMLFAC
 70
     0
  0
APPID
  5
45E
330
9
100
AcDbSymbolTableRecord
100
AcDbRegAppTableRecord
  2
ACAD_DIMASSOC_CALC_DIMLFAC
 70
     0
  0
APPID
  5
45F
330
9
100
AcDbSymbolTableRecord
100
AcDbRegAppTableRecord
  2
ACAD_DIMASSOC_OVERRIDDEN_DIMLFAC
 70
     0
  0
APPID
  5
460
330
9
100
AcDbSymbolTableRecord
100
AcDbRegAppTableRecord
  2
GENIUS_GENOBJ-N-FIL_13
 70
     0
  0
APPID
  5
6F8
330
9
100
AcDbSymbolTableRecord
100
AcDbRegAppTableRecord
  2
GENIUS_GENOBJ-N-LIB_13
 70
     0
  0
APPID
  5
6F9
330
9
100
AcDbSymbolTableRecord
100
AcDbRegAppTableRecord
  2
GENIUS_GENOBJ-N-RSBK_13
 70
     0
  0
APPID
  5
6FA
330
9
100
AcDbSymbolTableRecord
100
AcDbRegAppTableRecord
  2
GENIUS_GENSCALE_13
 70
     0
  0
APPID
  5
118A
330
9
100
AcDbSymbolTableRecord
100
AcDbRegAppTableRecord
  2
GENIUS_GENFIL_13
 70
     0
  0
APPID
  5
118B
330
9
100
AcDbSymbolTableRecord
100
AcDbRegAppTableRecord
  2
GENIUS_GENOBJ-N-CHA_13
 70
     0
  0
APPID
  5
17A5
330
9
100
AcDbSymbolTableRecord
100
AcDbRegAppTableRecord
  2
GENIUS_GENDTOL_13
 70
     0
  0
ENDTAB
  0
TABLE
  2
DIMSTYLE
  5
A
330
0
100
AcDbSymbolTable
 70
    16
100
AcDbDimStyleTable
 71
     2
340
216
340
81
  0
DIMSTYLE
105
81
330
A
100
AcDbSymbolTableRecord
100
AcDbDimStyleTableRecord
  2
AM_ISO
 70
     0
  4
"
 41
2.5
 42
1.0
 43
10.0
 44
1.0
 47
0.1
 48
0.1
 73
     0
 74
     0
 77
     1
 78
     8
 79
     2
140
3.5
141
0.0
143
0.0393701
146
0.71
147
1.5
172
     1
176
   256
177
   256
178
     2
271
     2
272
     3
274
     4
283
     0
284
     8
340
11
371
    -1
372
    -1
  0
DIMSTYLE
105
82
330
A
100
AcDbSymbolTableRecord
100
AcDbDimStyleTableRecord
  2
AM_ISO$3
 70
     0
  4
"
 41
2.5
 42
1.0
 43
10.0
 44
1.0
 47
0.1
 48
0.1
 73
     0
 77
     1
 78
     8
 79
     2
140
3.5
141
0.0
143
0.0393701
146
0.71
147
1.5
176
   256
177
   256
178
     2
271
     2
272
     3
274
     4
283
     0
284
     8
288
     1
289
     0
340
11
371
    -1
372
    -1
  0
DIMSTYLE
105
83
330
A
100
AcDbSymbolTableRecord
100
AcDbDimStyleTableRecord
  2
AM_ISO$4
 70
     0
  4
"
 41
2.5
 42
1.0
 43
10.0
 44
1.0
 47
0.1
 48
0.1
 73
     0
 77
     1
 78
     8
 79
     2
140
3.5
141
0.0
143
0.0393701
146
0.71
147
1.5
176
   256
177
   256
178
     2
271
     2
272
     3
274
     4
283
     0
284
     8
288
     1
289
     0
340
11
371
    -1
372
    -1
  0
DIMSTYLE
105
84
330
A
100
AcDbSymbolTableRecord
100
AcDbDimStyleTableRecord
  2
AM_ISO$6
 70
     0
  4
"
 41
2.5
 42
1.0
 43
10.0
 44
1.0
 47
0.1
 48
0.1
 73
     0
 74
     0
 78
     8
 79
     2
140
3.5
141
0.0
143
0.0393701
146
0.71
147
1.5
172
     1
176
   256
177
   256
178
     2
271
     2
272
     3
274
     4
283
     0
284
     8
340
11
371
    -1
372
    -1
  0
DIMSTYLE
105
85
330
A
100
AcDbSymbolTableRecord
100
AcDbDimStyleTableRecord
  2
AM_ISO$7
 70
     0
  4
"
 41
2.5
 42
1.0
 43
10.0
 44
1.0
 47
0.1
 48
0.1
 73
     0
 74
     0
 77
     1
 78
     8
 79
     2
140
5.0
141
0.0
143
0.0393701
146
0.71
147
1.5
172
     1
176
   256
177
   256
178
     2
271
     2
272
     3
274
     4
283
     0
284
     8
340
11
371
    -1
372
    -1
  0
DIMSTYLE
105
86
330
A
100
AcDbSymbolTableRecord
100
AcDbDimStyleTableRecord
  2
AM_ISO$SF
 70
     0
  4
"
 41
2.5
 42
1.0
 43
10.0
 44
1.0
 47
0.1
 48
0.1
 73
     0
 74
     0
 75
     1
 76
     1
 77
     1
 78
     8
 79
     2
140
3.5
141
0.0
143
0.0393701
146
0.71
147
1.5
172
     1
176
   256
177
   256
178
     2
271
     2
272
     3
274
     4
283
     0
284
     8
340
11
371
    -1
372
    -1
  0
DIMSTYLE
105
8B
330
A
100
AcDbSymbolTableRecord
100
AcDbDimStyleTableRecord
  2
AM_ISO$SH
 70
     0
  4
"
 41
2.5
 42
1.0
 43
10.0
 44
1.0
 47
0.1
 48
0.1
 73
     0
 74
     0
 75
     1
 76
     1
 77
     1
 78
     8
 79
     2
140
3.5
141
0.0
143
0.0393701
144
2.0
146
0.71
147
1.5
172
     1
173
     1
176
   256
177
   256
178
     2
271
     2
272
     3
274
     4
283
     0
284
     8
340
11
343
87
371
    -1
372
    -1
  0
DIMSTYLE
105
216
330
A
100
AcDbSymbolTableRecord
100
AcDbDimStyleTableRecord
  2
AM_JIS
 70
     0
  4
"
 41
2.5
 42
1.0
 43
10.0
 44
1.0
 47
0.1
 48
0.1000000001
 73
     0
 74
     0
 77
     3
 78
     8
 79
     2
140
3.799999999999999
141
0.0
143
0.0393701
146
0.71
147
1.5
172
     1
176
   256
177
   256
178
     2
271
     2
272
     2
275
     1
283
     0
284
     8
340
11
341
217
342
217
371
    -1
372
    -1
  0
DIMSTYLE
105
21D
330
A
100
AcDbSymbolTableRecord
100
AcDbDimStyleTableRecord
  2
AM_JIS$3
 70
     0
  4
"
 41
2.5
 42
1.0
 43
10.0
 44
1.0
 47
0.1
 48
0.1000000001
 73
     0
 77
     3
 78
     8
 79
     2
140
3.799999999999999
141
0.0
143
0.0393701
146
0.71
147
1.5
176
   256
177
   256
178
     2
271
     2
272
     2
275
     1
283
     0
284
     8
288
     1
289
     0
340
11
341
217
342
217
371
    -1
372
    -1
  0
DIMSTYLE
105
21E
330
A
100
AcDbSymbolTableRecord
100
AcDbDimStyleTableRecord
  2
AM_JIS$4
 70
     0
  4
"
 41
2.5
 42
1.0
 43
10.0
 44
1.0
 47
0.1
 48
0.1000000001
 73
     0
 77
     3
 78
     8
 79
     2
140
3.799999999999999
141
0.0
143
0.0393701
146
0.71
147
1.5
176
   256
177
   256
178
     2
271
     2
272
     2
275
     1
283
     0
284
     8
288
     1
289
     0
340
11
341
217
342
217
371
    -1
372
    -1
  0
DIMSTYLE
105
21F
330
A
100
AcDbSymbolTableRecord
100
AcDbDimStyleTableRecord
  2
AM_JIS$6
 70
     0
  4
"
 41
2.5
 42
1.0
 43
10.0
 44
1.0
 47
0.1
 48
0.1000000001
 73
     0
 74
     0
 78
     8
 79
     2
140
3.799999999999999
141
0.0
143
0.0393701
146
0.71
147
1.5
172
     1
176
   256
177
   256
178
     2
271
     2
272
     2
275
     1
283
     0
284
     8
340
11
341
217
342
217
371
    -1
372
    -1
  0
DIMSTYLE
105
220
330
A
100
AcDbSymbolTableRecord
100
AcDbDimStyleTableRecord
  2
AM_JIS$7
 70
     0
  4
"
 41
2.5
 42
1.0
 43
10.0
 44
1.0
 47
0.1
 48
0.1000000001
 73
     0
 74
     0
 77
     3
 78
     8
 79
     2
140
5.0
141
0.0
143
0.0393701
146
0.71
147
1.5
172
     1
176
   256
177
   256
178
     2
271
     2
272
     2
275
     1
283
     0
284
     8
340
11
341
217
342
217
371
    -1
372
    -1
  0
DIMSTYLE
105
221
330
A
100
AcDbSymbolTableRecord
100
AcDbDimStyleTableRecord
  2
AM_JIS$SF
 70
     0
  4
"
 41
2.5
 42
1.0
 43
10.0
 44
1.0
 47
0.1
 48
0.1
 73
     0
 74
     0
 75
     1
 76
     1
 77
     3
 78
     8
 79
     2
140
3.5
141
0.0
143
0.0393701
146
0.71
147
1.5
172
     1
176
   256
177
   256
178
     2
271
     2
272
     3
274
     4
283
     0
284
     8
340
11
341
217
342
217
343
217
344
217
371
    -1
372
    -1
  0
DIMSTYLE
105
222
330
A
100
AcDbSymbolTableRecord
100
AcDbDimStyleTableRecord
  2
AM_JIS$SH
 70
     0
  4
"
 41
2.5
 42
1.0
 43
10.0
 44
1.0
 47
0.1
 48
0.1
 73
     0
 74
     0
 75
     1
 76
     1
 77
     3
 78
     8
 79
     2
140
3.5
141
0.0
143
0.0393701
144
2.0
146
0.71
147
1.5
172
     1
173
     1
176
   256
177
   256
178
     2
271
     2
272
     3
274
     4
283
     0
284
     8
340
11
341
217
342
217
343
87
344
217
371
    -1
372
    -1
  0
DIMSTYLE
105
458
102
{ACAD_REACTORS
330
13BE
330
1433
330
1632
330
1633
330
1634
330
163D
330
163E
330
1687
330
18E6
330
19A8
102
}
330
A
100
AcDbSymbolTableRecord
100
AcDbDimStyleTableRecord
  2
AM_JIS$0
 70
     0
  4
"
 41
2.5
 42
0.0
 43
10.0
 44
1.0
 48
0.000000001
 73
     0
 74
     0
 77
     3
 78
     1
 79
     2
140
3.799999999999998
141
0.0
143
0.0393701
146
0.71
147
1.5
172
     1
176
   256
177
   256
178
     2
179
     1
271
     3
272
     3
275
     1
283
     0
284
     8
340
11
341
217
342
217
371
    -1
372
    -1
  0
DIMSTYLE
105
459
102
{ACAD_REACTORS
330
13E6
102
}
330
A
100
AcDbSymbolTableRecord
100
AcDbDimStyleTableRecord
  2
AM_JIS$2
 70
     0
  4
"
 41
2.5
 42
1.0
 43
10.0
 44
1.0
 47
0.1
 48
0.1
 73
     0
 74
     0
 77
     3
 78
     8
 79
     2
140
3.5
141
0.0
143
0.0393701
146
0.71
147
1.5
172
     1
176
   256
177
   256
178
     2
271
     2
272
     3
274
     4
283
     0
284
     8
340
11
341
217
342
217
343
217
344
217
371
    -1
372
    -1
  0
ENDTAB
  0
TABLE
  2
BLOCK_RECORD
  5
1
330
0
100
AcDbSymbolTable
 70
    16
  0
BLOCK_RECORD
  5
1F
102
{ACAD_XDICTIONARY
360
8F
102
}
330
1
100
AcDbSymbolTableRecord
100
AcDbBlockTableRecord
  2
*Model_Space
340
22
  0
BLOCK_RECORD
  5
1B
330
1
100
AcDbSymbolTableRecord
100
AcDbBlockTableRecord
  2
*Paper_Space
340
1E
  0
BLOCK_RECORD
  5
23
330
1
100
AcDbSymbolTableRecord
100
AcDbBlockTableRecord
  2
*Paper_Space0
340
26
  0
BLOCK_RECORD
  5
87
330
1
100
AcDbSymbolTableRecord
100
AcDbBlockTableRecord
  2
GENAXEH
340
0
  0
BLOCK_RECORD
  5
217
330
1
100
AcDbSymbolTableRecord
100
AcDbBlockTableRecord
  2
_Open30
340
0
  0
BLOCK_RECORD
  5
3DD
330
1
100
AcDbSymbolTableRecord
100
AcDbBlockTableRecord
  2
_None
340
0
  0
BLOCK_RECORD
  5
13E9
330
1
100
AcDbSymbolTableRecord
100
AcDbBlockTableRecord
  2
*D4
340
0
  0
BLOCK_RECORD
  5
13F1
330
1
100
AcDbSymbolTableRecord
100
AcDbBlockTableRecord
  2
*D5
340
0
  0
BLOCK_RECORD
  5
1434
330
1
100
AcDbSymbolTableRecord
100
AcDbBlockTableRecord
  2
*D6
340
0
  0
BLOCK_RECORD
  5
1699
330
1
100
AcDbSymbolTableRecord
100
AcDbBlockTableRecord
  2
*D7
340
0
  0
BLOCK_RECORD
  5
16A3
330
1
100
AcDbSymbolTableRecord
100
AcDbBlockTableRecord
  2
*D8
340
0
  0
BLOCK_RECORD
  5
16AD
330
1
100
AcDbSymbolTableRecord
100
AcDbBlockTableRecord
  2
*D9
340
0
  0
BLOCK_RECORD
  5
16B8
330
1
100
AcDbSymbolTableRecord
100
AcDbBlockTableRecord
  2
*D10
340
0
  0
BLOCK_RECORD
  5
16DF
330
1
100
AcDbSymbolTableRecord
100
AcDbBlockTableRecord
  2
*D11
340
0
  0
BLOCK_RECORD
  5
1724
330
1
100
AcDbSymbolTableRecord
100
AcDbBlockTableRecord
  2
*D12
340
0
  0
BLOCK_RECORD
  5
18E7
330
1
100
AcDbSymbolTableRecord
100
AcDbBlockTableRecord
  2
*D13
340
0
  0
BLOCK_RECORD
  5
19A9
330
1
100
AcDbSymbolTableRecord
100
AcDbBlockTableRecord
  2
*D14
340
0
  0
ENDTAB
  0
ENDSEC
  0
SECTION
  2
BLOCKS
  0
BLOCK
  5
20
330
1F
100
AcDbEntity
  8
0
100
AcDbBlockBegin
  2
*Model_Space
 70
     0
 10
0.0
 20
0.0
 30
0.0
  3
*Model_Space
  1

  0
ENDBLK
  5
21
330
1F
100
AcDbEntity
  8
0
100
AcDbBlockEnd
  0
BLOCK
  5
1C
330
1B
100
AcDbEntity
 67
     1
  8
0
100
AcDbBlockBegin
  2
*Paper_Space
 70
     0
 10
0.0
 20
0.0
 30
0.0
  3
*Paper_Space
  1

  0
ENDBLK
  5
1D
330
1B
100
AcDbEntity
 67
     1
  8
0
100
AcDbBlockEnd
  0
BLOCK
  5
24
330
23
100
AcDbEntity
  8
0
100
AcDbBlockBegin
  2
*Paper_Space0
 70
     0
 10
0.0
 20
0.0
 30
0.0
  3
*Paper_Space0
  1

  0
ENDBLK
  5
25
330
23
100
AcDbEntity
  8
0
100
AcDbBlockEnd
  0
BLOCK
  5
1B07
330
87
100
AcDbEntity
  8
0
100
AcDbBlockBegin
  2
GENAXEH
 70
     0
 10
0.0
 20
0.0
 30
0.0
  3
GENAXEH
  1

  0
LINE
  5
1B08
330
87
100
AcDbEntity
  8
0
100
AcDbLine
 10
-1.0
 20
0.0
 30
0.0
 11
1.0
 21
0.0
 31
0.0
  0
ENDBLK
  5
1B09
330
87
100
AcDbEntity
  8
0
100
AcDbBlockEnd
  0
BLOCK
  5
1B27
330
217
100
AcDbEntity
  8
0
100
AcDbBlockBegin
  2
_Open30
 70
     0
 10
0.0
 20
0.0
 30
0.0
  3
_Open30
  1

  0
LINE
  5
1B28
330
217
100
AcDbEntity
  8
0
  6
ByBlock
 62
     0
370
    -2
100
AcDbLine
 10
-1.0
 20
0.26794919
 30
0.0
 11
0.0
 21
0.0
 31
0.0
  0
LINE
  5
1B29
330
217
100
AcDbEntity
  8
0
  6
ByBlock
 62
     0
370
    -2
100
AcDbLine
 10
0.0
 20
0.0
 30
0.0
 11
-1.0
 21
-0.26794919
 31
0.0
  0
LINE
  5
1B2A
330
217
100
AcDbEntity
  8
0
  6
ByBlock
 62
     0
370
    -2
100
AcDbLine
 10
0.0
 20
0.0
 30
0.0
 11
-1.0
 21
0.0
 31
0.0
  0
ENDBLK
  5
1B2B
330
217
100
AcDbEntity
  8
0
100
AcDbBlockEnd
  0
BLOCK
  5
3DE
330
3DD
100
AcDbEntity
  8
0
370
    -3
100
AcDbBlockBegin
  2
_None
 70
     0
 10
0.0
 20
0.0
 30
0.0
  3
_None
  1

  0
ENDBLK
  5
3DF
330
3DD
100
AcDbEntity
  8
0
370
    -3
100
AcDbBlockEnd
  0
BLOCK
  5
1403
330
13E9
100
AcDbEntity
  8
0
100
AcDbBlockBegin
  2
*D4
 70
     1
 10
0.0
 20
0.0
 30
0.0
  3
*D4
  1

  0
LINE
  5
1A0E
330
13E9
100
AcDbEntity
  8
AM_5
100
AcDbLine
 10
0.0
 20
80.00000000000005
 30
0.0
 11
13.78582963654914
 21
80.00000000000005
 31
0.0
  0
LINE
  5
1A0F
330
13E9
100
AcDbEntity
  8
AM_5
100
AcDbLine
 10
12.78582963654912
 20
0.0000000000000352
 30
0.0
 11
12.78582963654914
 21
77.50000000000004
 31
0.0
  0
INSERT
  5
1A10
330
13E9
100
AcDbEntity
  8
AM_5
100
AcDbBlockReference
  2
_Open30
 10
12.78582963654914
 20
80.00000000000005
 30
0.0
 41
2.5
 42
2.5
 43
2.5
 50
90.0
  0
MTEXT
  5
1A11
330
13E9
100
AcDbEntity
  8
AM_5
 62
     2
100
AcDbMText
 10
9.385829636549123
 20
0.9909827220568722
 30
0.0
 40
3.799999999999998
 41
0.0
 71
     5
 72
     1
  1
%%c160
 11
0.0000000000000001
 21
1.0
 31
0.0
 73
     1
 44
1.0
1001
ACAD
1000
MTEXTBEGIN
1070
    73
1070
     1
1070
    44
1040
1.0
1070
    74
1070
     0
1000
MTEXTEND
  0
POINT
  5
1A12
330
13E9
100
AcDbEntity
  8
Defpoints
 62
     0
100
AcDbPoint
 10
-19.78483399377001
 20
0.0000000000000444
 30
0.0
  0
POINT
  5
1A13
330
13E9
100
AcDbEntity
  8
Defpoints
 62
     0
100
AcDbPoint
 10
0.0
 20
80.00000000000005
 30
0.0
  0
POINT
  5
1A14
330
13E9
100
AcDbEntity
  8
Defpoints
 62
     0
100
AcDbPoint
 10
12.78582963654914
 20
80.00000000000005
 30
0.0
  0
ENDBLK
  5
1404
330
13E9
100
AcDbEntity
  8
0
100
AcDbBlockEnd
  0
BLOCK
  5
1405
330
13F1
100
AcDbEntity
  8
0
100
AcDbBlockBegin
  2
*D5
 70
     1
 10
0.0
 20
0.0
 30
0.0
  3
*D5
  1

  0
LINE
  5
1A6E
330
13F1
100
AcDbEntity
  8
AM_5
100
AcDbLine
 10
-3.505680389660875
 20
87.87388707273349
 30
0.0
 11
-9.174340488159844
 21
100.6059061127263
 31
0.0
  0
ARC
  5
1A6F
330
13F1
100
AcDbEntity
  8
AM_5
100
AcDbCircle
 10
0.0
 20
79.9999999999999
 30
0.0
 40
21.55597238247963
100
AcDbArc
 50
96.64873037935251
 51
107.3512696206464
  0
INSERT
  5
1A70
330
13F1
100
AcDbEntity
  8
AM_5
100
AcDbBlockReference
  2
_Open30
 10
0.0000000000000018
 20
101.5559723824795
 30
0.0
 41
2.5
 42
2.5
 43
2.5
 50
3.32436518967625
  0
INSERT
  5
1A71
330
13F1
100
AcDbEntity
  8
AM_5
100
AcDbBlockReference
  2
_Open30
 10
-8.767603845084058
 20
99.69236065508368
 30
0.0
 41
2.5
 42
2.5
 43
2.5
 50
200.6756348103227
  0
MTEXT
  5
1A72
330
13F1
100
AcDbEntity
  8
AM_5
 62
     2
100
AcDbMText
 10
-3.466741522984073
 20
104.0346368190695
 30
0.0
 40
3.5
 41
0.0
 71
     5
 72
     1
  1
24°
 73
     1
 44
1.0
1001
ACAD
1000
MTEXTBEGIN
1070
    73
1070
     1
1070
    44
1040
1.0
1070
    74
1070
     0
1000
MTEXTEND
  0
POINT
  5
1A73
330
13F1
100
AcDbEntity
  8
Defpoints
 62
     0
100
AcDbPoint
 10
-5.941631229570687
 20
100.7209305699819
 30
0.0
  0
POINT
  5
1A74
330
13F1
100
AcDbEntity
  8
Defpoints
 62
     0
100
AcDbPoint
 10
-3.098943746585091
 20
86.96034161509087
 30
0.0
  0
POINT
  5
1A75
330
13F1
100
AcDbEntity
  8
Defpoints
 62
     0
100
AcDbPoint
 10
0.0000000000000018
 20
63.85716183755969
 30
0.0
  0
POINT
  5
1A76
330
13F1
100
AcDbEntity
  8
Defpoints
 62
     0
100
AcDbPoint
 10
-0.0000000000000071
 20
363.8571618375597
 30
0.0
  0
POINT
  5
1A77
330
13F1
100
AcDbEntity
  8
Defpoints
 62
     0
100
AcDbPoint
 10
-1.593317766705381
 20
83.57865029653529
 30
0.0
  0
ENDBLK
  5
1406
330
13F1
100
AcDbEntity
  8
0
100
AcDbBlockEnd
  0
BLOCK
  5
1455
330
1434
100
AcDbEntity
  8
0
100
AcDbBlockBegin
  2
*D6
 70
     1
 10
0.0
 20
0.0
 30
0.0
  3
*D6
  1

  0
LINE
  5
1A1F
330
1434
100
AcDbEntity
  8
AM_5
100
AcDbLine
 10
-63.0
 20
48.0
 30
0.0
 11
-62.99999999999999
 21
111.0587711085788
 31
0.0
  0
LINE
  5
1A20
330
1434
100
AcDbEntity
  8
AM_5
100
AcDbLine
 10
0.0
 20
80.00000000000005
 30
0.0
 11
0.0000000000000019
 21
111.0587711085788
 31
0.0
  0
LINE
  5
1A21
330
1434
100
AcDbEntity
  8
AM_5
100
AcDbLine
 10
-60.49999999999999
 20
110.0587711085788
 30
0.0
 11
-2.499999999999997
 21
110.0587711085788
 31
0.0
  0
INSERT
  5
1A22
330
1434
100
AcDbEntity
  8
AM_5
100
AcDbBlockReference
  2
_Open30
 10
-62.99999999999999
 20
110.0587711085788
 30
0.0
 41
2.5
 42
2.5
 43
2.5
 50
180.0
  0
INSERT
  5
1A23
330
1434
100
AcDbEntity
  8
AM_5
100
AcDbBlockReference
  2
_Open30
 10
0.0000000000000018
 20
110.0587711085788
 30
0.0
 41
2.5
 42
2.5
 43
2.5
  0
MTEXT
  5
1A24
330
1434
100
AcDbEntity
  8
AM_5
 62
     2
100
AcDbMText
 10
-31.5
 20
113.4587711085788
 30
0.0
 40
3.799999999999998
 41
0.0
 71
     5
 72
     1
  1
63
 73
     1
 44
1.0
1001
ACAD
1000
MTEXTBEGIN
1070
    73
1070
     1
1070
    44
1040
1.0
1070
    74
1070
     0
1000
MTEXTEND
  0
POINT
  5
1A25
330
1434
100
AcDbEntity
  8
Defpoints
 62
     0
100
AcDbPoint
 10
-63.0
 20
48.0
 30
0.0
  0
POINT
  5
1A26
330
1434
100
AcDbEntity
  8
Defpoints
 62
     0
100
AcDbPoint
 10
0.0
 20
80.00000000000005
 30
0.0
  0
POINT
  5
1A27
330
1434
100
AcDbEntity
  8
Defpoints
 62
     0
100
AcDbPoint
 10
0.0000000000000018
 20
110.0587711085788
 30
0.0
  0
ENDBLK
  5
1456
330
1434
100
AcDbEntity
  8
0
100
AcDbBlockEnd
  0
BLOCK
  5
174F
330
1699
100
AcDbEntity
  8
0
100
AcDbBlockBegin
  2
*D7
 70
     1
 10
0.0
 20
0.0
 30
0.0
  3
*D7
  1

  0
LINE
  5
1A28
330
1699
100
AcDbEntity
  8
AM_5
100
AcDbLine
 10
-61.80000000000041
 20
9.500000000000042
 30
0.0
 11
-74.93004907179056
 21
9.500000000000046
 31
0.0
  0
LINE
  5
1A29
330
1699
100
AcDbEntity
  8
AM_5
100
AcDbLine
 10
-61.80000000000041
 20
-9.499999999999927
 30
0.0
 11
-74.93004907179056
 21
-9.499999999999923
 31
0.0
  0
LINE
  5
1A2A
330
1699
100
AcDbEntity
  8
AM_5
100
AcDbLine
 10
-73.93004907179056
 20
7.000000000000046
 30
0.0
 11
-73.93004907179056
 21
-6.999999999999924
 31
0.0
  0
INSERT
  5
1A2B
330
1699
100
AcDbEntity
  8
AM_5
100
AcDbBlockReference
  2
_Open30
 10
-73.93004907179056
 20
9.500000000000046
 30
0.0
 41
2.5
 42
2.5
 43
2.5
 50
90.0
  0
INSERT
  5
1A2C
330
1699
100
AcDbEntity
  8
AM_5
100
AcDbBlockReference
  2
_Open30
 10
-73.93004907179056
 20
-9.499999999999923
 30
0.0
 41
2.5
 42
2.5
 43
2.5
 50
270.0
  0
MTEXT
  5
1A2D
330
1699
100
AcDbEntity
  8
AM_5
 62
     2
100
AcDbMText
 10
-77.33004907179055
 20
-0.2811941460017642
 30
0.0
 40
3.799999999999998
 41
0.0
 71
     5
 72
     1
  1
19
 11
0.0000000000000001
 21
1.0
 31
0.0
 73
     1
 44
1.0
1001
ACAD
1000
MTEXTBEGIN
1070
    73
1070
     1
1070
    44
1040
1.0
1070
    74
1070
     0
1000
MTEXTEND
  0
POINT
  5
1A2E
330
1699
100
AcDbEntity
  8
Defpoints
 62
     0
100
AcDbPoint
 10
-61.80000000000041
 20
9.500000000000042
 30
0.0
  0
POINT
  5
1A2F
330
1699
100
AcDbEntity
  8
Defpoints
 62
     0
100
AcDbPoint
 10
-61.80000000000041
 20
-9.499999999999927
 30
0.0
  0
POINT
  5
1A30
330
1699
100
AcDbEntity
  8
Defpoints
 62
     0
100
AcDbPoint
 10
-73.93004907179056
 20
-9.499999999999923
 30
0.0
  0
ENDBLK
  5
1750
330
1699
100
AcDbEntity
  8
0
100
AcDbBlockEnd
  0
BLOCK
  5
1751
330
16A3
100
AcDbEntity
  8
0
100
AcDbBlockBegin
  2
*D8
 70
     1
 10
0.0
 20
0.0
 30
0.0
  3
*D8
  1

  0
LINE
  5
1A31
330
16A3
100
AcDbEntity
  8
AM_5
100
AcDbLine
 10
-61.49652035833096
 20
25.40000000000004
 30
0.0
 11
-89.788322558858
 21
25.40000000000005
 31
0.0
  0
LINE
  5
1A32
330
16A3
100
AcDbEntity
  8
AM_5
100
AcDbLine
 10
-61.5
 20
-25.39999999999995
 30
0.0
 11
-89.788322558858
 21
-25.39999999999994
 31
0.0
  0
LINE
  5
1A33
330
16A3
100
AcDbEntity
  8
AM_5
100
AcDbLine
 10
-88.788322558858
 20
22.90000000000005
 30
0.0
 11
-88.788322558858
 21
-22.89999999999994
 31
0.0
  0
INSERT
  5
1A34
330
16A3
100
AcDbEntity
  8
AM_5
100
AcDbBlockReference
  2
_Open30
 10
-88.788322558858
 20
25.40000000000005
 30
0.0
 41
2.5
 42
2.5
 43
2.5
 50
90.0
  0
INSERT
  5
1A35
330
16A3
100
AcDbEntity
  8
AM_5
100
AcDbBlockReference
  2
_Open30
 10
-88.788322558858
 20
-25.39999999999994
 30
0.0
 41
2.5
 42
2.5
 43
2.5
 50
270.0
  0
MTEXT
  5
1A36
330
16A3
100
AcDbEntity
  8
AM_5
 62
     2
100
AcDbMText
 10
-92.18832255885798
 20
-1.167891774258448
 30
0.0
 40
3.799999999999998
 41
0.0
 71
     5
 72
     1
  1
%%c50.8
 11
0.0000000000000001
 21
1.0
 31
0.0
 73
     1
 44
1.0
1001
ACAD
1000
MTEXTBEGIN
1070
    73
1070
     1
1070
    44
1040
1.0
1070
    74
1070
     0
1000
MTEXTEND
  0
POINT
  5
1A37
330
16A3
100
AcDbEntity
  8
Defpoints
 62
     0
100
AcDbPoint
 10
-61.49652035833096
 20
25.40000000000004
 30
0.0
  0
POINT
  5
1A38
330
16A3
100
AcDbEntity
  8
Defpoints
 62
     0
100
AcDbPoint
 10
-61.5
 20
-25.39999999999995
 30
0.0
  0
POINT
  5
1A39
330
16A3
100
AcDbEntity
  8
Defpoints
 62
     0
100
AcDbPoint
 10
-88.788322558858
 20
-25.39999999999994
 30
0.0
  0
ENDBLK
  5
1752
330
16A3
100
AcDbEntity
  8
0
100
AcDbBlockEnd
  0
BLOCK
  5
1753
330
16AD
100
AcDbEntity
  8
0
100
AcDbBlockBegin
  2
*D9
 70
     1
 10
0.0
 20
0.0
 30
0.0
  3
*D9
  1

  0
LINE
  5
1A43
330
16AD
100
AcDbEntity
  8
AM_5
100
AcDbLine
 10
-63.0
 20
-47.99999999999996
 30
0.0
 11
-63.0
 21
-63.30086290371443
 31
0.0
  0
LINE
  5
1A44
330
16AD
100
AcDbEntity
  8
AM_5
100
AcDbLine
 10
-52.0
 20
-9.499999999999957
 30
0.0
 11
-52.0
 21
-63.30086290371443
 31
0.0
  0
LINE
  5
1A45
330
16AD
100
AcDbEntity
  8
AM_5
100
AcDbLine
 10
-60.5
 20
-62.30086290371446
 30
0.0
 11
-54.5
 21
-62.30086290371446
 31
0.0
  0
INSERT
  5
1A46
330
16AD
100
AcDbEntity
  8
AM_5
100
AcDbBlockReference
  2
_Open30
 10
-63.0
 20
-62.30086290371446
 30
0.0
 41
2.5
 42
2.5
 43
2.5
 50
180.0
  0
INSERT
  5
1A47
330
16AD
100
AcDbEntity
  8
AM_5
100
AcDbBlockReference
  2
_Open30
 10
-52.0
 20
-62.30086290371446
 30
0.0
 41
2.5
 42
2.5
 43
2.5
  0
MTEXT
  5
1A48
330
16AD
100
AcDbEntity
  8
AM_5
 62
     2
100
AcDbMText
 10
-57.54866844983735
 20
-58.90086290371446
 30
0.0
 40
3.799999999999998
 41
0.0
 71
     5
 72
     1
  1
11
 73
     1
 44
1.0
1001
ACAD
1000
MTEXTBEGIN
1070
    73
1070
     1
1070
    44
1040
1.0
1070
    74
1070
     0
1000
MTEXTEND
  0
POINT
  5
1A49
330
16AD
100
AcDbEntity
  8
Defpoints
 62
     0
100
AcDbPoint
 10
-63.0
 20
-47.99999999999996
 30
0.0
  0
POINT
  5
1A4A
330
16AD
100
AcDbEntity
  8
Defpoints
 62
     0
100
AcDbPoint
 10
-52.0
 20
-9.499999999999957
 30
0.0
  0
POINT
  5
1A4B
330
16AD
100
AcDbEntity
  8
Defpoints
 62
     0
100
AcDbPoint
 10
-52.0
 20
-62.30086290371446
 30
0.0
  0
ENDBLK
  5
1754
330
16AD
100
AcDbEntity
  8
0
100
AcDbBlockEnd
  0
BLOCK
  5
1755
330
16B8
100
AcDbEntity
  8
0
100
AcDbBlockBegin
  2
*D10
 70
     1
 10
0.0
 20
0.0
 30
0.0
  3
*D10
  1

  0
LINE
  5
1A4C
330
16B8
100
AcDbEntity
  8
AM_5
100
AcDbLine
 10
-63.0
 20
-47.99999999999996
 30
0.0
 11
-63.0
 21
-73.47340281994398
 31
0.0
  0
LINE
  5
1A4D
330
16B8
100
AcDbEntity
  8
AM_5
100
AcDbLine
 10
-50.99999999999977
 20
-25.39999999999996
 30
0.0
 11
-50.99999999999977
 21
-73.47340281994398
 31
0.0
  0
LINE
  5
1A4E
330
16B8
100
AcDbEntity
  8
AM_5
100
AcDbLine
 10
-60.5
 20
-72.47340281994398
 30
0.0
 11
-53.49999999999977
 21
-72.47340281994398
 31
0.0
  0
INSERT
  5
1A4F
330
16B8
100
AcDbEntity
  8
AM_5
100
AcDbBlockReference
  2
_Open30
 10
-63.0
 20
-72.47340281994398
 30
0.0
 41
2.5
 42
2.5
 43
2.5
 50
180.0
  0
INSERT
  5
1A50
330
16B8
100
AcDbEntity
  8
AM_5
100
AcDbBlockReference
  2
_Open30
 10
-50.99999999999977
 20
-72.47340281994398
 30
0.0
 41
2.5
 42
2.5
 43
2.5
  0
MTEXT
  5
1A51
330
16B8
100
AcDbEntity
  8
AM_5
 62
     2
100
AcDbMText
 10
-56.91262347137261
 20
-69.07302880419596
 30
0.0
 40
3.799999999999998
 41
0.0
 71
     5
 72
     1
  1
12
 73
     1
 44
1.0
1001
ACAD
1000
MTEXTBEGIN
1070
    73
1070
     1
1070
    44
1040
1.0
1070
    74
1070
     0
1000
MTEXTEND
  0
POINT
  5
1A52
330
16B8
100
AcDbEntity
  8
Defpoints
 62
     0
100
AcDbPoint
 10
-63.0
 20
-47.99999999999996
 30
0.0
  0
POINT
  5
1A53
330
16B8
100
AcDbEntity
  8
Defpoints
 62
     0
100
AcDbPoint
 10
-50.99999999999977
 20
-25.39999999999996
 30
0.0
  0
POINT
  5
1A54
330
16B8
100
AcDbEntity
  8
Defpoints
 62
     0
100
AcDbPoint
 10
-50.99999999999977
 20
-72.47340281994398
 30
0.0
  0
ENDBLK
  5
1756
330
16B8
100
AcDbEntity
  8
0
100
AcDbBlockEnd
  0
BLOCK
  5
1759
330
16DF
100
AcDbEntity
  8
0
100
AcDbBlockBegin
  2
*D11
 70
     1
 10
0.0
 20
0.0
 30
0.0
  3
*D11
  1

  0
LINE
  5
1A3A
330
16DF
100
AcDbEntity
  8
AM_5
100
AcDbLine
 10
-61.0
 20
50.0
 30
0.0
 11
-107.3077810457725
 21
50.00000000000002
 31
0.0
  0
LINE
  5
1A3B
330
16DF
100
AcDbEntity
  8
AM_5
100
AcDbLine
 10
-61.0
 20
-49.99999999999996
 30
0.0
 11
-107.3077810457726
 21
-49.99999999999995
 31
0.0
  0
LINE
  5
1A3C
330
16DF
100
AcDbEntity
  8
AM_5
100
AcDbLine
 10
-106.3077810457725
 20
47.50000000000002
 30
0.0
 11
-106.3077810457726
 21
-47.49999999999995
 31
0.0
  0
INSERT
  5
1A3D
330
16DF
100
AcDbEntity
  8
AM_5
100
AcDbBlockReference
  2
_Open30
 10
-106.3077810457725
 20
50.00000000000002
 30
0.0
 41
2.5
 42
2.5
 43
2.5
 50
90.0
  0
INSERT
  5
1A3E
330
16DF
100
AcDbEntity
  8
AM_5
100
AcDbBlockReference
  2
_Open30
 10
-106.3077810457726
 20
-49.99999999999995
 30
0.0
 41
2.5
 42
2.5
 43
2.5
 50
270.0
  0
MTEXT
  5
1A3F
330
16DF
100
AcDbEntity
  8
AM_5
 62
     2
100
AcDbMText
 10
-109.7077810457726
 20
-1.611241080019323
 30
0.0
 40
3.799999999999998
 41
0.0
 71
     5
 72
     1
  1
%%c100
 11
0.0000000000000001
 21
1.0
 31
0.0
 73
     1
 44
1.0
1001
ACAD
1000
MTEXTBEGIN
1070
    73
1070
     1
1070
    44
1040
1.0
1070
    74
1070
     0
1000
MTEXTEND
  0
POINT
  5
1A40
330
16DF
100
AcDbEntity
  8
Defpoints
 62
     0
100
AcDbPoint
 10
-61.0
 20
50.0
 30
0.0
  0
POINT
  5
1A41
330
16DF
100
AcDbEntity
  8
Defpoints
 62
     0
100
AcDbPoint
 10
-61.0
 20
-49.99999999999996
 30
0.0
  0
POINT
  5
1A42
330
16DF
100
AcDbEntity
  8
Defpoints
 62
     0
100
AcDbPoint
 10
-106.3077810457726
 20
-49.99999999999995
 30
0.0
  0
ENDBLK
  5
175A
330
16DF
100
AcDbEntity
  8
0
100
AcDbBlockEnd
  0
BLOCK
  5
1761
330
1724
100
AcDbEntity
  8
0
100
AcDbBlockBegin
  2
*D12
 70
     1
 10
0.0
 20
0.0
 30
0.0
  3
*D12
  1

  0
LINE
  5
1A55
330
1724
100
AcDbEntity
  8
AM_5
100
AcDbLine
 10
-22.19875499999989
 20
92.0
 30
0.0
 11
-123.8240377755496
 21
92.00000000000004
 31
0.0
  0
LINE
  5
1A56
330
1724
100
AcDbEntity
  8
AM_5
100
AcDbLine
 10
-122.8240377755496
 20
0.0000000000000637
 30
0.0
 11
-122.8240377755496
 21
89.50000000000004
 31
0.0
  0
INSERT
  5
1A57
330
1724
100
AcDbEntity
  8
AM_5
100
AcDbBlockReference
  2
_Open30
 10
-122.8240377755496
 20
92.00000000000004
 30
0.0
 41
2.5
 42
2.5
 43
2.5
 50
90.0
  0
MTEXT
  5
1A58
330
1724
100
AcDbEntity
  8
AM_5
 62
     2
100
AcDbMText
 10
-126.2240377755496
 20
0.1770427762519539
 30
0.0
 40
3.799999999999998
 41
0.0
 71
     5
 72
     1
  1
%%c184
 11
0.0000000000000001
 21
1.0
 31
0.0
 73
     1
 44
1.0
1001
ACAD
1000
MTEXTBEGIN
1070
    73
1070
     1
1070
    44
1040
1.0
1070
    74
1070
     0
1000
MTEXTEND
  0
POINT
  5
1A59
330
1724
100
AcDbEntity
  8
Defpoints
 62
     0
100
AcDbPoint
 10
-54.79400000000009
 20
0.0000000000000444
 30
0.0
  0
POINT
  5
1A5A
330
1724
100
AcDbEntity
  8
Defpoints
 62
     0
100
AcDbPoint
 10
-22.19875499999989
 20
92.0
 30
0.0
  0
POINT
  5
1A5B
330
1724
100
AcDbEntity
  8
Defpoints
 62
     0
100
AcDbPoint
 10
-122.8240377755496
 20
92.00000000000004
 30
0.0
  0
ENDBLK
  5
1762
330
1724
100
AcDbEntity
  8
0
100
AcDbBlockEnd
  0
BLOCK
  5
1908
330
18E7
100
AcDbEntity
  8
0
100
AcDbBlockBegin
  2
*D13
 70
     1
 10
0.0
 20
0.0
 30
0.0
  3
*D13
  1

  0
LINE
  5
1A5C
330
18E7
100
AcDbEntity
  8
AM_5
100
AcDbLine
 10
-63.0
 20
-47.99999999999996
 30
0.0
 11
-63.0
 21
-81.60751034536234
 31
0.0
  0
LINE
  5
1A5D
330
18E7
100
AcDbEntity
  8
AM_5
100
AcDbLine
 10
-25.0
 20
-35.99999999999996
 30
0.0
 11
-25.0
 21
-81.60751034536234
 31
0.0
  0
LINE
  5
1A5E
330
18E7
100
AcDbEntity
  8
AM_5
100
AcDbLine
 10
-60.5
 20
-80.60751034536234
 30
0.0
 11
-27.5
 21
-80.60751034536234
 31
0.0
  0
INSERT
  5
1A5F
330
18E7
100
AcDbEntity
  8
AM_5
100
AcDbBlockReference
  2
_Open30
 10
-63.0
 20
-80.60751034536234
 30
0.0
 41
2.5
 42
2.5
 43
2.5
 50
180.0
  0
INSERT
  5
1A60
330
18E7
100
AcDbEntity
  8
AM_5
100
AcDbBlockReference
  2
_Open30
 10
-25.0
 20
-80.60751034536234
 30
0.0
 41
2.5
 42
2.5
 43
2.5
  0
MTEXT
  5
1A61
330
18E7
100
AcDbEntity
  8
AM_5
 62
     2
100
AcDbMText
 10
-44.0
 20
-77.20751034536234
 30
0.0
 40
3.799999999999998
 41
0.0
 71
     5
 72
     1
  1
38
 73
     1
 44
1.0
1001
ACAD
1000
MTEXTBEGIN
1070
    73
1070
     1
1070
    44
1040
1.0
1070
    74
1070
     0
1000
MTEXTEND
  0
POINT
  5
1A62
330
18E7
100
AcDbEntity
  8
Defpoints
 62
     0
100
AcDbPoint
 10
-63.0
 20
-47.99999999999996
 30
0.0
  0
POINT
  5
1A63
330
18E7
100
AcDbEntity
  8
Defpoints
 62
     0
100
AcDbPoint
 10
-25.0
 20
-35.99999999999996
 30
0.0
  0
POINT
  5
1A64
330
18E7
100
AcDbEntity
  8
Defpoints
 62
     0
100
AcDbPoint
 10
-25.0
 20
-80.60751034536234
 30
0.0
  0
ENDBLK
  5
1909
330
18E7
100
AcDbEntity
  8
0
100
AcDbBlockEnd
  0
BLOCK
  5
19D3
330
19A9
100
AcDbEntity
  8
0
100
AcDbBlockBegin
  2
*D14
 70
     1
 10
0.0
 20
0.0
 30
0.0
  3
*D14
  1

  0
LINE
  5
1A65
330
19A9
100
AcDbEntity
  8
AM_5
100
AcDbLine
 10
-15.40000000000009
 20
-35.99999999999996
 30
0.0
 11
-6.413111002317934
 21
-35.99999999999996
 31
0.0
  0
LINE
  5
1A66
330
19A9
100
AcDbEntity
  8
AM_5
100
AcDbLine
 10
-15.40000000000009
 20
36.00000000000001
 30
0.0
 11
-6.413111002317918
 21
36.00000000000001
 31
0.0
  0
LINE
  5
1A67
330
19A9
100
AcDbEntity
  8
AM_5
100
AcDbLine
 10
-7.413111002317934
 20
-33.49999999999996
 30
0.0
 11
-7.413111002317918
 21
33.50000000000001
 31
0.0
  0
INSERT
  5
1A68
330
19A9
100
AcDbEntity
  8
AM_5
100
AcDbBlockReference
  2
_Open30
 10
-7.413111002317934
 20
-35.99999999999996
 30
0.0
 41
2.5
 42
2.5
 43
2.5
 50
270.0
  0
INSERT
  5
1A69
330
19A9
100
AcDbEntity
  8
AM_5
100
AcDbBlockReference
  2
_Open30
 10
-7.413111002317918
 20
36.00000000000001
 30
0.0
 41
2.5
 42
2.5
 43
2.5
 50
90.0
  0
MTEXT
  5
1A6A
330
19A9
100
AcDbEntity
  8
AM_5
 62
     2
100
AcDbMText
 10
-10.81348501806596
 20
0.0000000000000293
 30
0.0
 40
3.799999999999998
 41
0.0
 71
     5
 72
     1
  1
%%c72
 11
0.0000000000000001
 21
1.0
 31
0.0
 73
     1
 44
1.0
1001
ACAD
1000
MTEXTBEGIN
1070
    73
1070
     1
1070
    44
1040
1.0
1070
    74
1070
     0
1000
MTEXTEND
  0
POINT
  5
1A6B
330
19A9
100
AcDbEntity
  8
Defpoints
 62
     0
100
AcDbPoint
 10
-15.40000000000009
 20
-35.99999999999996
 30
0.0
  0
POINT
  5
1A6C
330
19A9
100
AcDbEntity
  8
Defpoints
 62
     0
100
AcDbPoint
 10
-15.40000000000009
 20
36.00000000000001
 30
0.0
  0
POINT
  5
1A6D
330
19A9
100
AcDbEntity
  8
Defpoints
 62
     0
100
AcDbPoint
 10
-7.413111002317918
 20
36.00000000000001
 30
0.0
  0
ENDBLK
  5
19D4
330
19A9
100
AcDbEntity
  8
0
100
AcDbBlockEnd
  0
ENDSEC
  0
SECTION
  2
ENTITIES
  0
DIMENSION
  5
13BE
330
1F
100
AcDbEntity
  8
AM_5
100
AcDbDimension
  2
*D4
 10
12.78582963654914
 20
80.00000000000005
 30
0.0
 11
12.78582963654912
 21
0.9909827220568717
 31
0.0
 70
   160
  1
%%c<>
 71
     5
 42
160.0
  3
AM_JIS$0
100
AcDbAlignedDimension
 13
-19.78483399377001
 23
0.0000000000000444
 33
0.0
 14
0.0
 24
80.00000000000005
 34
0.0
 50
90.0
100
AcDbRotatedDimension
1001
ACAD
1000
DSTYLE
1002
{
1070
    75
1070
     1
1070
   144
1040
2.0
1070
   173
1070
     1
1070
   179
1070
     0
1070
   271
1070
     0
1070
   343
1005
3DD
1002
}
  0
LINE
  5
13BF
330
1F
100
AcDbEntity
  8
0
100
AcDbLine
 10
-6.595417787711482
 20
88.30251224891428
 30
0.0
 11
-9.977109106267107
 21
86.79688626903448
 31
0.0
  0
LINE
  5
13C0
330
1F
100
AcDbEntity
  8
0
100
AcDbLine
 10
-13.35880042482284
 20
85.29126028915461
 30
0.0
 11
-9.977109106267107
 21
86.79688626903448
 31
0.0
  0
LINE
  5
13C1
330
1F
100
AcDbEntity
  8
0
100
AcDbLine
 10
-14.70097105864619
 20
81.79478624802833
 30
0.0
 11
-13.19534507876631
 21
78.41309492947259
 31
0.0
  0
LINE
  5
13C2
330
1F
100
AcDbEntity
  8
0
100
AcDbLine
 10
-11.68971950562306
 20
75.03140452446237
 30
0.0
 11
-13.19534507876631
 21
78.41309492947259
 31
0.0
  0
LINE
  5
13C3
330
1F
100
AcDbEntity
  8
0
100
AcDbLine
 10
-1.429862420648816
 20
76.70048493685327
 30
0.0
 11
-4.811553739204413
 21
75.19485895697342
 31
0.0
  0
LINE
  5
13C4
330
1F
100
AcDbEntity
  8
0
100
AcDbLine
 10
-0.087692193562134
 20
80.19695989152511
 30
0.0
 11
-1.593317766705381
 21
83.57865029653531
 31
0.0
  0
LINE
  5
13C5
330
1F
100
AcDbEntity
  8
0
100
AcDbLine
 10
-8.193245057760206
 20
73.68923297709362
 30
0.0
 11
-4.811553739204413
 21
75.19485895697342
 31
0.0
  0
CIRCLE
  5
13C6
330
1F
100
AcDbEntity
  8
1
100
AcDbCircle
 10
-7.39433142273583
 20
80.99587261300396
 30
0.0
 40
2.299999999999998
  0
SPLINE
  5
13C7
330
1F
100
AcDbEntity
  8
0
100
AcDbSpline
210
0.0
220
0.0
230
1.0
 70
     8
 71
     3
 72
    11
 73
     7
 74
     5
 42
0.0000000001
 43
0.0000000001
 44
0.0000000001
 40
0.0
 40
0.0
 40
0.0
 40
0.0
 40
0.1043112552938965
 40
0.2086220543370127
 40
0.312932475048428
 40
0.4172434765871781
 40
0.4172434765871781
 40
0.4172434765871781
 40
0.4172434765871781
 10
-1.094423051006288
 20
76.94382639436279
 30
0.0
 10
-1.11851084156548
 20
76.9187018619371
 30
0.0
 10
-1.166686317325405
 20
76.86845290697883
 30
0.0
 10
-1.248481900808849
 20
76.8033242915649
 30
0.0
 10
-1.335782724743515
 20
76.74578487385955
 30
0.0
 10
-1.398502463807263
 20
76.71558494388212
 30
0.0
 10
-1.429862420648816
 20
76.70048493685327
 30
0.0
 11
-1.094423051006288
 21
76.94382639436279
 31
0.0
 11
-1.168275184359969
 21
76.87016025302161
 31
0.0
 11
-1.249399553008089
 21
76.8045890733124
 31
0.0
 11
-1.336912357946515
 21
76.74782488706084
 31
0.0
 11
-1.429862420648816
 21
76.70048493685327
 31
0.0
  0
LINE
  5
13C8
330
1F
100
AcDbEntity
  8
0
100
AcDbLine
 10
-0.9573993705192831
 20
77.09775803580071
 30
0.0
 11
-1.089574759260726
 21
76.94923496803339
 31
0.0
  0
LINE
  5
13C9
330
1F
100
AcDbEntity
  8
0
100
AcDbLine
 10
-0.261459073264291
 20
77.8797797888617
 30
0.0
 11
-0.9573993705192831
 21
77.09775803580071
 31
0.0
  0
LINE
  5
13CA
330
1F
100
AcDbEntity
  8
0
100
AcDbLine
 10
-10.51042465361456
 20
73.86300117707797
 30
0.0
 11
-11.29244640667562
 21
74.55894147433285
 31
0.0
  0
LINE
  5
13CB
330
1F
100
AcDbEntity
  8
0
100
AcDbLine
 10
-11.29244640667562
 20
74.55894147433285
 30
0.0
 11
-11.44096998125178
 21
74.69111554279239
 31
0.0
  0
SPLINE
  5
13CC
330
1F
100
AcDbEntity
  8
0
100
AcDbSpline
210
0.0
220
0.0
230
1.0
 70
     8
 71
     3
 72
    11
 73
     7
 74
     5
 42
0.0000000001
 43
0.0000000001
 44
0.0000000001
 40
0.0
 40
0.0
 40
0.0
 40
0.0
 40
0.10431125529405
 40
0.2086223122822954
 40
0.312933720766607
 40
0.4172446701487078
 40
0.4172446701487078
 40
0.4172446701487078
 40
0.4172446701487078
 10
-11.44637764137698
 20
74.69596424127438
 30
0.0
 10
-11.47150209018461
 20
74.72005210055531
 30
0.0
 10
-11.52175094003587
 20
74.76822777332379
 30
0.0
 10
-11.58688105631592
 20
74.85002266338042
 30
0.0
 10
-11.64442044709986
 20
74.93732407724849
 30
0.0
 10
-11.6746198416013
 20
75.00004442139935
 30
0.0
 10
-11.68971950562306
 20
75.03140452446237
 30
0.0
 11
-11.44637764137698
 21
74.69596424127438
 31
0.0
 11
-11.52004378271826
 21
74.76981637462817
 31
0.0
 11
-11.58561587597285
 21
74.85094033653966
 31
0.0
 11
-11.64238046896096
 21
74.93845405502354
 31
0.0
 11
-11.68971950562306
 21
75.03140452446237
 31
0.0
  0
SPLINE
  5
13CD
330
1F
100
AcDbEntity
  8
0
100
AcDbSpline
210
0.0
220
0.0
230
1.0
 70
     8
 71
     3
 72
    11
 73
     7
 74
     5
 42
0.0000000001
 43
0.0000000001
 44
0.0000000001
 40
0.0
 40
0.0
 40
0.0
 40
0.0
 40
0.1043108981074692
 40
0.2086219550957078
 40
0.3129323758071392
 40
0.4172433251892456
 40
0.4172433251892456
 40
0.4172433251892456
 40
0.4172433251892456
 10
-13.69424020120198
 20
85.0479197451907
 30
0.0
 10
-13.67015214682767
 20
85.07304383074917
 30
0.0
 10
-13.6219760013894
 20
85.12329204013372
 30
0.0
 10
-13.54018165245763
 20
85.18842204943899
 30
0.0
 10
-13.45288059832539
 20
85.24596141686075
 30
0.0
 10
-13.39016053563699
 20
85.27616063954722
 30
0.0
 10
-13.35880042482284
 20
85.29126028915461
 30
0.0
 11
-13.69424020120198
 21
85.0479197451907
 31
0.0
 11
-13.62038766111163
 21
85.1215849729864
 31
0.0
 11
-13.5392636992002
 21
85.18715706624105
 31
0.0
 11
-13.45175089426163
 21
85.2439212524924
 31
0.0
 11
-13.35880042482284
 21
85.29126028915461
 31
0.0
  0
LINE
  5
13CE
330
1F
100
AcDbEntity
  8
0
100
AcDbLine
 10
-13.83126347495232
 20
84.89398719020728
 30
0.0
 11
-13.69908849294742
 21
85.04251117151991
 31
0.0
  0
LINE
  5
13CF
330
1F
100
AcDbEntity
  8
0
100
AcDbLine
 10
-14.52720377220737
 20
84.11196543714622
 30
0.0
 11
-13.83126347495232
 21
84.89398719020728
 31
0.0
  0
LINE
  5
13D0
330
1F
100
AcDbEntity
  8
0
100
AcDbLine
 10
-3.496216845532501
 20
87.43280466522042
 30
0.0
 11
-3.347693270956368
 21
87.30063059676105
 31
0.0
  0
LINE
  5
13D1
330
1F
100
AcDbEntity
  8
0
100
AcDbLine
 10
-4.278238598593616
 20
88.12874496247545
 30
0.0
 11
-3.496216845532501
 21
87.43280466522042
 31
0.0
  0
SPLINE
  5
13D2
330
1F
100
AcDbEntity
  8
0
100
AcDbSpline
210
0.0
220
0.0
230
1.0
 70
     8
 71
     3
 72
    11
 73
     7
 74
     5
 42
0.0000000001
 43
0.0000000001
 44
0.0000000001
 40
0.0
 40
0.0
 40
0.0
 40
0.0
 40
0.1043112552937958
 40
0.2086223122821606
 40
0.312933720766476
 40
0.4172446701487136
 40
0.4172446701487136
 40
0.4172446701487136
 40
0.4172446701487136
 10
-3.342285610831082
 20
87.29578189827895
 30
0.0
 10
-3.317161162023544
 20
87.27169403899805
 30
0.0
 10
-3.26691231217239
 20
87.22351836622953
 30
0.0
 10
-3.201782195892325
 20
87.14172347617298
 30
0.0
 10
-3.144242805108351
 20
87.05442206230481
 30
0.0
 10
-3.114043410606876
 20
86.99170171815394
 30
0.0
 10
-3.098943746585091
 20
86.96034161509087
 30
0.0
 11
-3.342285610831082
 21
87.29578189827895
 31
0.0
 11
-3.268619469490062
 21
87.22192976492527
 31
0.0
 11
-3.203047376235388
 21
87.14080580301368
 31
0.0
 11
-3.146282783247271
 21
87.05329208452981
 31
0.0
 11
-3.098943746585091
 21
86.96034161509087
 31
0.0
  0
SPLINE
  5
13D6
330
1F
100
AcDbEntity
  8
0
100
AcDbSpline
210
0.0
220
0.0
230
1.0
 70
     8
 71
     3
 72
    11
 73
     7
 74
     5
 42
0.0000000001
 43
0.0000000001
 44
0.0000000001
 40
0.0
 40
0.0
 40
0.0
 40
0.0
 40
0.1043108981074322
 40
0.208621955095756
 40
0.3129323758071099
 40
0.4172433251893292
 40
0.4172433251893292
 40
0.4172433251893292
 40
0.4172433251893292
 10
-6.190127500670313
 20
88.38896597725556
 30
0.0
 10
-6.224916389277399
 20
88.38787635889534
 30
0.0
 10
-6.29449421948018
 20
88.38569712051524
 30
0.0
 10
-6.397626351176129
 20
88.36849255597199
 30
0.0
 10
-6.498802241624222
 20
88.34211658114744
 30
0.0
 10
-6.563212551274651
 20
88.31571371529463
 30
0.0
 10
-6.595417787711482
 20
88.30251224891428
 30
0.0
 11
-6.190127500670313
 21
88.38896597725556
 31
0.0
 11
-6.294288428456042
 21
88.38337450278139
 31
0.0
 11
-6.397300516078074
 21
88.36696394478442
 31
0.0
 11
-6.49804202359587
 21
88.33991191099725
 31
0.0
 11
-6.595417787711482
 21
88.30251224891428
 31
0.0
  0
LINE
  5
13D7
330
1F
100
AcDbEntity
  8
0
100
AcDbLine
 10
-5.984046852711912
 20
88.38779313025854
 30
0.0
 11
-6.182864006738157
 21
88.38894991799866
 31
0.0
  0
LINE
  5
13D8
330
1F
100
AcDbEntity
  8
0
100
AcDbLine
 10
-4.93721648042208
 20
88.38170287119323
 30
0.0
 11
-5.984046852711912
 21
88.38779313025854
 31
0.0
  0
SPLINE
  5
13D9
330
1F
100
AcDbEntity
  8
0
100
AcDbSpline
210
0.0
220
0.0
230
1.0
 70
     8
 71
     3
 72
    11
 73
     7
 74
     5
 42
0.0000000001
 43
0.0000000001
 44
0.0000000001
 40
0.0
 40
0.0
 40
0.0
 40
0.0
 40
0.1043112552939654
 40
0.2086223122821793
 40
0.3129337207666541
 40
0.4172446701488143
 40
0.4172446701488143
 40
0.4172446701488143
 40
0.4172446701488143
 10
-0.0012389720296255
 20
79.79166828420176
 30
0.0
 10
-0.0023282023460734
 20
79.82645731221261
 30
0.0
 10
-0.0045066609082373
 20
79.89603530209702
 30
0.0
 10
-0.0217115560051994
 20
79.99916787537403
 30
0.0
 10
-0.0480877825336836
 20
80.10034402389377
 30
0.0
 10
-0.0744907425871041
 20
80.16475464956283
 30
0.0
 10
-0.087692193562134
 20
80.19695989152511
 30
0.0
 11
-0.0012389720296255
 21
79.79166828420176
 31
0.0
 11
-0.0068295329583066
 21
79.89582961872425
 31
0.0
 11
-0.0232400909551984
 21
79.99884170634619
 31
0.0
 11
-0.0502925314791014
 21
80.09958412740958
 31
0.0
 11
-0.087692193562134
 21
80.19695989152511
 31
0.0
  0
LINE
  5
13DA
330
1F
100
AcDbEntity
  8
0
100
AcDbLine
 10
-0.0024113122177312
 20
79.58558895652557
 30
0.0
 11
-0.0012541177410128
 21
79.78440519700645
 31
0.0
  0
LINE
  5
13DB
330
1F
100
AcDbEntity
  8
0
100
AcDbLine
 10
-0.0085015712832046
 20
78.5387585842357
 30
0.0
 11
-0.0024113122177312
 21
79.58558895652557
 31
0.0
  0
LINE
  5
13DC
330
1F
100
AcDbEntity
  8
0
100
AcDbLine
 10
-9.851446365049438
 20
73.61004235481465
 30
0.0
 11
-8.804615992759577
 21
73.60395209574936
 31
0.0
  0
LINE
  5
13DD
330
1F
100
AcDbEntity
  8
0
100
AcDbLine
 10
-8.804615992759577
 20
73.60395209574936
 30
0.0
 11
-8.605799245469937
 21
73.6027962215547
 31
0.0
  0
SPLINE
  5
13DE
330
1F
100
AcDbEntity
  8
0
100
AcDbSpline
210
0.0
220
0.0
230
1.0
 70
     8
 71
     3
 72
    11
 73
     7
 74
     5
 42
0.0000000001
 43
0.0000000001
 44
0.0000000001
 40
0.0
 40
0.0
 40
0.0
 40
0.0
 40
0.1043112552940837
 40
0.2086220543370193
 40
0.3129324750485027
 40
0.4172434765871304
 40
0.4172434765871304
 40
0.4172434765871304
 40
0.4172434765871304
 10
-8.598535751538006
 20
73.60278016229789
 30
0.0
 10
-8.563746707370537
 20
73.60386928559265
 30
0.0
 10
-8.494168771200783
 20
73.60604752741839
 30
0.0
 10
-8.391036849291687
 20
73.62325394210802
 30
0.0
 10
-8.28986107550796
 20
73.6496297122161
 30
0.0
 10
-8.225450456785095
 20
73.67603186429886
 30
0.0
 10
-8.193245057760206
 20
73.68923297709362
 30
0.0
 11
-8.598535751538006
 21
73.60278016229789
 31
0.0
 11
-8.494374417015393
 21
73.60837072322643
 31
0.0
 11
-8.391362736130247
 21
73.624782194769
 31
0.0
 11
-8.290621228612279
 21
73.65183422855601
 31
0.0
 11
-8.193245057760206
 21
73.68923297709362
 31
0.0
  0
SPLINE
  5
13DF
330
1F
100
AcDbEntity
  8
0
100
AcDbSpline
210
0.0
220
0.0
230
1.0
 70
     8
 71
     3
 72
    11
 73
     7
 74
     5
 42
0.0000000001
 43
0.0000000001
 44
0.0000000001
 40
0.0
 40
0.0
 40
0.0
 40
0.0
 40
0.1800809736896198
 40
0.3602119815254583
 40
0.5403429893614755
 40
0.7204248334046972
 40
0.7204248334046972
 40
0.7204248334046972
 40
0.7204248334046972
 10
-0.2614590732642341
 20
77.87977978886179
 30
0.0
 10
-0.2238126159037025
 20
77.92676873338999
 30
0.0
 10
-0.1485092413971684
 20
78.02075967797176
 30
0.0
 10
-0.0705038193068959
 20
78.18451858825119
 30
0.0
 10
-0.0188968495291023
 20
78.35841128093441
 30
0.0
 10
-0.0119663487277944
 20
78.47864828666695
 30
0.0
 10
-0.0085015712832046
 20
78.5387585842357
 30
0.0
 11
-0.2614590732642341
 21
77.87977978886179
 31
0.0
 11
-0.1543436248041416
 21
78.02453972042504
 31
0.0
 11
-0.0749039826174851
 21
78.18620766169111
 31
0.0
 11
-0.0257621740780678
 21
78.35950585163404
 31
0.0
 11
-0.0085015712832046
 21
78.5387585842357
 31
0.0
  0
SPLINE
  5
13E0
330
1F
100
AcDbEntity
  8
0
100
AcDbSpline
210
0.0
220
0.0
230
1.0
 70
     8
 71
     3
 72
    11
 73
     7
 74
     5
 42
0.0000000001
 43
0.0000000001
 44
0.0000000001
 40
0.0
 40
0.0
 40
0.0
 40
0.0
 40
0.1800804812632059
 40
0.3602121296346861
 40
0.540342369541656
 40
0.7204242135848944
 40
0.7204242135848944
 40
0.7204242135848944
 40
0.7204242135848944
 10
-14.52720377220737
 20
84.11196543714622
 30
0.0
 10
-14.56485051109502
 20
84.06497687907961
 30
0.0
 10
-14.6401546856141
 20
83.97098641186792
 30
0.0
 10
-14.71815833837952
 20
83.80722685410532
 30
0.0
 10
-14.7697667196882
 20
83.63333470567203
 30
0.0
 10
-14.77669700421617
 20
83.51309788734452
 30
0.0
 10
-14.78016168092512
 20
83.45298755531773
 30
0.0
 11
-14.52720377220737
 21
84.11196543714622
 31
0.0
 11
-14.63431962740401
 21
83.96720641912841
 31
0.0
 11
-14.71375886285403
 21
83.80553756431664
 31
0.0
 11
-14.76290107813008
 21
83.6322402879194
 31
0.0
 11
-14.78016168092512
 21
83.45298755531773
 31
0.0
  0
SPLINE
  5
13E1
330
1F
100
AcDbEntity
  8
0
100
AcDbSpline
210
0.0
220
0.0
230
1.0
 70
     8
 71
     3
 72
    11
 73
     7
 74
     5
 42
0.0000000001
 43
0.0000000001
 44
0.0000000001
 40
0.0
 40
0.0
 40
0.0
 40
0.0
 40
0.1800818440432847
 40
0.3602128518791087
 40
0.5403438597151192
 40
0.7204248334048048
 40
0.7204248334048048
 40
0.7204248334048048
 40
0.7204248334048048
 10
-10.51042465361465
 20
73.86300117707789
 30
0.0
 10
-10.46343560838607
 20
73.8253543686467
 30
0.0
 10
-10.36944468954145
 20
73.75005047390269
 30
0.0
 10
-10.20568543180586
 20
73.67204500355504
 30
0.0
 10
-10.03179302962332
 20
73.62043823040872
 30
0.0
 10
-9.91155635287115
 20
73.61350732577396
 30
0.0
 10
-9.851446365049438
 20
73.61004235481465
 30
0.0
 11
-10.51042465361465
 21
73.86300117707789
 31
0.0
 11
-10.36566431531466
 21
73.75588481507235
 31
0.0
 11
-10.20399637404861
 21
73.67644517288567
 31
0.0
 11
-10.03069818410569
 21
73.62730336434626
 31
0.0
 11
-9.851446365049438
 21
73.61004235481465
 31
0.0
  0
SPLINE
  5
13E2
330
1F
100
AcDbEntity
  8
0
100
AcDbSpline
210
0.0
220
0.0
230
1.0
 70
     8
 71
     3
 72
    11
 73
     7
 74
     5
 42
0.0000000001
 43
0.0000000001
 44
0.0000000001
 40
0.0
 40
0.0
 40
0.0
 40
0.0
 40
0.1800818440431544
 40
0.3602120839503117
 40
0.5403437323217118
 40
0.7204242135851619
 40
0.7204242135851619
 40
0.7204242135851619
 40
0.7204242135851619
 10
-4.278238598593673
 20
88.12874496247538
 30
0.0
 10
-4.325227602024106
 20
88.16639186882476
 30
0.0
 10
-4.41921823688438
 20
88.24169579889307
 30
0.0
 10
-4.582978034662071
 20
88.31969985609445
 30
0.0
 10
-4.756869734109047
 20
88.37130837735623
 30
0.0
 10
-4.877106591418988
 20
88.37823836804274
 30
0.0
 10
-4.937216480422249
 20
88.38170287119323
 30
0.0
 11
-4.278238598593673
 21
88.12874496247538
 31
0.0
 11
-4.422998936893407
 21
88.23586132448104
 31
0.0
 11
-4.58466647142299
 21
88.31530005312229
 31
0.0
 11
-4.757965068102492
 21
88.36444277520717
 31
0.0
 11
-4.937216480422249
 21
88.38170287119323
 31
0.0
  0
LINE
  5
13E3
102
{ACAD_REACTORS
330
13E8
102
}
330
1F
100
AcDbEntity
  8
AM_0
100
AcDbLine
 10
-3.098943746585091
 20
86.96034161509087
 30
0.0
 11
-1.593317766705381
 21
83.57865029653531
 31
0.0
  0
LINE
  5
13E4
102
{ACAD_REACTORS
330
143F
102
}
330
1F
100
AcDbEntity
  8
AM_4
100
AcDbLine
 10
0.0
 20
80.00000000000005
 30
0.0
 11
-0.0001790544992275
 21
79.9692245159191
 31
0.0
  0
LINE
  5
13E5
330
1F
100
AcDbEntity
  8
AM_0
100
AcDbLine
 10
-0.0012541177410128
 20
79.78440519700645
 30
0.0
 11
-0.0012389720296255
 21
79.79166828420176
 31
0.0
  0
DIMENSION
  5
13E6
102
{ACAD_XDICTIONARY
360
13E7
102
}
102
{ACAD_REACTORS
330
13E8
102
}
330
1F
100
AcDbEntity
  8
AM_5
100
AcDbDimension
  2
*D5
 10
-1.593317766705381
 20
83.57865029653531
 30
0.0
 11
-2.885041673918379
 21
100.0017591103308
 31
0.0
 70
   162
 71
     5
 42
0.4188790204786209
  3
AM_JIS$2
100
AcDb2LineAngularDimension
 13
0.0
 23
63.8571618375597
 33
0.0
 14
0.0
 24
363.8571618375597
 34
0.0
 15
-3.098943746585091
 25
86.96034161509087
 35
0.0
 16
-5.941631229570687
 26
100.7209305699819
 36
0.0
1001
ACAD_DIMASSOC_DIMLFAC
1040
1.0
1001
ACAD_DIMASSOC_CALC_DIMLFAC
1040
1.0
1001
ACAD_DIMASSOC_OVERRIDDEN_DIMLFAC
1040
1.0
1001
ACAD
1000
DSTYLE
1002
{
1070
   144
1040
1.0
1070
    76
1070
     1
1070
   271
1070
     0
1070
   279
1070
     1
1002
}
  0
DIMENSION
  5
1433
102
{ACAD_XDICTIONARY
360
143E
102
}
102
{ACAD_REACTORS
330
143F
102
}
330
1F
100
AcDbEntity
  8
AM_5
100
AcDbDimension
  2
*D6
 10
0.0000000000000018
 20
110.0587711085788
 30
0.0
 11
-31.5
 21
113.4587711085788
 31
0.0
 70
    32
 71
     5
 42
63.0
  3
AM_JIS$0
100
AcDbAlignedDimension
 13
-63.0
 23
48.0
 33
0.0
 14
0.0
 24
80.00000000000005
 34
0.0
100
AcDbRotatedDimension
1001
ACAD
1000
DSTYLE
1002
{
1070
   179
1070
     0
1070
   271
1070
     0
1002
}
  0
ARC
  5
162F
102
{ACAD_REACTORS
330
1636
102
}
330
1F
100
AcDbEntity
  8
1
100
AcDbCircle
 10
-61.0
 20
48.0
 30
0.0
 40
2.0
100
AcDbArc
 50
90.0
 51
180.0
  0
LINE
  5
1630
330
1F
100
AcDbEntity
  8
AM_0
100
AcDbLine
 10
-63.0
 20
10.70000000000006
 30
0.0
 11
-61.80000000000018
 21
9.500000000000042
 31
0.0
  0
LINE
  5
1631
330
1F
100
AcDbEntity
  8
AM_0
100
AcDbLine
 10
-63.0
 20
-10.69999999999997
 30
0.0
 11
-61.80000000000018
 21
-9.499999999999957
 31
0.0
  0
DIMENSION
  5
1632
330
1F
100
AcDbEntity
  8
AM_5
100
AcDbDimension
  2
*D7
 10
-73.93004907179056
 20
-9.499999999999923
 30
0.0
 11
-73.93004907179056
 21
-0.2811941460017646
 31
0.0
 70
   160
  1
<>
 71
     5
 42
18.99999999999996
  3
AM_JIS$0
100
AcDbAlignedDimension
 13
-61.80000000000041
 23
9.500000000000042
 33
0.0
 14
-61.80000000000041
 24
-9.499999999999927
 34
0.0
 50
90.0
100
AcDbRotatedDimension
1001
ACAD
1000
DSTYLE
1002
{
1070
   179
1070
     0
1070
   271
1070
     0
1002
}
  0
DIMENSION
  5
1633
330
1F
100
AcDbEntity
  8
AM_5
100
AcDbDimension
  2
*D8
 10
-88.788322558858
 20
-25.39999999999994
 30
0.0
 11
-88.788322558858
 21
-1.167891774258448
 31
0.0
 70
   160
  1
%%c<>
 71
     5
 42
50.79999999999999
  3
AM_JIS$0
100
AcDbAlignedDimension
 13
-61.49652035833096
 23
25.40000000000004
 33
0.0
 14
-61.5
 24
-25.39999999999995
 34
0.0
 50
90.0
100
AcDbRotatedDimension
1001
ACAD
1000
DSTYLE
1002
{
1070
   179
1070
     0
1070
   271
1070
     1
1002
}
  0
DIMENSION
  5
1634
102
{ACAD_XDICTIONARY
360
1635
102
}
102
{ACAD_REACTORS
330
1636
102
}
330
1F
100
AcDbEntity
  8
AM_5
100
AcDbDimension
  2
*D11
 10
-106.3077810457726
 20
-49.99999999999995
 30
0.0
 11
-106.3077810457725
 21
-1.611241080019323
 31
0.0
 70
   160
  1
%%c<>
 71
     5
 42
100.0
  3
AM_JIS$0
100
AcDbAlignedDimension
 13
-61.0
 23
50.0
 33
0.0
 14
-61.0
 24
-49.99999999999996
 34
0.0
 50
90.0
100
AcDbRotatedDimension
1001
ACAD
1000
DSTYLE
1002
{
1070
   179
1070
     0
1070
   271
1070
     0
1002
}
  0
DIMENSION
  5
163D
330
1F
100
AcDbEntity
  8
AM_5
100
AcDbDimension
  2
*D9
 10
-52.0
 20
-62.30086290371446
 30
0.0
 11
-57.54866844983735
 21
-62.30086290371446
 31
0.0
 70
   160
  1
<>
 71
     5
 42
11.0
  3
AM_JIS$0
100
AcDbAlignedDimension
 13
-63.0
 23
-47.99999999999996
 33
0.0
 14
-52.0
 24
-9.499999999999957
 34
0.0
100
AcDbRotatedDimension
1001
ACAD
1000
DSTYLE
1002
{
1070
   179
1070
     0
1070
   271
1070
     0
1002
}
  0
DIMENSION
  5
163E
330
1F
100
AcDbEntity
  8
AM_5
100
AcDbDimension
  2
*D10
 10
-50.99999999999977
 20
-72.47340281994398
 30
0.0
 11
-56.91262347137261
 21
-72.47340281994398
 31
0.0
 70
   160
  1
<>
 71
     5
 42
12.00000000000023
  3
AM_JIS$0
100
AcDbAlignedDimension
 13
-63.0
 23
-47.99999999999996
 33
0.0
 14
-50.99999999999977
 24
-25.39999999999996
 34
0.0
100
AcDbRotatedDimension
1001
ACAD
1000
DSTYLE
1002
{
1070
   179
1070
     0
1070
   271
1070
     0
1002
}
  0
LINE
  5
1642
330
1F
100
AcDbEntity
  8
0
100
AcDbLine
 10
-63.0
 20
48.0
 30
0.0
 11
-63.0
 21
25.75000000000001
 31
0.0
  0
LINE
  5
1643
330
1F
100
AcDbEntity
  8
0
100
AcDbLine
 10
-63.0
 20
-25.74999999999996
 30
0.0
 11
-63.0
 21
-47.99999999999996
 31
0.0
  0
LINE
  5
1645
330
1F
100
AcDbEntity
  8
0
100
AcDbLine
 10
-51.0
 20
25.25000000000002
 30
0.0
 11
-51.0
 21
25.60000000000004
 31
0.0
  0
LINE
  5
1647
330
1F
100
AcDbEntity
  8
0
100
AcDbLine
 10
-25.0
 20
26.40000000000005
 30
0.0
 11
-25.0
 21
36.00000000000001
 31
0.0
  0
LINE
  5
1648
330
1F
100
AcDbEntity
  8
0
100
AcDbLine
 10
-25.0
 20
-35.99999999999996
 30
0.0
 11
-25.0
 21
-26.39999999999997
 31
0.0
  0
LINE
  5
1649
102
{ACAD_REACTORS
330
18F2
102
}
330
1F
100
AcDbEntity
  8
0
100
AcDbLine
 10
-15.40000000000009
 20
-35.99999999999996
 30
0.0
 11
-25.0
 21
-35.99999999999996
 31
0.0
  0
LINE
  5
164A
330
1F
100
AcDbEntity
  8
0
100
AcDbLine
 10
-25.0
 20
36.00000000000001
 30
0.0
 11
-15.40000000000009
 21
36.00000000000001
 31
0.0
  0
LINE
  5
164B
330
1F
100
AcDbEntity
  8
0
100
AcDbLine
 10
-14.40000000000009
 20
37.00000000000001
 30
0.0
 11
-14.40000000000009
 21
72.21202700000005
 31
0.0
  0
LINE
  5
164C
330
1F
100
AcDbEntity
  8
0
100
AcDbLine
 10
-14.40000000000009
 20
-72.21202699999995
 30
0.0
 11
-14.40000000000009
 21
-36.99999999999997
 31
0.0
  0
LINE
  5
164D
330
1F
100
AcDbEntity
  8
0
100
AcDbLine
 10
-14.40000000000009
 20
72.21202700000005
 30
0.0
 11
-10.57092435511958
 21
73.91684134211742
 31
0.0
  0
LINE
  5
164E
330
1F
100
AcDbEntity
  8
0
100
AcDbLine
 10
-1.40000000000009
 20
-77.99999999999996
 30
0.0
 11
-14.40000000000009
 21
-72.21202699999995
 31
0.0
  0
LINE
  5
1650
330
1F
100
AcDbEntity
  8
0
100
AcDbLine
 10
-1.40000000000009
 20
-79.49999999999995
 30
0.0
 11
-1.40000000000009
 21
-77.99999999999996
 31
0.0
  0
LINE
  5
1651
330
1F
100
AcDbEntity
  8
0
100
AcDbLine
 10
-6.172945000000026
 20
-90.22020999999996
 30
0.0
 11
-1.40000000000009
 21
-79.49999999999995
 31
0.0
  0
LINE
  5
1652
330
1F
100
AcDbEntity
  8
0
100
AcDbLine
 10
-5.35547227823082
 20
88.38413620349966
 30
0.0
 11
-6.172945000000026
 21
90.22021000000002
 31
0.0
  0
LINE
  5
1653
330
1F
100
AcDbEntity
  8
0
100
AcDbLine
 10
-22.19875499999989
 20
-91.99999999999995
 30
0.0
 11
-8.913581000000021
 21
-91.99999999999995
 31
0.0
  0
LINE
  5
1654
330
1F
100
AcDbEntity
  8
0
100
AcDbLine
 10
-8.913581000000021
 20
92.0
 30
0.0
 11
-22.19875499999989
 21
92.0
 31
0.0
  0
LINE
  5
1655
330
1F
100
AcDbEntity
  8
0
100
AcDbLine
 10
-27.83690999999999
 20
88.05212100000005
 30
0.0
 11
-40.24983900000006
 21
53.94787900000006
 31
0.0
  0
LINE
  5
1656
330
1F
100
AcDbEntity
  8
0
100
AcDbLine
 10
-40.24983900000006
 20
-53.94787899999997
 30
0.0
 11
-27.83690999999999
 21
-88.05212099999996
 31
0.0
  0
LINE
  5
1657
330
1F
100
AcDbEntity
  8
0
100
AcDbLine
 10
-61.0
 20
-49.99999999999996
 30
0.0
 11
-45.88799500000003
 21
-49.99999999999996
 31
0.0
  0
LINE
  5
1658
330
1F
100
AcDbEntity
  8
0
100
AcDbLine
 10
-45.88799500000003
 20
50.0
 30
0.0
 11
-61.0
 21
50.0
 31
0.0
  0
ARC
  5
1659
330
1F
100
AcDbEntity
  8
1
100
AcDbCircle
 10
-45.88799500000003
 20
-55.99999999999996
 30
0.0
 40
6.0000003065814
100
AcDbArc
 50
20.0000003576005
 51
90.0
  0
ARC
  5
165A
330
1F
100
AcDbEntity
  8
1
100
AcDbCircle
 10
-45.88799500000003
 20
56.00000000000001
 30
0.0
 40
6.0
100
AcDbArc
 50
270.0
 51
339.9999996423995
  0
ARC
  5
165B
330
1F
100
AcDbEntity
  8
1
100
AcDbCircle
 10
-22.19875499999989
 20
86.00000000000001
 30
0.0
 40
6.0
100
AcDbArc
 50
90.0
 51
159.9999963763531
  0
ARC
  5
165C
330
1F
100
AcDbEntity
  8
1
100
AcDbCircle
 10
-22.19875499999989
 20
-85.99999999999996
 30
0.0
 40
5.9999993668888
100
AcDbArc
 50
200.0000036236469
 51
270.0
  0
ARC
  5
165D
102
{ACAD_REACTORS
330
19B4
102
}
330
1F
100
AcDbEntity
  8
1
100
AcDbCircle
 10
-15.40000000000009
 20
-36.99999999999997
 30
0.0
 40
1.0
100
AcDbArc
 50
0.0
 51
90.0
  0
ARC
  5
165E
102
{ACAD_REACTORS
330
19B4
102
}
330
1F
100
AcDbEntity
  8
1
100
AcDbCircle
 10
-15.40000000000009
 20
37.00000000000001
 30
0.0
 40
1.0
100
AcDbArc
 50
270.0
 51
0.0
  0
ARC
  5
1660
330
1F
100
AcDbEntity
  8
1
100
AcDbCircle
 10
-8.913581000000021
 20
89.00000000000002
 30
0.0
 40
2.99999968809932
100
AcDbArc
 50
24.00000413173849
 51
90.0
  0
ARC
  5
1661
330
1F
100
AcDbEntity
  8
1
100
AcDbCircle
 10
-8.913581000000021
 20
-88.99999999999996
 30
0.0
 40
3.0
100
AcDbArc
 50
270.0
 51
335.9999958682615
  0
ARC
  5
1662
102
{ACAD_REACTORS
330
18F2
102
}
330
1F
100
AcDbEntity
  8
1
100
AcDbCircle
 10
-61.0
 20
-47.99999999999996
 30
0.0
 40
2.0
100
AcDbArc
 50
180.0
 51
270.0
  0
ARC
  5
1663
330
1F
100
AcDbEntity
  8
1
100
AcDbCircle
 10
-61.0
 20
48.0
 30
0.0
 40
2.0
100
AcDbArc
 50
90.0
 51
180.0
  0
LINE
  5
1664
330
1F
100
AcDbEntity
  8
0
100
AcDbLine
 10
-61.49652035833096
 20
25.40000000000004
 30
0.0
 11
-62.99652035833096
 21
26.90000000000004
 31
0.0
  0
LINE
  5
1665
330
1F
100
AcDbEntity
  8
AM_0
100
AcDbLine
 10
-63.0
 20
26.90000000000005
 30
0.0
 11
-63.0
 21
10.50000000000004
 31
0.0
  0
LINE
  5
1666
330
1F
100
AcDbEntity
  8
AM_0
100
AcDbLine
 10
-62.0
 20
9.500000000000042
 30
0.0
 11
-52.0
 21
9.500000000000042
 31
0.0
  0
LINE
  5
1667
330
1F
100
AcDbEntity
  8
AM_0
100
AcDbLine
 10
-63.0
 20
10.50000000000004
 30
0.0
 11
-62.0
 21
9.500000000000042
 31
0.0
1001
GENIUS_GENFIL_13
1070
     0
1040
1.0
1040
1.0
1040
20.0
1040
0.0
1002
{
1002
}
1001
GENIUS_GENOBJ-N-CHA_13
1002
{
1000
OWNER
1000
GEN
1002
}
1001
GENIUS_GENODEF_13
1002
{
1000
HIER
1070
     0
1002
}
1002
{
1000
MANEDIT
1070
     0
1002
}
1002
{
1000
NOSEL
1070
     0
1002
}
1002
{
1000
BEHIND
1070
     0
1002
}
1002
{
1000
OTHER
1070
     0
1002
}
1002
{
1000
REACTOR
1002
}
  0
LINE
  5
1668
330
1F
100
AcDbEntity
  8
AM_0
100
AcDbLine
 10
-52.0
 20
9.500000000000042
 30
0.0
 11
-52.0
 21
-9.499999999999957
 31
0.0
  0
LINE
  5
1669
330
1F
100
AcDbEntity
  8
AM_0
100
AcDbLine
 10
-52.0
 20
-9.499999999999957
 30
0.0
 11
-62.0
 21
-9.499999999999957
 31
0.0
  0
LINE
  5
166A
330
1F
100
AcDbEntity
  8
AM_0
100
AcDbLine
 10
-63.0
 20
-10.49999999999995
 30
0.0
 11
-62.9999999999999
 21
-25.74999999999996
 31
0.0
  0
LINE
  5
166B
330
1F
100
AcDbEntity
  8
AM_0
100
AcDbLine
 10
-62.0
 20
-9.499999999999957
 30
0.0
 11
-63.0
 21
-10.49999999999995
 31
0.0
1001
GENIUS_GENFIL_13
1070
     0
1040
1.0
1040
1.0
1040
20.0
1040
0.0
1002
{
1002
}
1001
GENIUS_GENOBJ-N-CHA_13
1002
{
1000
OWNER
1000
GEN
1002
}
1001
GENIUS_GENODEF_13
1002
{
1000
HIER
1070
     0
1002
}
1002
{
1000
MANEDIT
1070
     0
1002
}
1002
{
1000
NOSEL
1070
     0
1002
}
1002
{
1000
BEHIND
1070
     0
1002
}
1002
{
1000
OTHER
1070
     0
1002
}
1002
{
1000
REACTOR
1002
}
  0
LINE
  5
166C
330
1F
100
AcDbEntity
  8
AM_0
100
AcDbLine
 10
-61.49652035833097
 20
25.40000000000005
 30
0.0
 11
-61.5
 21
9.500000000000072
 31
0.0
  0
LINE
  5
166D
330
1F
100
AcDbEntity
  8
AM_0
100
AcDbLine
 10
-61.5
 20
-9.499999999999957
 30
0.0
 11
-61.5
 21
-25.39999999999995
 31
0.0
  0
LINE
  5
166E
330
1F
100
AcDbEntity
  8
AM_0
100
AcDbLine
 10
-51.0
 20
25.40000000000005
 30
0.0
 11
-51.0
 21
-25.39999999999996
 31
0.0
  0
LINE
  5
166F
330
1F
100
AcDbEntity
  8
AM_0
100
AcDbLine
 10
-25.0
 20
26.40000000000005
 30
0.0
 11
-25.0
 21
26.40000000000004
 31
0.0
  0
LINE
  5
1671
102
{ACAD_REACTORS
330
1689
102
}
330
1F
100
AcDbEntity
  8
AM_7
100
AcDbLine
 10
-54.79400000000009
 20
0.0000000000000444
 30
0.0
 11
-19.78483399377001
 21
0.0000000000000444
 31
0.0
1001
GENIUS_GENOBJ-N-CEN_13
1002
{
1000
OWNER
1000
GEN
1002
}
1001
GENIUS_GENODEF_13
1002
{
1000
HIER
1070
     0
1002
}
1002
{
1000
MANEDIT
1070
     0
1002
}
1002
{
1000
NOSEL
1070
     0
1002
}
1002
{
1000
BEHIND
1070
     0
1002
}
1002
{
1000
OTHER
1070
     0
1002
}
1002
{
1000
REACTOR
1002
}
1001
GENIUS_GENCEN_19
1002
{
1040
2.793999999999999
1002
}
  0
LINE
  5
1673
330
1F
100
AcDbEntity
  8
0
100
AcDbLine
 10
-51.0
 20
-25.24999999999996
 30
0.0
 11
-51.0
 21
-25.59999999999995
 31
0.0
  0
LINE
  5
1674
330
1F
100
AcDbEntity
  8
0
100
AcDbLine
 10
-61.5
 20
-25.39999999999995
 30
0.0
 11
-26.0
 21
-25.39999999999995
 31
0.0
  0
LINE
  5
1676
330
1F
100
AcDbEntity
  8
0
100
AcDbLine
 10
-61.49644376244509
 20
-25.39644376244505
 30
0.0
 11
-62.9964437624451
 21
-26.89644376244505
 31
0.0
  0
DIMENSION
  5
1687
102
{ACAD_XDICTIONARY
360
1688
102
}
102
{ACAD_REACTORS
330
1689
102
}
330
1F
100
AcDbEntity
  8
AM_5
100
AcDbDimension
  2
*D12
 10
-122.8240377755496
 20
92.00000000000004
 30
0.0
 11
-122.8240377755496
 21
0.1770427762519535
 31
0.0
 70
   160
  1
%%c<>
 71
     5
 42
184.0
  3
AM_JIS$0
100
AcDbAlignedDimension
 13
-54.79400000000009
 23
0.0000000000000444
 33
0.0
 14
-22.19875499999989
 24
92.0
 34
0.0
 50
90.0
100
AcDbRotatedDimension
1001
ACAD
1000
DSTYLE
1002
{
1070
    75
1070
     1
1070
   144
1040
2.0
1070
   173
1070
     1
1070
   179
1070
     0
1070
   271
1070
     0
1070
   343
1005
3DD
1002
}
  0
LINE
  5
17FF
330
1F
100
AcDbEntity
  8
AM_0
100
AcDbLine
 10
-61.49652035833096
 20
25.40000000000004
 30
0.0
 11
-26.0
 21
25.40000000000004
 31
0.0
  0
ARC
  5
1804
330
1F
100
AcDbEntity
  8
AM_0
100
AcDbCircle
 10
-26.0
 20
26.40000000000004
 30
0.0
 40
1.0
100
AcDbArc
 50
270.0
 51
0.0
1001
GENIUS_GENOBJ-N-FIL_13
1002
{
1000
OWNER
1000
GEN
1002
}
1001
GENIUS_GENODEF_13
1002
{
1000
HIER
1070
     0
1002
}
1002
{
1000
MANEDIT
1070
     0
1002
}
1002
{
1000
NOSEL
1070
     0
1002
}
1002
{
1000
BEHIND
1070
     0
1002
}
1002
{
1000
OTHER
1070
     0
1002
}
1002
{
1000
REACTOR
1002
}
  0
LINE
  5
1806
330
1F
100
AcDbEntity
  8
AM_0
100
AcDbLine
 10
-25.0
 20
26.40000000000005
 30
0.0
 11
-25.00000000000003
 21
-26.40000000000005
 31
0.0
  0
ARC
  5
18D5
330
1F
100
AcDbEntity
  8
AM_0
100
AcDbCircle
 10
-26.0
 20
-26.39999999999995
 30
0.0
 40
1.0
100
AcDbArc
 50
0.0
 51
90.00000000000005
1001
GENIUS_GENOBJ-N-FIL_13
1002
{
1000
OWNER
1000
GEN
1002
}
1001
GENIUS_GENODEF_13
1002
{
1000
HIER
1070
     0
1002
}
1002
{
1000
MANEDIT
1070
     0
1002
}
1002
{
1000
NOSEL
1070
     0
1002
}
1002
{
1000
BEHIND
1070
     0
1002
}
1002
{
1000
OTHER
1070
     0
1002
}
1002
{
1000
REACTOR
1002
}
  0
DIMENSION
  5
18E6
102
{ACAD_XDICTIONARY
360
18F1
102
}
102
{ACAD_REACTORS
330
18F2
102
}
330
1F
100
AcDbEntity
  8
AM_5
100
AcDbDimension
  2
*D13
 10
-25.0
 20
-80.60751034536234
 30
0.0
 11
-44.0
 21
-77.20751034536234
 31
0.0
 70
    32
 71
     5
 42
38.0
  3
AM_JIS$0
100
AcDbAlignedDimension
 13
-63.0
 23
-47.99999999999996
 33
0.0
 14
-25.0
 24
-35.99999999999996
 34
0.0
 50
0.0000000000001018
100
AcDbRotatedDimension
1001
ACAD
1000
DSTYLE
1002
{
1070
   179
1070
     0
1070
   271
1070
     0
1002
}
  0
LINE
  5
194C
330
1F
100
AcDbEntity
  8
AM_0
100
AcDbLine
 10
-14.70097105864619
 20
81.79478624802833
 30
0.0
 11
-14.78016168092512
 21
83.45298755531773
 31
0.0
  0
LINE
  5
195F
330
1F
100
AcDbEntity
  8
0
  6
ACISOTGL
100
AcDbLine
 10
-1.429862420648816
 20
-76.70048493685318
 30
0.0
 11
-4.811553739204413
 21
-75.19485895697332
 31
0.0
  0
LINE
  5
1960
330
1F
100
AcDbEntity
  8
0
  6
ACISOTGL
100
AcDbLine
 10
-0.087692193562134
 20
-80.196959891525
 30
0.0
 11
-1.593317766705381
 21
-83.57865029653522
 31
0.0
  0
LINE
  5
1961
330
1F
100
AcDbEntity
  8
0
  6
ACISOTGL
100
AcDbLine
 10
-8.193245057760206
 20
-73.68923297709354
 30
0.0
 11
-4.811553739204413
 21
-75.19485895697332
 31
0.0
  0
SPLINE
  5
1962
330
1F
100
AcDbEntity
  8
0
  6
ACISOTGL
100
AcDbSpline
210
0.0
220
0.0
230
1.0
 70
     8
 71
     3
 72
    11
 73
     7
 74
     5
 42
0.0000000001
 43
0.0000000001
 44
0.0000000001
 40
0.0
 40
0.0
 40
0.0
 40
0.0
 40
0.1043112552938864
 40
0.2086220543370027
 40
0.312932475048418
 40
0.4172434765871745
 40
0.4172434765871745
 40
0.4172434765871745
 40
0.4172434765871745
 10
-1.094423051006288
 20
-76.9438263943627
 30
0.0
 10
-1.118510841565481
 20
-76.91870186193702
 30
0.0
 10
-1.16668631732541
 20
-76.86845290697878
 30
0.0
 10
-1.248481900808848
 20
-76.80332429156482
 30
0.0
 10
-1.335782724743519
 20
-76.74578487385947
 30
0.0
 10
-1.398502463807264
 20
-76.71558494388202
 30
0.0
 10
-1.429862420648816
 20
-76.70048493685318
 30
0.0
 11
-1.094423051006288
 21
-76.9438263943627
 31
0.0
 11
-1.168275184359969
 21
-76.87016025302153
 31
0.0
 11
-1.249399553008089
 21
-76.80458907331233
 31
0.0
 11
-1.336912357946515
 21
-76.74782488706077
 31
0.0
 11
-1.429862420648816
 21
-76.70048493685318
 31
0.0
  0
LINE
  5
1963
330
1F
100
AcDbEntity
  8
0
  6
ACISOTGL
100
AcDbLine
 10
-0.9573993705192831
 20
-77.09775803580062
 30
0.0
 11
-1.089574759260726
 21
-76.94923496803331
 31
0.0
  0
LINE
  5
1964
330
1F
100
AcDbEntity
  8
0
  6
ACISOTGL
100
AcDbLine
 10
-0.261459073264291
 20
-77.87977978886162
 30
0.0
 11
-0.9573993705192831
 21
-77.09775803580062
 31
0.0
  0
LINE
  5
1965
330
1F
100
AcDbEntity
  8
0
  6
ACISOTGL
100
AcDbLine
 10
-3.496216845532501
 20
-87.43280466522033
 30
0.0
 11
-3.347693270956368
 21
-87.30063059676096
 31
0.0
  0
LINE
  5
1966
330
1F
100
AcDbEntity
  8
0
  6
ACISOTGL
100
AcDbLine
 10
-4.278238598593616
 20
-88.12874496247538
 30
0.0
 11
-3.496216845532501
 21
-87.43280466522033
 31
0.0
  0
LINE
  5
1968
330
1F
100
AcDbEntity
  8
0
  6
ACISOTGL
100
AcDbLine
 10
-4.93721648042208
 20
-88.38170287119316
 30
0.0
 11
-5.35547227823082
 21
-88.38413620349957
 31
0.0
  0
SPLINE
  5
1969
330
1F
100
AcDbEntity
  8
0
  6
ACISOTGL
100
AcDbSpline
210
0.0
220
0.0
230
1.0
 70
     8
 71
     3
 72
    11
 73
     7
 74
     5
 42
0.0000000001
 43
0.0000000001
 44
0.0000000001
 40
0.0
 40
0.0
 40
0.0
 40
0.0
 40
0.104311255293937
 40
0.208622312282179
 40
0.3129337207666264
 40
0.4172446701487865
 40
0.4172446701487865
 40
0.4172446701487865
 40
0.4172446701487865
 10
-0.0012389720296255
 20
-79.79166828420169
 30
0.0
 10
-0.0023282023460747
 20
-79.82645731221253
 30
0.0
 10
-0.0045066609082418
 20
-79.89603530209696
 30
0.0
 10
-0.0217115560051914
 20
-79.99916787537395
 30
0.0
 10
-0.0480877825336895
 20
-80.1003440238937
 30
0.0
 10
-0.0744907425871049
 20
-80.1647546495627
 30
0.0
 10
-0.087692193562134
 20
-80.196959891525
 30
0.0
 11
-0.0012389720296255
 21
-79.79166828420169
 31
0.0
 11
-0.0068295329583066
 21
-79.89582961872415
 31
0.0
 11
-0.0232400909551984
 21
-79.99884170634611
 31
0.0
 11
-0.0502925314791014
 21
-80.09958412740948
 31
0.0
 11
-0.087692193562134
 21
-80.196959891525
 31
0.0
  0
LINE
  5
196A
330
1F
100
AcDbEntity
  8
0
  6
ACISOTGL
100
AcDbLine
 10
-0.0024113122177312
 20
-79.58558895652548
 30
0.0
 11
-0.0012541177410128
 21
-79.78440519700638
 31
0.0
  0
LINE
  5
196B
330
1F
100
AcDbEntity
  8
0
  6
ACISOTGL
100
AcDbLine
 10
-0.0085015712832046
 20
-78.53875858423562
 30
0.0
 11
-0.0024113122177312
 21
-79.58558895652548
 31
0.0
  0
LINE
  5
196C
330
1F
100
AcDbEntity
  8
0
  6
ACISOTGL
100
AcDbLine
 10
-9.851446365049438
 20
-73.61004235481458
 30
0.0
 11
-8.804615992759577
 21
-73.60395209574928
 31
0.0
  0
LINE
  5
196D
330
1F
100
AcDbEntity
  8
0
  6
ACISOTGL
100
AcDbLine
 10
-8.804615992759577
 20
-73.60395209574928
 30
0.0
 11
-8.605799245469937
 21
-73.60279622155461
 31
0.0
  0
SPLINE
  5
196E
330
1F
100
AcDbEntity
  8
0
  6
ACISOTGL
100
AcDbSpline
210
0.0
220
0.0
230
1.0
 70
     8
 71
     3
 72
    11
 73
     7
 74
     5
 42
0.0000000001
 43
0.0000000001
 44
0.0000000001
 40
0.0
 40
0.0
 40
0.0
 40
0.0
 40
0.1043112552940837
 40
0.2086220543370193
 40
0.3129324750485064
 40
0.4172434765871289
 40
0.4172434765871289
 40
0.4172434765871289
 40
0.4172434765871289
 10
-8.598535751538006
 20
-73.60278016229781
 30
0.0
 10
-8.563746707370537
 20
-73.60386928559257
 30
0.0
 10
-8.494168771200783
 20
-73.60604752741832
 30
0.0
 10
-8.391036849291683
 20
-73.62325394210792
 30
0.0
 10
-8.289861075507966
 20
-73.64962971221602
 30
0.0
 10
-8.225450456785097
 20
-73.67603186429879
 30
0.0
 10
-8.193245057760206
 20
-73.68923297709354
 30
0.0
 11
-8.598535751538006
 21
-73.60278016229781
 31
0.0
 11
-8.494374417015393
 21
-73.60837072322635
 31
0.0
 11
-8.391362736130247
 21
-73.62478219476891
 31
0.0
 11
-8.290621228612279
 21
-73.65183422855594
 31
0.0
 11
-8.193245057760206
 21
-73.68923297709354
 31
0.0
  0
SPLINE
  5
196F
330
1F
100
AcDbEntity
  8
0
  6
ACISOTGL
100
AcDbSpline
210
0.0
220
0.0
230
1.0
 70
     8
 71
     3
 72
    11
 73
     7
 74
     5
 42
0.0000000001
 43
0.0000000001
 44
0.0000000001
 40
0.0
 40
0.0
 40
0.0
 40
0.0
 40
0.1800809736896313
 40
0.3602119815254698
 40
0.540342989361487
 40
0.7204248334047085
 40
0.7204248334047085
 40
0.7204248334047085
 40
0.7204248334047085
 10
-0.2614590732642341
 20
-77.8797797888617
 30
0.0
 10
-0.2238126159037029
 20
-77.9267687333899
 30
0.0
 10
-0.148509241397172
 20
-78.02075967797168
 30
0.0
 10
-0.0705038193068953
 20
-78.1845185882511
 30
0.0
 10
-0.0188968495291025
 20
-78.35841128093432
 30
0.0
 10
-0.0119663487277945
 20
-78.47864828666686
 30
0.0
 10
-0.0085015712832046
 20
-78.53875858423562
 30
0.0
 11
-0.2614590732642341
 21
-77.8797797888617
 31
0.0
 11
-0.1543436248041416
 21
-78.02453972042496
 31
0.0
 11
-0.0749039826174851
 21
-78.18620766169103
 31
0.0
 11
-0.0257621740780678
 21
-78.35950585163395
 31
0.0
 11
-0.0085015712832046
 21
-78.53875858423562
 31
0.0
  0
SPLINE
  5
1970
330
1F
100
AcDbEntity
  8
0
  6
ACISOTGL
100
AcDbSpline
210
0.0
220
0.0
230
1.0
 70
     8
 71
     3
 72
    11
 73
     7
 74
     5
 42
0.0000000001
 43
0.0000000001
 44
0.0000000001
 40
0.0
 40
0.0
 40
0.0
 40
0.0
 40
0.1800818440432847
 40
0.3602128518791087
 40
0.5403438597151152
 40
0.7204248334048009
 40
0.7204248334048009
 40
0.7204248334048009
 40
0.7204248334048009
 10
-10.51042465361465
 20
-73.8630011770778
 30
0.0
 10
-10.46343560838607
 20
-73.82535436864661
 30
0.0
 10
-10.36944468954145
 20
-73.7500504739026
 30
0.0
 10
-10.20568543180587
 20
-73.67204500355497
 30
0.0
 10
-10.03179302962332
 20
-73.62043823040863
 30
0.0
 10
-9.911556352871148
 20
-73.61350732577388
 30
0.0
 10
-9.851446365049438
 20
-73.61004235481458
 30
0.0
 11
-10.51042465361465
 21
-73.8630011770778
 31
0.0
 11
-10.36566431531466
 21
-73.75588481507226
 31
0.0
 11
-10.20399637404861
 21
-73.67644517288559
 31
0.0
 11
-10.03069818410569
 21
-73.62730336434619
 31
0.0
 11
-9.851446365049438
 21
-73.61004235481458
 31
0.0
  0
SPLINE
  5
1971
330
1F
100
AcDbEntity
  8
0
  6
ACISOTGL
100
AcDbSpline
210
0.0
220
0.0
230
1.0
 70
     8
 71
     3
 72
    11
 73
     7
 74
     5
 42
0.0000000001
 43
0.0000000001
 44
0.0000000001
 40
0.0
 40
0.0
 40
0.0
 40
0.0
 40
0.180081844043146
 40
0.3602120839503158
 40
0.540343732321708
 40
0.7204242135851594
 40
0.7204242135851594
 40
0.7204242135851594
 40
0.7204242135851594
 10
-4.278238598593673
 20
-88.12874496247529
 30
0.0
 10
-4.325227602024109
 20
-88.16639186882468
 30
0.0
 10
-4.419218236884391
 20
-88.24169579889295
 30
0.0
 10
-4.582978034662058
 20
-88.3196998560944
 30
0.0
 10
-4.756869734109054
 20
-88.37130837735614
 30
0.0
 10
-4.877106591418989
 20
-88.37823836804261
 30
0.0
 10
-4.937216480422249
 20
-88.38170287119316
 30
0.0
 11
-4.278238598593673
 21
-88.12874496247529
 31
0.0
 11
-4.422998936893407
 21
-88.23586132448095
 31
0.0
 11
-4.58466647142299
 21
-88.31530005312222
 31
0.0
 11
-4.757965068102492
 21
-88.36444277520708
 31
0.0
 11
-4.937216480422249
 21
-88.38170287119316
 31
0.0
  0
LINE
  5
1972
330
1F
100
AcDbEntity
  8
AM_0
  6
ACISOTGL
100
AcDbLine
 10
-3.098943746585091
 20
-86.96034161509079
 30
0.0
 11
-1.593317766705381
 21
-83.57865029653522
 31
0.0
  0
LINE
  5
1973
330
1F
100
AcDbEntity
  8
AM_4
  6
ACISOTGL
100
AcDbLine
 10
0.0
 20
-79.99999999999996
 30
0.0
 11
-0.0001790544992275
 21
-79.96922451591903
 31
0.0
  0
LINE
  5
1974
330
1F
100
AcDbEntity
  8
AM_0
  6
ACISOTGL
100
AcDbLine
 10
-0.0012541177410128
 20
-79.78440519700638
 30
0.0
 11
-0.0012389720296255
 21
-79.79166828420169
 31
0.0
  0
LINE
  5
1975
330
1F
100
AcDbEntity
  8
AM_0
  6
ACISOTGL
100
AcDbLine
 10
-3.347693270956368
 20
-87.30063059676096
 30
0.0
 11
-3.098943746585091
 21
-86.96034161509079
 31
0.0
  0
DIMENSION
  5
19A8
102
{ACAD_XDICTIONARY
360
19B3
102
}
102
{ACAD_REACTORS
330
19B4
102
}
330
1F
100
AcDbEntity
  8
AM_5
100
AcDbDimension
  2
*D14
 10
-7.413111002317918
 20
36.00000000000001
 30
0.0
 11
-10.81348501806596
 21
0.0000000000000293
 31
0.0
 70
    32
  1
%%c<>
 71
     5
 42
71.99999999999997
  3
AM_JIS$0
100
AcDbAlignedDimension
 13
-15.40000000000009
 23
-35.99999999999996
 33
0.0
 14
-15.40000000000009
 24
36.00000000000001
 34
0.0
 50
90.0
100
AcDbRotatedDimension
1001
ACAD
1000
DSTYLE
1002
{
1070
   179
1070
     0
1070
   271
1070
     0
1002
}
  0
TEXT
  5
19FB
330
1F
100
AcDbEntity
  8
0
370
    -3
100
AcDbText
 10
-44.82778504410247
 20
-104.5804794109268
 30
0.0
 40
3.799999999999998
  1
DNH12160R
  7
ACISOTS
100
AcDbText
  0
ENDSEC
  0
SECTION
  2
OBJECTS
  0
DICTIONARY
  5
C
330
0
100
AcDbDictionary
281
     1
  3
ACAD_COLOR
350
BE
  3
ACAD_GROUP
350
D
  3
ACAD_LAYOUT
350
1A
  3
ACAD_MATERIAL
350
BD
  3
ACAD_MLINESTYLE
350
17
  3
ACAD_PLOTSETTINGS
350
19
  3
ACAD_PLOTSTYLENAME
350
E
  3
ACAD_TABLESTYLE
350
11A
  3
ACDBHEADERROUNDTRIPXREC
350
1B44
  3
AcDbVariableDictionary
350
94
  3
AcmDictionary
350
5B
  3
AMG
350
41
  3
AMGSNAPSETTINGS
350
1B8
  3
DWGPROPS
350
1B43
  0
DICTIONARY
  5
34B
330
2
100
AcDbDictionary
280
     1
281
     1
  3
ACAD_LAYERSTATES
360
461
  3
AMLAYER_GROUPCOLORS
360
34C
  0
DICTIONARY
  5
8F
330
1F
100
AcDbDictionary
280
     1
281
     1
  3
ACAD_SORTENTS
360
1805
  0
DICTIONARY
  5
13E7
330
13E6
100
AcDbDictionary
280
     1
281
     1
  3
ACAD_DIMASSOC
360
13E8
  0
DICTIONARY
  5
143E
330
1433
100
AcDbDictionary
280
     1
281
     1
  3
ACAD_DIMASSOC
360
143F
  0
DICTIONARY
  5
1635
330
1634
100
AcDbDictionary
280
     1
281
     1
  3
ACAD_DIMASSOC
360
1636
  0
DICTIONARY
  5
1688
330
1687
100
AcDbDictionary
280
     1
281
     1
  3
ACAD_DIMASSOC
360
1689
  0
DICTIONARY
  5
18F1
330
18E6
100
AcDbDictionary
280
     1
281
     1
  3
ACAD_DIMASSOC
360
18F2
  0
DICTIONARY
  5
19B3
330
19A8
100
AcDbDictionary
280
     1
281
     1
  3
ACAD_DIMASSOC
360
19B4
  0
DICTIONARY
  5
BE
102
{ACAD_REACTORS
330
C
102
}
330
C
100
AcDbDictionary
281
     1
  0
DICTIONARY
  5
D
102
{ACAD_REACTORS
330
C
102
}
330
C
100
AcDbDictionary
281
     1
  0
DICTIONARY
  5
1A
102
{ACAD_REACTORS
330
C
102
}
330
C
100
AcDbDictionary
281
     1
  3
Model
350
22
  3
レイアウト1
350
1E
  3
レイアウト2
350
26
  0
DICTIONARY
  5
BD
102
{ACAD_REACTORS
330
C
102
}
330
C
100
AcDbDictionary
281
     1
  0
DICTIONARY
  5
17
102
{ACAD_REACTORS
330
C
102
}
330
C
100
AcDbDictionary
281
     1
  3
Standard
350
18
  0
DICTIONARY
  5
19
102
{ACAD_REACTORS
330
C
102
}
330
C
100
AcDbDictionary
281
     1
  0
ACDBDICTIONARYWDFLT
  5
E
102
{ACAD_REACTORS
330
C
102
}
330
C
100
AcDbDictionary
281
     1
  3
Normal
350
F
100
AcDbDictionaryWithDefault
340
F
  0
DICTIONARY
  5
11A
102
{ACAD_REACTORS
330
C
102
}
330
C
100
AcDbDictionary
281
     1
  3
Standard
350
11B
  0
DICTIONARY
  5
1B44
102
{ACAD_REACTORS
330
C
102
}
330
C
100
AcDbDictionary
281
     1
  0
DICTIONARY
  5
94
102
{ACAD_REACTORS
330
C
102
}
330
C
100
AcDbDictionary
281
     1
  3
CTABLESTYLE
350
138
  3
DIMASSOC
350
96
  3
INDEXCTL
350
95
  3
PROJECTNAME
350
1B41
  0
DICTIONARY
  5
5B
102
{ACAD_REACTORS
330
C
102
}
330
C
100
AcDbDictionary
281
     1
  3
AcmBOM
350
1B5
  3
AcmStdDictionary
350
61
  3
AMDTSECTSYM_ARROWCOLOR
350
123
  0
DICTIONARY
  5
41
102
{ACAD_REACTORS
330
C
102
}
330
C
100
AcDbDictionary
281
     1
  0
DICTIONARY
  5
1B8
102
{ACAD_REACTORS
330
C
102
}
330
C
100
AcDbDictionary
281
     1
  0
XRECORD
  5
1B43
102
{ACAD_REACTORS
330
C
102
}
330
C
100
AcDbXrecord
280
     1
  1
DWGPROPS COOKIE
  2

  3

  4

  6

  7

  8

  9

300
AmdtFileType=84
301
=
302
=
303
=
304
=
305
=
306
=
307
=
308
=
309
=
 40
0.0419954282407408
 41
2455412.730832604
 42
2455555.426221065
  1

 90
        1
  0
DICTIONARY
  5
461
102
{ACAD_REACTORS
330
34B
102
}
330
34B
100
AcDbDictionary
281
     1
  0
DICTIONARY
  5
34C
102
{ACAD_REACTORS
330
34B
102
}
330
34B
100
AcDbDictionary
280
     1
281
     1
  0
SORTENTSTABLE
  5
1805
102
{ACAD_REACTORS
330
8F
102
}
330
8F
100
AcDbSortentsTable
330
1F
331
1433
  5
1433
331
1661
  5
1661
331
1664
  5
1664
331
13C4
  5
13C4
331
13E4
  5
13E4
331
13C1
  5
13C1
331
1631
  5
1631
331
1667
  5
1667
331
1634
  5
1634
331
166A
  5
166A
331
13CA
  5
13CA
331
1651
  5
1651
331
13CD
  5
13CD
331
1654
  5
1654
331
166D
  5
166D
331
1804
  5
1671
331
13C7
  5
13C7
331
165A
  5
165A
331
13D0
  5
13D0
331
165D
  5
165D
331
13BE
  5
13BE
331
1647
  5
1647
331
13D9
  5
13D9
331
13D6
  5
13D6
331
163D
  5
163D
331
164A
  5
164A
331
1657
  5
1657
331
164D
  5
164D
331
13DF
  5
13DF
331
13DC
  5
13DC
331
13E1
  5
13E1
331
1662
  5
1662
331
13E5
  5
13E5
331
13C2
  5
13C2
331
13E2
  5
13E2
331
17FF
  5
1804
331
1668
  5
1668
331
13C8
  5
13C8
331
1665
  5
1665
331
13C5
  5
13C5
331
1652
  5
1652
331
166B
  5
166B
331
162F
  5
162F
331
166E
  5
166E
331
13D1
  5
13D1
331
1658
  5
1658
331
13CE
  5
13CE
331
165B
  5
165B
331
1645
  5
1645
331
163E
  5
163E
331
1642
  5
1642
331
13BF
  5
13BF
331
13D7
  5
13D7
331
165E
  5
165E
331
1648
  5
1648
331
1655
  5
1655
331
164B
  5
164B
331
1676
  5
1687
331
13DD
  5
13DD
331
1673
  5
1674
331
13DA
  5
13DA
331
13CB
  5
13CB
331
1687
  5
17FF
331
164E
  5
164E
331
1632
  5
1632
331
13C0
  5
13C0
331
13E0
  5
13E0
331
13E3
  5
13E3
331
1663
  5
1663
331
1666
  5
1666
331
13C6
  5
13C6
331
13E6
  5
13E6
331
13C3
  5
13C3
331
1650
  5
1650
331
1633
  5
1633
331
1669
  5
1669
331
166C
  5
166C
331
13CF
  5
13CF
331
1656
  5
1656
331
13CC
  5
13CC
331
1653
  5
1653
331
13C9
  5
13C9
331
1659
  5
1659
331
1643
  5
1643
331
165C
  5
165C
331
13D2
  5
13D2
331
1649
  5
1649
331
1674
  5
1675
331
13DB
  5
13DB
331
1671
  5
1673
331
13D8
  5
13D8
331
13DE
  5
13DE
331
164C
  5
164C
331
166F
  5
166F
331
1630
  5
1630
331
1660
  5
1660
  0
DIMASSOC
  5
13E8
102
{ACAD_REACTORS
330
13E7
102
}
330
13E7
100
AcDbDimAssoc
330
13E6
 90
       12
 70
     1
 71
     0
  1
AcDbOsnapPointRef
 72
    13
331
13E3
 73
     2
 91
        0
 40
0.0
 10
0.0
 20
0.0
 30
2.000000000000000E+50
 75
     0
  1
AcDbOsnapPointRef
 72
     1
331
13E3
 73
     2
 91
        0
 40
0.0
 10
0.0
 20
0.0
 30
2.000000000000000E+50
 75
     0
  0
DIMASSOC
  5
143F
102
{ACAD_REACTORS
330
143E
102
}
330
143E
100
AcDbDimAssoc
330
1433
 90
        2
 70
     0
 71
     0
  1
AcDbOsnapPointRef
 72
    13
331
13E4
 73
     0
 91
        0
 40
0.0
 10
0.0
 20
0.0
 30
2.000000000000000E+50
 75
     0
  0
DIMASSOC
  5
1636
102
{ACAD_REACTORS
330
1635
102
}
330
1635
100
AcDbDimAssoc
330
1634
 90
        1
 70
     0
 71
     0
  1
AcDbOsnapPointRef
 72
    13
331
162F
 73
     0
 91
        0
 40
0.0
 10
0.0
 20
0.0
 30
2.000000000000000E+50
 75
     0
  0
DIMASSOC
  5
1689
102
{ACAD_REACTORS
330
1688
102
}
330
1688
100
AcDbDimAssoc
330
1687
 90
        1
 70
     0
 71
     0
  1
AcDbOsnapPointRef
 72
    13
331
1671
 73
     0
 91
        0
 40
0.0
 10
0.0
 20
0.0
 30
2.000000000000000E+50
 75
     0
  0
DIMASSOC
  5
18F2
102
{ACAD_REACTORS
330
18F1
102
}
330
18F1
100
AcDbDimAssoc
330
18E6
 90
        3
 70
     0
 71
     0
  1
AcDbOsnapPointRef
 72
    13
331
1662
 73
     0
 91
        0
 40
0.0
 10
0.0
 20
0.0
 30
2.000000000000000E+50
 75
     0
  1
AcDbOsnapPointRef
 72
     1
331
1649
 73
     0
 91
        0
 40
0.0
 10
0.0
 20
0.0
 30
2.000000000000000E+50
 75
     0
  0
DIMASSOC
  5
19B4
102
{ACAD_REACTORS
330
19B3
102
}
330
19B3
100
AcDbDimAssoc
330
19A8
 90
        3
 70
     0
 71
     0
  1
AcDbOsnapPointRef
 72
     1
331
165D
 73
     0
 91
        0
 40
0.0
 10
0.0
 20
0.0
 30
2.000000000000000E+50
 75
     0
  1
AcDbOsnapPointRef
 72
    13
331
165E
 73
     0
 91
        0
 40
0.0
 10
0.0
 20
0.0
 30
2.000000000000000E+50
 75
     0
  0
LAYOUT
  5
22
102
{ACAD_XDICTIONARY
360
1B47
102
}
102
{ACAD_REACTORS
330
1A
102
}
330
1A
100
AcDbPlotSettings
  1

  2
SII LP-2150 (D-SCAN C2)
  4
User119
  6

 40
3.174999952316283
 41
3.174999952316283
 42
3.175003051757812
 43
3.17498779296875
 44
210.0579986572266
 45
296.9259948730469
 46
0.0
 47
0.0
 48
0.0
 49
0.0
140
0.0
141
0.0
142
1.0
143
1.580715189147934
 70
 11952
 72
     1
 73
     1
 74
     0
  7
sei_cad.ctb
 75
     0
147
0.63262503382348
148
19.65895403440572
149
1.143774069319646
100
AcDbLayout
  1
Model
 70
     1
 71
     0
 10
0.0
 20
0.0
 11
12.0
 21
9.0
 12
0.0
 22
0.0
 32
0.0
 14
0.0
 24
0.0
 34
0.0
 15
0.0
 25
0.0
 35
0.0
146
0.0
 13
0.0
 23
0.0
 33
0.0
 16
1.0
 26
0.0
 36
0.0
 17
0.0
 27
1.0
 37
0.0
 76
     0
330
1F
1001
ACAD_PSEXT
1000
SII LP-2150 (D-SCAN C2)
1000
SII LP-2150 (D-SCAN C2)
1000
133.153.16.130#3000
1000

1070
     0
  0
LAYOUT
  5
1E
102
{ACAD_XDICTIONARY
360
1B45
102
}
102
{ACAD_REACTORS
330
1A
102
}
330
1A
100
AcDbPlotSettings
  1

  2

  4

  6

 40
0.0
 41
0.0
 42
0.0
 43
0.0
 44
0.0
 45
0.0
 46
0.0
 47
0.0
 48
0.0
 49
0.0
140
0.0
141
0.0
142
1.0
143
1.0
 70
   688
 72
     0
 73
     0
 74
     5
  7
sei_cad.ctb
 75
    16
147
1.0
148
0.0
149
0.0
100
AcDbLayout
  1
レイアウト1
 70
     1
 71
     1
 10
0.0
 20
0.0
 11
420.0
 21
297.0
 12
0.0
 22
0.0
 32
0.0
 14
1.000000000000000E+20
 24
1.000000000000000E+20
 34
1.000000000000000E+20
 15
-1.000000000000000E+20
 25
-1.000000000000000E+20
 35
-1.000000000000000E+20
146
0.0
 13
0.0
 23
0.0
 33
0.0
 16
1.0
 26
0.0
 36
0.0
 17
0.0
 27
1.0
 37
0.0
 76
     0
330
1B
  0
LAYOUT
  5
26
102
{ACAD_XDICTIONARY
360
1B49
102
}
102
{ACAD_REACTORS
330
1A
102
}
330
1A
100
AcDbPlotSettings
  1

  2

  4

  6

 40
0.0
 41
0.0
 42
0.0
 43
0.0
 44
0.0
 45
0.0
 46
0.0
 47
0.0
 48
0.0
 49
0.0
140
0.0
141
0.0
142
1.0
143
1.0
 70
   688
 72
     0
 73
     0
 74
     5
  7
sei_cad.ctb
 75
    16
147
1.0
148
0.0
149
0.0
100
AcDbLayout
  1
レイアウト2
 70
     1
 71
     2
 10
0.0
 20
0.0
 11
12.0
 21
9.0
 12
0.0
 22
0.0
 32
0.0
 14
0.0
 24
0.0
 34
0.0
 15
0.0
 25
0.0
 35
0.0
146
0.0
 13
0.0
 23
0.0
 33
0.0
 16
1.0
 26
0.0
 36
0.0
 17
0.0
 27
1.0
 37
0.0
 76
     0
330
23
  0
MLINESTYLE
  5
18
102
{ACAD_REACTORS
330
17
102
}
330
17
100
AcDbMlineStyle
  2
STANDARD
 70
     0
  3

 62
   256
 51
90.0
 52
90.0
 71
     2
 49
0.5
 62
   256
  6
BYLAYER
 49
-0.5
 62
   256
  6
BYLAYER
  0
ACDBPLACEHOLDER
  5
F
102
{ACAD_REACTORS
330
E
102
}
330
E
  0
TABLESTYLE
  5
11B
102
{ACAD_REACTORS
330
11A
102
}
330
11A
100
AcDbTableStyle
  3
Standard
 70
     0
 71
     0
 40
1.5
 41
1.5
280
     0
281
     0
  7
STANDARD
140
4.5
170
     2
 62
     0
 63
     7
283
     0
274
    -2
284
     1
 64
     0
275
    -2
285
     1
 65
     0
276
    -2
286
     1
 66
     0
277
    -2
287
     1
 67
     0
278
    -2
288
     1
 68
     0
279
    -2
289
     1
 69
     0
  7
STANDARD
140
6.0
170
     5
 62
     0
 63
     7
283
     0
274
    -2
284
     1
 64
     0
275
    -2
285
     1
 65
     0
276
    -2
286
     1
 66
     0
277
    -2
287
     1
 67
     0
278
    -2
288
     1
 68
     0
279
    -2
289
     1
 69
     0
  7
STANDARD
140
4.5
170
     5
 62
     0
 63
     7
283
     0
274
    -2
284
     1
 64
     0
275
    -2
285
     1
 65
     0
276
    -2
286
     1
 66
     0
277
    -2
287
     1
 67
     0
278
    -2
288
     1
 68
     0
279
    -2
289
     1
 69
     0
  0
DICTIONARYVAR
  5
138
102
{ACAD_REACTORS
330
94
102
}
330
94
100
DictionaryVariables
280
     0
  1
STANDARD
  0
DICTIONARYVAR
  5
96
102
{ACAD_REACTORS
330
94
102
}
330
94
100
DictionaryVariables
280
     0
  1
2
  0
DICTIONARYVAR
  5
95
102
{ACAD_REACTORS
330
94
102
}
330
94
100
DictionaryVariables
280
     0
  1
0
  0
DICTIONARYVAR
  5
1B41
102
{ACAD_REACTORS
330
94
102
}
330
94
100
DictionaryVariables
280
     0
  1

  0
DICTIONARY
  5
1B5
102
{ACAD_REACTORS
330
5B
102
}
330
5B
100
AcDbDictionary
281
     1
  0
DICTIONARY
  5
61
102
{ACAD_REACTORS
330
5B
102
}
330
5B
100
AcDbDictionary
281
     1
  0
XRECORD
  5
123
102
{ACAD_REACTORS
330
5B
102
}
330
5B
100
AcDbXrecord
280
     1
 90
-1023410169
  0
DICTIONARY
  5
1B47
330
22
100
AcDbDictionary
280
     1
281
     1
  3
ACAD_XREC_ROUNDTRIP
360
1B48
  0
DICTIONARY
  5
1B45
330
1E
100
AcDbDictionary
280
     1
281
     1
  3
ACAD_XREC_ROUNDTRIP
360
1B46
  0
DICTIONARY
  5
1B49
330
26
100
AcDbDictionary
280
     1
281
     1
  3
ACAD_XREC_ROUNDTRIP
360
1B4A
  0
XRECORD
  5
1B48
102
{ACAD_REACTORS
330
1B47
102
}
330
1B47
100
AcDbXrecord
280
     1
102
SHADEPLOT
 70
     0
102
SHADEPLOTRESLEVEL
 70
     2
102
SHADEPLOTCUSTOMDPI
 70
   300
  0
XRECORD
  5
1B46
102
{ACAD_REACTORS
330
1B45
102
}
330
1B45
100
AcDbXrecord
280
     1
102
SHADEPLOT
 70
     0
102
SHADEPLOTRESLEVEL
 70
     2
102
SHADEPLOTCUSTOMDPI
 70
   300
  0
XRECORD
  5
1B4A
102
{ACAD_REACTORS
330
1B49
102
}
330
1B49
100
AcDbXrecord
280
     1
102
SHADEPLOT
 70
     0
102
SHADEPLOTRESLEVEL
 70
     2
102
SHADEPLOTCUSTOMDPI
 70
   300
  0
ENDSEC
  0
EOF
