  0
SECTION
  2
HEADER
  9
$ACADVER
  1
AC1015
  9
$ACADMAINTVER
 70
    20
  9
$DWGCODEPAGE
  3
ANSI_932
  9
$INSBASE
 10
0.0
 20
0.0
 30
0.0
  9
$EXTMIN
 10
-87.69597626549758
 20
-72.76845075899095
 30
0.0
  9
$EXTMAX
 10
27.44460432195582
 20
71.42573092779699
 30
0.0
  9
$LIMMIN
 10
0.0
 20
0.0
  9
$LIMMAX
 10
420.0
 20
297.0
  9
$ORTHOMODE
 70
     0
  9
$REGENMODE
 70
     1
  9
$FILLMODE
 70
     1
  9
$QTEXTMODE
 70
     0
  9
$MIRRTEXT
 70
     1
  9
$LTSCALE
 40
1.0
  9
$ATTMODE
 70
     1
  9
$TEXTSIZE
 40
3.799999999999999
  9
$TRACEWID
 40
1.0
  9
$TEXTSTYLE
  7
ACISOTS
  9
$CLAYER
  8
AM_0
  9
$CELTYPE
  6
ByLayer
  9
$CECOLOR
 62
   256
  9
$CELTSCALE
 40
1.0
  9
$DISPSILH
 70
     0
  9
$DIMSCALE
 40
1.0
  9
$DIMASZ
 40
2.5
  9
$DIMEXO
 40
1.0
  9
$DIMDLI
 40
10.0
  9
$DIMRND
 40
0.0
  9
$DIMDLE
 40
0.0
  9
$DIMEXE
 40
1.0
  9
$DIMTP
 40
0.1
  9
$DIMTM
 40
0.1000000001
  9
$DIMTXT
 40
3.799999999999998
  9
$DIMCEN
 40
0.0
  9
$DIMTSZ
 40
0.0
  9
$DIMTOL
 70
     0
  9
$DIMLIM
 70
     0
  9
$DIMTIH
 70
     0
  9
$DIMTOH
 70
     0
  9
$DIMSE1
 70
     0
  9
$DIMSE2
 70
     0
  9
$DIMTAD
 70
     3
  9
$DIMZIN
 70
     8
  9
$DIMBLK
  1
Open30
  9
$DIMASO
 70
     1
  9
$DIMSHO
 70
     1
  9
$DIMPOST
  1

  9
$DIMAPOST
  1
"
  9
$DIMALT
 70
     0
  9
$DIMALTD
 70
     2
  9
$DIMALTF
 40
0.0393701
  9
$DIMLFAC
 40
1.0
  9
$DIMTOFL
 70
     1
  9
$DIMTVP
 40
0.0
  9
$DIMTIX
 70
     0
  9
$DIMSOXD
 70
     0
  9
$DIMSAH
 70
     0
  9
$DIMBLK1
  1

  9
$DIMBLK2
  1

  9
$DIMSTYLE
  2
AM_JIS
  9
$DIMCLRD
 70
   256
  9
$DIMCLRE
 70
   256
  9
$DIMCLRT
 70
     2
  9
$DIMTFAC
 40
0.71
  9
$DIMGAP
 40
1.5
  9
$DIMJUST
 70
     0
  9
$DIMSD1
 70
     0
  9
$DIMSD2
 70
     0
  9
$DIMTOLJ
 70
     0
  9
$DIMTZIN
 70
     8
  9
$DIMALTZ
 70
     0
  9
$DIMALTTZ
 70
     0
  9
$DIMUPT
 70
     0
  9
$DIMDEC
 70
     0
  9
$DIMTDEC
 70
     2
  9
$DIMALTU
 70
     2
  9
$DIMALTTD
 70
     2
  9
$DIMTXSTY
  7
STANDARD
  9
$DIMAUNIT
 70
     1
  9
$DIMADEC
 70
     0
  9
$DIMALTRND
 40
0.0
  9
$DIMAZIN
 70
     2
  9
$DIMDSEP
 70
    46
  9
$DIMATFIT
 70
     3
  9
$DIMFRAC
 70
     0
  9
$DIMLDRBLK
  1
Open30
  9
$DIMLUNIT
 70
     2
  9
$DIMLWD
 70
    -1
  9
$DIMLWE
 70
    -1
  9
$DIMTMOVE
 70
     0
  9
$LUNITS
 70
     2
  9
$LUPREC
 70
     2
  9
$SKETCHINC
 40
1.0
  9
$FILLETRAD
 40
2.5
  9
$AUNITS
 70
     0
  9
$AUPREC
 70
     0
  9
$MENU
  1
.
  9
$ELEVATION
 40
0.0
  9
$PELEVATION
 40
0.0
  9
$THICKNESS
 40
0.0
  9
$LIMCHECK
 70
     0
  9
$CHAMFERA
 40
2.5
  9
$CHAMFERB
 40
2.5
  9
$CHAMFERC
 40
20.0
  9
$CHAMFERD
 40
0.0
  9
$SKPOLY
 70
     0
  9
$TDCREATE
 40
2455412.730832604
  9
$TDUCREATE
 40
2455412.355832604
  9
$TDUPDATE
 40
2455555.426928889
  9
$TDUUPDATE
 40
2455555.051928889
  9
$TDINDWG
 40
0.0179805093
  9
$TDUSRTIMER
 40
0.0179803241
  9
$USRTIMER
 70
     1
  9
$ANGBASE
 50
0.0
  9
$ANGDIR
 70
     0
  9
$PDMODE
 70
     0
  9
$PDSIZE
 40
0.0
  9
$PLINEWID
 40
0.0
  9
$SPLFRAME
 70
     0
  9
$SPLINETYPE
 70
     6
  9
$SPLINESEGS
 70
    40
  9
$HANDSEED
  5
CF0
  9
$SURFTAB1
 70
     6
  9
$SURFTAB2
 70
     6
  9
$SURFTYPE
 70
     6
  9
$SURFU
 70
     6
  9
$SURFV
 70
     6
  9
$UCSBASE
  2

  9
$UCSNAME
  2

  9
$UCSORG
 10
0.0
 20
0.0
 30
0.0
  9
$UCSXDIR
 10
1.0
 20
0.0
 30
0.0
  9
$UCSYDIR
 10
0.0
 20
1.0
 30
0.0
  9
$UCSORTHOREF
  2

  9
$UCSORTHOVIEW
 70
     0
  9
$UCSORGTOP
 10
0.0
 20
0.0
 30
0.0
  9
$UCSORGBOTTOM
 10
0.0
 20
0.0
 30
0.0
  9
$UCSORGLEFT
 10
0.0
 20
0.0
 30
0.0
  9
$UCSORGRIGHT
 10
0.0
 20
0.0
 30
0.0
  9
$UCSORGFRONT
 10
0.0
 20
0.0
 30
0.0
  9
$UCSORGBACK
 10
0.0
 20
0.0
 30
0.0
  9
$PUCSBASE
  2

  9
$PUCSNAME
  2

  9
$PUCSORG
 10
0.0
 20
0.0
 30
0.0
  9
$PUCSXDIR
 10
1.0
 20
0.0
 30
0.0
  9
$PUCSYDIR
 10
0.0
 20
1.0
 30
0.0
  9
$PUCSORTHOREF
  2

  9
$PUCSORTHOVIEW
 70
     0
  9
$PUCSORGTOP
 10
0.0
 20
0.0
 30
0.0
  9
$PUCSORGBOTTOM
 10
0.0
 20
0.0
 30
0.0
  9
$PUCSORGLEFT
 10
0.0
 20
0.0
 30
0.0
  9
$PUCSORGRIGHT
 10
0.0
 20
0.0
 30
0.0
  9
$PUCSORGFRONT
 10
0.0
 20
0.0
 30
0.0
  9
$PUCSORGBACK
 10
0.0
 20
0.0
 30
0.0
  9
$USERI1
 70
     0
  9
$USERI2
 70
     0
  9
$USERI3
 70
     0
  9
$USERI4
 70
     0
  9
$USERI5
 70
     0
  9
$USERR1
 40
0.0
  9
$USERR2
 40
0.0
  9
$USERR3
 40
0.0
  9
$USERR4
 40
0.0
  9
$USERR5
 40
0.0
  9
$WORLDVIEW
 70
     1
  9
$SHADEDGE
 70
     3
  9
$SHADEDIF
 70
    70
  9
$TILEMODE
 70
     1
  9
$MAXACTVP
 70
    64
  9
$PINSBASE
 10
0.0
 20
0.0
 30
0.0
  9
$PLIMCHECK
 70
     0
  9
$PEXTMIN
 10
1.000000000000000E+20
 20
1.000000000000000E+20
 30
1.000000000000000E+20
  9
$PEXTMAX
 10
-1.000000000000000E+20
 20
-1.000000000000000E+20
 30
-1.000000000000000E+20
  9
$PLIMMIN
 10
0.0
 20
0.0
  9
$PLIMMAX
 10
420.0
 20
297.0
  9
$UNITMODE
 70
     0
  9
$VISRETAIN
 70
     1
  9
$PLINEGEN
 70
     0
  9
$PSLTSCALE
 70
     1
  9
$TREEDEPTH
 70
  3020
  9
$CMLSTYLE
  2
Standard
  9
$CMLJUST
 70
     0
  9
$CMLSCALE
 40
20.0
  9
$PROXYGRAPHICS
 70
     1
  9
$MEASUREMENT
 70
     1
  9
$CELWEIGHT
370
    -1
  9
$ENDCAPS
280
     0
  9
$JOINSTYLE
280
     0
  9
$LWDISPLAY
290
     0
  9
$INSUNITS
 70
     4
  9
$HYPERLINKBASE
  1

  9
$STYLESHEET
  1

  9
$XEDIT
290
     1
  9
$CEPSNTYPE
380
     0
  9
$PSTYLEMODE
290
     1
  9
$FINGERPRINTGUID
  2
{E7468357-6252-4FFE-8F14-C6C26F483914}
  9
$VERSIONGUID
  2
{FE253008-F245-4351-BC71-FC14522EAF73}
  9
$EXTNAMES
290
     1
  9
$PSVPSCALE
 40
0.0
  9
$OLESTARTUP
290
     0
  0
ENDSEC
  0
SECTION
  2
CLASSES
  0
CLASS
  1
ACDBDICTIONARYWDFLT
  2
AcDbDictionaryWithDefault
  3
ObjectDBX Classes
 90
        0
280
     0
281
     0
  0
CLASS
  1
ACME_DOCUMENT
  2
AcMeDbDoc
  3
AcMeServices
 90
        0
280
     0
281
     0
  0
CLASS
  1
AMGSETTINGSOBJ
  2
AmgSettingsObj
  3
"AcadM|Product Description: AutoCAD Mechanical 2000|Company: Autodesk"
 90
        0
280
     0
281
     0
  0
CLASS
  1
ACMESCOPE
  2
AcMeScope
  3
AcMeServices
 90
        0
280
     0
281
     0
  0
CLASS
  1
ACMECOMMANDHISTORY
  2
AcMeCommandHistory
  3
AcMeServices
 90
        0
280
     0
281
     0
  0
CLASS
  1
ACIMSYSVARMAN
  2
AcImSysVarManager
  3
AcMeServices
 90
        0
280
     0
281
     0
  0
CLASS
  1
ACIMREALSYSVAR
  2
AcImRealSysVar
  3
AcMeServices
 90
        0
280
     0
281
     0
  0
CLASS
  1
ACIMINTSYSVAR
  2
AcImIntSysVar
  3
AcMeServices
 90
        0
280
     0
281
     0
  0
CLASS
  1
ACMEDRAWINGMAN
  2
AcMeDrawingMan
  3
AcMeServices
 90
        0
280
     0
281
     0
  0
CLASS
  1
ACMEVIEW
  2
AcMeView
  3
AcMeServices
 90
        0
280
     0
281
     0
  0
CLASS
  1
ACDBENTITYCACHE
  2
AcMeEntityCache
  3
AcMeServices
 90
        0
280
     0
281
     0
  0
CLASS
  1
GSMANAGER
  2
AcMeGSManager
  3
AcMeServices
 90
        0
280
     0
281
     0
  0
CLASS
  1
AMDTINTERNALREACTOR
  2
AmdtInternalReactor
  3
AcMeServices
 90
        0
280
     0
281
     0
  0
CLASS
  1
ACMESTATEMGR
  2
AcMeStateMgr
  3
AcMeServices
 90
        0
280
     0
281
     0
  0
CLASS
  1
ACGREFMASTER
  2
AcGrefMaster
  3
AcAttribServices
 90
        0
280
     0
281
     0
  0
CLASS
  1
ACME_DATABASE
  2
AcMeDbDatabase
  3
AcMeServices
 90
        0
280
     0
281
     0
  0
CLASS
  1
ACRFINSADJUSTERMGR
  2
AcRfInsAdjusterMgr
  3
AcMeServices
 90
        0
280
     0
281
     0
  0
CLASS
  1
ACGREFACADMASTER
  2
AcGrefacadMaster
  3
AcGrefServices
 90
        0
280
     0
281
     0
  0
CLASS
  1
AMIMASTER
  2
AmiMaster
  3
AmiServices
 90
        0
280
     0
281
     0
  0
CLASS
  1
ACMDATADICTIONARY
  2
AcmDataDictionary
  3
"AcmSymBB|Product Description: AutoCAD Mechanical 2004 DX|Company: Autodesk"
 90
        0
280
     0
281
     0
  0
CLASS
  1
ACMDATAENTRYBLOCK
  2
AcmDataEntryBlock
  3
"AcmSymBB|Product Description: AutoCAD Mechanical 2004 DX|Company: Autodesk"
 90
    32768
280
     0
281
     0
  0
CLASS
  1
ACIMSTRSYSVAR
  2
AcImStrSysVar
  3
AcMeServices
 90
        0
280
     0
281
     0
  0
CLASS
  1
ACMSTANDARDISO
  2
AcmStandardISO
  3
"Amdt_StdImp|Product Description: AutoCAD Mechanical 2004 DX|Company: Autodesk"
 90
        0
280
     0
281
     0
  0
CLASS
  1
AMGOBJPROPCFG
  2
AmgObjPropCfg
  3
"AmgLay|Product Description: AutoCAD Mechanical 2000|Company: Autodesk"
 90
        1
280
     0
281
     0
  0
CLASS
  1
AMDTEDGESTANDARDISO
  2
AmdtEdgeStdISO
  3
"Amdt_StdImp|Product Description: AutoCAD Mechanical 2004 DX|Company: Autodesk"
 90
        0
280
     0
281
     0
  0
CLASS
  1
ACMSURFSTANDARDISO
  2
AcmSurfTextStdISO
  3
"Amdt_StdImp|Product Description: AutoCAD Mechanical 2004 DX|Company: Autodesk"
 90
        0
280
     0
281
     0
  0
CLASS
  1
ACMFCFSTANDARDISO
  2
AcmFCFStdISO
  3
"Amdt_StdImp|Product Description: AutoCAD Mechanical 2004 DX|Company: Autodesk"
 90
        0
280
     0
281
     0
  0
CLASS
  1
ACMWELDSTANDARDISO
  2
AcmWeldingStdISO
  3
"Amdt_StdImp|Product Description: AutoCAD Mechanical 2004 DX|Company: Autodesk"
 90
        0
280
     0
281
     0
  0
CLASS
  1
ACMIDSTANDARDISO
  2
AcmIdStdISO
  3
"Amdt_StdImp|Product Description: AutoCAD Mechanical 2004 DX|Company: Autodesk"
 90
        0
280
     0
281
     0
  0
CLASS
  1
ACMDATUMSTANDARDISO
  2
AcmDatumStdISO
  3
"Amdt_StdImp|Product Description: AutoCAD Mechanical 2004 DX|Company: Autodesk"
 90
        0
280
     0
281
     0
  0
CLASS
  1
ACMBOMSTANDARDISO
  2
AcmBOMStdISO
  3
"Amdt_StdImp|Product Description: AutoCAD Mechanical 2004 DX|Company: Autodesk"
 90
        0
280
     0
281
     0
  0
CLASS
  1
ACMDETAILSTANDARDISO
  2
AmdtDetailSymStdISO
  3
"Amdt_StdImp|Product Description: AutoCAD Mechanical 2004 DX|Company: Autodesk"
 90
        0
280
     0
281
     0
  0
CLASS
  1
ACMSECTIONSTANDARDISO
  2
AmdtSectionSymStdISO
  3
"Amdt_StdImp|Product Description: AutoCAD Mechanical 2004 DX|Company: Autodesk"
 90
        0
280
     0
281
     0
  0
CLASS
  1
ACMCENTERLINESTANDARDISO
  2
AmdtCenterLineStdISO
  3
"Amdt_StdImp|Product Description: AutoCAD Mechanical 2004 DX|Company: Autodesk"
 90
        0
280
     0
281
     0
  0
CLASS
  1
ACMNOTESTANDARDISO
  2
AmdtNoteStdISO
  3
"Amdt_StdImp|Product Description: AutoCAD Mechanical 2004 DX|Company: Autodesk"
 90
        0
280
     0
281
     0
  0
CLASS
  1
ACAMGLAYSTD
  2
AcAmgLayStd
  3
"AcAmgLayStd|Product Description: AutoCAD Mechanical 2000|Company: Autodesk"
 90
        0
280
     0
281
     0
  0
CLASS
  1
ACAMGDIMSTD
  2
AcAmgDimStd
  3
"AcAmgDimStd|Product Description: AutoCAD Mechanical 2000|Company: Autodesk"
 90
        0
280
     0
281
     0
  0
CLASS
  1
ACAMGHOLECHARTSTDISO
  2
AcAmgHoleChartStdISO
  3
ACMSYMBB_MODULE_NAME
 90
        0
280
     0
281
     0
  0
CLASS
  1
ACAMGTITLESTD
  2
AcAmgTitleStd
  3
"TITLEAPP"
 90
        0
280
     0
281
     0
  0
CLASS
  1
LAYER_INDEX
  2
AcDbLayerIndex
  3
ObjectDBX Classes
 90
    32768
280
     0
281
     0
  0
CLASS
  1
IDBUFFER
  2
AcDbIdBuffer
  3
ObjectDBX Classes
 90
    32768
280
     0
281
     0
  0
CLASS
  1
DICTIONARYVAR
  2
AcDbDictionaryVar
  3
ObjectDBX Classes
 90
        0
280
     0
281
     0
  0
CLASS
  1
AM_DRAWING_MGR
  2
AcDmDwgMgr
  3
AcMechDwgViewMgmt
 90
        0
280
     0
281
     0
  0
CLASS
  1
AM_DWG_DOCUMENT
  2
AcDmDwgDocument
  3
AcMechDwgViewMgmt
 90
        0
280
     0
281
     0
  0
CLASS
  1
AM_DWG_SHEET
  2
AcDmSheet
  3
AcMechDwgViewMgmt
 90
        0
280
     0
281
     0
  0
CLASS
  1
AM_VIEWDIMPARMAP
  2
AcDmViewDimParMap
  3
AcMechDwgViewMgmt
 90
        0
280
     0
281
     0
  0
CLASS
  1
AM_DWGMGR_NAME
  2
AcDmDwgMgrName
  3
AcMechDwgViewMgmt
 90
        0
280
     0
281
     0
  0
CLASS
  1
AMDTMENUSTATEMGR
  2
AmdtMenuStateMgr
  3
McadcomServices
 90
        0
280
     0
281
     0
  0
CLASS
  1
AMDTMCOMMENUSTATE
  2
AmdtMcomMenuState
  3
McadcomServices
 90
        0
280
     0
281
     0
  0
CLASS
  1
MAPIAMMOUDLE
  2
MApiAmModule
  3
MApiAmServices
 90
        0
280
     0
281
     0
  0
CLASS
  1
AMDTADMENUSTATE
  2
AmdtAdMenuState
  3
DesignerServices
 90
        0
280
     0
281
     0
  0
CLASS
  1
ADAPPL
  2
AcAdAppl
  3
DesignerServices
 90
        0
280
     0
281
     0
  0
CLASS
  1
DEPMGR
  2
AcAdDepMgr
  3
DesignerServices
 90
        0
280
     0
281
     0
  0
CLASS
  1
PARAMMGR
  2
AcAdParamMgr
  3
DesignerServices
 90
        0
280
     0
281
     0
  0
CLASS
  1
PARAMSCOPE
  2
AcAdParamScope
  3
DesignerServices
 90
        0
280
     0
281
     0
  0
CLASS
  1
NAMEDAPPL
  2
AcAdNamedAppl
  3
DesignerServices
 90
        0
280
     0
281
     0
  0
CLASS
  1
AMDTDMMENUSTATE
  2
AmdtDmMenuState
  3
AcMechDwgViewMgmt
 90
        0
280
     0
281
     0
  0
CLASS
  1
AMDTAMMENUSTATE
  2
AmdtAmMenuState
  3
DesignerAssemblies
 90
        0
280
     0
281
     0
  0
CLASS
  1
ACAMPROJECT
  2
AcAmProject
  3
DesignerAssemblies
 90
        0
280
     0
281
     0
  0
CLASS
  1
ACAMGRCOMPDEF
  2
AcAmGrCompDef
  3
DesignerAssemblies
 90
        0
280
     0
281
     0
  0
CLASS
  1
ACCMCONTEXT
  2
AcCmContext
  3
DesignerAssemblies
 90
        0
280
     0
281
     0
  0
CLASS
  1
ACAMCOMPDEF
  2
AcAmCompDef
  3
DesignerAssemblies
 90
        0
280
     0
281
     0
  0
CLASS
  1
ACAMCOMPDEFMGR
  2
AcAmCompDefMgr
  3
DesignerAssemblies
 90
        0
280
     0
281
     0
  0
CLASS
  1
AMCONTEXTMGR
  2
AcAmContextMgr
  3
DesignerAssemblies
 90
        0
280
     0
281
     0
  0
CLASS
  1
ACAMCONTEXTMODELER
  2
AcAmContextModeler
  3
DesignerAssemblies
 90
        0
280
     0
281
     0
  0
CLASS
  1
ACMTHREADLINESTANDARDISO
  2
AmdtThreadLineStdISO
  3
"Amdt_StdImp|Product Description: AutoCAD Mechanical 2004 DX|Company: Autodesk"
 90
        0
280
     0
281
     0
  0
CLASS
  1
CATALOGSTATE
  2
AcAmCatalogState
  3
DesignerAssemblies
 90
        0
280
     0
281
     0
  0
CLASS
  1
ACAMGRCOMPDEFSET
  2
AcAmGrCompDefSet
  3
DesignerAssemblies
 90
        0
280
     0
281
     0
  0
CLASS
  1
AMDTBROWSERDBTAB
  2
AmdtBrowserDbTab
  3
McadcomServices
 90
        0
280
     0
281
     0
  0
CLASS
  1
CBROWSERAPPOBJECT
  2
CBrowserAppObject
  3
McadcomServices
 90
        0
280
     0
281
     0
  0
CLASS
  1
DM_PLACEHOLDER
  2
AcDmSelsetPlaceholder
  3
AcMechDwgViewMgmt
 90
        0
280
     0
281
     0
  0
CLASS
  1
TABLESTYLE
  2
AcDbTableStyle
  3
ObjectDBX Classes
 90
     2047
280
     0
281
     0
  0
CLASS
  1
VAACXREFPANELOBJECT
  2
VaAcXREFPanelObject
  3
VAAC_ADDIN
 90
    32768
280
     0
281
     0
  0
CLASS
  1
VAACIMAGEINVENTORY
  2
VaAcImageInventory
  3
VAAC_ADDIN
 90
    32768
280
     0
281
     0
  0
CLASS
  1
AMDTNOTETEMPLATEDB
  2
AmdtNoteTemplateDB
  3
AMDT_STDIMP_MODULE_NAME
 90
        0
280
     0
281
     0
  0
CLASS
  1
ACMBOM
  2
AcmBom
  3
"AcmSymBB|Product Description: AutoCAD Mechanical 2004 DX|Company: Autodesk"
 90
    32768
280
     0
281
     0
  0
CLASS
  1
AMDTFORMULAUPDATEDISPATCHER
  2
AmdtFormulaUpdateDispatcher
  3
AcMeServices
 90
    32768
280
     0
281
     0
  0
CLASS
  1
ACMPARTLIST
  2
AcmPartList
  3
"AcmSymBB|Product Description: AutoCAD Mechanical 2004 DX|Company: Autodesk"
 90
    33791
280
     0
281
     1
  0
CLASS
  1
ACAMGFILTERDAT
  2
AcAmgFilterDat
  3
"AcadM|Product Description: AutoCAD Mechanical 2000|Company: Autodesk"
 90
    32768
280
     0
281
     0
  0
CLASS
  1
ACMSTANDARDJIS
  2
AcmStandardJIS
  3
"Amdt_StdImp|Product Description: AutoCAD Mechanical 2004 DX|Company: Autodesk"
 90
        0
280
     0
281
     0
  0
CLASS
  1
ACMSURFSTANDARDJIS
  2
AcmSurfTextStdJIS
  3
"Amdt_StdImp|Product Description: AutoCAD Mechanical 2004 DX|Company: Autodesk"
 90
        0
280
     0
281
     0
  0
CLASS
  1
ACMFCFSTANDARDJIS98
  2
AcmFCFStdJIS98
  3
"Amdt_StdImp|Product Description: AutoCAD Mechanical 2004 DX|Company: Autodesk"
 90
        0
280
     0
281
     0
  0
CLASS
  1
ACMWELDSTANDARDJIS
  2
AcmWeldingStdJIS
  3
"Amdt_StdImp|Product Description: AutoCAD Mechanical 2004 DX|Company: Autodesk"
 90
        0
280
     0
281
     0
  0
CLASS
  1
ACMIDSTANDARDJIS
  2
AcmIdStdJIS
  3
"Amdt_StdImp|Product Description: AutoCAD Mechanical 2004 DX|Company: Autodesk"
 90
        0
280
     0
281
     0
  0
CLASS
  1
ACMDATUMSTANDARDJIS
  2
AcmDatumStdJIS
  3
"Amdt_StdImp|Product Description: AutoCAD Mechanical 2004 DX|Company: Autodesk"
 90
        0
280
     0
281
     0
  0
CLASS
  1
ACMBOMSTANDARDJIS
  2
AcmBOMStdJIS
  3
"Amdt_StdImp|Product Description: AutoCAD Mechanical 2004 DX|Company: Autodesk"
 90
        0
280
     0
281
     0
  0
CLASS
  1
ACMDETAILSTANDARDJIS
  2
AmdtDetailSymStdJIS
  3
"Amdt_StdImp|Product Description: AutoCAD Mechanical 2004 DX|Company: Autodesk"
 90
        0
280
     0
281
     0
  0
CLASS
  1
ACMSECTIONSTANDARDJIS
  2
AmdtSectionSymStdJIS
  3
"Amdt_StdImp|Product Description: AutoCAD Mechanical 2004 DX|Company: Autodesk"
 90
        0
280
     0
281
     0
  0
CLASS
  1
ACMCENTERLINESTANDARDJIS
  2
AmdtCenterLineStdJIS
  3
"Amdt_StdImp|Product Description: AutoCAD Mechanical 2004 DX|Company: Autodesk"
 90
        0
280
     0
281
     0
  0
CLASS
  1
ACMTHREADLINESTANDARDJIS
  2
AmdtThreadLineStdJIS
  3
"Amdt_StdImp|Product Description: AutoCAD Mechanical 2004 DX|Company: Autodesk"
 90
        0
280
     0
281
     0
  0
CLASS
  1
ACMNOTESTANDARDJIS
  2
AmdtNoteStdJIS
  3
"Amdt_StdImp|Product Description: AutoCAD Mechanical 2004 DX|Company: Autodesk"
 90
        0
280
     0
281
     0
  0
CLASS
  1
ACAMGHOLECHARTSTDJIS
  2
AcAmgHoleChartStdJIS
  3
ACMSYMBB_MODULE_NAME
 90
        0
280
     0
281
     0
  0
CLASS
  1
DIMASSOC
  2
AcDbDimAssoc
  3
"AcDbDimAssoc|Product Desc:     AcDim ARX App For Dimension|Company:          Autodesk, Inc.|WEB Address:      www.autodesk.com"
 90
        0
280
     0
281
     0
  0
CLASS
  1
SORTENTSTABLE
  2
AcDbSortentsTable
  3
ObjectDBX Classes
 90
    32768
280
     0
281
     0
  0
CLASS
  1
ACDBPLACEHOLDER
  2
AcDbPlaceHolder
  3
ObjectDBX Classes
 90
        0
280
     0
281
     0
  0
CLASS
  1
LAYOUT
  2
AcDbLayout
  3
ObjectDBX Classes
 90
        0
280
     0
281
     0
  0
ENDSEC
  0
SECTION
  2
TABLES
  0
TABLE
  2
VPORT
  5
8
330
0
100
AcDbSymbolTable
 70
     3
  0
VPORT
  5
CE7
330
8
100
AcDbSymbolTableRecord
100
AcDbViewportTableRecord
  2
*Active
 70
     0
 10
0.0
 20
0.0
 11
1.0
 21
1.0
 12
-13.89497609387895
 22
-0.7562163387777048
 13
0.0
 23
0.0
 14
2.5
 24
2.5
 15
10.0
 25
10.0
 16
0.0
 26
0.0
 36
1.0
 17
0.0
 27
0.0
 37
0.0
 40
163.5771706267275
 41
1.514762516046213
 42
50.0
 43
0.0
 44
0.0
 50
0.0
 51
0.0
 71
     0
 72
 10000
 73
     1
 74
     3
 75
     0
 76
     0
 77
     0
 78
     0
281
     0
 65
     1
110
0.0
120
0.0
130
0.0
111
1.0
121
0.0
131
0.0
112
0.0
122
1.0
132
0.0
 79
     0
146
0.0
  0
ENDTAB
  0
TABLE
  2
LTYPE
  5
5
330
0
100
AcDbSymbolTable
 70
    17
  0
LTYPE
  5
14
330
5
100
AcDbSymbolTableRecord
100
AcDbLinetypeTableRecord
  2
ByBlock
 70
     0
  3

 72
    65
 73
     0
 40
0.0
  0
LTYPE
  5
15
330
5
100
AcDbSymbolTableRecord
100
AcDbLinetypeTableRecord
  2
ByLayer
 70
     0
  3

 72
    65
 73
     0
 40
0.0
  0
LTYPE
  5
16
330
5
100
AcDbSymbolTableRecord
100
AcDbLinetypeTableRecord
  2
Continuous
 70
     0
  3
Solid line
 72
    65
 73
     0
 40
0.0
  0
LTYPE
  5
64
330
5
100
AcDbSymbolTableRecord
100
AcDbLinetypeTableRecord
  2
AM_ISO02W050
 70
     0
  3
__ __ __ __ __ __ __ __ __ __ __ __ __ __ __
 72
    65
 73
     2
 40
7.5
 49
6.0
 74
     0
 49
-1.5
 74
     0
  0
LTYPE
  5
65
330
5
100
AcDbSymbolTableRecord
100
AcDbLinetypeTableRecord
  2
AM_ISO08W050
 70
     0
  3
____ . ____ . ____ . ____ . ____ . ____ . ____
 72
    65
 73
     4
 40
18.0
 49
12.0
 74
     0
 49
-1.5
 74
     0
 49
3.0
 74
     0
 49
-1.5
 74
     0
  0
LTYPE
  5
66
330
5
100
AcDbSymbolTableRecord
100
AcDbLinetypeTableRecord
  2
AM_ISO09W050
 70
     0
  3
_____ . . _____ . . _____ . . ____ .. ____
 72
    65
 73
     6
 40
22.5
 49
12.0
 74
     0
 49
-1.5
 74
     0
 49
3.0
 74
     0
 49
-1.5
 74
     0
 49
3.0
 74
     0
 49
-1.5
 74
     0
  0
LTYPE
  5
67
330
5
100
AcDbSymbolTableRecord
100
AcDbLinetypeTableRecord
  2
Amconstr
 70
     0
  3
_______________________
 72
    65
 73
     2
 40
9999.0
 49
9999.0
 74
     0
 49
0.0
 74
     0
  0
LTYPE
  5
68
330
5
100
AcDbSymbolTableRecord
100
AcDbLinetypeTableRecord
  2
AM_ISO08W050x2
 70
     0
  3
__ . __ . __ . __ . __ . __
 72
    65
 73
     4
 40
9.0
 49
6.0
 74
     0
 49
-0.75
 74
     0
 49
1.5
 74
     0
 49
-0.75
 74
     0
  0
LTYPE
  5
69
330
5
100
AcDbSymbolTableRecord
100
AcDbLinetypeTableRecord
  2
AM_ISO02W050x2
 70
     0
  3
 _ _ _ _ _ _ _ _ _ _ _ _
 72
    65
 73
     2
 40
3.75
 49
3.0
 74
     0
 49
-0.75
 74
     0
  0
LTYPE
  5
6C
330
5
100
AcDbSymbolTableRecord
100
AcDbLinetypeTableRecord
  2
Amzigzag
 70
     0
  3
/\/-/\/-/\/-/\/-/\/-/\/
 72
    65
 73
     2
 40
11.0001
 49
0.0001
 74
     4
 75
   135
340
6B
 46
0.04
 50
0.0
 44
0.0
 45
0.0
 49
-11.0
 74
     0
  0
LTYPE
  5
7A
330
5
100
AcDbSymbolTableRecord
100
AcDbLinetypeTableRecord
  2
ACISOWELD
 70
     0
  3
_ _ _ _ _
 72
    65
 73
     2
 40
2.0
 49
2.0
 74
     0
 49
-1.0
 74
     0
  0
LTYPE
  5
7B
330
5
100
AcDbSymbolTableRecord
100
AcDbLinetypeTableRecord
  2
ACISOTGB
 70
     0
  3
__ . . __ . .
 72
    65
 73
     6
 40
9.0
 49
4.0
 74
     0
 49
-1.0
 74
     0
 49
1.0
 74
     0
 49
-1.0
 74
     0
 49
1.0
 74
     0
 49
-1.0
 74
     0
  0
LTYPE
  5
7C
330
5
100
AcDbSymbolTableRecord
100
AcDbLinetypeTableRecord
  2
ACISOTGL
 70
     0
  3
_ _ _ _ _
 72
    65
 73
     2
 40
3.0
 49
2.0
 74
     0
 49
-1.0
 74
     0
  0
LTYPE
  5
7E
330
5
100
AcDbSymbolTableRecord
100
AcDbLinetypeTableRecord
  2
CENTER
 70
     0
  3
__ . __
 72
    65
 73
     4
 40
7.0
 49
4.0
 74
     0
 49
-1.0
 74
     0
 49
1.0
 74
     0
 49
-1.0
 74
     0
  0
LTYPE
  5
D8
330
5
100
AcDbSymbolTableRecord
100
AcDbLinetypeTableRecord
  2
HIDDEN
 70
     0
  3
Hidden __ __ __ __ __ __ __ __ __ __ __ __ __ _
 72
    65
 73
     2
 40
9.524999999999996
 49
6.349999999999998
 74
     0
 49
-3.174999999999998
 74
     0
  0
LTYPE
  5
D9
330
5
100
AcDbSymbolTableRecord
100
AcDbLinetypeTableRecord
  2
PHANTOM2
 70
     0
  3
Phantom (.5x) ___ _ _ ___ _ _ ___ _ _ ___ _ _
 72
    65
 73
     6
 40
31.75
 49
15.875
 74
     0
 49
-3.174999999999998
 74
     0
 49
3.174999999999998
 74
     0
 49
-3.174999999999998
 74
     0
 49
3.174999999999998
 74
     0
 49
-3.174999999999998
 74
     0
  0
LTYPE
  5
20C
330
5
100
AcDbSymbolTableRecord
100
AcDbLinetypeTableRecord
  2
ACJISWELD
 70
     0
  3
_ _ _ _ _
 72
    65
 73
     2
 40
2.0
 49
2.0
 74
     0
 49
-1.0
 74
     0
  0
LTYPE
  5
20D
330
5
100
AcDbSymbolTableRecord
100
AcDbLinetypeTableRecord
  2
ACJISTGB
 70
     0
  3
__ . . __ . .
 72
    65
 73
     6
 40
9.0
 49
4.0
 74
     0
 49
-1.0
 74
     0
 49
1.0
 74
     0
 49
-1.0
 74
     0
 49
1.0
 74
     0
 49
-1.0
 74
     0
  0
LTYPE
  5
20E
330
5
100
AcDbSymbolTableRecord
100
AcDbLinetypeTableRecord
  2
ACJISTGL
 70
     0
  3
_ _ _ _ _
 72
    65
 73
     2
 40
3.0
 49
2.0
 74
     0
 49
-1.0
 74
     0
  0
ENDTAB
  0
TABLE
  2
LAYER
  5
2
102
{ACAD_XDICTIONARY
360
34B
102
}
330
0
100
AcDbSymbolTable
 70
     7
  0
LAYER
  5
10
330
2
100
AcDbSymbolTableRecord
100
AcDbLayerTableRecord
  2
0
 70
     0
 62
     7
  6
Continuous
370
    -3
390
F
  0
LAYER
  5
34A
330
2
100
AcDbSymbolTableRecord
100
AcDbLayerTableRecord
  2
AM_0
 70
     0
 62
     7
  6
Continuous
370
    30
390
F
  0
LAYER
  5
3AF
330
2
100
AcDbSymbolTableRecord
100
AcDbLayerTableRecord
  2
AM_4
 70
     0
 62
     3
  6
Continuous
370
    13
390
F
  0
LAYER
  5
3B0
330
2
100
AcDbSymbolTableRecord
100
AcDbLayerTableRecord
  2
AM_5
 70
     0
 62
     3
  6
Continuous
370
    13
390
F
  0
LAYER
  5
3B1
330
2
100
AcDbSymbolTableRecord
100
AcDbLayerTableRecord
  2
AM_7
 70
     0
 62
     4
  6
AM_ISO08W050
370
    13
390
F
  0
LAYER
  5
456
330
2
100
AcDbSymbolTableRecord
100
AcDbLayerTableRecord
  2
1
 70
     0
 62
     7
  6
Continuous
370
    -3
390
F
  0
LAYER
  5
457
330
2
100
AcDbSymbolTableRecord
100
AcDbLayerTableRecord
  2
Defpoints
 70
     0
 62
     7
  6
Continuous
290
     0
370
    -3
390
F
  0
ENDTAB
  0
TABLE
  2
STYLE
  5
3
330
0
100
AcDbSymbolTable
 70
     6
  0
STYLE
  5
11
330
3
100
AcDbSymbolTableRecord
100
AcDbTextStyleTableRecord
  2
STANDARD
 70
     0
 40
0.0
 41
1.0
 50
0.0
 71
     0
 42
3.799999999999998
  3
ISOCP.SHX
  4
EXTFONT.SHX
  0
STYLE
  5
6B
330
3
100
AcDbSymbolTableRecord
100
AcDbTextStyleTableRecord
  2

 70
     1
 40
0.0
 41
1.0
 50
0.0
 71
     0
 42
2.5
  3
ltypeshp.shx
  4

  0
STYLE
  5
6D
330
3
100
AcDbSymbolTableRecord
100
AcDbTextStyleTableRecord
  2
ACISOTS
 70
     0
 40
3.799999999999999
 41
1.0
 50
0.0
 71
     0
 42
3.799999999999999
  3
isocp.shx
  4
extfont.shx
  0
STYLE
  5
79
330
3
100
AcDbSymbolTableRecord
100
AcDbTextStyleTableRecord
  2
ACISOGDT
 70
     0
 40
0.0
 41
1.0
 50
0.0
 71
     0
 42
2.5
  3
amgdt.shx
  4
extfont.shx
  0
STYLE
  5
1FF
330
3
100
AcDbSymbolTableRecord
100
AcDbTextStyleTableRecord
  2
ACJISTS
 70
     0
 40
1.0
 41
1.0
 50
0.0
 71
     0
 42
1.0
  3
isocp.shx
  4
extfont.shx
  0
STYLE
  5
20B
330
3
100
AcDbSymbolTableRecord
100
AcDbTextStyleTableRecord
  2
ACJISGDT
 70
     0
 40
0.0
 41
1.0
 50
0.0
 71
     0
 42
1.0
  3
amgdt.shx
  4

  0
ENDTAB
  0
TABLE
  2
VIEW
  5
6
330
0
100
AcDbSymbolTable
 70
     0
  0
ENDTAB
  0
TABLE
  2
UCS
  5
7
330
0
100
AcDbSymbolTable
 70
     0
  0
ENDTAB
  0
TABLE
  2
APPID
  5
9
330
0
100
AcDbSymbolTable
 70
    20
  0
APPID
  5
12
330
9
100
AcDbSymbolTableRecord
100
AcDbRegAppTableRecord
  2
ACAD
 70
     0
  0
APPID
  5
46
330
9
100
AcDbSymbolTableRecord
100
AcDbRegAppTableRecord
  2
MCAD_NO_VIS
 70
     0
  0
APPID
  5
47
330
9
100
AcDbSymbolTableRecord
100
AcDbRegAppTableRecord
  2
ACAD_TEMP_GRAPHIC
 70
     0
  0
APPID
  5
58
330
9
100
AcDbSymbolTableRecord
100
AcDbRegAppTableRecord
  2
ACATTRIBSERVICES
 70
     0
  0
APPID
  5
EE
330
9
100
AcDbSymbolTableRecord
100
AcDbRegAppTableRecord
  2
AD_DRAW
 70
     0
  0
APPID
  5
10C
330
9
100
AcDbSymbolTableRecord
100
AcDbRegAppTableRecord
  2
DESIGNERASSEMBLIES
 70
     0
  0
APPID
  5
111
330
9
100
AcDbSymbolTableRecord
100
AcDbRegAppTableRecord
  2
ACADM_DIM_EDIT
 70
     0
  0
APPID
  5
112
330
9
100
AcDbSymbolTableRecord
100
AcDbRegAppTableRecord
  2
AMDT_DM_ADJ
 70
     0
  0
APPID
  5
243
330
9
100
AcDbSymbolTableRecord
100
AcDbRegAppTableRecord
  2
ACAD_DSTYLE_DIMTEXT_FILL
 70
     0
  0
APPID
  5
3B4
330
9
100
AcDbSymbolTableRecord
100
AcDbRegAppTableRecord
  2
ACAD_PSEXT
 70
     0
  0
APPID
  5
45A
330
9
100
AcDbSymbolTableRecord
100
AcDbRegAppTableRecord
  2
GENIUS_GENODEF_13
 70
     0
  0
APPID
  5
45B
330
9
100
AcDbSymbolTableRecord
100
AcDbRegAppTableRecord
  2
GENIUS_GENOBJ-N-CEN_13
 70
     0
  0
APPID
  5
45C
330
9
100
AcDbSymbolTableRecord
100
AcDbRegAppTableRecord
  2
GENIUS_GENCEN_19
 70
     0
  0
APPID
  5
45D
330
9
100
AcDbSymbolTableRecord
100
AcDbRegAppTableRecord
  2
ACAD_DIMASSOC_DIMLFAC
 70
     0
  0
APPID
  5
45E
330
9
100
AcDbSymbolTableRecord
100
AcDbRegAppTableRecord
  2
ACAD_DIMASSOC_CALC_DIMLFAC
 70
     0
  0
APPID
  5
45F
330
9
100
AcDbSymbolTableRecord
100
AcDbRegAppTableRecord
  2
ACAD_DIMASSOC_OVERRIDDEN_DIMLFAC
 70
     0
  0
APPID
  5
460
330
9
100
AcDbSymbolTableRecord
100
AcDbRegAppTableRecord
  2
GENIUS_GENOBJ-N-FIL_13
 70
     0
  0
APPID
  5
6F8
330
9
100
AcDbSymbolTableRecord
100
AcDbRegAppTableRecord
  2
GENIUS_GENOBJ-N-LIB_13
 70
     0
  0
APPID
  5
6F9
330
9
100
AcDbSymbolTableRecord
100
AcDbRegAppTableRecord
  2
GENIUS_GENOBJ-N-RSBK_13
 70
     0
  0
APPID
  5
6FA
330
9
100
AcDbSymbolTableRecord
100
AcDbRegAppTableRecord
  2
GENIUS_GENSCALE_13
 70
     0
  0
ENDTAB
  0
TABLE
  2
DIMSTYLE
  5
A
330
0
100
AcDbSymbolTable
 70
    16
100
AcDbDimStyleTable
 71
     2
340
216
340
81
  0
DIMSTYLE
105
81
330
A
100
AcDbSymbolTableRecord
100
AcDbDimStyleTableRecord
  2
AM_ISO
 70
     0
  4
"
 41
2.5
 42
1.0
 43
10.0
 44
1.0
 47
0.1
 48
0.1
 73
     0
 74
     0
 77
     1
 78
     8
 79
     2
140
3.5
141
0.0
143
0.0393701
146
0.71
147
1.5
172
     1
176
   256
177
   256
178
     2
271
     2
272
     3
274
     4
283
     0
284
     8
340
11
371
    -1
372
    -1
  0
DIMSTYLE
105
82
330
A
100
AcDbSymbolTableRecord
100
AcDbDimStyleTableRecord
  2
AM_ISO$3
 70
     0
  4
"
 41
2.5
 42
1.0
 43
10.0
 44
1.0
 47
0.1
 48
0.1
 73
     0
 77
     1
 78
     8
 79
     2
140
3.5
141
0.0
143
0.0393701
146
0.71
147
1.5
176
   256
177
   256
178
     2
271
     2
272
     3
274
     4
283
     0
284
     8
288
     1
289
     0
340
11
371
    -1
372
    -1
  0
DIMSTYLE
105
83
330
A
100
AcDbSymbolTableRecord
100
AcDbDimStyleTableRecord
  2
AM_ISO$4
 70
     0
  4
"
 41
2.5
 42
1.0
 43
10.0
 44
1.0
 47
0.1
 48
0.1
 73
     0
 77
     1
 78
     8
 79
     2
140
3.5
141
0.0
143
0.0393701
146
0.71
147
1.5
176
   256
177
   256
178
     2
271
     2
272
     3
274
     4
283
     0
284
     8
288
     1
289
     0
340
11
371
    -1
372
    -1
  0
DIMSTYLE
105
84
330
A
100
AcDbSymbolTableRecord
100
AcDbDimStyleTableRecord
  2
AM_ISO$6
 70
     0
  4
"
 41
2.5
 42
1.0
 43
10.0
 44
1.0
 47
0.1
 48
0.1
 73
     0
 74
     0
 78
     8
 79
     2
140
3.5
141
0.0
143
0.0393701
146
0.71
147
1.5
172
     1
176
   256
177
   256
178
     2
271
     2
272
     3
274
     4
283
     0
284
     8
340
11
371
    -1
372
    -1
  0
DIMSTYLE
105
85
330
A
100
AcDbSymbolTableRecord
100
AcDbDimStyleTableRecord
  2
AM_ISO$7
 70
     0
  4
"
 41
2.5
 42
1.0
 43
10.0
 44
1.0
 47
0.1
 48
0.1
 73
     0
 74
     0
 77
     1
 78
     8
 79
     2
140
5.0
141
0.0
143
0.0393701
146
0.71
147
1.5
172
     1
176
   256
177
   256
178
     2
271
     2
272
     3
274
     4
283
     0
284
     8
340
11
371
    -1
372
    -1
  0
DIMSTYLE
105
86
330
A
100
AcDbSymbolTableRecord
100
AcDbDimStyleTableRecord
  2
AM_ISO$SF
 70
     0
  4
"
 41
2.5
 42
1.0
 43
10.0
 44
1.0
 47
0.1
 48
0.1
 73
     0
 74
     0
 75
     1
 76
     1
 77
     1
 78
     8
 79
     2
140
3.5
141
0.0
143
0.0393701
146
0.71
147
1.5
172
     1
176
   256
177
   256
178
     2
271
     2
272
     3
274
     4
283
     0
284
     8
340
11
371
    -1
372
    -1
  0
DIMSTYLE
105
8B
330
A
100
AcDbSymbolTableRecord
100
AcDbDimStyleTableRecord
  2
AM_ISO$SH
 70
     0
  4
"
 41
2.5
 42
1.0
 43
10.0
 44
1.0
 47
0.1
 48
0.1
 73
     0
 74
     0
 75
     1
 76
     1
 77
     1
 78
     8
 79
     2
140
3.5
141
0.0
143
0.0393701
144
2.0
146
0.71
147
1.5
172
     1
173
     1
176
   256
177
   256
178
     2
271
     2
272
     3
274
     4
283
     0
284
     8
340
11
343
87
371
    -1
372
    -1
  0
DIMSTYLE
105
216
330
A
100
AcDbSymbolTableRecord
100
AcDbDimStyleTableRecord
  2
AM_JIS
 70
     0
  4
"
 41
2.5
 42
1.0
 43
10.0
 44
1.0
 47
0.1
 48
0.1000000001
 73
     0
 74
     0
 77
     3
 78
     8
 79
     2
140
3.799999999999999
141
0.0
143
0.0393701
146
0.71
147
1.5
172
     1
176
   256
177
   256
178
     2
271
     2
272
     2
275
     1
283
     0
284
     8
340
11
341
217
342
217
371
    -1
372
    -1
  0
DIMSTYLE
105
21D
330
A
100
AcDbSymbolTableRecord
100
AcDbDimStyleTableRecord
  2
AM_JIS$3
 70
     0
  4
"
 41
2.5
 42
1.0
 43
10.0
 44
1.0
 47
0.1
 48
0.1000000001
 73
     0
 77
     3
 78
     8
 79
     2
140
3.799999999999999
141
0.0
143
0.0393701
146
0.71
147
1.5
176
   256
177
   256
178
     2
271
     2
272
     2
275
     1
283
     0
284
     8
288
     1
289
     0
340
11
341
217
342
217
371
    -1
372
    -1
  0
DIMSTYLE
105
21E
330
A
100
AcDbSymbolTableRecord
100
AcDbDimStyleTableRecord
  2
AM_JIS$4
 70
     0
  4
"
 41
2.5
 42
1.0
 43
10.0
 44
1.0
 47
0.1
 48
0.1000000001
 73
     0
 77
     3
 78
     8
 79
     2
140
3.799999999999999
141
0.0
143
0.0393701
146
0.71
147
1.5
176
   256
177
   256
178
     2
271
     2
272
     2
275
     1
283
     0
284
     8
288
     1
289
     0
340
11
341
217
342
217
371
    -1
372
    -1
  0
DIMSTYLE
105
21F
330
A
100
AcDbSymbolTableRecord
100
AcDbDimStyleTableRecord
  2
AM_JIS$6
 70
     0
  4
"
 41
2.5
 42
1.0
 43
10.0
 44
1.0
 47
0.1
 48
0.1000000001
 73
     0
 74
     0
 78
     8
 79
     2
140
3.799999999999999
141
0.0
143
0.0393701
146
0.71
147
1.5
172
     1
176
   256
177
   256
178
     2
271
     2
272
     2
275
     1
283
     0
284
     8
340
11
341
217
342
217
371
    -1
372
    -1
  0
DIMSTYLE
105
220
330
A
100
AcDbSymbolTableRecord
100
AcDbDimStyleTableRecord
  2
AM_JIS$7
 70
     0
  4
"
 41
2.5
 42
1.0
 43
10.0
 44
1.0
 47
0.1
 48
0.1000000001
 73
     0
 74
     0
 77
     3
 78
     8
 79
     2
140
5.0
141
0.0
143
0.0393701
146
0.71
147
1.5
172
     1
176
   256
177
   256
178
     2
271
     2
272
     2
275
     1
283
     0
284
     8
340
11
341
217
342
217
371
    -1
372
    -1
  0
DIMSTYLE
105
221
330
A
100
AcDbSymbolTableRecord
100
AcDbDimStyleTableRecord
  2
AM_JIS$SF
 70
     0
  4
"
 41
2.5
 42
1.0
 43
10.0
 44
1.0
 47
0.1
 48
0.1
 73
     0
 74
     0
 75
     1
 76
     1
 77
     3
 78
     8
 79
     2
140
3.5
141
0.0
143
0.0393701
146
0.71
147
1.5
172
     1
176
   256
177
   256
178
     2
271
     2
272
     3
274
     4
283
     0
284
     8
340
11
341
217
342
217
343
217
344
217
371
    -1
372
    -1
  0
DIMSTYLE
105
222
330
A
100
AcDbSymbolTableRecord
100
AcDbDimStyleTableRecord
  2
AM_JIS$SH
 70
     0
  4
"
 41
2.5
 42
1.0
 43
10.0
 44
1.0
 47
0.1
 48
0.1
 73
     0
 74
     0
 75
     1
 76
     1
 77
     3
 78
     8
 79
     2
140
3.5
141
0.0
143
0.0393701
144
2.0
146
0.71
147
1.5
172
     1
173
     1
176
   256
177
   256
178
     2
271
     2
272
     3
274
     4
283
     0
284
     8
340
11
341
217
342
217
343
87
344
217
371
    -1
372
    -1
  0
DIMSTYLE
105
458
102
{ACAD_REACTORS
330
83D
330
840
330
843
330
846
330
849
330
974
330
9C0
330
9FF
330
A44
330
A88
102
}
330
A
100
AcDbSymbolTableRecord
100
AcDbDimStyleTableRecord
  2
AM_JIS$0
 70
     0
  4
"
 41
2.5
 42
0.0
 43
10.0
 44
1.0
 48
0.000000001
 73
     0
 74
     0
 77
     3
 78
     1
 79
     2
140
3.799999999999998
141
0.0
143
0.0393701
146
0.71
147
1.5
172
     1
176
   256
177
   256
178
     2
179
     1
271
     3
272
     3
275
     1
283
     0
284
     8
340
11
341
217
342
217
371
    -1
372
    -1
  0
DIMSTYLE
105
459
102
{ACAD_REACTORS
330
949
102
}
330
A
100
AcDbSymbolTableRecord
100
AcDbDimStyleTableRecord
  2
AM_JIS$2
 70
     0
  4
"
 41
2.5
 42
1.0
 43
10.0
 44
1.0
 47
0.1
 48
0.1
 73
     0
 74
     0
 77
     3
 78
     8
 79
     2
140
3.5
141
0.0
143
0.0393701
146
0.71
147
1.5
172
     1
176
   256
177
   256
178
     2
271
     2
272
     3
274
     4
283
     0
284
     8
340
11
341
217
342
217
343
217
344
217
371
    -1
372
    -1
  0
ENDTAB
  0
TABLE
  2
BLOCK_RECORD
  5
1
330
0
100
AcDbSymbolTable
 70
    16
  0
BLOCK_RECORD
  5
1F
102
{ACAD_XDICTIONARY
360
8F
102
}
330
1
100
AcDbSymbolTableRecord
100
AcDbBlockTableRecord
  2
*Model_Space
340
22
  0
BLOCK_RECORD
  5
1B
330
1
100
AcDbSymbolTableRecord
100
AcDbBlockTableRecord
  2
*Paper_Space
340
1E
  0
BLOCK_RECORD
  5
23
330
1
100
AcDbSymbolTableRecord
100
AcDbBlockTableRecord
  2
*Paper_Space0
340
26
  0
BLOCK_RECORD
  5
87
330
1
100
AcDbSymbolTableRecord
100
AcDbBlockTableRecord
  2
GENAXEH
340
0
  0
BLOCK_RECORD
  5
217
330
1
100
AcDbSymbolTableRecord
100
AcDbBlockTableRecord
  2
_Open30
340
0
  0
BLOCK_RECORD
  5
3DD
330
1
100
AcDbSymbolTableRecord
100
AcDbBlockTableRecord
  2
_None
340
0
  0
BLOCK_RECORD
  5
884
330
1
100
AcDbSymbolTableRecord
100
AcDbBlockTableRecord
  2
*D4
340
0
  0
BLOCK_RECORD
  5
88E
330
1
100
AcDbSymbolTableRecord
100
AcDbBlockTableRecord
  2
*D5
340
0
  0
BLOCK_RECORD
  5
89A
330
1
100
AcDbSymbolTableRecord
100
AcDbBlockTableRecord
  2
*D6
340
0
  0
BLOCK_RECORD
  5
8A4
330
1
100
AcDbSymbolTableRecord
100
AcDbBlockTableRecord
  2
*D7
340
0
  0
BLOCK_RECORD
  5
8AE
330
1
100
AcDbSymbolTableRecord
100
AcDbBlockTableRecord
  2
*D8
340
0
  0
BLOCK_RECORD
  5
94C
330
1
100
AcDbSymbolTableRecord
100
AcDbBlockTableRecord
  2
*D9
340
0
  0
BLOCK_RECORD
  5
975
330
1
100
AcDbSymbolTableRecord
100
AcDbBlockTableRecord
  2
*D10
340
0
  0
BLOCK_RECORD
  5
9C1
330
1
100
AcDbSymbolTableRecord
100
AcDbBlockTableRecord
  2
*D11
340
0
  0
BLOCK_RECORD
  5
A00
330
1
100
AcDbSymbolTableRecord
100
AcDbBlockTableRecord
  2
*D12
340
0
  0
BLOCK_RECORD
  5
A45
330
1
100
AcDbSymbolTableRecord
100
AcDbBlockTableRecord
  2
*D13
340
0
  0
BLOCK_RECORD
  5
A89
330
1
100
AcDbSymbolTableRecord
100
AcDbBlockTableRecord
  2
*D14
340
0
  0
ENDTAB
  0
ENDSEC
  0
SECTION
  2
BLOCKS
  0
BLOCK
  5
20
330
1F
100
AcDbEntity
  8
0
100
AcDbBlockBegin
  2
*Model_Space
 70
     0
 10
0.0
 20
0.0
 30
0.0
  3
*Model_Space
  1

  0
ENDBLK
  5
21
330
1F
100
AcDbEntity
  8
0
100
AcDbBlockEnd
  0
BLOCK
  5
1C
330
1B
100
AcDbEntity
 67
     1
  8
0
100
AcDbBlockBegin
  2
*Paper_Space
 70
     0
 10
0.0
 20
0.0
 30
0.0
  3
*Paper_Space
  1

  0
ENDBLK
  5
1D
330
1B
100
AcDbEntity
 67
     1
  8
0
100
AcDbBlockEnd
  0
BLOCK
  5
24
330
23
100
AcDbEntity
  8
0
100
AcDbBlockBegin
  2
*Paper_Space0
 70
     0
 10
0.0
 20
0.0
 30
0.0
  3
*Paper_Space0
  1

  0
ENDBLK
  5
25
330
23
100
AcDbEntity
  8
0
100
AcDbBlockEnd
  0
BLOCK
  5
CB7
330
87
100
AcDbEntity
  8
0
100
AcDbBlockBegin
  2
GENAXEH
 70
     0
 10
0.0
 20
0.0
 30
0.0
  3
GENAXEH
  1

  0
LINE
  5
CB8
330
87
100
AcDbEntity
  8
0
100
AcDbLine
 10
-1.0
 20
0.0
 30
0.0
 11
1.0
 21
0.0
 31
0.0
  0
ENDBLK
  5
CB9
330
87
100
AcDbEntity
  8
0
100
AcDbBlockEnd
  0
BLOCK
  5
CD7
330
217
100
AcDbEntity
  8
0
100
AcDbBlockBegin
  2
_Open30
 70
     0
 10
0.0
 20
0.0
 30
0.0
  3
_Open30
  1

  0
LINE
  5
CD8
330
217
100
AcDbEntity
  8
0
  6
ByBlock
 62
     0
370
    -2
100
AcDbLine
 10
-1.0
 20
0.26794919
 30
0.0
 11
0.0
 21
0.0
 31
0.0
  0
LINE
  5
CD9
330
217
100
AcDbEntity
  8
0
  6
ByBlock
 62
     0
370
    -2
100
AcDbLine
 10
0.0
 20
0.0
 30
0.0
 11
-1.0
 21
-0.26794919
 31
0.0
  0
LINE
  5
CDA
330
217
100
AcDbEntity
  8
0
  6
ByBlock
 62
     0
370
    -2
100
AcDbLine
 10
0.0
 20
0.0
 30
0.0
 11
-1.0
 21
0.0
 31
0.0
  0
ENDBLK
  5
CDB
330
217
100
AcDbEntity
  8
0
100
AcDbBlockEnd
  0
BLOCK
  5
3DE
330
3DD
100
AcDbEntity
  8
0
370
    -3
100
AcDbBlockBegin
  2
_None
 70
     0
 10
0.0
 20
0.0
 30
0.0
  3
_None
  1

  0
ENDBLK
  5
3DF
330
3DD
100
AcDbEntity
  8
0
370
    -3
100
AcDbBlockEnd
  0
BLOCK
  5
8B8
330
884
100
AcDbEntity
  8
0
100
AcDbBlockBegin
  2
*D4
 70
     1
 10
0.0
 20
0.0
 30
0.0
  3
*D4
  1

  0
LINE
  5
B66
330
884
100
AcDbEntity
  8
AM_5
100
AcDbLine
 10
-48.79999999999995
 20
4.75
 30
0.0
 11
-56.92380562743914
 21
4.750000000000001
 31
0.0
  0
LINE
  5
B67
330
884
100
AcDbEntity
  8
AM_5
100
AcDbLine
 10
-48.79999999999995
 20
-4.75
 30
0.0
 11
-56.92380562743914
 21
-4.749999999999997
 31
0.0
  0
LINE
  5
B68
330
884
100
AcDbEntity
  8
AM_5
100
AcDbLine
 10
-55.92380562743914
 20
2.25
 30
0.0
 11
-55.92380562743914
 21
-2.249999999999997
 31
0.0
  0
INSERT
  5
B69
330
884
100
AcDbEntity
  8
AM_5
100
AcDbBlockReference
  2
_Open30
 10
-55.92380562743914
 20
4.75
 30
0.0
 41
2.5
 42
2.5
 43
2.5
 50
90.0
  0
INSERT
  5
B6A
330
884
100
AcDbEntity
  8
AM_5
100
AcDbBlockReference
  2
_Open30
 10
-55.92380562743914
 20
-4.749999999999998
 30
0.0
 41
2.5
 42
2.5
 43
2.5
 50
270.0
  0
MTEXT
  5
B6B
330
884
100
AcDbEntity
  8
AM_5
 62
     2
100
AcDbMText
 10
-59.32380562743914
 20
0.0000000000000217
 30
0.0
 40
3.799999999999998
 41
0.0
 71
     5
 72
     1
  1
9.5
 11
0.0000000000000001
 21
1.0
 31
0.0
 73
     1
 44
1.0
1001
ACAD
1000
MTEXTBEGIN
1070
    73
1070
     1
1070
    44
1040
1.0
1070
    74
1070
     0
1000
MTEXTEND
  0
POINT
  5
B6C
330
884
100
AcDbEntity
  8
Defpoints
 62
     0
100
AcDbPoint
 10
-48.79999999999995
 20
4.75
 30
0.0
  0
POINT
  5
B6D
330
884
100
AcDbEntity
  8
Defpoints
 62
     0
100
AcDbPoint
 10
-48.79999999999995
 20
-4.75
 30
0.0
  0
POINT
  5
B6E
330
884
100
AcDbEntity
  8
Defpoints
 62
     0
100
AcDbPoint
 10
-55.92380562743914
 20
-4.749999999999998
 30
0.0
  0
ENDBLK
  5
8B9
330
884
100
AcDbEntity
  8
0
100
AcDbBlockEnd
  0
BLOCK
  5
8BA
330
88E
100
AcDbEntity
  8
0
100
AcDbBlockBegin
  2
*D5
 70
     1
 10
0.0
 20
0.0
 30
0.0
  3
*D5
  1

  0
LINE
  5
B6F
330
88E
100
AcDbEntity
  8
AM_5
100
AcDbLine
 10
-50.0
 20
-28.0
 30
0.0
 11
-50.0
 21
-25.74087665613843
 31
0.0
  0
LINE
  5
B70
330
88E
100
AcDbEntity
  8
AM_5
100
AcDbLine
 10
-44.0
 20
-4.75
 30
0.0
 11
-44.0
 21
-27.74087665613843
 31
0.0
  0
LINE
  5
B71
330
88E
100
AcDbEntity
  8
AM_5
100
AcDbLine
 10
-52.5
 20
-26.74087665613843
 30
0.0
 11
-55.0
 21
-26.74087665613843
 31
0.0
  0
LINE
  5
B72
330
88E
100
AcDbEntity
  8
AM_5
100
AcDbLine
 10
-41.5
 20
-26.74087665613843
 30
0.0
 11
-39.0
 21
-26.74087665613843
 31
0.0
  0
LINE
  5
B73
330
88E
100
AcDbEntity
  8
AM_5
100
AcDbLine
 10
-50.0
 20
-26.74087665613843
 30
0.0
 11
-44.0
 21
-26.74087665613843
 31
0.0
  0
INSERT
  5
B74
330
88E
100
AcDbEntity
  8
AM_5
100
AcDbBlockReference
  2
_Open30
 10
-50.0
 20
-26.74087665613843
 30
0.0
 41
2.5
 42
2.5
 43
2.5
  0
INSERT
  5
B75
330
88E
100
AcDbEntity
  8
AM_5
100
AcDbBlockReference
  2
_Open30
 10
-44.0
 20
-26.74087665613843
 30
0.0
 41
2.5
 42
2.5
 43
2.5
 50
180.0
  0
MTEXT
  5
B76
330
88E
100
AcDbEntity
  8
AM_5
 62
     2
100
AcDbMText
 10
-47.0
 20
-23.34087665613843
 30
0.0
 40
3.799999999999998
 41
0.0
 71
     5
 72
     1
  1
6
 73
     1
 44
1.0
1001
ACAD
1000
MTEXTBEGIN
1070
    73
1070
     1
1070
    44
1040
1.0
1070
    74
1070
     0
1000
MTEXTEND
  0
POINT
  5
B77
330
88E
100
AcDbEntity
  8
Defpoints
 62
     0
100
AcDbPoint
 10
-50.0
 20
-28.0
 30
0.0
  0
POINT
  5
B78
330
88E
100
AcDbEntity
  8
Defpoints
 62
     0
100
AcDbPoint
 10
-44.0
 20
-4.75
 30
0.0
  0
POINT
  5
B79
330
88E
100
AcDbEntity
  8
Defpoints
 62
     0
100
AcDbPoint
 10
-44.0
 20
-26.74087665613843
 30
0.0
  0
ENDBLK
  5
8BB
330
88E
100
AcDbEntity
  8
0
100
AcDbBlockEnd
  0
BLOCK
  5
8BC
330
89A
100
AcDbEntity
  8
0
100
AcDbBlockBegin
  2
*D6
 70
     1
 10
0.0
 20
0.0
 30
0.0
  3
*D6
  1

  0
LINE
  5
B7A
330
89A
100
AcDbEntity
  8
AM_5
100
AcDbLine
 10
-50.0
 20
-28.0
 30
0.0
 11
-50.0
 21
-40.99999999999997
 31
0.0
  0
LINE
  5
B7B
330
89A
100
AcDbEntity
  8
AM_5
100
AcDbLine
 10
-25.0
 20
-13.3
 30
0.0
 11
-25.0
 21
-40.99999999999997
 31
0.0
  0
LINE
  5
B7C
330
89A
100
AcDbEntity
  8
AM_5
100
AcDbLine
 10
-47.5
 20
-40.0
 30
0.0
 11
-27.5
 21
-40.0
 31
0.0
  0
INSERT
  5
B7D
330
89A
100
AcDbEntity
  8
AM_5
100
AcDbBlockReference
  2
_Open30
 10
-50.0
 20
-40.0
 30
0.0
 41
2.5
 42
2.5
 43
2.5
 50
180.0
  0
INSERT
  5
B7E
330
89A
100
AcDbEntity
  8
AM_5
100
AcDbBlockReference
  2
_Open30
 10
-25.0
 20
-40.0
 30
0.0
 41
2.5
 42
2.5
 43
2.5
  0
MTEXT
  5
B7F
330
89A
100
AcDbEntity
  8
AM_5
 62
     2
100
AcDbMText
 10
-37.5
 20
-36.59962598425197
 30
0.0
 40
3.799999999999998
 41
0.0
 71
     5
 72
     1
  1
25
 73
     1
 44
1.0
1001
ACAD
1000
MTEXTBEGIN
1070
    73
1070
     1
1070
    44
1040
1.0
1070
    74
1070
     0
1000
MTEXTEND
  0
POINT
  5
B80
330
89A
100
AcDbEntity
  8
Defpoints
 62
     0
100
AcDbPoint
 10
-50.0
 20
-28.0
 30
0.0
  0
POINT
  5
B81
330
89A
100
AcDbEntity
  8
Defpoints
 62
     0
100
AcDbPoint
 10
-25.0
 20
-13.3
 30
0.0
  0
POINT
  5
B82
330
89A
100
AcDbEntity
  8
Defpoints
 62
     0
100
AcDbPoint
 10
-25.0
 20
-40.0
 30
0.0
  0
ENDBLK
  5
8BD
330
89A
100
AcDbEntity
  8
0
100
AcDbBlockEnd
  0
BLOCK
  5
8BE
330
8A4
100
AcDbEntity
  8
0
100
AcDbBlockBegin
  2
*D7
 70
     1
 10
0.0
 20
0.0
 30
0.0
  3
*D7
  1

  0
LINE
  5
B83
330
8A4
100
AcDbEntity
  8
AM_5
100
AcDbLine
 10
-50.0
 20
-28.0
 30
0.0
 11
-50.0
 21
-51.97194299999999
 31
0.0
  0
LINE
  5
B84
330
8A4
100
AcDbEntity
  8
AM_5
100
AcDbLine
 10
-19.0
 20
-10.0
 30
0.0
 11
-19.0
 21
-51.97194299999999
 31
0.0
  0
LINE
  5
B85
330
8A4
100
AcDbEntity
  8
AM_5
100
AcDbLine
 10
-47.5
 20
-50.97194299999999
 30
0.0
 11
-21.5
 21
-50.97194299999999
 31
0.0
  0
INSERT
  5
B86
330
8A4
100
AcDbEntity
  8
AM_5
100
AcDbBlockReference
  2
_Open30
 10
-50.0
 20
-50.97194299999999
 30
0.0
 41
2.5
 42
2.5
 43
2.5
 50
180.0
  0
INSERT
  5
B87
330
8A4
100
AcDbEntity
  8
AM_5
100
AcDbBlockReference
  2
_Open30
 10
-19.0
 20
-50.97194299999999
 30
0.0
 41
2.5
 42
2.5
 43
2.5
  0
MTEXT
  5
B88
330
8A4
100
AcDbEntity
  8
AM_5
 62
     2
100
AcDbMText
 10
-34.5
 20
-47.571943
 30
0.0
 40
3.799999999999998
 41
0.0
 71
     5
 72
     1
  1
31
 73
     1
 44
1.0
1001
ACAD
1000
MTEXTBEGIN
1070
    73
1070
     1
1070
    44
1040
1.0
1070
    74
1070
     0
1000
MTEXTEND
  0
POINT
  5
B89
330
8A4
100
AcDbEntity
  8
Defpoints
 62
     0
100
AcDbPoint
 10
-50.0
 20
-28.0
 30
0.0
  0
POINT
  5
B8A
330
8A4
100
AcDbEntity
  8
Defpoints
 62
     0
100
AcDbPoint
 10
-19.0
 20
-10.0
 30
0.0
  0
POINT
  5
B8B
330
8A4
100
AcDbEntity
  8
Defpoints
 62
     0
100
AcDbPoint
 10
-19.0
 20
-50.97194299999999
 30
0.0
  0
ENDBLK
  5
8BF
330
8A4
100
AcDbEntity
  8
0
100
AcDbBlockEnd
  0
BLOCK
  5
8C0
330
8AE
100
AcDbEntity
  8
0
100
AcDbBlockBegin
  2
*D8
 70
     1
 10
0.0
 20
0.0
 30
0.0
  3
*D8
  1

  0
LINE
  5
B8C
330
8AE
100
AcDbEntity
  8
AM_5
100
AcDbLine
 10
-19.0
 20
-6.5
 30
0.0
 11
3.984463773082778
 21
-6.500000000000007
 31
0.0
  0
LINE
  5
B8D
330
8AE
100
AcDbEntity
  8
AM_5
100
AcDbLine
 10
-19.0
 20
6.5
 30
0.0
 11
3.984463773082781
 21
6.499999999999992
 31
0.0
  0
LINE
  5
B8E
330
8AE
100
AcDbEntity
  8
AM_5
100
AcDbLine
 10
2.984463773082778
 20
-4.000000000000006
 30
0.0
 11
2.984463773082779
 21
3.999999999999993
 31
0.0
  0
INSERT
  5
B8F
330
8AE
100
AcDbEntity
  8
AM_5
100
AcDbBlockReference
  2
_Open30
 10
2.984463773082778
 20
-6.500000000000007
 30
0.0
 41
2.5
 42
2.5
 43
2.5
 50
270.0
  0
INSERT
  5
B90
330
8AE
100
AcDbEntity
  8
AM_5
100
AcDbBlockReference
  2
_Open30
 10
2.984463773082781
 20
6.499999999999992
 30
0.0
 41
2.5
 42
2.5
 43
2.5
 50
90.0
  0
MTEXT
  5
B91
330
8AE
100
AcDbEntity
  8
AM_5
 62
     2
100
AcDbMText
 10
-0.4155362269172202
 20
-1.29238347088767
 30
0.0
 40
3.799999999999998
 41
0.0
 71
     5
 72
     1
  1
%%c13
 11
0.0000000000000001
 21
1.0
 31
0.0
 73
     1
 44
1.0
1001
ACAD
1000
MTEXTBEGIN
1070
    73
1070
     1
1070
    44
1040
1.0
1070
    74
1070
     0
1000
MTEXTEND
  0
POINT
  5
B92
330
8AE
100
AcDbEntity
  8
Defpoints
 62
     0
100
AcDbPoint
 10
-19.0
 20
-6.5
 30
0.0
  0
POINT
  5
B93
330
8AE
100
AcDbEntity
  8
Defpoints
 62
     0
100
AcDbPoint
 10
-19.0
 20
6.5
 30
0.0
  0
POINT
  5
B94
330
8AE
100
AcDbEntity
  8
Defpoints
 62
     0
100
AcDbPoint
 10
2.984463773082781
 20
6.499999999999992
 30
0.0
  0
ENDBLK
  5
8C1
330
8AE
100
AcDbEntity
  8
0
100
AcDbBlockEnd
  0
BLOCK
  5
958
330
94C
100
AcDbEntity
  8
0
100
AcDbBlockBegin
  2
*D9
 70
     1
 10
0.0
 20
0.0
 30
0.0
  3
*D9
  1

  0
LINE
  5
BC9
330
94C
100
AcDbEntity
  8
AM_5
100
AcDbLine
 10
-0.0000000000000142
 20
41.0
 30
0.0
 11
-0.000000000000199
 21
58.78699268299707
 31
0.0
  0
LINE
  5
BCA
330
94C
100
AcDbEntity
  8
AM_5
100
AcDbLine
 10
-5.664888268844715
 20
42.64127762289422
 30
0.0
 11
-17.02707251938059
 21
47.93955115228699
 31
0.0
  0
ARC
  5
BCB
330
94C
100
AcDbEntity
  8
AM_5
100
AcDbCircle
 10
-0.0000000000000036
 20
39.99969684053962
 30
0.0
 40
17.78729584245746
100
AcDbArc
 50
98.0595506045207
 51
146.9404493954807
  0
INSERT
  5
BCC
330
94C
100
AcDbEntity
  8
AM_5
100
AcDbBlockReference
  2
_Open30
 10
-0.0000000000001847
 20
57.78699268299707
 30
0.0
 41
2.5
 42
2.5
 43
2.5
 50
4.029775302260646
  0
INSERT
  5
BCD
330
94C
100
AcDbEntity
  8
AM_5
100
AcDbBlockReference
  2
_Open30
 10
-16.12076473234393
 20
47.51693289054632
 30
0.0
 41
2.5
 42
2.5
 43
2.5
 50
240.9702246977408
  0
MTEXT
  5
BCE
330
94C
100
AcDbEntity
  8
AM_5
 62
     2
100
AcDbMText
 10
-11.30333081682886
 20
57.74237219710308
 30
0.0
 40
3.5
 41
0.0
 71
     5
 72
     1
  1
65°
 11
0.8433914458128823
 21
0.5372996083468294
 31
0.0
 73
     1
 44
1.0
1001
ACAD
1000
MTEXTBEGIN
1070
    73
1070
     1
1070
    44
1040
1.0
1070
    74
1070
     0
1000
MTEXTEND
  0
POINT
  5
BCF
330
94C
100
AcDbEntity
  8
Defpoints
 62
     0
100
AcDbPoint
 10
-6.567178969104841
 20
56.53027619441743
 30
0.0
  0
POINT
  5
BD0
330
94C
100
AcDbEntity
  8
Defpoints
 62
     0
100
AcDbPoint
 10
-1.403681914070944
 20
40.65424446668454
 30
0.0
  0
POINT
  5
BD1
330
94C
100
AcDbEntity
  8
Defpoints
 62
     0
100
AcDbPoint
 10
0.0
 20
40.0
 30
0.0
  0
POINT
  5
BD2
330
94C
100
AcDbEntity
  8
Defpoints
 62
     0
100
AcDbPoint
 10
0.0
 20
39.87203492077925
 30
0.0
  0
POINT
  5
BD3
330
94C
100
AcDbEntity
  8
Defpoints
 62
     0
100
AcDbPoint
 10
-4.758580481808056
 20
42.21865936115353
 30
0.0
  0
ENDBLK
  5
959
330
94C
100
AcDbEntity
  8
0
100
AcDbBlockEnd
  0
BLOCK
  5
9A5
330
975
100
AcDbEntity
  8
0
100
AcDbBlockBegin
  2
*D10
 70
     1
 10
0.0
 20
0.0
 30
0.0
  3
*D10
  1

  0
LINE
  5
BA0
330
975
100
AcDbEntity
  8
AM_5
100
AcDbLine
 10
-50.0
 20
28.0
 30
0.0
 11
-50.0
 21
67.31423486480486
 31
0.0
  0
LINE
  5
BA1
330
975
100
AcDbEntity
  8
AM_5
100
AcDbLine
 10
0.0
 20
40.0
 30
0.0
 11
0.0000000000000017
 21
67.31423486480486
 31
0.0
  0
LINE
  5
BA2
330
975
100
AcDbEntity
  8
AM_5
100
AcDbLine
 10
-47.5
 20
66.31423486480485
 30
0.0
 11
-2.499999999999997
 21
66.31423486480485
 31
0.0
  0
INSERT
  5
BA3
330
975
100
AcDbEntity
  8
AM_5
100
AcDbBlockReference
  2
_Open30
 10
-50.0
 20
66.31423486480485
 30
0.0
 41
2.5
 42
2.5
 43
2.5
 50
180.0
  0
INSERT
  5
BA4
330
975
100
AcDbEntity
  8
AM_5
100
AcDbBlockReference
  2
_Open30
 10
0.0000000000000016
 20
66.31423486480485
 30
0.0
 41
2.5
 42
2.5
 43
2.5
  0
MTEXT
  5
BA5
330
975
100
AcDbEntity
  8
AM_5
 62
     2
100
AcDbMText
 10
-25.0
 20
69.71423486480486
 30
0.0
 40
3.799999999999998
 41
0.0
 71
     5
 72
     1
  1
50
 73
     1
 44
1.0
1001
ACAD
1000
MTEXTBEGIN
1070
    73
1070
     1
1070
    44
1040
1.0
1070
    74
1070
     0
1000
MTEXTEND
  0
POINT
  5
BA6
330
975
100
AcDbEntity
  8
Defpoints
 62
     0
100
AcDbPoint
 10
-50.0
 20
28.0
 30
0.0
  0
POINT
  5
BA7
330
975
100
AcDbEntity
  8
Defpoints
 62
     0
100
AcDbPoint
 10
0.0
 20
40.0
 30
0.0
  0
POINT
  5
BA8
330
975
100
AcDbEntity
  8
Defpoints
 62
     0
100
AcDbPoint
 10
0.0000000000000016
 20
66.31423486480485
 30
0.0
  0
ENDBLK
  5
9A6
330
975
100
AcDbEntity
  8
0
100
AcDbBlockEnd
  0
BLOCK
  5
9EB
330
9C1
100
AcDbEntity
  8
0
100
AcDbBlockBegin
  2
*D11
 70
     1
 10
0.0
 20
0.0
 30
0.0
  3
*D11
  1

  0
LINE
  5
C21
330
9C1
100
AcDbEntity
  8
AM_5
100
AcDbLine
 10
-48.5
 20
12.7
 30
0.0
 11
-66.92380562743915
 21
12.70000000000001
 31
0.0
  0
LINE
  5
C22
330
9C1
100
AcDbEntity
  8
AM_5
100
AcDbLine
 10
-48.5
 20
-12.7
 30
0.0
 11
-66.92380562743915
 21
-12.7
 31
0.0
  0
LINE
  5
C23
330
9C1
100
AcDbEntity
  8
AM_5
100
AcDbLine
 10
-65.92380562743915
 20
10.20000000000001
 30
0.0
 11
-65.92380562743915
 21
-10.2
 31
0.0
  0
INSERT
  5
C24
330
9C1
100
AcDbEntity
  8
AM_5
100
AcDbBlockReference
  2
_Open30
 10
-65.92380562743915
 20
12.70000000000001
 30
0.0
 41
2.5
 42
2.5
 43
2.5
 50
90.0
  0
INSERT
  5
C25
330
9C1
100
AcDbEntity
  8
AM_5
100
AcDbBlockReference
  2
_Open30
 10
-65.92380562743915
 20
-12.7
 30
0.0
 41
2.5
 42
2.5
 43
2.5
 50
270.0
  0
MTEXT
  5
C26
330
9C1
100
AcDbEntity
  8
AM_5
 62
     2
100
AcDbMText
 10
-69.32417964318718
 20
-0.0000000000000044
 30
0.0
 40
3.799999999999998
 41
0.0
 71
     5
 72
     1
  1
%%c25.4
 11
0.0000000000000001
 21
1.0
 31
0.0
 73
     1
 44
1.0
1001
ACAD
1000
MTEXTBEGIN
1070
    73
1070
     1
1070
    44
1040
1.0
1070
    74
1070
     0
1000
MTEXTEND
  0
POINT
  5
C27
330
9C1
100
AcDbEntity
  8
Defpoints
 62
     0
100
AcDbPoint
 10
-48.5
 20
12.7
 30
0.0
  0
POINT
  5
C28
330
9C1
100
AcDbEntity
  8
Defpoints
 62
     0
100
AcDbPoint
 10
-48.5
 20
-12.7
 30
0.0
  0
POINT
  5
C29
330
9C1
100
AcDbEntity
  8
Defpoints
 62
     0
100
AcDbPoint
 10
-65.92380562743915
 20
-12.7
 30
0.0
  0
ENDBLK
  5
9EC
330
9C1
100
AcDbEntity
  8
0
100
AcDbBlockEnd
  0
BLOCK
  5
A33
330
A00
100
AcDbEntity
  8
0
100
AcDbBlockBegin
  2
*D12
 70
     1
 10
0.0
 20
0.0
 30
0.0
  3
*D12
  1

  0
LINE
  5
BDD
330
A00
100
AcDbEntity
  8
AM_5
100
AcDbLine
 10
-48.0
 20
30.0
 30
0.0
 11
-83.41542508439522
 21
30.00000000000001
 31
0.0
  0
LINE
  5
BDE
330
A00
100
AcDbEntity
  8
AM_5
100
AcDbLine
 10
-48.0
 20
-30.0
 30
0.0
 11
-83.41542508439522
 21
-29.99999999999999
 31
0.0
  0
LINE
  5
BDF
330
A00
100
AcDbEntity
  8
AM_5
100
AcDbLine
 10
-82.41542508439522
 20
27.50000000000001
 30
0.0
 11
-82.41542508439522
 21
-27.49999999999999
 31
0.0
  0
INSERT
  5
BE0
330
A00
100
AcDbEntity
  8
AM_5
100
AcDbBlockReference
  2
_Open30
 10
-82.41542508439522
 20
30.00000000000001
 30
0.0
 41
2.5
 42
2.5
 43
2.5
 50
90.0
  0
INSERT
  5
BE1
330
A00
100
AcDbEntity
  8
AM_5
100
AcDbBlockReference
  2
_Open30
 10
-82.41542508439522
 20
-29.99999999999999
 30
0.0
 41
2.5
 42
2.5
 43
2.5
 50
270.0
  0
MTEXT
  5
BE2
330
A00
100
AcDbEntity
  8
AM_5
 62
     2
100
AcDbMText
 10
-85.81542508439524
 20
-0.0000000000000016
 30
0.0
 40
3.799999999999998
 41
0.0
 71
     5
 72
     1
  1
%%c60
 11
0.0000000000000001
 21
1.0
 31
0.0
 73
     1
 44
1.0
1001
ACAD
1000
MTEXTBEGIN
1070
    73
1070
     1
1070
    44
1040
1.0
1070
    74
1070
     0
1000
MTEXTEND
  0
POINT
  5
BE3
330
A00
100
AcDbEntity
  8
Defpoints
 62
     0
100
AcDbPoint
 10
-48.0
 20
30.0
 30
0.0
  0
POINT
  5
BE4
330
A00
100
AcDbEntity
  8
Defpoints
 62
     0
100
AcDbPoint
 10
-48.0
 20
-30.0
 30
0.0
  0
POINT
  5
BE5
330
A00
100
AcDbEntity
  8
Defpoints
 62
     0
100
AcDbPoint
 10
-82.41542508439522
 20
-29.99999999999999
 30
0.0
  0
ENDBLK
  5
A34
330
A00
100
AcDbEntity
  8
0
100
AcDbBlockEnd
  0
BLOCK
  5
A6F
330
A45
100
AcDbEntity
  8
0
100
AcDbBlockBegin
  2
*D13
 70
     1
 10
0.0
 20
0.0
 30
0.0
  3
*D13
  1

  0
LINE
  5
BBB
330
A45
100
AcDbEntity
  8
AM_5
100
AcDbLine
 10
0.0
 20
40.0
 30
0.0
 11
15.20993640301823
 21
40.0
 31
0.0
  0
LINE
  5
BBC
330
A45
100
AcDbEntity
  8
AM_5
100
AcDbLine
 10
14.20993640301822
 20
-0.0000000000000079
 30
0.0
 11
14.20993640301823
 21
37.5
 31
0.0
  0
INSERT
  5
BBD
330
A45
100
AcDbEntity
  8
AM_5
100
AcDbBlockReference
  2
_Open30
 10
14.20993640301823
 20
40.0
 30
0.0
 41
2.5
 42
2.5
 43
2.5
 50
90.0
  0
MTEXT
  5
BBE
330
A45
100
AcDbEntity
  8
AM_5
 62
     2
100
AcDbMText
 10
10.80993640301822
 20
0.2899617440922957
 30
0.0
 40
3.799999999999998
 41
0.0
 71
     5
 72
     1
  1
%%c80
 11
0.0000000000000001
 21
1.0
 31
0.0
 73
     1
 44
1.0
1001
ACAD
1000
MTEXTBEGIN
1070
    73
1070
     1
1070
    44
1040
1.0
1070
    74
1070
     0
1000
MTEXTEND
  0
POINT
  5
BBF
330
A45
100
AcDbEntity
  8
Defpoints
 62
     0
100
AcDbPoint
 10
-13.80560509347833
 20
0.0
 30
0.0
  0
POINT
  5
BC0
330
A45
100
AcDbEntity
  8
Defpoints
 62
     0
100
AcDbPoint
 10
0.0
 20
40.0
 30
0.0
  0
POINT
  5
BC1
330
A45
100
AcDbEntity
  8
Defpoints
 62
     0
100
AcDbPoint
 10
14.20993640301823
 20
40.0
 30
0.0
  0
ENDBLK
  5
A70
330
A45
100
AcDbEntity
  8
0
100
AcDbBlockEnd
  0
BLOCK
  5
AC5
330
A89
100
AcDbEntity
  8
0
100
AcDbBlockBegin
  2
*D14
 70
     1
 10
0.0
 20
0.0
 30
0.0
  3
*D14
  1

  0
LINE
  5
BC2
330
A89
100
AcDbEntity
  8
AM_5
100
AcDbLine
 10
-9.585465762479316
 20
43.88904504570727
 30
0.0
 11
27.44460432195582
 21
43.88904504570727
 31
0.0
  0
LINE
  5
BC3
330
A89
100
AcDbEntity
  8
AM_5
100
AcDbLine
 10
26.44460432195581
 20
-0.0000000000000114
 30
0.0
 11
26.44460432195582
 21
41.38904504570727
 31
0.0
  0
INSERT
  5
BC4
330
A89
100
AcDbEntity
  8
AM_5
100
AcDbBlockReference
  2
_Open30
 10
26.44460432195582
 20
43.88904504570727
 30
0.0
 41
2.5
 42
2.5
 43
2.5
 50
90.0
  0
MTEXT
  5
BC5
330
A89
100
AcDbEntity
  8
AM_5
 62
     2
100
AcDbMText
 10
23.04460432195581
 20
1.009353479894855
 30
0.0
 40
3.799999999999998
 41
0.0
 71
     5
 72
     1
  1
%%c88
 11
0.0000000000000001
 21
1.0
 31
0.0
 73
     1
 44
1.0
1001
ACAD
1000
MTEXTBEGIN
1070
    73
1070
     1
1070
    44
1040
1.0
1070
    74
1070
     0
1000
MTEXTEND
  0
POINT
  5
BC6
330
A89
100
AcDbEntity
  8
Defpoints
 62
     0
100
AcDbPoint
 10
-13.80560509347833
 20
0.0
 30
0.0
  0
POINT
  5
BC7
330
A89
100
AcDbEntity
  8
Defpoints
 62
     0
100
AcDbPoint
 10
-9.585465762479316
 20
43.88904504570727
 30
0.0
  0
POINT
  5
BC8
330
A89
100
AcDbEntity
  8
Defpoints
 62
     0
100
AcDbPoint
 10
26.44460432195582
 20
43.88904504570727
 30
0.0
  0
ENDBLK
  5
AC6
330
A89
100
AcDbEntity
  8
0
100
AcDbBlockEnd
  0
ENDSEC
  0
SECTION
  2
ENTITIES
  0
TEXT
  5
56C
330
1F
100
AcDbEntity
  8
0
370
    -3
100
AcDbText
 10
-45.27558276742786
 20
-72.57845075899091
 30
0.0
 40
3.799999999999998
  1
DNX(F)12080R
  7
ACISOTS
100
AcDbText
  0
LINE
  5
7C3
330
1F
100
AcDbEntity
  8
0
100
AcDbLine
 10
-50.0
 20
14.55
 30
0.0
 11
-50.0
 21
28.0
 31
0.0
  0
LINE
  5
7C4
330
1F
100
AcDbEntity
  8
0
100
AcDbLine
 10
-37.48085500000003
 20
-30.0
 30
0.0
 11
-48.0
 21
-30.0
 31
0.0
  0
LINE
  5
7C5
330
1F
100
AcDbEntity
  8
0
100
AcDbLine
 10
-48.0
 20
30.0
 30
0.0
 11
-37.48085500000003
 21
30.0
 31
0.0
  0
LINE
  5
7C6
102
{ACAD_REACTORS
330
842
330
845
330
848
102
}
330
1F
100
AcDbEntity
  8
0
100
AcDbLine
 10
-50.0
 20
-28.0
 30
0.0
 11
-50.0
 21
-14.55
 31
0.0
  0
LINE
  5
7C9
330
1F
100
AcDbEntity
  8
0
100
AcDbLine
 10
-27.89783299999999
 20
-12.7
 30
0.0
 11
-48.5
 21
-12.7
 31
0.0
  0
LINE
  5
7CA
330
1F
100
AcDbEntity
  8
0
100
AcDbLine
 10
-48.5
 20
12.7
 30
0.0
 11
-27.89783299999999
 21
12.7
 31
0.0
  0
LINE
  5
7CB
330
1F
100
AcDbEntity
  8
0
100
AcDbLine
 10
-27.89783299999999
 20
12.7
 30
0.0
 11
-27.89783299999999
 21
13.3
 31
0.0
  0
LINE
  5
7CC
330
1F
100
AcDbEntity
  8
0
100
AcDbLine
 10
-27.89783299999999
 20
-13.3
 30
0.0
 11
-27.89783299999999
 21
-12.7
 31
0.0
  0
LINE
  5
7CD
330
1F
100
AcDbEntity
  8
0
100
AcDbLine
 10
-25.0
 20
-13.3
 30
0.0
 11
-27.89783299999999
 21
-13.3
 31
0.0
  0
LINE
  5
7CE
330
1F
100
AcDbEntity
  8
0
100
AcDbLine
 10
-27.89783299999999
 20
13.3
 30
0.0
 11
-25.0
 21
13.3
 31
0.0
  0
LINE
  5
7CF
102
{ACAD_REACTORS
330
845
102
}
330
1F
100
AcDbEntity
  8
0
100
AcDbLine
 10
-25.0
 20
-6.5
 30
0.0
 11
-25.0
 21
-13.3
 31
0.0
  0
LINE
  5
7D0
330
1F
100
AcDbEntity
  8
0
100
AcDbLine
 10
-25.0
 20
13.3
 30
0.0
 11
-25.0
 21
6.5
 31
0.0
  0
LINE
  5
7D1
330
1F
100
AcDbEntity
  8
0
100
AcDbLine
 10
-19.0
 20
-6.5
 30
0.0
 11
-25.0
 21
-6.5
 31
0.0
  0
LINE
  5
7D2
330
1F
100
AcDbEntity
  8
0
100
AcDbLine
 10
-25.0
 20
6.5
 30
0.0
 11
-19.0
 21
6.5
 31
0.0
  0
LINE
  5
7D3
330
1F
100
AcDbEntity
  8
0
100
AcDbLine
 10
-19.0
 20
6.5
 30
0.0
 11
-19.0
 21
10.0
 31
0.0
  0
LINE
  5
7D4
102
{ACAD_REACTORS
330
848
102
}
330
1F
100
AcDbEntity
  8
0
100
AcDbLine
 10
-19.0
 20
-10.0
 30
0.0
 11
-19.0
 21
-6.5
 31
0.0
  0
LINE
  5
7D5
330
1F
100
AcDbEntity
  8
0
100
AcDbLine
 10
-50.0
 20
-14.2
 30
0.0
 11
-48.5
 21
-12.7
 31
0.0
  0
LINE
  5
7D6
330
1F
100
AcDbEntity
  8
0
100
AcDbLine
 10
-48.5
 20
12.7
 30
0.0
 11
-50.0
 21
14.2
 31
0.0
  0
ARC
  5
7D7
102
{ACAD_REACTORS
330
980
102
}
330
1F
100
AcDbEntity
  8
1
100
AcDbCircle
 10
-48.0
 20
28.0
 30
0.0
 40
2.0
100
AcDbArc
 50
90.0
 51
180.0
  0
ARC
  5
7D8
330
1F
100
AcDbEntity
  8
1
100
AcDbCircle
 10
-48.0
 20
-28.0
 30
0.0
 40
2.0
100
AcDbArc
 50
180.0
 51
270.0
  0
LINE
  5
82E
330
1F
100
AcDbEntity
  8
AM_0
100
AcDbLine
 10
-50.0
 20
14.55
 30
0.0
 11
-50.00000000000023
 21
5.950000000000307
 31
0.0
  0
LINE
  5
82F
330
1F
100
AcDbEntity
  8
AM_0
100
AcDbLine
 10
-50.00000000000023
 20
-5.950000000000143
 30
0.0
 11
-50.0
 21
-14.55
 31
0.0
  0
LINE
  5
830
102
{ACAD_REACTORS
330
9CC
102
}
330
1F
100
AcDbEntity
  8
AM_0
100
AcDbLine
 10
-48.5
 20
12.7
 30
0.0
 11
-48.5
 21
4.750000000000006
 31
0.0
  0
LINE
  5
831
102
{ACAD_REACTORS
330
9CC
102
}
330
1F
100
AcDbEntity
  8
AM_0
100
AcDbLine
 10
-48.5
 20
-4.75
 30
0.0
 11
-48.5
 21
-12.7
 31
0.0
  0
LINE
  5
833
330
1F
100
AcDbEntity
  8
AM_0
100
AcDbLine
 10
-27.89783299999999
 20
12.7
 30
0.0
 11
-27.89783299999999
 21
-12.7
 31
0.0
  0
LINE
  5
834
330
1F
100
AcDbEntity
  8
AM_0
100
AcDbLine
 10
-25.0
 20
6.5
 30
0.0
 11
-25.0
 21
-6.5
 31
0.0
  0
LINE
  5
835
102
{ACAD_REACTORS
330
84B
102
}
330
1F
100
AcDbEntity
  8
AM_0
100
AcDbLine
 10
-19.0
 20
6.5
 30
0.0
 11
-19.0
 21
-6.5
 31
0.0
  0
LINE
  5
836
330
1F
100
AcDbEntity
  8
AM_0
100
AcDbLine
 10
-5.27726877574477
 20
29.03791294241982
 30
0.0
 11
-5.287397545138702
 21
-29.03803080153381
 31
0.0
  0
LINE
  5
837
102
{ACAD_REACTORS
330
A50
330
A94
102
}
330
1F
100
AcDbEntity
  8
AM_7
100
AcDbLine
 10
-52.79400000000009
 20
0.0
 30
0.0
 11
-13.80560509347833
 21
0.0
 31
0.0
1001
GENIUS_GENOBJ-N-CEN_13
1002
{
1000
OWNER
1000
GEN
1002
}
1001
GENIUS_GENODEF_13
1002
{
1000
HIER
1070
     0
1002
}
1002
{
1000
MANEDIT
1070
     0
1002
}
1002
{
1000
NOSEL
1070
     0
1002
}
1002
{
1000
BEHIND
1070
     0
1002
}
1002
{
1000
OTHER
1070
     0
1002
}
1002
{
1000
REACTOR
1002
}
1001
GENIUS_GENCEN_19
1002
{
1040
2.793999999999999
1002
}
  0
LINE
  5
838
330
1F
100
AcDbEntity
  8
AM_0
100
AcDbLine
 10
-50.0
 20
5.950000000000223
 30
0.0
 11
-48.79999999999995
 21
4.75
 31
0.0
  0
LINE
  5
839
102
{ACAD_REACTORS
330
83F
102
}
330
1F
100
AcDbEntity
  8
AM_0
100
AcDbLine
 10
-48.79999999999995
 20
4.75
 30
0.0
 11
-44.0
 21
4.75
 31
0.0
  0
LINE
  5
83A
330
1F
100
AcDbEntity
  8
AM_0
100
AcDbLine
 10
-44.0
 20
4.75
 30
0.0
 11
-44.0
 21
-4.75
 31
0.0
  0
LINE
  5
83B
102
{ACAD_REACTORS
330
842
102
}
330
1F
100
AcDbEntity
  8
AM_0
100
AcDbLine
 10
-44.0
 20
-4.75
 30
0.0
 11
-48.79999999999995
 21
-4.75
 31
0.0
  0
LINE
  5
83C
102
{ACAD_REACTORS
330
83F
102
}
330
1F
100
AcDbEntity
  8
AM_0
100
AcDbLine
 10
-48.79999999999995
 20
-4.75
 30
0.0
 11
-50.0
 21
-5.95000000000023
 31
0.0
  0
DIMENSION
  5
83D
102
{ACAD_XDICTIONARY
360
83E
102
}
102
{ACAD_REACTORS
330
83F
102
}
330
1F
100
AcDbEntity
  8
AM_5
100
AcDbDimension
  2
*D4
 10
-55.92380562743914
 20
-4.749999999999998
 30
0.0
 11
-55.92380562743914
 21
0.0000000000000213
 31
0.0
 70
   160
  1
<>
 71
     5
 42
9.5
  3
AM_JIS$0
100
AcDbAlignedDimension
 13
-48.79999999999995
 23
4.75
 33
0.0
 14
-48.79999999999995
 24
-4.75
 34
0.0
 50
90.0
100
AcDbRotatedDimension
1001
ACAD
1000
DSTYLE
1002
{
1070
   179
1070
     0
1070
   271
1070
     1
1002
}
  0
DIMENSION
  5
840
102
{ACAD_XDICTIONARY
360
841
102
}
102
{ACAD_REACTORS
330
842
102
}
330
1F
100
AcDbEntity
  8
AM_5
100
AcDbDimension
  2
*D5
 10
-44.0
 20
-26.74087665613843
 30
0.0
 11
-47.0
 21
-23.34087665613843
 31
0.0
 70
    32
 71
     5
 42
6.0
  3
AM_JIS$0
100
AcDbAlignedDimension
 13
-50.0
 23
-28.0
 33
0.0
 14
-44.0
 24
-4.75
 34
0.0
100
AcDbRotatedDimension
1001
ACAD
1000
DSTYLE
1002
{
1070
   179
1070
     0
1070
   271
1070
     0
1002
}
  0
DIMENSION
  5
843
102
{ACAD_XDICTIONARY
360
844
102
}
102
{ACAD_REACTORS
330
845
102
}
330
1F
100
AcDbEntity
  8
AM_5
100
AcDbDimension
  2
*D6
 10
-25.0
 20
-40.0
 30
0.0
 11
-37.5
 21
-36.59962598425197
 31
0.0
 70
    32
 71
     5
 42
25.0
  3
AM_JIS$0
100
AcDbAlignedDimension
 13
-50.0
 23
-28.0
 33
0.0
 14
-25.0
 24
-13.3
 34
0.0
100
AcDbRotatedDimension
1001
ACAD
1000
DSTYLE
1002
{
1070
   179
1070
     0
1070
   271
1070
     0
1002
}
  0
DIMENSION
  5
846
102
{ACAD_XDICTIONARY
360
847
102
}
102
{ACAD_REACTORS
330
848
102
}
330
1F
100
AcDbEntity
  8
AM_5
100
AcDbDimension
  2
*D7
 10
-19.0
 20
-50.97194299999999
 30
0.0
 11
-34.5
 21
-47.571943
 31
0.0
 70
    32
 71
     5
 42
31.0
  3
AM_JIS$0
100
AcDbAlignedDimension
 13
-50.0
 23
-28.0
 33
0.0
 14
-19.0
 24
-10.0
 34
0.0
100
AcDbRotatedDimension
1001
ACAD
1000
DSTYLE
1002
{
1070
   179
1070
     0
1070
   271
1070
     0
1002
}
  0
DIMENSION
  5
849
102
{ACAD_XDICTIONARY
360
84A
102
}
102
{ACAD_REACTORS
330
84B
102
}
330
1F
100
AcDbEntity
  8
AM_5
100
AcDbDimension
  2
*D8
 10
2.984463773082781
 20
6.499999999999992
 30
0.0
 11
2.984463773082778
 21
-1.29238347088767
 31
0.0
 70
   160
  1
%%c<>
 71
     5
 42
13.0
  3
AM_JIS$0
100
AcDbAlignedDimension
 13
-19.0
 23
-6.5
 33
0.0
 14
-19.0
 24
6.5
 34
0.0
 50
90.0
100
AcDbRotatedDimension
1001
ACAD
1000
DSTYLE
1002
{
1070
   179
1070
     0
1070
   271
1070
     0
1002
}
  0
LINE
  5
84E
330
1F
100
AcDbEntity
  8
0
100
AcDbLine
 10
-8.098152999999911
 20
-42.31261599999998
 30
0.0
 11
-1.40000000000009
 21
-39.18921599999999
 31
0.0
  0
LINE
  5
84F
330
1F
100
AcDbEntity
  8
0
100
AcDbLine
 10
-16.8250230000001
 20
-42.5
 30
0.0
 11
-8.943389000000024
 21
-42.5
 31
0.0
  0
LINE
  5
850
330
1F
100
AcDbEntity
  8
0
100
AcDbLine
 10
-8.098152999999911
 20
-42.31261599999998
 30
0.0
 11
-1.40000000000009
 21
-39.18921599999999
 31
0.0
  0
LINE
  5
851
330
1F
100
AcDbEntity
  8
0
100
AcDbLine
 10
-16.8250230000001
 20
-42.5
 30
0.0
 11
-8.943389000000024
 21
-42.5
 31
0.0
  0
LINE
  5
852
330
1F
100
AcDbEntity
  8
0
100
AcDbLine
 10
-8.098152999999911
 20
-42.31261599999998
 30
0.0
 11
-1.40000000000009
 21
-39.18921599999999
 31
0.0
  0
LINE
  5
853
330
1F
100
AcDbEntity
  8
0
100
AcDbLine
 10
-16.8250230000001
 20
-42.5
 30
0.0
 11
-8.943389000000024
 21
-42.5
 31
0.0
  0
LINE
  5
854
330
1F
100
AcDbEntity
  8
0
100
AcDbLine
 10
-8.098152999999911
 20
-42.31261599999998
 30
0.0
 11
-1.40000000000009
 21
-39.18921599999999
 31
0.0
  0
LINE
  5
855
330
1F
100
AcDbEntity
  8
0
100
AcDbLine
 10
-16.8250230000001
 20
-42.5
 30
0.0
 11
-8.943389000000024
 21
-42.5
 31
0.0
  0
LINE
  5
856
330
1F
100
AcDbEntity
  8
0
100
AcDbLine
 10
-8.098152999999911
 20
-42.31261599999998
 30
0.0
 11
-1.40000000000009
 21
-39.18921599999999
 31
0.0
  0
LINE
  5
857
330
1F
100
AcDbEntity
  8
0
100
AcDbLine
 10
-16.8250230000001
 20
-42.5
 30
0.0
 11
-8.943389000000024
 21
-42.5
 31
0.0
  0
LINE
  5
858
330
1F
100
AcDbEntity
  8
0
100
AcDbLine
 10
-8.098152999999911
 20
-42.31261599999998
 30
0.0
 11
-1.40000000000009
 21
-39.18921599999999
 31
0.0
  0
LINE
  5
859
330
1F
100
AcDbEntity
  8
0
100
AcDbLine
 10
-16.8250230000001
 20
-42.5
 30
0.0
 11
-8.943389000000024
 21
-42.5
 31
0.0
  0
LINE
  5
85A
330
1F
100
AcDbEntity
  8
0
100
AcDbLine
 10
-8.098152999999911
 20
-42.31261599999998
 30
0.0
 11
-1.40000000000009
 21
-39.18921599999999
 31
0.0
  0
LINE
  5
85B
330
1F
100
AcDbEntity
  8
0
100
AcDbLine
 10
-16.8250230000001
 20
-42.5
 30
0.0
 11
-8.943389000000024
 21
-42.5
 31
0.0
  0
LINE
  5
85C
330
1F
100
AcDbEntity
  8
0
100
AcDbLine
 10
-8.098152999999911
 20
-42.31261599999998
 30
0.0
 11
-1.40000000000009
 21
-39.18921599999999
 31
0.0
  0
LINE
  5
85D
330
1F
100
AcDbEntity
  8
0
100
AcDbLine
 10
-16.8250230000001
 20
-42.5
 30
0.0
 11
-8.943389000000024
 21
-42.5
 31
0.0
  0
LINE
  5
85E
330
1F
100
AcDbEntity
  8
0
100
AcDbLine
 10
-19.0
 20
10.0
 30
0.0
 11
-9.737708000000113
 21
12.48182399999999
 31
0.0
  0
LINE
  5
85F
330
1F
100
AcDbEntity
  8
0
100
AcDbLine
 10
-9.737708000000113
 20
-12.48182399999999
 30
0.0
 11
-19.0
 21
-10.0
 31
0.0
  0
LINE
  5
860
330
1F
100
AcDbEntity
  8
0
100
AcDbLine
 10
-8.285730999999941
 20
14.06637900000001
 30
0.0
 11
-5.645091207953527
 21
29.04219295159736
 31
0.0
  0
LINE
  5
861
330
1F
100
AcDbEntity
  8
0
100
AcDbLine
 10
-5.476204000000051
 20
-30.0
 30
0.0
 11
-8.285730999999941
 21
-14.06637900000001
 31
0.0
  0
LINE
  5
862
330
1F
100
AcDbEntity
  8
0
100
AcDbLine
 10
-1.40000000000009
 20
-38.0
 30
0.0
 11
-5.476204000000051
 21
-30.0
 31
0.0
  0
LINE
  5
863
330
1F
100
AcDbEntity
  8
0
100
AcDbLine
 10
-1.40000000000009
 20
-39.18921599999999
 30
0.0
 11
-1.40000000000009
 21
-38.0
 31
0.0
  0
LINE
  5
864
330
1F
100
AcDbEntity
  8
0
100
AcDbLine
 10
-8.098152999999911
 20
-42.31261599999998
 30
0.0
 11
-1.40000000000009
 21
-39.18921599999999
 31
0.0
  0
LINE
  5
865
330
1F
100
AcDbEntity
  8
0
100
AcDbLine
 10
-16.8250230000001
 20
-42.5
 30
0.0
 11
-8.943389000000024
 21
-42.5
 31
0.0
  0
LINE
  5
866
330
1F
100
AcDbEntity
  8
0
100
AcDbLine
 10
-11.60455718766525
 20
42.5
 30
0.0
 11
-16.8250230000001
 21
42.5
 31
0.0
  0
LINE
  5
867
330
1F
100
AcDbEntity
  8
0
100
AcDbLine
 10
-17.17231900000001
 20
42.46961599999999
 30
0.0
 11
-28.04749900000002
 21
40.55202799999999
 31
0.0
  0
LINE
  5
868
330
1F
100
AcDbEntity
  8
0
100
AcDbLine
 10
-28.04749900000002
 20
-40.55202799999999
 30
0.0
 11
-17.17231900000001
 21
-42.46961599999997
 31
0.0
  0
LINE
  5
869
330
1F
100
AcDbEntity
  8
0
100
AcDbLine
 10
-31.78178299999991
 20
37.58164500000001
 30
0.0
 11
-33.7069039999999
 21
33.04634400000001
 31
0.0
  0
ARC
  5
86A
330
1F
100
AcDbEntity
  8
1
100
AcDbCircle
 10
-16.8250230000001
 20
-40.49999999999999
 30
0.0
 40
2.000000424767959
100
AcDbArc
 50
260.0000124822702
 51
270.0
  0
ARC
  5
86B
330
1F
100
AcDbEntity
  8
1
100
AcDbCircle
 10
-8.943389000000024
 20
-40.49999999999999
 30
0.0
 40
2.0
100
AcDbArc
 50
270.0
 51
294.9999812516923
  0
ARC
  5
86C
330
1F
100
AcDbEntity
  8
1
100
AcDbCircle
 10
-16.8250230000001
 20
-40.49999999999999
 30
0.0
 40
2.000000424767959
100
AcDbArc
 50
260.0000124822702
 51
270.0
  0
ARC
  5
86D
330
1F
100
AcDbEntity
  8
1
100
AcDbCircle
 10
-8.943389000000024
 20
-40.49999999999999
 30
0.0
 40
2.0
100
AcDbArc
 50
270.0
 51
294.9999812516923
  0
ARC
  5
86E
330
1F
100
AcDbEntity
  8
1
100
AcDbCircle
 10
-16.8250230000001
 20
-40.49999999999999
 30
0.0
 40
2.000000424767959
100
AcDbArc
 50
260.0000124822702
 51
270.0
  0
ARC
  5
86F
330
1F
100
AcDbEntity
  8
1
100
AcDbCircle
 10
-8.943389000000024
 20
-40.49999999999999
 30
0.0
 40
2.0
100
AcDbArc
 50
270.0
 51
294.9999812516923
  0
ARC
  5
870
330
1F
100
AcDbEntity
  8
1
100
AcDbCircle
 10
-16.8250230000001
 20
-40.49999999999999
 30
0.0
 40
2.000000424767959
100
AcDbArc
 50
260.0000124822702
 51
270.0
  0
ARC
  5
871
330
1F
100
AcDbEntity
  8
1
100
AcDbCircle
 10
-8.943389000000024
 20
-40.49999999999999
 30
0.0
 40
2.0
100
AcDbArc
 50
270.0
 51
294.9999812516923
  0
ARC
  5
872
330
1F
100
AcDbEntity
  8
1
100
AcDbCircle
 10
-16.8250230000001
 20
-40.49999999999999
 30
0.0
 40
2.000000424767959
100
AcDbArc
 50
260.0000124822702
 51
270.0
  0
ARC
  5
873
330
1F
100
AcDbEntity
  8
1
100
AcDbCircle
 10
-8.943389000000024
 20
-40.49999999999999
 30
0.0
 40
2.0
100
AcDbArc
 50
270.0
 51
294.9999812516923
  0
ARC
  5
874
330
1F
100
AcDbEntity
  8
1
100
AcDbCircle
 10
-16.8250230000001
 20
-40.49999999999999
 30
0.0
 40
2.000000424767959
100
AcDbArc
 50
260.0000124822702
 51
270.0
  0
ARC
  5
875
330
1F
100
AcDbEntity
  8
1
100
AcDbCircle
 10
-8.943389000000024
 20
-40.49999999999999
 30
0.0
 40
2.0
100
AcDbArc
 50
270.0
 51
294.9999812516923
  0
ARC
  5
876
330
1F
100
AcDbEntity
  8
1
100
AcDbCircle
 10
-16.8250230000001
 20
-40.49999999999999
 30
0.0
 40
2.000000424767959
100
AcDbArc
 50
260.0000124822702
 51
270.0
  0
ARC
  5
877
330
1F
100
AcDbEntity
  8
1
100
AcDbCircle
 10
-8.943389000000024
 20
-40.49999999999999
 30
0.0
 40
2.0
100
AcDbArc
 50
270.0
 51
294.9999812516923
  0
ARC
  5
878
330
1F
100
AcDbEntity
  8
1
100
AcDbCircle
 10
-16.8250230000001
 20
-40.49999999999999
 30
0.0
 40
2.000000424767959
100
AcDbArc
 50
260.0000124822702
 51
270.0
  0
ARC
  5
879
330
1F
100
AcDbEntity
  8
1
100
AcDbCircle
 10
-8.943389000000024
 20
-40.49999999999999
 30
0.0
 40
2.0
100
AcDbArc
 50
270.0
 51
294.9999812516923
  0
ARC
  5
87A
330
1F
100
AcDbEntity
  8
1
100
AcDbCircle
 10
-10.25534599999992
 20
14.41367500000001
 30
0.0
 40
1.999999346311139
100
AcDbArc
 50
285.0000023424904
 51
350.0000075076227
  0
ARC
  5
87B
330
1F
100
AcDbEntity
  8
1
100
AcDbCircle
 10
-10.25534599999992
 20
-14.41367500000001
 30
0.0
 40
1.999999439960168
100
AcDbArc
 50
9.999992492377302
 51
74.99999765750956
  0
ARC
  5
87C
330
1F
100
AcDbEntity
  8
1
100
AcDbCircle
 10
-16.8250230000001
 20
40.49999999999999
 30
0.0
 40
2.0
100
AcDbArc
 50
90.0
 51
99.99998751772984
  0
ARC
  5
87D
330
1F
100
AcDbEntity
  8
1
100
AcDbCircle
 10
-16.8250230000001
 20
-40.49999999999999
 30
0.0
 40
2.000000424767959
100
AcDbArc
 50
260.0000124822702
 51
270.0
  0
ARC
  5
87E
330
1F
100
AcDbEntity
  8
1
100
AcDbCircle
 10
-8.943389000000024
 20
-40.49999999999999
 30
0.0
 40
2.0
100
AcDbArc
 50
270.0
 51
294.9999812516923
  0
ARC
  5
87F
330
1F
100
AcDbEntity
  8
1
100
AcDbCircle
 10
-38.30942800000002
 20
35.0
 30
0.0
 40
5.0
100
AcDbArc
 50
270.0
 51
336.9999950317954
  0
ARC
  5
880
330
1F
100
AcDbEntity
  8
1
100
AcDbCircle
 10
-27.179259
 20
35.62798900000001
 30
0.0
 40
5.000000077112098
100
AcDbArc
 50
99.99998950759064
 51
156.9999950317954
  0
LINE
  5
881
330
1F
100
AcDbEntity
  8
0
100
AcDbLine
 10
-31.78178299999991
 20
-37.581645
 30
0.0
 11
-33.7069039999999
 21
-33.046344
 31
0.0
  0
ARC
  5
882
330
1F
100
AcDbEntity
  8
1
100
AcDbCircle
 10
-38.30942800000002
 20
-35.0
 30
0.0
 40
5.0
100
AcDbArc
 50
23.00000496820457
 51
90.0
  0
ARC
  5
883
330
1F
100
AcDbEntity
  8
1
100
AcDbCircle
 10
-27.179259
 20
-35.62798900000001
 30
0.0
 40
5.000000077112098
100
AcDbArc
 50
203.0000049682046
 51
260.0000104924093
  0
LINE
  5
923
330
1F
100
AcDbEntity
  8
0
100
AcDbLine
 10
-11.63284557445684
 20
42.50213034956914
 30
0.0
 11
-13.19726089154414
 21
39.14723087552431
 31
0.0
  0
LINE
  5
924
330
1F
100
AcDbEntity
  8
0
100
AcDbLine
 10
-14.76167620863146
 20
35.79233140147938
 30
0.0
 11
-13.19726089154414
 21
39.14723087552431
 31
0.0
  0
LINE
  5
925
330
1F
100
AcDbEntity
  8
0
100
AcDbLine
 10
-13.48073187995976
 20
32.27296578287543
 30
0.0
 11
-10.12583240591482
 21
30.70855046578811
 31
0.0
  0
LINE
  5
926
330
1F
100
AcDbEntity
  8
0
100
AcDbLine
 10
-6.77093383817771
 20
29.14413557131911
 30
0.0
 11
-10.12583240591482
 21
30.70855046578811
 31
0.0
  0
LINE
  5
927
330
1F
100
AcDbEntity
  8
0
100
AcDbLine
 10
-0.1227366790914175
 20
37.13487842546225
 30
0.0
 11
-1.687151996178613
 21
33.77997895141743
 31
0.0
  0
LINE
  5
928
102
{ACAD_REACTORS
330
94B
102
}
330
1F
100
AcDbEntity
  8
0
100
AcDbLine
 10
-1.403681914070944
 20
40.65424446668453
 30
0.0
 11
-4.758580481808052
 21
42.21865936115352
 31
0.0
  0
LINE
  5
929
330
1F
100
AcDbEntity
  8
0
100
AcDbLine
 10
-3.251567313266035
 20
30.42507947737249
 30
0.0
 11
-1.687151996178613
 21
33.77997895141743
 31
0.0
  0
CIRCLE
  5
92A
330
1F
100
AcDbEntity
  8
1
100
AcDbCircle
 10
-7.442206443861437
 20
36.46360491347083
 30
0.0
 40
2.299999999999998
  0
SPLINE
  5
92B
330
1F
100
AcDbEntity
  8
0
100
AcDbSpline
210
0.0
220
0.0
230
1.0
 70
     8
 71
     3
 72
    11
 73
     7
 74
     5
 42
0.0000000001
 43
0.0000000001
 44
0.0000000001
 40
0.0
 40
0.0
 40
0.0
 40
0.0
 40
0.1043112552939403
 40
0.2086220543370466
 40
0.3129324750484674
 40
0.4172434765872205
 40
0.4172434765872205
 40
0.4172434765872205
 40
0.4172434765872205
 10
-0.029223733565118
 20
37.53859858184296
 30
0.0
 10
-0.0309198435195097
 20
37.50383384403787
 30
0.0
 10
-0.0343120560096155
 20
37.43430452048646
 30
0.0
 10
-0.0533157502965489
 20
37.33148859941108
 30
0.0
 10
-0.0814532639728757
 20
37.23078855584772
 30
0.0
 10
-0.1089755151768089
 20
37.16684852826301
 30
0.0
 10
-0.1227366790914175
 20
37.13487842546225
 30
0.0
 11
-0.029223733565118
 21
37.53859858184296
 31
0.0
 11
-0.0366313089692767
 21
37.43455068033779
 31
0.0
 11
-0.0548380826877519
 21
37.331841108302
 31
0.0
 11
-0.0836441780533051
 21
37.23158706729225
 31
0.0
 11
-0.1227366790914175
 21
37.13487842546225
 31
0.0
  0
LINE
  5
92C
330
1F
100
AcDbEntity
  8
0
100
AcDbLine
 10
-0.0267988923968687
 20
37.74466788910456
 30
0.0
 11
-0.0291130249275966
 21
37.54586124978232
 31
0.0
  0
LINE
  5
92D
330
1F
100
AcDbEntity
  8
0
100
AcDbLine
 10
-0.0146185147581264
 20
38.79144511373477
 30
0.0
 11
-0.0267988923968687
 21
37.74466788910456
 31
0.0
  0
LINE
  5
92E
330
1F
100
AcDbEntity
  8
0
100
AcDbLine
 10
-5.114367149905206
 20
29.03601740698594
 30
0.0
 11
-6.161144374535409
 21
29.04819778462456
 31
0.0
  0
LINE
  5
92F
330
1F
100
AcDbEntity
  8
0
100
AcDbLine
 10
-6.161144374535409
 20
29.04819778462456
 30
0.0
 11
-6.359950530168247
 21
29.05051058822937
 31
0.0
  0
SPLINE
  5
930
330
1F
100
AcDbEntity
  8
0
100
AcDbSpline
210
0.0
220
0.0
230
1.0
 70
     8
 71
     3
 72
    11
 73
     7
 74
     5
 42
0.0000000001
 43
0.0000000001
 44
0.0000000001
 40
0.0
 40
0.0
 40
0.0
 40
0.0
 40
0.1043112552940526
 40
0.2086223122822797
 40
0.3129337207665991
 40
0.4172446701487273
 40
0.4172446701487273
 40
0.4172446701487273
 40
0.4172446701487273
 10
-6.367212775489293
 20
29.0506222031745
 30
0.0
 10
-6.401977495272534
 20
29.05231841985221
 30
0.0
 10
-6.471506868747908
 20
29.05571084998295
 30
0.0
 10
-6.574323467612419
 20
29.07471303627725
 30
0.0
 10
-6.67502387788904
 20
29.10285101284404
 30
0.0
 10
-6.738963898317757
 20
29.13037407201685
 30
0.0
 10
-6.77093383817771
 20
29.14413557131911
 30
0.0
 11
-6.367212775489293
 21
29.0506222031745
 31
0.0
 11
-6.471260676994575
 21
29.05802977857866
 31
0.0
 11
-6.573970671648567
 21
29.07623564598941
 31
0.0
 11
-6.674225618966032
 21
29.10504216397328
 31
0.0
 11
-6.77093383817771
 21
29.14413557131911
 31
0.0
  0
SPLINE
  5
931
330
1F
100
AcDbEntity
  8
0
100
AcDbSpline
210
0.0
220
0.0
230
1.0
 70
     8
 71
     3
 72
    11
 73
     7
 74
     5
 42
0.0000000001
 43
0.0000000001
 44
0.0000000001
 40
0.0
 40
0.0
 40
0.0
 40
0.0
 40
0.104310898107465
 40
0.2086219550956876
 40
0.3129323758071707
 40
0.417243325189254
 40
0.417243325189254
 40
0.417243325189254
 40
0.417243325189254
 10
-14.85519006046559
 20
35.3886116677171
 30
0.0
 10
-14.85349345823611
 20
35.42337624134547
 30
0.0
 10
-14.85010025119297
 20
35.49290544155376
 30
0.0
 10
-14.83109840310906
 20
35.59572160467356
 30
0.0
 10
-14.80296068271141
 20
35.6964217613106
 30
0.0
 10
-14.77543772324023
 20
35.76036146741292
 30
0.0
 10
-14.76167620863146
 20
35.79233140147938
 30
0.0
 11
-14.85519006046559
 21
35.3886116677171
 31
0.0
 11
-14.8477815787536
 21
35.49265914660395
 31
0.0
 11
-14.82957571134295
 21
35.59536914125795
 31
0.0
 11
-14.80076961597717
 21
35.69562318226771
 31
0.0
 11
-14.76167620863146
 21
35.79233140147938
 31
0.0
  0
LINE
  5
932
330
1F
100
AcDbEntity
  8
0
100
AcDbLine
 10
-14.857613995326
 20
35.18254193783719
 30
0.0
 11
-14.85530076910288
 21
35.38134899977763
 31
0.0
  0
LINE
  5
933
330
1F
100
AcDbEntity
  8
0
100
AcDbLine
 10
-14.86979437296475
 20
34.13576471320688
 30
0.0
 11
-14.857613995326
 21
35.18254193783719
 31
0.0
  0
LINE
  5
934
330
1F
100
AcDbEntity
  8
0
100
AcDbLine
 10
-8.723269419495068
 20
43.87901246493537
 30
0.0
 11
-8.524463263862344
 21
43.87669966133069
 31
0.0
  0
LINE
  5
935
102
{ACAD_REACTORS
330
A94
102
}
330
1F
100
AcDbEntity
  8
0
100
AcDbLine
 10
-9.770046644125386
 20
43.89119284257413
 30
0.0
 11
-8.723269419495068
 21
43.87901246493537
 31
0.0
  0
SPLINE
  5
936
330
1F
100
AcDbEntity
  8
0
100
AcDbSpline
210
0.0
220
0.0
230
1.0
 70
     8
 71
     3
 72
    11
 73
     7
 74
     5
 42
0.0000000001
 43
0.0000000001
 44
0.0000000001
 40
0.0
 40
0.0
 40
0.0
 40
0.0
 40
0.1043112552938368
 40
0.208622312282175
 40
0.3129337207664997
 40
0.4172446701487321
 40
0.4172446701487321
 40
0.4172446701487321
 40
0.4172446701487321
 10
-8.517201018541186
 20
43.87658804638556
 30
0.0
 10
-8.48243629875802
 20
43.87489182970781
 30
0.0
 10
-8.412906925282689
 20
43.87149939957694
 30
0.0
 10
-8.310090326418206
 20
43.85249721328272
 30
0.0
 10
-8.209389916141518
 20
43.82435923671586
 30
0.0
 10
-8.145449895712758
 20
43.79683617754308
 30
0.0
 10
-8.113479955852767
 20
43.78307467824082
 30
0.0
 11
-8.517201018541186
 21
43.87658804638556
 31
0.0
 11
-8.413153117036129
 21
43.86918047098129
 31
0.0
 11
-8.310443122382025
 21
43.85097460357052
 31
0.0
 11
-8.210188175064557
 21
43.82216808558665
 31
0.0
 11
-8.113479955852767
 21
43.78307467824082
 31
0.0
  0
LINE
  5
937
330
1F
100
AcDbEntity
  8
0
100
AcDbLine
 10
-13.94618960008881
 20
32.67842399238316
 30
0.0
 11
-13.81662775616917
 21
32.52761628310361
 31
0.0
  0
LINE
  5
938
330
1F
100
AcDbEntity
  8
0
100
AcDbLine
 10
-14.62837574078855
 20
33.47247247266717
 30
0.0
 11
-13.94618960008881
 21
32.67842399238316
 31
0.0
  0
SPLINE
  5
939
330
1F
100
AcDbEntity
  8
0
100
AcDbSpline
210
0.0
220
0.0
230
1.0
 70
     8
 71
     3
 72
    11
 73
     7
 74
     5
 42
0.0000000001
 43
0.0000000001
 44
0.0000000001
 40
0.0
 40
0.0
 40
0.0
 40
0.0
 40
0.1043112552939483
 40
0.2086223122821982
 40
0.312933720766556
 40
0.4172446701486711
 40
0.4172446701486711
 40
0.4172446701486711
 40
0.4172446701486711
 10
-13.8118741728498
 20
32.5221248251346
 30
0.0
 10
-13.78822846435864
 20
32.49658381179187
 30
0.0
 10
-13.74093709232907
 20
32.44550183366233
 30
0.0
 10
-13.66029133729108
 20
32.37895411934863
 30
0.0
 10
-13.57400742068517
 20
32.31989987233536
 30
0.0
 10
-13.5118236812536
 20
32.28861045640984
 30
0.0
 10
-13.48073187995976
 20
32.27296578287543
 30
0.0
 11
-13.8118741728498
 21
32.5221248251346
 31
0.0
 11
-13.73931893897304
 21
32.44718100605599
 31
0.0
 11
-13.65935172345632
 21
32.38020309139371
 31
0.0
 11
-13.57284201248365
 21
32.32191981894427
 31
0.0
 11
-13.48073187995976
 21
32.27296578287543
 31
0.0
  0
SPLINE
  5
93A
330
1F
100
AcDbEntity
  8
0
100
AcDbSpline
210
0.0
220
0.0
230
1.0
 70
     8
 71
     3
 72
    11
 73
     7
 74
     5
 42
0.0000000001
 43
0.0000000001
 44
0.0000000001
 40
0.0
 40
0.0
 40
0.0
 40
0.0
 40
0.1043108981074495
 40
0.2086219550957811
 40
0.3129323758071241
 40
0.417243325189327
 40
0.417243325189327
 40
0.417243325189327
 40
0.417243325189327
 10
-11.3836878611238
 20
42.83327215876977
 30
0.0
 10
-11.4092285146775
 20
42.80962624887531
 30
0.0
 10
-11.4603098606871
 20
42.76233439307018
 30
0.0
 10
-11.52685745859836
 20
42.68168917720763
 30
0.0
 10
-11.58591167597502
 20
42.5954056198752
 30
0.0
 10
-11.61720091519937
 20
42.53322215886455
 30
0.0
 10
-11.63284557445684
 20
42.50213034956914
 30
0.0
 11
-11.3836878611238
 21
42.83327215876977
 31
0.0
 11
-11.45863077389447
 21
42.7607165022747
 31
0.0
 11
-11.52560868855687
 21
42.68074928675797
 31
0.0
 11
-11.583891538388
 21
42.59424048209313
 31
0.0
 11
-11.63284557445684
 21
42.50213034956914
 31
0.0
  0
LINE
  5
93B
330
1F
100
AcDbEntity
  8
0
100
AcDbLine
 10
-11.22738736494909
 20
42.96758806969831
 30
0.0
 11
-11.37819549684684
 21
42.83802531947094
 31
0.0
  0
LINE
  5
93C
330
1F
100
AcDbEntity
  8
0
100
AcDbLine
 10
-10.43333888466509
 20
43.64977421039792
 30
0.0
 11
-11.22738736494909
 21
42.96758806969831
 31
0.0
  0
SPLINE
  5
93D
330
1F
100
AcDbEntity
  8
0
100
AcDbSpline
210
0.0
220
0.0
230
1.0
 70
     8
 71
     3
 72
    11
 73
     7
 74
     5
 42
0.0000000001
 43
0.0000000001
 44
0.0000000001
 40
0.0
 40
0.0
 40
0.0
 40
0.0
 40
0.1043112552939471
 40
0.2086223122821778
 40
0.312933720766635
 40
0.417244670148796
 40
0.417244670148796
 40
0.417244670148796
 40
0.417244670148796
 10
-1.07253962118068
 20
40.40508542442545
 30
0.0
 10
-1.0961853296719
 20
40.43062643776813
 30
0.0
 10
-1.143476701701576
 20
40.48170841589754
 30
0.0
 10
-1.224122456739375
 20
40.54825613021153
 30
0.0
 10
-1.310406373345403
 20
40.60731037722467
 30
0.0
 10
-1.372590112777065
 20
40.63859979315014
 30
0.0
 10
-1.403681914070944
 20
40.65424446668453
 30
0.0
 11
-1.07253962118068
 21
40.40508542442545
 31
0.0
 11
-1.14509485505755
 21
40.48002924350396
 31
0.0
 11
-1.225062070574153
 21
40.54700715816635
 31
0.0
 11
-1.311571781546945
 21
40.60529043061579
 31
0.0
 11
-1.403681914070944
 21
40.65424446668453
 31
0.0
  0
LINE
  5
93E
330
1F
100
AcDbEntity
  8
0
100
AcDbLine
 10
-0.9382241939416644
 20
40.2487862571769
 30
0.0
 11
-1.067786037861309
 21
40.39959396645643
 31
0.0
  0
LINE
  5
93F
330
1F
100
AcDbEntity
  8
0
100
AcDbLine
 10
-0.2560380532421504
 20
39.45473777689278
 30
0.0
 11
-0.9382241939416644
 21
40.2487862571769
 31
0.0
  0
LINE
  5
940
330
1F
100
AcDbEntity
  8
0
100
AcDbLine
 10
-4.451074003057668
 20
29.27743561654381
 30
0.0
 11
-3.657025522773665
 21
29.95962175724344
 31
0.0
  0
LINE
  5
941
330
1F
100
AcDbEntity
  8
0
100
AcDbLine
 10
-3.657025522773665
 20
29.95962175724344
 30
0.0
 11
-3.506218297183636
 21
30.08918493008912
 31
0.0
  0
SPLINE
  5
942
330
1F
100
AcDbEntity
  8
0
100
AcDbSpline
210
0.0
220
0.0
230
1.0
 70
     8
 71
     3
 72
    11
 73
     7
 74
     5
 42
0.0000000001
 43
0.0000000001
 44
0.0000000001
 40
0.0
 40
0.0
 40
0.0
 40
0.0
 40
0.1043112552940954
 40
0.2086220543370314
 40
0.3129324750485069
 40
0.4172434765871241
 40
0.4172434765871241
 40
0.4172434765871241
 40
0.4172434765871241
 10
-3.500725932906902
 20
30.09393809079018
 30
0.0
 10
-3.475184837158124
 20
30.1175837291108
 30
0.0
 10
-3.424102757375788
 20
30.16487490232743
 30
0.0
 10
-3.357556531597893
 20
30.24552137688059
 30
0.0
 10
-3.298502267962858
 20
30.33180470317283
 30
0.0
 10
-3.267212327203296
 20
30.39398782826416
 30
0.0
 10
-3.251567313266035
 20
30.42507947737249
 30
0.0
 11
-3.500725932906902
 21
30.09393809079018
 31
0.0
 11
-3.425782113828176
 21
30.16649332466704
 31
0.0
 11
-3.358805105473834
 21
30.24646096280196
 31
0.0
 11
-3.300522255642476
 21
30.33296976746681
 31
0.0
 11
-3.251567313266035
 21
30.42507947737249
 31
0.0
  0
SPLINE
  5
943
330
1F
100
AcDbEntity
  8
0
100
AcDbSpline
210
0.0
220
0.0
230
1.0
 70
     8
 71
     3
 72
    11
 73
     7
 74
     5
 42
0.0000000001
 43
0.0000000001
 44
0.0000000001
 40
0.0
 40
0.0
 40
0.0
 40
0.0
 40
0.1800809736896215
 40
0.3602119815254569
 40
0.5403429893614725
 40
0.7204248334046957
 40
0.7204248334046957
 40
0.7204248334046957
 40
0.7204248334046957
 10
-0.0146185147581264
 20
38.79144511373489
 30
0.0
 10
-0.0170338940471453
 20
38.85160641859576
 30
0.0
 10
-0.0218653237201802
 20
38.97194574368427
 30
0.0
 10
-0.0704293960257707
 20
39.14671232359154
 30
0.0
 10
-0.1455649926385179
 20
39.31180802317185
 30
0.0
 10
-0.2192170505176374
 20
39.40709886092164
 30
0.0
 10
-0.2560380532421504
 20
39.45473777689278
 30
0.0
 11
-0.0146185147581264
 21
38.79144511373489
 31
0.0
 11
-0.0287485197535489
 21
38.97097087802467
 31
0.0
 11
-0.074858373311713
 21
39.14510031662941
 31
0.0
 11
-0.1514644218373178
 21
39.3081300480078
 31
0.0
 11
-0.2560380532421504
 21
39.45473777689278
 31
0.0
  0
SPLINE
  5
944
330
1F
100
AcDbEntity
  8
0
100
AcDbSpline
210
0.0
220
0.0
230
1.0
 70
     8
 71
     3
 72
    11
 73
     7
 74
     5
 42
0.0000000001
 43
0.0000000001
 44
0.0000000001
 40
0.0
 40
0.0
 40
0.0
 40
0.0
 40
0.180080481263214
 40
0.3602121296346856
 40
0.5403423695416567
 40
0.7204242135849006
 40
0.7204242135849006
 40
0.7204242135849006
 40
0.7204242135849006
 10
-14.86979437296475
 20
34.13576471320688
 30
0.0
 10
-14.86737945968857
 20
34.07560351531385
 30
0.0
 10
-14.86254894697563
 20
33.95526402564565
 30
0.0
 10
-14.81398311455642
 20
33.78049811785821
 30
0.0
 10
-14.73884894029965
 20
33.61540190298091
 30
0.0
 10
-14.66519684214573
 20
33.52011134855559
 30
0.0
 10
-14.62837574078855
 20
33.47247247266717
 30
0.0
 11
-14.86979437296475
 21
34.13576471320688
 31
0.0
 11
-14.85566527427704
 21
33.95623937153539
 31
0.0
 11
-14.80955451441093
 21
33.78210951031224
 31
0.0
 11
-14.73294937219327
 21
33.61908020155226
 31
0.0
 11
-14.62837574078855
 21
33.47247247266717
 31
0.0
  0
SPLINE
  5
945
330
1F
100
AcDbEntity
  8
0
100
AcDbSpline
210
0.0
220
0.0
230
1.0
 70
     8
 71
     3
 72
    11
 73
     7
 74
     5
 42
0.0000000001
 43
0.0000000001
 44
0.0000000001
 40
0.0
 40
0.0
 40
0.0
 40
0.0
 40
0.1800818440432644
 40
0.3602128518790948
 40
0.5403438597151137
 40
0.7204248334047755
 40
0.7204248334047755
 40
0.7204248334047755
 40
0.7204248334047755
 10
-5.114367149905206
 20
29.03601740698582
 30
0.0
 10
-5.054205538721729
 20
29.03843258738384
 30
0.0
 10
-4.933865891750795
 20
29.04326360754355
 30
0.0
 10
-4.759099017955373
 20
29.09182787138066
 30
0.0
 10
-4.594003666620528
 20
29.16696342580742
 30
0.0
 10
-4.498712812216815
 20
29.24061496307905
 30
0.0
 10
-4.451074003057668
 20
29.27743561654381
 30
0.0
 11
-5.114367149905206
 21
29.03601740698582
 31
0.0
 11
-4.934840479307581
 21
29.05014698936304
 31
0.0
 11
-4.760711040702858
 21
29.09625684292121
 31
0.0
 11
-4.597681309324457
 21
29.17286289144681
 31
0.0
 11
-4.451074003057668
 21
29.27743561654381
 31
0.0
  0
SPLINE
  5
946
330
1F
100
AcDbEntity
  8
0
100
AcDbSpline
210
0.0
220
0.0
230
1.0
 70
     8
 71
     3
 72
    11
 73
     7
 74
     5
 42
0.0000000001
 43
0.0000000001
 44
0.0000000001
 40
0.0
 40
0.0
 40
0.0
 40
0.0
 40
0.180081844043133
 40
0.3602120839503114
 40
0.5403437323216938
 40
0.7204242135851336
 40
0.7204242135851336
 40
0.7204242135851336
 40
0.7204242135851336
 10
-9.770046644125386
 20
43.891192842574
 30
0.0
 10
-9.830208288003525
 20
43.88877776349782
 30
0.0
 10
-9.950547743823566
 20
43.88394695630814
 30
0.0
 10
-10.12531409808661
 20
43.83538127165664
 30
0.0
 10
-10.29041006592708
 20
43.76024749758528
 30
0.0
 10
-10.38570045699545
 20
43.6865951520916
 30
0.0
 10
-10.4333388846652
 20
43.64977421039781
 30
0.0
 11
-9.770046644125386
 21
43.891192842574
 31
0.0
 11
-9.949573314722897
 21
43.87706326019702
 31
0.0
 11
-10.12370184702001
 21
43.83095298402054
 31
0.0
 11
-10.28673248470613
 21
43.75434735811325
 31
0.0
 11
-10.4333388846652
 21
43.64977421039781
 31
0.0
  0
LINE
  5
947
330
1F
100
AcDbEntity
  8
AM_4
370
    -3
100
AcDbLine
 10
0.0
 20
40.0
 30
0.0
 11
0.0
 21
40.0
 31
0.0
  0
LINE
  5
948
102
{ACAD_REACTORS
330
94B
330
980
330
A50
102
}
330
1F
100
AcDbEntity
  8
AM_4
370
    -3
100
AcDbLine
 10
0.0
 20
40.0
 30
0.0
 11
0.0
 21
39.87203492077924
 31
0.0
  0
DIMENSION
  5
949
102
{ACAD_XDICTIONARY
360
94A
102
}
102
{ACAD_REACTORS
330
94B
102
}
330
1F
100
AcDbEntity
  8
AM_5
100
AcDbDimension
  2
*D9
 10
-4.758580481808052
 20
42.21865936115352
 30
0.0
 11
-11.30333081682886
 21
57.74237219710308
 31
0.0
 70
    34
 71
     5
 42
1.134464013796317
  3
AM_JIS$2
100
AcDb2LineAngularDimension
 13
0.0
 23
40.0
 33
0.0
 14
0.0
 24
39.87203492077924
 34
0.0
 15
-1.403681914070944
 25
40.65424446668453
 35
0.0
 16
-6.567178969104841
 26
56.53027619441743
 36
0.0
1001
ACAD_DIMASSOC_DIMLFAC
1040
1.0
1001
ACAD_DIMASSOC_CALC_DIMLFAC
1040
1.0
1001
ACAD_DIMASSOC_OVERRIDDEN_DIMLFAC
1040
1.0
1001
ACAD
1000
DSTYLE
1002
{
1070
   144
1040
1.0
1070
   271
1070
     0
1002
}
  0
DIMENSION
  5
974
102
{ACAD_XDICTIONARY
360
97F
102
}
102
{ACAD_REACTORS
330
980
102
}
330
1F
100
AcDbEntity
  8
AM_5
100
AcDbDimension
  2
*D10
 10
0.0000000000000016
 20
66.31423486480485
 30
0.0
 11
-25.0
 21
69.71423486480486
 31
0.0
 70
    32
 71
     5
 42
50.0
  3
AM_JIS$0
100
AcDbAlignedDimension
 13
-50.0
 23
28.0
 33
0.0
 14
0.0
 24
40.0
 34
0.0
100
AcDbRotatedDimension
1001
ACAD
1000
DSTYLE
1002
{
1070
   179
1070
     0
1070
   271
1070
     0
1002
}
  0
DIMENSION
  5
9C0
102
{ACAD_XDICTIONARY
360
9CB
102
}
102
{ACAD_REACTORS
330
9CC
102
}
330
1F
100
AcDbEntity
  8
AM_5
100
AcDbDimension
  2
*D11
 10
-65.92380562743915
 20
-12.7
 30
0.0
 11
-69.32417964318718
 21
-0.0000000000000044
 31
0.0
 70
    32
  1
%%c<>
 71
     5
 42
25.40000000000001
  3
AM_JIS$0
100
AcDbAlignedDimension
 13
-48.5
 23
12.7
 33
0.0
 14
-48.5
 24
-12.7
 34
0.0
 50
90.0
100
AcDbRotatedDimension
1001
ACAD
1000
DSTYLE
1002
{
1070
   179
1070
     0
1070
   271
1070
     1
1002
}
  0
DIMENSION
  5
9FF
330
1F
100
AcDbEntity
  8
AM_5
100
AcDbDimension
  2
*D12
 10
-82.41542508439522
 20
-29.99999999999999
 30
0.0
 11
-85.81542508439524
 21
-0.0000000000000016
 31
0.0
 70
    32
  1
%%c<>
 71
     5
 42
60.0
  3
AM_JIS$0
100
AcDbAlignedDimension
 13
-48.0
 23
30.0
 33
0.0
 14
-48.0
 24
-30.0
 34
0.0
 50
90.0
100
AcDbRotatedDimension
1001
ACAD
1000
DSTYLE
1002
{
1070
   179
1070
     0
1070
   271
1070
     0
1002
}
  0
DIMENSION
  5
A44
102
{ACAD_XDICTIONARY
360
A4F
102
}
102
{ACAD_REACTORS
330
A50
102
}
330
1F
100
AcDbEntity
  8
AM_5
100
AcDbDimension
  2
*D13
 10
14.20993640301823
 20
40.0
 30
0.0
 11
14.20993640301822
 21
0.2899617440922952
 31
0.0
 70
   160
  1
%%c<>
 71
     5
 42
80.0
  3
AM_JIS$0
100
AcDbAlignedDimension
 13
-13.80560509347833
 23
0.0
 33
0.0
 14
0.0
 24
40.0
 34
0.0
 50
90.0
100
AcDbRotatedDimension
1001
ACAD
1000
DSTYLE
1002
{
1070
    75
1070
     1
1070
   144
1040
2.0
1070
   173
1070
     1
1070
   179
1070
     0
1070
   271
1070
     0
1070
   343
1005
3DD
1002
}
  0
DIMENSION
  5
A88
102
{ACAD_XDICTIONARY
360
A93
102
}
102
{ACAD_REACTORS
330
A94
102
}
330
1F
100
AcDbEntity
  8
AM_5
100
AcDbDimension
  2
*D14
 10
26.44460432195582
 20
43.88904504570727
 30
0.0
 11
26.44460432195581
 21
1.009353479894855
 31
0.0
 70
   160
  1
%%c<>
 71
     5
 42
87.77809009141455
  3
AM_JIS$0
100
AcDbAlignedDimension
 13
-13.80560509347833
 23
0.0
 33
0.0
 14
-9.585465762479316
 24
43.88904504570727
 34
0.0
 50
90.0
100
AcDbRotatedDimension
1001
ACAD
1000
DSTYLE
1002
{
1070
    75
1070
     1
1070
   144
1040
2.0
1070
   173
1070
     1
1070
   179
1070
     0
1070
   271
1070
     0
1070
   343
1005
3DD
1002
}
  0
LINE
  5
B15
330
1F
100
AcDbEntity
  8
0
100
AcDbLine
 10
-11.60455718766525
 20
-42.5
 30
0.0
 11
-16.8250230000001
 21
-42.5
 31
0.0
  0
ARC
  5
B16
330
1F
100
AcDbEntity
  8
1
100
AcDbCircle
 10
-16.8250230000001
 20
-40.49999999999999
 30
0.0
 40
2.0
100
AcDbArc
 50
260.0000124822702
 51
270.0
  0
LINE
  5
B1B
330
1F
100
AcDbEntity
  8
0
  6
ACISOTGL
100
AcDbLine
 10
-0.1227366790914175
 20
-37.13487842546225
 30
0.0
 11
-1.687151996178613
 21
-33.77997895141743
 31
0.0
  0
LINE
  5
B1C
330
1F
100
AcDbEntity
  8
0
  6
ACISOTGL
100
AcDbLine
 10
-1.403681914070944
 20
-40.65424446668453
 30
0.0
 11
-4.758580481808052
 21
-42.21865936115352
 31
0.0
  0
LINE
  5
B1D
330
1F
100
AcDbEntity
  8
0
  6
ACISOTGL
100
AcDbLine
 10
-3.251567313266035
 20
-30.42507947737249
 30
0.0
 11
-1.687151996178613
 21
-33.77997895141743
 31
0.0
  0
SPLINE
  5
B1F
330
1F
100
AcDbEntity
  8
0
  6
ACISOTGL
100
AcDbSpline
210
0.0
220
0.0
230
1.0
 70
     8
 71
     3
 72
    11
 73
     7
 74
     5
 42
0.0000000001
 43
0.0000000001
 44
0.0000000001
 40
0.0
 40
0.0
 40
0.0
 40
0.0
 40
0.1043112552939403
 40
0.2086220543370466
 40
0.3129324750484674
 40
0.4172434765872205
 40
0.4172434765872205
 40
0.4172434765872205
 40
0.4172434765872205
 10
-0.029223733565118
 20
-37.53859858184296
 30
0.0
 10
-0.0309198435195097
 20
-37.50383384403787
 30
0.0
 10
-0.0343120560096155
 20
-37.43430452048646
 30
0.0
 10
-0.0533157502965489
 20
-37.33148859941108
 30
0.0
 10
-0.0814532639728757
 20
-37.23078855584772
 30
0.0
 10
-0.1089755151768089
 20
-37.16684852826301
 30
0.0
 10
-0.1227366790914175
 20
-37.13487842546225
 30
0.0
 11
-0.029223733565118
 21
-37.53859858184296
 31
0.0
 11
-0.0366313089692767
 21
-37.43455068033779
 31
0.0
 11
-0.0548380826877519
 21
-37.331841108302
 31
0.0
 11
-0.0836441780533051
 21
-37.23158706729225
 31
0.0
 11
-0.1227366790914175
 21
-37.13487842546225
 31
0.0
  0
LINE
  5
B20
330
1F
100
AcDbEntity
  8
0
  6
ACISOTGL
100
AcDbLine
 10
-0.0267988923968687
 20
-37.74466788910456
 30
0.0
 11
-0.0291130249275966
 21
-37.54586124978232
 31
0.0
  0
LINE
  5
B21
330
1F
100
AcDbEntity
  8
0
  6
ACISOTGL
100
AcDbLine
 10
-0.0146185147581264
 20
-38.79144511373477
 30
0.0
 11
-0.0267988923968687
 21
-37.74466788910456
 31
0.0
  0
LINE
  5
B22
330
1F
100
AcDbEntity
  8
0
  6
ACISOTGL
100
AcDbLine
 10
-5.114367149905206
 20
-29.03601740698594
 30
0.0
 11
-5.637755762220307
 21
-29.04210759580525
 31
0.0
  0
LINE
  5
B28
330
1F
100
AcDbEntity
  8
0
  6
ACISOTGL
100
AcDbLine
 10
-8.723269419495068
 20
-43.87901246493537
 30
0.0
 11
-8.524463263862344
 21
-43.87669966133069
 31
0.0
  0
LINE
  5
B29
330
1F
100
AcDbEntity
  8
0
  6
ACISOTGL
100
AcDbLine
 10
-9.770046644125386
 20
-43.89119284257413
 30
0.0
 11
-8.723269419495068
 21
-43.87901246493537
 31
0.0
  0
SPLINE
  5
B2A
330
1F
100
AcDbEntity
  8
0
  6
ACISOTGL
100
AcDbSpline
210
0.0
220
0.0
230
1.0
 70
     8
 71
     3
 72
    11
 73
     7
 74
     5
 42
0.0000000001
 43
0.0000000001
 44
0.0000000001
 40
0.0
 40
0.0
 40
0.0
 40
0.0
 40
0.1043112552938368
 40
0.208622312282175
 40
0.3129337207664997
 40
0.4172446701487321
 40
0.4172446701487321
 40
0.4172446701487321
 40
0.4172446701487321
 10
-8.517201018541186
 20
-43.87658804638556
 30
0.0
 10
-8.48243629875802
 20
-43.87489182970781
 30
0.0
 10
-8.412906925282689
 20
-43.87149939957694
 30
0.0
 10
-8.310090326418206
 20
-43.85249721328272
 30
0.0
 10
-8.209389916141518
 20
-43.82435923671586
 30
0.0
 10
-8.145449895712758
 20
-43.79683617754308
 30
0.0
 10
-8.113479955852767
 20
-43.78307467824082
 30
0.0
 11
-8.517201018541186
 21
-43.87658804638556
 31
0.0
 11
-8.413153117036129
 21
-43.86918047098129
 31
0.0
 11
-8.310443122382025
 21
-43.85097460357052
 31
0.0
 11
-8.210188175064557
 21
-43.82216808558665
 31
0.0
 11
-8.113479955852767
 21
-43.78307467824082
 31
0.0
  0
SPLINE
  5
B2E
330
1F
100
AcDbEntity
  8
0
  6
ACISOTGL
100
AcDbSpline
210
0.0
220
0.0
230
1.0
 70
     8
 71
     3
 72
    11
 73
     7
 74
     5
 42
0.0000000001
 43
0.0000000001
 44
0.0000000001
 40
0.0
 40
0.0
 40
0.0
 40
0.0
 40
0.1043108981074495
 40
0.2086219550957811
 40
0.3129323758071241
 40
0.417243325189327
 40
0.417243325189327
 40
0.417243325189327
 40
0.417243325189327
 10
-11.3836878611238
 20
-42.83327215876977
 30
0.0
 10
-11.4092285146775
 20
-42.80962624887531
 30
0.0
 10
-11.4603098606871
 20
-42.76233439307018
 30
0.0
 10
-11.52685745859836
 20
-42.68168917720763
 30
0.0
 10
-11.58591167597502
 20
-42.5954056198752
 30
0.0
 10
-11.61720091519937
 20
-42.53322215886455
 30
0.0
 10
-11.63284557445684
 20
-42.50213034956914
 30
0.0
 11
-11.3836878611238
 21
-42.83327215876977
 31
0.0
 11
-11.45863077389447
 21
-42.7607165022747
 31
0.0
 11
-11.52560868855687
 21
-42.68074928675797
 31
0.0
 11
-11.583891538388
 21
-42.59424048209313
 31
0.0
 11
-11.63284557445684
 21
-42.50213034956914
 31
0.0
  0
LINE
  5
B2F
330
1F
100
AcDbEntity
  8
0
  6
ACISOTGL
100
AcDbLine
 10
-11.22738736494909
 20
-42.96758806969831
 30
0.0
 11
-11.37819549684684
 21
-42.83802531947094
 31
0.0
  0
LINE
  5
B30
330
1F
100
AcDbEntity
  8
0
  6
ACISOTGL
100
AcDbLine
 10
-10.43333888466509
 20
-43.64977421039792
 30
0.0
 11
-11.22738736494909
 21
-42.96758806969831
 31
0.0
  0
SPLINE
  5
B31
330
1F
100
AcDbEntity
  8
0
100
AcDbSpline
210
0.0
220
0.0
230
1.0
 70
     8
 71
     3
 72
    11
 73
     7
 74
     5
 42
0.0000000001
 43
0.0000000001
 44
0.0000000001
 40
0.0
 40
0.0
 40
0.0
 40
0.0
 40
0.1043112552939471
 40
0.2086223122821778
 40
0.312933720766635
 40
0.417244670148796
 40
0.417244670148796
 40
0.417244670148796
 40
0.417244670148796
 10
-1.07253962118068
 20
-40.40508542442545
 30
0.0
 10
-1.0961853296719
 20
-40.43062643776813
 30
0.0
 10
-1.143476701701576
 20
-40.48170841589754
 30
0.0
 10
-1.224122456739375
 20
-40.54825613021153
 30
0.0
 10
-1.310406373345403
 20
-40.60731037722467
 30
0.0
 10
-1.372590112777065
 20
-40.63859979315014
 30
0.0
 10
-1.403681914070944
 20
-40.65424446668453
 30
0.0
 11
-1.07253962118068
 21
-40.40508542442545
 31
0.0
 11
-1.14509485505755
 21
-40.48002924350396
 31
0.0
 11
-1.225062070574153
 21
-40.54700715816635
 31
0.0
 11
-1.311571781546945
 21
-40.60529043061579
 31
0.0
 11
-1.403681914070944
 21
-40.65424446668453
 31
0.0
  0
LINE
  5
B32
330
1F
100
AcDbEntity
  8
0
100
AcDbLine
 10
-0.9382241939416644
 20
-40.2487862571769
 30
0.0
 11
-1.067786037861309
 21
-40.39959396645643
 31
0.0
  0
LINE
  5
B33
330
1F
100
AcDbEntity
  8
0
  6
ACISOTGL
100
AcDbLine
 10
-0.2560380532421504
 20
-39.45473777689278
 30
0.0
 11
-0.9382241939416644
 21
-40.2487862571769
 31
0.0
  0
LINE
  5
B34
330
1F
100
AcDbEntity
  8
0
  6
ACISOTGL
100
AcDbLine
 10
-4.451074003057668
 20
-29.27743561654381
 30
0.0
 11
-3.657025522773665
 21
-29.95962175724344
 31
0.0
  0
LINE
  5
B35
330
1F
100
AcDbEntity
  8
0
  6
ACISOTGL
100
AcDbLine
 10
-3.657025522773665
 20
-29.95962175724344
 30
0.0
 11
-3.506218297183636
 21
-30.08918493008912
 31
0.0
  0
SPLINE
  5
B36
330
1F
100
AcDbEntity
  8
0
  6
ACISOTGL
100
AcDbSpline
210
0.0
220
0.0
230
1.0
 70
     8
 71
     3
 72
    11
 73
     7
 74
     5
 42
0.0000000001
 43
0.0000000001
 44
0.0000000001
 40
0.0
 40
0.0
 40
0.0
 40
0.0
 40
0.1043112552940954
 40
0.2086220543370314
 40
0.3129324750485069
 40
0.4172434765871241
 40
0.4172434765871241
 40
0.4172434765871241
 40
0.4172434765871241
 10
-3.500725932906902
 20
-30.09393809079018
 30
0.0
 10
-3.475184837158124
 20
-30.1175837291108
 30
0.0
 10
-3.424102757375788
 20
-30.16487490232743
 30
0.0
 10
-3.357556531597893
 20
-30.24552137688059
 30
0.0
 10
-3.298502267962858
 20
-30.33180470317283
 30
0.0
 10
-3.267212327203296
 20
-30.39398782826416
 30
0.0
 10
-3.251567313266035
 20
-30.42507947737249
 30
0.0
 11
-3.500725932906902
 21
-30.09393809079018
 31
0.0
 11
-3.425782113828176
 21
-30.16649332466704
 31
0.0
 11
-3.358805105473834
 21
-30.24646096280196
 31
0.0
 11
-3.300522255642476
 21
-30.33296976746681
 31
0.0
 11
-3.251567313266035
 21
-30.42507947737249
 31
0.0
  0
SPLINE
  5
B37
330
1F
100
AcDbEntity
  8
0
100
AcDbSpline
210
0.0
220
0.0
230
1.0
 70
     8
 71
     3
 72
    11
 73
     7
 74
     5
 42
0.0000000001
 43
0.0000000001
 44
0.0000000001
 40
0.0
 40
0.0
 40
0.0
 40
0.0
 40
0.1800809736896215
 40
0.3602119815254569
 40
0.5403429893614725
 40
0.7204248334046957
 40
0.7204248334046957
 40
0.7204248334046957
 40
0.7204248334046957
 10
-0.0146185147581264
 20
-38.79144511373489
 30
0.0
 10
-0.0170338940471453
 20
-38.85160641859576
 30
0.0
 10
-0.0218653237201802
 20
-38.97194574368427
 30
0.0
 10
-0.0704293960257707
 20
-39.14671232359154
 30
0.0
 10
-0.1455649926385179
 20
-39.31180802317185
 30
0.0
 10
-0.2192170505176374
 20
-39.40709886092164
 30
0.0
 10
-0.2560380532421504
 20
-39.45473777689278
 30
0.0
 11
-0.0146185147581264
 21
-38.79144511373489
 31
0.0
 11
-0.0287485197535489
 21
-38.97097087802467
 31
0.0
 11
-0.074858373311713
 21
-39.14510031662941
 31
0.0
 11
-0.1514644218373178
 21
-39.3081300480078
 31
0.0
 11
-0.2560380532421504
 21
-39.45473777689278
 31
0.0
  0
SPLINE
  5
B39
330
1F
100
AcDbEntity
  8
0
  6
ACISOTGL
100
AcDbSpline
210
0.0
220
0.0
230
1.0
 70
     8
 71
     3
 72
    11
 73
     7
 74
     5
 42
0.0000000001
 43
0.0000000001
 44
0.0000000001
 40
0.0
 40
0.0
 40
0.0
 40
0.0
 40
0.1800818440432644
 40
0.3602128518790948
 40
0.5403438597151137
 40
0.7204248334047755
 40
0.7204248334047755
 40
0.7204248334047755
 40
0.7204248334047755
 10
-5.114367149905206
 20
-29.03601740698582
 30
0.0
 10
-5.054205538721729
 20
-29.03843258738384
 30
0.0
 10
-4.933865891750795
 20
-29.04326360754355
 30
0.0
 10
-4.759099017955373
 20
-29.09182787138066
 30
0.0
 10
-4.594003666620528
 20
-29.16696342580742
 30
0.0
 10
-4.498712812216815
 20
-29.24061496307905
 30
0.0
 10
-4.451074003057668
 20
-29.27743561654381
 30
0.0
 11
-5.114367149905206
 21
-29.03601740698582
 31
0.0
 11
-4.934840479307581
 21
-29.05014698936304
 31
0.0
 11
-4.760711040702858
 21
-29.09625684292121
 31
0.0
 11
-4.597681309324457
 21
-29.17286289144681
 31
0.0
 11
-4.451074003057668
 21
-29.27743561654381
 31
0.0
  0
SPLINE
  5
B3A
330
1F
100
AcDbEntity
  8
0
  6
ACISOTGL
100
AcDbSpline
210
0.0
220
0.0
230
1.0
 70
     8
 71
     3
 72
    11
 73
     7
 74
     5
 42
0.0000000001
 43
0.0000000001
 44
0.0000000001
 40
0.0
 40
0.0
 40
0.0
 40
0.0
 40
0.180081844043133
 40
0.3602120839503114
 40
0.5403437323216938
 40
0.7204242135851336
 40
0.7204242135851336
 40
0.7204242135851336
 40
0.7204242135851336
 10
-9.770046644125386
 20
-43.891192842574
 30
0.0
 10
-9.830208288003525
 20
-43.88877776349782
 30
0.0
 10
-9.950547743823566
 20
-43.88394695630814
 30
0.0
 10
-10.12531409808661
 20
-43.83538127165664
 30
0.0
 10
-10.29041006592708
 20
-43.76024749758528
 30
0.0
 10
-10.38570045699545
 20
-43.6865951520916
 30
0.0
 10
-10.4333388846652
 20
-43.64977421039781
 30
0.0
 11
-9.770046644125386
 21
-43.891192842574
 31
0.0
 11
-9.949573314722897
 21
-43.87706326019702
 31
0.0
 11
-10.12370184702001
 21
-43.83095298402054
 31
0.0
 11
-10.28673248470613
 21
-43.75434735811325
 31
0.0
 11
-10.4333388846652
 21
-43.64977421039781
 31
0.0
  0
LINE
  5
B48
330
1F
100
AcDbEntity
  8
AM_0
  6
ACISOTGL
100
AcDbLine
 10
-8.113479955852767
 20
-43.78307467824082
 30
0.0
 11
-4.758580481808052
 21
-42.21865936115352
 31
0.0
  0
ENDSEC
  0
SECTION
  2
OBJECTS
  0
DICTIONARY
  5
C
330
0
100
AcDbDictionary
281
     1
  3
ACAD_COLOR
350
BE
  3
ACAD_GROUP
350
D
  3
ACAD_LAYOUT
350
1A
  3
ACAD_MATERIAL
350
BD
  3
ACAD_MLINESTYLE
350
17
  3
ACAD_PLOTSETTINGS
350
19
  3
ACAD_PLOTSTYLENAME
350
E
  3
ACAD_TABLESTYLE
350
11A
  3
ACDBHEADERROUNDTRIPXREC
350
CE9
  3
AcDbVariableDictionary
350
94
  3
AcmDictionary
350
5B
  3
AMG
350
41
  3
AMGSNAPSETTINGS
350
1B8
  3
DWGPROPS
350
CE8
  0
DICTIONARY
  5
34B
330
2
100
AcDbDictionary
280
     1
281
     1
  3
ACAD_LAYERSTATES
360
461
  3
AMLAYER_GROUPCOLORS
360
34C
  0
DICTIONARY
  5
8F
330
1F
100
AcDbDictionary
280
     1
281
     1
  0
DICTIONARY
  5
83E
330
83D
100
AcDbDictionary
280
     1
281
     1
  3
ACAD_DIMASSOC
360
83F
  0
DICTIONARY
  5
841
330
840
100
AcDbDictionary
280
     1
281
     1
  3
ACAD_DIMASSOC
360
842
  0
DICTIONARY
  5
844
330
843
100
AcDbDictionary
280
     1
281
     1
  3
ACAD_DIMASSOC
360
845
  0
DICTIONARY
  5
847
330
846
100
AcDbDictionary
280
     1
281
     1
  3
ACAD_DIMASSOC
360
848
  0
DICTIONARY
  5
84A
330
849
100
AcDbDictionary
280
     1
281
     1
  3
ACAD_DIMASSOC
360
84B
  0
DICTIONARY
  5
94A
330
949
100
AcDbDictionary
280
     1
281
     1
  3
ACAD_DIMASSOC
360
94B
  0
DICTIONARY
  5
97F
330
974
100
AcDbDictionary
280
     1
281
     1
  3
ACAD_DIMASSOC
360
980
  0
DICTIONARY
  5
9CB
330
9C0
100
AcDbDictionary
280
     1
281
     1
  3
ACAD_DIMASSOC
360
9CC
  0
DICTIONARY
  5
A4F
330
A44
100
AcDbDictionary
280
     1
281
     1
  3
ACAD_DIMASSOC
360
A50
  0
DICTIONARY
  5
A93
330
A88
100
AcDbDictionary
280
     1
281
     1
  3
ACAD_DIMASSOC
360
A94
  0
DICTIONARY
  5
BE
102
{ACAD_REACTORS
330
C
102
}
330
C
100
AcDbDictionary
281
     1
  0
DICTIONARY
  5
D
102
{ACAD_REACTORS
330
C
102
}
330
C
100
AcDbDictionary
281
     1
  0
DICTIONARY
  5
1A
102
{ACAD_REACTORS
330
C
102
}
330
C
100
AcDbDictionary
281
     1
  3
Model
350
22
  3
レイアウト1
350
1E
  3
レイアウト2
350
26
  0
DICTIONARY
  5
BD
102
{ACAD_REACTORS
330
C
102
}
330
C
100
AcDbDictionary
281
     1
  0
DICTIONARY
  5
17
102
{ACAD_REACTORS
330
C
102
}
330
C
100
AcDbDictionary
281
     1
  3
Standard
350
18
  0
DICTIONARY
  5
19
102
{ACAD_REACTORS
330
C
102
}
330
C
100
AcDbDictionary
281
     1
  0
ACDBDICTIONARYWDFLT
  5
E
102
{ACAD_REACTORS
330
C
102
}
330
C
100
AcDbDictionary
281
     1
  3
Normal
350
F
100
AcDbDictionaryWithDefault
340
F
  0
DICTIONARY
  5
11A
102
{ACAD_REACTORS
330
C
102
}
330
C
100
AcDbDictionary
281
     1
  3
Standard
350
11B
  0
DICTIONARY
  5
CE9
102
{ACAD_REACTORS
330
C
102
}
330
C
100
AcDbDictionary
281
     1
  0
DICTIONARY
  5
94
102
{ACAD_REACTORS
330
C
102
}
330
C
100
AcDbDictionary
281
     1
  3
CTABLESTYLE
350
138
  3
DIMASSOC
350
96
  3
INDEXCTL
350
95
  3
PROJECTNAME
350
CE6
  0
DICTIONARY
  5
5B
102
{ACAD_REACTORS
330
C
102
}
330
C
100
AcDbDictionary
281
     1
  3
AcmBOM
350
1B5
  3
AcmStdDictionary
350
61
  3
AMDTSECTSYM_ARROWCOLOR
350
123
  0
DICTIONARY
  5
41
102
{ACAD_REACTORS
330
C
102
}
330
C
100
AcDbDictionary
281
     1
  0
DICTIONARY
  5
1B8
102
{ACAD_REACTORS
330
C
102
}
330
C
100
AcDbDictionary
281
     1
  0
XRECORD
  5
CE8
102
{ACAD_REACTORS
330
C
102
}
330
C
100
AcDbXrecord
280
     1
  1
DWGPROPS COOKIE
  2

  3

  4

  6

  7

  8

  9

300
AmdtFileType=84
301
=
302
=
303
=
304
=
305
=
306
=
307
=
308
=
309
=
 40
0.0179797800925926
 41
2455412.730832604
 42
2455555.426928889
  1

 90
        1
  0
DICTIONARY
  5
461
102
{ACAD_REACTORS
330
34B
102
}
330
34B
100
AcDbDictionary
281
     1
  0
DICTIONARY
  5
34C
102
{ACAD_REACTORS
330
34B
102
}
330
34B
100
AcDbDictionary
280
     1
281
     1
  0
DIMASSOC
  5
83F
102
{ACAD_REACTORS
330
83E
102
}
330
83E
100
AcDbDimAssoc
330
83D
 90
        3
 70
     0
 71
     0
  1
AcDbOsnapPointRef
 72
    13
331
839
 73
     0
 91
        0
 40
0.0
 10
0.0
 20
0.0
 30
2.000000000000000E+50
 75
     0
  1
AcDbOsnapPointRef
 72
    13
331
83C
 73
     0
 91
        0
 40
0.0
 10
0.0
 20
0.0
 30
2.000000000000000E+50
 75
     0
  0
DIMASSOC
  5
842
102
{ACAD_REACTORS
330
841
102
}
330
841
100
AcDbDimAssoc
330
840
 90
        3
 70
     0
 71
     0
  1
AcDbOsnapPointRef
 72
    13
331
7C6
 73
     0
 91
        0
 40
0.0
 10
0.0
 20
0.0
 30
2.000000000000000E+50
 75
     0
  1
AcDbOsnapPointRef
 72
    13
331
83B
 73
     0
 91
        0
 40
0.0
 10
0.0
 20
0.0
 30
2.000000000000000E+50
 75
     0
  0
DIMASSOC
  5
845
102
{ACAD_REACTORS
330
844
102
}
330
844
100
AcDbDimAssoc
330
843
 90
        3
 70
     0
 71
     0
  1
AcDbOsnapPointRef
 72
    13
331
7C6
 73
     0
 91
        0
 40
0.0
 10
0.0
 20
0.0
 30
2.000000000000000E+50
 75
     0
  1
AcDbOsnapPointRef
 72
     1
331
7CF
 73
     0
 91
        0
 40
0.0
 10
0.0
 20
0.0
 30
2.000000000000000E+50
 75
     0
  0
DIMASSOC
  5
848
102
{ACAD_REACTORS
330
847
102
}
330
847
100
AcDbDimAssoc
330
846
 90
        3
 70
     0
 71
     0
  1
AcDbOsnapPointRef
 72
    13
331
7C6
 73
     0
 91
        0
 40
0.0
 10
0.0
 20
0.0
 30
2.000000000000000E+50
 75
     0
  1
AcDbOsnapPointRef
 72
    13
331
7D4
 73
     0
 91
        0
 40
0.0
 10
0.0
 20
0.0
 30
2.000000000000000E+50
 75
     0
  0
DIMASSOC
  5
84B
102
{ACAD_REACTORS
330
84A
102
}
330
84A
100
AcDbDimAssoc
330
849
 90
        3
 70
     0
 71
     0
  1
AcDbOsnapPointRef
 72
     1
331
835
 73
     0
 91
        0
 40
0.0
 10
0.0
 20
0.0
 30
2.000000000000000E+50
 75
     0
  1
AcDbOsnapPointRef
 72
    13
331
835
 73
     0
 91
        0
 40
0.0
 10
0.0
 20
0.0
 30
2.000000000000000E+50
 75
     0
  0
DIMASSOC
  5
94B
102
{ACAD_REACTORS
330
94A
102
}
330
94A
100
AcDbDimAssoc
330
949
 90
       15
 70
     1
 71
     0
  1
AcDbOsnapPointRef
 72
    13
331
948
 73
     2
 91
        0
 40
0.0
 10
0.0
 20
0.0
 30
2.000000000000000E+50
 75
     0
  1
AcDbOsnapPointRef
 72
     1
331
948
 73
     2
 91
        0
 40
0.0
 10
0.0
 20
0.0
 30
2.000000000000000E+50
 75
     0
  1
AcDbOsnapPointRef
 72
    13
331
928
 73
     2
 91
        0
 40
0.0
 10
0.0
 20
0.0
 30
2.000000000000000E+50
 75
     0
  1
AcDbOsnapPointRef
 72
     1
331
928
 73
     2
 91
        0
 40
0.0
 10
0.0
 20
0.0
 30
2.000000000000000E+50
 75
     0
  0
DIMASSOC
  5
980
102
{ACAD_REACTORS
330
97F
102
}
330
97F
100
AcDbDimAssoc
330
974
 90
        3
 70
     0
 71
     0
  1
AcDbOsnapPointRef
 72
     1
331
7D7
 73
     0
 91
        0
 40
0.0
 10
0.0
 20
0.0
 30
2.000000000000000E+50
 75
     0
  1
AcDbOsnapPointRef
 72
    13
331
948
 73
     0
 91
        0
 40
0.0
 10
0.0
 20
0.0
 30
2.000000000000000E+50
 75
     0
  0
DIMASSOC
  5
9CC
102
{ACAD_REACTORS
330
9CB
102
}
330
9CB
100
AcDbDimAssoc
330
9C0
 90
        3
 70
     0
 71
     0
  1
AcDbOsnapPointRef
 72
    13
331
830
 73
     0
 91
        0
 40
0.0
 10
0.0
 20
0.0
 30
2.000000000000000E+50
 75
     0
  1
AcDbOsnapPointRef
 72
     1
331
831
 73
     0
 91
        0
 40
0.0
 10
0.0
 20
0.0
 30
2.000000000000000E+50
 75
     0
  0
DIMASSOC
  5
A50
102
{ACAD_REACTORS
330
A4F
102
}
330
A4F
100
AcDbDimAssoc
330
A44
 90
        3
 70
     0
 71
     0
  1
AcDbOsnapPointRef
 72
     1
331
837
 73
     0
 91
        0
 40
0.0
 10
0.0
 20
0.0
 30
2.000000000000000E+50
 75
     0
  1
AcDbOsnapPointRef
 72
    13
331
948
 73
     0
 91
        0
 40
0.0
 10
0.0
 20
0.0
 30
2.000000000000000E+50
 75
     0
  0
DIMASSOC
  5
A94
102
{ACAD_REACTORS
330
A93
102
}
330
A93
100
AcDbDimAssoc
330
A88
 90
        3
 70
     0
 71
     0
  1
AcDbOsnapPointRef
 72
     1
331
837
 73
     0
 91
        0
 40
0.0
 10
0.0
 20
0.0
 30
2.000000000000000E+50
 75
     0
  1
AcDbOsnapPointRef
 72
    10
331
935
 73
     0
 91
        0
 40
0.1763325350446532
 10
0.0
 20
0.0
 30
0.0
 75
     0
  0
LAYOUT
  5
22
102
{ACAD_XDICTIONARY
360
CEC
102
}
102
{ACAD_REACTORS
330
1A
102
}
330
1A
100
AcDbPlotSettings
  1

  2
SII LP-2150 (D-SCAN C2)
  4
User119
  6

 40
3.174999952316283
 41
3.174999952316283
 42
3.175003051757812
 43
3.17498779296875
 44
210.0579986572266
 45
296.9259948730469
 46
0.0
 47
0.0
 48
0.0
 49
0.0
140
0.0
141
0.0
142
1.0
143
1.580715189147934
 70
 11952
 72
     1
 73
     1
 74
     0
  7
sei_cad.ctb
 75
     0
147
0.63262503382348
148
19.65895403440572
149
1.143774069319646
100
AcDbLayout
  1
Model
 70
     1
 71
     0
 10
0.0
 20
0.0
 11
12.0
 21
9.0
 12
0.0
 22
0.0
 32
0.0
 14
0.0
 24
0.0
 34
0.0
 15
0.0
 25
0.0
 35
0.0
146
0.0
 13
0.0
 23
0.0
 33
0.0
 16
1.0
 26
0.0
 36
0.0
 17
0.0
 27
1.0
 37
0.0
 76
     0
330
1F
1001
ACAD_PSEXT
1000
SII LP-2150 (D-SCAN C2)
1000
SII LP-2150 (D-SCAN C2)
1000
133.153.16.130#3000
1000

1070
     0
  0
LAYOUT
  5
1E
102
{ACAD_XDICTIONARY
360
CEA
102
}
102
{ACAD_REACTORS
330
1A
102
}
330
1A
100
AcDbPlotSettings
  1

  2

  4

  6

 40
0.0
 41
0.0
 42
0.0
 43
0.0
 44
0.0
 45
0.0
 46
0.0
 47
0.0
 48
0.0
 49
0.0
140
0.0
141
0.0
142
1.0
143
1.0
 70
   688
 72
     0
 73
     0
 74
     5
  7
sei_cad.ctb
 75
    16
147
1.0
148
0.0
149
0.0
100
AcDbLayout
  1
レイアウト1
 70
     1
 71
     1
 10
0.0
 20
0.0
 11
420.0
 21
297.0
 12
0.0
 22
0.0
 32
0.0
 14
1.000000000000000E+20
 24
1.000000000000000E+20
 34
1.000000000000000E+20
 15
-1.000000000000000E+20
 25
-1.000000000000000E+20
 35
-1.000000000000000E+20
146
0.0
 13
0.0
 23
0.0
 33
0.0
 16
1.0
 26
0.0
 36
0.0
 17
0.0
 27
1.0
 37
0.0
 76
     0
330
1B
  0
LAYOUT
  5
26
102
{ACAD_XDICTIONARY
360
CEE
102
}
102
{ACAD_REACTORS
330
1A
102
}
330
1A
100
AcDbPlotSettings
  1

  2

  4

  6

 40
0.0
 41
0.0
 42
0.0
 43
0.0
 44
0.0
 45
0.0
 46
0.0
 47
0.0
 48
0.0
 49
0.0
140
0.0
141
0.0
142
1.0
143
1.0
 70
   688
 72
     0
 73
     0
 74
     5
  7
sei_cad.ctb
 75
    16
147
1.0
148
0.0
149
0.0
100
AcDbLayout
  1
レイアウト2
 70
     1
 71
     2
 10
0.0
 20
0.0
 11
12.0
 21
9.0
 12
0.0
 22
0.0
 32
0.0
 14
0.0
 24
0.0
 34
0.0
 15
0.0
 25
0.0
 35
0.0
146
0.0
 13
0.0
 23
0.0
 33
0.0
 16
1.0
 26
0.0
 36
0.0
 17
0.0
 27
1.0
 37
0.0
 76
     0
330
23
  0
MLINESTYLE
  5
18
102
{ACAD_REACTORS
330
17
102
}
330
17
100
AcDbMlineStyle
  2
STANDARD
 70
     0
  3

 62
   256
 51
90.0
 52
90.0
 71
     2
 49
0.5
 62
   256
  6
BYLAYER
 49
-0.5
 62
   256
  6
BYLAYER
  0
ACDBPLACEHOLDER
  5
F
102
{ACAD_REACTORS
330
E
102
}
330
E
  0
TABLESTYLE
  5
11B
102
{ACAD_REACTORS
330
11A
102
}
330
11A
100
AcDbTableStyle
  3
Standard
 70
     0
 71
     0
 40
1.5
 41
1.5
280
     0
281
     0
  7
STANDARD
140
4.5
170
     2
 62
     0
 63
     7
283
     0
274
    -2
284
     1
 64
     0
275
    -2
285
     1
 65
     0
276
    -2
286
     1
 66
     0
277
    -2
287
     1
 67
     0
278
    -2
288
     1
 68
     0
279
    -2
289
     1
 69
     0
  7
STANDARD
140
6.0
170
     5
 62
     0
 63
     7
283
     0
274
    -2
284
     1
 64
     0
275
    -2
285
     1
 65
     0
276
    -2
286
     1
 66
     0
277
    -2
287
     1
 67
     0
278
    -2
288
     1
 68
     0
279
    -2
289
     1
 69
     0
  7
STANDARD
140
4.5
170
     5
 62
     0
 63
     7
283
     0
274
    -2
284
     1
 64
     0
275
    -2
285
     1
 65
     0
276
    -2
286
     1
 66
     0
277
    -2
287
     1
 67
     0
278
    -2
288
     1
 68
     0
279
    -2
289
     1
 69
     0
  0
DICTIONARYVAR
  5
138
102
{ACAD_REACTORS
330
94
102
}
330
94
100
DictionaryVariables
280
     0
  1
STANDARD
  0
DICTIONARYVAR
  5
96
102
{ACAD_REACTORS
330
94
102
}
330
94
100
DictionaryVariables
280
     0
  1
2
  0
DICTIONARYVAR
  5
95
102
{ACAD_REACTORS
330
94
102
}
330
94
100
DictionaryVariables
280
     0
  1
0
  0
DICTIONARYVAR
  5
CE6
102
{ACAD_REACTORS
330
94
102
}
330
94
100
DictionaryVariables
280
     0
  1

  0
DICTIONARY
  5
1B5
102
{ACAD_REACTORS
330
5B
102
}
330
5B
100
AcDbDictionary
281
     1
  0
DICTIONARY
  5
61
102
{ACAD_REACTORS
330
5B
102
}
330
5B
100
AcDbDictionary
281
     1
  0
XRECORD
  5
123
102
{ACAD_REACTORS
330
5B
102
}
330
5B
100
AcDbXrecord
280
     1
 90
-1023410169
  0
DICTIONARY
  5
CEC
330
22
100
AcDbDictionary
280
     1
281
     1
  3
ACAD_XREC_ROUNDTRIP
360
CED
  0
DICTIONARY
  5
CEA
330
1E
100
AcDbDictionary
280
     1
281
     1
  3
ACAD_XREC_ROUNDTRIP
360
CEB
  0
DICTIONARY
  5
CEE
330
26
100
AcDbDictionary
280
     1
281
     1
  3
ACAD_XREC_ROUNDTRIP
360
CEF
  0
XRECORD
  5
CED
102
{ACAD_REACTORS
330
CEC
102
}
330
CEC
100
AcDbXrecord
280
     1
102
SHADEPLOT
 70
     0
102
SHADEPLOTRESLEVEL
 70
     2
102
SHADEPLOTCUSTOMDPI
 70
   300
  0
XRECORD
  5
CEB
102
{ACAD_REACTORS
330
CEA
102
}
330
CEA
100
AcDbXrecord
280
     1
102
SHADEPLOT
 70
     0
102
SHADEPLOTRESLEVEL
 70
     2
102
SHADEPLOTCUSTOMDPI
 70
   300
  0
XRECORD
  5
CEF
102
{ACAD_REACTORS
330
CEE
102
}
330
CEE
100
AcDbXrecord
280
     1
102
SHADEPLOT
 70
     0
102
SHADEPLOTRESLEVEL
 70
     2
102
SHADEPLOTCUSTOMDPI
 70
   300
  0
ENDSEC
  0
EOF
