  0
SECTION
  2
HEADER
  9
$ACADVER
  1
AC1015
  9
$ACADMAINTVER
 70
    20
  9
$DWGCODEPAGE
  3
ANSI_932
  9
$INSBASE
 10
0.0
 20
0.0
 30
0.0
  9
$EXTMIN
 10
-96.64114624219305
 20
-73.48120511998866
 30
0.0
  9
$EXTMAX
 10
39.07744611298939
 20
81.68759330436072
 30
0.0
  9
$LIMMIN
 10
0.0
 20
0.0
  9
$LIMMAX
 10
420.0
 20
297.0
  9
$ORTHOMODE
 70
     0
  9
$REGENMODE
 70
     1
  9
$FILLMODE
 70
     1
  9
$QTEXTMODE
 70
     0
  9
$MIRRTEXT
 70
     1
  9
$LTSCALE
 40
1.0
  9
$ATTMODE
 70
     1
  9
$TEXTSIZE
 40
3.799999999999999
  9
$TRACEWID
 40
1.0
  9
$TEXTSTYLE
  7
ACISOTS
  9
$CLAYER
  8
AM_0
  9
$CELTYPE
  6
ByLayer
  9
$CECOLOR
 62
   256
  9
$CELTSCALE
 40
1.0
  9
$DISPSILH
 70
     0
  9
$DIMSCALE
 40
1.0
  9
$DIMASZ
 40
2.5
  9
$DIMEXO
 40
1.0
  9
$DIMDLI
 40
10.0
  9
$DIMRND
 40
0.0
  9
$DIMDLE
 40
0.0
  9
$DIMEXE
 40
1.0
  9
$DIMTP
 40
0.1
  9
$DIMTM
 40
0.1000000001
  9
$DIMTXT
 40
3.799999999999998
  9
$DIMCEN
 40
0.0
  9
$DIMTSZ
 40
0.0
  9
$DIMTOL
 70
     0
  9
$DIMLIM
 70
     0
  9
$DIMTIH
 70
     0
  9
$DIMTOH
 70
     0
  9
$DIMSE1
 70
     0
  9
$DIMSE2
 70
     0
  9
$DIMTAD
 70
     3
  9
$DIMZIN
 70
     8
  9
$DIMBLK
  1
Open30
  9
$DIMASO
 70
     1
  9
$DIMSHO
 70
     1
  9
$DIMPOST
  1

  9
$DIMAPOST
  1
"
  9
$DIMALT
 70
     0
  9
$DIMALTD
 70
     2
  9
$DIMALTF
 40
0.0393701
  9
$DIMLFAC
 40
1.0
  9
$DIMTOFL
 70
     1
  9
$DIMTVP
 40
0.0
  9
$DIMTIX
 70
     0
  9
$DIMSOXD
 70
     0
  9
$DIMSAH
 70
     0
  9
$DIMBLK1
  1

  9
$DIMBLK2
  1

  9
$DIMSTYLE
  2
AM_JIS
  9
$DIMCLRD
 70
   256
  9
$DIMCLRE
 70
   256
  9
$DIMCLRT
 70
     2
  9
$DIMTFAC
 40
0.71
  9
$DIMGAP
 40
1.5
  9
$DIMJUST
 70
     0
  9
$DIMSD1
 70
     0
  9
$DIMSD2
 70
     0
  9
$DIMTOLJ
 70
     0
  9
$DIMTZIN
 70
     8
  9
$DIMALTZ
 70
     0
  9
$DIMALTTZ
 70
     0
  9
$DIMUPT
 70
     0
  9
$DIMDEC
 70
     2
  9
$DIMTDEC
 70
     2
  9
$DIMALTU
 70
     2
  9
$DIMALTTD
 70
     2
  9
$DIMTXSTY
  7
STANDARD
  9
$DIMAUNIT
 70
     1
  9
$DIMADEC
 70
     0
  9
$DIMALTRND
 40
0.0
  9
$DIMAZIN
 70
     2
  9
$DIMDSEP
 70
    46
  9
$DIMATFIT
 70
     3
  9
$DIMFRAC
 70
     0
  9
$DIMLDRBLK
  1
Open30
  9
$DIMLUNIT
 70
     2
  9
$DIMLWD
 70
    -1
  9
$DIMLWE
 70
    -1
  9
$DIMTMOVE
 70
     0
  9
$LUNITS
 70
     2
  9
$LUPREC
 70
     2
  9
$SKETCHINC
 40
1.0
  9
$FILLETRAD
 40
2.5
  9
$AUNITS
 70
     0
  9
$AUPREC
 70
     0
  9
$MENU
  1
.
  9
$ELEVATION
 40
0.0
  9
$PELEVATION
 40
0.0
  9
$THICKNESS
 40
0.0
  9
$LIMCHECK
 70
     0
  9
$CHAMFERA
 40
2.5
  9
$CHAMFERB
 40
2.5
  9
$CHAMFERC
 40
20.0
  9
$CHAMFERD
 40
0.0
  9
$SKPOLY
 70
     0
  9
$TDCREATE
 40
2455412.730832604
  9
$TDUCREATE
 40
2455412.355832604
  9
$TDUPDATE
 40
2455555.427294016
  9
$TDUUPDATE
 40
2455555.052294017
  9
$TDINDWG
 40
0.0164784144
  9
$TDUSRTIMER
 40
0.0164782292
  9
$USRTIMER
 70
     1
  9
$ANGBASE
 50
0.0
  9
$ANGDIR
 70
     0
  9
$PDMODE
 70
     0
  9
$PDSIZE
 40
0.0
  9
$PLINEWID
 40
0.0
  9
$SPLFRAME
 70
     0
  9
$SPLINETYPE
 70
     6
  9
$SPLINESEGS
 70
    40
  9
$HANDSEED
  5
B1C
  9
$SURFTAB1
 70
     6
  9
$SURFTAB2
 70
     6
  9
$SURFTYPE
 70
     6
  9
$SURFU
 70
     6
  9
$SURFV
 70
     6
  9
$UCSBASE
  2

  9
$UCSNAME
  2

  9
$UCSORG
 10
0.0
 20
0.0
 30
0.0
  9
$UCSXDIR
 10
1.0
 20
0.0
 30
0.0
  9
$UCSYDIR
 10
0.0
 20
1.0
 30
0.0
  9
$UCSORTHOREF
  2

  9
$UCSORTHOVIEW
 70
     0
  9
$UCSORGTOP
 10
0.0
 20
0.0
 30
0.0
  9
$UCSORGBOTTOM
 10
0.0
 20
0.0
 30
0.0
  9
$UCSORGLEFT
 10
0.0
 20
0.0
 30
0.0
  9
$UCSORGRIGHT
 10
0.0
 20
0.0
 30
0.0
  9
$UCSORGFRONT
 10
0.0
 20
0.0
 30
0.0
  9
$UCSORGBACK
 10
0.0
 20
0.0
 30
0.0
  9
$PUCSBASE
  2

  9
$PUCSNAME
  2

  9
$PUCSORG
 10
0.0
 20
0.0
 30
0.0
  9
$PUCSXDIR
 10
1.0
 20
0.0
 30
0.0
  9
$PUCSYDIR
 10
0.0
 20
1.0
 30
0.0
  9
$PUCSORTHOREF
  2

  9
$PUCSORTHOVIEW
 70
     0
  9
$PUCSORGTOP
 10
0.0
 20
0.0
 30
0.0
  9
$PUCSORGBOTTOM
 10
0.0
 20
0.0
 30
0.0
  9
$PUCSORGLEFT
 10
0.0
 20
0.0
 30
0.0
  9
$PUCSORGRIGHT
 10
0.0
 20
0.0
 30
0.0
  9
$PUCSORGFRONT
 10
0.0
 20
0.0
 30
0.0
  9
$PUCSORGBACK
 10
0.0
 20
0.0
 30
0.0
  9
$USERI1
 70
     0
  9
$USERI2
 70
     0
  9
$USERI3
 70
     0
  9
$USERI4
 70
     0
  9
$USERI5
 70
     0
  9
$USERR1
 40
0.0
  9
$USERR2
 40
0.0
  9
$USERR3
 40
0.0
  9
$USERR4
 40
0.0
  9
$USERR5
 40
0.0
  9
$WORLDVIEW
 70
     1
  9
$SHADEDGE
 70
     3
  9
$SHADEDIF
 70
    70
  9
$TILEMODE
 70
     1
  9
$MAXACTVP
 70
    64
  9
$PINSBASE
 10
0.0
 20
0.0
 30
0.0
  9
$PLIMCHECK
 70
     0
  9
$PEXTMIN
 10
1.000000000000000E+20
 20
1.000000000000000E+20
 30
1.000000000000000E+20
  9
$PEXTMAX
 10
-1.000000000000000E+20
 20
-1.000000000000000E+20
 30
-1.000000000000000E+20
  9
$PLIMMIN
 10
0.0
 20
0.0
  9
$PLIMMAX
 10
420.0
 20
297.0
  9
$UNITMODE
 70
     0
  9
$VISRETAIN
 70
     1
  9
$PLINEGEN
 70
     0
  9
$PSLTSCALE
 70
     1
  9
$TREEDEPTH
 70
  3020
  9
$CMLSTYLE
  2
Standard
  9
$CMLJUST
 70
     0
  9
$CMLSCALE
 40
20.0
  9
$PROXYGRAPHICS
 70
     1
  9
$MEASUREMENT
 70
     1
  9
$CELWEIGHT
370
    -1
  9
$ENDCAPS
280
     0
  9
$JOINSTYLE
280
     0
  9
$LWDISPLAY
290
     0
  9
$INSUNITS
 70
     4
  9
$HYPERLINKBASE
  1

  9
$STYLESHEET
  1

  9
$XEDIT
290
     1
  9
$CEPSNTYPE
380
     0
  9
$PSTYLEMODE
290
     1
  9
$FINGERPRINTGUID
  2
{E7468357-6252-4FFE-8F14-C6C26F483914}
  9
$VERSIONGUID
  2
{F1338405-3498-4402-B351-8EC05743BEFC}
  9
$EXTNAMES
290
     1
  9
$PSVPSCALE
 40
0.0
  9
$OLESTARTUP
290
     0
  0
ENDSEC
  0
SECTION
  2
CLASSES
  0
CLASS
  1
ACDBDICTIONARYWDFLT
  2
AcDbDictionaryWithDefault
  3
ObjectDBX Classes
 90
        0
280
     0
281
     0
  0
CLASS
  1
ACME_DOCUMENT
  2
AcMeDbDoc
  3
AcMeServices
 90
        0
280
     0
281
     0
  0
CLASS
  1
AMGSETTINGSOBJ
  2
AmgSettingsObj
  3
"AcadM|Product Description: AutoCAD Mechanical 2000|Company: Autodesk"
 90
        0
280
     0
281
     0
  0
CLASS
  1
ACMESCOPE
  2
AcMeScope
  3
AcMeServices
 90
        0
280
     0
281
     0
  0
CLASS
  1
ACMECOMMANDHISTORY
  2
AcMeCommandHistory
  3
AcMeServices
 90
        0
280
     0
281
     0
  0
CLASS
  1
ACIMSYSVARMAN
  2
AcImSysVarManager
  3
AcMeServices
 90
        0
280
     0
281
     0
  0
CLASS
  1
ACIMREALSYSVAR
  2
AcImRealSysVar
  3
AcMeServices
 90
        0
280
     0
281
     0
  0
CLASS
  1
ACIMINTSYSVAR
  2
AcImIntSysVar
  3
AcMeServices
 90
        0
280
     0
281
     0
  0
CLASS
  1
ACMEDRAWINGMAN
  2
AcMeDrawingMan
  3
AcMeServices
 90
        0
280
     0
281
     0
  0
CLASS
  1
ACMEVIEW
  2
AcMeView
  3
AcMeServices
 90
        0
280
     0
281
     0
  0
CLASS
  1
ACDBENTITYCACHE
  2
AcMeEntityCache
  3
AcMeServices
 90
        0
280
     0
281
     0
  0
CLASS
  1
GSMANAGER
  2
AcMeGSManager
  3
AcMeServices
 90
        0
280
     0
281
     0
  0
CLASS
  1
AMDTINTERNALREACTOR
  2
AmdtInternalReactor
  3
AcMeServices
 90
        0
280
     0
281
     0
  0
CLASS
  1
ACMESTATEMGR
  2
AcMeStateMgr
  3
AcMeServices
 90
        0
280
     0
281
     0
  0
CLASS
  1
ACGREFMASTER
  2
AcGrefMaster
  3
AcAttribServices
 90
        0
280
     0
281
     0
  0
CLASS
  1
ACME_DATABASE
  2
AcMeDbDatabase
  3
AcMeServices
 90
        0
280
     0
281
     0
  0
CLASS
  1
ACRFINSADJUSTERMGR
  2
AcRfInsAdjusterMgr
  3
AcMeServices
 90
        0
280
     0
281
     0
  0
CLASS
  1
ACGREFACADMASTER
  2
AcGrefacadMaster
  3
AcGrefServices
 90
        0
280
     0
281
     0
  0
CLASS
  1
AMIMASTER
  2
AmiMaster
  3
AmiServices
 90
        0
280
     0
281
     0
  0
CLASS
  1
ACMDATADICTIONARY
  2
AcmDataDictionary
  3
"AcmSymBB|Product Description: AutoCAD Mechanical 2004 DX|Company: Autodesk"
 90
        0
280
     0
281
     0
  0
CLASS
  1
ACMDATAENTRYBLOCK
  2
AcmDataEntryBlock
  3
"AcmSymBB|Product Description: AutoCAD Mechanical 2004 DX|Company: Autodesk"
 90
    32768
280
     0
281
     0
  0
CLASS
  1
ACIMSTRSYSVAR
  2
AcImStrSysVar
  3
AcMeServices
 90
        0
280
     0
281
     0
  0
CLASS
  1
ACMSTANDARDISO
  2
AcmStandardISO
  3
"Amdt_StdImp|Product Description: AutoCAD Mechanical 2004 DX|Company: Autodesk"
 90
        0
280
     0
281
     0
  0
CLASS
  1
AMGOBJPROPCFG
  2
AmgObjPropCfg
  3
"AmgLay|Product Description: AutoCAD Mechanical 2000|Company: Autodesk"
 90
        1
280
     0
281
     0
  0
CLASS
  1
AMDTEDGESTANDARDISO
  2
AmdtEdgeStdISO
  3
"Amdt_StdImp|Product Description: AutoCAD Mechanical 2004 DX|Company: Autodesk"
 90
        0
280
     0
281
     0
  0
CLASS
  1
ACMSURFSTANDARDISO
  2
AcmSurfTextStdISO
  3
"Amdt_StdImp|Product Description: AutoCAD Mechanical 2004 DX|Company: Autodesk"
 90
        0
280
     0
281
     0
  0
CLASS
  1
ACMFCFSTANDARDISO
  2
AcmFCFStdISO
  3
"Amdt_StdImp|Product Description: AutoCAD Mechanical 2004 DX|Company: Autodesk"
 90
        0
280
     0
281
     0
  0
CLASS
  1
ACMWELDSTANDARDISO
  2
AcmWeldingStdISO
  3
"Amdt_StdImp|Product Description: AutoCAD Mechanical 2004 DX|Company: Autodesk"
 90
        0
280
     0
281
     0
  0
CLASS
  1
ACMIDSTANDARDISO
  2
AcmIdStdISO
  3
"Amdt_StdImp|Product Description: AutoCAD Mechanical 2004 DX|Company: Autodesk"
 90
        0
280
     0
281
     0
  0
CLASS
  1
ACMDATUMSTANDARDISO
  2
AcmDatumStdISO
  3
"Amdt_StdImp|Product Description: AutoCAD Mechanical 2004 DX|Company: Autodesk"
 90
        0
280
     0
281
     0
  0
CLASS
  1
ACMBOMSTANDARDISO
  2
AcmBOMStdISO
  3
"Amdt_StdImp|Product Description: AutoCAD Mechanical 2004 DX|Company: Autodesk"
 90
        0
280
     0
281
     0
  0
CLASS
  1
ACMDETAILSTANDARDISO
  2
AmdtDetailSymStdISO
  3
"Amdt_StdImp|Product Description: AutoCAD Mechanical 2004 DX|Company: Autodesk"
 90
        0
280
     0
281
     0
  0
CLASS
  1
ACMSECTIONSTANDARDISO
  2
AmdtSectionSymStdISO
  3
"Amdt_StdImp|Product Description: AutoCAD Mechanical 2004 DX|Company: Autodesk"
 90
        0
280
     0
281
     0
  0
CLASS
  1
ACMCENTERLINESTANDARDISO
  2
AmdtCenterLineStdISO
  3
"Amdt_StdImp|Product Description: AutoCAD Mechanical 2004 DX|Company: Autodesk"
 90
        0
280
     0
281
     0
  0
CLASS
  1
ACMNOTESTANDARDISO
  2
AmdtNoteStdISO
  3
"Amdt_StdImp|Product Description: AutoCAD Mechanical 2004 DX|Company: Autodesk"
 90
        0
280
     0
281
     0
  0
CLASS
  1
ACAMGLAYSTD
  2
AcAmgLayStd
  3
"AcAmgLayStd|Product Description: AutoCAD Mechanical 2000|Company: Autodesk"
 90
        0
280
     0
281
     0
  0
CLASS
  1
ACAMGDIMSTD
  2
AcAmgDimStd
  3
"AcAmgDimStd|Product Description: AutoCAD Mechanical 2000|Company: Autodesk"
 90
        0
280
     0
281
     0
  0
CLASS
  1
ACAMGHOLECHARTSTDISO
  2
AcAmgHoleChartStdISO
  3
ACMSYMBB_MODULE_NAME
 90
        0
280
     0
281
     0
  0
CLASS
  1
ACAMGTITLESTD
  2
AcAmgTitleStd
  3
"TITLEAPP"
 90
        0
280
     0
281
     0
  0
CLASS
  1
LAYER_INDEX
  2
AcDbLayerIndex
  3
ObjectDBX Classes
 90
    32768
280
     0
281
     0
  0
CLASS
  1
IDBUFFER
  2
AcDbIdBuffer
  3
ObjectDBX Classes
 90
    32768
280
     0
281
     0
  0
CLASS
  1
DICTIONARYVAR
  2
AcDbDictionaryVar
  3
ObjectDBX Classes
 90
        0
280
     0
281
     0
  0
CLASS
  1
AM_DRAWING_MGR
  2
AcDmDwgMgr
  3
AcMechDwgViewMgmt
 90
        0
280
     0
281
     0
  0
CLASS
  1
AM_DWG_DOCUMENT
  2
AcDmDwgDocument
  3
AcMechDwgViewMgmt
 90
        0
280
     0
281
     0
  0
CLASS
  1
AM_DWG_SHEET
  2
AcDmSheet
  3
AcMechDwgViewMgmt
 90
        0
280
     0
281
     0
  0
CLASS
  1
AM_VIEWDIMPARMAP
  2
AcDmViewDimParMap
  3
AcMechDwgViewMgmt
 90
        0
280
     0
281
     0
  0
CLASS
  1
AM_DWGMGR_NAME
  2
AcDmDwgMgrName
  3
AcMechDwgViewMgmt
 90
        0
280
     0
281
     0
  0
CLASS
  1
AMDTMENUSTATEMGR
  2
AmdtMenuStateMgr
  3
McadcomServices
 90
        0
280
     0
281
     0
  0
CLASS
  1
AMDTMCOMMENUSTATE
  2
AmdtMcomMenuState
  3
McadcomServices
 90
        0
280
     0
281
     0
  0
CLASS
  1
MAPIAMMOUDLE
  2
MApiAmModule
  3
MApiAmServices
 90
        0
280
     0
281
     0
  0
CLASS
  1
AMDTADMENUSTATE
  2
AmdtAdMenuState
  3
DesignerServices
 90
        0
280
     0
281
     0
  0
CLASS
  1
ADAPPL
  2
AcAdAppl
  3
DesignerServices
 90
        0
280
     0
281
     0
  0
CLASS
  1
DEPMGR
  2
AcAdDepMgr
  3
DesignerServices
 90
        0
280
     0
281
     0
  0
CLASS
  1
PARAMMGR
  2
AcAdParamMgr
  3
DesignerServices
 90
        0
280
     0
281
     0
  0
CLASS
  1
PARAMSCOPE
  2
AcAdParamScope
  3
DesignerServices
 90
        0
280
     0
281
     0
  0
CLASS
  1
NAMEDAPPL
  2
AcAdNamedAppl
  3
DesignerServices
 90
        0
280
     0
281
     0
  0
CLASS
  1
AMDTDMMENUSTATE
  2
AmdtDmMenuState
  3
AcMechDwgViewMgmt
 90
        0
280
     0
281
     0
  0
CLASS
  1
AMDTAMMENUSTATE
  2
AmdtAmMenuState
  3
DesignerAssemblies
 90
        0
280
     0
281
     0
  0
CLASS
  1
ACAMPROJECT
  2
AcAmProject
  3
DesignerAssemblies
 90
        0
280
     0
281
     0
  0
CLASS
  1
ACAMGRCOMPDEF
  2
AcAmGrCompDef
  3
DesignerAssemblies
 90
        0
280
     0
281
     0
  0
CLASS
  1
ACCMCONTEXT
  2
AcCmContext
  3
DesignerAssemblies
 90
        0
280
     0
281
     0
  0
CLASS
  1
ACAMCOMPDEF
  2
AcAmCompDef
  3
DesignerAssemblies
 90
        0
280
     0
281
     0
  0
CLASS
  1
ACAMCOMPDEFMGR
  2
AcAmCompDefMgr
  3
DesignerAssemblies
 90
        0
280
     0
281
     0
  0
CLASS
  1
AMCONTEXTMGR
  2
AcAmContextMgr
  3
DesignerAssemblies
 90
        0
280
     0
281
     0
  0
CLASS
  1
ACAMCONTEXTMODELER
  2
AcAmContextModeler
  3
DesignerAssemblies
 90
        0
280
     0
281
     0
  0
CLASS
  1
ACMTHREADLINESTANDARDISO
  2
AmdtThreadLineStdISO
  3
"Amdt_StdImp|Product Description: AutoCAD Mechanical 2004 DX|Company: Autodesk"
 90
        0
280
     0
281
     0
  0
CLASS
  1
CATALOGSTATE
  2
AcAmCatalogState
  3
DesignerAssemblies
 90
        0
280
     0
281
     0
  0
CLASS
  1
ACAMGRCOMPDEFSET
  2
AcAmGrCompDefSet
  3
DesignerAssemblies
 90
        0
280
     0
281
     0
  0
CLASS
  1
AMDTBROWSERDBTAB
  2
AmdtBrowserDbTab
  3
McadcomServices
 90
        0
280
     0
281
     0
  0
CLASS
  1
CBROWSERAPPOBJECT
  2
CBrowserAppObject
  3
McadcomServices
 90
        0
280
     0
281
     0
  0
CLASS
  1
DM_PLACEHOLDER
  2
AcDmSelsetPlaceholder
  3
AcMechDwgViewMgmt
 90
        0
280
     0
281
     0
  0
CLASS
  1
TABLESTYLE
  2
AcDbTableStyle
  3
ObjectDBX Classes
 90
     2047
280
     0
281
     0
  0
CLASS
  1
VAACXREFPANELOBJECT
  2
VaAcXREFPanelObject
  3
VAAC_ADDIN
 90
    32768
280
     0
281
     0
  0
CLASS
  1
VAACIMAGEINVENTORY
  2
VaAcImageInventory
  3
VAAC_ADDIN
 90
    32768
280
     0
281
     0
  0
CLASS
  1
AMDTNOTETEMPLATEDB
  2
AmdtNoteTemplateDB
  3
AMDT_STDIMP_MODULE_NAME
 90
        0
280
     0
281
     0
  0
CLASS
  1
ACMBOM
  2
AcmBom
  3
"AcmSymBB|Product Description: AutoCAD Mechanical 2004 DX|Company: Autodesk"
 90
    32768
280
     0
281
     0
  0
CLASS
  1
AMDTFORMULAUPDATEDISPATCHER
  2
AmdtFormulaUpdateDispatcher
  3
AcMeServices
 90
    32768
280
     0
281
     0
  0
CLASS
  1
ACMPARTLIST
  2
AcmPartList
  3
"AcmSymBB|Product Description: AutoCAD Mechanical 2004 DX|Company: Autodesk"
 90
    33791
280
     0
281
     1
  0
CLASS
  1
ACAMGFILTERDAT
  2
AcAmgFilterDat
  3
"AcadM|Product Description: AutoCAD Mechanical 2000|Company: Autodesk"
 90
    32768
280
     0
281
     0
  0
CLASS
  1
ACMSTANDARDJIS
  2
AcmStandardJIS
  3
"Amdt_StdImp|Product Description: AutoCAD Mechanical 2004 DX|Company: Autodesk"
 90
        0
280
     0
281
     0
  0
CLASS
  1
ACMSURFSTANDARDJIS
  2
AcmSurfTextStdJIS
  3
"Amdt_StdImp|Product Description: AutoCAD Mechanical 2004 DX|Company: Autodesk"
 90
        0
280
     0
281
     0
  0
CLASS
  1
ACMFCFSTANDARDJIS98
  2
AcmFCFStdJIS98
  3
"Amdt_StdImp|Product Description: AutoCAD Mechanical 2004 DX|Company: Autodesk"
 90
        0
280
     0
281
     0
  0
CLASS
  1
ACMWELDSTANDARDJIS
  2
AcmWeldingStdJIS
  3
"Amdt_StdImp|Product Description: AutoCAD Mechanical 2004 DX|Company: Autodesk"
 90
        0
280
     0
281
     0
  0
CLASS
  1
ACMIDSTANDARDJIS
  2
AcmIdStdJIS
  3
"Amdt_StdImp|Product Description: AutoCAD Mechanical 2004 DX|Company: Autodesk"
 90
        0
280
     0
281
     0
  0
CLASS
  1
ACMDATUMSTANDARDJIS
  2
AcmDatumStdJIS
  3
"Amdt_StdImp|Product Description: AutoCAD Mechanical 2004 DX|Company: Autodesk"
 90
        0
280
     0
281
     0
  0
CLASS
  1
ACMBOMSTANDARDJIS
  2
AcmBOMStdJIS
  3
"Amdt_StdImp|Product Description: AutoCAD Mechanical 2004 DX|Company: Autodesk"
 90
        0
280
     0
281
     0
  0
CLASS
  1
ACMDETAILSTANDARDJIS
  2
AmdtDetailSymStdJIS
  3
"Amdt_StdImp|Product Description: AutoCAD Mechanical 2004 DX|Company: Autodesk"
 90
        0
280
     0
281
     0
  0
CLASS
  1
ACMSECTIONSTANDARDJIS
  2
AmdtSectionSymStdJIS
  3
"Amdt_StdImp|Product Description: AutoCAD Mechanical 2004 DX|Company: Autodesk"
 90
        0
280
     0
281
     0
  0
CLASS
  1
ACMCENTERLINESTANDARDJIS
  2
AmdtCenterLineStdJIS
  3
"Amdt_StdImp|Product Description: AutoCAD Mechanical 2004 DX|Company: Autodesk"
 90
        0
280
     0
281
     0
  0
CLASS
  1
ACMTHREADLINESTANDARDJIS
  2
AmdtThreadLineStdJIS
  3
"Amdt_StdImp|Product Description: AutoCAD Mechanical 2004 DX|Company: Autodesk"
 90
        0
280
     0
281
     0
  0
CLASS
  1
ACMNOTESTANDARDJIS
  2
AmdtNoteStdJIS
  3
"Amdt_StdImp|Product Description: AutoCAD Mechanical 2004 DX|Company: Autodesk"
 90
        0
280
     0
281
     0
  0
CLASS
  1
ACAMGHOLECHARTSTDJIS
  2
AcAmgHoleChartStdJIS
  3
ACMSYMBB_MODULE_NAME
 90
        0
280
     0
281
     0
  0
CLASS
  1
DIMASSOC
  2
AcDbDimAssoc
  3
"AcDbDimAssoc|Product Desc:     AcDim ARX App For Dimension|Company:          Autodesk, Inc.|WEB Address:      www.autodesk.com"
 90
        0
280
     0
281
     0
  0
CLASS
  1
SORTENTSTABLE
  2
AcDbSortentsTable
  3
ObjectDBX Classes
 90
    32768
280
     0
281
     0
  0
CLASS
  1
ACRFATTGENMGR
  2
AcRfAttGeneralMgr
  3
AcAttribServices
 90
    32768
280
     0
281
     0
  0
CLASS
  1
ACDBPLACEHOLDER
  2
AcDbPlaceHolder
  3
ObjectDBX Classes
 90
        0
280
     0
281
     0
  0
CLASS
  1
LAYOUT
  2
AcDbLayout
  3
ObjectDBX Classes
 90
        0
280
     0
281
     0
  0
ENDSEC
  0
SECTION
  2
TABLES
  0
TABLE
  2
VPORT
  5
8
330
0
100
AcDbSymbolTable
 70
     3
  0
VPORT
  5
B13
330
8
100
AcDbSymbolTableRecord
100
AcDbViewportTableRecord
  2
*Active
 70
     0
 10
0.0
 20
0.0
 11
1.0
 21
1.0
 12
-19.79391113796927
 22
-0.0961915034956178
 13
0.0
 23
0.0
 14
2.5
 24
2.5
 15
10.0
 25
10.0
 16
0.0
 26
0.0
 36
1.0
 17
0.0
 27
0.0
 37
0.0
 40
184.6049862950037
 41
1.514762516046213
 42
50.0
 43
0.0
 44
0.0
 50
0.0
 51
0.0
 71
     0
 72
 10000
 73
     1
 74
     3
 75
     0
 76
     0
 77
     0
 78
     0
281
     0
 65
     1
110
0.0
120
0.0
130
0.0
111
1.0
121
0.0
131
0.0
112
0.0
122
1.0
132
0.0
 79
     0
146
0.0
  0
ENDTAB
  0
TABLE
  2
LTYPE
  5
5
330
0
100
AcDbSymbolTable
 70
    17
  0
LTYPE
  5
14
330
5
100
AcDbSymbolTableRecord
100
AcDbLinetypeTableRecord
  2
ByBlock
 70
     0
  3

 72
    65
 73
     0
 40
0.0
  0
LTYPE
  5
15
330
5
100
AcDbSymbolTableRecord
100
AcDbLinetypeTableRecord
  2
ByLayer
 70
     0
  3

 72
    65
 73
     0
 40
0.0
  0
LTYPE
  5
16
330
5
100
AcDbSymbolTableRecord
100
AcDbLinetypeTableRecord
  2
Continuous
 70
     0
  3
Solid line
 72
    65
 73
     0
 40
0.0
  0
LTYPE
  5
64
330
5
100
AcDbSymbolTableRecord
100
AcDbLinetypeTableRecord
  2
AM_ISO02W050
 70
     0
  3
__ __ __ __ __ __ __ __ __ __ __ __ __ __ __
 72
    65
 73
     2
 40
7.5
 49
6.0
 74
     0
 49
-1.5
 74
     0
  0
LTYPE
  5
65
330
5
100
AcDbSymbolTableRecord
100
AcDbLinetypeTableRecord
  2
AM_ISO08W050
 70
     0
  3
____ . ____ . ____ . ____ . ____ . ____ . ____
 72
    65
 73
     4
 40
18.0
 49
12.0
 74
     0
 49
-1.5
 74
     0
 49
3.0
 74
     0
 49
-1.5
 74
     0
  0
LTYPE
  5
66
330
5
100
AcDbSymbolTableRecord
100
AcDbLinetypeTableRecord
  2
AM_ISO09W050
 70
     0
  3
_____ . . _____ . . _____ . . ____ .. ____
 72
    65
 73
     6
 40
22.5
 49
12.0
 74
     0
 49
-1.5
 74
     0
 49
3.0
 74
     0
 49
-1.5
 74
     0
 49
3.0
 74
     0
 49
-1.5
 74
     0
  0
LTYPE
  5
67
330
5
100
AcDbSymbolTableRecord
100
AcDbLinetypeTableRecord
  2
Amconstr
 70
     0
  3
_______________________
 72
    65
 73
     2
 40
9999.0
 49
9999.0
 74
     0
 49
0.0
 74
     0
  0
LTYPE
  5
68
330
5
100
AcDbSymbolTableRecord
100
AcDbLinetypeTableRecord
  2
AM_ISO08W050x2
 70
     0
  3
__ . __ . __ . __ . __ . __
 72
    65
 73
     4
 40
9.0
 49
6.0
 74
     0
 49
-0.75
 74
     0
 49
1.5
 74
     0
 49
-0.75
 74
     0
  0
LTYPE
  5
69
330
5
100
AcDbSymbolTableRecord
100
AcDbLinetypeTableRecord
  2
AM_ISO02W050x2
 70
     0
  3
 _ _ _ _ _ _ _ _ _ _ _ _
 72
    65
 73
     2
 40
3.75
 49
3.0
 74
     0
 49
-0.75
 74
     0
  0
LTYPE
  5
6C
330
5
100
AcDbSymbolTableRecord
100
AcDbLinetypeTableRecord
  2
Amzigzag
 70
     0
  3
/\/-/\/-/\/-/\/-/\/-/\/
 72
    65
 73
     2
 40
11.0001
 49
0.0001
 74
     4
 75
   135
340
6B
 46
0.04
 50
0.0
 44
0.0
 45
0.0
 49
-11.0
 74
     0
  0
LTYPE
  5
7A
330
5
100
AcDbSymbolTableRecord
100
AcDbLinetypeTableRecord
  2
ACISOWELD
 70
     0
  3
_ _ _ _ _
 72
    65
 73
     2
 40
2.0
 49
2.0
 74
     0
 49
-1.0
 74
     0
  0
LTYPE
  5
7B
330
5
100
AcDbSymbolTableRecord
100
AcDbLinetypeTableRecord
  2
ACISOTGB
 70
     0
  3
__ . . __ . .
 72
    65
 73
     6
 40
9.0
 49
4.0
 74
     0
 49
-1.0
 74
     0
 49
1.0
 74
     0
 49
-1.0
 74
     0
 49
1.0
 74
     0
 49
-1.0
 74
     0
  0
LTYPE
  5
7C
330
5
100
AcDbSymbolTableRecord
100
AcDbLinetypeTableRecord
  2
ACISOTGL
 70
     0
  3
_ _ _ _ _
 72
    65
 73
     2
 40
3.0
 49
2.0
 74
     0
 49
-1.0
 74
     0
  0
LTYPE
  5
7E
330
5
100
AcDbSymbolTableRecord
100
AcDbLinetypeTableRecord
  2
CENTER
 70
     0
  3
__ . __
 72
    65
 73
     4
 40
7.0
 49
4.0
 74
     0
 49
-1.0
 74
     0
 49
1.0
 74
     0
 49
-1.0
 74
     0
  0
LTYPE
  5
D8
330
5
100
AcDbSymbolTableRecord
100
AcDbLinetypeTableRecord
  2
HIDDEN
 70
     0
  3
Hidden __ __ __ __ __ __ __ __ __ __ __ __ __ _
 72
    65
 73
     2
 40
9.524999999999996
 49
6.349999999999998
 74
     0
 49
-3.174999999999998
 74
     0
  0
LTYPE
  5
D9
330
5
100
AcDbSymbolTableRecord
100
AcDbLinetypeTableRecord
  2
PHANTOM2
 70
     0
  3
Phantom (.5x) ___ _ _ ___ _ _ ___ _ _ ___ _ _
 72
    65
 73
     6
 40
31.75
 49
15.875
 74
     0
 49
-3.174999999999998
 74
     0
 49
3.174999999999998
 74
     0
 49
-3.174999999999998
 74
     0
 49
3.174999999999998
 74
     0
 49
-3.174999999999998
 74
     0
  0
LTYPE
  5
20C
330
5
100
AcDbSymbolTableRecord
100
AcDbLinetypeTableRecord
  2
ACJISWELD
 70
     0
  3
_ _ _ _ _
 72
    65
 73
     2
 40
2.0
 49
2.0
 74
     0
 49
-1.0
 74
     0
  0
LTYPE
  5
20D
330
5
100
AcDbSymbolTableRecord
100
AcDbLinetypeTableRecord
  2
ACJISTGB
 70
     0
  3
__ . . __ . .
 72
    65
 73
     6
 40
9.0
 49
4.0
 74
     0
 49
-1.0
 74
     0
 49
1.0
 74
     0
 49
-1.0
 74
     0
 49
1.0
 74
     0
 49
-1.0
 74
     0
  0
LTYPE
  5
20E
330
5
100
AcDbSymbolTableRecord
100
AcDbLinetypeTableRecord
  2
ACJISTGL
 70
     0
  3
_ _ _ _ _
 72
    65
 73
     2
 40
3.0
 49
2.0
 74
     0
 49
-1.0
 74
     0
  0
ENDTAB
  0
TABLE
  2
LAYER
  5
2
102
{ACAD_XDICTIONARY
360
34B
102
}
330
0
100
AcDbSymbolTable
 70
     7
  0
LAYER
  5
10
330
2
100
AcDbSymbolTableRecord
100
AcDbLayerTableRecord
  2
0
 70
     0
 62
     7
  6
Continuous
370
    -3
390
F
  0
LAYER
  5
34A
330
2
100
AcDbSymbolTableRecord
100
AcDbLayerTableRecord
  2
AM_0
 70
     0
 62
     7
  6
Continuous
370
    30
390
F
  0
LAYER
  5
3AF
330
2
100
AcDbSymbolTableRecord
100
AcDbLayerTableRecord
  2
AM_4
 70
     0
 62
     3
  6
Continuous
370
    13
390
F
  0
LAYER
  5
3B0
330
2
100
AcDbSymbolTableRecord
100
AcDbLayerTableRecord
  2
AM_5
 70
     0
 62
     3
  6
Continuous
370
    13
390
F
  0
LAYER
  5
3B1
330
2
100
AcDbSymbolTableRecord
100
AcDbLayerTableRecord
  2
AM_7
 70
     0
 62
     4
  6
AM_ISO08W050
370
    13
390
F
  0
LAYER
  5
456
330
2
100
AcDbSymbolTableRecord
100
AcDbLayerTableRecord
  2
1
 70
     0
 62
     7
  6
Continuous
370
    -3
390
F
  0
LAYER
  5
457
330
2
100
AcDbSymbolTableRecord
100
AcDbLayerTableRecord
  2
Defpoints
 70
     0
 62
     7
  6
Continuous
290
     0
370
    -3
390
F
  0
ENDTAB
  0
TABLE
  2
STYLE
  5
3
330
0
100
AcDbSymbolTable
 70
     6
  0
STYLE
  5
11
330
3
100
AcDbSymbolTableRecord
100
AcDbTextStyleTableRecord
  2
STANDARD
 70
     0
 40
0.0
 41
1.0
 50
0.0
 71
     0
 42
3.799999999999998
  3
ISOCP.SHX
  4
EXTFONT.SHX
  0
STYLE
  5
6B
330
3
100
AcDbSymbolTableRecord
100
AcDbTextStyleTableRecord
  2

 70
     1
 40
0.0
 41
1.0
 50
0.0
 71
     0
 42
2.5
  3
ltypeshp.shx
  4

  0
STYLE
  5
6D
330
3
100
AcDbSymbolTableRecord
100
AcDbTextStyleTableRecord
  2
ACISOTS
 70
     0
 40
3.799999999999999
 41
1.0
 50
0.0
 71
     0
 42
3.799999999999999
  3
isocp.shx
  4
extfont.shx
  0
STYLE
  5
79
330
3
100
AcDbSymbolTableRecord
100
AcDbTextStyleTableRecord
  2
ACISOGDT
 70
     0
 40
0.0
 41
1.0
 50
0.0
 71
     0
 42
2.5
  3
amgdt.shx
  4
extfont.shx
  0
STYLE
  5
1FF
330
3
100
AcDbSymbolTableRecord
100
AcDbTextStyleTableRecord
  2
ACJISTS
 70
     0
 40
1.0
 41
1.0
 50
0.0
 71
     0
 42
1.0
  3
isocp.shx
  4
extfont.shx
  0
STYLE
  5
20B
330
3
100
AcDbSymbolTableRecord
100
AcDbTextStyleTableRecord
  2
ACJISGDT
 70
     0
 40
0.0
 41
1.0
 50
0.0
 71
     0
 42
1.0
  3
amgdt.shx
  4

  0
ENDTAB
  0
TABLE
  2
VIEW
  5
6
330
0
100
AcDbSymbolTable
 70
     0
  0
ENDTAB
  0
TABLE
  2
UCS
  5
7
330
0
100
AcDbSymbolTable
 70
     0
  0
ENDTAB
  0
TABLE
  2
APPID
  5
9
330
0
100
AcDbSymbolTable
 70
    17
  0
APPID
  5
12
330
9
100
AcDbSymbolTableRecord
100
AcDbRegAppTableRecord
  2
ACAD
 70
     0
  0
APPID
  5
46
330
9
100
AcDbSymbolTableRecord
100
AcDbRegAppTableRecord
  2
MCAD_NO_VIS
 70
     0
  0
APPID
  5
47
330
9
100
AcDbSymbolTableRecord
100
AcDbRegAppTableRecord
  2
ACAD_TEMP_GRAPHIC
 70
     0
  0
APPID
  5
58
330
9
100
AcDbSymbolTableRecord
100
AcDbRegAppTableRecord
  2
ACATTRIBSERVICES
 70
     0
  0
APPID
  5
EE
330
9
100
AcDbSymbolTableRecord
100
AcDbRegAppTableRecord
  2
AD_DRAW
 70
     0
  0
APPID
  5
10C
330
9
100
AcDbSymbolTableRecord
100
AcDbRegAppTableRecord
  2
DESIGNERASSEMBLIES
 70
     0
  0
APPID
  5
111
330
9
100
AcDbSymbolTableRecord
100
AcDbRegAppTableRecord
  2
ACADM_DIM_EDIT
 70
     0
  0
APPID
  5
112
330
9
100
AcDbSymbolTableRecord
100
AcDbRegAppTableRecord
  2
AMDT_DM_ADJ
 70
     0
  0
APPID
  5
243
330
9
100
AcDbSymbolTableRecord
100
AcDbRegAppTableRecord
  2
ACAD_DSTYLE_DIMTEXT_FILL
 70
     0
  0
APPID
  5
3B4
330
9
100
AcDbSymbolTableRecord
100
AcDbRegAppTableRecord
  2
ACAD_PSEXT
 70
     0
  0
APPID
  5
45A
330
9
100
AcDbSymbolTableRecord
100
AcDbRegAppTableRecord
  2
GENIUS_GENODEF_13
 70
     0
  0
APPID
  5
45B
330
9
100
AcDbSymbolTableRecord
100
AcDbRegAppTableRecord
  2
GENIUS_GENOBJ-N-CEN_13
 70
     0
  0
APPID
  5
45C
330
9
100
AcDbSymbolTableRecord
100
AcDbRegAppTableRecord
  2
GENIUS_GENCEN_19
 70
     0
  0
APPID
  5
45D
330
9
100
AcDbSymbolTableRecord
100
AcDbRegAppTableRecord
  2
ACAD_DIMASSOC_DIMLFAC
 70
     0
  0
APPID
  5
45E
330
9
100
AcDbSymbolTableRecord
100
AcDbRegAppTableRecord
  2
ACAD_DIMASSOC_CALC_DIMLFAC
 70
     0
  0
APPID
  5
45F
330
9
100
AcDbSymbolTableRecord
100
AcDbRegAppTableRecord
  2
ACAD_DIMASSOC_OVERRIDDEN_DIMLFAC
 70
     0
  0
APPID
  5
460
330
9
100
AcDbSymbolTableRecord
100
AcDbRegAppTableRecord
  2
GENIUS_GENOBJ-N-FIL_13
 70
     0
  0
ENDTAB
  0
TABLE
  2
DIMSTYLE
  5
A
330
0
100
AcDbSymbolTable
 70
    16
100
AcDbDimStyleTable
 71
     2
340
216
340
81
  0
DIMSTYLE
105
81
330
A
100
AcDbSymbolTableRecord
100
AcDbDimStyleTableRecord
  2
AM_ISO
 70
     0
  4
"
 41
2.5
 42
1.0
 43
10.0
 44
1.0
 47
0.1
 48
0.1
 73
     0
 74
     0
 77
     1
 78
     8
 79
     2
140
3.5
141
0.0
143
0.0393701
146
0.71
147
1.5
172
     1
176
   256
177
   256
178
     2
271
     2
272
     3
274
     4
283
     0
284
     8
340
11
371
    -1
372
    -1
  0
DIMSTYLE
105
82
330
A
100
AcDbSymbolTableRecord
100
AcDbDimStyleTableRecord
  2
AM_ISO$3
 70
     0
  4
"
 41
2.5
 42
1.0
 43
10.0
 44
1.0
 47
0.1
 48
0.1
 73
     0
 77
     1
 78
     8
 79
     2
140
3.5
141
0.0
143
0.0393701
146
0.71
147
1.5
176
   256
177
   256
178
     2
271
     2
272
     3
274
     4
283
     0
284
     8
288
     1
289
     0
340
11
371
    -1
372
    -1
  0
DIMSTYLE
105
83
330
A
100
AcDbSymbolTableRecord
100
AcDbDimStyleTableRecord
  2
AM_ISO$4
 70
     0
  4
"
 41
2.5
 42
1.0
 43
10.0
 44
1.0
 47
0.1
 48
0.1
 73
     0
 77
     1
 78
     8
 79
     2
140
3.5
141
0.0
143
0.0393701
146
0.71
147
1.5
176
   256
177
   256
178
     2
271
     2
272
     3
274
     4
283
     0
284
     8
288
     1
289
     0
340
11
371
    -1
372
    -1
  0
DIMSTYLE
105
84
330
A
100
AcDbSymbolTableRecord
100
AcDbDimStyleTableRecord
  2
AM_ISO$6
 70
     0
  4
"
 41
2.5
 42
1.0
 43
10.0
 44
1.0
 47
0.1
 48
0.1
 73
     0
 74
     0
 78
     8
 79
     2
140
3.5
141
0.0
143
0.0393701
146
0.71
147
1.5
172
     1
176
   256
177
   256
178
     2
271
     2
272
     3
274
     4
283
     0
284
     8
340
11
371
    -1
372
    -1
  0
DIMSTYLE
105
85
330
A
100
AcDbSymbolTableRecord
100
AcDbDimStyleTableRecord
  2
AM_ISO$7
 70
     0
  4
"
 41
2.5
 42
1.0
 43
10.0
 44
1.0
 47
0.1
 48
0.1
 73
     0
 74
     0
 77
     1
 78
     8
 79
     2
140
5.0
141
0.0
143
0.0393701
146
0.71
147
1.5
172
     1
176
   256
177
   256
178
     2
271
     2
272
     3
274
     4
283
     0
284
     8
340
11
371
    -1
372
    -1
  0
DIMSTYLE
105
86
330
A
100
AcDbSymbolTableRecord
100
AcDbDimStyleTableRecord
  2
AM_ISO$SF
 70
     0
  4
"
 41
2.5
 42
1.0
 43
10.0
 44
1.0
 47
0.1
 48
0.1
 73
     0
 74
     0
 75
     1
 76
     1
 77
     1
 78
     8
 79
     2
140
3.5
141
0.0
143
0.0393701
146
0.71
147
1.5
172
     1
176
   256
177
   256
178
     2
271
     2
272
     3
274
     4
283
     0
284
     8
340
11
371
    -1
372
    -1
  0
DIMSTYLE
105
8B
330
A
100
AcDbSymbolTableRecord
100
AcDbDimStyleTableRecord
  2
AM_ISO$SH
 70
     0
  4
"
 41
2.5
 42
1.0
 43
10.0
 44
1.0
 47
0.1
 48
0.1
 73
     0
 74
     0
 75
     1
 76
     1
 77
     1
 78
     8
 79
     2
140
3.5
141
0.0
143
0.0393701
144
2.0
146
0.71
147
1.5
172
     1
173
     1
176
   256
177
   256
178
     2
271
     2
272
     3
274
     4
283
     0
284
     8
340
11
343
87
371
    -1
372
    -1
  0
DIMSTYLE
105
216
330
A
100
AcDbSymbolTableRecord
100
AcDbDimStyleTableRecord
  2
AM_JIS
 70
     0
  4
"
 41
2.5
 42
1.0
 43
10.0
 44
1.0
 47
0.1
 48
0.1000000001
 73
     0
 74
     0
 77
     3
 78
     8
 79
     2
140
3.799999999999999
141
0.0
143
0.0393701
146
0.71
147
1.5
172
     1
176
   256
177
   256
178
     2
271
     2
272
     2
275
     1
283
     0
284
     8
340
11
341
217
342
217
371
    -1
372
    -1
  0
DIMSTYLE
105
21D
330
A
100
AcDbSymbolTableRecord
100
AcDbDimStyleTableRecord
  2
AM_JIS$3
 70
     0
  4
"
 41
2.5
 42
1.0
 43
10.0
 44
1.0
 47
0.1
 48
0.1000000001
 73
     0
 77
     3
 78
     8
 79
     2
140
3.799999999999999
141
0.0
143
0.0393701
146
0.71
147
1.5
176
   256
177
   256
178
     2
271
     2
272
     2
275
     1
283
     0
284
     8
288
     1
289
     0
340
11
341
217
342
217
371
    -1
372
    -1
  0
DIMSTYLE
105
21E
330
A
100
AcDbSymbolTableRecord
100
AcDbDimStyleTableRecord
  2
AM_JIS$4
 70
     0
  4
"
 41
2.5
 42
1.0
 43
10.0
 44
1.0
 47
0.1
 48
0.1000000001
 73
     0
 77
     3
 78
     8
 79
     2
140
3.799999999999999
141
0.0
143
0.0393701
146
0.71
147
1.5
176
   256
177
   256
178
     2
271
     2
272
     2
275
     1
283
     0
284
     8
288
     1
289
     0
340
11
341
217
342
217
371
    -1
372
    -1
  0
DIMSTYLE
105
21F
330
A
100
AcDbSymbolTableRecord
100
AcDbDimStyleTableRecord
  2
AM_JIS$6
 70
     0
  4
"
 41
2.5
 42
1.0
 43
10.0
 44
1.0
 47
0.1
 48
0.1000000001
 73
     0
 74
     0
 78
     8
 79
     2
140
3.799999999999999
141
0.0
143
0.0393701
146
0.71
147
1.5
172
     1
176
   256
177
   256
178
     2
271
     2
272
     2
275
     1
283
     0
284
     8
340
11
341
217
342
217
371
    -1
372
    -1
  0
DIMSTYLE
105
220
330
A
100
AcDbSymbolTableRecord
100
AcDbDimStyleTableRecord
  2
AM_JIS$7
 70
     0
  4
"
 41
2.5
 42
1.0
 43
10.0
 44
1.0
 47
0.1
 48
0.1000000001
 73
     0
 74
     0
 77
     3
 78
     8
 79
     2
140
5.0
141
0.0
143
0.0393701
146
0.71
147
1.5
172
     1
176
   256
177
   256
178
     2
271
     2
272
     2
275
     1
283
     0
284
     8
340
11
341
217
342
217
371
    -1
372
    -1
  0
DIMSTYLE
105
221
330
A
100
AcDbSymbolTableRecord
100
AcDbDimStyleTableRecord
  2
AM_JIS$SF
 70
     0
  4
"
 41
2.5
 42
1.0
 43
10.0
 44
1.0
 47
0.1
 48
0.1
 73
     0
 74
     0
 75
     1
 76
     1
 77
     3
 78
     8
 79
     2
140
3.5
141
0.0
143
0.0393701
146
0.71
147
1.5
172
     1
176
   256
177
   256
178
     2
271
     2
272
     3
274
     4
283
     0
284
     8
340
11
341
217
342
217
343
217
344
217
371
    -1
372
    -1
  0
DIMSTYLE
105
222
330
A
100
AcDbSymbolTableRecord
100
AcDbDimStyleTableRecord
  2
AM_JIS$SH
 70
     0
  4
"
 41
2.5
 42
1.0
 43
10.0
 44
1.0
 47
0.1
 48
0.1
 73
     0
 74
     0
 75
     1
 76
     1
 77
     3
 78
     8
 79
     2
140
3.5
141
0.0
143
0.0393701
144
2.0
146
0.71
147
1.5
172
     1
173
     1
176
   256
177
   256
178
     2
271
     2
272
     3
274
     4
283
     0
284
     8
340
11
341
217
342
217
343
87
344
217
371
    -1
372
    -1
  0
DIMSTYLE
105
458
102
{ACAD_REACTORS
330
7B1
330
7B2
330
7B5
330
7B8
330
7BA
330
7BB
330
936
330
937
330
938
102
}
330
A
100
AcDbSymbolTableRecord
100
AcDbDimStyleTableRecord
  2
AM_JIS$0
 70
     0
  4
"
 41
2.5
 42
0.0
 43
10.0
 44
1.0
 48
0.000000001
 73
     0
 74
     0
 77
     3
 78
     1
 79
     2
140
3.799999999999998
141
0.0
143
0.0393701
146
0.71
147
1.5
172
     1
176
   256
177
   256
178
     2
179
     1
271
     3
272
     3
275
     1
283
     0
284
     8
340
11
341
217
342
217
371
    -1
372
    -1
  0
DIMSTYLE
105
459
102
{ACAD_REACTORS
330
960
102
}
330
A
100
AcDbSymbolTableRecord
100
AcDbDimStyleTableRecord
  2
AM_JIS$2
 70
     0
  4
"
 41
2.5
 42
1.0
 43
10.0
 44
1.0
 47
0.1
 48
0.1
 73
     0
 74
     0
 77
     3
 78
     8
 79
     2
140
3.5
141
0.0
143
0.0393701
146
0.71
147
1.5
172
     1
176
   256
177
   256
178
     2
271
     2
272
     3
274
     4
283
     0
284
     8
340
11
341
217
342
217
343
217
344
217
371
    -1
372
    -1
  0
ENDTAB
  0
TABLE
  2
BLOCK_RECORD
  5
1
330
0
100
AcDbSymbolTable
 70
    15
  0
BLOCK_RECORD
  5
1F
102
{ACAD_XDICTIONARY
360
8F
102
}
330
1
100
AcDbSymbolTableRecord
100
AcDbBlockTableRecord
  2
*Model_Space
340
22
  0
BLOCK_RECORD
  5
1B
330
1
100
AcDbSymbolTableRecord
100
AcDbBlockTableRecord
  2
*Paper_Space
340
1E
  0
BLOCK_RECORD
  5
23
330
1
100
AcDbSymbolTableRecord
100
AcDbBlockTableRecord
  2
*Paper_Space0
340
26
  0
BLOCK_RECORD
  5
87
330
1
100
AcDbSymbolTableRecord
100
AcDbBlockTableRecord
  2
GENAXEH
340
0
  0
BLOCK_RECORD
  5
217
330
1
100
AcDbSymbolTableRecord
100
AcDbBlockTableRecord
  2
_Open30
340
0
  0
BLOCK_RECORD
  5
3DD
330
1
100
AcDbSymbolTableRecord
100
AcDbBlockTableRecord
  2
_None
340
0
  0
BLOCK_RECORD
  5
832
330
1
100
AcDbSymbolTableRecord
100
AcDbBlockTableRecord
  2
*D4
340
0
  0
BLOCK_RECORD
  5
83C
330
1
100
AcDbSymbolTableRecord
100
AcDbBlockTableRecord
  2
*D5
340
0
  0
BLOCK_RECORD
  5
846
330
1
100
AcDbSymbolTableRecord
100
AcDbBlockTableRecord
  2
*D6
340
0
  0
BLOCK_RECORD
  5
859
330
1
100
AcDbSymbolTableRecord
100
AcDbBlockTableRecord
  2
*D7
340
0
  0
BLOCK_RECORD
  5
863
330
1
100
AcDbSymbolTableRecord
100
AcDbBlockTableRecord
  2
*D8
340
0
  0
BLOCK_RECORD
  5
87F
330
1
100
AcDbSymbolTableRecord
100
AcDbBlockTableRecord
  2
*D9
340
0
  0
BLOCK_RECORD
  5
963
330
1
100
AcDbSymbolTableRecord
100
AcDbBlockTableRecord
  2
*D10
340
0
  0
BLOCK_RECORD
  5
96B
330
1
100
AcDbSymbolTableRecord
100
AcDbBlockTableRecord
  2
*D11
340
0
  0
BLOCK_RECORD
  5
973
330
1
100
AcDbSymbolTableRecord
100
AcDbBlockTableRecord
  2
*D12
340
0
  0
BLOCK_RECORD
  5
994
330
1
100
AcDbSymbolTableRecord
100
AcDbBlockTableRecord
  2
*D13
340
0
  0
ENDTAB
  0
ENDSEC
  0
SECTION
  2
BLOCKS
  0
BLOCK
  5
20
330
1F
100
AcDbEntity
  8
0
100
AcDbBlockBegin
  2
*Model_Space
 70
     0
 10
0.0
 20
0.0
 30
0.0
  3
*Model_Space
  1

  0
ENDBLK
  5
21
330
1F
100
AcDbEntity
  8
0
100
AcDbBlockEnd
  0
BLOCK
  5
1C
330
1B
100
AcDbEntity
 67
     1
  8
0
100
AcDbBlockBegin
  2
*Paper_Space
 70
     0
 10
0.0
 20
0.0
 30
0.0
  3
*Paper_Space
  1

  0
ENDBLK
  5
1D
330
1B
100
AcDbEntity
 67
     1
  8
0
100
AcDbBlockEnd
  0
BLOCK
  5
24
330
23
100
AcDbEntity
  8
0
100
AcDbBlockBegin
  2
*Paper_Space0
 70
     0
 10
0.0
 20
0.0
 30
0.0
  3
*Paper_Space0
  1

  0
ENDBLK
  5
25
330
23
100
AcDbEntity
  8
0
100
AcDbBlockEnd
  0
BLOCK
  5
AE3
330
87
100
AcDbEntity
  8
0
100
AcDbBlockBegin
  2
GENAXEH
 70
     0
 10
0.0
 20
0.0
 30
0.0
  3
GENAXEH
  1

  0
LINE
  5
AE4
330
87
100
AcDbEntity
  8
0
100
AcDbLine
 10
-1.0
 20
0.0
 30
0.0
 11
1.0
 21
0.0
 31
0.0
  0
ENDBLK
  5
AE5
330
87
100
AcDbEntity
  8
0
100
AcDbBlockEnd
  0
BLOCK
  5
B03
330
217
100
AcDbEntity
  8
0
100
AcDbBlockBegin
  2
_Open30
 70
     0
 10
0.0
 20
0.0
 30
0.0
  3
_Open30
  1

  0
LINE
  5
B04
330
217
100
AcDbEntity
  8
0
  6
ByBlock
 62
     0
370
    -2
100
AcDbLine
 10
-1.0
 20
0.26794919
 30
0.0
 11
0.0
 21
0.0
 31
0.0
  0
LINE
  5
B05
330
217
100
AcDbEntity
  8
0
  6
ByBlock
 62
     0
370
    -2
100
AcDbLine
 10
0.0
 20
0.0
 30
0.0
 11
-1.0
 21
-0.26794919
 31
0.0
  0
LINE
  5
B06
330
217
100
AcDbEntity
  8
0
  6
ByBlock
 62
     0
370
    -2
100
AcDbLine
 10
0.0
 20
0.0
 30
0.0
 11
-1.0
 21
0.0
 31
0.0
  0
ENDBLK
  5
B07
330
217
100
AcDbEntity
  8
0
100
AcDbBlockEnd
  0
BLOCK
  5
3DE
330
3DD
100
AcDbEntity
  8
0
370
    -3
100
AcDbBlockBegin
  2
_None
 70
     0
 10
0.0
 20
0.0
 30
0.0
  3
_None
  1

  0
ENDBLK
  5
3DF
330
3DD
100
AcDbEntity
  8
0
370
    -3
100
AcDbBlockEnd
  0
BLOCK
  5
889
330
832
100
AcDbEntity
  8
0
100
AcDbBlockBegin
  2
*D4
 70
     1
 10
0.0
 20
0.0
 30
0.0
  3
*D4
  1

  0
LINE
  5
9F1
330
832
100
AcDbEntity
  8
AM_5
100
AcDbLine
 10
-48.50000000000012
 20
16.00000000000008
 30
0.0
 11
-77.58756753379912
 21
16.00000000000009
 31
0.0
  0
LINE
  5
9F2
330
832
100
AcDbEntity
  8
AM_5
100
AcDbLine
 10
-48.50000000000012
 20
-16.0
 30
0.0
 11
-77.58756753379912
 21
-15.99999999999999
 31
0.0
  0
LINE
  5
9F3
330
832
100
AcDbEntity
  8
AM_5
100
AcDbLine
 10
-76.58756753379911
 20
13.50000000000009
 30
0.0
 11
-76.58756753379911
 21
-13.49999999999999
 31
0.0
  0
INSERT
  5
9F4
330
832
100
AcDbEntity
  8
AM_5
100
AcDbBlockReference
  2
_Open30
 10
-76.58756753379911
 20
16.00000000000009
 30
0.0
 41
2.5
 42
2.5
 43
2.5
 50
90.0
  0
INSERT
  5
9F5
330
832
100
AcDbEntity
  8
AM_5
100
AcDbBlockReference
  2
_Open30
 10
-76.58756753379911
 20
-15.99999999999999
 30
0.0
 41
2.5
 42
2.5
 43
2.5
 50
270.0
  0
MTEXT
  5
9F6
330
832
100
AcDbEntity
  8
AM_5
 62
     2
100
AcDbMText
 10
-79.98794154954715
 20
2.682074068902379
 30
0.0
 40
3.799999999999998
 41
0.0
 71
     5
 72
     1
  1
%%c32
 11
0.0000000000000001
 21
1.0
 31
0.0
 73
     1
 44
1.0
1001
ACAD
1000
MTEXTBEGIN
1070
    73
1070
     1
1070
    44
1040
1.0
1070
    74
1070
     0
1000
MTEXTEND
  0
POINT
  5
9F7
330
832
100
AcDbEntity
  8
Defpoints
 62
     0
100
AcDbPoint
 10
-48.50000000000012
 20
16.00000000000008
 30
0.0
  0
POINT
  5
9F8
330
832
100
AcDbEntity
  8
Defpoints
 62
     0
100
AcDbPoint
 10
-48.50000000000012
 20
-16.0
 30
0.0
  0
POINT
  5
9F9
330
832
100
AcDbEntity
  8
Defpoints
 62
     0
100
AcDbPoint
 10
-76.58756753379911
 20
-15.99999999999999
 30
0.0
  0
ENDBLK
  5
88A
330
832
100
AcDbEntity
  8
0
100
AcDbBlockEnd
  0
BLOCK
  5
88B
330
83C
100
AcDbEntity
  8
0
100
AcDbBlockBegin
  2
*D5
 70
     1
 10
0.0
 20
0.0
 30
0.0
  3
*D5
  1

  0
LINE
  5
A0C
330
83C
100
AcDbEntity
  8
AM_5
100
AcDbLine
 10
-50.0000000000001
 20
-32.99999999999997
 30
0.0
 11
-50.0000000000001
 21
-60.61226900000007
 31
0.0
  0
LINE
  5
A0D
330
83C
100
AcDbEntity
  8
AM_5
100
AcDbLine
 10
-21.00000000000003
 20
-23.0
 30
0.0
 11
-21.00000000000003
 21
-60.61226900000007
 31
0.0
  0
LINE
  5
A0E
330
83C
100
AcDbEntity
  8
AM_5
100
AcDbLine
 10
-47.5000000000001
 20
-59.61226900000006
 30
0.0
 11
-23.50000000000003
 21
-59.61226900000006
 31
0.0
  0
INSERT
  5
A0F
330
83C
100
AcDbEntity
  8
AM_5
100
AcDbBlockReference
  2
_Open30
 10
-50.0000000000001
 20
-59.61226900000006
 30
0.0
 41
2.5
 42
2.5
 43
2.5
 50
180.0
  0
INSERT
  5
A10
330
83C
100
AcDbEntity
  8
AM_5
100
AcDbBlockReference
  2
_Open30
 10
-21.00000000000003
 20
-59.61226900000006
 30
0.0
 41
2.5
 42
2.5
 43
2.5
  0
MTEXT
  5
A11
330
83C
100
AcDbEntity
  8
AM_5
 62
     2
100
AcDbMText
 10
-35.50000000000007
 20
-56.21189498425204
 30
0.0
 40
3.799999999999998
 41
0.0
 71
     5
 72
     1
  1
29
 73
     1
 44
1.0
1001
ACAD
1000
MTEXTBEGIN
1070
    73
1070
     1
1070
    44
1040
1.0
1070
    74
1070
     0
1000
MTEXTEND
  0
POINT
  5
A12
330
83C
100
AcDbEntity
  8
Defpoints
 62
     0
100
AcDbPoint
 10
-50.0000000000001
 20
-32.99999999999997
 30
0.0
  0
POINT
  5
A13
330
83C
100
AcDbEntity
  8
Defpoints
 62
     0
100
AcDbPoint
 10
-21.00000000000003
 20
-23.0
 30
0.0
  0
POINT
  5
A14
330
83C
100
AcDbEntity
  8
Defpoints
 62
     0
100
AcDbPoint
 10
-21.00000000000003
 20
-59.61226900000006
 30
0.0
  0
ENDBLK
  5
88C
330
83C
100
AcDbEntity
  8
0
100
AcDbBlockEnd
  0
BLOCK
  5
88D
330
846
100
AcDbEntity
  8
0
100
AcDbBlockBegin
  2
*D6
 70
     1
 10
0.0
 20
0.0
 30
0.0
  3
*D6
  1

  0
LINE
  5
A15
330
846
100
AcDbEntity
  8
AM_5
100
AcDbLine
 10
-47.99999999999997
 20
39.99999999999996
 30
0.0
 11
-92.52965017920095
 21
40.0
 31
0.0
  0
LINE
  5
A16
330
846
100
AcDbEntity
  8
AM_5
100
AcDbLine
 10
-48.2000000000001
 20
-39.99999999999995
 30
0.0
 11
-92.529650179201
 21
-39.99999999999994
 31
0.0
  0
LINE
  5
A17
330
846
100
AcDbEntity
  8
AM_5
100
AcDbLine
 10
-91.52965017920095
 20
37.5
 30
0.0
 11
-91.529650179201
 21
-37.49999999999994
 31
0.0
  0
INSERT
  5
A18
330
846
100
AcDbEntity
  8
AM_5
100
AcDbBlockReference
  2
_Open30
 10
-91.52965017920095
 20
40.0
 30
0.0
 41
2.5
 42
2.5
 43
2.5
 50
90.0
  0
INSERT
  5
A19
330
846
100
AcDbEntity
  8
AM_5
100
AcDbBlockReference
  2
_Open30
 10
-91.529650179201
 20
-39.99999999999994
 30
0.0
 41
2.5
 42
2.5
 43
2.5
 50
270.0
  0
MTEXT
  5
A1A
330
846
100
AcDbEntity
  8
AM_5
 62
     2
100
AcDbMText
 10
-94.92965017920095
 20
0.0000000000000096
 30
0.0
 40
3.799999999999998
 41
0.0
 71
     5
 72
     1
  1
%%c80
 11
0.0000000000000001
 21
1.0
 31
0.0
 73
     1
 44
1.0
1001
ACAD
1000
MTEXTBEGIN
1070
    73
1070
     1
1070
    44
1040
1.0
1070
    74
1070
     0
1000
MTEXTEND
  0
POINT
  5
A1B
330
846
100
AcDbEntity
  8
Defpoints
 62
     0
100
AcDbPoint
 10
-47.99999999999997
 20
39.99999999999996
 30
0.0
  0
POINT
  5
A1C
330
846
100
AcDbEntity
  8
Defpoints
 62
     0
100
AcDbPoint
 10
-48.2000000000001
 20
-39.99999999999995
 30
0.0
  0
POINT
  5
A1D
330
846
100
AcDbEntity
  8
Defpoints
 62
     0
100
AcDbPoint
 10
-91.529650179201
 20
-39.99999999999994
 30
0.0
  0
ENDBLK
  5
88E
330
846
100
AcDbEntity
  8
0
100
AcDbBlockEnd
  0
BLOCK
  5
88F
330
859
100
AcDbEntity
  8
0
100
AcDbBlockBegin
  2
*D7
 70
     1
 10
0.0
 20
0.0
 30
0.0
  3
*D7
  1

  0
LINE
  5
9FA
330
859
100
AcDbEntity
  8
AM_5
100
AcDbLine
 10
-49.00000000000011
 20
-7.246343115744338
 30
0.0
 11
-64.59353209570418
 21
-7.246343115744331
 31
0.0
  0
LINE
  5
9FB
330
859
100
AcDbEntity
  8
AM_5
100
AcDbLine
 10
-49.00000000000011
 20
7.199999999999986
 30
0.0
 11
-64.59353209570418
 21
7.199999999999991
 31
0.0
  0
LINE
  5
9FC
330
859
100
AcDbEntity
  8
AM_5
100
AcDbLine
 10
-63.59353209570418
 20
-4.746343115744333
 30
0.0
 11
-63.59353209570418
 21
4.699999999999993
 31
0.0
  0
INSERT
  5
9FD
330
859
100
AcDbEntity
  8
AM_5
100
AcDbBlockReference
  2
_Open30
 10
-63.59353209570418
 20
-7.246343115744331
 30
0.0
 41
2.5
 42
2.5
 43
2.5
 50
270.0
  0
INSERT
  5
9FE
330
859
100
AcDbEntity
  8
AM_5
100
AcDbBlockReference
  2
_Open30
 10
-63.59353209570418
 20
7.199999999999991
 30
0.0
 41
2.5
 42
2.5
 43
2.5
 50
90.0
  0
MTEXT
  5
9FF
330
859
100
AcDbEntity
  8
AM_5
 62
     2
100
AcDbMText
 10
-66.99353209570418
 20
-0.0231715578721518
 30
0.0
 40
3.799999999999998
 41
0.0
 71
     5
 72
     1
  1
14.4
 11
0.0000000000000001
 21
1.0
 31
0.0
 73
     1
 44
1.0
1001
ACAD
1000
MTEXTBEGIN
1070
    73
1070
     1
1070
    44
1040
1.0
1070
    74
1070
     0
1000
MTEXTEND
  0
POINT
  5
A00
330
859
100
AcDbEntity
  8
Defpoints
 62
     0
100
AcDbPoint
 10
-49.00000000000011
 20
-7.246343115744338
 30
0.0
  0
POINT
  5
A01
330
859
100
AcDbEntity
  8
Defpoints
 62
     0
100
AcDbPoint
 10
-49.00000000000011
 20
7.199999999999986
 30
0.0
  0
POINT
  5
A02
330
859
100
AcDbEntity
  8
Defpoints
 62
     0
100
AcDbPoint
 10
-63.59353209570418
 20
7.199999999999991
 30
0.0
  0
ENDBLK
  5
890
330
859
100
AcDbEntity
  8
0
100
AcDbBlockEnd
  0
BLOCK
  5
891
330
863
100
AcDbEntity
  8
0
100
AcDbBlockBegin
  2
*D8
 70
     1
 10
0.0
 20
0.0
 30
0.0
  3
*D8
  1

  0
LINE
  5
A03
330
863
100
AcDbEntity
  8
AM_5
100
AcDbLine
 10
-50.0000000000001
 20
-17.72499999999987
 30
0.0
 11
-50.0000000000001
 21
-47.51831995958286
 31
0.0
  0
LINE
  5
A04
330
863
100
AcDbEntity
  8
AM_5
100
AcDbLine
 10
-41.50000000000011
 20
-7.246343115744338
 30
0.0
 11
-41.50000000000011
 21
-47.51831995958286
 31
0.0
  0
LINE
  5
A05
330
863
100
AcDbEntity
  8
AM_5
100
AcDbLine
 10
-47.5000000000001
 20
-46.51831995958286
 30
0.0
 11
-44.00000000000011
 21
-46.51831995958286
 31
0.0
  0
INSERT
  5
A06
330
863
100
AcDbEntity
  8
AM_5
100
AcDbBlockReference
  2
_Open30
 10
-50.0000000000001
 20
-46.51831995958286
 30
0.0
 41
2.5
 42
2.5
 43
2.5
 50
180.0
  0
INSERT
  5
A07
330
863
100
AcDbEntity
  8
AM_5
100
AcDbBlockReference
  2
_Open30
 10
-41.50000000000011
 20
-46.51831995958286
 30
0.0
 41
2.5
 42
2.5
 43
2.5
  0
MTEXT
  5
A08
330
863
100
AcDbEntity
  8
AM_5
 62
     2
100
AcDbMText
 10
-45.40579287359064
 20
-43.11831995958286
 30
0.0
 40
3.799999999999998
 41
0.0
 71
     5
 72
     1
  1
8.5
 73
     1
 44
1.0
1001
ACAD
1000
MTEXTBEGIN
1070
    73
1070
     1
1070
    44
1040
1.0
1070
    74
1070
     0
1000
MTEXTEND
  0
POINT
  5
A09
330
863
100
AcDbEntity
  8
Defpoints
 62
     0
100
AcDbPoint
 10
-50.0000000000001
 20
-17.72499999999987
 30
0.0
  0
POINT
  5
A0A
330
863
100
AcDbEntity
  8
Defpoints
 62
     0
100
AcDbPoint
 10
-41.50000000000011
 20
-7.246343115744338
 30
0.0
  0
POINT
  5
A0B
330
863
100
AcDbEntity
  8
Defpoints
 62
     0
100
AcDbPoint
 10
-41.50000000000011
 20
-46.51831995958286
 30
0.0
  0
ENDBLK
  5
892
330
863
100
AcDbEntity
  8
0
100
AcDbBlockEnd
  0
BLOCK
  5
893
330
87F
100
AcDbEntity
  8
0
100
AcDbBlockBegin
  2
*D9
 70
     1
 10
0.0
 20
0.0
 30
0.0
  3
*D9
  1

  0
LINE
  5
A1E
330
87F
100
AcDbEntity
  8
AM_5
100
AcDbLine
 10
-10.95155700000002
 20
23.0
 30
0.0
 11
6.195220999999899
 21
23.0
 31
0.0
  0
LINE
  5
A1F
330
87F
100
AcDbEntity
  8
AM_5
100
AcDbLine
 10
-10.95155700000002
 20
-23.0
 30
0.0
 11
6.195220999999889
 21
-23.0
 31
0.0
  0
LINE
  5
A20
330
87F
100
AcDbEntity
  8
AM_5
100
AcDbLine
 10
5.195220999999898
 20
20.5
 30
0.0
 11
5.195220999999889
 21
-20.5
 31
0.0
  0
INSERT
  5
A21
330
87F
100
AcDbEntity
  8
AM_5
100
AcDbBlockReference
  2
_Open30
 10
5.1952209999999
 20
23.0
 30
0.0
 41
2.5
 42
2.5
 43
2.5
 50
90.0
  0
INSERT
  5
A22
330
87F
100
AcDbEntity
  8
AM_5
100
AcDbBlockReference
  2
_Open30
 10
5.195220999999888
 20
-23.0
 30
0.0
 41
2.5
 42
2.5
 43
2.5
 50
270.0
  0
MTEXT
  5
A23
330
87F
100
AcDbEntity
  8
AM_5
 62
     2
100
AcDbMText
 10
1.795220999999895
 20
-0.0000000000000035
 30
0.0
 40
3.799999999999998
 41
0.0
 71
     5
 72
     1
  1
%%c46
 11
0.0000000000000001
 21
1.0
 31
0.0
 73
     1
 44
1.0
1001
ACAD
1000
MTEXTBEGIN
1070
    73
1070
     1
1070
    44
1040
1.0
1070
    74
1070
     0
1000
MTEXTEND
  0
POINT
  5
A24
330
87F
100
AcDbEntity
  8
Defpoints
 62
     0
100
AcDbPoint
 10
-10.95155700000002
 20
23.0
 30
0.0
  0
POINT
  5
A25
330
87F
100
AcDbEntity
  8
Defpoints
 62
     0
100
AcDbPoint
 10
-10.95155700000002
 20
-23.0
 30
0.0
  0
POINT
  5
A26
330
87F
100
AcDbEntity
  8
Defpoints
 62
     0
100
AcDbPoint
 10
5.195220999999888
 20
-23.0
 30
0.0
  0
ENDBLK
  5
894
330
87F
100
AcDbEntity
  8
0
100
AcDbBlockEnd
  0
BLOCK
  5
9A0
330
963
100
AcDbEntity
  8
0
100
AcDbBlockBegin
  2
*D10
 70
     1
 10
0.0
 20
0.0
 30
0.0
  3
*D10
  1

  0
LINE
  5
A27
330
963
100
AcDbEntity
  8
AM_5
100
AcDbLine
 10
0.0
 20
49.9999561961594
 30
0.0
 11
23.02535759856188
 21
49.9999561961594
 31
0.0
  0
LINE
  5
A28
330
963
100
AcDbEntity
  8
AM_5
100
AcDbLine
 10
22.02535759856187
 20
-0.000043803840532
 30
0.0
 11
22.02535759856188
 21
47.4999561961594
 31
0.0
  0
INSERT
  5
A29
330
963
100
AcDbEntity
  8
AM_5
100
AcDbBlockReference
  2
_Open30
 10
22.02535759856188
 20
49.9999561961594
 30
0.0
 41
2.5
 42
2.5
 43
2.5
 50
90.0
  0
MTEXT
  5
A2A
330
963
100
AcDbEntity
  8
AM_5
 62
     2
100
AcDbMText
 10
18.62535759856187
 20
0.0890299124532709
 30
0.0
 40
3.799999999999998
 41
0.0
 71
     5
 72
     1
  1
%%c100
 11
0.0000000000000001
 21
1.0
 31
0.0
 73
     1
 44
1.0
1001
ACAD
1000
MTEXTBEGIN
1070
    73
1070
     1
1070
    44
1040
1.0
1070
    74
1070
     0
1000
MTEXTEND
  0
POINT
  5
A2B
330
963
100
AcDbEntity
  8
Defpoints
 62
     0
100
AcDbPoint
 10
1.710455181365773
 20
-0.0000438038405263
 30
0.0
  0
POINT
  5
A2C
330
963
100
AcDbEntity
  8
Defpoints
 62
     0
100
AcDbPoint
 10
0.0
 20
49.9999561961594
 30
0.0
  0
POINT
  5
A2D
330
963
100
AcDbEntity
  8
Defpoints
 62
     0
100
AcDbPoint
 10
22.02535759856188
 20
49.9999561961594
 30
0.0
  0
ENDBLK
  5
9A1
330
963
100
AcDbEntity
  8
0
100
AcDbBlockEnd
  0
BLOCK
  5
9A2
330
96B
100
AcDbEntity
  8
0
100
AcDbBlockBegin
  2
*D11
 70
     1
 10
0.0
 20
0.0
 30
0.0
  3
*D11
  1

  0
LINE
  5
A2E
330
96B
100
AcDbEntity
  8
AM_5
100
AcDbLine
 10
-8.524463263862344
 20
53.87669966133069
 30
0.0
 11
39.07744611298939
 21
53.87669966133068
 31
0.0
  0
LINE
  5
A2F
330
96B
100
AcDbEntity
  8
AM_5
100
AcDbLine
 10
38.07744611298939
 20
-0.0000438038405366
 30
0.0
 11
38.07744611298939
 21
51.37669966133068
 31
0.0
  0
INSERT
  5
A30
330
96B
100
AcDbEntity
  8
AM_5
100
AcDbBlockReference
  2
_Open30
 10
38.07744611298939
 20
53.87669966133068
 30
0.0
 41
2.5
 42
2.5
 43
2.5
 50
90.0
  0
MTEXT
  5
A31
330
96B
100
AcDbEntity
  8
AM_5
 62
     2
100
AcDbMText
 10
34.67744611298938
 20
0.4651319155696008
 30
0.0
 40
3.799999999999998
 41
0.0
 71
     5
 72
     1
  1
%%c108
 11
0.0000000000000001
 21
1.0
 31
0.0
 73
     1
 44
1.0
1001
ACAD
1000
MTEXTBEGIN
1070
    73
1070
     1
1070
    44
1040
1.0
1070
    74
1070
     0
1000
MTEXTEND
  0
POINT
  5
A32
330
96B
100
AcDbEntity
  8
Defpoints
 62
     0
100
AcDbPoint
 10
1.710455181365773
 20
-0.0000438038405263
 30
0.0
  0
POINT
  5
A33
330
96B
100
AcDbEntity
  8
Defpoints
 62
     0
100
AcDbPoint
 10
-8.524463263862344
 20
53.87669966133069
 30
0.0
  0
POINT
  5
A34
330
96B
100
AcDbEntity
  8
Defpoints
 62
     0
100
AcDbPoint
 10
38.07744611298939
 20
53.87669966133068
 30
0.0
  0
ENDBLK
  5
9A3
330
96B
100
AcDbEntity
  8
0
100
AcDbBlockEnd
  0
BLOCK
  5
9A4
330
973
100
AcDbEntity
  8
0
100
AcDbBlockBegin
  2
*D12
 70
     1
 10
0.0
 20
0.0
 30
0.0
  3
*D12
  1

  0
LINE
  5
A35
330
973
100
AcDbEntity
  8
AM_5
100
AcDbLine
 10
-50.00055618992143
 20
32.99995619615947
 30
0.0
 11
-50.00055618992143
 21
77.57609724136864
 31
0.0
  0
LINE
  5
A36
330
973
100
AcDbEntity
  8
AM_5
100
AcDbLine
 10
-0.0000215500894001
 20
49.99564183716916
 30
0.0
 11
-0.0000215500893984
 21
77.57609724136864
 31
0.0
  0
LINE
  5
A37
330
973
100
AcDbEntity
  8
AM_5
100
AcDbLine
 10
-47.50055618992143
 20
76.57609724136865
 30
0.0
 11
-2.500021550089397
 21
76.57609724136865
 31
0.0
  0
INSERT
  5
A38
330
973
100
AcDbEntity
  8
AM_5
100
AcDbBlockReference
  2
_Open30
 10
-50.00055618992143
 20
76.57609724136865
 30
0.0
 41
2.5
 42
2.5
 43
2.5
 50
180.0
  0
INSERT
  5
A39
330
973
100
AcDbEntity
  8
AM_5
100
AcDbBlockReference
  2
_Open30
 10
-0.0000215500893985
 20
76.57609724136865
 30
0.0
 41
2.5
 42
2.5
 43
2.5
  0
MTEXT
  5
A3A
330
973
100
AcDbEntity
  8
AM_5
 62
     2
100
AcDbMText
 10
-25.00028887000542
 20
79.97609724136863
 30
0.0
 40
3.799999999999998
 41
0.0
 71
     5
 72
     1
  1
50
 73
     1
 44
1.0
1001
ACAD
1000
MTEXTBEGIN
1070
    73
1070
     1
1070
    44
1040
1.0
1070
    74
1070
     0
1000
MTEXTEND
  0
POINT
  5
A3B
330
973
100
AcDbEntity
  8
Defpoints
 62
     0
100
AcDbPoint
 10
-50.00055618992143
 20
32.99995619615947
 30
0.0
  0
POINT
  5
A3C
330
973
100
AcDbEntity
  8
Defpoints
 62
     0
100
AcDbPoint
 10
-0.0000215500894001
 20
49.99564183716916
 30
0.0
  0
POINT
  5
A3D
330
973
100
AcDbEntity
  8
Defpoints
 62
     0
100
AcDbPoint
 10
-0.0000215500893985
 20
76.57609724136865
 30
0.0
  0
ENDBLK
  5
9A5
330
973
100
AcDbEntity
  8
0
100
AcDbBlockEnd
  0
BLOCK
  5
9A6
330
994
100
AcDbEntity
  8
0
100
AcDbBlockBegin
  2
*D13
 70
     1
 10
0.0
 20
0.0
 30
0.0
  3
*D13
  1

  0
LINE
  5
A49
330
994
100
AcDbEntity
  8
AM_5
100
AcDbLine
 10
0.0000000000000142
 20
51.00000000000001
 30
0.0
 11
0.0000000000002451
 21
68.78699268299708
 31
0.0
  0
LINE
  5
A4A
330
994
100
AcDbEntity
  8
AM_5
100
AcDbLine
 10
-5.664888268844713
 20
52.64127762289422
 30
0.0
 11
-17.02707251938057
 21
57.93955115228701
 31
0.0
  0
ARC
  5
A4B
330
994
100
AcDbEntity
  8
AM_5
100
AcDbCircle
 10
0.0000000000000036
 20
49.99969684053962
 30
0.0
 40
17.78729584245744
100
AcDbArc
 50
98.05955060451937
 51
146.9404493954807
  0
INSERT
  5
A4C
330
994
100
AcDbEntity
  8
AM_5
100
AcDbBlockReference
  2
_Open30
 10
0.0000000000002309
 20
67.78699268299708
 30
0.0
 41
2.5
 42
2.5
 43
2.5
 50
4.029775302259323
  0
INSERT
  5
A4D
330
994
100
AcDbEntity
  8
AM_5
100
AcDbBlockReference
  2
_Open30
 10
-16.12076473234391
 20
57.51693289054632
 30
0.0
 41
2.5
 42
2.5
 43
2.5
 50
240.9702246977408
  0
MTEXT
  5
A4E
330
994
100
AcDbEntity
  8
AM_5
 62
     2
100
AcDbMText
 10
-11.30333081682867
 20
67.74237219710318
 30
0.0
 40
3.5
 41
0.0
 71
     5
 72
     1
  1
65°
 11
0.8433914458128823
 21
0.5372996083468294
 31
0.0
 73
     1
 44
1.0
1001
ACAD
1000
MTEXTBEGIN
1070
    73
1070
     1
1070
    44
1040
1.0
1070
    74
1070
     0
1000
MTEXTEND
  0
POINT
  5
A4F
330
994
100
AcDbEntity
  8
Defpoints
 62
     0
100
AcDbPoint
 10
-6.567178969104577
 20
66.53027619441751
 30
0.0
  0
POINT
  5
A50
330
994
100
AcDbEntity
  8
Defpoints
 62
     0
100
AcDbPoint
 10
-1.403681914070944
 20
50.65424446668453
 30
0.0
  0
POINT
  5
A51
330
994
100
AcDbEntity
  8
Defpoints
 62
     0
100
AcDbPoint
 10
0.0
 20
50.0
 30
0.0
  0
POINT
  5
A52
330
994
100
AcDbEntity
  8
Defpoints
 62
     0
100
AcDbPoint
 10
0.0000000000000036
 20
49.87203492077924
 30
0.0
  0
POINT
  5
A53
330
994
100
AcDbEntity
  8
Defpoints
 62
     0
100
AcDbPoint
 10
-4.758580481808052
 20
52.21865936115353
 30
0.0
  0
ENDBLK
  5
9A7
330
994
100
AcDbEntity
  8
0
100
AcDbBlockEnd
  0
ENDSEC
  0
SECTION
  2
ENTITIES
  0
LINE
  5
795
330
1F
100
AcDbEntity
  8
0
100
AcDbLine
 10
-50.00000000000007
 20
17.72500000000002
 30
0.0
 11
-50.00000000000007
 21
33.0
 31
0.0
  0
LINE
  5
796
102
{ACAD_REACTORS
330
7BD
102
}
330
1F
100
AcDbEntity
  8
0
100
AcDbLine
 10
-10.95155700000002
 20
-23.0
 30
0.0
 11
-21.00000000000003
 21
-23.0
 31
0.0
  0
LINE
  5
797
330
1F
100
AcDbEntity
  8
0
100
AcDbLine
 10
-18.00000000000006
 20
23.0
 30
0.0
 11
-10.95155700000002
 21
23.0
 31
0.0
  0
LINE
  5
798
330
1F
100
AcDbEntity
  8
0
100
AcDbLine
 10
-50.00000000000007
 20
-33.0
 30
0.0
 11
-50.00000000000007
 21
-17.72500000000002
 31
0.0
  0
LINE
  5
79A
330
1F
100
AcDbEntity
  8
0
100
AcDbLine
 10
-22.00000000000003
 20
-16.0
 30
0.0
 11
-48.50000000000012
 21
-16.0
 31
0.0
  0
LINE
  5
79B
330
1F
100
AcDbEntity
  8
0
100
AcDbLine
 10
-40.39477709134859
 20
16.00000000000003
 30
0.0
 11
-22.00000000000006
 21
16.00000000000003
 31
0.0
  0
LINE
  5
79C
330
1F
100
AcDbEntity
  8
0
100
AcDbLine
 10
-21.00000000000003
 20
-23.0
 30
0.0
 11
-21.00000000000003
 21
-16.875
 31
0.0
  0
LINE
  5
79D
330
1F
100
AcDbEntity
  8
0
100
AcDbLine
 10
-50.00000000000007
 20
-17.50000000000017
 30
0.0
 11
-48.50000000000008
 21
-16.00000000000017
 31
0.0
  0
ARC
  5
79F
330
1F
100
AcDbEntity
  8
1
100
AcDbCircle
 10
-22.00000000000003
 20
-17.0
 30
0.0
 40
1.0
100
AcDbArc
 50
0.0
 51
90.0
  0
LINE
  5
7A1
330
1F
100
AcDbEntity
  8
0
370
    -3
100
AcDbLine
 10
-50.00000000000007
 20
17.72500000000002
 30
0.0
 11
-50.00000000000007
 21
8.199999999999931
 31
0.0
  0
LINE
  5
7A2
330
1F
100
AcDbEntity
  8
0
370
    -3
100
AcDbLine
 10
-50.00000000000007
 20
-8.246343115744281
 30
0.0
 11
-50.00000000000007
 21
-17.72500000000002
 31
0.0
  0
LINE
  5
7A4
330
1F
100
AcDbEntity
  8
0
370
    -3
100
AcDbLine
 10
-7.004780000000009
 20
36.99999999999994
 30
0.0
 11
-7.004779999999924
 21
-36.99999999999992
 31
0.0
  0
LINE
  5
7A5
330
1F
100
AcDbEntity
  8
AM_7
100
AcDbLine
 10
-52.79400000000004
 20
0.0000000000000001
 30
0.0
 11
-4.010780000000123
 21
0.0000000000000001
 31
0.0
1001
GENIUS_GENODEF_13
1002
{
1000
HIER
1070
     0
1002
}
1002
{
1000
MANEDIT
1070
     0
1002
}
1002
{
1000
NOSEL
1070
     0
1002
}
1002
{
1000
BEHIND
1070
     0
1002
}
1002
{
1000
OTHER
1070
     0
1002
}
1002
{
1000
REACTOR
1002
}
1001
GENIUS_GENOBJ-N-CEN_13
1002
{
1000
OWNER
1000
GEN
1002
}
1001
GENIUS_GENCEN_19
1002
{
1040
2.793999999999999
1002
}
  0
LINE
  5
7A8
330
1F
100
AcDbEntity
  8
0
100
AcDbLine
 10
-41.50000000000011
 20
-7.246343115744338
 30
0.0
 11
-49.00000000000011
 21
-7.246343115744338
 31
0.0
  0
LINE
  5
7A9
330
1F
100
AcDbEntity
  8
0
100
AcDbLine
 10
-49.00000000000011
 20
7.199999999999986
 30
0.0
 11
-41.50000000000011
 21
7.199999999999986
 31
0.0
  0
LINE
  5
7AA
330
1F
100
AcDbEntity
  8
0
100
AcDbLine
 10
-50.00000000000014
 20
-17.50000000000003
 30
0.0
 11
-48.50000000000014
 21
-16.00000000000003
 31
0.0
  0
LINE
  5
7AB
330
1F
100
AcDbEntity
  8
0
100
AcDbLine
 10
-48.50000000000012
 20
-7.246343115744338
 30
0.0
 11
-48.50000000000008
 21
-16.00000000000017
 31
0.0
  0
LINE
  5
7AC
102
{ACAD_REACTORS
330
7B7
102
}
330
1F
100
AcDbEntity
  8
0
100
AcDbLine
 10
-41.50000000000011
 20
7.200000000000017
 30
0.0
 11
-41.50000000000011
 21
-7.246343115744338
 31
0.0
  0
LINE
  5
7AD
330
1F
100
AcDbEntity
  8
0
100
AcDbLine
 10
-48.50000000000012
 20
16.0000000000001
 30
0.0
 11
-48.50000000000012
 21
7.199999999999986
 31
0.0
  0
LINE
  5
7AE
330
1F
100
AcDbEntity
  8
0
100
AcDbLine
 10
-50.00000000000007
 20
8.199999999999931
 30
0.0
 11
-50.0000000000001
 21
17.72499999999993
 31
0.0
  0
LINE
  5
7AF
102
{ACAD_REACTORS
330
7B7
102
}
330
1F
100
AcDbEntity
  8
0
100
AcDbLine
 10
-50.0000000000001
 20
-17.72499999999987
 30
0.0
 11
-50.00000000000007
 21
-8.246343115744281
 31
0.0
  0
LINE
  5
7B0
102
{ACAD_REACTORS
330
7B4
102
}
330
1F
100
AcDbEntity
  8
0
100
AcDbLine
 10
-49.00000000000011
 20
7.199999999999986
 30
0.0
 11
-50.0000000000001
 21
8.199999999999986
 31
0.0
  0
DIMENSION
  5
7B1
330
1F
100
AcDbEntity
  8
AM_5
100
AcDbDimension
  2
*D4
 10
-76.58756753379911
 20
-15.99999999999999
 30
0.0
 11
-76.58756753379911
 21
2.682074068902379
 31
0.0
 70
   160
  1
%%c<>
 71
     5
 42
32.00000000000009
  3
AM_JIS$0
100
AcDbAlignedDimension
 13
-48.50000000000012
 23
16.00000000000008
 33
0.0
 14
-48.50000000000012
 24
-16.0
 34
0.0
 50
90.0
100
AcDbRotatedDimension
1001
ACAD
1000
DSTYLE
1002
{
1070
   179
1070
     0
1070
   271
1070
     0
1002
}
  0
DIMENSION
  5
7B2
102
{ACAD_XDICTIONARY
360
7B3
102
}
102
{ACAD_REACTORS
330
7B4
102
}
330
1F
100
AcDbEntity
  8
AM_5
100
AcDbDimension
  2
*D7
 10
-63.59353209570418
 20
7.199999999999991
 30
0.0
 11
-63.59353209570418
 21
-0.0231715578721522
 31
0.0
 70
   160
  1
<>
 71
     5
 42
14.44634311574432
  3
AM_JIS$0
100
AcDbAlignedDimension
 13
-49.00000000000011
 23
-7.246343115744338
 33
0.0
 14
-49.00000000000011
 24
7.199999999999986
 34
0.0
 50
90.0
100
AcDbRotatedDimension
1001
ACAD
1000
DSTYLE
1002
{
1070
   179
1070
     0
1070
   271
1070
     1
1002
}
  0
DIMENSION
  5
7B5
102
{ACAD_XDICTIONARY
360
7B6
102
}
102
{ACAD_REACTORS
330
7B7
102
}
330
1F
100
AcDbEntity
  8
AM_5
100
AcDbDimension
  2
*D8
 10
-41.50000000000011
 20
-46.51831995958286
 30
0.0
 11
-45.40579287359064
 21
-46.51831995958286
 31
0.0
 70
   160
 71
     5
 42
8.5
  3
AM_JIS$0
100
AcDbAlignedDimension
 13
-50.0000000000001
 23
-17.72499999999987
 33
0.0
 14
-41.50000000000011
 24
-7.246343115744338
 34
0.0
100
AcDbRotatedDimension
1001
ACAD
1000
DSTYLE
1002
{
1070
   179
1070
     0
1070
   271
1070
     1
1002
}
  0
DIMENSION
  5
7B8
330
1F
100
AcDbEntity
  8
AM_5
100
AcDbDimension
  2
*D5
 10
-21.00000000000003
 20
-59.61226900000006
 30
0.0
 11
-35.50000000000007
 21
-56.21189498425204
 31
0.0
 70
    32
 71
     5
 42
29.00000000000009
  3
AM_JIS$0
100
AcDbAlignedDimension
 13
-50.0000000000001
 23
-32.99999999999997
 33
0.0
 14
-21.00000000000003
 24
-23.0
 34
0.0
100
AcDbRotatedDimension
1001
ACAD
1000
DSTYLE
1002
{
1070
   179
1070
     0
1070
   271
1070
     0
1002
}
  0
LINE
  5
7B9
102
{ACAD_REACTORS
330
7B4
102
}
330
1F
100
AcDbEntity
  8
0
100
AcDbLine
 10
-49.00000000000011
 20
-7.246343115744338
 30
0.0
 11
-50.0000000000001
 21
-8.246343115744338
 31
0.0
  0
DIMENSION
  5
7BA
330
1F
100
AcDbEntity
  8
AM_5
100
AcDbDimension
  2
*D6
 10
-91.529650179201
 20
-39.99999999999994
 30
0.0
 11
-94.92965017920095
 21
0.0000000000000096
 31
0.0
 70
    32
  1
%%c<>
 71
     5
 42
79.99999999999992
  3
AM_JIS$0
100
AcDbAlignedDimension
 13
-47.99999999999997
 23
39.99999999999996
 33
0.0
 14
-48.2000000000001
 24
-39.99999999999995
 34
0.0
 50
90.0
100
AcDbRotatedDimension
1001
ACAD
1000
DSTYLE
1002
{
1070
   179
1070
     0
1070
   271
1070
     0
1002
}
  0
DIMENSION
  5
7BB
102
{ACAD_XDICTIONARY
360
7BC
102
}
102
{ACAD_REACTORS
330
7BD
102
}
330
1F
100
AcDbEntity
  8
AM_5
100
AcDbDimension
  2
*D9
 10
5.195220999999888
 20
-23.0
 30
0.0
 11
1.795220999999895
 21
-0.0000000000000035
 31
0.0
 70
    32
  1
%%c<>
 71
     5
 42
46.0
  3
AM_JIS$0
100
AcDbAlignedDimension
 13
-10.95155700000002
 23
23.0
 33
0.0
 14
-10.95155700000002
 24
-23.0
 34
0.0
 50
90.0
100
AcDbRotatedDimension
1001
ACAD
1000
DSTYLE
1002
{
1070
   179
1070
     0
1070
   271
1070
     0
1002
}
  0
LINE
  5
80F
330
1F
100
AcDbEntity
  8
0
100
AcDbLine
 10
-50.00000000000003
 20
17.72499999999993
 30
0.0
 11
-50.0
 21
37.99999999999997
 31
0.0
  0
LINE
  5
810
330
1F
100
AcDbEntity
  8
0
100
AcDbLine
 10
-21.00000000000006
 20
22.99999999999994
 30
0.0
 11
-11.15155699999994
 21
22.99999999999994
 31
0.0
  0
LINE
  5
811
330
1F
100
AcDbEntity
  8
0
100
AcDbLine
 10
-9.18194100000008
 20
24.65270399999994
 30
0.0
 11
-7.004780000000009
 21
36.99999999999994
 31
0.0
  0
LINE
  5
813
330
1F
100
AcDbEntity
  8
0
100
AcDbLine
 10
-11.60163147617083
 20
52.50512956283992
 30
0.0
 11
-16.73669500000008
 21
52.49999999999993
 31
0.0
  0
LINE
  5
814
330
1F
100
AcDbEntity
  8
0
100
AcDbLine
 10
-17.25433300000011
 20
52.43185199999993
 30
0.0
 11
-24.91802600000009
 21
50.37837099999996
 31
0.0
  0
LINE
  5
816
330
1F
100
AcDbEntity
  8
0
100
AcDbLine
 10
-48.50000000000011
 20
16.00000000000008
 30
0.0
 11
-22.00000000000006
 21
16.00000000000008
 31
0.0
  0
ARC
  5
818
330
1F
100
AcDbEntity
  8
1
100
AcDbCircle
 10
-11.15155699999994
 20
24.99999999999995
 30
0.0
 40
2.0
100
AcDbArc
 50
270.0
 51
350.0000124822701
  0
ARC
  5
819
330
1F
100
AcDbEntity
  8
1
100
AcDbCircle
 10
-16.73669500000008
 20
50.49999999999993
 30
0.0
 40
2.0
100
AcDbArc
 50
90.0
 51
104.9999949278685
  0
LINE
  5
81B
330
1F
100
AcDbEntity
  8
AM_0
100
AcDbLine
 10
-50.00000000000003
 20
17.50000000000006
 30
0.0
 11
-48.50000000000004
 21
16.00000000000003
 31
0.0
  0
LINE
  5
81C
330
1F
100
AcDbEntity
  8
0
100
AcDbLine
 10
-50.0
 20
-17.72500000000002
 30
0.0
 11
-50.0000000000001
 21
-37.99999999999994
 31
0.0
  0
LINE
  5
81D
330
1F
100
AcDbEntity
  8
0
100
AcDbLine
 10
-9.181941000000023
 20
-24.65270399999992
 30
0.0
 11
-7.004779999999924
 21
-36.99999999999992
 31
0.0
  0
LINE
  5
81E
330
1F
100
AcDbEntity
  8
0
100
AcDbLine
 10
-7.004779999999924
 20
-36.99999999999992
 30
0.0
 11
-1.400000000000004
 21
-47.9999999999999
 31
0.0
  0
LINE
  5
81F
330
1F
100
AcDbEntity
  8
0
100
AcDbLine
 10
-1.400000000000004
 20
-47.9999999999999
 30
0.0
 11
-1.400000000000004
 21
-49.19999999999991
 31
0.0
  0
LINE
  5
820
330
1F
100
AcDbEntity
  8
0
100
AcDbLine
 10
-1.400000000000004
 20
-49.19999999999991
 30
0.0
 11
-8.075025999999894
 21
-52.31261599999989
 31
0.0
  0
LINE
  5
821
330
1F
100
AcDbEntity
  8
0
100
AcDbLine
 10
-8.920262000000008
 20
-52.49999999999992
 30
0.0
 11
-16.73669499999997
 21
-52.49999999999993
 31
0.0
  0
LINE
  5
822
330
1F
100
AcDbEntity
  8
0
100
AcDbLine
 10
-17.254333
 20
-52.43185199999993
 30
0.0
 11
-24.91802599999997
 21
-50.37837099999999
 31
0.0
  0
ARC
  5
823
330
1F
100
AcDbEntity
  8
1
100
AcDbCircle
 10
-11.15155699999988
 20
-24.99999999999993
 30
0.0
 40
2.0
100
AcDbArc
 50
9.999987517729801
 51
90.0
  0
ARC
  5
824
330
1F
100
AcDbEntity
  8
1
100
AcDbCircle
 10
-16.73669499999997
 20
-50.49999999999993
 30
0.0
 40
2.0
100
AcDbArc
 50
255.0000050721315
 51
270.0
  0
ARC
  5
825
330
1F
100
AcDbEntity
  8
1
100
AcDbCircle
 10
-8.920262000000008
 20
-50.4999999999999
 30
0.0
 40
2.000000164787989
100
AcDbArc
 50
270.0
 51
294.9999812516923
  0
LINE
  5
826
330
1F
100
AcDbEntity
  8
0
100
AcDbLine
 10
-21.00000000000006
 20
22.99999999999997
 30
0.0
 11
-21.00000000000008
 21
-16.875
 31
0.0
  0
ARC
  5
827
330
1F
100
AcDbEntity
  8
1
100
AcDbCircle
 10
-22.00000000000006
 20
17.0
 30
0.0
 40
1.0
100
AcDbArc
 50
270.0
 51
0.0
  0
ARC
  5
828
330
1F
100
AcDbEntity
  8
0
100
AcDbCircle
 10
-23.58066760772692
 20
45.56033420281734
 30
0.0
 40
5.0
100
AcDbArc
 50
105.0000045313193
 51
152.0000000000002
1001
GENIUS_GENOBJ-N-FIL_13
1002
{
1000
OWNER
1000
GEN
1002
}
1001
GENIUS_GENODEF_13
1002
{
1000
HIER
1070
     0
1002
}
1002
{
1000
MANEDIT
1070
     0
1002
}
1002
{
1000
NOSEL
1070
     0
1002
}
1002
{
1000
BEHIND
1070
     0
1002
}
1002
{
1000
OTHER
1070
     0
1002
}
1002
{
1000
REACTOR
1002
}
  0
LINE
  5
829
330
1F
100
AcDbEntity
  8
0
100
AcDbLine
 10
-48.19999999999999
 20
39.99999999999996
 30
0.0
 11
-35.20430309513784
 21
39.99999999999995
 31
0.0
  0
ARC
  5
82A
330
1F
100
AcDbEntity
  8
0
100
AcDbCircle
 10
-35.20430309513784
 20
44.99999999999993
 30
0.0
 40
5.0
100
AcDbArc
 50
270.0
 51
332.0000000000002
1001
GENIUS_GENOBJ-N-FIL_13
1002
{
1000
OWNER
1000
GEN
1002
}
1001
GENIUS_GENODEF_13
1002
{
1000
HIER
1070
     0
1002
}
1002
{
1000
MANEDIT
1070
     0
1002
}
1002
{
1000
NOSEL
1070
     0
1002
}
1002
{
1000
BEHIND
1070
     0
1002
}
1002
{
1000
OTHER
1070
     0
1002
}
1002
{
1000
REACTOR
1002
}
  0
ARC
  5
82B
330
1F
100
AcDbEntity
  8
1
100
AcDbCircle
 10
-48.0
 20
37.99999999999997
 30
0.0
 40
2.0
100
AcDbArc
 50
90.0
 51
180.0
  0
LINE
  5
82C
330
1F
100
AcDbEntity
  8
0
370
    -3
100
AcDbLine
 10
-30.78956513084319
 20
42.65264218607052
 30
0.0
 11
-27.99540557202155
 21
47.9076920167468
 31
0.0
  0
ARC
  5
82D
330
1F
100
AcDbEntity
  8
0
100
AcDbCircle
 10
-23.58066760772707
 20
-45.56033420281742
 30
0.0
 40
5.0
100
AcDbArc
 50
207.9999999999997
 51
254.9999954686807
1001
GENIUS_GENOBJ-N-FIL_13
1002
{
1000
OWNER
1000
GEN
1002
}
1001
GENIUS_GENODEF_13
1002
{
1000
HIER
1070
     0
1002
}
1002
{
1000
MANEDIT
1070
     0
1002
}
1002
{
1000
NOSEL
1070
     0
1002
}
1002
{
1000
BEHIND
1070
     0
1002
}
1002
{
1000
OTHER
1070
     0
1002
}
1002
{
1000
REACTOR
1002
}
  0
LINE
  5
82E
330
1F
100
AcDbEntity
  8
0
100
AcDbLine
 10
-48.2000000000001
 20
-39.99999999999995
 30
0.0
 11
-35.20430309513797
 21
-39.99999999999995
 31
0.0
  0
ARC
  5
82F
330
1F
100
AcDbEntity
  8
0
100
AcDbCircle
 10
-35.204303095138
 20
-44.99999999999993
 30
0.0
 40
5.0
100
AcDbArc
 50
27.99999999999978
 51
90.0
1001
GENIUS_GENOBJ-N-FIL_13
1002
{
1000
OWNER
1000
GEN
1002
}
1001
GENIUS_GENODEF_13
1002
{
1000
HIER
1070
     0
1002
}
1002
{
1000
MANEDIT
1070
     0
1002
}
1002
{
1000
NOSEL
1070
     0
1002
}
1002
{
1000
BEHIND
1070
     0
1002
}
1002
{
1000
OTHER
1070
     0
1002
}
1002
{
1000
REACTOR
1002
}
  0
ARC
  5
830
330
1F
100
AcDbEntity
  8
1
100
AcDbCircle
 10
-48.00000000000011
 20
-37.99999999999994
 30
0.0
 40
2.0
100
AcDbArc
 50
180.0
 51
270.0
  0
LINE
  5
831
330
1F
100
AcDbEntity
  8
0
370
    -3
100
AcDbLine
 10
-30.7895651308433
 20
-42.65264218607054
 30
0.0
 11
-27.9954055720217
 21
-47.90769201674684
 31
0.0
  0
DIMENSION
  5
936
330
1F
100
AcDbEntity
  8
AM_5
100
AcDbDimension
  2
*D10
 10
22.02535759856188
 20
49.9999561961594
 30
0.0
 11
22.02535759856187
 21
0.0890299124532704
 31
0.0
 70
   160
  1
%%c<>
 71
     5
 42
99.99999999999987
  3
AM_JIS$0
100
AcDbAlignedDimension
 13
1.710455181365773
 23
-0.0000438038405263
 33
0.0
 14
0.0
 24
49.9999561961594
 34
0.0
 50
90.0
100
AcDbRotatedDimension
1001
ACAD
1000
DSTYLE
1002
{
1070
    75
1070
     1
1070
   144
1040
2.0
1070
   173
1070
     1
1070
   179
1070
     0
1070
   271
1070
     0
1070
   343
1005
3DD
1002
}
  0
DIMENSION
  5
937
330
1F
100
AcDbEntity
  8
AM_5
100
AcDbDimension
  2
*D11
 10
38.07744611298939
 20
53.87669966133068
 30
0.0
 11
38.07744611298939
 21
0.4651319155696002
 31
0.0
 70
   160
  1
%%c<>
 71
     5
 42
107.7534869303424
  3
AM_JIS$0
100
AcDbAlignedDimension
 13
1.710455181365773
 23
-0.0000438038405263
 33
0.0
 14
-8.524463263862344
 24
53.87669966133069
 34
0.0
 50
90.0
100
AcDbRotatedDimension
1001
ACAD
1000
DSTYLE
1002
{
1070
    75
1070
     1
1070
   144
1040
2.0
1070
   173
1070
     1
1070
   179
1070
     0
1070
   271
1070
     0
1070
   343
1005
3DD
1002
}
  0
DIMENSION
  5
938
330
1F
100
AcDbEntity
  8
AM_5
100
AcDbDimension
  2
*D12
 10
-0.0000215500893985
 20
76.57609724136865
 30
0.0
 11
-25.00028887000542
 21
79.97609724136863
 31
0.0
 70
    32
  1
<>
 71
     5
 42
50.00053463983204
  3
AM_JIS$0
100
AcDbAlignedDimension
 13
-50.00055618992143
 23
32.99995619615947
 33
0.0
 14
-0.0000215500894001
 24
49.99564183716916
 34
0.0
100
AcDbRotatedDimension
1001
ACAD
1000
DSTYLE
1002
{
1070
   179
1070
     0
1070
   271
1070
     0
1002
}
  0
LINE
  5
939
330
1F
100
AcDbEntity
  8
0
100
AcDbLine
 10
-11.63284557445684
 20
52.50213034956914
 30
0.0
 11
-13.19726089154414
 21
49.14723087552431
 31
0.0
  0
LINE
  5
93A
330
1F
100
AcDbEntity
  8
0
100
AcDbLine
 10
-14.76167620863146
 20
45.79233140147937
 30
0.0
 11
-13.19726089154414
 21
49.14723087552431
 31
0.0
  0
LINE
  5
93B
330
1F
100
AcDbEntity
  8
0
100
AcDbLine
 10
-8.113479955852767
 20
53.78307467824082
 30
0.0
 11
-4.758580481808052
 21
52.21865936115353
 31
0.0
  0
LINE
  5
93C
330
1F
100
AcDbEntity
  8
0
100
AcDbLine
 10
-13.48073187995976
 20
42.27296578287542
 30
0.0
 11
-10.12583240591482
 21
40.7085504657881
 31
0.0
  0
LINE
  5
93D
330
1F
100
AcDbEntity
  8
0
100
AcDbLine
 10
-6.77093383817771
 20
39.14413557131911
 30
0.0
 11
-10.12583240591482
 21
40.7085504657881
 31
0.0
  0
LINE
  5
93E
330
1F
100
AcDbEntity
  8
0
100
AcDbLine
 10
-0.1227366790914175
 20
47.13487842546225
 30
0.0
 11
-1.687151996178613
 21
43.77997895141742
 31
0.0
  0
LINE
  5
93F
102
{ACAD_REACTORS
330
962
102
}
330
1F
100
AcDbEntity
  8
0
100
AcDbLine
 10
-1.403681914070944
 20
50.65424446668453
 30
0.0
 11
-4.758580481808052
 21
52.21865936115353
 31
0.0
  0
LINE
  5
940
330
1F
100
AcDbEntity
  8
0
100
AcDbLine
 10
-3.251567313266035
 20
40.42507947737249
 30
0.0
 11
-1.687151996178613
 21
43.77997895141742
 31
0.0
  0
CIRCLE
  5
941
330
1F
100
AcDbEntity
  8
1
100
AcDbCircle
 10
-7.442206443861437
 20
46.4636049134708
 30
0.0
 40
2.299999999999998
  0
SPLINE
  5
942
330
1F
100
AcDbEntity
  8
0
100
AcDbSpline
210
0.0
220
0.0
230
1.0
 70
     8
 71
     3
 72
    11
 73
     7
 74
     5
 42
0.0000000001
 43
0.0000000001
 44
0.0000000001
 40
0.0
 40
0.0
 40
0.0
 40
0.0
 40
0.1043112552939332
 40
0.2086220543370395
 40
0.3129324750484603
 40
0.4172434765872135
 40
0.4172434765872135
 40
0.4172434765872135
 40
0.4172434765872135
 10
-0.029223733565118
 20
47.53859858184295
 30
0.0
 10
-0.0309198435195099
 20
47.50383384403787
 30
0.0
 10
-0.034312056009616
 20
47.43430452048646
 30
0.0
 10
-0.0533157502965489
 20
47.33148859941106
 30
0.0
 10
-0.0814532639728757
 20
47.23078855584772
 30
0.0
 10
-0.1089755151768089
 20
47.16684852826301
 30
0.0
 10
-0.1227366790914175
 20
47.13487842546225
 30
0.0
 11
-0.029223733565118
 21
47.53859858184295
 31
0.0
 11
-0.0366313089692767
 21
47.43455068033779
 31
0.0
 11
-0.0548380826877519
 21
47.331841108302
 31
0.0
 11
-0.0836441780533051
 21
47.23158706729225
 31
0.0
 11
-0.1227366790914175
 21
47.13487842546225
 31
0.0
  0
LINE
  5
943
330
1F
100
AcDbEntity
  8
0
100
AcDbLine
 10
-0.0267988923968687
 20
47.74466788910457
 30
0.0
 11
-0.0291130249275966
 21
47.54586124978231
 31
0.0
  0
LINE
  5
944
330
1F
100
AcDbEntity
  8
0
100
AcDbLine
 10
-0.0146185147581264
 20
48.79144511373477
 30
0.0
 11
-0.0267988923968687
 21
47.74466788910457
 31
0.0
  0
LINE
  5
945
330
1F
100
AcDbEntity
  8
0
100
AcDbLine
 10
-5.114367149905206
 20
39.03601740698594
 30
0.0
 11
-6.161144374535409
 21
39.04819778462456
 31
0.0
  0
LINE
  5
946
330
1F
100
AcDbEntity
  8
0
100
AcDbLine
 10
-6.161144374535409
 20
39.04819778462456
 30
0.0
 11
-6.359950530168247
 21
39.05051058822937
 31
0.0
  0
SPLINE
  5
947
330
1F
100
AcDbEntity
  8
0
100
AcDbSpline
210
0.0
220
0.0
230
1.0
 70
     8
 71
     3
 72
    11
 73
     7
 74
     5
 42
0.0000000001
 43
0.0000000001
 44
0.0000000001
 40
0.0
 40
0.0
 40
0.0
 40
0.0
 40
0.1043112552940528
 40
0.2086223122822793
 40
0.3129337207665998
 40
0.4172446701487293
 40
0.4172446701487293
 40
0.4172446701487293
 40
0.4172446701487293
 10
-6.367212775489293
 20
39.0506222031745
 30
0.0
 10
-6.401977495272534
 20
39.0523184198522
 30
0.0
 10
-6.471506868747909
 20
39.05571084998295
 30
0.0
 10
-6.57432346761242
 20
39.07471303627725
 30
0.0
 10
-6.675023877889042
 20
39.10285101284405
 30
0.0
 10
-6.738963898317757
 20
39.13037407201685
 30
0.0
 10
-6.77093383817771
 20
39.14413557131911
 30
0.0
 11
-6.367212775489293
 21
39.0506222031745
 31
0.0
 11
-6.471260676994575
 21
39.05802977857866
 31
0.0
 11
-6.573970671648567
 21
39.07623564598941
 31
0.0
 11
-6.674225618966032
 21
39.10504216397328
 31
0.0
 11
-6.77093383817771
 21
39.14413557131911
 31
0.0
  0
SPLINE
  5
948
330
1F
100
AcDbEntity
  8
0
100
AcDbSpline
210
0.0
220
0.0
230
1.0
 70
     8
 71
     3
 72
    11
 73
     7
 74
     5
 42
0.0000000001
 43
0.0000000001
 44
0.0000000001
 40
0.0
 40
0.0
 40
0.0
 40
0.0
 40
0.104310898107465
 40
0.2086219550956806
 40
0.31293237580715
 40
0.4172433251892333
 40
0.4172433251892333
 40
0.4172433251892333
 40
0.4172433251892333
 10
-14.85519006046559
 20
45.3886116677171
 30
0.0
 10
-14.85349345823611
 20
45.42337624134549
 30
0.0
 10
-14.85010025119297
 20
45.49290544155377
 30
0.0
 10
-14.83109840310906
 20
45.59572160467356
 30
0.0
 10
-14.80296068271141
 20
45.69642176131059
 30
0.0
 10
-14.77543772324023
 20
45.76036146741291
 30
0.0
 10
-14.76167620863146
 20
45.79233140147937
 30
0.0
 11
-14.85519006046559
 21
45.3886116677171
 31
0.0
 11
-14.8477815787536
 21
45.49265914660395
 31
0.0
 11
-14.82957571134295
 21
45.59536914125795
 31
0.0
 11
-14.80076961597717
 21
45.69562318226768
 31
0.0
 11
-14.76167620863146
 21
45.79233140147937
 31
0.0
  0
LINE
  5
949
330
1F
100
AcDbEntity
  8
0
100
AcDbLine
 10
-14.857613995326
 20
45.18254193783717
 30
0.0
 11
-14.85530076910288
 21
45.38134899977761
 31
0.0
  0
LINE
  5
94A
330
1F
100
AcDbEntity
  8
0
100
AcDbLine
 10
-14.86979437296475
 20
44.13576471320686
 30
0.0
 11
-14.857613995326
 21
45.18254193783717
 31
0.0
  0
LINE
  5
94B
330
1F
100
AcDbEntity
  8
0
100
AcDbLine
 10
-8.723269419495068
 20
53.87901246493537
 30
0.0
 11
-8.524463263862344
 21
53.87669966133069
 31
0.0
  0
LINE
  5
94C
330
1F
100
AcDbEntity
  8
0
100
AcDbLine
 10
-9.770046644125386
 20
53.89119284257413
 30
0.0
 11
-8.723269419495068
 21
53.87901246493537
 31
0.0
  0
SPLINE
  5
94D
330
1F
100
AcDbEntity
  8
0
100
AcDbSpline
210
0.0
220
0.0
230
1.0
 70
     8
 71
     3
 72
    11
 73
     7
 74
     5
 42
0.0000000001
 43
0.0000000001
 44
0.0000000001
 40
0.0
 40
0.0
 40
0.0
 40
0.0
 40
0.1043112552938368
 40
0.208622312282175
 40
0.3129337207664997
 40
0.4172446701487321
 40
0.4172446701487321
 40
0.4172446701487321
 40
0.4172446701487321
 10
-8.517201018541186
 20
53.87658804638556
 30
0.0
 10
-8.48243629875802
 20
53.87489182970781
 30
0.0
 10
-8.412906925282689
 20
53.87149939957694
 30
0.0
 10
-8.310090326418206
 20
53.85249721328271
 30
0.0
 10
-8.209389916141518
 20
53.82435923671586
 30
0.0
 10
-8.145449895712758
 20
53.79683617754309
 30
0.0
 10
-8.113479955852767
 20
53.78307467824082
 30
0.0
 11
-8.517201018541186
 21
53.87658804638556
 31
0.0
 11
-8.413153117036129
 21
53.86918047098129
 31
0.0
 11
-8.310443122382025
 21
53.85097460357052
 31
0.0
 11
-8.210188175064557
 21
53.82216808558665
 31
0.0
 11
-8.113479955852767
 21
53.78307467824082
 31
0.0
  0
LINE
  5
94E
330
1F
100
AcDbEntity
  8
0
100
AcDbLine
 10
-13.94618960008881
 20
42.67842399238316
 30
0.0
 11
-13.81662775616917
 21
42.52761628310361
 31
0.0
  0
LINE
  5
94F
330
1F
100
AcDbEntity
  8
0
100
AcDbLine
 10
-14.62837574078855
 20
43.47247247266715
 30
0.0
 11
-13.94618960008881
 21
42.67842399238316
 31
0.0
  0
SPLINE
  5
950
330
1F
100
AcDbEntity
  8
0
100
AcDbSpline
210
0.0
220
0.0
230
1.0
 70
     8
 71
     3
 72
    11
 73
     7
 74
     5
 42
0.0000000001
 43
0.0000000001
 44
0.0000000001
 40
0.0
 40
0.0
 40
0.0
 40
0.0
 40
0.1043112552939483
 40
0.2086223122822028
 40
0.3129337207665566
 40
0.4172446701486649
 40
0.4172446701486649
 40
0.4172446701486649
 40
0.4172446701486649
 10
-13.8118741728498
 20
42.52212482513459
 30
0.0
 10
-13.78822846435864
 20
42.49658381179187
 30
0.0
 10
-13.74093709232907
 20
42.44550183366231
 30
0.0
 10
-13.66029133729108
 20
42.3789541193486
 30
0.0
 10
-13.57400742068518
 20
42.31989987233536
 30
0.0
 10
-13.5118236812536
 20
42.28861045640984
 30
0.0
 10
-13.48073187995976
 20
42.27296578287542
 30
0.0
 11
-13.8118741728498
 21
42.52212482513459
 31
0.0
 11
-13.73931893897304
 21
42.44718100605598
 31
0.0
 11
-13.65935172345632
 21
42.38020309139368
 31
0.0
 11
-13.57284201248365
 21
42.32191981894425
 31
0.0
 11
-13.48073187995976
 21
42.27296578287542
 31
0.0
  0
SPLINE
  5
951
330
1F
100
AcDbEntity
  8
0
100
AcDbSpline
210
0.0
220
0.0
230
1.0
 70
     8
 71
     3
 72
    11
 73
     7
 74
     5
 42
0.0000000001
 43
0.0000000001
 44
0.0000000001
 40
0.0
 40
0.0
 40
0.0
 40
0.0
 40
0.1043108981074446
 40
0.2086219550957761
 40
0.3129323758071133
 40
0.4172433251893225
 40
0.4172433251893225
 40
0.4172433251893225
 40
0.4172433251893225
 10
-11.3836878611238
 20
52.83327215876976
 30
0.0
 10
-11.40922851467751
 20
52.8096262488753
 30
0.0
 10
-11.46030986068711
 20
52.76233439307017
 30
0.0
 10
-11.52685745859836
 20
52.68168917720764
 30
0.0
 10
-11.58591167597503
 20
52.5954056198752
 30
0.0
 10
-11.61720091519938
 20
52.53322215886455
 30
0.0
 10
-11.63284557445684
 20
52.50213034956914
 30
0.0
 11
-11.3836878611238
 21
52.83327215876976
 31
0.0
 11
-11.45863077389447
 21
52.7607165022747
 31
0.0
 11
-11.52560868855687
 21
52.68074928675797
 31
0.0
 11
-11.583891538388
 21
52.59424048209314
 31
0.0
 11
-11.63284557445684
 21
52.50213034956914
 31
0.0
  0
LINE
  5
952
330
1F
100
AcDbEntity
  8
0
100
AcDbLine
 10
-11.22738736494909
 20
52.96758806969831
 30
0.0
 11
-11.37819549684684
 21
52.83802531947094
 31
0.0
  0
LINE
  5
953
330
1F
100
AcDbEntity
  8
0
100
AcDbLine
 10
-10.43333888466509
 20
53.64977421039792
 30
0.0
 11
-11.22738736494909
 21
52.96758806969831
 31
0.0
  0
SPLINE
  5
954
330
1F
100
AcDbEntity
  8
0
100
AcDbSpline
210
0.0
220
0.0
230
1.0
 70
     8
 71
     3
 72
    11
 73
     7
 74
     5
 42
0.0000000001
 43
0.0000000001
 44
0.0000000001
 40
0.0
 40
0.0
 40
0.0
 40
0.0
 40
0.1043112552939471
 40
0.2086223122821778
 40
0.3129337207666469
 40
0.4172446701487979
 40
0.4172446701487979
 40
0.4172446701487979
 40
0.4172446701487979
 10
-1.07253962118068
 20
50.40508542442545
 30
0.0
 10
-1.0961853296719
 20
50.43062643776813
 30
0.0
 10
-1.143476701701575
 20
50.48170841589755
 30
0.0
 10
-1.224122456739382
 20
50.54825613021151
 30
0.0
 10
-1.310406373345392
 20
50.60731037722472
 30
0.0
 10
-1.372590112777062
 20
50.63859979315015
 30
0.0
 10
-1.403681914070944
 20
50.65424446668453
 30
0.0
 11
-1.07253962118068
 21
50.40508542442545
 31
0.0
 11
-1.14509485505755
 21
50.48002924350396
 31
0.0
 11
-1.225062070574153
 21
50.54700715816636
 31
0.0
 11
-1.311571781546945
 21
50.60529043061581
 31
0.0
 11
-1.403681914070944
 21
50.65424446668453
 31
0.0
  0
LINE
  5
955
330
1F
100
AcDbEntity
  8
0
100
AcDbLine
 10
-0.9382241939416644
 20
50.2487862571769
 30
0.0
 11
-1.067786037861309
 21
50.39959396645645
 31
0.0
  0
LINE
  5
956
330
1F
100
AcDbEntity
  8
0
100
AcDbLine
 10
-0.2560380532421504
 20
49.45473777689278
 30
0.0
 11
-0.9382241939416644
 21
50.2487862571769
 31
0.0
  0
LINE
  5
957
330
1F
100
AcDbEntity
  8
0
100
AcDbLine
 10
-4.451074003057668
 20
39.27743561654381
 30
0.0
 11
-3.657025522773665
 21
39.95962175724344
 31
0.0
  0
LINE
  5
958
330
1F
100
AcDbEntity
  8
0
100
AcDbLine
 10
-3.657025522773665
 20
39.95962175724344
 30
0.0
 11
-3.506218297183636
 21
40.08918493008912
 31
0.0
  0
SPLINE
  5
959
330
1F
100
AcDbEntity
  8
0
100
AcDbSpline
210
0.0
220
0.0
230
1.0
 70
     8
 71
     3
 72
    11
 73
     7
 74
     5
 42
0.0000000001
 43
0.0000000001
 44
0.0000000001
 40
0.0
 40
0.0
 40
0.0
 40
0.0
 40
0.1043112552941004
 40
0.2086220543370309
 40
0.3129324750485064
 40
0.417243476587133
 40
0.417243476587133
 40
0.417243476587133
 40
0.417243476587133
 10
-3.500725932906902
 20
40.09393809079017
 30
0.0
 10
-3.475184837158125
 20
40.11758372911079
 30
0.0
 10
-3.424102757375794
 20
40.16487490232743
 30
0.0
 10
-3.357556531597889
 20
40.24552137688057
 30
0.0
 10
-3.298502267962855
 20
40.33180470317282
 30
0.0
 10
-3.267212327203296
 20
40.39398782826416
 30
0.0
 10
-3.251567313266035
 20
40.42507947737249
 30
0.0
 11
-3.500725932906902
 21
40.09393809079017
 31
0.0
 11
-3.425782113828176
 21
40.16649332466704
 31
0.0
 11
-3.358805105473834
 21
40.24646096280195
 31
0.0
 11
-3.300522255642476
 21
40.33296976746679
 31
0.0
 11
-3.251567313266035
 21
40.42507947737249
 31
0.0
  0
SPLINE
  5
95A
330
1F
100
AcDbEntity
  8
0
100
AcDbSpline
210
0.0
220
0.0
230
1.0
 70
     8
 71
     3
 72
    11
 73
     7
 74
     5
 42
0.0000000001
 43
0.0000000001
 44
0.0000000001
 40
0.0
 40
0.0
 40
0.0
 40
0.0
 40
0.1800809736896215
 40
0.3602119815254432
 40
0.5403429893614651
 40
0.7204248334046884
 40
0.7204248334046884
 40
0.7204248334046884
 40
0.7204248334046884
 10
-0.0146185147581264
 20
48.79144511373489
 30
0.0
 10
-0.0170338940471447
 20
48.85160641859576
 30
0.0
 10
-0.0218653237201782
 20
48.97194574368427
 30
0.0
 10
-0.0704293960257753
 20
49.14671232359153
 30
0.0
 10
-0.1455649926385155
 20
49.31180802317183
 30
0.0
 10
-0.2192170505176371
 20
49.40709886092163
 30
0.0
 10
-0.2560380532421504
 20
49.45473777689278
 30
0.0
 11
-0.0146185147581264
 21
48.79144511373489
 31
0.0
 11
-0.0287485197535489
 21
48.97097087802467
 31
0.0
 11
-0.074858373311713
 21
49.14510031662938
 31
0.0
 11
-0.1514644218373178
 21
49.30813004800778
 31
0.0
 11
-0.2560380532421504
 21
49.45473777689278
 31
0.0
  0
SPLINE
  5
95B
330
1F
100
AcDbEntity
  8
0
100
AcDbSpline
210
0.0
220
0.0
230
1.0
 70
     8
 71
     3
 72
    11
 73
     7
 74
     5
 42
0.0000000001
 43
0.0000000001
 44
0.0000000001
 40
0.0
 40
0.0
 40
0.0
 40
0.0
 40
0.1800804812631998
 40
0.3602121296346852
 40
0.5403423695416497
 40
0.7204242135848995
 40
0.7204242135848995
 40
0.7204242135848995
 40
0.7204242135848995
 10
-14.86979437296475
 20
44.13576471320686
 30
0.0
 10
-14.86737945968857
 20
44.07560351531385
 30
0.0
 10
-14.86254894697562
 20
43.95526402564565
 30
0.0
 10
-14.81398311455643
 20
43.7804981178582
 30
0.0
 10
-14.73884894029964
 20
43.6154019029809
 30
0.0
 10
-14.66519684214573
 20
43.52011134855557
 30
0.0
 10
-14.62837574078855
 20
43.47247247266715
 30
0.0
 11
-14.86979437296475
 21
44.13576471320686
 31
0.0
 11
-14.85566527427704
 21
43.95623937153539
 31
0.0
 11
-14.80955451441093
 21
43.78210951031222
 31
0.0
 11
-14.73294937219327
 21
43.61908020155225
 31
0.0
 11
-14.62837574078855
 21
43.47247247266715
 31
0.0
  0
SPLINE
  5
95C
330
1F
100
AcDbEntity
  8
0
100
AcDbSpline
210
0.0
220
0.0
230
1.0
 70
     8
 71
     3
 72
    11
 73
     7
 74
     5
 42
0.0000000001
 43
0.0000000001
 44
0.0000000001
 40
0.0
 40
0.0
 40
0.0
 40
0.0
 40
0.1800818440432648
 40
0.3602128518790933
 40
0.5403438597151152
 40
0.7204248334047771
 40
0.7204248334047771
 40
0.7204248334047771
 40
0.7204248334047771
 10
-5.114367149905206
 20
39.03601740698582
 30
0.0
 10
-5.054205538721731
 20
39.03843258738385
 30
0.0
 10
-4.9338658917508
 20
39.04326360754357
 30
0.0
 10
-4.759099017955369
 20
39.09182787138064
 30
0.0
 10
-4.59400366662053
 20
39.16696342580742
 30
0.0
 10
-4.498712812216817
 20
39.24061496307905
 30
0.0
 10
-4.451074003057668
 20
39.27743561654381
 30
0.0
 11
-5.114367149905206
 21
39.03601740698582
 31
0.0
 11
-4.934840479307581
 21
39.05014698936304
 31
0.0
 11
-4.760711040702858
 21
39.09625684292121
 31
0.0
 11
-4.597681309324457
 21
39.17286289144681
 31
0.0
 11
-4.451074003057668
 21
39.27743561654381
 31
0.0
  0
SPLINE
  5
95D
330
1F
100
AcDbEntity
  8
0
100
AcDbSpline
210
0.0
220
0.0
230
1.0
 70
     8
 71
     3
 72
    11
 73
     7
 74
     5
 42
0.0000000001
 43
0.0000000001
 44
0.0000000001
 40
0.0
 40
0.0
 40
0.0
 40
0.0
 40
0.180081844043133
 40
0.3602120839503114
 40
0.5403437323216938
 40
0.7204242135851336
 40
0.7204242135851336
 40
0.7204242135851336
 40
0.7204242135851336
 10
-9.770046644125386
 20
53.891192842574
 30
0.0
 10
-9.830208288003525
 20
53.88877776349783
 30
0.0
 10
-9.950547743823566
 20
53.88394695630814
 30
0.0
 10
-10.12531409808661
 20
53.83538127165664
 30
0.0
 10
-10.29041006592708
 20
53.76024749758528
 30
0.0
 10
-10.38570045699545
 20
53.68659515209162
 30
0.0
 10
-10.4333388846652
 20
53.64977421039782
 30
0.0
 11
-9.770046644125386
 21
53.891192842574
 31
0.0
 11
-9.949573314722897
 21
53.87706326019702
 31
0.0
 11
-10.12370184702001
 21
53.83095298402054
 31
0.0
 11
-10.28673248470613
 21
53.75434735811325
 31
0.0
 11
-10.4333388846652
 21
53.64977421039782
 31
0.0
  0
LINE
  5
95E
330
1F
100
AcDbEntity
  8
AM_4
370
    -3
100
AcDbLine
 10
0.0
 20
50.0
 30
0.0
 11
0.0
 21
50.0
 31
0.0
  0
LINE
  5
95F
102
{ACAD_REACTORS
330
962
102
}
330
1F
100
AcDbEntity
  8
AM_4
370
    -3
100
AcDbLine
 10
0.0
 20
50.0
 30
0.0
 11
0.0
 21
49.87203492077924
 31
0.0
  0
DIMENSION
  5
960
102
{ACAD_XDICTIONARY
360
961
102
}
102
{ACAD_REACTORS
330
962
102
}
330
1F
100
AcDbEntity
  8
AM_5
100
AcDbDimension
  2
*D13
 10
-4.758580481808052
 20
52.21865936115353
 30
0.0
 11
-11.30333081682867
 21
67.74237219710318
 31
0.0
 70
    34
 71
     5
 42
1.13446401379634
  3
AM_JIS$2
100
AcDb2LineAngularDimension
 13
0.0
 23
50.0
 33
0.0
 14
0.0
 24
49.87203492077924
 34
0.0
 15
-1.403681914070944
 25
50.65424446668453
 35
0.0
 16
-6.567178969104577
 26
66.53027619441751
 36
0.0
1001
ACAD_DIMASSOC_DIMLFAC
1040
1.0
1001
ACAD_DIMASSOC_CALC_DIMLFAC
1040
1.0
1001
ACAD_DIMASSOC_OVERRIDDEN_DIMLFAC
1040
1.0
1001
ACAD
1000
DSTYLE
1002
{
1070
   144
1040
1.0
1070
   271
1070
     0
1002
}
  0
LINE
  5
9B3
330
1F
100
AcDbEntity
  8
0
  6
ACISOTGL
100
AcDbLine
 10
-8.113479955852767
 20
-53.78307467824082
 30
0.0
 11
-4.758580481808052
 21
-52.2186593611535
 31
0.0
  0
LINE
  5
9B4
330
1F
100
AcDbEntity
  8
0
  6
ACISOTGL
100
AcDbLine
 10
-0.1227366790914175
 20
-47.13487842546224
 30
0.0
 11
-1.687151996178613
 21
-43.77997895141741
 31
0.0
  0
LINE
  5
9B5
330
1F
100
AcDbEntity
  8
0
  6
ACISOTGL
100
AcDbLine
 10
-1.403681914070944
 20
-50.6542444666845
 30
0.0
 11
-4.758580481808052
 21
-52.2186593611535
 31
0.0
  0
LINE
  5
9B6
330
1F
100
AcDbEntity
  8
0
  6
ACISOTGL
100
AcDbLine
 10
-3.251567313266035
 20
-40.42507947737248
 30
0.0
 11
-1.687151996178613
 21
-43.77997895141741
 31
0.0
  0
SPLINE
  5
9B7
330
1F
100
AcDbEntity
  8
0
  6
ACISOTGL
100
AcDbSpline
210
0.0
220
0.0
230
1.0
 70
     8
 71
     3
 72
    11
 73
     7
 74
     5
 42
0.0000000001
 43
0.0000000001
 44
0.0000000001
 40
0.0
 40
0.0
 40
0.0
 40
0.0
 40
0.1043112552939403
 40
0.2086220543370536
 40
0.3129324750484471
 40
0.4172434765872068
 40
0.4172434765872068
 40
0.4172434765872068
 40
0.4172434765872068
 10
-0.029223733565118
 20
-47.53859858184294
 30
0.0
 10
-0.0309198435195101
 20
-47.50383384403785
 30
0.0
 10
-0.0343120560096169
 20
-47.43430452048642
 30
0.0
 10
-0.0533157502965431
 20
-47.33148859941106
 30
0.0
 10
-0.081453263972883
 20
-47.23078855584771
 30
0.0
 10
-0.1089755151768098
 20
-47.166848528263
 30
0.0
 10
-0.1227366790914175
 20
-47.13487842546224
 30
0.0
 11
-0.029223733565118
 21
-47.53859858184294
 31
0.0
 11
-0.0366313089692767
 21
-47.43455068033777
 31
0.0
 11
-0.0548380826877519
 21
-47.33184110830197
 31
0.0
 11
-0.0836441780533051
 21
-47.23158706729225
 31
0.0
 11
-0.1227366790914175
 21
-47.13487842546224
 31
0.0
  0
LINE
  5
9B8
330
1F
100
AcDbEntity
  8
0
  6
ACISOTGL
100
AcDbLine
 10
-0.0267988923968687
 20
-47.74466788910454
 30
0.0
 11
-0.0291130249275966
 21
-47.54586124978231
 31
0.0
  0
LINE
  5
9B9
330
1F
100
AcDbEntity
  8
0
  6
ACISOTGL
100
AcDbLine
 10
-0.0146185147581264
 20
-48.79144511373475
 30
0.0
 11
-0.0267988923968687
 21
-47.74466788910454
 31
0.0
  0
LINE
  5
9BA
330
1F
100
AcDbEntity
  8
0
  6
ACISOTGL
100
AcDbLine
 10
-5.114367149905206
 20
-39.03601740698594
 30
0.0
 11
-5.962349721653254
 21
-39.0458845952585
 31
0.0
  0
LINE
  5
9BD
330
1F
100
AcDbEntity
  8
0
  6
ACISOTGL
100
AcDbLine
 10
-8.723269419495068
 20
-53.87901246493537
 30
0.0
 11
-8.524463263862344
 21
-53.87669966133067
 31
0.0
  0
LINE
  5
9BE
330
1F
100
AcDbEntity
  8
0
  6
ACISOTGL
100
AcDbLine
 10
-9.770046644125386
 20
-53.89119284257411
 30
0.0
 11
-8.723269419495068
 21
-53.87901246493537
 31
0.0
  0
SPLINE
  5
9BF
330
1F
100
AcDbEntity
  8
0
  6
ACISOTGL
100
AcDbSpline
210
0.0
220
0.0
230
1.0
 70
     8
 71
     3
 72
    11
 73
     7
 74
     5
 42
0.0000000001
 43
0.0000000001
 44
0.0000000001
 40
0.0
 40
0.0
 40
0.0
 40
0.0
 40
0.1043112552938358
 40
0.2086223122821716
 40
0.3129337207664963
 40
0.4172446701487286
 40
0.4172446701487286
 40
0.4172446701487286
 40
0.4172446701487286
 10
-8.517201018541186
 20
-53.87658804638554
 30
0.0
 10
-8.48243629875802
 20
-53.87489182970778
 30
0.0
 10
-8.412906925282689
 20
-53.87149939957694
 30
0.0
 10
-8.310090326418206
 20
-53.85249721328271
 30
0.0
 10
-8.209389916141518
 20
-53.82435923671588
 30
0.0
 10
-8.145449895712758
 20
-53.79683617754308
 30
0.0
 10
-8.113479955852767
 20
-53.78307467824082
 30
0.0
 11
-8.517201018541186
 21
-53.87658804638554
 31
0.0
 11
-8.413153117036129
 21
-53.86918047098127
 31
0.0
 11
-8.310443122382025
 21
-53.85097460357052
 31
0.0
 11
-8.210188175064557
 21
-53.82216808558665
 31
0.0
 11
-8.113479955852767
 21
-53.78307467824082
 31
0.0
  0
SPLINE
  5
9C0
330
1F
100
AcDbEntity
  8
0
  6
ACISOTGL
100
AcDbSpline
210
0.0
220
0.0
230
1.0
 70
     8
 71
     3
 72
    11
 73
     7
 74
     5
 42
0.0000000001
 43
0.0000000001
 44
0.0000000001
 40
0.0
 40
0.0
 40
0.0
 40
0.0
 40
0.1043108981074545
 40
0.2086219550957751
 40
0.3129323758071123
 40
0.4172433251893277
 40
0.4172433251893277
 40
0.4172433251893277
 40
0.4172433251893277
 10
-11.3836878611238
 20
-52.83327215876976
 30
0.0
 10
-11.4092285146775
 20
-52.80962624887529
 30
0.0
 10
-11.4603098606871
 20
-52.76233439307017
 30
0.0
 10
-11.52685745859837
 20
-52.68168917720763
 30
0.0
 10
-11.58591167597503
 20
-52.59540561987519
 30
0.0
 10
-11.61720091519937
 20
-52.53322215886453
 30
0.0
 10
-11.63284557445684
 20
-52.50213034956913
 30
0.0
 11
-11.3836878611238
 21
-52.83327215876976
 31
0.0
 11
-11.45863077389447
 21
-52.76071650227468
 31
0.0
 11
-11.52560868855687
 21
-52.68074928675797
 31
0.0
 11
-11.583891538388
 21
-52.59424048209313
 31
0.0
 11
-11.63284557445684
 21
-52.50213034956913
 31
0.0
  0
LINE
  5
9C1
330
1F
100
AcDbEntity
  8
0
  6
ACISOTGL
100
AcDbLine
 10
-11.22738736494909
 20
-52.9675880696983
 30
0.0
 11
-11.37819549684684
 21
-52.83802531947093
 31
0.0
  0
LINE
  5
9C2
330
1F
100
AcDbEntity
  8
0
  6
ACISOTGL
100
AcDbLine
 10
-10.43333888466509
 20
-53.64977421039792
 30
0.0
 11
-11.22738736494909
 21
-52.9675880696983
 31
0.0
  0
SPLINE
  5
9C3
330
1F
100
AcDbEntity
  8
0
  6
ACISOTGL
100
AcDbSpline
210
0.0
220
0.0
230
1.0
 70
     8
 71
     3
 72
    11
 73
     7
 74
     5
 42
0.0000000001
 43
0.0000000001
 44
0.0000000001
 40
0.0
 40
0.0
 40
0.0
 40
0.0
 40
0.104311255293942
 40
0.2086223122821773
 40
0.3129337207666345
 40
0.4172446701487855
 40
0.4172446701487855
 40
0.4172446701487855
 40
0.4172446701487855
 10
-1.07253962118068
 20
-50.40508542442545
 30
0.0
 10
-1.096185329671901
 20
-50.43062643776812
 30
0.0
 10
-1.14347670170158
 20
-50.48170841589754
 30
0.0
 10
-1.224122456739373
 20
-50.54825613021153
 30
0.0
 10
-1.310406373345399
 20
-50.60731037722466
 30
0.0
 10
-1.372590112777064
 20
-50.63859979315012
 30
0.0
 10
-1.403681914070944
 20
-50.6542444666845
 30
0.0
 11
-1.07253962118068
 21
-50.40508542442545
 31
0.0
 11
-1.14509485505755
 21
-50.48002924350395
 31
0.0
 11
-1.225062070574153
 21
-50.54700715816635
 31
0.0
 11
-1.311571781546945
 21
-50.60529043061579
 31
0.0
 11
-1.403681914070944
 21
-50.6542444666845
 31
0.0
  0
LINE
  5
9C4
330
1F
100
AcDbEntity
  8
0
  6
ACISOTGL
100
AcDbLine
 10
-0.9382241939416644
 20
-50.2487862571769
 30
0.0
 11
-1.067786037861309
 21
-50.39959396645643
 31
0.0
  0
LINE
  5
9C5
330
1F
100
AcDbEntity
  8
0
  6
ACISOTGL
100
AcDbLine
 10
-0.2560380532421504
 20
-49.45473777689278
 30
0.0
 11
-0.9382241939416644
 21
-50.2487862571769
 31
0.0
  0
LINE
  5
9C6
330
1F
100
AcDbEntity
  8
0
  6
ACISOTGL
100
AcDbLine
 10
-4.451074003057668
 20
-39.27743561654381
 30
0.0
 11
-3.657025522773665
 21
-39.95962175724343
 31
0.0
  0
LINE
  5
9C7
330
1F
100
AcDbEntity
  8
0
  6
ACISOTGL
100
AcDbLine
 10
-3.657025522773665
 20
-39.95962175724343
 30
0.0
 11
-3.506218297183636
 21
-40.08918493008911
 31
0.0
  0
SPLINE
  5
9C8
330
1F
100
AcDbEntity
  8
0
  6
ACISOTGL
100
AcDbSpline
210
0.0
220
0.0
230
1.0
 70
     8
 71
     3
 72
    11
 73
     7
 74
     5
 42
0.0000000001
 43
0.0000000001
 44
0.0000000001
 40
0.0
 40
0.0
 40
0.0
 40
0.0
 40
0.1043112552941004
 40
0.2086220543370309
 40
0.3129324750484947
 40
0.4172434765871212
 40
0.4172434765871212
 40
0.4172434765871212
 40
0.4172434765871212
 10
-3.500725932906902
 20
-40.09393809079017
 30
0.0
 10
-3.475184837158125
 20
-40.11758372911079
 30
0.0
 10
-3.424102757375792
 20
-40.16487490232743
 30
0.0
 10
-3.357556531597895
 20
-40.24552137688057
 30
0.0
 10
-3.298502267962851
 20
-40.33180470317279
 30
0.0
 10
-3.267212327203295
 20
-40.39398782826415
 30
0.0
 10
-3.251567313266035
 20
-40.42507947737248
 30
0.0
 11
-3.500725932906902
 21
-40.09393809079017
 31
0.0
 11
-3.425782113828176
 21
-40.16649332466704
 31
0.0
 11
-3.358805105473834
 21
-40.24646096280195
 31
0.0
 11
-3.300522255642476
 21
-40.33296976746679
 31
0.0
 11
-3.251567313266035
 21
-40.42507947737248
 31
0.0
  0
SPLINE
  5
9C9
330
1F
100
AcDbEntity
  8
0
  6
ACISOTGL
100
AcDbSpline
210
0.0
220
0.0
230
1.0
 70
     8
 71
     3
 72
    11
 73
     7
 74
     5
 42
0.0000000001
 43
0.0000000001
 44
0.0000000001
 40
0.0
 40
0.0
 40
0.0
 40
0.0
 40
0.1800809736896357
 40
0.3602119815254711
 40
0.5403429893614931
 40
0.7204248334047221
 40
0.7204248334047221
 40
0.7204248334047221
 40
0.7204248334047221
 10
-0.0146185147581264
 20
-48.79144511373485
 30
0.0
 10
-0.0170338940471449
 20
-48.85160641859573
 30
0.0
 10
-0.0218653237201787
 20
-48.97194574368424
 30
0.0
 10
-0.0704293960257721
 20
-49.14671232359153
 30
0.0
 10
-0.1455649926385176
 20
-49.31180802317183
 30
0.0
 10
-0.2192170505176373
 20
-49.40709886092162
 30
0.0
 10
-0.2560380532421504
 20
-49.45473777689278
 30
0.0
 11
-0.0146185147581264
 21
-48.79144511373485
 31
0.0
 11
-0.0287485197535489
 21
-48.97097087802465
 31
0.0
 11
-0.074858373311713
 21
-49.14510031662938
 31
0.0
 11
-0.1514644218373178
 21
-49.30813004800778
 31
0.0
 11
-0.2560380532421504
 21
-49.45473777689278
 31
0.0
  0
SPLINE
  5
9CA
330
1F
100
AcDbEntity
  8
0
  6
ACISOTGL
100
AcDbSpline
210
0.0
220
0.0
230
1.0
 70
     8
 71
     3
 72
    11
 73
     7
 74
     5
 42
0.0000000001
 43
0.0000000001
 44
0.0000000001
 40
0.0
 40
0.0
 40
0.0
 40
0.0
 40
0.1800818440432648
 40
0.3602128518790933
 40
0.5403438597151091
 40
0.7204248334047792
 40
0.7204248334047792
 40
0.7204248334047792
 40
0.7204248334047792
 10
-5.114367149905206
 20
-39.03601740698582
 30
0.0
 10
-5.054205538721731
 20
-39.03843258738385
 30
0.0
 10
-4.933865891750799
 20
-39.04326360754358
 30
0.0
 10
-4.759099017955373
 20
-39.09182787138064
 30
0.0
 10
-4.594003666620523
 20
-39.16696342580742
 30
0.0
 10
-4.498712812216814
 20
-39.24061496307903
 30
0.0
 10
-4.451074003057668
 20
-39.27743561654381
 30
0.0
 11
-5.114367149905206
 21
-39.03601740698582
 31
0.0
 11
-4.934840479307581
 21
-39.05014698936304
 31
0.0
 11
-4.760711040702858
 21
-39.09625684292121
 31
0.0
 11
-4.597681309324457
 21
-39.1728628914468
 31
0.0
 11
-4.451074003057668
 21
-39.27743561654381
 31
0.0
  0
SPLINE
  5
9CB
330
1F
100
AcDbEntity
  8
0
  6
ACISOTGL
100
AcDbSpline
210
0.0
220
0.0
230
1.0
 70
     8
 71
     3
 72
    11
 73
     7
 74
     5
 42
0.0000000001
 43
0.0000000001
 44
0.0000000001
 40
0.0
 40
0.0
 40
0.0
 40
0.0
 40
0.1800818440431336
 40
0.3602120839503102
 40
0.5403437323216896
 40
0.7204242135851251
 40
0.7204242135851251
 40
0.7204242135851251
 40
0.7204242135851251
 10
-9.770046644125386
 20
-53.89119284257399
 30
0.0
 10
-9.830208288003523
 20
-53.8887777634978
 30
0.0
 10
-9.950547743823562
 20
-53.8839469563081
 30
0.0
 10
-10.12531409808661
 20
-53.83538127165663
 30
0.0
 10
-10.29041006592708
 20
-53.76024749758528
 30
0.0
 10
-10.38570045699545
 20
-53.6865951520916
 30
0.0
 10
-10.4333388846652
 20
-53.64977421039782
 30
0.0
 11
-9.770046644125386
 21
-53.89119284257399
 31
0.0
 11
-9.949573314722897
 21
-53.87706326019699
 31
0.0
 11
-10.12370184702001
 21
-53.83095298402053
 31
0.0
 11
-10.28673248470613
 21
-53.75434735811325
 31
0.0
 11
-10.4333388846652
 21
-53.64977421039782
 31
0.0
  0
LINE
  5
9D9
330
1F
100
AcDbEntity
  8
AM_0
100
AcDbLine
 10
-7.004780000000009
 20
36.99999999999994
 30
0.0
 11
-6.141762056933544
 21
38.85074795142994
 31
0.0
  0
TEXT
  5
9DA
330
1F
100
AcDbEntity
  8
0
370
    -3
100
AcDbText
 10
-43.86557548961138
 20
-73.29120511998866
 30
0.0
 40
3.799999999999998
  1
DNX(F)12100RS
  7
ACISOTS
100
AcDbText
  0
ENDSEC
  0
SECTION
  2
OBJECTS
  0
DICTIONARY
  5
C
330
0
100
AcDbDictionary
281
     1
  3
ACAD_COLOR
350
BE
  3
ACAD_GROUP
350
D
  3
ACAD_LAYOUT
350
1A
  3
ACAD_MATERIAL
350
BD
  3
ACAD_MLINESTYLE
350
17
  3
ACAD_PLOTSETTINGS
350
19
  3
ACAD_PLOTSTYLENAME
350
E
  3
ACAD_TABLESTYLE
350
11A
  3
ACDBHEADERROUNDTRIPXREC
350
B15
  3
AcDbVariableDictionary
350
94
  3
AcmDictionary
350
5B
  3
AMG
350
41
  3
AMGSNAPSETTINGS
350
1B8
  3
DWGPROPS
350
B14
  0
DICTIONARY
  5
34B
330
2
100
AcDbDictionary
280
     1
281
     1
  3
ACAD_LAYERSTATES
360
461
  3
AMLAYER_GROUPCOLORS
360
34C
  0
DICTIONARY
  5
8F
330
1F
100
AcDbDictionary
280
     1
281
     1
  0
DICTIONARY
  5
7B3
330
7B2
100
AcDbDictionary
280
     1
281
     1
  3
ACAD_DIMASSOC
360
7B4
  0
DICTIONARY
  5
7B6
330
7B5
100
AcDbDictionary
280
     1
281
     1
  3
ACAD_DIMASSOC
360
7B7
  0
DICTIONARY
  5
7BC
330
7BB
100
AcDbDictionary
280
     1
281
     1
  3
ACAD_DIMASSOC
360
7BD
  0
DICTIONARY
  5
961
330
960
100
AcDbDictionary
280
     1
281
     1
  3
ACAD_DIMASSOC
360
962
  0
DICTIONARY
  5
BE
102
{ACAD_REACTORS
330
C
102
}
330
C
100
AcDbDictionary
281
     1
  0
DICTIONARY
  5
D
102
{ACAD_REACTORS
330
C
102
}
330
C
100
AcDbDictionary
281
     1
  0
DICTIONARY
  5
1A
102
{ACAD_REACTORS
330
C
102
}
330
C
100
AcDbDictionary
281
     1
  3
Model
350
22
  3
レイアウト1
350
1E
  3
レイアウト2
350
26
  0
DICTIONARY
  5
BD
102
{ACAD_REACTORS
330
C
102
}
330
C
100
AcDbDictionary
281
     1
  0
DICTIONARY
  5
17
102
{ACAD_REACTORS
330
C
102
}
330
C
100
AcDbDictionary
281
     1
  3
Standard
350
18
  0
DICTIONARY
  5
19
102
{ACAD_REACTORS
330
C
102
}
330
C
100
AcDbDictionary
281
     1
  0
ACDBDICTIONARYWDFLT
  5
E
102
{ACAD_REACTORS
330
C
102
}
330
C
100
AcDbDictionary
281
     1
  3
Normal
350
F
100
AcDbDictionaryWithDefault
340
F
  0
DICTIONARY
  5
11A
102
{ACAD_REACTORS
330
C
102
}
330
C
100
AcDbDictionary
281
     1
  3
Standard
350
11B
  0
DICTIONARY
  5
B15
102
{ACAD_REACTORS
330
C
102
}
330
C
100
AcDbDictionary
281
     1
  0
DICTIONARY
  5
94
102
{ACAD_REACTORS
330
C
102
}
330
C
100
AcDbDictionary
281
     1
  3
CTABLESTYLE
350
138
  3
DIMASSOC
350
96
  3
INDEXCTL
350
95
  3
PROJECTNAME
350
B12
  0
DICTIONARY
  5
5B
102
{ACAD_REACTORS
330
C
102
}
330
C
100
AcDbDictionary
281
     1
  3
AcmBOM
350
1B5
  3
AcmStdDictionary
350
61
  3
AMDTSECTSYM_ARROWCOLOR
350
123
  0
DICTIONARY
  5
41
102
{ACAD_REACTORS
330
C
102
}
330
C
100
AcDbDictionary
281
     1
  0
DICTIONARY
  5
1B8
102
{ACAD_REACTORS
330
C
102
}
330
C
100
AcDbDictionary
281
     1
  0
XRECORD
  5
B14
102
{ACAD_REACTORS
330
C
102
}
330
C
100
AcDbXrecord
280
     1
  1
DWGPROPS COOKIE
  2

  3

  4

  6

  7

  8

  9

300
AmdtFileType=84
301
=
302
=
303
=
304
=
305
=
306
=
307
=
308
=
309
=
 40
0.0164773263888889
 41
2455412.730832604
 42
2455555.427294016
  1

 90
        1
  0
DICTIONARY
  5
461
102
{ACAD_REACTORS
330
34B
102
}
330
34B
100
AcDbDictionary
281
     1
  0
DICTIONARY
  5
34C
102
{ACAD_REACTORS
330
34B
102
}
330
34B
100
AcDbDictionary
280
     1
281
     1
  0
DIMASSOC
  5
7B4
102
{ACAD_REACTORS
330
7B3
102
}
330
7B3
100
AcDbDimAssoc
330
7B2
 90
        2
 70
     0
 71
     0
  1
AcDbOsnapPointRef
 72
    13
331
7B0
 73
     0
 91
        0
 40
0.0
 10
0.0
 20
0.0
 30
2.000000000000000E+50
 75
     0
  0
DIMASSOC
  5
7B7
102
{ACAD_REACTORS
330
7B6
102
}
330
7B6
100
AcDbDimAssoc
330
7B5
 90
        3
 70
     0
 71
     0
  1
AcDbOsnapPointRef
 72
    13
331
7AF
 73
     0
 91
        0
 40
0.0
 10
0.0
 20
0.0
 30
2.000000000000000E+50
 75
     0
  1
AcDbOsnapPointRef
 72
     1
331
7AC
 73
     0
 91
        0
 40
0.0
 10
0.0
 20
0.0
 30
2.000000000000000E+50
 75
     0
  0
DIMASSOC
  5
7BD
102
{ACAD_REACTORS
330
7BC
102
}
330
7BC
100
AcDbDimAssoc
330
7BB
 90
        2
 70
     0
 71
     0
  1
AcDbOsnapPointRef
 72
    13
331
796
 73
     0
 91
        0
 40
0.0
 10
0.0
 20
0.0
 30
2.000000000000000E+50
 75
     0
  0
DIMASSOC
  5
962
102
{ACAD_REACTORS
330
961
102
}
330
961
100
AcDbDimAssoc
330
960
 90
       15
 70
     1
 71
     0
  1
AcDbOsnapPointRef
 72
    13
331
95F
 73
     2
 91
        0
 40
0.0
 10
0.0
 20
0.0
 30
2.000000000000000E+50
 75
     0
  1
AcDbOsnapPointRef
 72
     1
331
95F
 73
     2
 91
        0
 40
0.0
 10
0.0
 20
0.0
 30
2.000000000000000E+50
 75
     0
  1
AcDbOsnapPointRef
 72
    13
331
93F
 73
     2
 91
        0
 40
0.0
 10
0.0
 20
0.0
 30
2.000000000000000E+50
 75
     0
  1
AcDbOsnapPointRef
 72
     1
331
93F
 73
     2
 91
        0
 40
0.0
 10
0.0
 20
0.0
 30
2.000000000000000E+50
 75
     0
  0
LAYOUT
  5
22
102
{ACAD_XDICTIONARY
360
B18
102
}
102
{ACAD_REACTORS
330
1A
102
}
330
1A
100
AcDbPlotSettings
  1

  2
SII LP-2150 (D-SCAN C2)
  4
User119
  6

 40
3.174999952316283
 41
3.174999952316283
 42
3.175003051757812
 43
3.17498779296875
 44
210.0579986572266
 45
296.9259948730469
 46
0.0
 47
0.0
 48
0.0
 49
0.0
140
0.0
141
0.0
142
1.0
143
1.580715189147934
 70
 11952
 72
     1
 73
     1
 74
     0
  7
sei_cad.ctb
 75
     0
147
0.63262503382348
148
19.65895403440572
149
1.143774069319646
100
AcDbLayout
  1
Model
 70
     1
 71
     0
 10
0.0
 20
0.0
 11
12.0
 21
9.0
 12
0.0
 22
0.0
 32
0.0
 14
0.0
 24
0.0
 34
0.0
 15
0.0
 25
0.0
 35
0.0
146
0.0
 13
0.0
 23
0.0
 33
0.0
 16
1.0
 26
0.0
 36
0.0
 17
0.0
 27
1.0
 37
0.0
 76
     0
330
1F
1001
ACAD_PSEXT
1000
SII LP-2150 (D-SCAN C2)
1000
SII LP-2150 (D-SCAN C2)
1000
133.153.16.130#3000
1000

1070
     0
  0
LAYOUT
  5
1E
102
{ACAD_XDICTIONARY
360
B16
102
}
102
{ACAD_REACTORS
330
1A
102
}
330
1A
100
AcDbPlotSettings
  1

  2

  4

  6

 40
0.0
 41
0.0
 42
0.0
 43
0.0
 44
0.0
 45
0.0
 46
0.0
 47
0.0
 48
0.0
 49
0.0
140
0.0
141
0.0
142
1.0
143
1.0
 70
   688
 72
     0
 73
     0
 74
     5
  7
sei_cad.ctb
 75
    16
147
1.0
148
0.0
149
0.0
100
AcDbLayout
  1
レイアウト1
 70
     1
 71
     1
 10
0.0
 20
0.0
 11
420.0
 21
297.0
 12
0.0
 22
0.0
 32
0.0
 14
1.000000000000000E+20
 24
1.000000000000000E+20
 34
1.000000000000000E+20
 15
-1.000000000000000E+20
 25
-1.000000000000000E+20
 35
-1.000000000000000E+20
146
0.0
 13
0.0
 23
0.0
 33
0.0
 16
1.0
 26
0.0
 36
0.0
 17
0.0
 27
1.0
 37
0.0
 76
     0
330
1B
  0
LAYOUT
  5
26
102
{ACAD_XDICTIONARY
360
B1A
102
}
102
{ACAD_REACTORS
330
1A
102
}
330
1A
100
AcDbPlotSettings
  1

  2

  4

  6

 40
0.0
 41
0.0
 42
0.0
 43
0.0
 44
0.0
 45
0.0
 46
0.0
 47
0.0
 48
0.0
 49
0.0
140
0.0
141
0.0
142
1.0
143
1.0
 70
   688
 72
     0
 73
     0
 74
     5
  7
sei_cad.ctb
 75
    16
147
1.0
148
0.0
149
0.0
100
AcDbLayout
  1
レイアウト2
 70
     1
 71
     2
 10
0.0
 20
0.0
 11
12.0
 21
9.0
 12
0.0
 22
0.0
 32
0.0
 14
0.0
 24
0.0
 34
0.0
 15
0.0
 25
0.0
 35
0.0
146
0.0
 13
0.0
 23
0.0
 33
0.0
 16
1.0
 26
0.0
 36
0.0
 17
0.0
 27
1.0
 37
0.0
 76
     0
330
23
  0
MLINESTYLE
  5
18
102
{ACAD_REACTORS
330
17
102
}
330
17
100
AcDbMlineStyle
  2
STANDARD
 70
     0
  3

 62
   256
 51
90.0
 52
90.0
 71
     2
 49
0.5
 62
   256
  6
BYLAYER
 49
-0.5
 62
   256
  6
BYLAYER
  0
ACDBPLACEHOLDER
  5
F
102
{ACAD_REACTORS
330
E
102
}
330
E
  0
TABLESTYLE
  5
11B
102
{ACAD_REACTORS
330
11A
102
}
330
11A
100
AcDbTableStyle
  3
Standard
 70
     0
 71
     0
 40
1.5
 41
1.5
280
     0
281
     0
  7
STANDARD
140
4.5
170
     2
 62
     0
 63
     7
283
     0
274
    -2
284
     1
 64
     0
275
    -2
285
     1
 65
     0
276
    -2
286
     1
 66
     0
277
    -2
287
     1
 67
     0
278
    -2
288
     1
 68
     0
279
    -2
289
     1
 69
     0
  7
STANDARD
140
6.0
170
     5
 62
     0
 63
     7
283
     0
274
    -2
284
     1
 64
     0
275
    -2
285
     1
 65
     0
276
    -2
286
     1
 66
     0
277
    -2
287
     1
 67
     0
278
    -2
288
     1
 68
     0
279
    -2
289
     1
 69
     0
  7
STANDARD
140
4.5
170
     5
 62
     0
 63
     7
283
     0
274
    -2
284
     1
 64
     0
275
    -2
285
     1
 65
     0
276
    -2
286
     1
 66
     0
277
    -2
287
     1
 67
     0
278
    -2
288
     1
 68
     0
279
    -2
289
     1
 69
     0
  0
DICTIONARYVAR
  5
138
102
{ACAD_REACTORS
330
94
102
}
330
94
100
DictionaryVariables
280
     0
  1
STANDARD
  0
DICTIONARYVAR
  5
96
102
{ACAD_REACTORS
330
94
102
}
330
94
100
DictionaryVariables
280
     0
  1
2
  0
DICTIONARYVAR
  5
95
102
{ACAD_REACTORS
330
94
102
}
330
94
100
DictionaryVariables
280
     0
  1
0
  0
DICTIONARYVAR
  5
B12
102
{ACAD_REACTORS
330
94
102
}
330
94
100
DictionaryVariables
280
     0
  1

  0
DICTIONARY
  5
1B5
102
{ACAD_REACTORS
330
5B
102
}
330
5B
100
AcDbDictionary
281
     1
  0
DICTIONARY
  5
61
102
{ACAD_REACTORS
330
5B
102
}
330
5B
100
AcDbDictionary
281
     1
  0
XRECORD
  5
123
102
{ACAD_REACTORS
330
5B
102
}
330
5B
100
AcDbXrecord
280
     1
 90
-1023410169
  0
DICTIONARY
  5
B18
330
22
100
AcDbDictionary
280
     1
281
     1
  3
ACAD_XREC_ROUNDTRIP
360
B19
  0
DICTIONARY
  5
B16
330
1E
100
AcDbDictionary
280
     1
281
     1
  3
ACAD_XREC_ROUNDTRIP
360
B17
  0
DICTIONARY
  5
B1A
330
26
100
AcDbDictionary
280
     1
281
     1
  3
ACAD_XREC_ROUNDTRIP
360
B1B
  0
XRECORD
  5
B19
102
{ACAD_REACTORS
330
B18
102
}
330
B18
100
AcDbXrecord
280
     1
102
SHADEPLOT
 70
     0
102
SHADEPLOTRESLEVEL
 70
     2
102
SHADEPLOTCUSTOMDPI
 70
   300
  0
XRECORD
  5
B17
102
{ACAD_REACTORS
330
B16
102
}
330
B16
100
AcDbXrecord
280
     1
102
SHADEPLOT
 70
     0
102
SHADEPLOTRESLEVEL
 70
     2
102
SHADEPLOTCUSTOMDPI
 70
   300
  0
XRECORD
  5
B1B
102
{ACAD_REACTORS
330
B1A
102
}
330
B1A
100
AcDbXrecord
280
     1
102
SHADEPLOT
 70
     0
102
SHADEPLOTRESLEVEL
 70
     2
102
SHADEPLOTCUSTOMDPI
 70
   300
  0
ENDSEC
  0
EOF
