  0
SECTION
  2
HEADER
  9
$ACADVER
  1
AC1015
  9
$ACADMAINTVER
 70
    20
  9
$DWGCODEPAGE
  3
ANSI_932
  9
$INSBASE
 10
0.0
 20
0.0
 30
0.0
  9
$EXTMIN
 10
-109.7981373067023
 20
-77.8521824597222
 30
0.0
  9
$EXTMAX
 10
37.32211345228508
 20
94.35664842247097
 30
0.0
  9
$LIMMIN
 10
0.0
 20
0.0
  9
$LIMMAX
 10
420.0
 20
297.0
  9
$ORTHOMODE
 70
     0
  9
$REGENMODE
 70
     1
  9
$FILLMODE
 70
     1
  9
$QTEXTMODE
 70
     0
  9
$MIRRTEXT
 70
     1
  9
$LTSCALE
 40
1.0
  9
$ATTMODE
 70
     1
  9
$TEXTSIZE
 40
3.799999999999999
  9
$TRACEWID
 40
1.0
  9
$TEXTSTYLE
  7
ACISOTS
  9
$CLAYER
  8
AM_0
  9
$CELTYPE
  6
ByLayer
  9
$CECOLOR
 62
   256
  9
$CELTSCALE
 40
1.0
  9
$DISPSILH
 70
     0
  9
$DIMSCALE
 40
1.0
  9
$DIMASZ
 40
2.5
  9
$DIMEXO
 40
1.0
  9
$DIMDLI
 40
10.0
  9
$DIMRND
 40
0.0
  9
$DIMDLE
 40
0.0
  9
$DIMEXE
 40
1.0
  9
$DIMTP
 40
0.1
  9
$DIMTM
 40
0.1000000001
  9
$DIMTXT
 40
3.799999999999998
  9
$DIMCEN
 40
0.0
  9
$DIMTSZ
 40
0.0
  9
$DIMTOL
 70
     0
  9
$DIMLIM
 70
     0
  9
$DIMTIH
 70
     0
  9
$DIMTOH
 70
     0
  9
$DIMSE1
 70
     0
  9
$DIMSE2
 70
     0
  9
$DIMTAD
 70
     3
  9
$DIMZIN
 70
     8
  9
$DIMBLK
  1
Open30
  9
$DIMASO
 70
     1
  9
$DIMSHO
 70
     1
  9
$DIMPOST
  1

  9
$DIMAPOST
  1
"
  9
$DIMALT
 70
     0
  9
$DIMALTD
 70
     2
  9
$DIMALTF
 40
0.0393701
  9
$DIMLFAC
 40
1.0
  9
$DIMTOFL
 70
     1
  9
$DIMTVP
 40
0.0
  9
$DIMTIX
 70
     0
  9
$DIMSOXD
 70
     0
  9
$DIMSAH
 70
     0
  9
$DIMBLK1
  1

  9
$DIMBLK2
  1

  9
$DIMSTYLE
  2
AM_JIS
  9
$DIMCLRD
 70
   256
  9
$DIMCLRE
 70
   256
  9
$DIMCLRT
 70
     2
  9
$DIMTFAC
 40
0.71
  9
$DIMGAP
 40
1.5
  9
$DIMJUST
 70
     0
  9
$DIMSD1
 70
     0
  9
$DIMSD2
 70
     0
  9
$DIMTOLJ
 70
     0
  9
$DIMTZIN
 70
     8
  9
$DIMALTZ
 70
     0
  9
$DIMALTTZ
 70
     0
  9
$DIMUPT
 70
     0
  9
$DIMDEC
 70
     2
  9
$DIMTDEC
 70
     2
  9
$DIMALTU
 70
     2
  9
$DIMALTTD
 70
     2
  9
$DIMTXSTY
  7
STANDARD
  9
$DIMAUNIT
 70
     1
  9
$DIMADEC
 70
     0
  9
$DIMALTRND
 40
0.0
  9
$DIMAZIN
 70
     2
  9
$DIMDSEP
 70
    46
  9
$DIMATFIT
 70
     3
  9
$DIMFRAC
 70
     0
  9
$DIMLDRBLK
  1
Open30
  9
$DIMLUNIT
 70
     2
  9
$DIMLWD
 70
    -1
  9
$DIMLWE
 70
    -1
  9
$DIMTMOVE
 70
     0
  9
$LUNITS
 70
     2
  9
$LUPREC
 70
     2
  9
$SKETCHINC
 40
1.0
  9
$FILLETRAD
 40
2.5
  9
$AUNITS
 70
     0
  9
$AUPREC
 70
     0
  9
$MENU
  1
.
  9
$ELEVATION
 40
0.0
  9
$PELEVATION
 40
0.0
  9
$THICKNESS
 40
0.0
  9
$LIMCHECK
 70
     0
  9
$CHAMFERA
 40
2.5
  9
$CHAMFERB
 40
2.5
  9
$CHAMFERC
 40
20.0
  9
$CHAMFERD
 40
0.0
  9
$SKPOLY
 70
     0
  9
$TDCREATE
 40
2455412.730832604
  9
$TDUCREATE
 40
2455412.355832604
  9
$TDUPDATE
 40
2455555.427619537
  9
$TDUUPDATE
 40
2455555.052619537
  9
$TDINDWG
 40
0.0189158333
  9
$TDUSRTIMER
 40
0.0189156597
  9
$USRTIMER
 70
     1
  9
$ANGBASE
 50
0.0
  9
$ANGDIR
 70
     0
  9
$PDMODE
 70
     0
  9
$PDSIZE
 40
0.0
  9
$PLINEWID
 40
0.0
  9
$SPLFRAME
 70
     0
  9
$SPLINETYPE
 70
     6
  9
$SPLINESEGS
 70
    40
  9
$HANDSEED
  5
C73
  9
$SURFTAB1
 70
     6
  9
$SURFTAB2
 70
     6
  9
$SURFTYPE
 70
     6
  9
$SURFU
 70
     6
  9
$SURFV
 70
     6
  9
$UCSBASE
  2

  9
$UCSNAME
  2

  9
$UCSORG
 10
0.0
 20
0.0
 30
0.0
  9
$UCSXDIR
 10
1.0
 20
0.0
 30
0.0
  9
$UCSYDIR
 10
0.0
 20
1.0
 30
0.0
  9
$UCSORTHOREF
  2

  9
$UCSORTHOVIEW
 70
     0
  9
$UCSORGTOP
 10
0.0
 20
0.0
 30
0.0
  9
$UCSORGBOTTOM
 10
0.0
 20
0.0
 30
0.0
  9
$UCSORGLEFT
 10
0.0
 20
0.0
 30
0.0
  9
$UCSORGRIGHT
 10
0.0
 20
0.0
 30
0.0
  9
$UCSORGFRONT
 10
0.0
 20
0.0
 30
0.0
  9
$UCSORGBACK
 10
0.0
 20
0.0
 30
0.0
  9
$PUCSBASE
  2

  9
$PUCSNAME
  2

  9
$PUCSORG
 10
0.0
 20
0.0
 30
0.0
  9
$PUCSXDIR
 10
1.0
 20
0.0
 30
0.0
  9
$PUCSYDIR
 10
0.0
 20
1.0
 30
0.0
  9
$PUCSORTHOREF
  2

  9
$PUCSORTHOVIEW
 70
     0
  9
$PUCSORGTOP
 10
0.0
 20
0.0
 30
0.0
  9
$PUCSORGBOTTOM
 10
0.0
 20
0.0
 30
0.0
  9
$PUCSORGLEFT
 10
0.0
 20
0.0
 30
0.0
  9
$PUCSORGRIGHT
 10
0.0
 20
0.0
 30
0.0
  9
$PUCSORGFRONT
 10
0.0
 20
0.0
 30
0.0
  9
$PUCSORGBACK
 10
0.0
 20
0.0
 30
0.0
  9
$USERI1
 70
     0
  9
$USERI2
 70
     0
  9
$USERI3
 70
     0
  9
$USERI4
 70
     0
  9
$USERI5
 70
     0
  9
$USERR1
 40
0.0
  9
$USERR2
 40
0.0
  9
$USERR3
 40
0.0
  9
$USERR4
 40
0.0
  9
$USERR5
 40
0.0
  9
$WORLDVIEW
 70
     1
  9
$SHADEDGE
 70
     3
  9
$SHADEDIF
 70
    70
  9
$TILEMODE
 70
     1
  9
$MAXACTVP
 70
    64
  9
$PINSBASE
 10
0.0
 20
0.0
 30
0.0
  9
$PLIMCHECK
 70
     0
  9
$PEXTMIN
 10
1.000000000000000E+20
 20
1.000000000000000E+20
 30
1.000000000000000E+20
  9
$PEXTMAX
 10
-1.000000000000000E+20
 20
-1.000000000000000E+20
 30
-1.000000000000000E+20
  9
$PLIMMIN
 10
0.0
 20
0.0
  9
$PLIMMAX
 10
420.0
 20
297.0
  9
$UNITMODE
 70
     0
  9
$VISRETAIN
 70
     1
  9
$PLINEGEN
 70
     0
  9
$PSLTSCALE
 70
     1
  9
$TREEDEPTH
 70
  3020
  9
$CMLSTYLE
  2
Standard
  9
$CMLJUST
 70
     0
  9
$CMLSCALE
 40
20.0
  9
$PROXYGRAPHICS
 70
     1
  9
$MEASUREMENT
 70
     1
  9
$CELWEIGHT
370
    -1
  9
$ENDCAPS
280
     0
  9
$JOINSTYLE
280
     0
  9
$LWDISPLAY
290
     0
  9
$INSUNITS
 70
     4
  9
$HYPERLINKBASE
  1

  9
$STYLESHEET
  1

  9
$XEDIT
290
     1
  9
$CEPSNTYPE
380
     0
  9
$PSTYLEMODE
290
     1
  9
$FINGERPRINTGUID
  2
{E7468357-6252-4FFE-8F14-C6C26F483914}
  9
$VERSIONGUID
  2
{BB213E40-B950-42BA-B38B-DF053547685B}
  9
$EXTNAMES
290
     1
  9
$PSVPSCALE
 40
0.0
  9
$OLESTARTUP
290
     0
  0
ENDSEC
  0
SECTION
  2
CLASSES
  0
CLASS
  1
ACDBDICTIONARYWDFLT
  2
AcDbDictionaryWithDefault
  3
ObjectDBX Classes
 90
        0
280
     0
281
     0
  0
CLASS
  1
ACME_DOCUMENT
  2
AcMeDbDoc
  3
AcMeServices
 90
        0
280
     0
281
     0
  0
CLASS
  1
AMGSETTINGSOBJ
  2
AmgSettingsObj
  3
"AcadM|Product Description: AutoCAD Mechanical 2000|Company: Autodesk"
 90
        0
280
     0
281
     0
  0
CLASS
  1
ACMESCOPE
  2
AcMeScope
  3
AcMeServices
 90
        0
280
     0
281
     0
  0
CLASS
  1
ACMECOMMANDHISTORY
  2
AcMeCommandHistory
  3
AcMeServices
 90
        0
280
     0
281
     0
  0
CLASS
  1
ACIMSYSVARMAN
  2
AcImSysVarManager
  3
AcMeServices
 90
        0
280
     0
281
     0
  0
CLASS
  1
ACIMREALSYSVAR
  2
AcImRealSysVar
  3
AcMeServices
 90
        0
280
     0
281
     0
  0
CLASS
  1
ACIMINTSYSVAR
  2
AcImIntSysVar
  3
AcMeServices
 90
        0
280
     0
281
     0
  0
CLASS
  1
ACMEDRAWINGMAN
  2
AcMeDrawingMan
  3
AcMeServices
 90
        0
280
     0
281
     0
  0
CLASS
  1
ACMEVIEW
  2
AcMeView
  3
AcMeServices
 90
        0
280
     0
281
     0
  0
CLASS
  1
ACDBENTITYCACHE
  2
AcMeEntityCache
  3
AcMeServices
 90
        0
280
     0
281
     0
  0
CLASS
  1
GSMANAGER
  2
AcMeGSManager
  3
AcMeServices
 90
        0
280
     0
281
     0
  0
CLASS
  1
AMDTINTERNALREACTOR
  2
AmdtInternalReactor
  3
AcMeServices
 90
        0
280
     0
281
     0
  0
CLASS
  1
ACMESTATEMGR
  2
AcMeStateMgr
  3
AcMeServices
 90
        0
280
     0
281
     0
  0
CLASS
  1
ACGREFMASTER
  2
AcGrefMaster
  3
AcAttribServices
 90
        0
280
     0
281
     0
  0
CLASS
  1
ACME_DATABASE
  2
AcMeDbDatabase
  3
AcMeServices
 90
        0
280
     0
281
     0
  0
CLASS
  1
ACRFINSADJUSTERMGR
  2
AcRfInsAdjusterMgr
  3
AcMeServices
 90
        0
280
     0
281
     0
  0
CLASS
  1
ACGREFACADMASTER
  2
AcGrefacadMaster
  3
AcGrefServices
 90
        0
280
     0
281
     0
  0
CLASS
  1
AMIMASTER
  2
AmiMaster
  3
AmiServices
 90
        0
280
     0
281
     0
  0
CLASS
  1
ACMDATADICTIONARY
  2
AcmDataDictionary
  3
"AcmSymBB|Product Description: AutoCAD Mechanical 2004 DX|Company: Autodesk"
 90
        0
280
     0
281
     0
  0
CLASS
  1
ACMDATAENTRYBLOCK
  2
AcmDataEntryBlock
  3
"AcmSymBB|Product Description: AutoCAD Mechanical 2004 DX|Company: Autodesk"
 90
    32768
280
     0
281
     0
  0
CLASS
  1
ACIMSTRSYSVAR
  2
AcImStrSysVar
  3
AcMeServices
 90
        0
280
     0
281
     0
  0
CLASS
  1
ACMSTANDARDISO
  2
AcmStandardISO
  3
"Amdt_StdImp|Product Description: AutoCAD Mechanical 2004 DX|Company: Autodesk"
 90
        0
280
     0
281
     0
  0
CLASS
  1
AMGOBJPROPCFG
  2
AmgObjPropCfg
  3
"AmgLay|Product Description: AutoCAD Mechanical 2000|Company: Autodesk"
 90
        1
280
     0
281
     0
  0
CLASS
  1
AMDTEDGESTANDARDISO
  2
AmdtEdgeStdISO
  3
"Amdt_StdImp|Product Description: AutoCAD Mechanical 2004 DX|Company: Autodesk"
 90
        0
280
     0
281
     0
  0
CLASS
  1
ACMSURFSTANDARDISO
  2
AcmSurfTextStdISO
  3
"Amdt_StdImp|Product Description: AutoCAD Mechanical 2004 DX|Company: Autodesk"
 90
        0
280
     0
281
     0
  0
CLASS
  1
ACMFCFSTANDARDISO
  2
AcmFCFStdISO
  3
"Amdt_StdImp|Product Description: AutoCAD Mechanical 2004 DX|Company: Autodesk"
 90
        0
280
     0
281
     0
  0
CLASS
  1
ACMWELDSTANDARDISO
  2
AcmWeldingStdISO
  3
"Amdt_StdImp|Product Description: AutoCAD Mechanical 2004 DX|Company: Autodesk"
 90
        0
280
     0
281
     0
  0
CLASS
  1
ACMIDSTANDARDISO
  2
AcmIdStdISO
  3
"Amdt_StdImp|Product Description: AutoCAD Mechanical 2004 DX|Company: Autodesk"
 90
        0
280
     0
281
     0
  0
CLASS
  1
ACMDATUMSTANDARDISO
  2
AcmDatumStdISO
  3
"Amdt_StdImp|Product Description: AutoCAD Mechanical 2004 DX|Company: Autodesk"
 90
        0
280
     0
281
     0
  0
CLASS
  1
ACMBOMSTANDARDISO
  2
AcmBOMStdISO
  3
"Amdt_StdImp|Product Description: AutoCAD Mechanical 2004 DX|Company: Autodesk"
 90
        0
280
     0
281
     0
  0
CLASS
  1
ACMDETAILSTANDARDISO
  2
AmdtDetailSymStdISO
  3
"Amdt_StdImp|Product Description: AutoCAD Mechanical 2004 DX|Company: Autodesk"
 90
        0
280
     0
281
     0
  0
CLASS
  1
ACMSECTIONSTANDARDISO
  2
AmdtSectionSymStdISO
  3
"Amdt_StdImp|Product Description: AutoCAD Mechanical 2004 DX|Company: Autodesk"
 90
        0
280
     0
281
     0
  0
CLASS
  1
ACMCENTERLINESTANDARDISO
  2
AmdtCenterLineStdISO
  3
"Amdt_StdImp|Product Description: AutoCAD Mechanical 2004 DX|Company: Autodesk"
 90
        0
280
     0
281
     0
  0
CLASS
  1
ACMNOTESTANDARDISO
  2
AmdtNoteStdISO
  3
"Amdt_StdImp|Product Description: AutoCAD Mechanical 2004 DX|Company: Autodesk"
 90
        0
280
     0
281
     0
  0
CLASS
  1
ACAMGLAYSTD
  2
AcAmgLayStd
  3
"AcAmgLayStd|Product Description: AutoCAD Mechanical 2000|Company: Autodesk"
 90
        0
280
     0
281
     0
  0
CLASS
  1
ACAMGDIMSTD
  2
AcAmgDimStd
  3
"AcAmgDimStd|Product Description: AutoCAD Mechanical 2000|Company: Autodesk"
 90
        0
280
     0
281
     0
  0
CLASS
  1
ACAMGHOLECHARTSTDISO
  2
AcAmgHoleChartStdISO
  3
ACMSYMBB_MODULE_NAME
 90
        0
280
     0
281
     0
  0
CLASS
  1
ACAMGTITLESTD
  2
AcAmgTitleStd
  3
"TITLEAPP"
 90
        0
280
     0
281
     0
  0
CLASS
  1
LAYER_INDEX
  2
AcDbLayerIndex
  3
ObjectDBX Classes
 90
    32768
280
     0
281
     0
  0
CLASS
  1
IDBUFFER
  2
AcDbIdBuffer
  3
ObjectDBX Classes
 90
    32768
280
     0
281
     0
  0
CLASS
  1
DICTIONARYVAR
  2
AcDbDictionaryVar
  3
ObjectDBX Classes
 90
        0
280
     0
281
     0
  0
CLASS
  1
AM_DRAWING_MGR
  2
AcDmDwgMgr
  3
AcMechDwgViewMgmt
 90
        0
280
     0
281
     0
  0
CLASS
  1
AM_DWG_DOCUMENT
  2
AcDmDwgDocument
  3
AcMechDwgViewMgmt
 90
        0
280
     0
281
     0
  0
CLASS
  1
AM_DWG_SHEET
  2
AcDmSheet
  3
AcMechDwgViewMgmt
 90
        0
280
     0
281
     0
  0
CLASS
  1
AM_VIEWDIMPARMAP
  2
AcDmViewDimParMap
  3
AcMechDwgViewMgmt
 90
        0
280
     0
281
     0
  0
CLASS
  1
AM_DWGMGR_NAME
  2
AcDmDwgMgrName
  3
AcMechDwgViewMgmt
 90
        0
280
     0
281
     0
  0
CLASS
  1
AMDTMENUSTATEMGR
  2
AmdtMenuStateMgr
  3
McadcomServices
 90
        0
280
     0
281
     0
  0
CLASS
  1
AMDTMCOMMENUSTATE
  2
AmdtMcomMenuState
  3
McadcomServices
 90
        0
280
     0
281
     0
  0
CLASS
  1
MAPIAMMOUDLE
  2
MApiAmModule
  3
MApiAmServices
 90
        0
280
     0
281
     0
  0
CLASS
  1
AMDTADMENUSTATE
  2
AmdtAdMenuState
  3
DesignerServices
 90
        0
280
     0
281
     0
  0
CLASS
  1
ADAPPL
  2
AcAdAppl
  3
DesignerServices
 90
        0
280
     0
281
     0
  0
CLASS
  1
DEPMGR
  2
AcAdDepMgr
  3
DesignerServices
 90
        0
280
     0
281
     0
  0
CLASS
  1
PARAMMGR
  2
AcAdParamMgr
  3
DesignerServices
 90
        0
280
     0
281
     0
  0
CLASS
  1
PARAMSCOPE
  2
AcAdParamScope
  3
DesignerServices
 90
        0
280
     0
281
     0
  0
CLASS
  1
NAMEDAPPL
  2
AcAdNamedAppl
  3
DesignerServices
 90
        0
280
     0
281
     0
  0
CLASS
  1
AMDTDMMENUSTATE
  2
AmdtDmMenuState
  3
AcMechDwgViewMgmt
 90
        0
280
     0
281
     0
  0
CLASS
  1
AMDTAMMENUSTATE
  2
AmdtAmMenuState
  3
DesignerAssemblies
 90
        0
280
     0
281
     0
  0
CLASS
  1
ACAMPROJECT
  2
AcAmProject
  3
DesignerAssemblies
 90
        0
280
     0
281
     0
  0
CLASS
  1
ACAMGRCOMPDEF
  2
AcAmGrCompDef
  3
DesignerAssemblies
 90
        0
280
     0
281
     0
  0
CLASS
  1
ACCMCONTEXT
  2
AcCmContext
  3
DesignerAssemblies
 90
        0
280
     0
281
     0
  0
CLASS
  1
ACAMCOMPDEF
  2
AcAmCompDef
  3
DesignerAssemblies
 90
        0
280
     0
281
     0
  0
CLASS
  1
ACAMCOMPDEFMGR
  2
AcAmCompDefMgr
  3
DesignerAssemblies
 90
        0
280
     0
281
     0
  0
CLASS
  1
AMCONTEXTMGR
  2
AcAmContextMgr
  3
DesignerAssemblies
 90
        0
280
     0
281
     0
  0
CLASS
  1
ACAMCONTEXTMODELER
  2
AcAmContextModeler
  3
DesignerAssemblies
 90
        0
280
     0
281
     0
  0
CLASS
  1
ACMTHREADLINESTANDARDISO
  2
AmdtThreadLineStdISO
  3
"Amdt_StdImp|Product Description: AutoCAD Mechanical 2004 DX|Company: Autodesk"
 90
        0
280
     0
281
     0
  0
CLASS
  1
CATALOGSTATE
  2
AcAmCatalogState
  3
DesignerAssemblies
 90
        0
280
     0
281
     0
  0
CLASS
  1
ACAMGRCOMPDEFSET
  2
AcAmGrCompDefSet
  3
DesignerAssemblies
 90
        0
280
     0
281
     0
  0
CLASS
  1
AMDTBROWSERDBTAB
  2
AmdtBrowserDbTab
  3
McadcomServices
 90
        0
280
     0
281
     0
  0
CLASS
  1
CBROWSERAPPOBJECT
  2
CBrowserAppObject
  3
McadcomServices
 90
        0
280
     0
281
     0
  0
CLASS
  1
DM_PLACEHOLDER
  2
AcDmSelsetPlaceholder
  3
AcMechDwgViewMgmt
 90
        0
280
     0
281
     0
  0
CLASS
  1
TABLESTYLE
  2
AcDbTableStyle
  3
ObjectDBX Classes
 90
     2047
280
     0
281
     0
  0
CLASS
  1
VAACXREFPANELOBJECT
  2
VaAcXREFPanelObject
  3
VAAC_ADDIN
 90
    32768
280
     0
281
     0
  0
CLASS
  1
VAACIMAGEINVENTORY
  2
VaAcImageInventory
  3
VAAC_ADDIN
 90
    32768
280
     0
281
     0
  0
CLASS
  1
AMDTNOTETEMPLATEDB
  2
AmdtNoteTemplateDB
  3
AMDT_STDIMP_MODULE_NAME
 90
        0
280
     0
281
     0
  0
CLASS
  1
ACMBOM
  2
AcmBom
  3
"AcmSymBB|Product Description: AutoCAD Mechanical 2004 DX|Company: Autodesk"
 90
    32768
280
     0
281
     0
  0
CLASS
  1
AMDTFORMULAUPDATEDISPATCHER
  2
AmdtFormulaUpdateDispatcher
  3
AcMeServices
 90
    32768
280
     0
281
     0
  0
CLASS
  1
ACMPARTLIST
  2
AcmPartList
  3
"AcmSymBB|Product Description: AutoCAD Mechanical 2004 DX|Company: Autodesk"
 90
    33791
280
     0
281
     1
  0
CLASS
  1
ACAMGFILTERDAT
  2
AcAmgFilterDat
  3
"AcadM|Product Description: AutoCAD Mechanical 2000|Company: Autodesk"
 90
    32768
280
     0
281
     0
  0
CLASS
  1
ACMSTANDARDJIS
  2
AcmStandardJIS
  3
"Amdt_StdImp|Product Description: AutoCAD Mechanical 2004 DX|Company: Autodesk"
 90
        0
280
     0
281
     0
  0
CLASS
  1
ACMSURFSTANDARDJIS
  2
AcmSurfTextStdJIS
  3
"Amdt_StdImp|Product Description: AutoCAD Mechanical 2004 DX|Company: Autodesk"
 90
        0
280
     0
281
     0
  0
CLASS
  1
ACMFCFSTANDARDJIS98
  2
AcmFCFStdJIS98
  3
"Amdt_StdImp|Product Description: AutoCAD Mechanical 2004 DX|Company: Autodesk"
 90
        0
280
     0
281
     0
  0
CLASS
  1
ACMWELDSTANDARDJIS
  2
AcmWeldingStdJIS
  3
"Amdt_StdImp|Product Description: AutoCAD Mechanical 2004 DX|Company: Autodesk"
 90
        0
280
     0
281
     0
  0
CLASS
  1
ACMIDSTANDARDJIS
  2
AcmIdStdJIS
  3
"Amdt_StdImp|Product Description: AutoCAD Mechanical 2004 DX|Company: Autodesk"
 90
        0
280
     0
281
     0
  0
CLASS
  1
ACMDATUMSTANDARDJIS
  2
AcmDatumStdJIS
  3
"Amdt_StdImp|Product Description: AutoCAD Mechanical 2004 DX|Company: Autodesk"
 90
        0
280
     0
281
     0
  0
CLASS
  1
ACMBOMSTANDARDJIS
  2
AcmBOMStdJIS
  3
"Amdt_StdImp|Product Description: AutoCAD Mechanical 2004 DX|Company: Autodesk"
 90
        0
280
     0
281
     0
  0
CLASS
  1
ACMDETAILSTANDARDJIS
  2
AmdtDetailSymStdJIS
  3
"Amdt_StdImp|Product Description: AutoCAD Mechanical 2004 DX|Company: Autodesk"
 90
        0
280
     0
281
     0
  0
CLASS
  1
ACMSECTIONSTANDARDJIS
  2
AmdtSectionSymStdJIS
  3
"Amdt_StdImp|Product Description: AutoCAD Mechanical 2004 DX|Company: Autodesk"
 90
        0
280
     0
281
     0
  0
CLASS
  1
ACMCENTERLINESTANDARDJIS
  2
AmdtCenterLineStdJIS
  3
"Amdt_StdImp|Product Description: AutoCAD Mechanical 2004 DX|Company: Autodesk"
 90
        0
280
     0
281
     0
  0
CLASS
  1
ACMTHREADLINESTANDARDJIS
  2
AmdtThreadLineStdJIS
  3
"Amdt_StdImp|Product Description: AutoCAD Mechanical 2004 DX|Company: Autodesk"
 90
        0
280
     0
281
     0
  0
CLASS
  1
ACMNOTESTANDARDJIS
  2
AmdtNoteStdJIS
  3
"Amdt_StdImp|Product Description: AutoCAD Mechanical 2004 DX|Company: Autodesk"
 90
        0
280
     0
281
     0
  0
CLASS
  1
ACAMGHOLECHARTSTDJIS
  2
AcAmgHoleChartStdJIS
  3
ACMSYMBB_MODULE_NAME
 90
        0
280
     0
281
     0
  0
CLASS
  1
DIMASSOC
  2
AcDbDimAssoc
  3
"AcDbDimAssoc|Product Desc:     AcDim ARX App For Dimension|Company:          Autodesk, Inc.|WEB Address:      www.autodesk.com"
 90
        0
280
     0
281
     0
  0
CLASS
  1
SORTENTSTABLE
  2
AcDbSortentsTable
  3
ObjectDBX Classes
 90
    32768
280
     0
281
     0
  0
CLASS
  1
ACRFATTGENMGR
  2
AcRfAttGeneralMgr
  3
AcAttribServices
 90
    32768
280
     0
281
     0
  0
CLASS
  1
ACDBPLACEHOLDER
  2
AcDbPlaceHolder
  3
ObjectDBX Classes
 90
        0
280
     0
281
     0
  0
CLASS
  1
LAYOUT
  2
AcDbLayout
  3
ObjectDBX Classes
 90
        0
280
     0
281
     0
  0
ENDSEC
  0
SECTION
  2
TABLES
  0
TABLE
  2
VPORT
  5
8
330
0
100
AcDbSymbolTable
 70
     3
  0
VPORT
  5
C6A
330
8
100
AcDbSymbolTableRecord
100
AcDbViewportTableRecord
  2
*Active
 70
     0
 10
0.0
 20
0.0
 11
1.0
 21
1.0
 12
-24.29246115613486
 22
8.958360980541243
 13
0.0
 23
0.0
 14
2.5
 24
2.5
 15
10.0
 25
10.0
 16
0.0
 26
0.0
 36
1.0
 17
0.0
 27
0.0
 37
0.0
 40
176.5334586224678
 41
1.514762516046213
 42
50.0
 43
0.0
 44
0.0
 50
0.0
 51
0.0
 71
     0
 72
 10000
 73
     1
 74
     3
 75
     0
 76
     0
 77
     0
 78
     0
281
     0
 65
     1
110
0.0
120
0.0
130
0.0
111
1.0
121
0.0
131
0.0
112
0.0
122
1.0
132
0.0
 79
     0
146
0.0
  0
ENDTAB
  0
TABLE
  2
LTYPE
  5
5
330
0
100
AcDbSymbolTable
 70
    17
  0
LTYPE
  5
14
330
5
100
AcDbSymbolTableRecord
100
AcDbLinetypeTableRecord
  2
ByBlock
 70
     0
  3

 72
    65
 73
     0
 40
0.0
  0
LTYPE
  5
15
330
5
100
AcDbSymbolTableRecord
100
AcDbLinetypeTableRecord
  2
ByLayer
 70
     0
  3

 72
    65
 73
     0
 40
0.0
  0
LTYPE
  5
16
330
5
100
AcDbSymbolTableRecord
100
AcDbLinetypeTableRecord
  2
Continuous
 70
     0
  3
Solid line
 72
    65
 73
     0
 40
0.0
  0
LTYPE
  5
64
330
5
100
AcDbSymbolTableRecord
100
AcDbLinetypeTableRecord
  2
AM_ISO02W050
 70
     0
  3
__ __ __ __ __ __ __ __ __ __ __ __ __ __ __
 72
    65
 73
     2
 40
7.5
 49
6.0
 74
     0
 49
-1.5
 74
     0
  0
LTYPE
  5
65
330
5
100
AcDbSymbolTableRecord
100
AcDbLinetypeTableRecord
  2
AM_ISO08W050
 70
     0
  3
____ . ____ . ____ . ____ . ____ . ____ . ____
 72
    65
 73
     4
 40
18.0
 49
12.0
 74
     0
 49
-1.5
 74
     0
 49
3.0
 74
     0
 49
-1.5
 74
     0
  0
LTYPE
  5
66
330
5
100
AcDbSymbolTableRecord
100
AcDbLinetypeTableRecord
  2
AM_ISO09W050
 70
     0
  3
_____ . . _____ . . _____ . . ____ .. ____
 72
    65
 73
     6
 40
22.5
 49
12.0
 74
     0
 49
-1.5
 74
     0
 49
3.0
 74
     0
 49
-1.5
 74
     0
 49
3.0
 74
     0
 49
-1.5
 74
     0
  0
LTYPE
  5
67
330
5
100
AcDbSymbolTableRecord
100
AcDbLinetypeTableRecord
  2
Amconstr
 70
     0
  3
_______________________
 72
    65
 73
     2
 40
9999.0
 49
9999.0
 74
     0
 49
0.0
 74
     0
  0
LTYPE
  5
68
330
5
100
AcDbSymbolTableRecord
100
AcDbLinetypeTableRecord
  2
AM_ISO08W050x2
 70
     0
  3
__ . __ . __ . __ . __ . __
 72
    65
 73
     4
 40
9.0
 49
6.0
 74
     0
 49
-0.75
 74
     0
 49
1.5
 74
     0
 49
-0.75
 74
     0
  0
LTYPE
  5
69
330
5
100
AcDbSymbolTableRecord
100
AcDbLinetypeTableRecord
  2
AM_ISO02W050x2
 70
     0
  3
 _ _ _ _ _ _ _ _ _ _ _ _
 72
    65
 73
     2
 40
3.75
 49
3.0
 74
     0
 49
-0.75
 74
     0
  0
LTYPE
  5
6C
330
5
100
AcDbSymbolTableRecord
100
AcDbLinetypeTableRecord
  2
Amzigzag
 70
     0
  3
/\/-/\/-/\/-/\/-/\/-/\/
 72
    65
 73
     2
 40
11.0001
 49
0.0001
 74
     4
 75
   135
340
6B
 46
0.04
 50
0.0
 44
0.0
 45
0.0
 49
-11.0
 74
     0
  0
LTYPE
  5
7A
330
5
100
AcDbSymbolTableRecord
100
AcDbLinetypeTableRecord
  2
ACISOWELD
 70
     0
  3
_ _ _ _ _
 72
    65
 73
     2
 40
2.0
 49
2.0
 74
     0
 49
-1.0
 74
     0
  0
LTYPE
  5
7B
330
5
100
AcDbSymbolTableRecord
100
AcDbLinetypeTableRecord
  2
ACISOTGB
 70
     0
  3
__ . . __ . .
 72
    65
 73
     6
 40
9.0
 49
4.0
 74
     0
 49
-1.0
 74
     0
 49
1.0
 74
     0
 49
-1.0
 74
     0
 49
1.0
 74
     0
 49
-1.0
 74
     0
  0
LTYPE
  5
7C
330
5
100
AcDbSymbolTableRecord
100
AcDbLinetypeTableRecord
  2
ACISOTGL
 70
     0
  3
_ _ _ _ _
 72
    65
 73
     2
 40
3.0
 49
2.0
 74
     0
 49
-1.0
 74
     0
  0
LTYPE
  5
7E
330
5
100
AcDbSymbolTableRecord
100
AcDbLinetypeTableRecord
  2
CENTER
 70
     0
  3
__ . __
 72
    65
 73
     4
 40
7.0
 49
4.0
 74
     0
 49
-1.0
 74
     0
 49
1.0
 74
     0
 49
-1.0
 74
     0
  0
LTYPE
  5
D8
330
5
100
AcDbSymbolTableRecord
100
AcDbLinetypeTableRecord
  2
HIDDEN
 70
     0
  3
Hidden __ __ __ __ __ __ __ __ __ __ __ __ __ _
 72
    65
 73
     2
 40
9.524999999999996
 49
6.349999999999998
 74
     0
 49
-3.174999999999998
 74
     0
  0
LTYPE
  5
D9
330
5
100
AcDbSymbolTableRecord
100
AcDbLinetypeTableRecord
  2
PHANTOM2
 70
     0
  3
Phantom (.5x) ___ _ _ ___ _ _ ___ _ _ ___ _ _
 72
    65
 73
     6
 40
31.75
 49
15.875
 74
     0
 49
-3.174999999999998
 74
     0
 49
3.174999999999998
 74
     0
 49
-3.174999999999998
 74
     0
 49
3.174999999999998
 74
     0
 49
-3.174999999999998
 74
     0
  0
LTYPE
  5
20C
330
5
100
AcDbSymbolTableRecord
100
AcDbLinetypeTableRecord
  2
ACJISWELD
 70
     0
  3
_ _ _ _ _
 72
    65
 73
     2
 40
2.0
 49
2.0
 74
     0
 49
-1.0
 74
     0
  0
LTYPE
  5
20D
330
5
100
AcDbSymbolTableRecord
100
AcDbLinetypeTableRecord
  2
ACJISTGB
 70
     0
  3
__ . . __ . .
 72
    65
 73
     6
 40
9.0
 49
4.0
 74
     0
 49
-1.0
 74
     0
 49
1.0
 74
     0
 49
-1.0
 74
     0
 49
1.0
 74
     0
 49
-1.0
 74
     0
  0
LTYPE
  5
20E
330
5
100
AcDbSymbolTableRecord
100
AcDbLinetypeTableRecord
  2
ACJISTGL
 70
     0
  3
_ _ _ _ _
 72
    65
 73
     2
 40
3.0
 49
2.0
 74
     0
 49
-1.0
 74
     0
  0
ENDTAB
  0
TABLE
  2
LAYER
  5
2
102
{ACAD_XDICTIONARY
360
34B
102
}
330
0
100
AcDbSymbolTable
 70
     7
  0
LAYER
  5
10
330
2
100
AcDbSymbolTableRecord
100
AcDbLayerTableRecord
  2
0
 70
     0
 62
     7
  6
Continuous
370
    -3
390
F
  0
LAYER
  5
34A
330
2
100
AcDbSymbolTableRecord
100
AcDbLayerTableRecord
  2
AM_0
 70
     0
 62
     7
  6
Continuous
370
    30
390
F
  0
LAYER
  5
3AF
330
2
100
AcDbSymbolTableRecord
100
AcDbLayerTableRecord
  2
AM_4
 70
     0
 62
     3
  6
Continuous
370
    13
390
F
  0
LAYER
  5
3B0
330
2
100
AcDbSymbolTableRecord
100
AcDbLayerTableRecord
  2
AM_5
 70
     0
 62
     3
  6
Continuous
370
    13
390
F
  0
LAYER
  5
3B1
330
2
100
AcDbSymbolTableRecord
100
AcDbLayerTableRecord
  2
AM_7
 70
     0
 62
     4
  6
AM_ISO08W050
370
    13
390
F
  0
LAYER
  5
456
330
2
100
AcDbSymbolTableRecord
100
AcDbLayerTableRecord
  2
1
 70
     0
 62
     7
  6
Continuous
370
    -3
390
F
  0
LAYER
  5
457
330
2
100
AcDbSymbolTableRecord
100
AcDbLayerTableRecord
  2
Defpoints
 70
     0
 62
     7
  6
Continuous
290
     0
370
    -3
390
F
  0
ENDTAB
  0
TABLE
  2
STYLE
  5
3
330
0
100
AcDbSymbolTable
 70
     6
  0
STYLE
  5
11
330
3
100
AcDbSymbolTableRecord
100
AcDbTextStyleTableRecord
  2
STANDARD
 70
     0
 40
0.0
 41
1.0
 50
0.0
 71
     0
 42
3.799999999999998
  3
ISOCP.SHX
  4
EXTFONT.SHX
  0
STYLE
  5
6B
330
3
100
AcDbSymbolTableRecord
100
AcDbTextStyleTableRecord
  2

 70
     1
 40
0.0
 41
1.0
 50
0.0
 71
     0
 42
2.5
  3
ltypeshp.shx
  4

  0
STYLE
  5
6D
330
3
100
AcDbSymbolTableRecord
100
AcDbTextStyleTableRecord
  2
ACISOTS
 70
     0
 40
3.799999999999999
 41
1.0
 50
0.0
 71
     0
 42
3.799999999999999
  3
isocp.shx
  4
extfont.shx
  0
STYLE
  5
79
330
3
100
AcDbSymbolTableRecord
100
AcDbTextStyleTableRecord
  2
ACISOGDT
 70
     0
 40
0.0
 41
1.0
 50
0.0
 71
     0
 42
2.5
  3
amgdt.shx
  4
extfont.shx
  0
STYLE
  5
1FF
330
3
100
AcDbSymbolTableRecord
100
AcDbTextStyleTableRecord
  2
ACJISTS
 70
     0
 40
1.0
 41
1.0
 50
0.0
 71
     0
 42
1.0
  3
isocp.shx
  4
extfont.shx
  0
STYLE
  5
20B
330
3
100
AcDbSymbolTableRecord
100
AcDbTextStyleTableRecord
  2
ACJISGDT
 70
     0
 40
0.0
 41
1.0
 50
0.0
 71
     0
 42
1.0
  3
amgdt.shx
  4

  0
ENDTAB
  0
TABLE
  2
VIEW
  5
6
330
0
100
AcDbSymbolTable
 70
     0
  0
ENDTAB
  0
TABLE
  2
UCS
  5
7
330
0
100
AcDbSymbolTable
 70
     0
  0
ENDTAB
  0
TABLE
  2
APPID
  5
9
330
0
100
AcDbSymbolTable
 70
    17
  0
APPID
  5
12
330
9
100
AcDbSymbolTableRecord
100
AcDbRegAppTableRecord
  2
ACAD
 70
     0
  0
APPID
  5
46
330
9
100
AcDbSymbolTableRecord
100
AcDbRegAppTableRecord
  2
MCAD_NO_VIS
 70
     0
  0
APPID
  5
47
330
9
100
AcDbSymbolTableRecord
100
AcDbRegAppTableRecord
  2
ACAD_TEMP_GRAPHIC
 70
     0
  0
APPID
  5
58
330
9
100
AcDbSymbolTableRecord
100
AcDbRegAppTableRecord
  2
ACATTRIBSERVICES
 70
     0
  0
APPID
  5
EE
330
9
100
AcDbSymbolTableRecord
100
AcDbRegAppTableRecord
  2
AD_DRAW
 70
     0
  0
APPID
  5
10C
330
9
100
AcDbSymbolTableRecord
100
AcDbRegAppTableRecord
  2
DESIGNERASSEMBLIES
 70
     0
  0
APPID
  5
111
330
9
100
AcDbSymbolTableRecord
100
AcDbRegAppTableRecord
  2
ACADM_DIM_EDIT
 70
     0
  0
APPID
  5
112
330
9
100
AcDbSymbolTableRecord
100
AcDbRegAppTableRecord
  2
AMDT_DM_ADJ
 70
     0
  0
APPID
  5
243
330
9
100
AcDbSymbolTableRecord
100
AcDbRegAppTableRecord
  2
ACAD_DSTYLE_DIMTEXT_FILL
 70
     0
  0
APPID
  5
3B4
330
9
100
AcDbSymbolTableRecord
100
AcDbRegAppTableRecord
  2
ACAD_PSEXT
 70
     0
  0
APPID
  5
45A
330
9
100
AcDbSymbolTableRecord
100
AcDbRegAppTableRecord
  2
GENIUS_GENODEF_13
 70
     0
  0
APPID
  5
45B
330
9
100
AcDbSymbolTableRecord
100
AcDbRegAppTableRecord
  2
GENIUS_GENOBJ-N-CEN_13
 70
     0
  0
APPID
  5
45C
330
9
100
AcDbSymbolTableRecord
100
AcDbRegAppTableRecord
  2
GENIUS_GENCEN_19
 70
     0
  0
APPID
  5
45D
330
9
100
AcDbSymbolTableRecord
100
AcDbRegAppTableRecord
  2
ACAD_DIMASSOC_DIMLFAC
 70
     0
  0
APPID
  5
45E
330
9
100
AcDbSymbolTableRecord
100
AcDbRegAppTableRecord
  2
ACAD_DIMASSOC_CALC_DIMLFAC
 70
     0
  0
APPID
  5
45F
330
9
100
AcDbSymbolTableRecord
100
AcDbRegAppTableRecord
  2
ACAD_DIMASSOC_OVERRIDDEN_DIMLFAC
 70
     0
  0
APPID
  5
460
330
9
100
AcDbSymbolTableRecord
100
AcDbRegAppTableRecord
  2
GENIUS_GENOBJ-N-FIL_13
 70
     0
  0
ENDTAB
  0
TABLE
  2
DIMSTYLE
  5
A
330
0
100
AcDbSymbolTable
 70
    16
100
AcDbDimStyleTable
 71
     2
340
216
340
81
  0
DIMSTYLE
105
81
330
A
100
AcDbSymbolTableRecord
100
AcDbDimStyleTableRecord
  2
AM_ISO
 70
     0
  4
"
 41
2.5
 42
1.0
 43
10.0
 44
1.0
 47
0.1
 48
0.1
 73
     0
 74
     0
 77
     1
 78
     8
 79
     2
140
3.5
141
0.0
143
0.0393701
146
0.71
147
1.5
172
     1
176
   256
177
   256
178
     2
271
     2
272
     3
274
     4
283
     0
284
     8
340
11
371
    -1
372
    -1
  0
DIMSTYLE
105
82
330
A
100
AcDbSymbolTableRecord
100
AcDbDimStyleTableRecord
  2
AM_ISO$3
 70
     0
  4
"
 41
2.5
 42
1.0
 43
10.0
 44
1.0
 47
0.1
 48
0.1
 73
     0
 77
     1
 78
     8
 79
     2
140
3.5
141
0.0
143
0.0393701
146
0.71
147
1.5
176
   256
177
   256
178
     2
271
     2
272
     3
274
     4
283
     0
284
     8
288
     1
289
     0
340
11
371
    -1
372
    -1
  0
DIMSTYLE
105
83
330
A
100
AcDbSymbolTableRecord
100
AcDbDimStyleTableRecord
  2
AM_ISO$4
 70
     0
  4
"
 41
2.5
 42
1.0
 43
10.0
 44
1.0
 47
0.1
 48
0.1
 73
     0
 77
     1
 78
     8
 79
     2
140
3.5
141
0.0
143
0.0393701
146
0.71
147
1.5
176
   256
177
   256
178
     2
271
     2
272
     3
274
     4
283
     0
284
     8
288
     1
289
     0
340
11
371
    -1
372
    -1
  0
DIMSTYLE
105
84
330
A
100
AcDbSymbolTableRecord
100
AcDbDimStyleTableRecord
  2
AM_ISO$6
 70
     0
  4
"
 41
2.5
 42
1.0
 43
10.0
 44
1.0
 47
0.1
 48
0.1
 73
     0
 74
     0
 78
     8
 79
     2
140
3.5
141
0.0
143
0.0393701
146
0.71
147
1.5
172
     1
176
   256
177
   256
178
     2
271
     2
272
     3
274
     4
283
     0
284
     8
340
11
371
    -1
372
    -1
  0
DIMSTYLE
105
85
330
A
100
AcDbSymbolTableRecord
100
AcDbDimStyleTableRecord
  2
AM_ISO$7
 70
     0
  4
"
 41
2.5
 42
1.0
 43
10.0
 44
1.0
 47
0.1
 48
0.1
 73
     0
 74
     0
 77
     1
 78
     8
 79
     2
140
5.0
141
0.0
143
0.0393701
146
0.71
147
1.5
172
     1
176
   256
177
   256
178
     2
271
     2
272
     3
274
     4
283
     0
284
     8
340
11
371
    -1
372
    -1
  0
DIMSTYLE
105
86
330
A
100
AcDbSymbolTableRecord
100
AcDbDimStyleTableRecord
  2
AM_ISO$SF
 70
     0
  4
"
 41
2.5
 42
1.0
 43
10.0
 44
1.0
 47
0.1
 48
0.1
 73
     0
 74
     0
 75
     1
 76
     1
 77
     1
 78
     8
 79
     2
140
3.5
141
0.0
143
0.0393701
146
0.71
147
1.5
172
     1
176
   256
177
   256
178
     2
271
     2
272
     3
274
     4
283
     0
284
     8
340
11
371
    -1
372
    -1
  0
DIMSTYLE
105
8B
330
A
100
AcDbSymbolTableRecord
100
AcDbDimStyleTableRecord
  2
AM_ISO$SH
 70
     0
  4
"
 41
2.5
 42
1.0
 43
10.0
 44
1.0
 47
0.1
 48
0.1
 73
     0
 74
     0
 75
     1
 76
     1
 77
     1
 78
     8
 79
     2
140
3.5
141
0.0
143
0.0393701
144
2.0
146
0.71
147
1.5
172
     1
173
     1
176
   256
177
   256
178
     2
271
     2
272
     3
274
     4
283
     0
284
     8
340
11
343
87
371
    -1
372
    -1
  0
DIMSTYLE
105
216
330
A
100
AcDbSymbolTableRecord
100
AcDbDimStyleTableRecord
  2
AM_JIS
 70
     0
  4
"
 41
2.5
 42
1.0
 43
10.0
 44
1.0
 47
0.1
 48
0.1000000001
 73
     0
 74
     0
 77
     3
 78
     8
 79
     2
140
3.799999999999999
141
0.0
143
0.0393701
146
0.71
147
1.5
172
     1
176
   256
177
   256
178
     2
271
     2
272
     2
275
     1
283
     0
284
     8
340
11
341
217
342
217
371
    -1
372
    -1
  0
DIMSTYLE
105
21D
330
A
100
AcDbSymbolTableRecord
100
AcDbDimStyleTableRecord
  2
AM_JIS$3
 70
     0
  4
"
 41
2.5
 42
1.0
 43
10.0
 44
1.0
 47
0.1
 48
0.1000000001
 73
     0
 77
     3
 78
     8
 79
     2
140
3.799999999999999
141
0.0
143
0.0393701
146
0.71
147
1.5
176
   256
177
   256
178
     2
271
     2
272
     2
275
     1
283
     0
284
     8
288
     1
289
     0
340
11
341
217
342
217
371
    -1
372
    -1
  0
DIMSTYLE
105
21E
330
A
100
AcDbSymbolTableRecord
100
AcDbDimStyleTableRecord
  2
AM_JIS$4
 70
     0
  4
"
 41
2.5
 42
1.0
 43
10.0
 44
1.0
 47
0.1
 48
0.1000000001
 73
     0
 77
     3
 78
     8
 79
     2
140
3.799999999999999
141
0.0
143
0.0393701
146
0.71
147
1.5
176
   256
177
   256
178
     2
271
     2
272
     2
275
     1
283
     0
284
     8
288
     1
289
     0
340
11
341
217
342
217
371
    -1
372
    -1
  0
DIMSTYLE
105
21F
330
A
100
AcDbSymbolTableRecord
100
AcDbDimStyleTableRecord
  2
AM_JIS$6
 70
     0
  4
"
 41
2.5
 42
1.0
 43
10.0
 44
1.0
 47
0.1
 48
0.1000000001
 73
     0
 74
     0
 78
     8
 79
     2
140
3.799999999999999
141
0.0
143
0.0393701
146
0.71
147
1.5
172
     1
176
   256
177
   256
178
     2
271
     2
272
     2
275
     1
283
     0
284
     8
340
11
341
217
342
217
371
    -1
372
    -1
  0
DIMSTYLE
105
220
330
A
100
AcDbSymbolTableRecord
100
AcDbDimStyleTableRecord
  2
AM_JIS$7
 70
     0
  4
"
 41
2.5
 42
1.0
 43
10.0
 44
1.0
 47
0.1
 48
0.1000000001
 73
     0
 74
     0
 77
     3
 78
     8
 79
     2
140
5.0
141
0.0
143
0.0393701
146
0.71
147
1.5
172
     1
176
   256
177
   256
178
     2
271
     2
272
     2
275
     1
283
     0
284
     8
340
11
341
217
342
217
371
    -1
372
    -1
  0
DIMSTYLE
105
221
330
A
100
AcDbSymbolTableRecord
100
AcDbDimStyleTableRecord
  2
AM_JIS$SF
 70
     0
  4
"
 41
2.5
 42
1.0
 43
10.0
 44
1.0
 47
0.1
 48
0.1
 73
     0
 74
     0
 75
     1
 76
     1
 77
     3
 78
     8
 79
     2
140
3.5
141
0.0
143
0.0393701
146
0.71
147
1.5
172
     1
176
   256
177
   256
178
     2
271
     2
272
     3
274
     4
283
     0
284
     8
340
11
341
217
342
217
343
217
344
217
371
    -1
372
    -1
  0
DIMSTYLE
105
222
330
A
100
AcDbSymbolTableRecord
100
AcDbDimStyleTableRecord
  2
AM_JIS$SH
 70
     0
  4
"
 41
2.5
 42
1.0
 43
10.0
 44
1.0
 47
0.1
 48
0.1
 73
     0
 74
     0
 75
     1
 76
     1
 77
     3
 78
     8
 79
     2
140
3.5
141
0.0
143
0.0393701
144
2.0
146
0.71
147
1.5
172
     1
173
     1
176
   256
177
   256
178
     2
271
     2
272
     3
274
     4
283
     0
284
     8
340
11
341
217
342
217
343
87
344
217
371
    -1
372
    -1
  0
DIMSTYLE
105
458
102
{ACAD_REACTORS
330
793
330
798
330
7D5
330
7D8
330
7DB
330
7DC
330
A13
330
A14
330
A16
102
}
330
A
100
AcDbSymbolTableRecord
100
AcDbDimStyleTableRecord
  2
AM_JIS$0
 70
     0
  4
"
 41
2.5
 42
0.0
 43
10.0
 44
1.0
 48
0.000000001
 73
     0
 74
     0
 77
     3
 78
     1
 79
     2
140
3.799999999999998
141
0.0
143
0.0393701
146
0.71
147
1.5
172
     1
176
   256
177
   256
178
     2
179
     1
271
     3
272
     3
275
     1
283
     0
284
     8
340
11
341
217
342
217
371
    -1
372
    -1
  0
DIMSTYLE
105
459
102
{ACAD_REACTORS
330
A3E
102
}
330
A
100
AcDbSymbolTableRecord
100
AcDbDimStyleTableRecord
  2
AM_JIS$2
 70
     0
  4
"
 41
2.5
 42
1.0
 43
10.0
 44
1.0
 47
0.1
 48
0.1
 73
     0
 74
     0
 77
     3
 78
     8
 79
     2
140
3.5
141
0.0
143
0.0393701
146
0.71
147
1.5
172
     1
176
   256
177
   256
178
     2
271
     2
272
     3
274
     4
283
     0
284
     8
340
11
341
217
342
217
343
217
344
217
371
    -1
372
    -1
  0
ENDTAB
  0
TABLE
  2
BLOCK_RECORD
  5
1
330
0
100
AcDbSymbolTable
 70
    15
  0
BLOCK_RECORD
  5
1F
102
{ACAD_XDICTIONARY
360
8F
102
}
330
1
100
AcDbSymbolTableRecord
100
AcDbBlockTableRecord
  2
*Model_Space
340
22
  0
BLOCK_RECORD
  5
1B
330
1
100
AcDbSymbolTableRecord
100
AcDbBlockTableRecord
  2
*Paper_Space
340
1E
  0
BLOCK_RECORD
  5
23
330
1
100
AcDbSymbolTableRecord
100
AcDbBlockTableRecord
  2
*Paper_Space0
340
26
  0
BLOCK_RECORD
  5
87
330
1
100
AcDbSymbolTableRecord
100
AcDbBlockTableRecord
  2
GENAXEH
340
0
  0
BLOCK_RECORD
  5
217
330
1
100
AcDbSymbolTableRecord
100
AcDbBlockTableRecord
  2
_Open30
340
0
  0
BLOCK_RECORD
  5
3DD
330
1
100
AcDbSymbolTableRecord
100
AcDbBlockTableRecord
  2
_None
340
0
  0
BLOCK_RECORD
  5
7F4
330
1
100
AcDbSymbolTableRecord
100
AcDbBlockTableRecord
  2
*D4
340
0
  0
BLOCK_RECORD
  5
7FE
330
1
100
AcDbSymbolTableRecord
100
AcDbBlockTableRecord
  2
*D5
340
0
  0
BLOCK_RECORD
  5
811
330
1
100
AcDbSymbolTableRecord
100
AcDbBlockTableRecord
  2
*D6
340
0
  0
BLOCK_RECORD
  5
81B
330
1
100
AcDbSymbolTableRecord
100
AcDbBlockTableRecord
  2
*D7
340
0
  0
BLOCK_RECORD
  5
825
330
1
100
AcDbSymbolTableRecord
100
AcDbBlockTableRecord
  2
*D8
340
0
  0
BLOCK_RECORD
  5
838
330
1
100
AcDbSymbolTableRecord
100
AcDbBlockTableRecord
  2
*D9
340
0
  0
BLOCK_RECORD
  5
A41
330
1
100
AcDbSymbolTableRecord
100
AcDbBlockTableRecord
  2
*D10
340
0
  0
BLOCK_RECORD
  5
A49
330
1
100
AcDbSymbolTableRecord
100
AcDbBlockTableRecord
  2
*D11
340
0
  0
BLOCK_RECORD
  5
A51
330
1
100
AcDbSymbolTableRecord
100
AcDbBlockTableRecord
  2
*D12
340
0
  0
BLOCK_RECORD
  5
A72
330
1
100
AcDbSymbolTableRecord
100
AcDbBlockTableRecord
  2
*D13
340
0
  0
ENDTAB
  0
ENDSEC
  0
SECTION
  2
BLOCKS
  0
BLOCK
  5
20
330
1F
100
AcDbEntity
  8
0
100
AcDbBlockBegin
  2
*Model_Space
 70
     0
 10
0.0
 20
0.0
 30
0.0
  3
*Model_Space
  1

  0
ENDBLK
  5
21
330
1F
100
AcDbEntity
  8
0
100
AcDbBlockEnd
  0
BLOCK
  5
1C
330
1B
100
AcDbEntity
 67
     1
  8
0
100
AcDbBlockBegin
  2
*Paper_Space
 70
     0
 10
0.0
 20
0.0
 30
0.0
  3
*Paper_Space
  1

  0
ENDBLK
  5
1D
330
1B
100
AcDbEntity
 67
     1
  8
0
100
AcDbBlockEnd
  0
BLOCK
  5
24
330
23
100
AcDbEntity
  8
0
100
AcDbBlockBegin
  2
*Paper_Space0
 70
     0
 10
0.0
 20
0.0
 30
0.0
  3
*Paper_Space0
  1

  0
ENDBLK
  5
25
330
23
100
AcDbEntity
  8
0
100
AcDbBlockEnd
  0
BLOCK
  5
C3A
330
87
100
AcDbEntity
  8
0
100
AcDbBlockBegin
  2
GENAXEH
 70
     0
 10
0.0
 20
0.0
 30
0.0
  3
GENAXEH
  1

  0
LINE
  5
C3B
330
87
100
AcDbEntity
  8
0
100
AcDbLine
 10
-1.0
 20
0.0
 30
0.0
 11
1.0
 21
0.0
 31
0.0
  0
ENDBLK
  5
C3C
330
87
100
AcDbEntity
  8
0
100
AcDbBlockEnd
  0
BLOCK
  5
C5A
330
217
100
AcDbEntity
  8
0
100
AcDbBlockBegin
  2
_Open30
 70
     0
 10
0.0
 20
0.0
 30
0.0
  3
_Open30
  1

  0
LINE
  5
C5B
330
217
100
AcDbEntity
  8
0
  6
ByBlock
 62
     0
370
    -2
100
AcDbLine
 10
-1.0
 20
0.26794919
 30
0.0
 11
0.0
 21
0.0
 31
0.0
  0
LINE
  5
C5C
330
217
100
AcDbEntity
  8
0
  6
ByBlock
 62
     0
370
    -2
100
AcDbLine
 10
0.0
 20
0.0
 30
0.0
 11
-1.0
 21
-0.26794919
 31
0.0
  0
LINE
  5
C5D
330
217
100
AcDbEntity
  8
0
  6
ByBlock
 62
     0
370
    -2
100
AcDbLine
 10
0.0
 20
0.0
 30
0.0
 11
-1.0
 21
0.0
 31
0.0
  0
ENDBLK
  5
C5E
330
217
100
AcDbEntity
  8
0
100
AcDbBlockEnd
  0
BLOCK
  5
3DE
330
3DD
100
AcDbEntity
  8
0
370
    -3
100
AcDbBlockBegin
  2
_None
 70
     0
 10
0.0
 20
0.0
 30
0.0
  3
_None
  1

  0
ENDBLK
  5
3DF
330
3DD
100
AcDbEntity
  8
0
370
    -3
100
AcDbBlockEnd
  0
BLOCK
  5
842
330
7F4
100
AcDbEntity
  8
0
100
AcDbBlockBegin
  2
*D4
 70
     1
 10
0.0
 20
0.0
 30
0.0
  3
*D4
  1

  0
LINE
  5
B41
330
7F4
100
AcDbEntity
  8
AM_5
100
AcDbLine
 10
-61.5000136739394
 20
20.0
 30
0.0
 11
-86.94229385382937
 21
20.0
 31
0.0
  0
LINE
  5
B42
330
7F4
100
AcDbEntity
  8
AM_5
100
AcDbLine
 10
-61.50000834515231
 20
-20.0
 30
0.0
 11
-86.94229385382937
 21
-20.0
 31
0.0
  0
LINE
  5
B43
330
7F4
100
AcDbEntity
  8
AM_5
100
AcDbLine
 10
-85.94229385382936
 20
17.5
 30
0.0
 11
-85.94229385382936
 21
-17.5
 31
0.0
  0
INSERT
  5
B44
330
7F4
100
AcDbEntity
  8
AM_5
100
AcDbBlockReference
  2
_Open30
 10
-85.94229385382936
 20
20.0
 30
0.0
 41
2.5
 42
2.5
 43
2.5
 50
90.0
  0
INSERT
  5
B45
330
7F4
100
AcDbEntity
  8
AM_5
100
AcDbBlockReference
  2
_Open30
 10
-85.94229385382936
 20
-20.0
 30
0.0
 41
2.5
 42
2.5
 43
2.5
 50
270.0
  0
MTEXT
  5
B46
330
7F4
100
AcDbEntity
  8
AM_5
 62
     2
100
AcDbMText
 10
-89.34229385382939
 20
1.042352815226421
 30
0.0
 40
3.799999999999998
 41
0.0
 71
     5
 72
     1
  1
%%c40
 11
0.0000000000000001
 21
1.0
 31
0.0
 73
     1
 44
1.0
1001
ACAD
1000
MTEXTBEGIN
1070
    73
1070
     1
1070
    44
1040
1.0
1070
    74
1070
     0
1000
MTEXTEND
  0
POINT
  5
B47
330
7F4
100
AcDbEntity
  8
Defpoints
 62
     0
100
AcDbPoint
 10
-61.5000136739394
 20
20.0
 30
0.0
  0
POINT
  5
B48
330
7F4
100
AcDbEntity
  8
Defpoints
 62
     0
100
AcDbPoint
 10
-61.50000834515231
 20
-20.0
 30
0.0
  0
POINT
  5
B49
330
7F4
100
AcDbEntity
  8
Defpoints
 62
     0
100
AcDbPoint
 10
-85.94229385382936
 20
-20.0
 30
0.0
  0
ENDBLK
  5
843
330
7F4
100
AcDbEntity
  8
0
100
AcDbBlockEnd
  0
BLOCK
  5
844
330
7FE
100
AcDbEntity
  8
0
100
AcDbBlockBegin
  2
*D5
 70
     1
 10
0.0
 20
0.0
 30
0.0
  3
*D5
  1

  0
LINE
  5
B65
330
7FE
100
AcDbEntity
  8
AM_5
100
AcDbLine
 10
-16.0359390000001
 20
28.0
 30
0.0
 11
4.157119000000205
 21
28.0
 31
0.0
  0
LINE
  5
B66
330
7FE
100
AcDbEntity
  8
AM_5
100
AcDbLine
 10
-16.0359390000001
 20
-28.0
 30
0.0
 11
4.157119000000193
 21
-28.00000000000001
 31
0.0
  0
LINE
  5
B67
330
7FE
100
AcDbEntity
  8
AM_5
100
AcDbLine
 10
3.157119000000204
 20
25.5
 30
0.0
 11
3.157119000000192
 21
-25.50000000000001
 31
0.0
  0
INSERT
  5
B68
330
7FE
100
AcDbEntity
  8
AM_5
100
AcDbBlockReference
  2
_Open30
 10
3.157119000000204
 20
28.0
 30
0.0
 41
2.5
 42
2.5
 43
2.5
 50
90.0
  0
INSERT
  5
B69
330
7FE
100
AcDbEntity
  8
AM_5
100
AcDbBlockReference
  2
_Open30
 10
3.157119000000192
 20
-28.00000000000001
 30
0.0
 41
2.5
 42
2.5
 43
2.5
 50
270.0
  0
MTEXT
  5
B6A
330
7FE
100
AcDbEntity
  8
AM_5
 62
     2
100
AcDbMText
 10
-0.2428809999998003
 20
-0.0000000000000033
 30
0.0
 40
3.799999999999998
 41
0.0
 71
     5
 72
     1
  1
%%c56
 11
0.0000000000000001
 21
1.0
 31
0.0
 73
     1
 44
1.0
1001
ACAD
1000
MTEXTBEGIN
1070
    73
1070
     1
1070
    44
1040
1.0
1070
    74
1070
     0
1000
MTEXTEND
  0
POINT
  5
B6B
330
7FE
100
AcDbEntity
  8
Defpoints
 62
     0
100
AcDbPoint
 10
-16.0359390000001
 20
28.0
 30
0.0
  0
POINT
  5
B6C
330
7FE
100
AcDbEntity
  8
Defpoints
 62
     0
100
AcDbPoint
 10
-16.0359390000001
 20
-28.0
 30
0.0
  0
POINT
  5
B6D
330
7FE
100
AcDbEntity
  8
Defpoints
 62
     0
100
AcDbPoint
 10
3.157119000000192
 20
-28.00000000000001
 30
0.0
  0
ENDBLK
  5
845
330
7FE
100
AcDbEntity
  8
0
100
AcDbBlockEnd
  0
BLOCK
  5
846
330
811
100
AcDbEntity
  8
0
100
AcDbBlockBegin
  2
*D6
 70
     1
 10
0.0
 20
0.0
 30
0.0
  3
*D6
  1

  0
LINE
  5
B4A
330
811
100
AcDbEntity
  8
AM_5
100
AcDbLine
 10
-61.80000000000018
 20
8.199999999999995
 30
0.0
 11
-70.67426440325675
 21
8.199999999999997
 31
0.0
  0
LINE
  5
B4B
330
811
100
AcDbEntity
  8
AM_5
100
AcDbLine
 10
-61.80000000000018
 20
-8.199999999999995
 30
0.0
 11
-70.67426440325675
 21
-8.199999999999992
 31
0.0
  0
LINE
  5
B4C
330
811
100
AcDbEntity
  8
AM_5
100
AcDbLine
 10
-69.67426440325676
 20
5.699999999999996
 30
0.0
 11
-69.67426440325676
 21
-5.699999999999993
 31
0.0
  0
INSERT
  5
B4D
330
811
100
AcDbEntity
  8
AM_5
100
AcDbBlockReference
  2
_Open30
 10
-69.67426440325676
 20
8.199999999999997
 30
0.0
 41
2.5
 42
2.5
 43
2.5
 50
90.0
  0
INSERT
  5
B4E
330
811
100
AcDbEntity
  8
AM_5
100
AcDbBlockReference
  2
_Open30
 10
-69.67426440325676
 20
-8.199999999999992
 30
0.0
 41
2.5
 42
2.5
 43
2.5
 50
270.0
  0
MTEXT
  5
B4F
330
811
100
AcDbEntity
  8
AM_5
 62
     2
100
AcDbMText
 10
-73.07426440325676
 20
0.0000000000000244
 30
0.0
 40
3.799999999999998
 41
0.0
 71
     5
 72
     1
  1
16.4
 11
0.0000000000000001
 21
1.0
 31
0.0
 73
     1
 44
1.0
1001
ACAD
1000
MTEXTBEGIN
1070
    73
1070
     1
1070
    44
1040
1.0
1070
    74
1070
     0
1000
MTEXTEND
  0
POINT
  5
B50
330
811
100
AcDbEntity
  8
Defpoints
 62
     0
100
AcDbPoint
 10
-61.80000000000018
 20
8.199999999999995
 30
0.0
  0
POINT
  5
B51
330
811
100
AcDbEntity
  8
Defpoints
 62
     0
100
AcDbPoint
 10
-61.80000000000018
 20
-8.199999999999995
 30
0.0
  0
POINT
  5
B52
330
811
100
AcDbEntity
  8
Defpoints
 62
     0
100
AcDbPoint
 10
-69.67426440325676
 20
-8.199999999999992
 30
0.0
  0
ENDBLK
  5
847
330
811
100
AcDbEntity
  8
0
100
AcDbBlockEnd
  0
BLOCK
  5
848
330
81B
100
AcDbEntity
  8
0
100
AcDbBlockBegin
  2
*D7
 70
     1
 10
0.0
 20
0.0
 30
0.0
  3
*D7
  1

  0
LINE
  5
B53
330
81B
100
AcDbEntity
  8
AM_5
100
AcDbLine
 10
-63.0
 20
-38.0
 30
0.0
 11
-63.0
 21
-28.8880627012782
 31
0.0
  0
LINE
  5
B54
330
81B
100
AcDbEntity
  8
AM_5
100
AcDbLine
 10
-53.49999999999988
 20
-8.199999999999995
 30
0.0
 11
-53.49999999999988
 21
-30.8880627012782
 31
0.0
  0
LINE
  5
B55
330
81B
100
AcDbEntity
  8
AM_5
100
AcDbLine
 10
-60.5
 20
-29.8880627012782
 30
0.0
 11
-55.99999999999988
 21
-29.8880627012782
 31
0.0
  0
INSERT
  5
B56
330
81B
100
AcDbEntity
  8
AM_5
100
AcDbBlockReference
  2
_Open30
 10
-63.0
 20
-29.8880627012782
 30
0.0
 41
2.5
 42
2.5
 43
2.5
 50
180.0
  0
INSERT
  5
B57
330
81B
100
AcDbEntity
  8
AM_5
100
AcDbBlockReference
  2
_Open30
 10
-53.49999999999988
 20
-29.8880627012782
 30
0.0
 41
2.5
 42
2.5
 43
2.5
  0
MTEXT
  5
B58
330
81B
100
AcDbEntity
  8
AM_5
 62
     2
100
AcDbMText
 10
-58.04557020147264
 20
-26.4880627012782
 30
0.0
 40
3.799999999999998
 41
0.0
 71
     5
 72
     1
  1
9.5
 73
     1
 44
1.0
1001
ACAD
1000
MTEXTBEGIN
1070
    73
1070
     1
1070
    44
1040
1.0
1070
    74
1070
     0
1000
MTEXTEND
  0
POINT
  5
B59
330
81B
100
AcDbEntity
  8
Defpoints
 62
     0
100
AcDbPoint
 10
-63.0
 20
-38.0
 30
0.0
  0
POINT
  5
B5A
330
81B
100
AcDbEntity
  8
Defpoints
 62
     0
100
AcDbPoint
 10
-53.49999999999988
 20
-8.199999999999995
 30
0.0
  0
POINT
  5
B5B
330
81B
100
AcDbEntity
  8
Defpoints
 62
     0
100
AcDbPoint
 10
-53.49999999999988
 20
-29.8880627012782
 30
0.0
  0
ENDBLK
  5
849
330
81B
100
AcDbEntity
  8
0
100
AcDbBlockEnd
  0
BLOCK
  5
84A
330
825
100
AcDbEntity
  8
0
100
AcDbBlockBegin
  2
*D8
 70
     1
 10
0.0
 20
0.0
 30
0.0
  3
*D8
  1

  0
LINE
  5
B5C
330
825
100
AcDbEntity
  8
AM_5
100
AcDbLine
 10
-63.0
 20
-38.0
 30
0.0
 11
-63.0
 21
-57.55974151898151
 31
0.0
  0
LINE
  5
B5D
330
825
100
AcDbEntity
  8
AM_5
100
AcDbLine
 10
-34.0
 20
-28.00000000000001
 30
0.0
 11
-34.0
 21
-57.55974151898151
 31
0.0
  0
LINE
  5
B5E
330
825
100
AcDbEntity
  8
AM_5
100
AcDbLine
 10
-60.5
 20
-56.5597415189815
 30
0.0
 11
-36.5
 21
-56.5597415189815
 31
0.0
  0
INSERT
  5
B5F
330
825
100
AcDbEntity
  8
AM_5
100
AcDbBlockReference
  2
_Open30
 10
-63.0
 20
-56.5597415189815
 30
0.0
 41
2.5
 42
2.5
 43
2.5
 50
180.0
  0
INSERT
  5
B60
330
825
100
AcDbEntity
  8
AM_5
100
AcDbBlockReference
  2
_Open30
 10
-34.0
 20
-56.5597415189815
 30
0.0
 41
2.5
 42
2.5
 43
2.5
  0
MTEXT
  5
B61
330
825
100
AcDbEntity
  8
AM_5
 62
     2
100
AcDbMText
 10
-48.5
 20
-53.15936750323349
 30
0.0
 40
3.799999999999998
 41
0.0
 71
     5
 72
     1
  1
29
 73
     1
 44
1.0
1001
ACAD
1000
MTEXTBEGIN
1070
    73
1070
     1
1070
    44
1040
1.0
1070
    74
1070
     0
1000
MTEXTEND
  0
POINT
  5
B62
330
825
100
AcDbEntity
  8
Defpoints
 62
     0
100
AcDbPoint
 10
-63.0
 20
-38.0
 30
0.0
  0
POINT
  5
B63
330
825
100
AcDbEntity
  8
Defpoints
 62
     0
100
AcDbPoint
 10
-34.0
 20
-28.00000000000001
 30
0.0
  0
POINT
  5
B64
330
825
100
AcDbEntity
  8
Defpoints
 62
     0
100
AcDbPoint
 10
-34.0
 20
-56.5597415189815
 30
0.0
  0
ENDBLK
  5
84B
330
825
100
AcDbEntity
  8
0
100
AcDbBlockEnd
  0
BLOCK
  5
84C
330
838
100
AcDbEntity
  8
0
100
AcDbBlockBegin
  2
*D9
 70
     1
 10
0.0
 20
0.0
 30
0.0
  3
*D9
  1

  0
LINE
  5
B6E
330
838
100
AcDbEntity
  8
AM_5
100
AcDbLine
 10
-61.0
 20
40.0
 30
0.0
 11
-105.6866412437102
 21
40.0
 31
0.0
  0
LINE
  5
B6F
330
838
100
AcDbEntity
  8
AM_5
100
AcDbLine
 10
-61.0
 20
-40.0
 30
0.0
 11
-105.6866412437102
 21
-40.0
 31
0.0
  0
LINE
  5
B70
330
838
100
AcDbEntity
  8
AM_5
100
AcDbLine
 10
-104.6866412437102
 20
37.50000000000001
 30
0.0
 11
-104.6866412437102
 21
-37.5
 31
0.0
  0
INSERT
  5
B71
330
838
100
AcDbEntity
  8
AM_5
100
AcDbBlockReference
  2
_Open30
 10
-104.6866412437102
 20
40.0
 30
0.0
 41
2.5
 42
2.5
 43
2.5
 50
90.0
  0
INSERT
  5
B72
330
838
100
AcDbEntity
  8
AM_5
100
AcDbBlockReference
  2
_Open30
 10
-104.6866412437102
 20
-40.0
 30
0.0
 41
2.5
 42
2.5
 43
2.5
 50
270.0
  0
MTEXT
  5
B73
330
838
100
AcDbEntity
  8
AM_5
 62
     2
100
AcDbMText
 10
-108.0866412437102
 20
-0.0000000000000074
 30
0.0
 40
3.799999999999998
 41
0.0
 71
     5
 72
     1
  1
%%c80
 11
0.0000000000000001
 21
1.0
 31
0.0
 73
     1
 44
1.0
1001
ACAD
1000
MTEXTBEGIN
1070
    73
1070
     1
1070
    44
1040
1.0
1070
    74
1070
     0
1000
MTEXTEND
  0
POINT
  5
B74
330
838
100
AcDbEntity
  8
Defpoints
 62
     0
100
AcDbPoint
 10
-61.0
 20
40.0
 30
0.0
  0
POINT
  5
B75
330
838
100
AcDbEntity
  8
Defpoints
 62
     0
100
AcDbPoint
 10
-61.0
 20
-40.0
 30
0.0
  0
POINT
  5
B76
330
838
100
AcDbEntity
  8
Defpoints
 62
     0
100
AcDbPoint
 10
-104.6866412437102
 20
-40.0
 30
0.0
  0
ENDBLK
  5
84D
330
838
100
AcDbEntity
  8
0
100
AcDbBlockEnd
  0
BLOCK
  5
A7E
330
A41
100
AcDbEntity
  8
0
100
AcDbBlockBegin
  2
*D10
 70
     1
 10
0.0
 20
0.0
 30
0.0
  3
*D10
  1

  0
LINE
  5
B77
330
A41
100
AcDbEntity
  8
AM_5
100
AcDbLine
 10
0.0
 20
62.5
 30
0.0
 11
21.2683225079626
 21
62.5
 31
0.0
  0
LINE
  5
B78
330
A41
100
AcDbEntity
  8
AM_5
100
AcDbLine
 10
20.26832250796258
 20
-0.0000000000000094
 30
0.0
 11
20.26832250796259
 21
60.0
 31
0.0
  0
INSERT
  5
B79
330
A41
100
AcDbEntity
  8
AM_5
100
AcDbBlockReference
  2
_Open30
 10
20.26832250796259
 20
62.5
 30
0.0
 41
2.5
 42
2.5
 43
2.5
 50
90.0
  0
MTEXT
  5
B7A
330
A41
100
AcDbEntity
  8
AM_5
 62
     2
100
AcDbMText
 10
16.86794849221455
 20
0.5242129519403425
 30
0.0
 40
3.799999999999998
 41
0.0
 71
     5
 72
     1
  1
%%c125
 11
0.0000000000000001
 21
1.0
 31
0.0
 73
     1
 44
1.0
1001
ACAD
1000
MTEXTBEGIN
1070
    73
1070
     1
1070
    44
1040
1.0
1070
    74
1070
     0
1000
MTEXTEND
  0
POINT
  5
B7B
330
A41
100
AcDbEntity
  8
Defpoints
 62
     0
100
AcDbPoint
 10
-12.84844501800626
 20
0.0
 30
0.0
  0
POINT
  5
B7C
330
A41
100
AcDbEntity
  8
Defpoints
 62
     0
100
AcDbPoint
 10
0.0
 20
62.5
 30
0.0
  0
POINT
  5
B7D
330
A41
100
AcDbEntity
  8
Defpoints
 62
     0
100
AcDbPoint
 10
20.26832250796259
 20
62.5
 30
0.0
  0
ENDBLK
  5
A7F
330
A41
100
AcDbEntity
  8
0
100
AcDbBlockEnd
  0
BLOCK
  5
A80
330
A49
100
AcDbEntity
  8
0
100
AcDbBlockBegin
  2
*D11
 70
     1
 10
0.0
 20
0.0
 30
0.0
  3
*D11
  1

  0
LINE
  5
B7E
330
A49
100
AcDbEntity
  8
AM_5
100
AcDbLine
 10
-8.524463263862344
 20
66.37669966133069
 30
0.0
 11
37.32211345228508
 21
66.37669966133067
 31
0.0
  0
LINE
  5
B7F
330
A49
100
AcDbEntity
  8
AM_5
100
AcDbLine
 10
36.32211345228507
 20
-0.0000000000000139
 30
0.0
 11
36.32211345228508
 21
63.87669966133068
 31
0.0
  0
INSERT
  5
B80
330
A49
100
AcDbEntity
  8
AM_5
100
AcDbBlockReference
  2
_Open30
 10
36.32211345228508
 20
66.37669966133067
 30
0.0
 41
2.5
 42
2.5
 43
2.5
 50
90.0
  0
MTEXT
  5
B81
330
A49
100
AcDbEntity
  8
AM_5
 62
     2
100
AcDbMText
 10
32.92211345228507
 20
1.38829380421879
 30
0.0
 40
3.799999999999998
 41
0.0
 71
     5
 72
     1
  1
%%c133
 11
0.0000000000000001
 21
1.0
 31
0.0
 73
     1
 44
1.0
1001
ACAD
1000
MTEXTBEGIN
1070
    73
1070
     1
1070
    44
1040
1.0
1070
    74
1070
     0
1000
MTEXTEND
  0
POINT
  5
B82
330
A49
100
AcDbEntity
  8
Defpoints
 62
     0
100
AcDbPoint
 10
-12.84844501800626
 20
0.0
 30
0.0
  0
POINT
  5
B83
330
A49
100
AcDbEntity
  8
Defpoints
 62
     0
100
AcDbPoint
 10
-8.524463263862344
 20
66.37669966133069
 30
0.0
  0
POINT
  5
B84
330
A49
100
AcDbEntity
  8
Defpoints
 62
     0
100
AcDbPoint
 10
36.32211345228508
 20
66.37669966133067
 30
0.0
  0
ENDBLK
  5
A81
330
A49
100
AcDbEntity
  8
0
100
AcDbBlockEnd
  0
BLOCK
  5
A82
330
A51
100
AcDbEntity
  8
0
100
AcDbBlockBegin
  2
*D12
 70
     1
 10
0.0
 20
0.0
 30
0.0
  3
*D12
  1

  0
LINE
  5
B85
330
A51
100
AcDbEntity
  8
AM_5
100
AcDbLine
 10
-63.0
 20
38.0
 30
0.0
 11
-63.0
 21
90.07609724136864
 31
0.0
  0
LINE
  5
B86
330
A51
100
AcDbEntity
  8
AM_5
100
AcDbLine
 10
0.0
 20
62.5
 30
0.0
 11
0.0000000000000017
 21
90.07609724136864
 31
0.0
  0
LINE
  5
B87
330
A51
100
AcDbEntity
  8
AM_5
100
AcDbLine
 10
-60.5
 20
89.07609724136866
 30
0.0
 11
-2.499999999999997
 21
89.07609724136866
 31
0.0
  0
INSERT
  5
B88
330
A51
100
AcDbEntity
  8
AM_5
100
AcDbBlockReference
  2
_Open30
 10
-63.0
 20
89.07609724136866
 30
0.0
 41
2.5
 42
2.5
 43
2.5
 50
180.0
  0
INSERT
  5
B89
330
A51
100
AcDbEntity
  8
AM_5
100
AcDbBlockReference
  2
_Open30
 10
0.0000000000000016
 20
89.07609724136866
 30
0.0
 41
2.5
 42
2.5
 43
2.5
  0
MTEXT
  5
B8A
330
A51
100
AcDbEntity
  8
AM_5
 62
     2
100
AcDbMText
 10
-31.5
 20
92.47609724136863
 30
0.0
 40
3.799999999999998
 41
0.0
 71
     5
 72
     1
  1
63
 73
     1
 44
1.0
1001
ACAD
1000
MTEXTBEGIN
1070
    73
1070
     1
1070
    44
1040
1.0
1070
    74
1070
     0
1000
MTEXTEND
  0
POINT
  5
B8B
330
A51
100
AcDbEntity
  8
Defpoints
 62
     0
100
AcDbPoint
 10
-63.0
 20
38.0
 30
0.0
  0
POINT
  5
B8C
330
A51
100
AcDbEntity
  8
Defpoints
 62
     0
100
AcDbPoint
 10
0.0
 20
62.5
 30
0.0
  0
POINT
  5
B8D
330
A51
100
AcDbEntity
  8
Defpoints
 62
     0
100
AcDbPoint
 10
0.0000000000000016
 20
89.07609724136866
 30
0.0
  0
ENDBLK
  5
A83
330
A51
100
AcDbEntity
  8
0
100
AcDbBlockEnd
  0
BLOCK
  5
A84
330
A72
100
AcDbEntity
  8
0
100
AcDbBlockBegin
  2
*D13
 70
     1
 10
0.0
 20
0.0
 30
0.0
  3
*D13
  1

  0
LINE
  5
B99
330
A72
100
AcDbEntity
  8
AM_5
100
AcDbLine
 10
0.0000000000000036
 20
63.50000000000001
 30
0.0
 11
-0.0000000000000711
 21
81.28699268299708
 31
0.0
  0
LINE
  5
B9A
330
A72
100
AcDbEntity
  8
AM_5
100
AcDbLine
 10
-5.664888268844709
 20
65.14127762289422
 30
0.0
 11
-17.02707251938059
 21
70.43955115228701
 31
0.0
  0
ARC
  5
B9B
330
A72
100
AcDbEntity
  8
AM_5
100
AcDbCircle
 10
0.0000000000000036
 20
62.49969684053961
 30
0.0
 40
17.78729584245747
100
AcDbArc
 50
98.05955060452035
 51
146.9404493954807
  0
INSERT
  5
B9C
330
A72
100
AcDbEntity
  8
AM_5
100
AcDbBlockReference
  2
_Open30
 10
-0.0000000000000711
 20
80.28699268299709
 30
0.0
 41
2.5
 42
2.5
 43
2.5
 50
4.029775302260278
  0
INSERT
  5
B9D
330
A72
100
AcDbEntity
  8
AM_5
100
AcDbBlockReference
  2
_Open30
 10
-16.12076473234394
 20
70.01693289054633
 30
0.0
 41
2.5
 42
2.5
 43
2.5
 50
240.9702246977408
  0
MTEXT
  5
B9E
330
A72
100
AcDbEntity
  8
AM_5
 62
     2
100
AcDbMText
 10
-11.30333081682881
 20
80.24237219710313
 30
0.0
 40
3.5
 41
0.0
 71
     5
 72
     1
  1
65°
 11
0.8433914458128823
 21
0.5372996083468294
 31
0.0
 73
     1
 44
1.0
1001
ACAD
1000
MTEXTBEGIN
1070
    73
1070
     1
1070
    44
1040
1.0
1070
    74
1070
     0
1000
MTEXTEND
  0
POINT
  5
B9F
330
A72
100
AcDbEntity
  8
Defpoints
 62
     0
100
AcDbPoint
 10
-6.567178969104768
 20
79.03027619441747
 30
0.0
  0
POINT
  5
BA0
330
A72
100
AcDbEntity
  8
Defpoints
 62
     0
100
AcDbPoint
 10
-1.403681914070944
 20
63.15424446668453
 30
0.0
  0
POINT
  5
BA1
330
A72
100
AcDbEntity
  8
Defpoints
 62
     0
100
AcDbPoint
 10
0.0
 20
62.5
 30
0.0
  0
POINT
  5
BA2
330
A72
100
AcDbEntity
  8
Defpoints
 62
     0
100
AcDbPoint
 10
0.0000000000000071
 20
62.37203492077925
 30
0.0
  0
POINT
  5
BA3
330
A72
100
AcDbEntity
  8
Defpoints
 62
     0
100
AcDbPoint
 10
-4.758580481808048
 20
64.71865936115354
 30
0.0
  0
ENDBLK
  5
A85
330
A72
100
AcDbEntity
  8
0
100
AcDbBlockEnd
  0
ENDSEC
  0
SECTION
  2
ENTITIES
  0
LINE
  5
776
330
1F
100
AcDbEntity
  8
0
100
AcDbLine
 10
-63.0
 20
20.9
 30
0.0
 11
-63.0
 21
38.0
 31
0.0
  0
LINE
  5
778
330
1F
100
AcDbEntity
  8
0
100
AcDbLine
 10
-61.0
 20
40.0
 30
0.0
 11
-41.26996000000008
 21
40.0
 31
0.0
  0
LINE
  5
77B
330
1F
100
AcDbEntity
  8
0
100
AcDbLine
 10
-35.0
 20
-20.00000008010139
 30
0.0
 11
-61.5
 21
-19.99999995880506
 31
0.0
  0
LINE
  5
77C
330
1F
100
AcDbEntity
  8
0
100
AcDbLine
 10
-61.5
 20
19.99999999999994
 30
0.0
 11
-35.0
 21
20.0
 31
0.0
  0
LINE
  5
77D
330
1F
100
AcDbEntity
  8
0
100
AcDbLine
 10
-34.0
 20
20.05
 30
0.0
 11
-34.0
 21
28.0
 31
0.0
  0
LINE
  5
77E
330
1F
100
AcDbEntity
  8
0
100
AcDbLine
 10
-34.0
 20
-28.0
 30
0.0
 11
-34.0
 21
-20.05
 31
0.0
  0
LINE
  5
77F
330
1F
100
AcDbEntity
  8
0
100
AcDbLine
 10
-62.99999999908454
 20
-21.49999995880505
 30
0.0
 11
-61.49999999908454
 21
-19.99999995880505
 31
0.0
  0
LINE
  5
780
330
1F
100
AcDbEntity
  8
0
100
AcDbLine
 10
-61.5
 20
19.99999999999994
 30
0.0
 11
-63.0
 21
21.49999999999995
 31
0.0
  0
ARC
  5
781
330
1F
100
AcDbEntity
  8
1
100
AcDbCircle
 10
-35.0
 20
-21.00000008010139
 30
0.0
 40
1.0
100
AcDbArc
 50
0.0
 51
90.0
  0
ARC
  5
782
330
1F
100
AcDbEntity
  8
1
100
AcDbCircle
 10
-35.0
 20
21.0
 30
0.0
 40
1.0
100
AcDbArc
 50
270.0
 51
0.0
  0
ARC
  5
783
102
{ACAD_REACTORS
330
7DE
102
}
330
1F
100
AcDbEntity
  8
1
370
    -3
100
AcDbCircle
 10
-61.0
 20
38.0
 30
0.0
 40
2.0
100
AcDbArc
 50
90.0
 51
180.0
  0
LINE
  5
787
330
1F
100
AcDbEntity
  8
AM_7
100
AcDbLine
 10
-59.22844637850904
 20
0.0
 30
0.0
 11
-12.84844501800626
 21
0.0
 31
0.0
1001
GENIUS_GENODEF_13
1002
{
1000
HIER
1070
     0
1002
}
1002
{
1000
MANEDIT
1070
     0
1002
}
1002
{
1000
NOSEL
1070
     0
1002
}
1002
{
1000
BEHIND
1070
     0
1002
}
1002
{
1000
OTHER
1070
     0
1002
}
1002
{
1000
REACTOR
1002
}
1001
GENIUS_GENOBJ-N-CEN_13
1002
{
1000
OWNER
1000
GEN
1002
}
1001
GENIUS_GENCEN_19
1002
{
1040
2.793999999999999
1002
}
  0
LINE
  5
788
330
1F
100
AcDbEntity
  8
AM_0
370
    -3
100
AcDbLine
 10
-34.0
 20
20.05
 30
0.0
 11
-34.0
 21
-20.05
 31
0.0
  0
LINE
  5
78A
330
1F
100
AcDbEntity
  8
AM_0
370
    -3
100
AcDbLine
 10
-63.0
 20
20.9
 30
0.0
 11
-62.9999999999999
 21
9.400000000000016
 31
0.0
  0
LINE
  5
78B
330
1F
100
AcDbEntity
  8
AM_0
370
    -3
100
AcDbLine
 10
-62.9999999999999
 20
-9.399999999999957
 30
0.0
 11
-63.0
 21
-20.90000000000001
 31
0.0
  0
LINE
  5
78C
330
1F
100
AcDbEntity
  8
AM_0
370
    -3
100
AcDbLine
 10
-61.5
 20
19.99999999999994
 30
0.0
 11
-61.50000000000011
 21
8.199999999999995
 31
0.0
  0
LINE
  5
78D
330
1F
100
AcDbEntity
  8
AM_0
370
    -3
100
AcDbLine
 10
-61.50000000000011
 20
-8.400000000000051
 30
0.0
 11
-61.50000004027948
 21
-20.0
 31
0.0
  0
LINE
  5
78E
330
1F
100
AcDbEntity
  8
AM_0
370
    -3
100
AcDbLine
 10
-63.0
 20
9.399999999999996
 30
0.0
 11
-61.80000000000018
 21
8.199999999999995
 31
0.0
  0
LINE
  5
78F
102
{ACAD_REACTORS
330
79A
102
}
330
1F
100
AcDbEntity
  8
AM_0
370
    -3
100
AcDbLine
 10
-61.80000000000018
 20
8.199999999999995
 30
0.0
 11
-53.5
 21
8.199999999999995
 31
0.0
  0
LINE
  5
790
330
1F
100
AcDbEntity
  8
AM_0
370
    -3
100
AcDbLine
 10
-63.0
 20
-9.399999999999996
 30
0.0
 11
-61.80000000000018
 21
-8.199999999999995
 31
0.0
  0
LINE
  5
791
102
{ACAD_REACTORS
330
79A
102
}
330
1F
100
AcDbEntity
  8
AM_0
370
    -3
100
AcDbLine
 10
-61.80000000000018
 20
-8.199999999999995
 30
0.0
 11
-53.5
 21
-8.199999999999986
 31
0.0
  0
LINE
  5
792
102
{ACAD_REACTORS
330
7D7
102
}
330
1F
100
AcDbEntity
  8
AM_0
370
    -3
100
AcDbLine
 10
-53.5
 20
8.199999999999995
 30
0.0
 11
-53.49999999999988
 21
-8.199999999999995
 31
0.0
  0
DIMENSION
  5
793
330
1F
100
AcDbEntity
  8
AM_5
100
AcDbDimension
  2
*D4
 10
-85.94229385382936
 20
-20.0
 30
0.0
 11
-85.94229385382936
 21
1.042352815226421
 31
0.0
 70
   160
  1
%%c<>
 71
     5
 42
40.0
  3
AM_JIS$0
100
AcDbAlignedDimension
 13
-61.5000136739394
 23
20.0
 33
0.0
 14
-61.50000834515231
 24
-20.0
 34
0.0
 50
90.0
100
AcDbRotatedDimension
1001
ACAD
1000
DSTYLE
1002
{
1070
   179
1070
     0
1070
   271
1070
     0
1002
}
  0
LINE
  5
795
330
1F
100
AcDbEntity
  8
0
100
AcDbLine
 10
-63.0
 20
-20.90000000000001
 30
0.0
 11
-63.0
 21
-38.0
 31
0.0
  0
LINE
  5
796
330
1F
100
AcDbEntity
  8
0
100
AcDbLine
 10
-61.0
 20
-40.0
 30
0.0
 11
-41.26996000000008
 21
-40.0
 31
0.0
  0
ARC
  5
797
102
{ACAD_REACTORS
330
7D7
330
7DA
330
7DE
102
}
330
1F
100
AcDbEntity
  8
1
370
    -3
100
AcDbCircle
 10
-61.0
 20
-38.0
 30
0.0
 40
2.0
100
AcDbArc
 50
180.0
 51
270.0
  0
DIMENSION
  5
798
102
{ACAD_XDICTIONARY
360
799
102
}
102
{ACAD_REACTORS
330
79A
102
}
330
1F
100
AcDbEntity
  8
AM_5
100
AcDbDimension
  2
*D6
 10
-69.67426440325676
 20
-8.199999999999992
 30
0.0
 11
-69.67426440325676
 21
0.000000000000024
 31
0.0
 70
   160
  1
<>
 71
     5
 42
16.39999999999999
  3
AM_JIS$0
100
AcDbAlignedDimension
 13
-61.80000000000018
 23
8.199999999999995
 33
0.0
 14
-61.80000000000018
 24
-8.199999999999995
 34
0.0
 50
90.0
100
AcDbRotatedDimension
1001
ACAD
1000
DSTYLE
1002
{
1070
   179
1070
     0
1070
   271
1070
     1
1002
}
  0
DIMENSION
  5
7D5
102
{ACAD_XDICTIONARY
360
7D6
102
}
102
{ACAD_REACTORS
330
7D7
102
}
330
1F
100
AcDbEntity
  8
AM_5
100
AcDbDimension
  2
*D7
 10
-53.49999999999988
 20
-29.8880627012782
 30
0.0
 11
-58.04557020147264
 21
-29.8880627012782
 31
0.0
 70
   160
 71
     5
 42
9.500000000000113
  3
AM_JIS$0
100
AcDbAlignedDimension
 13
-63.0
 23
-38.0
 33
0.0
 14
-53.49999999999988
 24
-8.199999999999995
 34
0.0
100
AcDbRotatedDimension
1001
ACAD
1000
DSTYLE
1002
{
1070
   179
1070
     0
1070
   271
1070
     1
1002
}
  0
DIMENSION
  5
7D8
102
{ACAD_XDICTIONARY
360
7D9
102
}
102
{ACAD_REACTORS
330
7DA
102
}
330
1F
100
AcDbEntity
  8
AM_5
100
AcDbDimension
  2
*D8
 10
-34.0
 20
-56.5597415189815
 30
0.0
 11
-48.5
 21
-53.15936750323349
 31
0.0
 70
    32
 71
     5
 42
29.0
  3
AM_JIS$0
100
AcDbAlignedDimension
 13
-63.0
 23
-38.0
 33
0.0
 14
-34.0
 24
-28.00000000000001
 34
0.0
100
AcDbRotatedDimension
1001
ACAD
1000
DSTYLE
1002
{
1070
   179
1070
     0
1070
   271
1070
     0
1002
}
  0
DIMENSION
  5
7DB
330
1F
100
AcDbEntity
  8
AM_5
100
AcDbDimension
  2
*D5
 10
3.157119000000192
 20
-28.00000000000001
 30
0.0
 11
-0.2428809999998003
 21
-0.0000000000000033
 31
0.0
 70
    32
  1
%%c<>
 71
     5
 42
56.0
  3
AM_JIS$0
100
AcDbAlignedDimension
 13
-16.0359390000001
 23
28.0
 33
0.0
 14
-16.0359390000001
 24
-28.0
 34
0.0
 50
90.0
100
AcDbRotatedDimension
1001
ACAD
1000
DSTYLE
1002
{
1070
   179
1070
     0
1070
   271
1070
     0
1002
}
  0
DIMENSION
  5
7DC
102
{ACAD_XDICTIONARY
360
7DD
102
}
102
{ACAD_REACTORS
330
7DE
102
}
330
1F
100
AcDbEntity
  8
AM_5
100
AcDbDimension
  2
*D9
 10
-104.6866412437102
 20
-40.0
 30
0.0
 11
-108.0866412437102
 21
-0.0000000000000074
 31
0.0
 70
    32
  1
%%c<>
 71
     5
 42
80.0
  3
AM_JIS$0
100
AcDbAlignedDimension
 13
-61.0
 23
40.0
 33
0.0
 14
-61.0
 24
-40.0
 34
0.0
 50
90.0
100
AcDbRotatedDimension
1001
ACAD
1000
DSTYLE
1002
{
1070
   179
1070
     0
1070
   271
1070
     0
1002
}
  0
LINE
  5
7DF
330
1F
100
AcDbEntity
  8
0
370
    -3
100
AcDbLine
 10
-34.0
 20
28.0
 30
0.0
 11
-16.23593899999991
 21
28.0
 31
0.0
  0
LINE
  5
7E0
330
1F
100
AcDbEntity
  8
0
100
AcDbLine
 10
-11.31189999999992
 20
32.131759
 30
0.0
 11
-9.042881999999963
 21
45.0
 31
0.0
  0
LINE
  5
7E1
330
1F
100
AcDbEntity
  8
0
100
AcDbLine
 10
-9.042881999999963
 20
45.0
 30
0.0
 11
-5.729514659107735
 21
51.50284933267098
 31
0.0
  0
LINE
  5
7E2
330
1F
100
AcDbEntity
  8
0
100
AcDbLine
 10
-29.24884300000007
 20
60.616434
 30
0.0
 11
-36.7069039999999
 21
43.046344
 31
0.0
  0
ARC
  5
7E3
330
1F
100
AcDbEntity
  8
1
100
AcDbCircle
 10
-16.23593899999991
 20
33.0
 30
0.0
 40
5.0
100
AcDbArc
 50
270.0
 51
349.9999992073452
  0
ARC
  5
7E4
330
1F
100
AcDbEntity
  8
1
100
AcDbCircle
 10
-41.30942800000002
 20
45.0
 30
0.0
 40
5.0
100
AcDbArc
 50
270.0
 51
336.9999950317952
  0
ARC
  5
7E5
330
1F
100
AcDbEntity
  8
1
100
AcDbCircle
 10
-24.64631899999995
 20
58.662778
 30
0.0
 40
5.00000025076019
100
AcDbArc
 50
100.0000007926582
 51
156.9999950317952
  0
LINE
  5
7E6
330
1F
100
AcDbEntity
  8
0
100
AcDbLine
 10
-16.23593899999991
 20
-28.0
 30
0.0
 11
-34.0
 21
-28.00000000000001
 31
0.0
  0
LINE
  5
7F2
330
1F
100
AcDbEntity
  8
AM_0
370
    -3
100
AcDbLine
 10
-25.5145600000003
 20
63.58681699999993
 30
0.0
 11
-17.3250230000001
 21
65.0
 31
0.0
  0
DIMENSION
  5
A13
330
1F
100
AcDbEntity
  8
AM_5
100
AcDbDimension
  2
*D10
 10
20.26832250796259
 20
62.5
 30
0.0
 11
20.26832250796258
 21
0.524212951940342
 31
0.0
 70
   160
  1
%%c<>
 71
     5
 42
125.0
  3
AM_JIS$0
100
AcDbAlignedDimension
 13
-12.84844501800626
 23
0.0
 33
0.0
 14
0.0
 24
62.5
 34
0.0
 50
90.0
100
AcDbRotatedDimension
1001
ACAD
1000
DSTYLE
1002
{
1070
    75
1070
     1
1070
   144
1040
2.0
1070
   173
1070
     1
1070
   179
1070
     0
1070
   271
1070
     0
1070
   343
1005
3DD
1002
}
  0
DIMENSION
  5
A14
330
1F
100
AcDbEntity
  8
AM_5
100
AcDbDimension
  2
*D11
 10
36.32211345228508
 20
66.37669966133067
 30
0.0
 11
36.32211345228507
 21
1.38829380421879
 31
0.0
 70
   160
  1
%%c<>
 71
     5
 42
132.7533993226614
  3
AM_JIS$0
100
AcDbAlignedDimension
 13
-12.84844501800626
 23
0.0
 33
0.0
 14
-8.524463263862344
 24
66.37669966133069
 34
0.0
 50
90.0
100
AcDbRotatedDimension
1001
ACAD
1000
DSTYLE
1002
{
1070
    75
1070
     1
1070
   144
1040
2.0
1070
   173
1070
     1
1070
   179
1070
     0
1070
   271
1070
     0
1070
   343
1005
3DD
1002
}
  0
DIMENSION
  5
A16
330
1F
100
AcDbEntity
  8
AM_5
100
AcDbDimension
  2
*D12
 10
0.0000000000000016
 20
89.07609724136866
 30
0.0
 11
-31.5
 21
92.47609724136863
 31
0.0
 70
    32
  1
<>
 71
     5
 42
63.0
  3
AM_JIS$0
100
AcDbAlignedDimension
 13
-63.0
 23
38.0
 33
0.0
 14
0.0
 24
62.5
 34
0.0
100
AcDbRotatedDimension
1001
ACAD
1000
DSTYLE
1002
{
1070
   179
1070
     0
1070
   271
1070
     0
1002
}
  0
LINE
  5
A17
330
1F
100
AcDbEntity
  8
0
100
AcDbLine
 10
-11.63284557445684
 20
65.00213034956914
 30
0.0
 11
-13.19726089154414
 21
61.64723087552431
 31
0.0
  0
LINE
  5
A18
330
1F
100
AcDbEntity
  8
0
100
AcDbLine
 10
-14.76167620863146
 20
58.29233140147938
 30
0.0
 11
-13.19726089154414
 21
61.64723087552431
 31
0.0
  0
LINE
  5
A19
330
1F
100
AcDbEntity
  8
0
100
AcDbLine
 10
-8.113479955852767
 20
66.28307467824082
 30
0.0
 11
-4.758580481808052
 21
64.71865936115354
 31
0.0
  0
LINE
  5
A1A
330
1F
100
AcDbEntity
  8
0
100
AcDbLine
 10
-13.48073187995976
 20
54.77296578287543
 30
0.0
 11
-10.12583240591482
 21
53.2085504657881
 31
0.0
  0
LINE
  5
A1B
330
1F
100
AcDbEntity
  8
0
100
AcDbLine
 10
-6.77093383817771
 20
51.64413557131911
 30
0.0
 11
-10.12583240591482
 21
53.2085504657881
 31
0.0
  0
LINE
  5
A1C
330
1F
100
AcDbEntity
  8
0
100
AcDbLine
 10
-0.1227366790914175
 20
59.63487842546225
 30
0.0
 11
-1.687151996178613
 21
56.27997895141742
 31
0.0
  0
LINE
  5
A1D
102
{ACAD_REACTORS
330
A40
102
}
330
1F
100
AcDbEntity
  8
0
100
AcDbLine
 10
-1.403681914070944
 20
63.15424446668453
 30
0.0
 11
-4.758580481808052
 21
64.71865936115354
 31
0.0
  0
LINE
  5
A1E
330
1F
100
AcDbEntity
  8
0
100
AcDbLine
 10
-3.251567313266035
 20
52.92507947737249
 30
0.0
 11
-1.687151996178613
 21
56.27997895141742
 31
0.0
  0
CIRCLE
  5
A1F
330
1F
100
AcDbEntity
  8
1
100
AcDbCircle
 10
-7.442206443861437
 20
58.96360491347081
 30
0.0
 40
2.299999999999998
  0
SPLINE
  5
A20
330
1F
100
AcDbEntity
  8
0
100
AcDbSpline
210
0.0
220
0.0
230
1.0
 70
     8
 71
     3
 72
    11
 73
     7
 74
     5
 42
0.0000000001
 43
0.0000000001
 44
0.0000000001
 40
0.0
 40
0.0
 40
0.0
 40
0.0
 40
0.1043112552939332
 40
0.2086220543370395
 40
0.3129324750484603
 40
0.4172434765872135
 40
0.4172434765872135
 40
0.4172434765872135
 40
0.4172434765872135
 10
-0.029223733565118
 20
60.03859858184295
 30
0.0
 10
-0.0309198435195099
 20
60.00383384403787
 30
0.0
 10
-0.034312056009616
 20
59.93430452048647
 30
0.0
 10
-0.0533157502965489
 20
59.83148859941107
 30
0.0
 10
-0.0814532639728757
 20
59.73078855584773
 30
0.0
 10
-0.1089755151768089
 20
59.66684852826301
 30
0.0
 10
-0.1227366790914175
 20
59.63487842546225
 30
0.0
 11
-0.029223733565118
 21
60.03859858184295
 31
0.0
 11
-0.0366313089692767
 21
59.93455068033779
 31
0.0
 11
-0.0548380826877519
 21
59.831841108302
 31
0.0
 11
-0.0836441780533051
 21
59.73158706729225
 31
0.0
 11
-0.1227366790914175
 21
59.63487842546225
 31
0.0
  0
LINE
  5
A21
330
1F
100
AcDbEntity
  8
0
100
AcDbLine
 10
-0.0267988923968687
 20
60.24466788910457
 30
0.0
 11
-0.0291130249275966
 21
60.04586124978231
 31
0.0
  0
LINE
  5
A22
330
1F
100
AcDbEntity
  8
0
100
AcDbLine
 10
-0.0146185147581264
 20
61.29144511373477
 30
0.0
 11
-0.0267988923968687
 21
60.24466788910457
 31
0.0
  0
LINE
  5
A23
330
1F
100
AcDbEntity
  8
0
100
AcDbLine
 10
-5.114367149905206
 20
51.53601740698594
 30
0.0
 11
-6.161144374535409
 21
51.54819778462456
 31
0.0
  0
LINE
  5
A24
330
1F
100
AcDbEntity
  8
0
100
AcDbLine
 10
-6.161144374535409
 20
51.54819778462456
 30
0.0
 11
-6.359950530168247
 21
51.55051058822937
 31
0.0
  0
SPLINE
  5
A25
330
1F
100
AcDbEntity
  8
0
100
AcDbSpline
210
0.0
220
0.0
230
1.0
 70
     8
 71
     3
 72
    11
 73
     7
 74
     5
 42
0.0000000001
 43
0.0000000001
 44
0.0000000001
 40
0.0
 40
0.0
 40
0.0
 40
0.0
 40
0.1043112552940523
 40
0.2086223122822801
 40
0.3129337207666005
 40
0.41724467014873
 40
0.41724467014873
 40
0.41724467014873
 40
0.41724467014873
 10
-6.367212775489293
 20
51.5506222031745
 30
0.0
 10
-6.401977495272534
 20
51.55231841985219
 30
0.0
 10
-6.471506868747908
 20
51.55571084998292
 30
0.0
 10
-6.574323467612419
 20
51.57471303627723
 30
0.0
 10
-6.675023877889042
 20
51.60285101284405
 30
0.0
 10
-6.738963898317757
 20
51.63037407201684
 30
0.0
 10
-6.77093383817771
 20
51.64413557131911
 30
0.0
 11
-6.367212775489293
 21
51.5506222031745
 31
0.0
 11
-6.471260676994575
 21
51.55802977857865
 31
0.0
 11
-6.573970671648567
 21
51.57623564598941
 31
0.0
 11
-6.674225618966032
 21
51.60504216397328
 31
0.0
 11
-6.77093383817771
 21
51.64413557131911
 31
0.0
  0
SPLINE
  5
A26
330
1F
100
AcDbEntity
  8
0
100
AcDbSpline
210
0.0
220
0.0
230
1.0
 70
     8
 71
     3
 72
    11
 73
     7
 74
     5
 42
0.0000000001
 43
0.0000000001
 44
0.0000000001
 40
0.0
 40
0.0
 40
0.0
 40
0.0
 40
0.104310898107465
 40
0.2086219550956806
 40
0.31293237580715
 40
0.4172433251892532
 40
0.4172433251892532
 40
0.4172433251892532
 40
0.4172433251892532
 10
-14.85519006046559
 20
57.8886116677171
 30
0.0
 10
-14.85349345823611
 20
57.92337624134549
 30
0.0
 10
-14.85010025119297
 20
57.99290544155377
 30
0.0
 10
-14.83109840310906
 20
58.09572160467356
 30
0.0
 10
-14.8029606827114
 20
58.19642176131058
 30
0.0
 10
-14.77543772324023
 20
58.26036146741293
 30
0.0
 10
-14.76167620863146
 20
58.29233140147938
 30
0.0
 11
-14.85519006046559
 21
57.8886116677171
 31
0.0
 11
-14.8477815787536
 21
57.99265914660395
 31
0.0
 11
-14.82957571134295
 21
58.09536914125795
 31
0.0
 11
-14.80076961597717
 21
58.19562318226768
 31
0.0
 11
-14.76167620863146
 21
58.29233140147938
 31
0.0
  0
LINE
  5
A27
330
1F
100
AcDbEntity
  8
0
100
AcDbLine
 10
-14.857613995326
 20
57.68254193783718
 30
0.0
 11
-14.85530076910288
 21
57.88134899977761
 31
0.0
  0
LINE
  5
A28
330
1F
100
AcDbEntity
  8
0
100
AcDbLine
 10
-14.86979437296475
 20
56.63576471320686
 30
0.0
 11
-14.857613995326
 21
57.68254193783718
 31
0.0
  0
LINE
  5
A29
330
1F
100
AcDbEntity
  8
0
100
AcDbLine
 10
-8.723269419495068
 20
66.37901246493538
 30
0.0
 11
-8.524463263862344
 21
66.37669966133069
 31
0.0
  0
LINE
  5
A2A
330
1F
100
AcDbEntity
  8
0
100
AcDbLine
 10
-9.770046644125386
 20
66.39119284257413
 30
0.0
 11
-8.723269419495068
 21
66.37901246493538
 31
0.0
  0
SPLINE
  5
A2B
330
1F
100
AcDbEntity
  8
0
100
AcDbSpline
210
0.0
220
0.0
230
1.0
 70
     8
 71
     3
 72
    11
 73
     7
 74
     5
 42
0.0000000001
 43
0.0000000001
 44
0.0000000001
 40
0.0
 40
0.0
 40
0.0
 40
0.0
 40
0.1043112552938368
 40
0.2086223122821738
 40
0.3129337207665004
 40
0.4172446701487328
 40
0.4172446701487328
 40
0.4172446701487328
 40
0.4172446701487328
 10
-8.517201018541186
 20
66.37658804638556
 30
0.0
 10
-8.48243629875802
 20
66.37489182970779
 30
0.0
 10
-8.412906925282689
 20
66.37149939957693
 30
0.0
 10
-8.310090326418205
 20
66.35249721328275
 30
0.0
 10
-8.209389916141518
 20
66.32435923671585
 30
0.0
 10
-8.14544989571276
 20
66.29683617754309
 30
0.0
 10
-8.113479955852767
 20
66.28307467824082
 30
0.0
 11
-8.517201018541186
 21
66.37658804638556
 31
0.0
 11
-8.413153117036129
 21
66.36918047098129
 31
0.0
 11
-8.310443122382025
 21
66.35097460357053
 31
0.0
 11
-8.210188175064557
 21
66.32216808558665
 31
0.0
 11
-8.113479955852767
 21
66.28307467824082
 31
0.0
  0
LINE
  5
A2C
330
1F
100
AcDbEntity
  8
0
100
AcDbLine
 10
-13.94618960008881
 20
55.17842399238316
 30
0.0
 11
-13.81662775616917
 21
55.02761628310361
 31
0.0
  0
LINE
  5
A2D
330
1F
100
AcDbEntity
  8
0
100
AcDbLine
 10
-14.62837574078855
 20
55.97247247266715
 30
0.0
 11
-13.94618960008881
 21
55.17842399238316
 31
0.0
  0
SPLINE
  5
A2E
330
1F
100
AcDbEntity
  8
0
100
AcDbSpline
210
0.0
220
0.0
230
1.0
 70
     8
 71
     3
 72
    11
 73
     7
 74
     5
 42
0.0000000001
 43
0.0000000001
 44
0.0000000001
 40
0.0
 40
0.0
 40
0.0
 40
0.0
 40
0.1043112552939483
 40
0.2086223122822073
 40
0.3129337207665651
 40
0.4172446701486736
 40
0.4172446701486736
 40
0.4172446701486736
 40
0.4172446701486736
 10
-13.8118741728498
 20
55.0221248251346
 30
0.0
 10
-13.78822846435863
 20
54.99658381179187
 30
0.0
 10
-13.74093709232907
 20
54.94550183366232
 30
0.0
 10
-13.66029133729108
 20
54.87895411934862
 30
0.0
 10
-13.57400742068518
 20
54.81989987233535
 30
0.0
 10
-13.5118236812536
 20
54.78861045640984
 30
0.0
 10
-13.48073187995976
 20
54.77296578287543
 30
0.0
 11
-13.8118741728498
 21
55.0221248251346
 31
0.0
 11
-13.73931893897304
 21
54.94718100605599
 31
0.0
 11
-13.65935172345632
 21
54.88020309139368
 31
0.0
 11
-13.57284201248365
 21
54.82191981894425
 31
0.0
 11
-13.48073187995976
 21
54.77296578287543
 31
0.0
  0
SPLINE
  5
A2F
330
1F
100
AcDbEntity
  8
0
100
AcDbSpline
210
0.0
220
0.0
230
1.0
 70
     8
 71
     3
 72
    11
 73
     7
 74
     5
 42
0.0000000001
 43
0.0000000001
 44
0.0000000001
 40
0.0
 40
0.0
 40
0.0
 40
0.0
 40
0.1043108981074495
 40
0.2086219550957811
 40
0.3129323758071183
 40
0.4172433251893274
 40
0.4172433251893274
 40
0.4172433251893274
 40
0.4172433251893274
 10
-11.3836878611238
 20
65.33327215876977
 30
0.0
 10
-11.4092285146775
 20
65.30962624887532
 30
0.0
 10
-11.4603098606871
 20
65.26233439307019
 30
0.0
 10
-11.52685745859836
 20
65.18168917720764
 30
0.0
 10
-11.58591167597503
 20
65.09540561987519
 30
0.0
 10
-11.61720091519938
 20
65.03322215886455
 30
0.0
 10
-11.63284557445684
 20
65.00213034956914
 30
0.0
 11
-11.3836878611238
 21
65.33327215876977
 31
0.0
 11
-11.45863077389447
 21
65.2607165022747
 31
0.0
 11
-11.52560868855687
 21
65.18074928675797
 31
0.0
 11
-11.583891538388
 21
65.09424048209314
 31
0.0
 11
-11.63284557445684
 21
65.00213034956914
 31
0.0
  0
LINE
  5
A30
330
1F
100
AcDbEntity
  8
0
100
AcDbLine
 10
-11.22738736494909
 20
65.46758806969831
 30
0.0
 11
-11.37819549684684
 21
65.33802531947094
 31
0.0
  0
LINE
  5
A31
330
1F
100
AcDbEntity
  8
0
100
AcDbLine
 10
-10.43333888466509
 20
66.14977421039793
 30
0.0
 11
-11.22738736494909
 21
65.46758806969831
 31
0.0
  0
SPLINE
  5
A32
330
1F
100
AcDbEntity
  8
0
100
AcDbSpline
210
0.0
220
0.0
230
1.0
 70
     8
 71
     3
 72
    11
 73
     7
 74
     5
 42
0.0000000001
 43
0.0000000001
 44
0.0000000001
 40
0.0
 40
0.0
 40
0.0
 40
0.0
 40
0.1043112552939471
 40
0.2086223122821778
 40
0.3129337207666469
 40
0.4172446701487979
 40
0.4172446701487979
 40
0.4172446701487979
 40
0.4172446701487979
 10
-1.07253962118068
 20
62.90508542442545
 30
0.0
 10
-1.0961853296719
 20
62.93062643776813
 30
0.0
 10
-1.143476701701575
 20
62.98170841589755
 30
0.0
 10
-1.224122456739382
 20
63.04825613021151
 30
0.0
 10
-1.310406373345392
 20
63.10731037722473
 30
0.0
 10
-1.372590112777062
 20
63.13859979315015
 30
0.0
 10
-1.403681914070944
 20
63.15424446668453
 30
0.0
 11
-1.07253962118068
 21
62.90508542442545
 31
0.0
 11
-1.14509485505755
 21
62.98002924350396
 31
0.0
 11
-1.225062070574153
 21
63.04700715816636
 31
0.0
 11
-1.311571781546945
 21
63.10529043061581
 31
0.0
 11
-1.403681914070944
 21
63.15424446668453
 31
0.0
  0
LINE
  5
A33
330
1F
100
AcDbEntity
  8
0
100
AcDbLine
 10
-0.9382241939416644
 20
62.7487862571769
 30
0.0
 11
-1.067786037861309
 21
62.89959396645645
 31
0.0
  0
LINE
  5
A34
330
1F
100
AcDbEntity
  8
0
100
AcDbLine
 10
-0.2560380532421504
 20
61.95473777689278
 30
0.0
 11
-0.9382241939416644
 21
62.7487862571769
 31
0.0
  0
LINE
  5
A35
330
1F
100
AcDbEntity
  8
0
100
AcDbLine
 10
-4.451074003057668
 20
51.77743561654381
 30
0.0
 11
-3.657025522773665
 21
52.45962175724343
 31
0.0
  0
LINE
  5
A36
330
1F
100
AcDbEntity
  8
0
100
AcDbLine
 10
-3.657025522773665
 20
52.45962175724343
 30
0.0
 11
-3.506218297183636
 21
52.58918493008912
 31
0.0
  0
SPLINE
  5
A37
330
1F
100
AcDbEntity
  8
0
100
AcDbSpline
210
0.0
220
0.0
230
1.0
 70
     8
 71
     3
 72
    11
 73
     7
 74
     5
 42
0.0000000001
 43
0.0000000001
 44
0.0000000001
 40
0.0
 40
0.0
 40
0.0
 40
0.0
 40
0.1043112552941053
 40
0.2086220543370358
 40
0.3129324750484995
 40
0.4172434765871324
 40
0.4172434765871324
 40
0.4172434765871324
 40
0.4172434765871324
 10
-3.500725932906902
 20
52.59393809079018
 30
0.0
 10
-3.475184837158126
 20
52.61758372911081
 30
0.0
 10
-3.424102757375794
 20
52.66487490232744
 30
0.0
 10
-3.357556531597896
 20
52.74552137688058
 30
0.0
 10
-3.29850226796285
 20
52.83180470317282
 30
0.0
 10
-3.267212327203294
 20
52.89398782826416
 30
0.0
 10
-3.251567313266035
 20
52.92507947737249
 30
0.0
 11
-3.500725932906902
 21
52.59393809079018
 31
0.0
 11
-3.425782113828176
 21
52.66649332466704
 31
0.0
 11
-3.358805105473834
 21
52.74646096280196
 31
0.0
 11
-3.300522255642476
 21
52.83296976746679
 31
0.0
 11
-3.251567313266035
 21
52.92507947737249
 31
0.0
  0
SPLINE
  5
A38
330
1F
100
AcDbEntity
  8
0
100
AcDbSpline
210
0.0
220
0.0
230
1.0
 70
     8
 71
     3
 72
    11
 73
     7
 74
     5
 42
0.0000000001
 43
0.0000000001
 44
0.0000000001
 40
0.0
 40
0.0
 40
0.0
 40
0.0
 40
0.1800809736896215
 40
0.3602119815254432
 40
0.5403429893614651
 40
0.7204248334046884
 40
0.7204248334046884
 40
0.7204248334046884
 40
0.7204248334046884
 10
-0.0146185147581264
 20
61.29144511373489
 30
0.0
 10
-0.0170338940471447
 20
61.35160641859576
 30
0.0
 10
-0.0218653237201782
 20
61.47194574368427
 30
0.0
 10
-0.0704293960257753
 20
61.64671232359153
 30
0.0
 10
-0.1455649926385155
 20
61.81180802317183
 30
0.0
 10
-0.2192170505176371
 20
61.90709886092164
 30
0.0
 10
-0.2560380532421504
 20
61.95473777689278
 30
0.0
 11
-0.0146185147581264
 21
61.29144511373489
 31
0.0
 11
-0.0287485197535489
 21
61.47097087802467
 31
0.0
 11
-0.074858373311713
 21
61.64510031662938
 31
0.0
 11
-0.1514644218373178
 21
61.80813004800778
 31
0.0
 11
-0.2560380532421504
 21
61.95473777689278
 31
0.0
  0
SPLINE
  5
A39
330
1F
100
AcDbEntity
  8
0
100
AcDbSpline
210
0.0
220
0.0
230
1.0
 70
     8
 71
     3
 72
    11
 73
     7
 74
     5
 42
0.0000000001
 43
0.0000000001
 44
0.0000000001
 40
0.0
 40
0.0
 40
0.0
 40
0.0
 40
0.1800804812631998
 40
0.3602121296346645
 40
0.5403423695416484
 40
0.7204242135848982
 40
0.7204242135848982
 40
0.7204242135848982
 40
0.7204242135848982
 10
-14.86979437296475
 20
56.63576471320686
 30
0.0
 10
-14.86737945968857
 20
56.57560351531384
 30
0.0
 10
-14.86254894697563
 20
56.45526402564565
 30
0.0
 10
-14.81398311455642
 20
56.28049811785823
 30
0.0
 10
-14.73884894029965
 20
56.11540190298089
 30
0.0
 10
-14.66519684214573
 20
56.02011134855557
 30
0.0
 10
-14.62837574078855
 20
55.97247247266715
 30
0.0
 11
-14.86979437296475
 21
56.63576471320686
 31
0.0
 11
-14.85566527427704
 21
56.45623937153539
 31
0.0
 11
-14.80955451441093
 21
56.28210951031224
 31
0.0
 11
-14.73294937219327
 21
56.11908020155226
 31
0.0
 11
-14.62837574078855
 21
55.97247247266715
 31
0.0
  0
SPLINE
  5
A3A
330
1F
100
AcDbEntity
  8
0
100
AcDbSpline
210
0.0
220
0.0
230
1.0
 70
     8
 71
     3
 72
    11
 73
     7
 74
     5
 42
0.0000000001
 43
0.0000000001
 44
0.0000000001
 40
0.0
 40
0.0
 40
0.0
 40
0.0
 40
0.1800818440432648
 40
0.3602128518790915
 40
0.5403438597151165
 40
0.7204248334047742
 40
0.7204248334047742
 40
0.7204248334047742
 40
0.7204248334047742
 10
-5.114367149905206
 20
51.53601740698582
 30
0.0
 10
-5.05420553872173
 20
51.53843258738383
 30
0.0
 10
-4.933865891750799
 20
51.54326360754357
 30
0.0
 10
-4.759099017955366
 20
51.59182787138065
 30
0.0
 10
-4.594003666620533
 20
51.66696342580742
 30
0.0
 10
-4.498712812216817
 20
51.74061496307904
 30
0.0
 10
-4.451074003057668
 20
51.77743561654381
 30
0.0
 11
-5.114367149905206
 21
51.53601740698582
 31
0.0
 11
-4.934840479307581
 21
51.55014698936304
 31
0.0
 11
-4.760711040702858
 21
51.59625684292119
 31
0.0
 11
-4.597681309324457
 21
51.67286289144681
 31
0.0
 11
-4.451074003057668
 21
51.77743561654381
 31
0.0
  0
SPLINE
  5
A3B
330
1F
100
AcDbEntity
  8
0
100
AcDbSpline
210
0.0
220
0.0
230
1.0
 70
     8
 71
     3
 72
    11
 73
     7
 74
     5
 42
0.0000000001
 43
0.0000000001
 44
0.0000000001
 40
0.0
 40
0.0
 40
0.0
 40
0.0
 40
0.1800818440431324
 40
0.3602120839503109
 40
0.5403437323216932
 40
0.7204242135851288
 40
0.7204242135851288
 40
0.7204242135851288
 40
0.7204242135851288
 10
-9.770046644125386
 20
66.391192842574
 30
0.0
 10
-9.830208288003523
 20
66.38877776349781
 30
0.0
 10
-9.950547743823566
 20
66.38394695630814
 30
0.0
 10
-10.12531409808661
 20
66.33538127165664
 30
0.0
 10
-10.29041006592708
 20
66.26024749758528
 30
0.0
 10
-10.38570045699545
 20
66.18659515209161
 30
0.0
 10
-10.4333388846652
 20
66.14977421039782
 30
0.0
 11
-9.770046644125386
 21
66.391192842574
 31
0.0
 11
-9.949573314722897
 21
66.37706326019702
 31
0.0
 11
-10.12370184702001
 21
66.33095298402054
 31
0.0
 11
-10.28673248470613
 21
66.25434735811325
 31
0.0
 11
-10.4333388846652
 21
66.14977421039782
 31
0.0
  0
LINE
  5
A3C
330
1F
100
AcDbEntity
  8
AM_4
370
    -3
100
AcDbLine
 10
0.0
 20
62.5
 30
0.0
 11
0.0
 21
62.5
 31
0.0
  0
LINE
  5
A3D
102
{ACAD_REACTORS
330
A40
102
}
330
1F
100
AcDbEntity
  8
AM_4
370
    -3
100
AcDbLine
 10
0.0
 20
62.5
 30
0.0
 11
0.0
 21
62.37203492077924
 31
0.0
  0
DIMENSION
  5
A3E
102
{ACAD_XDICTIONARY
360
A3F
102
}
102
{ACAD_REACTORS
330
A40
102
}
330
1F
100
AcDbEntity
  8
AM_5
100
AcDbDimension
  2
*D13
 10
-4.758580481808052
 20
64.71865936115354
 30
0.0
 11
-11.30333081682882
 21
80.24237219710313
 31
0.0
 70
    34
 71
     5
 42
1.134464013796324
  3
AM_JIS$2
100
AcDb2LineAngularDimension
 13
0.0
 23
62.5
 33
0.0
 14
0.0
 24
62.37203492077924
 34
0.0
 15
-1.403681914070944
 25
63.15424446668453
 35
0.0
 16
-6.567178969104768
 26
79.03027619441747
 36
0.0
1001
ACAD_DIMASSOC_DIMLFAC
1040
1.0
1001
ACAD_DIMASSOC_CALC_DIMLFAC
1040
1.0
1001
ACAD_DIMASSOC_OVERRIDDEN_DIMLFAC
1040
1.0
1001
ACAD
1000
DSTYLE
1002
{
1070
   144
1040
1.0
1070
   271
1070
     0
1002
}
  0
LINE
  5
AD8
330
1F
100
AcDbEntity
  8
0
100
AcDbLine
 10
-11.31189999999992
 20
-32.131759
 30
0.0
 11
-9.042881999999963
 21
-45.0
 31
0.0
  0
LINE
  5
AD9
330
1F
100
AcDbEntity
  8
0
100
AcDbLine
 10
-9.042881999999963
 20
-45.0
 30
0.0
 11
-5.729514659107735
 21
-51.50284933267098
 31
0.0
  0
LINE
  5
ADA
330
1F
100
AcDbEntity
  8
0
100
AcDbLine
 10
-29.24884300000007
 20
-60.616434
 30
0.0
 11
-36.7069039999999
 21
-43.046344
 31
0.0
  0
ARC
  5
ADB
330
1F
100
AcDbEntity
  8
1
100
AcDbCircle
 10
-16.23593899999991
 20
-33.0
 30
0.0
 40
5.0
100
AcDbArc
 50
10.00000079265483
 51
90.00000000000005
  0
ARC
  5
ADC
330
1F
100
AcDbEntity
  8
1
100
AcDbCircle
 10
-41.30942800000002
 20
-45.0
 30
0.0
 40
5.0
100
AcDbArc
 50
23.00000496820478
 51
90.00000000000005
  0
ARC
  5
ADD
330
1F
100
AcDbEntity
  8
1
100
AcDbCircle
 10
-24.64631899999995
 20
-58.662778
 30
0.0
 40
5.00000025076019
100
AcDbArc
 50
203.0000049682048
 51
259.9999992073418
  0
LINE
  5
ADE
330
1F
100
AcDbEntity
  8
AM_0
370
    -3
100
AcDbLine
 10
-25.5145600000003
 20
-63.58681699999993
 30
0.0
 11
-16.2506797975723
 21
-65.00001419828797
 31
0.0
  0
LINE
  5
ADF
330
1F
100
AcDbEntity
  8
0
100
AcDbLine
 10
-11.63284557445684
 20
-65.00213034956914
 30
0.0
 11
-16.37725118992136
 21
-64.99995619615948
 31
0.0
  0
LINE
  5
AE2
330
1F
100
AcDbEntity
  8
0
  6
ACISOTGL
100
AcDbLine
 10
-8.113479955852767
 20
-66.28307467824082
 30
0.0
 11
-4.758580481808052
 21
-64.71865936115354
 31
0.0
  0
LINE
  5
AE5
330
1F
100
AcDbEntity
  8
0
  6
ACISOTGL
100
AcDbLine
 10
-0.1227366790914175
 20
-59.63487842546225
 30
0.0
 11
-1.687151996178613
 21
-56.27997895141742
 31
0.0
  0
LINE
  5
AE6
330
1F
100
AcDbEntity
  8
0
  6
ACISOTGL
100
AcDbLine
 10
-1.403681914070944
 20
-63.15424446668453
 30
0.0
 11
-4.758580481808052
 21
-64.71865936115354
 31
0.0
  0
LINE
  5
AE7
330
1F
100
AcDbEntity
  8
0
  6
ACISOTGL
100
AcDbLine
 10
-3.251567313266035
 20
-52.92507947737249
 30
0.0
 11
-1.687151996178613
 21
-56.27997895141742
 31
0.0
  0
SPLINE
  5
AE9
330
1F
100
AcDbEntity
  8
0
  6
ACISOTGL
100
AcDbSpline
210
0.0
220
0.0
230
1.0
 70
     8
 71
     3
 72
    11
 73
     7
 74
     5
 42
0.0000000001
 43
0.0000000001
 44
0.0000000001
 40
0.0
 40
0.0
 40
0.0
 40
0.0
 40
0.1043112552939332
 40
0.2086220543370395
 40
0.3129324750484603
 40
0.4172434765872135
 40
0.4172434765872135
 40
0.4172434765872135
 40
0.4172434765872135
 10
-0.029223733565118
 20
-60.03859858184295
 30
0.0
 10
-0.0309198435195099
 20
-60.00383384403787
 30
0.0
 10
-0.034312056009616
 20
-59.93430452048647
 30
0.0
 10
-0.0533157502965489
 20
-59.83148859941107
 30
0.0
 10
-0.0814532639728757
 20
-59.73078855584773
 30
0.0
 10
-0.1089755151768089
 20
-59.66684852826301
 30
0.0
 10
-0.1227366790914175
 20
-59.63487842546225
 30
0.0
 11
-0.029223733565118
 21
-60.03859858184295
 31
0.0
 11
-0.0366313089692767
 21
-59.93455068033779
 31
0.0
 11
-0.0548380826877519
 21
-59.831841108302
 31
0.0
 11
-0.0836441780533051
 21
-59.73158706729225
 31
0.0
 11
-0.1227366790914175
 21
-59.63487842546225
 31
0.0
  0
LINE
  5
AEA
330
1F
100
AcDbEntity
  8
0
  6
ACISOTGL
100
AcDbLine
 10
-0.0267988923968687
 20
-60.24466788910457
 30
0.0
 11
-0.0291130249275966
 21
-60.04586124978231
 31
0.0
  0
LINE
  5
AEB
330
1F
100
AcDbEntity
  8
0
  6
ACISOTGL
100
AcDbLine
 10
-0.0146185147581264
 20
-61.29144511373477
 30
0.0
 11
-0.0267988923968687
 21
-60.24466788910457
 31
0.0
  0
LINE
  5
AEC
330
1F
100
AcDbEntity
  8
0
  6
ACISOTGL
100
AcDbLine
 10
-5.114367149905206
 20
-51.53601740698594
 30
0.0
 11
-5.709088650398995
 21
-51.54293763059739
 31
0.0
  0
LINE
  5
AF2
330
1F
100
AcDbEntity
  8
0
  6
ACISOTGL
100
AcDbLine
 10
-8.723269419495068
 20
-66.37901246493538
 30
0.0
 11
-8.524463263862344
 21
-66.37669966133069
 31
0.0
  0
LINE
  5
AF3
330
1F
100
AcDbEntity
  8
0
  6
ACISOTGL
100
AcDbLine
 10
-9.770046644125386
 20
-66.39119284257413
 30
0.0
 11
-8.723269419495068
 21
-66.37901246493538
 31
0.0
  0
SPLINE
  5
AF4
330
1F
100
AcDbEntity
  8
0
  6
ACISOTGL
100
AcDbSpline
210
0.0
220
0.0
230
1.0
 70
     8
 71
     3
 72
    11
 73
     7
 74
     5
 42
0.0000000001
 43
0.0000000001
 44
0.0000000001
 40
0.0
 40
0.0
 40
0.0
 40
0.0
 40
0.1043112552938368
 40
0.2086223122821738
 40
0.3129337207665004
 40
0.4172446701487328
 40
0.4172446701487328
 40
0.4172446701487328
 40
0.4172446701487328
 10
-8.517201018541186
 20
-66.37658804638556
 30
0.0
 10
-8.48243629875802
 20
-66.37489182970779
 30
0.0
 10
-8.412906925282689
 20
-66.37149939957693
 30
0.0
 10
-8.310090326418205
 20
-66.35249721328275
 30
0.0
 10
-8.209389916141518
 20
-66.32435923671585
 30
0.0
 10
-8.14544989571276
 20
-66.29683617754309
 30
0.0
 10
-8.113479955852767
 20
-66.28307467824082
 30
0.0
 11
-8.517201018541186
 21
-66.37658804638556
 31
0.0
 11
-8.413153117036129
 21
-66.36918047098129
 31
0.0
 11
-8.310443122382025
 21
-66.35097460357053
 31
0.0
 11
-8.210188175064557
 21
-66.32216808558665
 31
0.0
 11
-8.113479955852767
 21
-66.28307467824082
 31
0.0
  0
SPLINE
  5
AF8
330
1F
100
AcDbEntity
  8
0
  6
ACISOTGL
100
AcDbSpline
210
0.0
220
0.0
230
1.0
 70
     8
 71
     3
 72
    11
 73
     7
 74
     5
 42
0.0000000001
 43
0.0000000001
 44
0.0000000001
 40
0.0
 40
0.0
 40
0.0
 40
0.0
 40
0.1043108981074495
 40
0.2086219550957811
 40
0.3129323758071183
 40
0.4172433251893274
 40
0.4172433251893274
 40
0.4172433251893274
 40
0.4172433251893274
 10
-11.3836878611238
 20
-65.33327215876977
 30
0.0
 10
-11.4092285146775
 20
-65.30962624887532
 30
0.0
 10
-11.4603098606871
 20
-65.26233439307019
 30
0.0
 10
-11.52685745859836
 20
-65.18168917720764
 30
0.0
 10
-11.58591167597503
 20
-65.09540561987519
 30
0.0
 10
-11.61720091519938
 20
-65.03322215886455
 30
0.0
 10
-11.63284557445684
 20
-65.00213034956914
 30
0.0
 11
-11.3836878611238
 21
-65.33327215876977
 31
0.0
 11
-11.45863077389447
 21
-65.2607165022747
 31
0.0
 11
-11.52560868855687
 21
-65.18074928675797
 31
0.0
 11
-11.583891538388
 21
-65.09424048209314
 31
0.0
 11
-11.63284557445684
 21
-65.00213034956914
 31
0.0
  0
LINE
  5
AF9
330
1F
100
AcDbEntity
  8
0
  6
ACISOTGL
100
AcDbLine
 10
-11.22738736494909
 20
-65.46758806969831
 30
0.0
 11
-11.37819549684684
 21
-65.33802531947094
 31
0.0
  0
LINE
  5
AFA
330
1F
100
AcDbEntity
  8
0
100
AcDbLine
 10
-10.43333888466509
 20
-66.14977421039793
 30
0.0
 11
-11.22738736494909
 21
-65.46758806969831
 31
0.0
  0
SPLINE
  5
AFB
330
1F
100
AcDbEntity
  8
0
100
AcDbSpline
210
0.0
220
0.0
230
1.0
 70
     8
 71
     3
 72
    11
 73
     7
 74
     5
 42
0.0000000001
 43
0.0000000001
 44
0.0000000001
 40
0.0
 40
0.0
 40
0.0
 40
0.0
 40
0.1043112552939471
 40
0.2086223122821778
 40
0.3129337207666469
 40
0.4172446701487979
 40
0.4172446701487979
 40
0.4172446701487979
 40
0.4172446701487979
 10
-1.07253962118068
 20
-62.90508542442545
 30
0.0
 10
-1.0961853296719
 20
-62.93062643776813
 30
0.0
 10
-1.143476701701575
 20
-62.98170841589755
 30
0.0
 10
-1.224122456739382
 20
-63.04825613021151
 30
0.0
 10
-1.310406373345392
 20
-63.10731037722473
 30
0.0
 10
-1.372590112777062
 20
-63.13859979315015
 30
0.0
 10
-1.403681914070944
 20
-63.15424446668453
 30
0.0
 11
-1.07253962118068
 21
-62.90508542442545
 31
0.0
 11
-1.14509485505755
 21
-62.98002924350396
 31
0.0
 11
-1.225062070574153
 21
-63.04700715816636
 31
0.0
 11
-1.311571781546945
 21
-63.10529043061581
 31
0.0
 11
-1.403681914070944
 21
-63.15424446668453
 31
0.0
  0
LINE
  5
AFC
330
1F
100
AcDbEntity
  8
0
  6
ACISOTGL
100
AcDbLine
 10
-0.9382241939416644
 20
-62.7487862571769
 30
0.0
 11
-1.067786037861309
 21
-62.89959396645645
 31
0.0
  0
LINE
  5
AFD
330
1F
100
AcDbEntity
  8
0
  6
ACISOTGL
100
AcDbLine
 10
-0.2560380532421504
 20
-61.95473777689278
 30
0.0
 11
-0.9382241939416644
 21
-62.7487862571769
 31
0.0
  0
LINE
  5
AFE
330
1F
100
AcDbEntity
  8
0
  6
ACISOTGL
100
AcDbLine
 10
-4.451074003057668
 20
-51.77743561654381
 30
0.0
 11
-3.657025522773665
 21
-52.45962175724343
 31
0.0
  0
LINE
  5
AFF
330
1F
100
AcDbEntity
  8
0
  6
ACISOTGL
100
AcDbLine
 10
-3.657025522773665
 20
-52.45962175724343
 30
0.0
 11
-3.506218297183636
 21
-52.58918493008912
 31
0.0
  0
SPLINE
  5
B00
330
1F
100
AcDbEntity
  8
0
  6
ACISOTGL
100
AcDbSpline
210
0.0
220
0.0
230
1.0
 70
     8
 71
     3
 72
    11
 73
     7
 74
     5
 42
0.0000000001
 43
0.0000000001
 44
0.0000000001
 40
0.0
 40
0.0
 40
0.0
 40
0.0
 40
0.1043112552941053
 40
0.2086220543370358
 40
0.3129324750484995
 40
0.4172434765871324
 40
0.4172434765871324
 40
0.4172434765871324
 40
0.4172434765871324
 10
-3.500725932906902
 20
-52.59393809079018
 30
0.0
 10
-3.475184837158126
 20
-52.61758372911081
 30
0.0
 10
-3.424102757375794
 20
-52.66487490232744
 30
0.0
 10
-3.357556531597896
 20
-52.74552137688058
 30
0.0
 10
-3.29850226796285
 20
-52.83180470317282
 30
0.0
 10
-3.267212327203294
 20
-52.89398782826416
 30
0.0
 10
-3.251567313266035
 20
-52.92507947737249
 30
0.0
 11
-3.500725932906902
 21
-52.59393809079018
 31
0.0
 11
-3.425782113828176
 21
-52.66649332466704
 31
0.0
 11
-3.358805105473834
 21
-52.74646096280196
 31
0.0
 11
-3.300522255642476
 21
-52.83296976746679
 31
0.0
 11
-3.251567313266035
 21
-52.92507947737249
 31
0.0
  0
SPLINE
  5
B01
330
1F
100
AcDbEntity
  8
0
  6
ACISOTGL
100
AcDbSpline
210
0.0
220
0.0
230
1.0
 70
     8
 71
     3
 72
    11
 73
     7
 74
     5
 42
0.0000000001
 43
0.0000000001
 44
0.0000000001
 40
0.0
 40
0.0
 40
0.0
 40
0.0
 40
0.1800809736896215
 40
0.3602119815254432
 40
0.5403429893614651
 40
0.7204248334046884
 40
0.7204248334046884
 40
0.7204248334046884
 40
0.7204248334046884
 10
-0.0146185147581264
 20
-61.29144511373489
 30
0.0
 10
-0.0170338940471447
 20
-61.35160641859576
 30
0.0
 10
-0.0218653237201782
 20
-61.47194574368427
 30
0.0
 10
-0.0704293960257753
 20
-61.64671232359153
 30
0.0
 10
-0.1455649926385155
 20
-61.81180802317183
 30
0.0
 10
-0.2192170505176371
 20
-61.90709886092164
 30
0.0
 10
-0.2560380532421504
 20
-61.95473777689278
 30
0.0
 11
-0.0146185147581264
 21
-61.29144511373489
 31
0.0
 11
-0.0287485197535489
 21
-61.47097087802467
 31
0.0
 11
-0.074858373311713
 21
-61.64510031662938
 31
0.0
 11
-0.1514644218373178
 21
-61.80813004800778
 31
0.0
 11
-0.2560380532421504
 21
-61.95473777689278
 31
0.0
  0
SPLINE
  5
B03
330
1F
100
AcDbEntity
  8
0
  6
ACISOTGL
100
AcDbSpline
210
0.0
220
0.0
230
1.0
 70
     8
 71
     3
 72
    11
 73
     7
 74
     5
 42
0.0000000001
 43
0.0000000001
 44
0.0000000001
 40
0.0
 40
0.0
 40
0.0
 40
0.0
 40
0.1800818440432648
 40
0.3602128518790915
 40
0.5403438597151165
 40
0.7204248334047742
 40
0.7204248334047742
 40
0.7204248334047742
 40
0.7204248334047742
 10
-5.114367149905206
 20
-51.53601740698582
 30
0.0
 10
-5.05420553872173
 20
-51.53843258738383
 30
0.0
 10
-4.933865891750799
 20
-51.54326360754357
 30
0.0
 10
-4.759099017955366
 20
-51.59182787138065
 30
0.0
 10
-4.594003666620533
 20
-51.66696342580742
 30
0.0
 10
-4.498712812216817
 20
-51.74061496307904
 30
0.0
 10
-4.451074003057668
 20
-51.77743561654381
 30
0.0
 11
-5.114367149905206
 21
-51.53601740698582
 31
0.0
 11
-4.934840479307581
 21
-51.55014698936304
 31
0.0
 11
-4.760711040702858
 21
-51.59625684292119
 31
0.0
 11
-4.597681309324457
 21
-51.67286289144681
 31
0.0
 11
-4.451074003057668
 21
-51.77743561654381
 31
0.0
  0
SPLINE
  5
B04
330
1F
100
AcDbEntity
  8
0
  6
ACISOTGL
100
AcDbSpline
210
0.0
220
0.0
230
1.0
 70
     8
 71
     3
 72
    11
 73
     7
 74
     5
 42
0.0000000001
 43
0.0000000001
 44
0.0000000001
 40
0.0
 40
0.0
 40
0.0
 40
0.0
 40
0.1800818440431324
 40
0.3602120839503109
 40
0.5403437323216932
 40
0.7204242135851288
 40
0.7204242135851288
 40
0.7204242135851288
 40
0.7204242135851288
 10
-9.770046644125386
 20
-66.391192842574
 30
0.0
 10
-9.830208288003523
 20
-66.38877776349781
 30
0.0
 10
-9.950547743823566
 20
-66.38394695630814
 30
0.0
 10
-10.12531409808661
 20
-66.33538127165664
 30
0.0
 10
-10.29041006592708
 20
-66.26024749758528
 30
0.0
 10
-10.38570045699545
 20
-66.18659515209161
 30
0.0
 10
-10.4333388846652
 20
-66.14977421039782
 30
0.0
 11
-9.770046644125386
 21
-66.391192842574
 31
0.0
 11
-9.949573314722897
 21
-66.37706326019702
 31
0.0
 11
-10.12370184702001
 21
-66.33095298402054
 31
0.0
 11
-10.28673248470613
 21
-66.25434735811325
 31
0.0
 11
-10.4333388846652
 21
-66.14977421039782
 31
0.0
  0
LINE
  5
B1E
330
1F
100
AcDbEntity
  8
0
370
    -3
100
AcDbLine
 10
-11.63284557445684
 20
65.00213034956914
 30
0.0
 11
-17.3250230000001
 21
65.0
 31
0.0
  0
LINE
  5
B20
330
1F
100
AcDbEntity
  8
0
370
    -3
100
AcDbLine
 10
-1.40000000000009
 20
-61.68921600000003
 30
0.0
 11
-8.098152999999911
 21
-64.81261600000003
 31
0.0
  0
LINE
  5
B21
330
1F
100
AcDbEntity
  8
0
370
    -3
100
AcDbLine
 10
-8.943389000000024
 20
-65.00000000000003
 30
0.0
 11
-16.37725118992136
 21
-64.99995619615948
 31
0.0
  0
ARC
  5
B22
330
1F
100
AcDbEntity
  8
1
370
    -3
100
AcDbCircle
 10
-8.943389000000024
 20
-63.00000000000003
 30
0.0
 40
2.000000164788
100
AcDbArc
 50
270.0
 51
294.9999812516922
  0
LINE
  5
B31
330
1F
100
AcDbEntity
  8
0
370
    -3
100
AcDbLine
 10
-9.042881999999963
 20
-45.0
 30
0.0
 11
-1.40000000000009
 21
-60.0
 31
0.0
  0
LINE
  5
B32
330
1F
100
AcDbEntity
  8
0
370
    -3
100
AcDbLine
 10
-1.40000000000009
 20
-60.0
 30
0.0
 11
-1.40000000000009
 21
-61.689216
 31
0.0
  0
LINE
  5
B33
330
1F
100
AcDbEntity
  8
0
370
    -3
100
AcDbLine
 10
-1.40000000000009
 20
-61.689216
 30
0.0
 11
-8.098152999999911
 21
-64.812616
 31
0.0
  0
TEXT
  5
B35
330
1F
100
AcDbEntity
  8
0
370
    -3
100
AcDbText
 10
-45.96271941067743
 20
-77.6621824597222
 30
0.0
 40
3.799999999999998
  1
DNX(F)12125RS
  7
ACISOTS
100
AcDbText
  0
ENDSEC
  0
SECTION
  2
OBJECTS
  0
DICTIONARY
  5
C
330
0
100
AcDbDictionary
281
     1
  3
ACAD_COLOR
350
BE
  3
ACAD_GROUP
350
D
  3
ACAD_LAYOUT
350
1A
  3
ACAD_MATERIAL
350
BD
  3
ACAD_MLINESTYLE
350
17
  3
ACAD_PLOTSETTINGS
350
19
  3
ACAD_PLOTSTYLENAME
350
E
  3
ACAD_TABLESTYLE
350
11A
  3
ACDBHEADERROUNDTRIPXREC
350
C6C
  3
AcDbVariableDictionary
350
94
  3
AcmDictionary
350
5B
  3
AMG
350
41
  3
AMGSNAPSETTINGS
350
1B8
  3
DWGPROPS
350
C6B
  0
DICTIONARY
  5
34B
330
2
100
AcDbDictionary
280
     1
281
     1
  3
ACAD_LAYERSTATES
360
461
  3
AMLAYER_GROUPCOLORS
360
34C
  0
DICTIONARY
  5
8F
330
1F
100
AcDbDictionary
280
     1
281
     1
  0
DICTIONARY
  5
799
330
798
100
AcDbDictionary
280
     1
281
     1
  3
ACAD_DIMASSOC
360
79A
  0
DICTIONARY
  5
7D6
330
7D5
100
AcDbDictionary
280
     1
281
     1
  3
ACAD_DIMASSOC
360
7D7
  0
DICTIONARY
  5
7D9
330
7D8
100
AcDbDictionary
280
     1
281
     1
  3
ACAD_DIMASSOC
360
7DA
  0
DICTIONARY
  5
7DD
330
7DC
100
AcDbDictionary
280
     1
281
     1
  3
ACAD_DIMASSOC
360
7DE
  0
DICTIONARY
  5
A3F
330
A3E
100
AcDbDictionary
280
     1
281
     1
  3
ACAD_DIMASSOC
360
A40
  0
DICTIONARY
  5
BE
102
{ACAD_REACTORS
330
C
102
}
330
C
100
AcDbDictionary
281
     1
  0
DICTIONARY
  5
D
102
{ACAD_REACTORS
330
C
102
}
330
C
100
AcDbDictionary
281
     1
  0
DICTIONARY
  5
1A
102
{ACAD_REACTORS
330
C
102
}
330
C
100
AcDbDictionary
281
     1
  3
Model
350
22
  3
レイアウト1
350
1E
  3
レイアウト2
350
26
  0
DICTIONARY
  5
BD
102
{ACAD_REACTORS
330
C
102
}
330
C
100
AcDbDictionary
281
     1
  0
DICTIONARY
  5
17
102
{ACAD_REACTORS
330
C
102
}
330
C
100
AcDbDictionary
281
     1
  3
Standard
350
18
  0
DICTIONARY
  5
19
102
{ACAD_REACTORS
330
C
102
}
330
C
100
AcDbDictionary
281
     1
  0
ACDBDICTIONARYWDFLT
  5
E
102
{ACAD_REACTORS
330
C
102
}
330
C
100
AcDbDictionary
281
     1
  3
Normal
350
F
100
AcDbDictionaryWithDefault
340
F
  0
DICTIONARY
  5
11A
102
{ACAD_REACTORS
330
C
102
}
330
C
100
AcDbDictionary
281
     1
  3
Standard
350
11B
  0
DICTIONARY
  5
C6C
102
{ACAD_REACTORS
330
C
102
}
330
C
100
AcDbDictionary
281
     1
  0
DICTIONARY
  5
94
102
{ACAD_REACTORS
330
C
102
}
330
C
100
AcDbDictionary
281
     1
  3
CTABLESTYLE
350
138
  3
DIMASSOC
350
96
  3
INDEXCTL
350
95
  3
PROJECTNAME
350
C69
  0
DICTIONARY
  5
5B
102
{ACAD_REACTORS
330
C
102
}
330
C
100
AcDbDictionary
281
     1
  3
AcmBOM
350
1B5
  3
AcmStdDictionary
350
61
  3
AMDTSECTSYM_ARROWCOLOR
350
123
  0
DICTIONARY
  5
41
102
{ACAD_REACTORS
330
C
102
}
330
C
100
AcDbDictionary
281
     1
  0
DICTIONARY
  5
1B8
102
{ACAD_REACTORS
330
C
102
}
330
C
100
AcDbDictionary
281
     1
  0
XRECORD
  5
C6B
102
{ACAD_REACTORS
330
C
102
}
330
C
100
AcDbXrecord
280
     1
  1
DWGPROPS COOKIE
  2

  3

  4

  6

  7

  8

  9

300
AmdtFileType=84
301
=
302
=
303
=
304
=
305
=
306
=
307
=
308
=
309
=
 40
0.0189151041666667
 41
2455412.730832604
 42
2455555.427619537
  1

 90
        1
  0
DICTIONARY
  5
461
102
{ACAD_REACTORS
330
34B
102
}
330
34B
100
AcDbDictionary
281
     1
  0
DICTIONARY
  5
34C
102
{ACAD_REACTORS
330
34B
102
}
330
34B
100
AcDbDictionary
280
     1
281
     1
  0
DIMASSOC
  5
79A
102
{ACAD_REACTORS
330
799
102
}
330
799
100
AcDbDimAssoc
330
798
 90
        3
 70
     0
 71
     0
  1
AcDbOsnapPointRef
 72
    13
331
78F
 73
     0
 91
        0
 40
0.0
 10
0.0
 20
0.0
 30
2.000000000000000E+50
 75
     0
  1
AcDbOsnapPointRef
 72
    13
331
791
 73
     0
 91
        0
 40
0.0
 10
0.0
 20
0.0
 30
2.000000000000000E+50
 75
     0
  0
DIMASSOC
  5
7D7
102
{ACAD_REACTORS
330
7D6
102
}
330
7D6
100
AcDbDimAssoc
330
7D5
 90
        3
 70
     0
 71
     0
  1
AcDbOsnapPointRef
 72
    13
331
797
 73
     0
 91
        0
 40
0.0
 10
0.0
 20
0.0
 30
2.000000000000000E+50
 75
     0
  1
AcDbOsnapPointRef
 72
     1
331
792
 73
     0
 91
        0
 40
0.0
 10
0.0
 20
0.0
 30
2.000000000000000E+50
 75
     0
  0
DIMASSOC
  5
7DA
102
{ACAD_REACTORS
330
7D9
102
}
330
7D9
100
AcDbDimAssoc
330
7D8
 90
        1
 70
     0
 71
     0
  1
AcDbOsnapPointRef
 72
    13
331
797
 73
     0
 91
        0
 40
0.0
 10
0.0
 20
0.0
 30
2.000000000000000E+50
 75
     0
  0
DIMASSOC
  5
7DE
102
{ACAD_REACTORS
330
7DD
102
}
330
7DD
100
AcDbDimAssoc
330
7DC
 90
        3
 70
     0
 71
     0
  1
AcDbOsnapPointRef
 72
    13
331
783
 73
     0
 91
        0
 40
0.0
 10
0.0
 20
0.0
 30
2.000000000000000E+50
 75
     0
  1
AcDbOsnapPointRef
 72
     1
331
797
 73
     0
 91
        0
 40
0.0
 10
0.0
 20
0.0
 30
2.000000000000000E+50
 75
     0
  0
DIMASSOC
  5
A40
102
{ACAD_REACTORS
330
A3F
102
}
330
A3F
100
AcDbDimAssoc
330
A3E
 90
       15
 70
     1
 71
     0
  1
AcDbOsnapPointRef
 72
    13
331
A3D
 73
     2
 91
        0
 40
0.0
 10
0.0
 20
0.0
 30
2.000000000000000E+50
 75
     0
  1
AcDbOsnapPointRef
 72
     1
331
A3D
 73
     2
 91
        0
 40
0.0
 10
0.0
 20
0.0
 30
2.000000000000000E+50
 75
     0
  1
AcDbOsnapPointRef
 72
    13
331
A1D
 73
     2
 91
        0
 40
0.0
 10
0.0
 20
0.0
 30
2.000000000000000E+50
 75
     0
  1
AcDbOsnapPointRef
 72
     1
331
A1D
 73
     2
 91
        0
 40
0.0
 10
0.0
 20
0.0
 30
2.000000000000000E+50
 75
     0
  0
LAYOUT
  5
22
102
{ACAD_XDICTIONARY
360
C6F
102
}
102
{ACAD_REACTORS
330
1A
102
}
330
1A
100
AcDbPlotSettings
  1

  2
SII LP-2150 (D-SCAN C2)
  4
User119
  6

 40
3.174999952316283
 41
3.174999952316283
 42
3.175003051757812
 43
3.17498779296875
 44
210.0579986572266
 45
296.9259948730469
 46
0.0
 47
0.0
 48
0.0
 49
0.0
140
0.0
141
0.0
142
1.0
143
1.580715189147934
 70
 11952
 72
     1
 73
     1
 74
     0
  7
sei_cad.ctb
 75
     0
147
0.63262503382348
148
19.65895403440572
149
1.143774069319646
100
AcDbLayout
  1
Model
 70
     1
 71
     0
 10
0.0
 20
0.0
 11
12.0
 21
9.0
 12
0.0
 22
0.0
 32
0.0
 14
0.0
 24
0.0
 34
0.0
 15
0.0
 25
0.0
 35
0.0
146
0.0
 13
0.0
 23
0.0
 33
0.0
 16
1.0
 26
0.0
 36
0.0
 17
0.0
 27
1.0
 37
0.0
 76
     0
330
1F
1001
ACAD_PSEXT
1000
SII LP-2150 (D-SCAN C2)
1000
SII LP-2150 (D-SCAN C2)
1000
133.153.16.130#3000
1000

1070
     0
  0
LAYOUT
  5
1E
102
{ACAD_XDICTIONARY
360
C6D
102
}
102
{ACAD_REACTORS
330
1A
102
}
330
1A
100
AcDbPlotSettings
  1

  2

  4

  6

 40
0.0
 41
0.0
 42
0.0
 43
0.0
 44
0.0
 45
0.0
 46
0.0
 47
0.0
 48
0.0
 49
0.0
140
0.0
141
0.0
142
1.0
143
1.0
 70
   688
 72
     0
 73
     0
 74
     5
  7
sei_cad.ctb
 75
    16
147
1.0
148
0.0
149
0.0
100
AcDbLayout
  1
レイアウト1
 70
     1
 71
     1
 10
0.0
 20
0.0
 11
420.0
 21
297.0
 12
0.0
 22
0.0
 32
0.0
 14
1.000000000000000E+20
 24
1.000000000000000E+20
 34
1.000000000000000E+20
 15
-1.000000000000000E+20
 25
-1.000000000000000E+20
 35
-1.000000000000000E+20
146
0.0
 13
0.0
 23
0.0
 33
0.0
 16
1.0
 26
0.0
 36
0.0
 17
0.0
 27
1.0
 37
0.0
 76
     0
330
1B
  0
LAYOUT
  5
26
102
{ACAD_XDICTIONARY
360
C71
102
}
102
{ACAD_REACTORS
330
1A
102
}
330
1A
100
AcDbPlotSettings
  1

  2

  4

  6

 40
0.0
 41
0.0
 42
0.0
 43
0.0
 44
0.0
 45
0.0
 46
0.0
 47
0.0
 48
0.0
 49
0.0
140
0.0
141
0.0
142
1.0
143
1.0
 70
   688
 72
     0
 73
     0
 74
     5
  7
sei_cad.ctb
 75
    16
147
1.0
148
0.0
149
0.0
100
AcDbLayout
  1
レイアウト2
 70
     1
 71
     2
 10
0.0
 20
0.0
 11
12.0
 21
9.0
 12
0.0
 22
0.0
 32
0.0
 14
0.0
 24
0.0
 34
0.0
 15
0.0
 25
0.0
 35
0.0
146
0.0
 13
0.0
 23
0.0
 33
0.0
 16
1.0
 26
0.0
 36
0.0
 17
0.0
 27
1.0
 37
0.0
 76
     0
330
23
  0
MLINESTYLE
  5
18
102
{ACAD_REACTORS
330
17
102
}
330
17
100
AcDbMlineStyle
  2
STANDARD
 70
     0
  3

 62
   256
 51
90.0
 52
90.0
 71
     2
 49
0.5
 62
   256
  6
BYLAYER
 49
-0.5
 62
   256
  6
BYLAYER
  0
ACDBPLACEHOLDER
  5
F
102
{ACAD_REACTORS
330
E
102
}
330
E
  0
TABLESTYLE
  5
11B
102
{ACAD_REACTORS
330
11A
102
}
330
11A
100
AcDbTableStyle
  3
Standard
 70
     0
 71
     0
 40
1.5
 41
1.5
280
     0
281
     0
  7
STANDARD
140
4.5
170
     2
 62
     0
 63
     7
283
     0
274
    -2
284
     1
 64
     0
275
    -2
285
     1
 65
     0
276
    -2
286
     1
 66
     0
277
    -2
287
     1
 67
     0
278
    -2
288
     1
 68
     0
279
    -2
289
     1
 69
     0
  7
STANDARD
140
6.0
170
     5
 62
     0
 63
     7
283
     0
274
    -2
284
     1
 64
     0
275
    -2
285
     1
 65
     0
276
    -2
286
     1
 66
     0
277
    -2
287
     1
 67
     0
278
    -2
288
     1
 68
     0
279
    -2
289
     1
 69
     0
  7
STANDARD
140
4.5
170
     5
 62
     0
 63
     7
283
     0
274
    -2
284
     1
 64
     0
275
    -2
285
     1
 65
     0
276
    -2
286
     1
 66
     0
277
    -2
287
     1
 67
     0
278
    -2
288
     1
 68
     0
279
    -2
289
     1
 69
     0
  0
DICTIONARYVAR
  5
138
102
{ACAD_REACTORS
330
94
102
}
330
94
100
DictionaryVariables
280
     0
  1
STANDARD
  0
DICTIONARYVAR
  5
96
102
{ACAD_REACTORS
330
94
102
}
330
94
100
DictionaryVariables
280
     0
  1
2
  0
DICTIONARYVAR
  5
95
102
{ACAD_REACTORS
330
94
102
}
330
94
100
DictionaryVariables
280
     0
  1
0
  0
DICTIONARYVAR
  5
C69
102
{ACAD_REACTORS
330
94
102
}
330
94
100
DictionaryVariables
280
     0
  1

  0
DICTIONARY
  5
1B5
102
{ACAD_REACTORS
330
5B
102
}
330
5B
100
AcDbDictionary
281
     1
  0
DICTIONARY
  5
61
102
{ACAD_REACTORS
330
5B
102
}
330
5B
100
AcDbDictionary
281
     1
  0
XRECORD
  5
123
102
{ACAD_REACTORS
330
5B
102
}
330
5B
100
AcDbXrecord
280
     1
 90
-1023410169
  0
DICTIONARY
  5
C6F
330
22
100
AcDbDictionary
280
     1
281
     1
  3
ACAD_XREC_ROUNDTRIP
360
C70
  0
DICTIONARY
  5
C6D
330
1E
100
AcDbDictionary
280
     1
281
     1
  3
ACAD_XREC_ROUNDTRIP
360
C6E
  0
DICTIONARY
  5
C71
330
26
100
AcDbDictionary
280
     1
281
     1
  3
ACAD_XREC_ROUNDTRIP
360
C72
  0
XRECORD
  5
C70
102
{ACAD_REACTORS
330
C6F
102
}
330
C6F
100
AcDbXrecord
280
     1
102
SHADEPLOT
 70
     0
102
SHADEPLOTRESLEVEL
 70
     2
102
SHADEPLOTCUSTOMDPI
 70
   300
  0
XRECORD
  5
C6E
102
{ACAD_REACTORS
330
C6D
102
}
330
C6D
100
AcDbXrecord
280
     1
102
SHADEPLOT
 70
     0
102
SHADEPLOTRESLEVEL
 70
     2
102
SHADEPLOTCUSTOMDPI
 70
   300
  0
XRECORD
  5
C72
102
{ACAD_REACTORS
330
C71
102
}
330
C71
100
AcDbXrecord
280
     1
102
SHADEPLOT
 70
     0
102
SHADEPLOTRESLEVEL
 70
     2
102
SHADEPLOTCUSTOMDPI
 70
   300
  0
ENDSEC
  0
EOF
