  0
SECTION
  2
HEADER
  9
$ACADVER
  1
AC1015
  9
$ACADMAINTVER
 70
    20
  9
$DWGCODEPAGE
  3
ANSI_932
  9
$INSBASE
 10
0.0
 20
0.0
 30
0.0
  9
$EXTMIN
 10
-98.71842054161163
 20
-159.0091020097866
 30
-0.0015258207003583
  9
$EXTMAX
 10
288.8672213703364
 20
105.2950523165515
 30
0.0000000349246037
  9
$LIMMIN
 10
-169.8975308461376
 20
-177.9455856319318
  9
$LIMMAX
 10
73.72029505284626
 20
129.3900613023113
  9
$ORTHOMODE
 70
     0
  9
$REGENMODE
 70
     1
  9
$FILLMODE
 70
     1
  9
$QTEXTMODE
 70
     0
  9
$MIRRTEXT
 70
     0
  9
$LTSCALE
 40
1.0
  9
$ATTMODE
 70
     1
  9
$TEXTSIZE
 40
2.5
  9
$TRACEWID
 40
1.0
  9
$TEXTSTYLE
  7
STANDARD
  9
$CLAYER
  8
AM_0
  9
$CELTYPE
  6
BYLAYER
  9
$CECOLOR
 62
   256
  9
$CELTSCALE
 40
1.0
  9
$DISPSILH
 70
     0
  9
$DIMSCALE
 40
1.0
  9
$DIMASZ
 40
2.5
  9
$DIMEXO
 40
1.0
  9
$DIMDLI
 40
12.0
  9
$DIMRND
 40
0.0
  9
$DIMDLE
 40
0.0
  9
$DIMEXE
 40
1.0
  9
$DIMTP
 40
0.1
  9
$DIMTM
 40
0.1
  9
$DIMTXT
 40
3.2
  9
$DIMCEN
 40
0.0
  9
$DIMTSZ
 40
0.0
  9
$DIMTOL
 70
     0
  9
$DIMLIM
 70
     0
  9
$DIMTIH
 70
     0
  9
$DIMTOH
 70
     0
  9
$DIMSE1
 70
     0
  9
$DIMSE2
 70
     0
  9
$DIMTAD
 70
     3
  9
$DIMZIN
 70
     8
  9
$DIMBLK
  1
OPEN30
  9
$DIMASO
 70
     1
  9
$DIMSHO
 70
     1
  9
$DIMPOST
  1

  9
$DIMAPOST
  1
"
  9
$DIMALT
 70
     0
  9
$DIMALTD
 70
     2
  9
$DIMALTF
 40
0.0393701
  9
$DIMLFAC
 40
1.0
  9
$DIMTOFL
 70
     1
  9
$DIMTVP
 40
0.0
  9
$DIMTIX
 70
     0
  9
$DIMSOXD
 70
     0
  9
$DIMSAH
 70
     0
  9
$DIMBLK1
  1

  9
$DIMBLK2
  1

  9
$DIMSTYLE
  2
AM_JIS
  9
$DIMCLRD
 70
   256
  9
$DIMCLRE
 70
   256
  9
$DIMCLRT
 70
     2
  9
$DIMTFAC
 40
0.71
  9
$DIMGAP
 40
1.5
  9
$DIMJUST
 70
     0
  9
$DIMSD1
 70
     0
  9
$DIMSD2
 70
     0
  9
$DIMTOLJ
 70
     0
  9
$DIMTZIN
 70
     0
  9
$DIMALTZ
 70
     0
  9
$DIMALTTZ
 70
     0
  9
$DIMUPT
 70
     0
  9
$DIMDEC
 70
     3
  9
$DIMTDEC
 70
     3
  9
$DIMALTU
 70
     2
  9
$DIMALTTD
 70
     2
  9
$DIMTXSTY
  7
ASAMI
  9
$DIMAUNIT
 70
     0
  9
$DIMADEC
 70
     0
  9
$DIMALTRND
 40
0.0
  9
$DIMAZIN
 70
     2
  9
$DIMDSEP
 70
    46
  9
$DIMATFIT
 70
     3
  9
$DIMFRAC
 70
     0
  9
$DIMLDRBLK
  1
OPEN30
  9
$DIMLUNIT
 70
     2
  9
$DIMLWD
 70
    -1
  9
$DIMLWE
 70
    -1
  9
$DIMTMOVE
 70
     0
  9
$LUNITS
 70
     2
  9
$LUPREC
 70
     2
  9
$SKETCHINC
 40
1.0
  9
$FILLETRAD
 40
2.0
  9
$AUNITS
 70
     0
  9
$AUPREC
 70
     0
  9
$MENU
  1
.
  9
$ELEVATION
 40
0.0
  9
$PELEVATION
 40
0.0
  9
$THICKNESS
 40
0.0
  9
$LIMCHECK
 70
     0
  9
$CHAMFERA
 40
1.0
  9
$CHAMFERB
 40
1.0
  9
$CHAMFERC
 40
20.0
  9
$CHAMFERD
 40
0.0
  9
$SKPOLY
 70
     0
  9
$TDCREATE
 40
2452836.771637361
  9
$TDUCREATE
 40
2452836.396637361
  9
$TDUPDATE
 40
2455596.384643912
  9
$TDUUPDATE
 40
2455596.009643912
  9
$TDINDWG
 40
0.1877992708
  9
$TDUSRTIMER
 40
0.1877990856
  9
$USRTIMER
 70
     1
  9
$ANGBASE
 50
0.0
  9
$ANGDIR
 70
     0
  9
$PDMODE
 70
     0
  9
$PDSIZE
 40
0.0
  9
$PLINEWID
 40
0.0
  9
$SPLFRAME
 70
     0
  9
$SPLINETYPE
 70
     6
  9
$SPLINESEGS
 70
     8
  9
$HANDSEED
  5
C916
  9
$SURFTAB1
 70
     6
  9
$SURFTAB2
 70
     6
  9
$SURFTYPE
 70
     6
  9
$SURFU
 70
     6
  9
$SURFV
 70
     6
  9
$UCSBASE
  2

  9
$UCSNAME
  2

  9
$UCSORG
 10
0.0
 20
0.0
 30
0.0
  9
$UCSXDIR
 10
1.0
 20
0.0
 30
0.0
  9
$UCSYDIR
 10
0.0
 20
1.0
 30
0.0
  9
$UCSORTHOREF
  2

  9
$UCSORTHOVIEW
 70
     0
  9
$UCSORGTOP
 10
0.0
 20
0.0
 30
0.0
  9
$UCSORGBOTTOM
 10
0.0
 20
0.0
 30
0.0
  9
$UCSORGLEFT
 10
0.0
 20
0.0
 30
0.0
  9
$UCSORGRIGHT
 10
0.0
 20
0.0
 30
0.0
  9
$UCSORGFRONT
 10
0.0
 20
0.0
 30
0.0
  9
$UCSORGBACK
 10
0.0
 20
0.0
 30
0.0
  9
$PUCSBASE
  2

  9
$PUCSNAME
  2

  9
$PUCSORG
 10
0.0
 20
0.0
 30
0.0
  9
$PUCSXDIR
 10
1.0
 20
0.0
 30
0.0
  9
$PUCSYDIR
 10
0.0
 20
1.0
 30
0.0
  9
$PUCSORTHOREF
  2

  9
$PUCSORTHOVIEW
 70
     0
  9
$PUCSORGTOP
 10
0.0
 20
0.0
 30
0.0
  9
$PUCSORGBOTTOM
 10
0.0
 20
0.0
 30
0.0
  9
$PUCSORGLEFT
 10
0.0
 20
0.0
 30
0.0
  9
$PUCSORGRIGHT
 10
0.0
 20
0.0
 30
0.0
  9
$PUCSORGFRONT
 10
0.0
 20
0.0
 30
0.0
  9
$PUCSORGBACK
 10
0.0
 20
0.0
 30
0.0
  9
$USERI1
 70
     0
  9
$USERI2
 70
     0
  9
$USERI3
 70
     0
  9
$USERI4
 70
     0
  9
$USERI5
 70
     0
  9
$USERR1
 40
0.0
  9
$USERR2
 40
0.0
  9
$USERR3
 40
0.0
  9
$USERR4
 40
0.0
  9
$USERR5
 40
0.0
  9
$WORLDVIEW
 70
     1
  9
$SHADEDGE
 70
     3
  9
$SHADEDIF
 70
    70
  9
$TILEMODE
 70
     1
  9
$MAXACTVP
 70
    64
  9
$PINSBASE
 10
0.0
 20
0.0
 30
0.0
  9
$PLIMCHECK
 70
     0
  9
$PEXTMIN
 10
1.000000000000000E+20
 20
1.000000000000000E+20
 30
1.000000000000000E+20
  9
$PEXTMAX
 10
-1.000000000000000E+20
 20
-1.000000000000000E+20
 30
-1.000000000000000E+20
  9
$PLIMMIN
 10
0.0
 20
0.0
  9
$PLIMMAX
 10
841.0
 20
594.0
  9
$UNITMODE
 70
     0
  9
$VISRETAIN
 70
     1
  9
$PLINEGEN
 70
     0
  9
$PSLTSCALE
 70
     0
  9
$TREEDEPTH
 70
  3020
  9
$CMLSTYLE
  2
STANDARD
  9
$CMLJUST
 70
     0
  9
$CMLSCALE
 40
20.0
  9
$PROXYGRAPHICS
 70
     1
  9
$MEASUREMENT
 70
     1
  9
$CELWEIGHT
370
    -1
  9
$ENDCAPS
280
     0
  9
$JOINSTYLE
280
     0
  9
$LWDISPLAY
290
     0
  9
$INSUNITS
 70
     4
  9
$HYPERLINKBASE
  1

  9
$STYLESHEET
  1
ASAMI.ctb
  9
$XEDIT
290
     1
  9
$CEPSNTYPE
380
     0
  9
$PSTYLEMODE
290
     1
  9
$FINGERPRINTGUID
  2
{AFB28963-8C59-40AE-9337-C84526B81ACE}
  9
$VERSIONGUID
  2
{2AB09C6D-EE7D-4681-BC5A-B18ABBE79F11}
  9
$EXTNAMES
290
     1
  9
$PSVPSCALE
 40
0.0
  9
$OLESTARTUP
290
     0
  0
ENDSEC
  0
SECTION
  2
CLASSES
  0
CLASS
  1
ACDBDICTIONARYWDFLT
  2
AcDbDictionaryWithDefault
  3
ObjectDBX Classes
 90
        0
280
     0
281
     0
  0
CLASS
  1
ACDBPLACEHOLDER
  2
AcDbPlaceHolder
  3
ObjectDBX Classes
 90
        0
280
     0
281
     0
  0
CLASS
  1
LAYOUT
  2
AcDbLayout
  3
ObjectDBX Classes
 90
        0
280
     0
281
     0
  0
CLASS
  1
AMGSETTINGSOBJ
  2
AmgSettingsObj
  3
"AcadM|Product Description: AutoCAD Mechanical 2000|Company: Autodesk"
 90
        0
280
     0
281
     0
  0
CLASS
  1
ACME_DOCUMENT
  2
AcMeDbDoc
  3
AcMeServices
 90
        0
280
     0
281
     0
  0
CLASS
  1
ACMESCOPE
  2
AcMeScope
  3
AcMeServices
 90
        0
280
     0
281
     0
  0
CLASS
  1
ACMECOMMANDHISTORY
  2
AcMeCommandHistory
  3
AcMeServices
 90
        0
280
     0
281
     0
  0
CLASS
  1
DICTIONARYVAR
  2
AcDbDictionaryVar
  3
ObjectDBX Classes
 90
        0
280
     0
281
     0
  0
CLASS
  1
ACIMSYSVARMAN
  2
AcImSysVarManager
  3
AcMeServices
 90
        0
280
     0
281
     0
  0
CLASS
  1
ACIMREALSYSVAR
  2
AcImRealSysVar
  3
AcMeServices
 90
        0
280
     0
281
     0
  0
CLASS
  1
ACIMINTSYSVAR
  2
AcImIntSysVar
  3
AcMeServices
 90
        0
280
     0
281
     0
  0
CLASS
  1
ACMEDRAWINGMAN
  2
AcMeDrawingMan
  3
AcMeServices
 90
        0
280
     0
281
     0
  0
CLASS
  1
ACMEVIEW
  2
AcMeView
  3
AcMeServices
 90
        0
280
     0
281
     0
  0
CLASS
  1
ACDBENTITYCACHE
  2
AcMeEntityCache
  3
AcMeServices
 90
        0
280
     0
281
     0
  0
CLASS
  1
GSMANAGER
  2
AcMeGSManager
  3
AcMeServices
 90
        0
280
     0
281
     0
  0
CLASS
  1
AMDTINTERNALREACTOR
  2
AmdtInternalReactor
  3
AcMeServices
 90
        0
280
     0
281
     0
  0
CLASS
  1
ACMESTATEMGR
  2
AcMeStateMgr
  3
AcMeServices
 90
        0
280
     0
281
     0
  0
CLASS
  1
ACME_DATABASE
  2
AcMeDbDatabase
  3
AcMeServices
 90
        0
280
     0
281
     0
  0
CLASS
  1
ACRFINSADJUSTERMGR
  2
AcRfInsAdjusterMgr
  3
AcMeServices
 90
        0
280
     0
281
     0
  0
CLASS
  1
ACMDATADICTIONARY
  2
AcmDataDictionary
  3
"AcmSymBB|Product Description: AutoCAD Mechanical 2004 DX|Company: Autodesk"
 90
        0
280
     0
281
     0
  0
CLASS
  1
ACMDATAENTRYBLOCK
  2
AcmDataEntryBlock
  3
"AcmSymBB|Product Description: AutoCAD Mechanical 2004 DX|Company: Autodesk"
 90
    32768
280
     0
281
     0
  0
CLASS
  1
AMGOBJPROPCFG
  2
AmgObjPropCfg
  3
"AmgLay|Product Description: AutoCAD Mechanical 2000|Company: Autodesk"
 90
        1
280
     0
281
     0
  0
CLASS
  1
ACAMGFILTERDAT
  2
AcAmgFilterDat
  3
"AcadM|Product Description: AutoCAD Mechanical 2000|Company: Autodesk"
 90
    32768
280
     0
281
     0
  0
CLASS
  1
LAYER_INDEX
  2
AcDbLayerIndex
  3
ObjectDBX Classes
 90
        0
280
     0
281
     0
  0
CLASS
  1
IDBUFFER
  2
AcDbIdBuffer
  3
ObjectDBX Classes
 90
        0
280
     0
281
     0
  0
CLASS
  1
ACIMSTRSYSVAR
  2
AcImStrSysVar
  3
AcMeServices
 90
        0
280
     0
281
     0
  0
CLASS
  1
ACMSTANDARDJIS
  2
AcmStandardJIS
  3
"Amdt_StdImp|Product Description: AutoCAD Mechanical 2004 DX|Company: Autodesk"
 90
    32768
280
     0
281
     0
  0
CLASS
  1
ACMSURFSTANDARDJIS
  2
AcmSurfTextStdJIS
  3
"Amdt_StdImp|Product Description: AutoCAD Mechanical 2004 DX|Company: Autodesk"
 90
    32768
280
     0
281
     0
  0
CLASS
  1
ACMFCFSTANDARDJIS
  2
AcmFCFStdJIS
  3
"Amdt_StdImp|Product Description: AutoCAD Mechanical 2004 DX|Company: Autodesk"
 90
    32768
280
     0
281
     0
  0
CLASS
  1
ACMWELDSTANDARDJIS
  2
AcmWeldingStdJIS
  3
"Amdt_StdImp|Product Description: AutoCAD Mechanical 2004 DX|Company: Autodesk"
 90
    32768
280
     0
281
     0
  0
CLASS
  1
ACMIDSTANDARDJIS
  2
AcmIdStdJIS
  3
"Amdt_StdImp|Product Description: AutoCAD Mechanical 2004 DX|Company: Autodesk"
 90
    32768
280
     0
281
     0
  0
CLASS
  1
ACMDATUMSTANDARDJIS
  2
AcmDatumStdJIS
  3
"Amdt_StdImp|Product Description: AutoCAD Mechanical 2004 DX|Company: Autodesk"
 90
    32768
280
     0
281
     0
  0
CLASS
  1
ACMBOMSTANDARDJIS
  2
AcmBOMStdJIS
  3
"Amdt_StdImp|Product Description: AutoCAD Mechanical 2004 DX|Company: Autodesk"
 90
    32768
280
     0
281
     0
  0
CLASS
  1
ACMSTANDARDANSI
  2
AcmStandardANSI
  3
"Amdt_StdImp|Product Description: AutoCAD Mechanical 2004 DX|Company: Autodesk"
 90
    32768
280
     0
281
     0
  0
CLASS
  1
ACMSURFSTANDARDANSI
  2
AcmSurfTextStdANSI
  3
"Amdt_StdImp|Product Description: AutoCAD Mechanical 2004 DX|Company: Autodesk"
 90
    32768
280
     0
281
     0
  0
CLASS
  1
ACMFCFSTANDARDANSI
  2
AcmFCFStdANSI
  3
"Amdt_StdImp|Product Description: AutoCAD Mechanical 2004 DX|Company: Autodesk"
 90
    32768
280
     0
281
     0
  0
CLASS
  1
ACMWELDSTANDARDANSI
  2
AcmWeldingStdANSI
  3
"Amdt_StdImp|Product Description: AutoCAD Mechanical 2004 DX|Company: Autodesk"
 90
    32768
280
     0
281
     0
  0
CLASS
  1
ACMIDSTANDARDANSI
  2
AcmIdStdANSI
  3
"Amdt_StdImp|Product Description: AutoCAD Mechanical 2004 DX|Company: Autodesk"
 90
    32768
280
     0
281
     0
  0
CLASS
  1
ACMDATUMSTANDARDANSI
  2
AcmDatumStdANSI
  3
"Amdt_StdImp|Product Description: AutoCAD Mechanical 2004 DX|Company: Autodesk"
 90
    32768
280
     0
281
     0
  0
CLASS
  1
ACMBOMSTANDARDANSI
  2
AcmBOMStdANSI
  3
"Amdt_StdImp|Product Description: AutoCAD Mechanical 2004 DX|Company: Autodesk"
 90
    32768
280
     0
281
     0
  0
CLASS
  1
ACMSTANDARDBSI
  2
AcmStandardBSI
  3
"Amdt_StdImp|Product Description: AutoCAD Mechanical 2004 DX|Company: Autodesk"
 90
    32768
280
     0
281
     0
  0
CLASS
  1
ACMSURFSTANDARDBSI
  2
AcmSurfTextStdBSI
  3
"Amdt_StdImp|Product Description: AutoCAD Mechanical 2004 DX|Company: Autodesk"
 90
    32768
280
     0
281
     0
  0
CLASS
  1
ACMFCFSTANDARDBSI
  2
AcmFCFStdBSI
  3
"Amdt_StdImp|Product Description: AutoCAD Mechanical 2004 DX|Company: Autodesk"
 90
    32768
280
     0
281
     0
  0
CLASS
  1
ACMWELDSTANDARDBSI
  2
AcmWeldingStdBSI
  3
"Amdt_StdImp|Product Description: AutoCAD Mechanical 2004 DX|Company: Autodesk"
 90
    32768
280
     0
281
     0
  0
CLASS
  1
ACMIDSTANDARDBSI
  2
AcmIdStdBSI
  3
"Amdt_StdImp|Product Description: AutoCAD Mechanical 2004 DX|Company: Autodesk"
 90
    32768
280
     0
281
     0
  0
CLASS
  1
ACMDATUMSTANDARDBSI
  2
AcmDatumStdBSI
  3
"Amdt_StdImp|Product Description: AutoCAD Mechanical 2004 DX|Company: Autodesk"
 90
    32768
280
     0
281
     0
  0
CLASS
  1
ACMBOMSTANDARDBSI
  2
AcmBOMStdBSI
  3
"Amdt_StdImp|Product Description: AutoCAD Mechanical 2004 DX|Company: Autodesk"
 90
    32768
280
     0
281
     0
  0
CLASS
  1
TABLESTYLE
  2
AcDbTableStyle
  3
ObjectDBX Classes
 90
     2047
280
     0
281
     0
  0
CLASS
  1
ACGREFMASTER
  2
AcGrefMaster
  3
AcAttribServices
 90
        0
280
     0
281
     0
  0
CLASS
  1
AM_DRAWING_MGR
  2
AcDmDwgMgr
  3
AcMechDwgViewMgmt
 90
        0
280
     0
281
     0
  0
CLASS
  1
AM_DWG_DOCUMENT
  2
AcDmDwgDocument
  3
AcMechDwgViewMgmt
 90
        0
280
     0
281
     0
  0
CLASS
  1
AM_DWG_SHEET
  2
AcDmSheet
  3
AcMechDwgViewMgmt
 90
        0
280
     0
281
     0
  0
CLASS
  1
AM_VIEWDIMPARMAP
  2
AcDmViewDimParMap
  3
AcMechDwgViewMgmt
 90
        0
280
     0
281
     0
  0
CLASS
  1
AM_DWGMGR_NAME
  2
AcDmDwgMgrName
  3
AcMechDwgViewMgmt
 90
        0
280
     0
281
     0
  0
CLASS
  1
ACGREFACADMASTER
  2
AcGrefacadMaster
  3
AcGrefServices
 90
        0
280
     0
281
     0
  0
CLASS
  1
AMDTMENUSTATEMGR
  2
AmdtMenuStateMgr
  3
McadcomServices
 90
        0
280
     0
281
     0
  0
CLASS
  1
AMDTMCOMMENUSTATE
  2
AmdtMcomMenuState
  3
McadcomServices
 90
        0
280
     0
281
     0
  0
CLASS
  1
AMIMASTER
  2
AmiMaster
  3
AmiServices
 90
        0
280
     0
281
     0
  0
CLASS
  1
MAPIAMMOUDLE
  2
MApiAmModule
  3
MApiAmServices
 90
        0
280
     0
281
     0
  0
CLASS
  1
AMDTADMENUSTATE
  2
AmdtAdMenuState
  3
DesignerServices
 90
        0
280
     0
281
     0
  0
CLASS
  1
ADAPPL
  2
AcAdAppl
  3
DesignerServices
 90
        0
280
     0
281
     0
  0
CLASS
  1
DEPMGR
  2
AcAdDepMgr
  3
DesignerServices
 90
        0
280
     0
281
     0
  0
CLASS
  1
PARAMMGR
  2
AcAdParamMgr
  3
DesignerServices
 90
        0
280
     0
281
     0
  0
CLASS
  1
PARAMSCOPE
  2
AcAdParamScope
  3
DesignerServices
 90
        0
280
     0
281
     0
  0
CLASS
  1
NAMEDAPPL
  2
AcAdNamedAppl
  3
DesignerServices
 90
        0
280
     0
281
     0
  0
CLASS
  1
AMDTDMMENUSTATE
  2
AmdtDmMenuState
  3
AcMechDwgViewMgmt
 90
        0
280
     0
281
     0
  0
CLASS
  1
AMDTAMMENUSTATE
  2
AmdtAmMenuState
  3
DesignerAssemblies
 90
        0
280
     0
281
     0
  0
CLASS
  1
ACAMPROJECT
  2
AcAmProject
  3
DesignerAssemblies
 90
        0
280
     0
281
     0
  0
CLASS
  1
ACAMGRCOMPDEF
  2
AcAmGrCompDef
  3
DesignerAssemblies
 90
        0
280
     0
281
     0
  0
CLASS
  1
ACCMCONTEXT
  2
AcCmContext
  3
DesignerAssemblies
 90
        0
280
     0
281
     0
  0
CLASS
  1
ACAMCOMPDEF
  2
AcAmCompDef
  3
DesignerAssemblies
 90
        0
280
     0
281
     0
  0
CLASS
  1
ACAMCOMPDEFMGR
  2
AcAmCompDefMgr
  3
DesignerAssemblies
 90
        0
280
     0
281
     0
  0
CLASS
  1
AMCONTEXTMGR
  2
AcAmContextMgr
  3
DesignerAssemblies
 90
        0
280
     0
281
     0
  0
CLASS
  1
ACAMCONTEXTMODELER
  2
AcAmContextModeler
  3
DesignerAssemblies
 90
        0
280
     0
281
     0
  0
CLASS
  1
CATALOGSTATE
  2
AcAmCatalogState
  3
DesignerAssemblies
 90
        0
280
     0
281
     0
  0
CLASS
  1
ACAMGRCOMPDEFSET
  2
AcAmGrCompDefSet
  3
DesignerAssemblies
 90
        0
280
     0
281
     0
  0
CLASS
  1
AMDTBROWSERDBTAB
  2
AmdtBrowserDbTab
  3
McadcomServices
 90
        0
280
     0
281
     0
  0
CLASS
  1
CBROWSERAPPOBJECT
  2
CBrowserAppObject
  3
McadcomServices
 90
        0
280
     0
281
     0
  0
CLASS
  1
DM_PLACEHOLDER
  2
AcDmSelsetPlaceholder
  3
AcMechDwgViewMgmt
 90
        0
280
     0
281
     0
  0
CLASS
  1
ACMSTANDARDISO
  2
AcmStandardISO
  3
"Amdt_StdImp|Product Description: AutoCAD Mechanical 2004 DX|Company: Autodesk"
 90
        0
280
     0
281
     0
  0
CLASS
  1
AMDTEDGESTANDARDISO13715
  2
AmdtEdgeStdISO13715
  3
"Amdt_StdImp|Product Description: AutoCAD Mechanical 2004 DX|Company: Autodesk"
 90
        0
280
     0
281
     0
  0
CLASS
  1
ACMSURFSTANDARDISO
  2
AcmSurfTextStdISO
  3
"Amdt_StdImp|Product Description: AutoCAD Mechanical 2004 DX|Company: Autodesk"
 90
        0
280
     0
281
     0
  0
CLASS
  1
ACMFCFSTANDARDISO
  2
AcmFCFStdISO
  3
"Amdt_StdImp|Product Description: AutoCAD Mechanical 2004 DX|Company: Autodesk"
 90
        0
280
     0
281
     0
  0
CLASS
  1
ACMWELDSTANDARDISO
  2
AcmWeldingStdISO
  3
"Amdt_StdImp|Product Description: AutoCAD Mechanical 2004 DX|Company: Autodesk"
 90
        0
280
     0
281
     0
  0
CLASS
  1
ACMIDSTANDARDISO
  2
AcmIdStdISO
  3
"Amdt_StdImp|Product Description: AutoCAD Mechanical 2004 DX|Company: Autodesk"
 90
        0
280
     0
281
     0
  0
CLASS
  1
ACMDATUMSTANDARDISO
  2
AcmDatumStdISO
  3
"Amdt_StdImp|Product Description: AutoCAD Mechanical 2004 DX|Company: Autodesk"
 90
        0
280
     0
281
     0
  0
CLASS
  1
ACMBOMSTANDARDISO
  2
AcmBOMStdISO
  3
"Amdt_StdImp|Product Description: AutoCAD Mechanical 2004 DX|Company: Autodesk"
 90
        0
280
     0
281
     0
  0
CLASS
  1
ACMDETAILSTANDARDISO
  2
AmdtDetailSymStdISO
  3
"Amdt_StdImp|Product Description: AutoCAD Mechanical 2004 DX|Company: Autodesk"
 90
        0
280
     0
281
     0
  0
CLASS
  1
ACMSECTIONSTANDARDISO
  2
AmdtSectionSymStdISO
  3
"Amdt_StdImp|Product Description: AutoCAD Mechanical 2004 DX|Company: Autodesk"
 90
        0
280
     0
281
     0
  0
CLASS
  1
ACMCENTERLINESTANDARDISO
  2
AmdtCenterLineStdISO
  3
"Amdt_StdImp|Product Description: AutoCAD Mechanical 2004 DX|Company: Autodesk"
 90
        0
280
     0
281
     0
  0
CLASS
  1
ACMTHREADLINESTANDARDISO
  2
AmdtThreadLineStdISO
  3
"Amdt_StdImp|Product Description: AutoCAD Mechanical 2004 DX|Company: Autodesk"
 90
        0
280
     0
281
     0
  0
CLASS
  1
ACMNOTESTANDARDISO
  2
AmdtNoteStdISO
  3
"Amdt_StdImp|Product Description: AutoCAD Mechanical 2004 DX|Company: Autodesk"
 90
        0
280
     0
281
     0
  0
CLASS
  1
AMDTNOTETEMPLATEDB
  2
AmdtNoteTemplateDB
  3
AMDT_STDIMP_MODULE_NAME
 90
        0
280
     0
281
     0
  0
CLASS
  1
ACAMGLAYSTD
  2
AcAmgLayStd
  3
"AcAmgLayStd|Product Description: AutoCAD Mechanical 2000|Company: Autodesk"
 90
        0
280
     0
281
     0
  0
CLASS
  1
ACAMGDIMSTD
  2
AcAmgDimStd
  3
"AcAmgDimStd|Product Description: AutoCAD Mechanical 2000|Company: Autodesk"
 90
        0
280
     0
281
     0
  0
CLASS
  1
ACAMGHOLECHARTSTDISO
  2
AcAmgHoleChartStdISO
  3
ACMSYMBB_MODULE_NAME
 90
        0
280
     0
281
     0
  0
CLASS
  1
ACAMGTITLESTD
  2
AcAmgTitleStd
  3
"TITLEAPP"
 90
        0
280
     0
281
     0
  0
CLASS
  1
ACRFATTGENMGR
  2
AcRfAttGeneralMgr
  3
AcAttribServices
 90
        0
280
     0
281
     0
  0
ENDSEC
  0
SECTION
  2
TABLES
  0
TABLE
  2
VPORT
  5
8
330
0
100
AcDbSymbolTable
 70
    73
  0
VPORT
  5
C90D
330
8
100
AcDbSymbolTableRecord
100
AcDbViewportTableRecord
  2
*Active
 70
     0
 10
0.0
 20
0.0
 11
1.0
 21
1.0
 12
59.4848452620994
 22
-24.27776216481027
 13
0.0
 23
0.0
 14
2.5
 24
2.5
 15
10.0
 25
10.0
 16
0.0
 26
0.0
 36
1.0
 17
0.0
 27
0.0
 37
0.0
 40
309.5127589550287
 41
2.002364066193853
 42
50.0
 43
0.0
 44
0.0
 50
0.0
 51
0.0
 71
     0
 72
   100
 73
     1
 74
     3
 75
     0
 76
     0
 77
     0
 78
     0
281
     0
 65
     0
110
0.0
120
0.0
130
0.0
111
1.0
121
0.0
131
0.0
112
0.0
122
1.0
132
0.0
 79
     0
146
0.0
  0
ENDTAB
  0
TABLE
  2
LTYPE
  5
5
330
0
100
AcDbSymbolTable
 70
    16
  0
LTYPE
  5
14
330
5
100
AcDbSymbolTableRecord
100
AcDbLinetypeTableRecord
  2
BYBLOCK
 70
     0
  3

 72
    65
 73
     0
 40
0.0
  0
LTYPE
  5
15
330
5
100
AcDbSymbolTableRecord
100
AcDbLinetypeTableRecord
  2
BYLAYER
 70
     0
  3

 72
    65
 73
     0
 40
0.0
  0
LTYPE
  5
16
330
5
100
AcDbSymbolTableRecord
100
AcDbLinetypeTableRecord
  2
CONTINUOUS
 70
     0
  3
Solid line
 72
    65
 73
     0
 40
0.0
  0
LTYPE
  5
4B
330
5
100
AcDbSymbolTableRecord
100
AcDbLinetypeTableRecord
  2
AM_ISO02W050
 70
     0
  3
__ __ __ __ __ __ __ __ __ __ __ __ __ __ __
 72
    65
 73
     2
 40
7.5
 49
6.0
 74
     0
 49
-1.5
 74
     0
  0
LTYPE
  5
4C
330
5
100
AcDbSymbolTableRecord
100
AcDbLinetypeTableRecord
  2
AM_ISO08W050
 70
     0
  3
____ . ____ . ____ . ____ . ____ . ____ . ____
 72
    65
 73
     4
 40
18.0
 49
12.0
 74
     0
 49
-1.5
 74
     0
 49
3.0
 74
     0
 49
-1.5
 74
     0
  0
LTYPE
  5
4D
330
5
100
AcDbSymbolTableRecord
100
AcDbLinetypeTableRecord
  2
AM_ISO09W050
 70
     0
  3
_____ . . _____ . . _____ . . ____ .. ____
 72
    65
 73
     6
 40
22.5
 49
12.0
 74
     0
 49
-1.5
 74
     0
 49
3.0
 74
     0
 49
-1.5
 74
     0
 49
3.0
 74
     0
 49
-1.5
 74
     0
  0
LTYPE
  5
4E
330
5
100
AcDbSymbolTableRecord
100
AcDbLinetypeTableRecord
  2
AMCONSTR
 70
     0
  3
_______________________
 72
    65
 73
     2
 40
9999.0
 49
9999.0
 74
     0
 49
0.0
 74
     0
  0
LTYPE
  5
4F
330
5
100
AcDbSymbolTableRecord
100
AcDbLinetypeTableRecord
  2
AM_ISO02W050X2
 70
     0
  3
 _ _ _ _ _ _ _ _ _ _ _ _
 72
    65
 73
     2
 40
3.75
 49
3.0
 74
     0
 49
-0.75
 74
     0
  0
LTYPE
  5
50
330
5
100
AcDbSymbolTableRecord
100
AcDbLinetypeTableRecord
  2
AM_ISO08W050X2
 70
     0
  3
__ . __ . __ . __ . __ . __
 72
    65
 73
     4
 40
9.0
 49
6.0
 74
     0
 49
-0.75
 74
     0
 49
1.5
 74
     0
 49
-0.75
 74
     0
  0
LTYPE
  5
53
330
5
100
AcDbSymbolTableRecord
100
AcDbLinetypeTableRecord
  2
AMZIGZAG
 70
     0
  3
/\/-/\/-/\/-/\/-/\/-/\/
 72
    65
 73
     2
 40
11.00009999999999
 49
0.0001
 74
     4
 75
   135
340
52
 46
0.04
 50
0.0
 44
0.0
 45
0.0
 49
-11.0
 74
     0
  0
LTYPE
  5
C763
330
5
100
AcDbSymbolTableRecord
100
AcDbLinetypeTableRecord
  2
HIDDEN
 70
     0
  3
Hidden __ __ __ __ __ __ __ __ __ __ __ __ __ _
 72
    65
 73
     2
 40
9.524999999999998
 49
6.349999999999999
 74
     0
 49
-3.174999999999999
 74
     0
  0
LTYPE
  5
C764
330
5
100
AcDbSymbolTableRecord
100
AcDbLinetypeTableRecord
  2
PHANTOM2
 70
     0
  3
Phantom (.5x) ___ _ _ ___ _ _ ___ _ _ ___ _ _
 72
    65
 73
     6
 40
31.75
 49
15.875
 74
     0
 49
-3.174999999999999
 74
     0
 49
3.174999999999999
 74
     0
 49
-3.174999999999999
 74
     0
 49
3.174999999999999
 74
     0
 49
-3.174999999999999
 74
     0
  0
LTYPE
  5
C765
330
5
100
AcDbSymbolTableRecord
100
AcDbLinetypeTableRecord
  2
CENTER
 70
     0
  3
Center ____ _ ____ _ ____ _ ____ _ ____ _ ____
 72
    65
 73
     4
 40
50.8
 49
31.75
 74
     0
 49
-6.349999999999999
 74
     0
 49
6.349999999999999
 74
     0
 49
-6.349999999999999
 74
     0
  0
LTYPE
  5
C7A5
330
5
100
AcDbSymbolTableRecord
100
AcDbLinetypeTableRecord
  2
ACISOWELD
 70
     0
  3
_ _ _ _ _
 72
    65
 73
     2
 40
2.0
 49
2.0
 74
     0
 49
-1.0
 74
     0
  0
LTYPE
  5
C7A6
330
5
100
AcDbSymbolTableRecord
100
AcDbLinetypeTableRecord
  2
ACISOTGB
 70
     0
  3
__ . . __ . .
 72
    65
 73
     6
 40
9.0
 49
4.0
 74
     0
 49
-1.0
 74
     0
 49
1.0
 74
     0
 49
-1.0
 74
     0
 49
1.0
 74
     0
 49
-1.0
 74
     0
  0
LTYPE
  5
C7A7
330
5
100
AcDbSymbolTableRecord
100
AcDbLinetypeTableRecord
  2
ACISOTGL
 70
     0
  3
_ _ _ _ _
 72
    65
 73
     2
 40
3.0
 49
2.0
 74
     0
 49
-1.0
 74
     0
  0
ENDTAB
  0
TABLE
  2
LAYER
  5
2
330
0
100
AcDbSymbolTable
 70
    10
  0
LAYER
  5
10
330
2
100
AcDbSymbolTableRecord
100
AcDbLayerTableRecord
  2
0
 70
     0
 62
     7
  6
CONTINUOUS
370
    -3
390
F
  0
LAYER
  5
3F9
330
2
100
AcDbSymbolTableRecord
100
AcDbLayerTableRecord
  2
AM_0
 70
     0
 62
     7
  6
CONTINUOUS
370
    -3
390
F
  0
LAYER
  5
BD5
330
2
100
AcDbSymbolTableRecord
100
AcDbLayerTableRecord
  2
AM_7
 70
     0
 62
     4
  6
AM_ISO08W050
370
    -3
390
F
  0
LAYER
  5
BD6
330
2
100
AcDbSymbolTableRecord
100
AcDbLayerTableRecord
  2
AM_5
 70
     0
 62
     3
  6
CONTINUOUS
370
    -3
390
F
  0
LAYER
  5
BD7
330
2
100
AcDbSymbolTableRecord
100
AcDbLayerTableRecord
  2
DEFPOINTS
 70
     0
 62
     7
  6
CONTINUOUS
290
     0
370
    -3
390
F
  0
LAYER
  5
E59
330
2
100
AcDbSymbolTableRecord
100
AcDbLayerTableRecord
  2
AM_6
 70
     0
 62
     2
  6
CONTINUOUS
370
    -3
390
F
  0
LAYER
  5
1E31
330
2
100
AcDbSymbolTableRecord
100
AcDbLayerTableRecord
  2
AM_11
 70
     0
 62
     3
  6
AM_ISO09W050
370
    -3
390
F
  0
ENDTAB
  0
TABLE
  2
STYLE
  5
3
330
0
100
AcDbSymbolTable
 70
     7
  0
STYLE
  5
11
330
3
100
AcDbSymbolTableRecord
100
AcDbTextStyleTableRecord
  2
STANDARD
 70
     0
 40
0.0
 41
1.0
 50
0.0
 71
     0
 42
2.5
  3
simplex.shx
  4
EXTFONT.SHX
  0
STYLE
  5
52
330
3
100
AcDbSymbolTableRecord
100
AcDbTextStyleTableRecord
  2

 70
     1
 40
0.0
 41
1.0
 50
0.0
 71
     0
 42
2.5
  3
ltypeshp.shx
  4

  0
STYLE
  5
6B
330
3
100
AcDbSymbolTableRecord
100
AcDbTextStyleTableRecord
  2
ASAMI
 70
     0
 40
0.0
 41
1.0
 50
0.0
 71
     0
 42
2.5
  3
simplex.shx
  4
EXTFONT.SHX
  0
STYLE
  5
C797
330
3
100
AcDbSymbolTableRecord
100
AcDbTextStyleTableRecord
  2
ACISOTS
 70
     0
 40
1.0
 41
1.0
 50
0.0
 71
     0
 42
2.5
  3
isocp.shx
  4
extfont.shx
  0
STYLE
  5
C7A4
330
3
100
AcDbSymbolTableRecord
100
AcDbTextStyleTableRecord
  2
ACISOGDT
 70
     0
 40
0.0
 41
1.0
 50
0.0
 71
     0
 42
2.5
  3
amgdt.shx
  4

  0
ENDTAB
  0
TABLE
  2
VIEW
  5
6
330
0
100
AcDbSymbolTable
 70
     0
  0
ENDTAB
  0
TABLE
  2
UCS
  5
7
330
0
100
AcDbSymbolTable
 70
     0
  0
ENDTAB
  0
TABLE
  2
APPID
  5
9
330
0
100
AcDbSymbolTable
 70
    23
  0
APPID
  5
12
330
9
100
AcDbSymbolTableRecord
100
AcDbRegAppTableRecord
  2
ACAD
 70
     0
  0
APPID
  5
30
330
9
100
AcDbSymbolTableRecord
100
AcDbRegAppTableRecord
  2
MCAD_NO_VIS
 70
     0
  0
APPID
  5
31
330
9
100
AcDbSymbolTableRecord
100
AcDbRegAppTableRecord
  2
ACAD_TEMP_GRAPHIC
 70
     0
  0
APPID
  5
2C2
330
9
100
AcDbSymbolTableRecord
100
AcDbRegAppTableRecord
  2
GENIUS_GENDTOL_13
 70
     0
  0
APPID
  5
339
330
9
100
AcDbSymbolTableRecord
100
AcDbRegAppTableRecord
  2
GENIUS_GENODEF_13
 70
     0
  0
APPID
  5
33A
330
9
100
AcDbSymbolTableRecord
100
AcDbRegAppTableRecord
  2
GENIUS_GENOBJ-N-RSBK_13
 70
     0
  0
APPID
  5
33B
330
9
100
AcDbSymbolTableRecord
100
AcDbRegAppTableRecord
  2
GENIUS_GENOBJ-N-LIB_13
 70
     0
  0
APPID
  5
33C
330
9
100
AcDbSymbolTableRecord
100
AcDbRegAppTableRecord
  2
GENIUS_GENSCALE_13
 70
     0
  0
APPID
  5
378
330
9
100
AcDbSymbolTableRecord
100
AcDbRegAppTableRecord
  2
GENIUS_GENDIMSH_14
 70
     0
  0
APPID
  5
BD8
330
9
100
AcDbSymbolTableRecord
100
AcDbRegAppTableRecord
  2
GENIUS_GENOBJ-N-CEN_13
 70
     0
  0
APPID
  5
BD9
330
9
100
AcDbSymbolTableRecord
100
AcDbRegAppTableRecord
  2
GENIUS_GENFIL_13
 70
     0
  0
APPID
  5
BDA
330
9
100
AcDbSymbolTableRecord
100
AcDbRegAppTableRecord
  2
GENIUS_GENOBJ-N-CHA_13
 70
     0
  0
APPID
  5
2BC1
330
9
100
AcDbSymbolTableRecord
100
AcDbRegAppTableRecord
  2
GENIUS_GENOBJ-N-FIL_13
 70
     0
  0
APPID
  5
C420
330
9
100
AcDbSymbolTableRecord
100
AcDbRegAppTableRecord
  2
GENIUS_GENOENT_13
 70
     0
  0
APPID
  5
C421
330
9
100
AcDbSymbolTableRecord
100
AcDbRegAppTableRecord
  2
GENIUS_GENOREF_13
 70
     0
  0
APPID
  5
C422
330
9
100
AcDbSymbolTableRecord
100
AcDbRegAppTableRecord
  2
GENIUS_GENOLIS_13
 70
     0
  0
APPID
  5
C767
330
9
100
AcDbSymbolTableRecord
100
AcDbRegAppTableRecord
  2
AD_DRAW
 70
     0
  0
APPID
  5
C76A
330
9
100
AcDbSymbolTableRecord
100
AcDbRegAppTableRecord
  2
ACATTRIBSERVICES
 70
     0
  0
APPID
  5
C788
330
9
100
AcDbSymbolTableRecord
100
AcDbRegAppTableRecord
  2
DESIGNERASSEMBLIES
 70
     0
  0
APPID
  5
C78D
330
9
100
AcDbSymbolTableRecord
100
AcDbRegAppTableRecord
  2
ACADM_DIM_EDIT
 70
     0
  0
APPID
  5
C78E
330
9
100
AcDbSymbolTableRecord
100
AcDbRegAppTableRecord
  2
AMDT_DM_ADJ
 70
     0
  0
APPID
  5
C7BA
330
9
100
AcDbSymbolTableRecord
100
AcDbRegAppTableRecord
  2
GENIUS_GENSCREG_15
 70
     0
  0
APPID
  5
C7BB
330
9
100
AcDbSymbolTableRecord
100
AcDbRegAppTableRecord
  2
GENIUS_GENOBJ-N-SDF_13
 70
     0
  0
ENDTAB
  0
TABLE
  2
DIMSTYLE
  5
A
330
0
100
AcDbSymbolTable
 70
    18
100
AcDbDimStyleTable
 71
     1
340
58
  0
DIMSTYLE
105
58
102
{ACAD_REACTORS
330
B813
330
B814
330
B818
330
B816
330
B817
102
}
330
A
100
AcDbSymbolTableRecord
100
AcDbDimStyleTableRecord
  2
AM_JIS
 70
     0
  4
"
 41
2.5
 42
1.0
 43
12.0
 44
1.0
 47
0.1
 48
0.1
 73
     0
 74
     0
 77
     3
 78
     8
140
3.2
141
0.0
143
0.0393701
146
0.71
147
1.5
172
     1
176
   256
177
   256
178
     2
271
     3
272
     3
283
     0
340
6B
341
59
342
59
  0
DIMSTYLE
105
B34
102
{ACAD_REACTORS
330
C881
102
}
330
A
100
AcDbSymbolTableRecord
100
AcDbDimStyleTableRecord
  2
AM_JIS$2
 70
     0
  4
"
 41
2.5
 42
1.0
 43
12.0
 44
1.0
 47
0.1
 48
0.1
 73
     0
 74
     0
 77
     3
 78
     8
140
3.2
141
0.0
143
0.0393701
146
0.71
147
1.5
172
     1
176
   256
177
   256
178
     2
271
     3
272
     3
283
     0
340
6B
341
59
342
59
  0
DIMSTYLE
105
1E42
102
{ACAD_REACTORS
330
C0A4
330
C627
330
C8C9
102
}
330
A
100
AcDbSymbolTableRecord
100
AcDbDimStyleTableRecord
  2
AM_JIS$0
 70
     0
  4
"
 40
2.0
 41
2.5
 42
1.0
 43
10.0
 44
1.0
 47
0.1
 48
0.1
 73
     0
 74
     0
 77
     3
 78
     8
140
2.5
141
0.0
143
0.0393701
146
0.71
147
1.0
172
     1
176
   256
177
   256
178
     4
271
     3
272
     3
283
     0
340
6B
341
59
342
59
  0
DIMSTYLE
105
C7B1
330
A
100
AcDbSymbolTableRecord
100
AcDbDimStyleTableRecord
  2
AM_ISO
 70
     0
  4
"
 41
2.5
 42
1.0
 43
10.0
 44
1.0
 47
0.1
 48
0.1
 73
     0
 74
     0
 77
     1
 78
     8
 79
     2
140
3.5
141
0.0
143
0.0393701
146
0.71
147
1.5
172
     1
176
   256
177
   256
178
     2
271
     2
272
     3
274
     4
283
     0
284
     8
340
11
371
    -1
372
    -1
  0
DIMSTYLE
105
C7B2
330
A
100
AcDbSymbolTableRecord
100
AcDbDimStyleTableRecord
  2
AM_ISO$3
 70
     0
  4
"
 41
2.5
 42
1.0
 43
10.0
 44
1.0
 47
0.1
 48
0.1
 73
     0
 77
     1
 78
     8
 79
     2
140
3.5
141
0.0
143
0.0393701
146
0.71
147
1.5
176
   256
177
   256
178
     2
271
     2
272
     3
274
     4
283
     0
284
     8
288
     1
289
     0
340
11
371
    -1
372
    -1
  0
DIMSTYLE
105
C7B3
330
A
100
AcDbSymbolTableRecord
100
AcDbDimStyleTableRecord
  2
AM_ISO$4
 70
     0
  4
"
 41
2.5
 42
1.0
 43
10.0
 44
1.0
 47
0.1
 48
0.1
 73
     0
 77
     1
 78
     8
 79
     2
140
3.5
141
0.0
143
0.0393701
146
0.71
147
1.5
176
   256
177
   256
178
     2
271
     2
272
     3
274
     4
283
     0
284
     8
288
     1
289
     0
340
11
371
    -1
372
    -1
  0
DIMSTYLE
105
C7B4
330
A
100
AcDbSymbolTableRecord
100
AcDbDimStyleTableRecord
  2
AM_ISO$6
 70
     0
  4
"
 41
2.5
 42
1.0
 43
10.0
 44
1.0
 47
0.1
 48
0.1
 73
     0
 74
     0
 78
     8
 79
     2
140
3.5
141
0.0
143
0.0393701
146
0.71
147
1.5
172
     1
176
   256
177
   256
178
     2
271
     2
272
     3
274
     4
283
     0
284
     8
340
11
371
    -1
372
    -1
  0
DIMSTYLE
105
C7B5
330
A
100
AcDbSymbolTableRecord
100
AcDbDimStyleTableRecord
  2
AM_ISO$7
 70
     0
  4
"
 41
2.5
 42
1.0
 43
10.0
 44
1.0
 47
0.1
 48
0.1
 73
     0
 74
     0
 77
     1
 78
     8
 79
     2
140
5.0
141
0.0
143
0.0393701
146
0.71
147
1.5
172
     1
176
   256
177
   256
178
     2
271
     2
272
     3
274
     4
283
     0
284
     8
340
11
371
    -1
372
    -1
  0
DIMSTYLE
105
C7B6
330
A
100
AcDbSymbolTableRecord
100
AcDbDimStyleTableRecord
  2
AM_ISO$SF
 70
     0
  4
"
 41
2.5
 42
1.0
 43
10.0
 44
1.0
 47
0.1
 48
0.1
 73
     0
 74
     0
 75
     1
 76
     1
 77
     1
 78
     8
 79
     2
140
3.5
141
0.0
143
0.0393701
146
0.71
147
1.5
172
     1
176
   256
177
   256
178
     2
271
     2
272
     3
274
     4
283
     0
284
     8
340
11
371
    -1
372
    -1
  0
DIMSTYLE
105
C7B7
330
A
100
AcDbSymbolTableRecord
100
AcDbDimStyleTableRecord
  2
AM_ISO$SH
 70
     0
  4
"
 41
2.5
 42
1.0
 43
10.0
 44
1.0
 47
0.1
 48
0.1
 73
     0
 74
     0
 75
     1
 76
     1
 77
     1
 78
     8
 79
     2
140
3.5
141
0.0
143
0.0393701
144
2.0
146
0.71
147
1.5
172
     1
173
     1
176
   256
177
   256
178
     2
271
     2
272
     3
274
     4
283
     0
284
     8
340
11
343
64
371
    -1
372
    -1
  0
DIMSTYLE
105
C7BD
330
A
100
AcDbSymbolTableRecord
100
AcDbDimStyleTableRecord
  2
STANDARD
 70
     0
340
11
  0
ENDTAB
  0
TABLE
  2
BLOCK_RECORD
  5
1
330
0
100
AcDbSymbolTable
 70
    12
  0
BLOCK_RECORD
  5
1F
102
{ACAD_XDICTIONARY
360
74
102
}
330
1
100
AcDbSymbolTableRecord
100
AcDbBlockTableRecord
  2
*MODEL_SPACE
340
C730
  0
BLOCK_RECORD
  5
101
102
{ACAD_XDICTIONARY
360
C724
102
}
330
1
100
AcDbSymbolTableRecord
100
AcDbBlockTableRecord
  2
*PAPER_SPACE
340
C731
  0
BLOCK_RECORD
  5
59
330
1
100
AcDbSymbolTableRecord
100
AcDbBlockTableRecord
  2
_OPEN30
340
0
102
{BLKREFS
331
C6D8
331
C6D9
331
C6CF
331
C6D0
331
C15D
331
C15E
331
C154
331
C155
331
BAB5
331
BAB6
331
C14B
331
C14C
331
C6C6
331
C6C7
331
C8B0
331
C8B1
331
C903
331
C904
102
}
  0
BLOCK_RECORD
  5
64
330
1
100
AcDbSymbolTableRecord
100
AcDbBlockTableRecord
  2
GENAXEH
340
0
  0
BLOCK_RECORD
  5
B81A
330
1
100
AcDbSymbolTableRecord
100
AcDbBlockTableRecord
  2
*D2
340
0
  0
BLOCK_RECORD
  5
B826
330
1
100
AcDbSymbolTableRecord
100
AcDbBlockTableRecord
  2
*D3
340
0
  0
BLOCK_RECORD
  5
B83E
330
1
100
AcDbSymbolTableRecord
100
AcDbBlockTableRecord
  2
*D4
340
0
  0
BLOCK_RECORD
  5
B84A
330
1
100
AcDbSymbolTableRecord
100
AcDbBlockTableRecord
  2
*D5
340
0
  0
BLOCK_RECORD
  5
B856
330
1
100
AcDbSymbolTableRecord
100
AcDbBlockTableRecord
  2
*D6
340
0
  0
BLOCK_RECORD
  5
C0A5
330
1
100
AcDbSymbolTableRecord
100
AcDbBlockTableRecord
  2
*D7
340
0
  0
BLOCK_RECORD
  5
C628
330
1
100
AcDbSymbolTableRecord
100
AcDbBlockTableRecord
  2
*D8
340
0
  0
BLOCK_RECORD
  5
C882
330
1
100
AcDbSymbolTableRecord
100
AcDbBlockTableRecord
  2
*D10
340
0
  0
BLOCK_RECORD
  5
C8CA
330
1
100
AcDbSymbolTableRecord
100
AcDbBlockTableRecord
  2
*D11
340
0
  0
ENDTAB
  0
ENDSEC
  0
SECTION
  2
BLOCKS
  0
BLOCK
  5
20
330
1F
100
AcDbEntity
  8
0
100
AcDbBlockBegin
  2
*MODEL_SPACE
 70
     0
 10
0.0
 20
0.0
 30
0.0
  3
*MODEL_SPACE
  1

  0
ENDBLK
  5
21
330
1F
100
AcDbEntity
  8
0
100
AcDbBlockEnd
  0
BLOCK
  5
103
330
101
100
AcDbEntity
 67
     1
  8
0
100
AcDbBlockBegin
  2
*PAPER_SPACE
 70
     0
 10
0.0
 20
0.0
 30
0.0
  3
*PAPER_SPACE
  1

  0
ENDBLK
  5
104
330
101
100
AcDbEntity
 67
     1
  8
0
100
AcDbBlockEnd
  0
BLOCK
  5
5D
330
59
100
AcDbEntity
  8
0
100
AcDbBlockBegin
  2
_OPEN30
 70
     0
 10
0.0
 20
0.0
 30
0.0
  3
_OPEN30
  1

  0
LINE
  5
5A
330
59
100
AcDbEntity
  8
0
 62
     0
100
AcDbLine
 10
-1.0
 20
0.26794919
 30
0.0
 11
0.0
 21
0.0
 31
0.0
  0
LINE
  5
5B
330
59
100
AcDbEntity
  8
0
 62
     0
100
AcDbLine
 10
0.0
 20
0.0
 30
0.0
 11
-1.0
 21
-0.26794919
 31
0.0
  0
LINE
  5
5C
330
59
100
AcDbEntity
  8
0
 62
     0
100
AcDbLine
 10
0.0
 20
0.0
 30
0.0
 11
-1.0
 21
0.0
 31
0.0
  0
ENDBLK
  5
5E
330
59
100
AcDbEntity
  8
0
100
AcDbBlockEnd
  0
BLOCK
  5
66
330
64
100
AcDbEntity
  8
0
100
AcDbBlockBegin
  2
GENAXEH
 70
     0
 10
0.0
 20
0.0
 30
0.0
  3
GENAXEH
  1

  0
LINE
  5
65
330
64
100
AcDbEntity
  8
0
100
AcDbLine
 10
-1.0
 20
0.0
 30
0.0
 11
1.0
 21
0.0
 31
0.0
  0
ENDBLK
  5
67
330
64
100
AcDbEntity
  8
0
100
AcDbBlockEnd
  0
BLOCK
  5
B824
330
B81A
100
AcDbEntity
  8
0
100
AcDbBlockBegin
  2
*D2
 70
     1
 10
0.0
 20
0.0
 30
0.0
  3
*D2
  1

  0
LINE
  5
C6D5
330
B81A
100
AcDbEntity
  8
AM_5
100
AcDbLine
 10
-59.19999999999896
 20
23.81249999999997
 30
0.0
 11
-84.99999999999941
 21
23.81249999999998
 31
0.0
  0
LINE
  5
C6D6
330
B81A
100
AcDbEntity
  8
AM_5
100
AcDbLine
 10
-59.19999999999896
 20
-23.81249999999997
 30
0.0
 11
-84.99999999999941
 21
-23.81249999999997
 31
0.0
  0
LINE
  5
C6D7
330
B81A
100
AcDbEntity
  8
AM_5
100
AcDbLine
 10
-83.99999999999939
 20
21.31249999999998
 30
0.0
 11
-83.99999999999939
 21
-21.31249999999997
 31
0.0
  0
INSERT
  5
C6D8
330
B81A
100
AcDbEntity
  8
AM_5
100
AcDbBlockReference
  2
_OPEN30
 10
-83.99999999999939
 20
23.81249999999998
 30
0.0
 41
2.5
 42
2.5
 43
2.5
 50
90.0
  0
INSERT
  5
C6D9
330
B81A
100
AcDbEntity
  8
AM_5
100
AcDbBlockReference
  2
_OPEN30
 10
-83.99999999999939
 20
-23.81249999999997
 30
0.0
 41
2.5
 42
2.5
 43
2.5
 50
270.0
  0
MTEXT
  5
C6DA
330
B81A
100
AcDbEntity
  8
AM_5
 62
     2
100
AcDbMText
 10
-87.09999999999942
 20
-0.0000000000000087
 30
0.0
 40
3.2
 41
0.0
 71
     5
 72
     1
  1
%%c47.625
  7
ASAMI
 11
0.0000000000000001
 21
1.0
 31
0.0
 73
     1
 44
1.0
1001
ACAD
1000
MTEXTBEGIN
1070
    73
1070
     1
1070
    44
1040
1.0
1070
    74
1070
     0
1000
MTEXTEND
  0
POINT
  5
C6DB
330
B81A
100
AcDbEntity
  8
DEFPOINTS
 62
     0
100
AcDbPoint
 10
-58.19999999999897
 20
23.81249999999997
 30
0.0
  0
POINT
  5
C6DC
330
B81A
100
AcDbEntity
  8
DEFPOINTS
 62
     0
100
AcDbPoint
 10
-58.19999999999897
 20
-23.81249999999997
 30
0.0
  0
POINT
  5
C6DD
330
B81A
100
AcDbEntity
  8
DEFPOINTS
 62
     0
100
AcDbPoint
 10
-83.99999999999939
 20
-23.81249999999997
 30
0.0
  0
ENDBLK
  5
B825
330
B81A
100
AcDbEntity
  8
0
100
AcDbBlockEnd
  0
BLOCK
  5
B830
330
B826
100
AcDbEntity
  8
0
100
AcDbBlockBegin
  2
*D3
 70
     1
 10
0.0
 20
0.0
 30
0.0
  3
*D3
  1

  0
LINE
  5
C6CC
330
B826
100
AcDbEntity
  8
AM_5
100
AcDbLine
 10
-59.69999999999895
 20
12.70000000000004
 30
0.0
 11
-74.9999999999994
 21
12.70000000000005
 31
0.0
  0
LINE
  5
C6CD
330
B826
100
AcDbEntity
  8
AM_5
100
AcDbLine
 10
-59.69999999999895
 20
-12.70000000000004
 30
0.0
 11
-74.9999999999994
 21
-12.70000000000004
 31
0.0
  0
LINE
  5
C6CE
330
B826
100
AcDbEntity
  8
AM_5
100
AcDbLine
 10
-73.9999999999994
 20
10.20000000000005
 30
0.0
 11
-73.9999999999994
 21
-10.20000000000004
 31
0.0
  0
INSERT
  5
C6CF
330
B826
100
AcDbEntity
  8
AM_5
100
AcDbBlockReference
  2
_OPEN30
 10
-73.9999999999994
 20
12.70000000000005
 30
0.0
 41
2.5
 42
2.5
 43
2.5
 50
90.0
  0
INSERT
  5
C6D0
330
B826
100
AcDbEntity
  8
AM_5
100
AcDbBlockReference
  2
_OPEN30
 10
-73.9999999999994
 20
-12.70000000000004
 30
0.0
 41
2.5
 42
2.5
 43
2.5
 50
270.0
  0
MTEXT
  5
C6D1
330
B826
100
AcDbEntity
  8
AM_5
 62
     2
100
AcDbMText
 10
-77.09999999999941
 20
-0.0000000000001417
 30
0.0
 40
3.2
 41
0.0
 71
     5
 72
     1
  1
25.4
  7
ASAMI
 11
0.0000000000000001
 21
1.0
 31
0.0
 73
     1
 44
1.0
1001
ACAD
1000
MTEXTBEGIN
1070
    73
1070
     1
1070
    44
1040
1.0
1070
    74
1070
     0
1000
MTEXTEND
  0
POINT
  5
C6D2
330
B826
100
AcDbEntity
  8
DEFPOINTS
 62
     0
100
AcDbPoint
 10
-58.69999999999897
 20
12.70000000000004
 30
0.0
  0
POINT
  5
C6D3
330
B826
100
AcDbEntity
  8
DEFPOINTS
 62
     0
100
AcDbPoint
 10
-58.69999999999897
 20
-12.70000000000004
 30
0.0
  0
POINT
  5
C6D4
330
B826
100
AcDbEntity
  8
DEFPOINTS
 62
     0
100
AcDbPoint
 10
-73.9999999999994
 20
-12.70000000000004
 30
0.0
  0
ENDBLK
  5
B831
330
B826
100
AcDbEntity
  8
0
100
AcDbBlockEnd
  0
BLOCK
  5
B848
330
B83E
100
AcDbEntity
  8
0
100
AcDbBlockBegin
  2
*D4
 70
     1
 10
0.0
 20
0.0
 30
0.0
  3
*D4
  1

  0
LINE
  5
C15A
330
B83E
100
AcDbEntity
  8
AM_5
100
AcDbLine
 10
-59.99999999999904
 20
-65.01435859842796
 30
0.0
 11
-59.99999999999904
 21
-139.95
 31
0.0
  0
LINE
  5
C15B
330
B83E
100
AcDbEntity
  8
AM_5
100
AcDbLine
 10
-0.0000000000014211
 20
-100.9999999996406
 30
0.0
 11
-0.0000000000014235
 21
-139.95
 31
0.0
  0
LINE
  5
C15C
330
B83E
100
AcDbEntity
  8
AM_5
100
AcDbLine
 10
-57.49999999999904
 20
-138.95
 30
0.0
 11
-2.500000000001423
 21
-138.95
 31
0.0
  0
INSERT
  5
C15D
330
B83E
100
AcDbEntity
  8
AM_5
100
AcDbBlockReference
  2
_OPEN30
 10
-59.99999999999904
 20
-138.95
 30
0.0
 41
2.5
 42
2.5
 43
2.5
 50
180.0
  0
INSERT
  5
C15E
330
B83E
100
AcDbEntity
  8
AM_5
100
AcDbBlockReference
  2
_OPEN30
 10
-0.0000000000014235
 20
-138.95
 30
0.0
 41
2.5
 42
2.5
 43
2.5
  0
MTEXT
  5
C15F
330
B83E
100
AcDbEntity
  8
AM_5
 62
     2
100
AcDbMText
 10
-30.00000000000023
 20
-135.85
 30
0.0
 40
3.2
 41
0.0
 71
     5
 72
     1
  1
60
  7
ASAMI
 73
     1
 44
1.0
1001
ACAD
1000
MTEXTBEGIN
1070
    73
1070
     1
1070
    44
1040
1.0
1070
    74
1070
     0
1000
MTEXTEND
  0
POINT
  5
C160
330
B83E
100
AcDbEntity
  8
DEFPOINTS
 62
     0
100
AcDbPoint
 10
-59.99999999999904
 20
-64.01435859842796
 30
0.0
  0
POINT
  5
C161
330
B83E
100
AcDbEntity
  8
DEFPOINTS
 62
     0
100
AcDbPoint
 10
-0.0000000000014211
 20
-99.99999999964069
 30
0.0
  0
POINT
  5
C162
330
B83E
100
AcDbEntity
  8
DEFPOINTS
 62
     0
100
AcDbPoint
 10
-0.0000000000014235
 20
-138.95
 30
0.0
  0
ENDBLK
  5
B849
330
B83E
100
AcDbEntity
  8
0
100
AcDbBlockEnd
  0
BLOCK
  5
B854
330
B84A
100
AcDbEntity
  8
0
100
AcDbBlockBegin
  2
*D5
 70
     1
 10
0.0
 20
0.0
 30
0.0
  3
*D5
  1

  0
LINE
  5
C151
330
B84A
100
AcDbEntity
  8
AM_5
100
AcDbLine
 10
-59.99999999999904
 20
-65.01435859842796
 30
0.0
 11
-59.99999999999904
 21
-119.95
 31
0.0
  0
LINE
  5
C152
330
B84A
100
AcDbEntity
  8
AM_5
100
AcDbLine
 10
-46.49999999999885
 20
-12.70000000000004
 30
0.0
 11
-46.49999999999886
 21
-119.95
 31
0.0
  0
LINE
  5
C153
330
B84A
100
AcDbEntity
  8
AM_5
100
AcDbLine
 10
-57.49999999999904
 20
-118.95
 30
0.0
 11
-48.99999999999886
 21
-118.95
 31
0.0
  0
INSERT
  5
C154
330
B84A
100
AcDbEntity
  8
AM_5
100
AcDbBlockReference
  2
_OPEN30
 10
-59.99999999999904
 20
-118.95
 30
0.0
 41
2.5
 42
2.5
 43
2.5
 50
180.0
  0
INSERT
  5
C155
330
B84A
100
AcDbEntity
  8
AM_5
100
AcDbBlockReference
  2
_OPEN30
 10
-46.49999999999886
 20
-118.95
 30
0.0
 41
2.5
 42
2.5
 43
2.5
  0
MTEXT
  5
C156
330
B84A
100
AcDbEntity
  8
AM_5
 62
     2
100
AcDbMText
 10
-53.24999999999896
 20
-115.85
 30
0.0
 40
3.2
 41
0.0
 71
     5
 72
     1
  1
13.5
  7
ASAMI
 73
     1
 44
1.0
1001
ACAD
1000
MTEXTBEGIN
1070
    73
1070
     1
1070
    44
1040
1.0
1070
    74
1070
     0
1000
MTEXTEND
  0
POINT
  5
C157
330
B84A
100
AcDbEntity
  8
DEFPOINTS
 62
     0
100
AcDbPoint
 10
-59.99999999999904
 20
-64.01435859842796
 30
0.0
  0
POINT
  5
C158
330
B84A
100
AcDbEntity
  8
DEFPOINTS
 62
     0
100
AcDbPoint
 10
-46.49999999999885
 20
-11.70000000000004
 30
0.0
  0
POINT
  5
C159
330
B84A
100
AcDbEntity
  8
DEFPOINTS
 62
     0
100
AcDbPoint
 10
-46.49999999999886
 20
-118.95
 30
0.0
  0
ENDBLK
  5
B855
330
B84A
100
AcDbEntity
  8
0
100
AcDbBlockEnd
  0
BLOCK
  5
B860
330
B856
100
AcDbEntity
  8
0
100
AcDbBlockBegin
  2
*D6
 70
     1
 10
0.0
 20
0.0
 30
0.0
  3
*D6
  1

  0
LINE
  5
BAB2
330
B856
100
AcDbEntity
  8
AM_5
100
AcDbLine
 10
1.000000000001477
 20
100.0
 30
0.0
 11
24.80699442689386
 21
100.0
 31
0.0
  0
LINE
  5
BAB3
330
B856
100
AcDbEntity
  8
AM_5
100
AcDbLine
 10
0.9999999999985787
 20
-99.99999999964069
 30
0.0
 11
24.80699442689382
 21
-99.99999999964069
 31
0.0
  0
LINE
  5
BAB4
330
B856
100
AcDbEntity
  8
AM_5
100
AcDbLine
 10
23.80699442689386
 20
97.5
 30
0.0
 11
23.80699442689382
 21
-97.49999999964069
 31
0.0
  0
INSERT
  5
BAB5
330
B856
100
AcDbEntity
  8
AM_5
100
AcDbBlockReference
  2
_OPEN30
 10
23.80699442689386
 20
100.0
 30
0.0
 41
2.5
 42
2.5
 43
2.5
 50
90.0
  0
INSERT
  5
BAB6
330
B856
100
AcDbEntity
  8
AM_5
100
AcDbBlockReference
  2
_OPEN30
 10
23.80699442689382
 20
-99.99999999964069
 30
0.0
 41
2.5
 42
2.5
 43
2.5
 50
270.0
  0
MTEXT
  5
BAB7
330
B856
100
AcDbEntity
  8
AM_5
 62
     2
100
AcDbMText
 10
20.70699442689384
 20
0.0000000001796383
 30
0.0
 40
3.2
 41
0.0
 71
     5
 72
     1
  1
%%c200
  7
ASAMI
 11
0.0000000000000001
 21
1.0
 31
0.0
 73
     1
 44
1.0
1001
ACAD
1000
MTEXTBEGIN
1070
    73
1070
     1
1070
    44
1040
1.0
1070
    74
1070
     0
1000
MTEXTEND
  0
POINT
  5
BAB8
330
B856
100
AcDbEntity
  8
DEFPOINTS
 62
     0
100
AcDbPoint
 10
0.0000000000014779
 20
100.0
 30
0.0
  0
POINT
  5
BAB9
330
B856
100
AcDbEntity
  8
DEFPOINTS
 62
     0
100
AcDbPoint
 10
-0.0000000000014211
 20
-99.99999999964069
 30
0.0
  0
POINT
  5
BABA
330
B856
100
AcDbEntity
  8
DEFPOINTS
 62
     0
100
AcDbPoint
 10
23.80699442689382
 20
-99.99999999964069
 30
0.0
  0
ENDBLK
  5
B861
330
B856
100
AcDbEntity
  8
0
100
AcDbBlockEnd
  0
BLOCK
  5
C0AF
330
C0A5
100
AcDbEntity
  8
0
100
AcDbBlockBegin
  2
*D7
 70
     1
 10
0.0
 20
0.0
 30
0.0
  3
*D7
  1

  0
LINE
  5
C148
330
C0A5
100
AcDbEntity
  8
AM_5
100
AcDbLine
 10
-59.99999999999904
 20
-65.01435859842796
 30
0.0
 11
-59.99999999999904
 21
-129.9499999999999
 31
0.0
  0
LINE
  5
C149
330
C0A5
100
AcDbEntity
  8
AM_5
100
AcDbLine
 10
-21.99999999999897
 20
-51.00000000000012
 30
0.0
 11
-21.99999999999898
 21
-129.9499999999999
 31
0.0
  0
LINE
  5
C14A
330
C0A5
100
AcDbEntity
  8
AM_5
100
AcDbLine
 10
-57.49999999999904
 20
-128.9499999999999
 30
0.0
 11
-24.49999999999898
 21
-128.9499999999999
 31
0.0
  0
INSERT
  5
C14B
330
C0A5
100
AcDbEntity
  8
AM_5
100
AcDbBlockReference
  2
_OPEN30
 10
-59.99999999999904
 20
-128.9499999999999
 30
0.0
 41
2.5
 42
2.5
 43
2.5
 50
180.0
  0
INSERT
  5
C14C
330
C0A5
100
AcDbEntity
  8
AM_5
100
AcDbBlockReference
  2
_OPEN30
 10
-21.99999999999898
 20
-128.9499999999999
 30
0.0
 41
2.5
 42
2.5
 43
2.5
  0
MTEXT
  5
C14D
330
C0A5
100
AcDbEntity
  8
AM_5
 62
     2
100
AcDbMText
 10
-40.99999999999901
 20
-125.8499999999999
 30
0.0
 40
3.2
 41
0.0
 71
     5
 72
     1
  1
38
  7
ASAMI
 73
     1
 44
1.0
1001
ACAD
1000
MTEXTBEGIN
1070
    73
1070
     1
1070
    44
1040
1.0
1070
    74
1070
     0
1000
MTEXTEND
  0
POINT
  5
C14E
330
C0A5
100
AcDbEntity
  8
DEFPOINTS
 62
     0
100
AcDbPoint
 10
-59.99999999999904
 20
-64.01435859842796
 30
0.0
  0
POINT
  5
C14F
330
C0A5
100
AcDbEntity
  8
DEFPOINTS
 62
     0
100
AcDbPoint
 10
-21.99999999999897
 20
-50.00000000000014
 30
0.0
  0
POINT
  5
C150
330
C0A5
100
AcDbEntity
  8
DEFPOINTS
 62
     0
100
AcDbPoint
 10
-21.99999999999898
 20
-128.9499999999999
 30
0.0
  0
ENDBLK
  5
C0B0
330
C0A5
100
AcDbEntity
  8
0
100
AcDbBlockEnd
  0
BLOCK
  5
C632
330
C628
100
AcDbEntity
  8
0
100
AcDbBlockBegin
  2
*D8
 70
     1
 10
0.0
 20
0.0
 30
0.0
  3
*D8
  1

  0
LINE
  5
C6C3
330
C628
100
AcDbEntity
  8
AM_5
100
AcDbLine
 10
-60.23922421358033
 20
64.99999999999999
 30
0.0
 11
-94.99999999999932
 21
64.99999999999999
 31
0.0
  0
LINE
  5
C6C4
330
C628
100
AcDbEntity
  8
AM_5
100
AcDbLine
 10
-60.23922421358033
 20
-64.99999999999999
 30
0.0
 11
-94.99999999999934
 21
-64.99999999999999
 31
0.0
  0
LINE
  5
C6C5
330
C628
100
AcDbEntity
  8
AM_5
100
AcDbLine
 10
-93.99999999999932
 20
62.5
 30
0.0
 11
-93.99999999999934
 21
-62.49999999999998
 31
0.0
  0
INSERT
  5
C6C6
330
C628
100
AcDbEntity
  8
AM_5
100
AcDbBlockReference
  2
_OPEN30
 10
-93.99999999999932
 20
64.99999999999999
 30
0.0
 41
2.5
 42
2.5
 43
2.5
 50
90.0
  0
INSERT
  5
C6C7
330
C628
100
AcDbEntity
  8
AM_5
100
AcDbBlockReference
  2
_OPEN30
 10
-93.99999999999934
 20
-64.99999999999999
 30
0.0
 41
2.5
 42
2.5
 43
2.5
 50
270.0
  0
MTEXT
  5
C6C8
330
C628
100
AcDbEntity
  8
AM_5
 62
     2
100
AcDbMText
 10
-97.09999999999931
 20
-0.0000000000000081
 30
0.0
 40
3.2
 41
0.0
 71
     5
 72
     1
  1
%%c130
  7
ASAMI
 11
0.0000000000000001
 21
1.0
 31
0.0
 73
     1
 44
1.0
1001
ACAD
1000
MTEXTBEGIN
1070
    73
1070
     1
1070
    44
1040
1.0
1070
    74
1070
     0
1000
MTEXTEND
  0
POINT
  5
C6C9
330
C628
100
AcDbEntity
  8
DEFPOINTS
 62
     0
100
AcDbPoint
 10
-59.23922421358033
 20
64.99999999999999
 30
0.0
  0
POINT
  5
C6CA
330
C628
100
AcDbEntity
  8
DEFPOINTS
 62
     0
100
AcDbPoint
 10
-59.23922421358033
 20
-64.99999999999999
 30
0.0
  0
POINT
  5
C6CB
330
C628
100
AcDbEntity
  8
DEFPOINTS
 62
     0
100
AcDbPoint
 10
-93.99999999999934
 20
-64.99999999999999
 30
0.0
  0
ENDBLK
  5
C633
330
C628
100
AcDbEntity
  8
0
100
AcDbBlockEnd
  0
BLOCK
  5
C8B8
330
C882
100
AcDbEntity
  8
0
100
AcDbBlockBegin
  2
*D10
 70
     1
 10
0.0
 20
0.0
 30
0.0
  3
*D10
  1

  0
LINE
  5
C8AD
330
C882
100
AcDbEntity
  8
AM_5
100
AcDbLine
 10
-0.9628513040134905
 20
-100.7882598372927
 30
0.0
 11
-20.68200827667972
 21
-106.318507851061
 31
0.0
  0
LINE
  5
C8AE
330
C882
100
AcDbEntity
  8
AM_5
100
AcDbLine
 10
-0.0000000000014282
 20
-101.5182276792776
 30
0.0
 11
-0.0000000000017408
 21
-121.9981884899442
 31
0.0
  0
ARC
  5
C8AF
330
C882
100
AcDbEntity
  8
AM_5
100
AcDbCircle
 10
-0.000000000001414
 20
-100.5182276792776
 30
0.0
 40
20.47996081066662
100
AcDbArc
 50
202.6646573808058
 51
263.0015230681333
  0
INSERT
  5
C8B0
330
C882
100
AcDbEntity
  8
AM_5
100
AcDbBlockReference
  2
_OPEN30
 10
-19.71915697266766
 20
-106.048475693046
 30
0.0
 41
2.5
 42
2.5
 43
2.5
 50
109.1654189148729
  0
INSERT
  5
C8B1
330
C882
100
AcDbEntity
  8
AM_5
100
AcDbBlockReference
  2
_OPEN30
 10
-0.0000000000017195
 20
-120.9981884899442
 30
0.0
 41
2.5
 42
2.5
 43
2.5
 50
356.5007615340663
  0
MTEXT
  5
C8B2
330
C882
100
AcDbEntity
  8
AM_5
 62
     2
100
AcDbMText
 10
-10.49991199563045
 20
-114.3679527980066
 30
0.0
 40
3.2
 41
0.0
 71
     5
 72
     1
  1
75%%d
  7
ASAMI
 11
0.7968789613282112
 21
-0.604138991451861
 31
0.0
 73
     1
 44
1.0
1001
ACAD
1000
MTEXTBEGIN
1070
    73
1070
     1
1070
    44
1040
1.0
1070
    74
1070
     0
1000
MTEXTEND
  0
POINT
  5
C8B3
330
C882
100
AcDbEntity
  8
DEFPOINTS
 62
     0
100
AcDbPoint
 10
-15.58604890856956
 20
-113.803703742489
 30
0.0
  0
POINT
  5
C8B4
330
C882
100
AcDbEntity
  8
DEFPOINTS
 62
     0
100
AcDbPoint
 10
-0.0000000000014353
 20
-100.5182276792776
 30
0.0
  0
POINT
  5
C8B5
330
C882
100
AcDbEntity
  8
DEFPOINTS
 62
     0
100
AcDbPoint
 10
0.0000000000014921
 20
100.0
 30
0.0
  0
POINT
  5
C8B6
330
C882
100
AcDbEntity
  8
DEFPOINTS
 62
     0
100
AcDbPoint
 10
-0.000000000001414
 20
-99.99999999964671
 30
0.0
  0
POINT
  5
C8B7
330
C882
100
AcDbEntity
  8
DEFPOINTS
 62
     0
100
AcDbPoint
 10
288.8553912036166
 20
-19.50858027475667
 30
0.0
  0
ENDBLK
  5
C8B9
330
C882
100
AcDbEntity
  8
0
100
AcDbBlockEnd
  0
BLOCK
  5
C8E0
330
C8CA
100
AcDbEntity
  8
0
100
AcDbBlockBegin
  2
*D11
 70
     1
 10
0.0
 20
0.0
 30
0.0
  3
*D11
  1

  0
LINE
  5
C900
330
C8CA
100
AcDbEntity
  8
AM_5
370
    -2
100
AcDbLine
 10
-34.34019099999967
 20
105.2020449999999
 30
0.0
 11
34.80699442689382
 21
105.2020449999999
 31
0.0
  0
LINE
  5
C901
330
C8CA
100
AcDbEntity
  8
AM_5
370
    -2
100
AcDbLine
 10
-34.34019099999967
 20
-105.2020449999999
 30
0.0
 11
34.80699442689378
 21
-105.2020449999999
 31
0.0
  0
LINE
  5
C902
330
C8CA
100
AcDbEntity
  8
AM_5
370
    -2
100
AcDbLine
 10
33.80699442689382
 20
102.7020449999999
 30
0.0
 11
33.80699442689378
 21
-102.7020449999999
 31
0.0
  0
INSERT
  5
C903
330
C8CA
100
AcDbEntity
  8
AM_5
370
    -2
100
AcDbBlockReference
  2
_OPEN30
 10
33.80699442689382
 20
105.2020449999999
 30
0.0
 41
2.5
 42
2.5
 43
2.5
 50
90.0
  0
INSERT
  5
C904
330
C8CA
100
AcDbEntity
  8
AM_5
370
    -2
100
AcDbBlockReference
  2
_OPEN30
 10
33.80699442689378
 20
-105.2020449999999
 30
0.0
 41
2.5
 42
2.5
 43
2.5
 50
270.0
  0
MTEXT
  5
C905
330
C8CA
100
AcDbEntity
  8
AM_5
 62
     2
100
AcDbMText
 10
30.7069944268938
 20
0.0000000000000054
 30
0.0
 40
3.2
 41
0.0
 71
     5
 72
     1
  1
%%c210.40
  7
ASAMI
 11
0.0000000000000001
 21
1.0
 31
0.0
 73
     1
 44
1.0
1001
ACAD
1000
MTEXTBEGIN
1070
    73
1070
     1
1070
    44
1040
1.0
1070
    74
1070
     0
1000
MTEXTEND
  0
POINT
  5
C906
330
C8CA
100
AcDbEntity
  8
DEFPOINTS
 62
     0
100
AcDbPoint
 10
-35.34019099999966
 20
105.2020449999999
 30
0.0
  0
POINT
  5
C907
330
C8CA
100
AcDbEntity
  8
DEFPOINTS
 62
     0
100
AcDbPoint
 10
-35.34019099999966
 20
-105.2020449999999
 30
0.0
  0
POINT
  5
C908
330
C8CA
100
AcDbEntity
  8
DEFPOINTS
 62
     0
100
AcDbPoint
 10
33.80699442689378
 20
-105.2020449999999
 30
0.0
  0
ENDBLK
  5
C8E1
330
C8CA
100
AcDbEntity
  8
0
100
AcDbBlockEnd
  0
ENDSEC
  0
SECTION
  2
ENTITIES
  0
TEXT
  5
E5A
330
1F
100
AcDbEntity
  8
AM_6
100
AcDbText
 10
-48.99859332462952
 20
-158.9951739565835
 30
0.0
 40
5.0
  1
DPG4200R
 72
     4
 11
-30.30811713415333
 21
-156.4951739565835
 31
0.0
100
AcDbText
  0
LINE
  5
A796
330
1F
100
AcDbEntity
  8
AM_0
100
AcDbLine
 10
-47.39719767661938
 20
103.467638090205
 30
0.0
 11
-57.30737256100219
 21
66.48236190979495
 31
0.0
  0
LINE
  5
A797
330
1F
100
AcDbEntity
  8
AM_7
100
AcDbLine
 10
-64.32409533116715
 20
0.0
 30
0.0
 11
9.806993426893823
 21
0.0
 31
0.0
  0
LINE
  5
A798
330
1F
100
AcDbEntity
  8
AM_0
100
AcDbLine
 10
-7.999999999999031
 20
54.75128869403583
 30
0.0
 11
-7.999999999999031
 21
0.0
 31
0.0
  0
LINE
  5
A799
330
1F
100
AcDbEntity
  8
AM_0
100
AcDbLine
 10
-21.99999999999897
 20
50.00000000000014
 30
0.0
 11
-21.99999999999897
 21
0.0
 31
0.0
  0
LINE
  5
A79A
330
1F
100
AcDbEntity
  8
AM_0
100
AcDbLine
 10
-59.99999999999904
 20
64.23922421358128
 30
0.0
 11
-59.99999999999977
 21
14.00000000000083
 31
0.0
  0
LINE
  5
A79B
330
1F
100
AcDbEntity
  8
AM_0
100
AcDbLine
 10
-58.69999999999897
 20
12.70000000000004
 30
0.0
 11
-47.49999999999896
 21
12.70000000000004
 31
0.0
  0
LINE
  5
A79C
330
1F
100
AcDbEntity
  8
AM_0
100
AcDbLine
 10
-46.49999999999898
 20
11.70000000000004
 30
0.0
 11
-46.49999999999891
 21
0.0
 31
0.0
  0
LINE
  5
A79D
330
1F
100
AcDbEntity
  8
AM_11
100
AcDbLine
 10
-58.99999999999898
 20
41.79999999999995
 30
0.0
 11
-28.99999999999891
 21
41.79999999999995
 31
0.0
  0
LINE
  5
A79E
330
1F
100
AcDbEntity
  8
AM_11
100
AcDbLine
 10
-58.99999999999909
 20
59.79999999999995
 30
0.0
 11
-28.99999999999904
 21
59.79999999999995
 31
0.0
  0
LINE
  5
A79F
330
1F
100
AcDbEntity
  8
AM_7
100
AcDbLine
 10
-64.32409533116715
 20
50.79999999999995
 30
0.0
 11
-5.681494863547015
 21
50.79999999999995
 31
0.0
  0
LINE
  5
A7A0
330
1F
100
AcDbEntity
  8
AM_0
100
AcDbLine
 10
-58.19999999999897
 20
23.81249999999997
 30
0.0
 11
-23.79999999999899
 21
23.81249999999997
 31
0.0
  0
LINE
  5
A7A2
330
1F
100
AcDbEntity
  8
AM_11
100
AcDbLine
 10
-27.99999999999903
 20
63.79999999999995
 30
0.0
 11
-27.99999999999897
 21
37.79999999999996
 31
0.0
  0
LINE
  5
A7A3
330
1F
100
AcDbEntity
  8
AM_0
100
AcDbLine
 10
-21.99999999999903
 20
50.0000000000001
 30
0.0
 11
-8.965925826288126
 21
53.49246964893332
 31
0.0
  0
LINE
  5
A7A4
330
1F
100
AcDbEntity
  8
AM_11
100
AcDbLine
 10
-27.99999999999892
 20
37.79999999999996
 30
0.0
 11
-22.99999999999897
 21
37.79999999999996
 31
0.0
  0
LINE
  5
A7A5
330
1F
100
AcDbEntity
  8
AM_11
100
AcDbLine
 10
-27.99999999999903
 20
63.79999999999995
 30
0.0
 11
-8.002061910456459
 21
63.79999999999995
 31
0.0
  0
LINE
  5
A7A6
330
1F
100
AcDbEntity
  8
AM_0
100
AcDbLine
 10
-7.499999999999031
 20
74.35000000000002
 30
0.0
 11
-7.499999999999031
 21
70.35000000000002
 31
0.0
  0
LINE
  5
A7A7
330
1F
100
AcDbEntity
  8
AM_0
100
AcDbLine
 10
-7.499999999999031
 20
70.35000000000002
 30
0.0
 11
-7.999999999999031
 21
70.35000000000002
 31
0.0
  0
LINE
  5
A7A8
330
1F
100
AcDbEntity
  8
AM_0
100
AcDbLine
 10
-7.999999999999031
 20
70.35000000000002
 30
0.0
 11
-7.999999999999031
 21
54.75128869403583
 31
0.0
  0
LINE
  5
A7A9
330
1F
100
AcDbEntity
  8
AM_0
100
AcDbLine
 10
-8.002061910456347
 20
74.35000000000002
 30
0.0
 11
-7.499999999999031
 21
74.35000000000002
 31
0.0
  0
LINE
  5
A7AA
330
1F
100
AcDbEntity
  8
AM_0
100
AcDbLine
 10
-8.002061910456347
 20
76.35000000000002
 30
0.0
 11
-8.002061910456347
 21
74.35000000000002
 31
0.0
  0
LINE
  5
A7AB
330
1F
100
AcDbEntity
  8
AM_0
100
AcDbLine
 10
-45.46534602404125
 20
104.95
 30
0.0
 11
-35.34999999999911
 21
104.95
 31
0.0
  0
ARC
  5
B686
330
1F
100
AcDbEntity
  8
AM_0
100
AcDbCircle
 10
-47.49999999999896
 20
11.70000000000004
 30
0.0
 40
1.0
100
AcDbArc
 50
0.0
 51
90.0
1001
GENIUS_GENODEF_13
1002
{
1000
HIER
1070
     0
1002
}
1002
{
1000
MANEDIT
1070
     0
1002
}
1002
{
1000
NOSEL
1070
     0
1002
}
1002
{
1000
BEHIND
1070
     0
1002
}
1002
{
1000
REACTOR
1002
}
1001
GENIUS_GENOBJ-N-FIL_13
1002
{
1000
OWNER
1000
GEN
1002
}
  0
ARC
  5
B689
330
1F
100
AcDbEntity
  8
AM_0
100
AcDbCircle
 10
-45.46534602404125
 20
102.95
 30
0.0
 40
2.0
100
AcDbArc
 50
90.0
 51
165.0
1001
GENIUS_GENODEF_13
1002
{
1000
HIER
1070
     0
1002
}
1002
{
1000
MANEDIT
1070
     0
1002
}
1002
{
1000
NOSEL
1070
     0
1002
}
1002
{
1000
BEHIND
1070
     0
1002
}
1002
{
1000
REACTOR
1002
}
1001
GENIUS_GENOBJ-N-FIL_13
1002
{
1000
OWNER
1000
GEN
1002
}
  0
LINE
  5
B695
330
1F
100
AcDbEntity
  8
AM_0
100
AcDbLine
 10
-59.99999999999896
 20
25.61249999999997
 30
0.0
 11
-58.19999999999897
 21
23.81249999999997
 31
0.0
1001
GENIUS_GENFIL_13
1070
     0
1040
1.8
1040
1.8
1040
20.0
1040
0.0
1002
{
1002
}
1001
GENIUS_GENODEF_13
1002
{
1000
HIER
1070
     0
1002
}
1002
{
1000
MANEDIT
1070
     0
1002
}
1002
{
1000
NOSEL
1070
     0
1002
}
1002
{
1000
BEHIND
1070
     0
1002
}
1002
{
1000
REACTOR
1002
}
1001
GENIUS_GENOBJ-N-CHA_13
1002
{
1000
OWNER
1000
GEN
1002
}
  0
LINE
  5
B698
330
1F
100
AcDbEntity
  8
AM_0
100
AcDbLine
 10
-23.79999999999899
 20
23.81249999999997
 30
0.0
 11
-21.99999999999897
 21
25.61249999999997
 31
0.0
1001
GENIUS_GENFIL_13
1070
     0
1040
1.8
1040
1.8
1040
20.0
1040
0.0
1002
{
1002
}
1001
GENIUS_GENODEF_13
1002
{
1000
HIER
1070
     0
1002
}
1002
{
1000
MANEDIT
1070
     0
1002
}
1002
{
1000
NOSEL
1070
     0
1002
}
1002
{
1000
BEHIND
1070
     0
1002
}
1002
{
1000
REACTOR
1002
}
1001
GENIUS_GENOBJ-N-CHA_13
1002
{
1000
OWNER
1000
GEN
1002
}
  0
LINE
  5
B69B
330
1F
100
AcDbEntity
  8
AM_0
100
AcDbLine
 10
-58.69999999999897
 20
12.70000000000004
 30
0.0
 11
-59.99999999999896
 21
14.00000000000004
 31
0.0
1001
GENIUS_GENFIL_13
1070
     0
1040
1.3
1040
1.3
1040
20.0
1040
0.0
1002
{
1002
}
1001
GENIUS_GENODEF_13
1002
{
1000
HIER
1070
     0
1002
}
1002
{
1000
MANEDIT
1070
     0
1002
}
1002
{
1000
NOSEL
1070
     0
1002
}
1002
{
1000
BEHIND
1070
     0
1002
}
1002
{
1000
REACTOR
1002
}
1001
GENIUS_GENOBJ-N-CHA_13
1002
{
1000
OWNER
1000
GEN
1002
}
  0
LINE
  5
B6A3
330
1F
100
AcDbEntity
  8
AM_11
100
AcDbLine
 10
-59.99999999999909
 20
60.79999999999995
 30
0.0
 11
-58.99999999999909
 21
59.79999999999995
 31
0.0
1001
GENIUS_GENFIL_13
1070
     0
1040
1.0
1040
1.0
1040
20.0
1040
0.0
1002
{
1002
}
1001
GENIUS_GENODEF_13
1002
{
1000
HIER
1070
     0
1002
}
1002
{
1000
MANEDIT
1070
     0
1002
}
1002
{
1000
NOSEL
1070
     0
1002
}
1002
{
1000
BEHIND
1070
     0
1002
}
1002
{
1000
REACTOR
1002
}
1001
GENIUS_GENOBJ-N-CHA_13
1002
{
1000
OWNER
1000
GEN
1002
}
  0
LINE
  5
B6A7
330
1F
100
AcDbEntity
  8
AM_11
100
AcDbLine
 10
-58.99999999999898
 20
41.79999999999995
 30
0.0
 11
-59.99999999999896
 21
40.79999999999995
 31
0.0
1001
GENIUS_GENFIL_13
1070
     0
1040
1.0
1040
1.0
1040
20.0
1040
0.0
1002
{
1002
}
1001
GENIUS_GENODEF_13
1002
{
1000
HIER
1070
     0
1002
}
1002
{
1000
MANEDIT
1070
     0
1002
}
1002
{
1000
NOSEL
1070
     0
1002
}
1002
{
1000
BEHIND
1070
     0
1002
}
1002
{
1000
REACTOR
1002
}
1001
GENIUS_GENOBJ-N-CHA_13
1002
{
1000
OWNER
1000
GEN
1002
}
  0
LINE
  5
B6AA
330
1F
100
AcDbEntity
  8
AM_11
100
AcDbLine
 10
-27.99999999999903
 20
60.79999999999995
 30
0.0
 11
-28.99999999999904
 21
59.79999999999995
 31
0.0
1001
GENIUS_GENFIL_13
1070
     0
1040
1.0
1040
1.0
1040
20.0
1040
0.0
1002
{
1002
}
1001
GENIUS_GENODEF_13
1002
{
1000
HIER
1070
     0
1002
}
1002
{
1000
MANEDIT
1070
     0
1002
}
1002
{
1000
NOSEL
1070
     0
1002
}
1002
{
1000
BEHIND
1070
     0
1002
}
1002
{
1000
REACTOR
1002
}
1001
GENIUS_GENOBJ-N-CHA_13
1002
{
1000
OWNER
1000
GEN
1002
}
  0
LINE
  5
B6AE
330
1F
100
AcDbEntity
  8
AM_11
100
AcDbLine
 10
-28.99999999999891
 20
41.79999999999995
 30
0.0
 11
-27.99999999999892
 21
40.79999999999995
 31
0.0
1001
GENIUS_GENFIL_13
1070
     0
1040
1.0
1040
1.0
1040
20.0
1040
0.0
1002
{
1002
}
1001
GENIUS_GENODEF_13
1002
{
1000
HIER
1070
     0
1002
}
1002
{
1000
MANEDIT
1070
     0
1002
}
1002
{
1000
NOSEL
1070
     0
1002
}
1002
{
1000
BEHIND
1070
     0
1002
}
1002
{
1000
REACTOR
1002
}
1001
GENIUS_GENOBJ-N-CHA_13
1002
{
1000
OWNER
1000
GEN
1002
}
  0
LINE
  5
B6B1
330
1F
100
AcDbEntity
  8
AM_11
100
AcDbLine
 10
-22.99999999999897
 20
37.79999999999996
 30
0.0
 11
-21.99999999999897
 21
36.79999999999996
 31
0.0
1001
GENIUS_GENFIL_13
1070
     0
1040
1.0
1040
1.0
1040
20.0
1040
0.0
1002
{
1002
}
1001
GENIUS_GENODEF_13
1002
{
1000
HIER
1070
     0
1002
}
1002
{
1000
MANEDIT
1070
     0
1002
}
1002
{
1000
NOSEL
1070
     0
1002
}
1002
{
1000
BEHIND
1070
     0
1002
}
1002
{
1000
REACTOR
1002
}
1001
GENIUS_GENOBJ-N-CHA_13
1002
{
1000
OWNER
1000
GEN
1002
}
  0
LINE
  5
B6B4
330
1F
100
AcDbEntity
  8
AM_0
100
AcDbLine
 10
-8.965925826288126
 20
53.49246964893332
 30
0.0
 11
-7.999999999999031
 21
54.75128869403583
 31
0.0
1001
GENIUS_GENFIL_13
1070
     0
1040
1.0
1040
1.0
1040
20.0
1040
0.0
1002
{
1002
}
1001
GENIUS_GENODEF_13
1002
{
1000
HIER
1070
     0
1002
}
1002
{
1000
MANEDIT
1070
     0
1002
}
1002
{
1000
NOSEL
1070
     0
1002
}
1002
{
1000
BEHIND
1070
     0
1002
}
1002
{
1000
REACTOR
1002
}
1001
GENIUS_GENOBJ-N-CHA_13
1002
{
1000
OWNER
1000
GEN
1002
}
  0
LINE
  5
B6B6
330
1F
100
AcDbEntity
  8
AM_11
100
AcDbLine
 10
-28.99999999999904
 20
59.79999999999995
 30
0.0
 11
-28.99999999999904
 21
41.80000000000005
 31
0.0
  0
LINE
  5
B6B7
330
1F
100
AcDbEntity
  8
AM_11
100
AcDbLine
 10
-58.99999999999909
 20
59.79999999999995
 30
0.0
 11
-58.99999999999909
 21
41.79999999999995
 31
0.0
  0
LINE
  5
B6B9
330
1F
100
AcDbEntity
  8
AM_0
100
AcDbLine
 10
-58.19999999999897
 20
23.81249999999997
 30
0.0
 11
-58.19999999999897
 21
12.70000000000004
 31
0.0
  0
LINE
  5
B6BA
330
1F
100
AcDbEntity
  8
AM_0
100
AcDbLine
 10
-23.79999999999899
 20
23.81249999999997
 30
0.0
 11
-23.79999999999899
 21
0.0
 31
0.0
  0
LINE
  5
B6BB
330
1F
100
AcDbEntity
  8
AM_0
100
AcDbLine
 10
-8.965925826288126
 20
53.49246964893332
 30
0.0
 11
-8.965925826288071
 21
0.0
 31
0.0
  0
LINE
  5
B6BC
330
1F
100
AcDbEntity
  8
AM_0
100
AcDbLine
 10
-7.499999999999031
 20
70.35000000000002
 30
0.0
 11
-7.499999999998975
 21
0.0
 31
0.0
  0
LINE
  5
B7DC
330
1F
100
AcDbEntity
  8
AM_11
100
AcDbLine
 10
-58.99999999999898
 20
-41.79999999999995
 30
0.0
 11
-28.99999999999891
 21
-41.79999999999995
 31
0.0
  0
LINE
  5
B7DD
330
1F
100
AcDbEntity
  8
AM_11
100
AcDbLine
 10
-58.99999999999909
 20
-59.79999999999995
 30
0.0
 11
-28.99999999999904
 21
-59.79999999999995
 31
0.0
  0
LINE
  5
B7DE
330
1F
100
AcDbEntity
  8
AM_0
100
AcDbLine
 10
-58.19999999999897
 20
-23.81249999999997
 30
0.0
 11
-23.79999999999899
 21
-23.81249999999997
 31
0.0
  0
ARC
  5
B7DF
330
1F
100
AcDbEntity
  8
AM_0
100
AcDbCircle
 10
-45.46534602404125
 20
-102.95
 30
0.0
 40
2.0
100
AcDbArc
 50
194.9999999999999
 51
270.0
1001
GENIUS_GENODEF_13
1002
{
1000
HIER
1070
     0
1002
}
1002
{
1000
MANEDIT
1070
     0
1002
}
1002
{
1000
NOSEL
1070
     0
1002
}
1002
{
1000
BEHIND
1070
     0
1002
}
1002
{
1000
REACTOR
1002
}
1001
GENIUS_GENOBJ-N-FIL_13
1002
{
1000
OWNER
1000
GEN
1002
}
  0
ARC
  5
B7E0
330
1F
100
AcDbEntity
  8
AM_0
100
AcDbCircle
 10
-47.49999999999896
 20
-11.70000000000004
 30
0.0
 40
1.0
100
AcDbArc
 50
270.0
 51
0.0
1001
GENIUS_GENODEF_13
1002
{
1000
HIER
1070
     0
1002
}
1002
{
1000
MANEDIT
1070
     0
1002
}
1002
{
1000
NOSEL
1070
     0
1002
}
1002
{
1000
BEHIND
1070
     0
1002
}
1002
{
1000
REACTOR
1002
}
1001
GENIUS_GENOBJ-N-FIL_13
1002
{
1000
OWNER
1000
GEN
1002
}
  0
LINE
  5
B7E1
330
1F
100
AcDbEntity
  8
AM_7
100
AcDbLine
 10
-64.32409533116715
 20
-50.79999999999995
 30
0.0
 11
-5.681494863547015
 21
-50.79999999999995
 31
0.0
  0
LINE
  5
B7E2
330
1F
100
AcDbEntity
  8
AM_0
100
AcDbLine
 10
-59.99999999999904
 20
-64.23922421358128
 30
0.0
 11
-59.99999999999977
 21
-14.00000000000083
 31
0.0
  0
LINE
  5
B7E3
330
1F
100
AcDbEntity
  8
AM_11
100
AcDbLine
 10
-58.99999999999909
 20
-59.79999999999995
 30
0.0
 11
-58.99999999999909
 21
-41.79999999999995
 31
0.0
  0
LINE
  5
B7E4
330
1F
100
AcDbEntity
  8
AM_0
100
AcDbLine
 10
-58.19999999999897
 20
-23.81249999999997
 30
0.0
 11
-58.19999999999897
 21
-12.70000000000004
 31
0.0
  0
LINE
  5
B7E5
330
1F
100
AcDbEntity
  8
AM_0
100
AcDbLine
 10
-58.69999999999897
 20
-12.70000000000004
 30
0.0
 11
-47.49999999999896
 21
-12.70000000000004
 31
0.0
  0
LINE
  5
B7E6
330
1F
100
AcDbEntity
  8
AM_0
100
AcDbLine
 10
-58.69999999999897
 20
-12.70000000000004
 30
0.0
 11
-59.99999999999896
 21
-14.00000000000004
 31
0.0
1001
GENIUS_GENFIL_13
1070
     0
1040
1.3
1040
1.3
1040
20.0
1040
0.0
1002
{
1002
}
1001
GENIUS_GENODEF_13
1002
{
1000
HIER
1070
     0
1002
}
1002
{
1000
MANEDIT
1070
     0
1002
}
1002
{
1000
NOSEL
1070
     0
1002
}
1002
{
1000
BEHIND
1070
     0
1002
}
1002
{
1000
REACTOR
1002
}
1001
GENIUS_GENOBJ-N-CHA_13
1002
{
1000
OWNER
1000
GEN
1002
}
  0
LINE
  5
B7E7
330
1F
100
AcDbEntity
  8
AM_0
100
AcDbLine
 10
-46.49999999999898
 20
-11.70000000000004
 30
0.0
 11
-46.49999999999891
 21
0.0
 31
0.0
  0
LINE
  5
B7E8
330
1F
100
AcDbEntity
  8
AM_0
100
AcDbLine
 10
-59.99999999999896
 20
-25.61249999999997
 30
0.0
 11
-58.19999999999897
 21
-23.81249999999997
 31
0.0
1001
GENIUS_GENFIL_13
1070
     0
1040
1.8
1040
1.8
1040
20.0
1040
0.0
1002
{
1002
}
1001
GENIUS_GENODEF_13
1002
{
1000
HIER
1070
     0
1002
}
1002
{
1000
MANEDIT
1070
     0
1002
}
1002
{
1000
NOSEL
1070
     0
1002
}
1002
{
1000
BEHIND
1070
     0
1002
}
1002
{
1000
REACTOR
1002
}
1001
GENIUS_GENOBJ-N-CHA_13
1002
{
1000
OWNER
1000
GEN
1002
}
  0
LINE
  5
B7E9
330
1F
100
AcDbEntity
  8
AM_11
100
AcDbLine
 10
-58.99999999999898
 20
-41.79999999999995
 30
0.0
 11
-59.99999999999896
 21
-40.79999999999995
 31
0.0
1001
GENIUS_GENFIL_13
1070
     0
1040
1.0
1040
1.0
1040
20.0
1040
0.0
1002
{
1002
}
1001
GENIUS_GENODEF_13
1002
{
1000
HIER
1070
     0
1002
}
1002
{
1000
MANEDIT
1070
     0
1002
}
1002
{
1000
NOSEL
1070
     0
1002
}
1002
{
1000
BEHIND
1070
     0
1002
}
1002
{
1000
REACTOR
1002
}
1001
GENIUS_GENOBJ-N-CHA_13
1002
{
1000
OWNER
1000
GEN
1002
}
  0
LINE
  5
B7EA
330
1F
100
AcDbEntity
  8
AM_0
100
AcDbLine
 10
-47.39719767661938
 20
-103.467638090205
 30
0.0
 11
-57.30737256100224
 21
-66.4823619097948
 31
0.0
  0
LINE
  5
B7ED
330
1F
100
AcDbEntity
  8
AM_11
100
AcDbLine
 10
-59.99999999999909
 20
-60.79999999999995
 30
0.0
 11
-58.99999999999909
 21
-59.79999999999995
 31
0.0
1001
GENIUS_GENFIL_13
1070
     0
1040
1.0
1040
1.0
1040
20.0
1040
0.0
1002
{
1002
}
1001
GENIUS_GENODEF_13
1002
{
1000
HIER
1070
     0
1002
}
1002
{
1000
MANEDIT
1070
     0
1002
}
1002
{
1000
NOSEL
1070
     0
1002
}
1002
{
1000
BEHIND
1070
     0
1002
}
1002
{
1000
REACTOR
1002
}
1001
GENIUS_GENOBJ-N-CHA_13
1002
{
1000
OWNER
1000
GEN
1002
}
  0
LINE
  5
B7EE
330
1F
100
AcDbEntity
  8
AM_0
100
AcDbLine
 10
-7.499999999999031
 20
-70.35000000000002
 30
0.0
 11
-7.499999999998975
 21
0.0
 31
0.0
  0
LINE
  5
B7EF
330
1F
100
AcDbEntity
  8
AM_0
100
AcDbLine
 10
-8.965925826288126
 20
-53.49246964893332
 30
0.0
 11
-8.965925826288071
 21
0.0
 31
0.0
  0
LINE
  5
B7F0
330
1F
100
AcDbEntity
  8
AM_0
100
AcDbLine
 10
-21.99999999999897
 20
-50.00000000000014
 30
0.0
 11
-21.99999999999897
 21
0.0
 31
0.0
  0
LINE
  5
B7F1
330
1F
100
AcDbEntity
  8
AM_11
100
AcDbLine
 10
-28.99999999999904
 20
-59.79999999999995
 30
0.0
 11
-28.99999999999904
 21
-41.80000000000005
 31
0.0
  0
LINE
  5
B7F2
330
1F
100
AcDbEntity
  8
AM_11
100
AcDbLine
 10
-27.99999999999903
 20
-63.79999999999995
 30
0.0
 11
-27.99999999999897
 21
-37.79999999999996
 31
0.0
  0
LINE
  5
B7F3
330
1F
100
AcDbEntity
  8
AM_0
100
AcDbLine
 10
-7.999999999999031
 20
-54.75128869403583
 30
0.0
 11
-7.999999999999031
 21
0.0
 31
0.0
  0
LINE
  5
B7F4
330
1F
100
AcDbEntity
  8
AM_0
100
AcDbLine
 10
-1.999999999999033
 20
-91.35156751788677
 30
0.0
 11
-1.999999999999033
 21
0.0
 31
0.0
  0
LINE
  5
B7F5
330
1F
100
AcDbEntity
  8
AM_0
100
AcDbLine
 10
-23.79999999999899
 20
-23.81249999999997
 30
0.0
 11
-23.79999999999899
 21
0.0
 31
0.0
  0
LINE
  5
B7F6
330
1F
100
AcDbEntity
  8
AM_11
100
AcDbLine
 10
-27.99999999999892
 20
-37.79999999999996
 30
0.0
 11
-22.99999999999897
 21
-37.79999999999996
 31
0.0
  0
LINE
  5
B7F7
330
1F
100
AcDbEntity
  8
AM_0
100
AcDbLine
 10
-23.79999999999899
 20
-23.81249999999997
 30
0.0
 11
-21.99999999999897
 21
-25.61249999999997
 31
0.0
1001
GENIUS_GENFIL_13
1070
     0
1040
1.8
1040
1.8
1040
20.0
1040
0.0
1002
{
1002
}
1001
GENIUS_GENODEF_13
1002
{
1000
HIER
1070
     0
1002
}
1002
{
1000
MANEDIT
1070
     0
1002
}
1002
{
1000
NOSEL
1070
     0
1002
}
1002
{
1000
BEHIND
1070
     0
1002
}
1002
{
1000
REACTOR
1002
}
1001
GENIUS_GENOBJ-N-CHA_13
1002
{
1000
OWNER
1000
GEN
1002
}
  0
LINE
  5
B7F8
330
1F
100
AcDbEntity
  8
AM_11
100
AcDbLine
 10
-28.99999999999891
 20
-41.79999999999995
 30
0.0
 11
-27.99999999999892
 21
-40.79999999999995
 31
0.0
1001
GENIUS_GENFIL_13
1070
     0
1040
1.0
1040
1.0
1040
20.0
1040
0.0
1002
{
1002
}
1001
GENIUS_GENODEF_13
1002
{
1000
HIER
1070
     0
1002
}
1002
{
1000
MANEDIT
1070
     0
1002
}
1002
{
1000
NOSEL
1070
     0
1002
}
1002
{
1000
BEHIND
1070
     0
1002
}
1002
{
1000
REACTOR
1002
}
1001
GENIUS_GENOBJ-N-CHA_13
1002
{
1000
OWNER
1000
GEN
1002
}
  0
LINE
  5
B7F9
330
1F
100
AcDbEntity
  8
AM_11
100
AcDbLine
 10
-22.99999999999897
 20
-37.79999999999996
 30
0.0
 11
-21.99999999999897
 21
-36.79999999999996
 31
0.0
1001
GENIUS_GENFIL_13
1070
     0
1040
1.0
1040
1.0
1040
20.0
1040
0.0
1002
{
1002
}
1001
GENIUS_GENODEF_13
1002
{
1000
HIER
1070
     0
1002
}
1002
{
1000
MANEDIT
1070
     0
1002
}
1002
{
1000
NOSEL
1070
     0
1002
}
1002
{
1000
BEHIND
1070
     0
1002
}
1002
{
1000
REACTOR
1002
}
1001
GENIUS_GENOBJ-N-CHA_13
1002
{
1000
OWNER
1000
GEN
1002
}
  0
LINE
  5
B7FA
330
1F
100
AcDbEntity
  8
AM_0
100
AcDbLine
 10
-21.99999999999903
 20
-50.0000000000001
 30
0.0
 11
-8.965925826288126
 21
-53.49246964893332
 31
0.0
  0
LINE
  5
B7FB
330
1F
100
AcDbEntity
  8
AM_11
100
AcDbLine
 10
-27.99999999999903
 20
-63.79999999999995
 30
0.0
 11
-8.002061910456459
 21
-63.79999999999995
 31
0.0
  0
LINE
  5
B7FD
330
1F
100
AcDbEntity
  8
AM_11
100
AcDbLine
 10
-27.99999999999903
 20
-60.79999999999995
 30
0.0
 11
-28.99999999999904
 21
-59.79999999999995
 31
0.0
1001
GENIUS_GENFIL_13
1070
     0
1040
1.0
1040
1.0
1040
20.0
1040
0.0
1002
{
1002
}
1001
GENIUS_GENODEF_13
1002
{
1000
HIER
1070
     0
1002
}
1002
{
1000
MANEDIT
1070
     0
1002
}
1002
{
1000
NOSEL
1070
     0
1002
}
1002
{
1000
BEHIND
1070
     0
1002
}
1002
{
1000
REACTOR
1002
}
1001
GENIUS_GENOBJ-N-CHA_13
1002
{
1000
OWNER
1000
GEN
1002
}
  0
LINE
  5
B7FF
330
1F
100
AcDbEntity
  8
AM_0
100
AcDbLine
 10
-45.46534602404125
 20
-104.95
 30
0.0
 11
-35.34999999999911
 21
-104.95
 31
0.0
  0
LINE
  5
B807
330
1F
100
AcDbEntity
  8
AM_0
100
AcDbLine
 10
-8.002061910456347
 20
-76.35000000000002
 30
0.0
 11
-4.703769602120051
 21
-88.65939447292438
 31
0.0
  0
LINE
  5
B808
330
1F
100
AcDbEntity
  8
AM_0
100
AcDbLine
 10
-7.999999999999031
 20
-70.35000000000002
 30
0.0
 11
-7.999999999999031
 21
-54.75128869403583
 31
0.0
  0
LINE
  5
B809
330
1F
100
AcDbEntity
  8
AM_0
100
AcDbLine
 10
-8.965925826288126
 20
-53.49246964893332
 30
0.0
 11
-7.999999999999031
 21
-54.75128869403583
 31
0.0
1001
GENIUS_GENFIL_13
1070
     0
1040
1.0
1040
1.0
1040
20.0
1040
0.0
1002
{
1002
}
1001
GENIUS_GENODEF_13
1002
{
1000
HIER
1070
     0
1002
}
1002
{
1000
MANEDIT
1070
     0
1002
}
1002
{
1000
NOSEL
1070
     0
1002
}
1002
{
1000
BEHIND
1070
     0
1002
}
1002
{
1000
REACTOR
1002
}
1001
GENIUS_GENOBJ-N-CHA_13
1002
{
1000
OWNER
1000
GEN
1002
}
  0
LINE
  5
B80A
330
1F
100
AcDbEntity
  8
AM_0
100
AcDbLine
 10
-8.002061910456347
 20
-74.35000000000002
 30
0.0
 11
-7.499999999999031
 21
-74.35000000000002
 31
0.0
  0
LINE
  5
B80B
330
1F
100
AcDbEntity
  8
AM_0
100
AcDbLine
 10
-7.499999999999031
 20
-74.35000000000002
 30
0.0
 11
-7.499999999999031
 21
-70.35000000000002
 31
0.0
  0
LINE
  5
B80C
330
1F
100
AcDbEntity
  8
AM_0
100
AcDbLine
 10
-7.499999999999031
 20
-70.35000000000002
 30
0.0
 11
-7.999999999999031
 21
-70.35000000000002
 31
0.0
  0
LINE
  5
B80D
330
1F
100
AcDbEntity
  8
AM_0
100
AcDbLine
 10
-8.002061910456347
 20
-76.35000000000002
 30
0.0
 11
-8.002061910456347
 21
-74.35000000000002
 31
0.0
  0
DIMENSION
  5
B813
330
1F
100
AcDbEntity
  8
AM_5
100
AcDbDimension
  2
*D2
 10
-83.99999999999939
 20
-23.81249999999997
 30
0.0
 11
-87.09999999999942
 21
-0.0000000000000087
 31
0.0
 70
    32
  1
%%c<>
 71
     5
 42
-1.0
  3
AM_JIS
100
AcDbAlignedDimension
 13
-58.19999999999897
 23
23.81249999999997
 33
0.0
 14
-58.19999999999897
 24
-23.81249999999997
 34
0.0
 50
90.0
100
AcDbRotatedDimension
1001
GENIUS_GENDTOL_13
1000

1000
h7
1000

1040
0.0
  0
DIMENSION
  5
B814
330
1F
100
AcDbEntity
  8
AM_5
100
AcDbDimension
  2
*D3
 10
-73.9999999999994
 20
-12.70000000000004
 30
0.0
 11
-73.9999999999994
 21
-0.0000000000001421
 31
0.0
 70
   160
 71
     5
 42
-1.0
  3
AM_JIS
100
AcDbAlignedDimension
 13
-58.69999999999897
 23
12.70000000000004
 33
0.0
 14
-58.69999999999897
 24
-12.70000000000004
 34
0.0
 50
90.0
100
AcDbRotatedDimension
  0
DIMENSION
  5
B816
330
1F
100
AcDbEntity
  8
AM_5
100
AcDbDimension
  2
*D4
 10
-0.0000000000014235
 20
-138.95
 30
0.0
 11
-30.00000000000023
 21
-135.85
 31
0.0
 70
    32
 71
     5
 42
-1.0
  3
AM_JIS
100
AcDbAlignedDimension
 13
-59.99999999999904
 23
-64.01435859842796
 33
0.0
 14
-0.0000000000014211
 24
-99.99999999964069
 34
0.0
100
AcDbRotatedDimension
  0
DIMENSION
  5
B817
330
1F
100
AcDbEntity
  8
AM_5
100
AcDbDimension
  2
*D5
 10
-46.49999999999886
 20
-118.95
 30
0.0
 11
-53.24999999999896
 21
-115.85
 31
0.0
 70
    32
 71
     5
 42
-1.0
  3
AM_JIS
100
AcDbAlignedDimension
 13
-59.99999999999904
 23
-64.01435859842796
 33
0.0
 14
-46.49999999999885
 24
-11.70000000000004
 34
0.0
100
AcDbRotatedDimension
  0
DIMENSION
  5
B818
330
1F
100
AcDbEntity
  8
AM_5
100
AcDbDimension
  2
*D6
 10
23.80699442689382
 20
-99.99999999964069
 30
0.0
 11
20.70699442689384
 21
0.0000000001796383
 31
0.0
 70
    32
  1
%%c<>
 71
     5
 42
-1.0
  3
AM_JIS
100
AcDbAlignedDimension
 13
0.0000000000014779
 23
100.0
 33
0.0
 14
-0.0000000000014211
 24
-99.99999999964069
 34
0.0
 50
90.0
100
AcDbRotatedDimension
1001
GENIUS_GENDTOL_13
1000

1000
h7
1000

1040
0.0
  0
LINE
  5
B998
330
1F
100
AcDbEntity
  8
AM_11
100
AcDbLine
 10
0.0000000000014779
 20
100.0
 30
0.0
 11
-0.0000000000014211
 21
-99.99999999964671
 31
0.0
  0
LINE
  5
B9FB
330
1F
100
AcDbEntity
  8
AM_0
100
AcDbLine
 10
-35.29999999999967
 20
104.9000000000005
 30
0.0
 11
-35.34999999999911
 21
104.95
 31
0.0
  0
LINE
  5
BA00
330
1F
100
AcDbEntity
  8
AM_0
100
AcDbLine
 10
-4.703769602120202
 20
88.65939447292445
 30
0.0
 11
-8.002061910456347
 21
76.35000000000002
 31
0.0
  0
LINE
  5
BA01
330
1F
100
AcDbEntity
  8
AM_0
100
AcDbLine
 10
-1.999999999999033
 20
91.35301277868691
 30
0.0
 11
-1.999999999999033
 21
0.0
 31
0.0
  0
LINE
  5
BD62
330
1F
100
AcDbEntity
  8
AM_0
100
AcDbLine
 10
-59.23922421358049
 20
64.99999999999982
 30
0.0
 11
-59.99999999999904
 21
64.23922421358128
 31
0.0
  0
DIMENSION
  5
C0A4
330
1F
100
AcDbEntity
  8
AM_5
100
AcDbDimension
  2
*D7
 10
-21.99999999999898
 20
-128.9499999999999
 30
0.0
 11
-40.99999999999901
 21
-125.8499999999999
 31
0.0
 70
    32
  1
<>
 71
     5
 42
-1.0
  3
AM_JIS$0
100
AcDbAlignedDimension
 13
-59.99999999999904
 23
-64.01435859842796
 33
0.0
 14
-21.99999999999897
 24
-50.00000000000014
 34
0.0
 50
0.0000000000001132
100
AcDbRotatedDimension
1001
GENIUS_GENDTOL_13
1000

1000
h7
1000

1040
0.0
1001
ACAD
1000
DSTYLE
1002
{
1070
    40
1040
1.0
1070
    43
1040
12.0
1070
   140
1040
3.2
1070
   147
1040
1.5
1070
   178
1070
     2
1002
}
  0
ARC
  5
C41D
330
1F
100
AcDbEntity
  8
AM_0
100
AcDbCircle
 10
-59.23922421358033
 20
66.99999999999999
 30
0.0
 40
2.0
100
AcDbArc
 50
270.0
 51
345.0000000000002
1001
GENIUS_GENOREF_13
1005
C41F
  0
POINT
  5
C41F
330
1F
100
AcDbEntity
  8
0
 60
     1
100
AcDbPoint
 10
0.0
 20
0.0
 30
0.0
1001
GENIUS_GENODEF_13
1002
{
1000
HIER
1070
     1
1002
}
1002
{
1000
MANEDIT
1070
     0
1002
}
1002
{
1000
NOSEL
1070
     0
1002
}
1002
{
1000
BEHIND
1070
     0
1002
}
1002
{
1000
REACTOR
1002
}
1001
GENIUS_GENOBJ-N-FIL_13
1002
{
1000
OWNER
1000
GEN
1002
}
1001
GENIUS_GENOENT_13
1002
{
1000
MYREF
1005
C41F
1002
}
1002
{
1000
GRP
1005
0
1002
}
1001
GENIUS_GENOLIS_13
1002
{
1000
ENT
1005
C41D
1002
}
  0
ARC
  5
C61B
330
1F
100
AcDbEntity
  8
AM_0
100
AcDbCircle
 10
-59.23922421358033
 20
-66.99999999999999
 30
0.0
 40
2.0
100
AcDbArc
 50
14.99999999999984
 51
90.00000000000005
1001
GENIUS_GENOREF_13
1005
C61D
  0
LINE
  5
C61C
330
1F
100
AcDbEntity
  8
AM_0
100
AcDbLine
 10
-59.23922421358049
 20
-64.99999999999982
 30
0.0
 11
-59.99999999999904
 21
-64.23922421358128
 31
0.0
  0
POINT
  5
C61D
330
1F
100
AcDbEntity
  8
0
 60
     1
100
AcDbPoint
 10
0.0
 20
0.0
 30
0.0
1001
GENIUS_GENODEF_13
1002
{
1000
HIER
1070
     1
1002
}
1002
{
1000
MANEDIT
1070
     0
1002
}
1002
{
1000
NOSEL
1070
     0
1002
}
1002
{
1000
BEHIND
1070
     0
1002
}
1002
{
1000
REACTOR
1002
}
1001
GENIUS_GENOBJ-N-FIL_13
1002
{
1000
OWNER
1000
GEN
1002
}
1001
GENIUS_GENOENT_13
1002
{
1000
MYREF
1005
C61D
1002
}
1002
{
1000
GRP
1005
0
1002
}
1001
GENIUS_GENOLIS_13
1002
{
1000
ENT
1005
C61B
1002
}
  0
DIMENSION
  5
C627
330
1F
100
AcDbEntity
  8
AM_5
100
AcDbDimension
  2
*D8
 10
-93.99999999999934
 20
-64.99999999999999
 30
0.0
 11
-97.09999999999931
 21
-0.0000000000000081
 31
0.0
 70
    32
  1
%%c<>
 71
     5
 42
-1.0
  3
AM_JIS$0
100
AcDbAlignedDimension
 13
-59.23922421358033
 23
64.99999999999999
 33
0.0
 14
-59.23922421358033
 24
-64.99999999999999
 34
0.0
 50
270.0
100
AcDbRotatedDimension
1001
GENIUS_GENDTOL_13
1000

1000
h7
1000

1040
0.0
1001
ACAD
1000
DSTYLE
1002
{
1070
    40
1040
1.0
1070
    43
1040
12.0
1070
   140
1040
3.2
1070
   147
1040
1.5
1070
   178
1070
     2
1002
}
  0
LINE
  5
C848
330
1F
100
AcDbEntity
  8
0
100
AcDbLine
 10
-20.13455499999964
 20
104.9499999999999
 30
0.0
 11
-11.97897192763895
 21
102.611424171904
 31
0.0
  0
LINE
  5
C849
330
1F
100
AcDbEntity
  8
0
100
AcDbLine
 10
-28.84999999999968
 20
97.94999999999996
 30
0.0
 11
-28.84999999999968
 21
104.9499999999999
 31
0.0
  0
LINE
  5
C84A
330
1F
100
AcDbEntity
  8
0
100
AcDbLine
 10
-35.29999999999967
 20
97.94999999999996
 30
0.0
 11
-28.84999999999968
 21
97.94999999999996
 31
0.0
  0
LINE
  5
C84B
330
1F
100
AcDbEntity
  8
0
100
AcDbLine
 10
-28.84999999999968
 20
104.9499999999999
 30
0.0
 11
-20.13455499999964
 21
104.9499999999999
 31
0.0
  0
LINE
  5
C84C
330
1F
100
AcDbEntity
  8
0
100
AcDbLine
 10
-35.29999999999967
 20
97.94999999999996
 30
0.0
 11
-35.29999999999967
 21
104.9000000000005
 31
0.0
  0
SPLINE
  5
C84D
330
1F
100
AcDbEntity
  8
0
100
AcDbSpline
210
0.0
220
0.0
230
1.0
 70
     8
 71
     3
 72
     8
 73
     4
 74
     0
 42
0.0000000001
 43
0.0000000001
 40
5.018953419354302
 40
5.018953419354302
 40
5.018953419354302
 40
5.018953419354302
 40
5.271006674042441
 40
5.271006674042441
 40
5.271006674042441
 40
5.271006674042441
 10
-35.34313940464746
 20
104.9431394046483
 30
0.0
 10
-35.34155092896799
 20
105.0340149999886
 30
0.0
 10
-35.34087096448383
 20
105.1180299999942
 30
0.0
 10
-35.34019099999966
 20
105.2020449999999
 30
0.0
  0
SPLINE
  5
C84E
330
1F
100
AcDbEntity
  8
0
100
AcDbSpline
210
0.0
220
0.0
230
1.0
 70
     8
 71
     3
 72
    11
 73
     7
 74
     5
 42
0.0000000001
 43
0.0000000001
 44
0.0000000001
 40
0.0
 40
0.0
 40
0.0
 40
0.0
 40
4.207539708846945
 40
8.415077077354712
 40
12.6226139273989
 40
16.83015402533892
 40
16.83015402533892
 40
16.83015402533892
 40
16.83015402533892
 10
-35.34019099999966
 20
105.2020449999999
 30
0.0
 10
-33.93790454630277
 20
105.1768210744886
 30
0.0
 10
-31.13333241889575
 20
105.1263732374961
 30
0.0
 10
-26.92641095716124
 20
105.0543241488355
 30
0.0
 10
-22.71944865954885
 20
104.9846921829712
 30
0.0
 10
-19.91476791401561
 20
104.9406980666503
 30
0.0
 10
-18.51242699999966
 20
104.918701
 30
0.0
 11
-35.34019099999966
 21
105.2020449999999
 31
0.0
 11
-31.13332099999968
 21
105.1269769999999
 31
0.0
 11
-26.92640399999965
 21
105.054727
 31
0.0
 11
-22.71943999999968
 21
104.9852989999999
 31
0.0
 11
-18.51242699999966
 21
104.918701
 31
0.0
  0
SPLINE
  5
C84F
330
1F
100
AcDbEntity
  8
0
100
AcDbSpline
210
0.0
220
0.0
230
1.0
 70
     8
 71
     3
 72
    11
 73
     7
 74
     0
 42
0.0000000001
 43
0.0000000001
 40
0.0
 40
0.0
 40
0.0
 40
0.0
 40
1.958707387341203
 40
3.917415211030326
 40
5.876122058732913
 40
7.155201069144463
 40
7.155201069144463
 40
7.155201069144463
 40
7.155201069144463
 10
-18.51242699999966
 20
104.918701
 30
0.0
 10
-17.88466376830484
 20
104.7392714754898
 30
0.0
 10
-16.62913716506631
 20
104.3804123864974
 30
0.0
 10
-14.74569567357855
 20
103.8426552636612
 30
0.0
 10
-13.07999965796313
 20
103.3674175161583
 30
0.0
 10
-12.04208077984964
 20
103.0715615297971
 30
0.0
 10
-11.63204971015443
 20
102.9546979716011
 30
0.0
  0
SPLINE
  5
C850
330
1F
100
AcDbEntity
  8
0
100
AcDbSpline
210
0.0
220
0.0
230
1.0
 70
     8
 71
     3
 72
    11
 73
     7
 74
     5
 42
0.0000000001
 43
0.0000000001
 44
0.0000000001
 40
0.0
 40
0.0
 40
0.0
 40
0.0
 40
0.3470734358100743
 40
0.6941466710674335
 40
1.041220696285408
 40
1.388293523140249
 40
1.388293523140249
 40
1.388293523140249
 40
1.388293523140249
 10
-11.27693899999968
 20
103.306101
 30
0.0
 10
-11.16125434741684
 20
103.3048753337927
 30
0.0
 10
-10.92988510909839
 20
103.3024240020864
 30
0.0
 10
-10.58283076822909
 20
103.298770993824
 30
0.0
 10
-10.23577644112288
 20
103.2951360081515
 30
0.0
 10
-10.00440668056313
 20
103.2927286679985
 30
0.0
 10
-9.888721999999631
 20
103.2915249999999
 30
0.0
 11
-11.27693899999968
 21
103.306101
 31
0.0
 11
-10.92988499999967
 21
103.302428
 31
0.0
 11
-10.58283099999965
 21
103.2987739999999
 31
0.0
 11
-10.23577599999964
 21
103.2951399999999
 31
0.0
 11
-9.888721999999631
 21
103.2915249999999
 31
0.0
  0
SPLINE
  5
C851
330
1F
100
AcDbEntity
  8
0
100
AcDbSpline
210
0.0
220
0.0
230
1.0
 70
     8
 71
     3
 72
    11
 73
     7
 74
     5
 42
0.0000000001
 43
0.0000000001
 44
0.0000000001
 40
0.0
 40
0.0
 40
0.0
 40
0.0
 40
0.2486066744156243
 40
0.4972140297633601
 40
0.7458206519478993
 40
0.9944272518683078
 40
0.9944272518683078
 40
0.9944272518683078
 40
0.9944272518683078
 10
-11.98379899999963
 20
102.606648
 30
0.0
 10
-11.92489208732638
 20
102.6649337513767
 30
0.0
 10
-11.80707810063427
 20
102.7815054137747
 30
0.0
 10
-11.63036164177282
 20
102.9563672905312
 30
0.0
 10
-11.45364839221645
 20
103.1312323752576
 30
0.0
 10
-11.33584212898023
 20
103.2478114601593
 30
0.0
 10
-11.27693899999968
 20
103.306101
 30
0.0
 11
-11.98379899999963
 21
102.606648
 31
0.0
 11
-11.80707899999964
 21
102.781506
 31
0.0
 11
-11.63036199999965
 21
102.9563679999999
 31
0.0
 11
-11.45364899999964
 21
103.1312329999999
 31
0.0
 11
-11.27693899999968
 21
103.306101
 31
0.0
  0
SPLINE
  5
C852
330
1F
100
AcDbEntity
  8
0
100
AcDbSpline
210
0.0
220
0.0
230
1.0
 70
     8
 71
     3
 72
    11
 73
     7
 74
     5
 42
0.0000000001
 43
0.0000000001
 44
0.0000000001
 40
0.0
 40
0.0
 40
0.0
 40
0.0
 40
2.401080832118114
 40
4.802162709404688
 40
7.203243534419341
 40
9.604325067075821
 40
9.604325067075821
 40
9.604325067075821
 40
9.604325067075821
 10
-11.98379899999963
 20
102.606648
 30
0.0
 10
-12.19574625865607
 20
101.834861155602
 30
0.0
 10
-12.61964086822763
 20
100.2912871308544
 30
0.0
 10
-13.25553808003292
 20
97.97594146316081
 30
0.0
 10
-13.89147631610154
 20
95.66060682071938
 30
0.0
 10
-14.31547808454013
 20
94.11706234939151
 30
0.0
 10
-14.52747899999969
 20
93.34528999999998
 30
0.0
 11
-11.98379899999963
 21
102.606648
 31
0.0
 11
-12.61964999999964
 21
100.2912899999999
 31
0.0
 11
-13.25554499999964
 21
97.97594299999998
 31
0.0
 11
-13.89148699999964
 21
95.66060999999995
 31
0.0
 11
-14.52747899999969
 21
93.34528999999998
 31
0.0
  0
SPLINE
  5
C853
330
1F
100
AcDbEntity
  8
0
100
AcDbSpline
210
0.0
220
0.0
230
1.0
 70
    24
 71
     3
 72
    11
 73
     7
 74
     5
 42
0.0000000001
 43
0.0000000001
 44
0.0000000001
 40
0.0
 40
0.0
 40
0.0
 40
0.0
 40
0.349879396935559
 40
0.6997587938711468
 40
1.049638190806705
 40
1.399517587742293
 40
1.399517587742293
 40
1.399517587742293
 40
1.399517587742293
 10
-14.53877499999964
 20
91.94581799999998
 30
0.0
 10
-14.53783366666636
 20
92.06244066666661
 30
0.0
 10
-14.53595099999978
 20
92.29568599999996
 30
0.0
 10
-14.53312699999958
 20
92.64555399999995
 30
0.0
 10
-14.53030299999966
 20
92.99542199999999
 30
0.0
 10
-14.52842033333303
 20
93.22866733333327
 30
0.0
 10
-14.52747899999969
 20
93.34528999999998
 30
0.0
 11
-14.53877499999964
 21
91.94581799999998
 31
0.0
 11
-14.53595099999967
 21
92.29568599999996
 31
0.0
 11
-14.53312699999964
 21
92.64555399999997
 31
0.0
 11
-14.53030299999966
 21
92.99542199999995
 31
0.0
 11
-14.52747899999969
 21
93.34528999999998
 31
0.0
  0
SPLINE
  5
C854
330
1F
100
AcDbEntity
  8
0
100
AcDbSpline
210
0.0
220
0.0
230
1.0
 70
     8
 71
     3
 72
    11
 73
     7
 74
     5
 42
0.0000000001
 43
0.0000000001
 44
0.0000000001
 40
0.0
 40
0.0
 40
0.0
 40
0.0
 40
0.2493367287705809
 40
0.4986734964763974
 40
0.7480110004443996
 40
0.9973478266133481
 40
0.9973478266133481
 40
0.9973478266133481
 40
0.9973478266133481
 10
-13.84332499999965
 20
91.23093899999998
 30
0.0
 10
-13.90128015405355
 20
91.29051118346316
 30
0.0
 10
-14.01719047121122
 20
91.40965555969208
 30
0.0
 10
-14.19105334963478
 20
91.58837500226198
 30
0.0
 10
-14.36491517967624
 20
91.76709551000758
 30
0.0
 10
-14.48082177907196
 20
91.88624389065145
 30
0.0
 10
-14.53877499999964
 20
91.94581799999998
 30
0.0
 11
-13.84332499999965
 21
91.23093899999998
 31
0.0
 11
-14.01718999999969
 21
91.40965599999999
 31
0.0
 11
-14.19105299999967
 21
91.58837499999995
 31
0.0
 11
-14.36491499999965
 21
91.76709599999995
 31
0.0
 11
-14.53877499999964
 21
91.94581799999998
 31
0.0
  0
SPLINE
  5
C855
330
1F
100
AcDbEntity
  8
0
100
AcDbSpline
210
0.0
220
0.0
230
1.0
 70
     8
 71
     3
 72
    11
 73
     7
 74
     5
 42
0.0000000001
 43
0.0000000001
 44
0.0000000001
 40
0.0
 40
0.0
 40
0.0
 40
0.0
 40
2.387557927882997
 40
4.775114633032863
 40
7.162671334321639
 40
9.550229001419324
 40
9.550229001419324
 40
9.550229001419324
 40
9.550229001419324
 10
-13.84332499999965
 20
91.23093899999998
 30
0.0
 10
-13.07735474232146
 20
91.01490426014718
 30
0.0
 10
-11.54541461923929
 20
90.58283489107882
 30
0.0
 10
-9.247203270379259
 20
89.93580020985504
 30
0.0
 10
-6.948786390322993
 20
89.2894962952487
 30
0.0
 10
-5.416297566760533
 20
88.85937746074796
 30
0.0
 10
-4.650052999999672
 20
88.64431799999996
 30
0.0
 11
-13.84332499999965
 21
91.23093899999998
 31
0.0
 11
-11.54536399999966
 21
90.58301299999996
 31
0.0
 11
-9.247168999999644
 21
89.93592199999998
 31
0.0
 11
-6.94873399999966
 21
89.28968399999996
 31
0.0
 11
-4.650052999999672
 21
88.64431799999996
 31
0.0
  0
SPLINE
  5
C856
330
1F
100
AcDbEntity
  8
0
100
AcDbSpline
210
0.0
220
0.0
230
1.0
 70
     8
 71
     3
 72
    11
 73
     7
 74
     5
 42
0.0000000001
 43
0.0000000001
 44
0.0000000001
 40
0.0
 40
0.0
 40
0.0
 40
0.0
 40
0.3470706888012989
 40
0.6941406066737221
 40
1.041210745586607
 40
1.388281107063945
 40
1.388281107063945
 40
1.388281107063945
 40
1.388281107063945
 10
-3.261835999999675
 20
88.63097699999997
 30
0.0
 10
-3.377521016517789
 20
88.63207526715916
 30
0.0
 10
-3.608890792589136
 20
88.63427179903798
 30
0.0
 10
-3.955945104566524
 20
88.63759778739652
 30
0.0
 10
-4.302999122100288
 20
88.64094305458522
 30
0.0
 10
-4.534368349304941
 20
88.64319301795459
 30
0.0
 10
-4.650052999999672
 20
88.64431799999996
 30
0.0
 11
-3.261835999999675
 21
88.63097699999997
 31
0.0
 11
-3.608890999999687
 21
88.63427699999997
 31
0.0
 11
-3.955944999999644
 21
88.63760099999998
 31
0.0
 11
-4.302998999999658
 21
88.64094799999994
 31
0.0
 11
-4.650052999999672
 21
88.64431799999996
 31
0.0
  0
SPLINE
  5
C857
330
1F
100
AcDbEntity
  8
0
100
AcDbSpline
210
0.0
220
0.0
230
1.0
 70
     8
 71
     3
 72
    11
 73
     7
 74
     5
 42
0.0000000001
 43
0.0000000001
 44
0.0000000001
 40
0.0
 40
0.0
 40
0.0
 40
0.0
 40
0.2487825114914916
 40
0.4975643383297375
 40
0.7463475986850583
 40
0.9951294707115286
 40
0.9951294707115286
 40
0.9951294707115286
 40
0.9951294707115286
 10
-2.554975999999669
 20
89.33142799999998
 30
0.0
 10
-2.613879069320773
 20
89.2730550669165
 30
0.0
 10
-2.731685045861013
 20
89.15630936139274
 30
0.0
 10
-2.908399021240427
 20
88.9811953425727
 30
0.0
 10
-3.085114754274741
 20
88.80608340030292
 30
0.0
 10
-3.202929027668233
 20
88.68934569152534
 30
0.0
 10
-3.261835999999675
 20
88.63097699999997
 30
0.0
 11
-2.554975999999669
 21
89.33142799999998
 31
0.0
 11
-2.731685999999683
 21
89.15630999999995
 31
0.0
 11
-2.908398999999633
 21
88.98119599999999
 31
0.0
 11
-3.085115999999686
 21
88.80608399999998
 31
0.0
 11
-3.261835999999675
 21
88.63097699999997
 31
0.0
  0
SPLINE
  5
C858
330
1F
100
AcDbEntity
  8
0
100
AcDbSpline
210
0.0
220
0.0
230
1.0
 70
     8
 71
     3
 72
    11
 73
     7
 74
     5
 42
0.0000000001
 43
0.0000000001
 44
0.0000000001
 40
0.0
 40
0.0
 40
0.0
 40
0.0
 40
2.402836783845478
 40
4.805673172121859
 40
7.208510129497854
 40
9.611346256881727
 40
9.611346256881727
 40
9.611346256881727
 40
9.611346256881727
 10
-2.554975999999669
 20
89.33142799999998
 30
0.0
 10
-2.342987430907044
 20
90.1038104778714
 30
0.0
 10
-1.919010327620696
 20
91.64857530646017
 30
0.0
 10
-1.28307888359501
 20
93.96573206701402
 30
0.0
 10
-0.6471718946795591
 20
96.28289531208039
 30
0.0
 10
-0.2232546071545585
 20
97.82767652629367
 30
0.0
 10
-0.0112959999996747
 20
98.60006699999999
 30
0.0
 11
-2.554975999999669
 21
89.33142799999998
 31
0.0
 11
-1.919015999999658
 21
91.64857699999997
 31
0.0
 11
-1.283082999999635
 21
93.96573299999998
 31
0.0
 11
-0.6471769999996582
 21
96.28289699999996
 31
0.0
 11
-0.0112959999996747
 21
98.60006699999999
 31
0.0
  0
SPLINE
  5
C859
330
1F
100
AcDbEntity
  8
0
100
AcDbSpline
210
0.0
220
0.0
230
1.0
 70
     8
 71
     3
 72
    11
 73
     7
 74
     5
 42
0.0000000001
 43
0.0000000001
 44
0.0000000001
 40
0.0
 40
0.0
 40
0.0
 40
0.0
 40
0.3499943931908139
 40
0.6999897863490733
 40
1.049984179539858
 40
1.399978572730644
 40
1.399978572730644
 40
1.399978572730644
 40
1.399978572730644
 10
0.0000000000003411
 20
99.99999999999998
 30
0.0
 10
-0.0009413342454536
 20
99.88333900000734
 30
0.0
 10
-0.0028240054266462
 20
99.65001666671046
 30
0.0
 10
-0.0056479944286139
 20
99.3000333332883
 30
0.0
 10
-0.008472000720019
 20
98.95005000000578
 30
0.0
 10
-0.010354666906494
 20
98.71672800000192
 30
0.0
 10
-0.0112959999996747
 20
98.60006699999999
 30
0.0
 11
0.0000000000003411
 21
99.99999999999998
 31
0.0
 11
-0.0028239999996345
 21
99.65001699999996
 31
0.0
 11
-0.0056479999996668
 21
99.30003299999995
 31
0.0
 11
-0.0084719999996423
 21
98.95004999999997
 31
0.0
 11
-0.0112959999996747
 21
98.60006699999999
 31
0.0
  0
SPLINE
  5
C85A
330
1F
100
AcDbEntity
  8
0
100
AcDbSpline
210
0.0
220
0.0
230
1.0
 70
     8
 71
     3
 72
    11
 73
     7
 74
     5
 42
0.0000000001
 43
0.0000000001
 44
0.0000000001
 40
0.0
 40
0.0
 40
0.0
 40
0.0
 40
0.2490481364736593
 40
0.4980962371389573
 40
0.7471450001393209
 40
0.9961930114242786
 40
0.9961930114242786
 40
0.9961930114242786
 40
0.9961930114242786
 10
-0.6954499999996529
 20
100.713267
 30
0.0
 10
-0.6374971354121613
 20
100.6538268679743
 30
0.0
 10
-0.5215914145695706
 20
100.5349466124692
 30
0.0
 10
-0.3477302459218663
 20
100.3566284518699
 30
0.0
 10
-0.1738667061124488
 20
100.1783126614726
 30
0.0
 10
-0.0579555103938105
 20
100.059437494023
 30
0.0
 10
0.0000000000003411
 20
99.99999999999998
 30
0.0
 11
-0.6954499999996529
 21
100.713267
 31
0.0
 11
-0.5215909999996598
 21
100.5349469999999
 31
0.0
 11
-0.3477299999996717
 21
100.3566289999999
 31
0.0
 11
-0.1738659999996344
 21
100.1783129999999
 31
0.0
 11
0.0000000000003411
 21
99.99999999999998
 31
0.0
  0
SPLINE
  5
C85B
330
1F
100
AcDbEntity
  8
0
100
AcDbSpline
210
0.0
220
0.0
230
1.0
 70
     8
 71
     3
 72
    11
 73
     7
 74
     5
 42
0.0000000001
 43
0.0000000001
 44
0.0000000001
 40
0.0
 40
0.0
 40
0.0
 40
0.0
 40
2.386991832723784
 40
4.773983769551612
 40
7.160975622568701
 40
9.547967187139636
 40
9.547967187139636
 40
9.547967187139636
 40
9.547967187139636
 10
-0.6954499999996529
 20
100.713267
 30
0.0
 10
-1.461681580646597
 20
100.9276738359167
 30
0.0
 10
-2.994144775358222
 20
101.3564875171013
 30
0.0
 10
-5.292553105574711
 20
102.0007309895628
 30
0.0
 10
-7.590774554888184
 20
102.6456404552279
 30
0.0
 10
-9.122739549149855
 20
103.0762301604148
 30
0.0
 10
-9.888721999999631
 20
103.2915249999999
 30
0.0
 11
-0.6954499999996529
 21
100.713267
 31
0.0
 11
-2.994096999999669
 21
101.3566579999999
 31
0.0
 11
-5.292521999999678
 21
102.0008419999999
 31
0.0
 11
-7.590728999999669
 21
102.6458029999999
 31
0.0
 11
-9.888721999999631
 21
103.2915249999999
 31
0.0
  0
LINE
  5
C85C
330
1F
100
AcDbEntity
  8
AM_0
100
AcDbLine
 10
-35.29999999999967
 20
-104.9000000000004
 30
0.0
 11
-35.34999999999911
 21
-104.9499999999999
 31
0.0
  0
LINE
  5
C85D
330
1F
100
AcDbEntity
  8
0
100
AcDbLine
 10
-20.13455499999964
 20
-104.9499999999999
 30
0.0
 11
-11.97897192763895
 21
-102.611424171904
 31
0.0
  0
LINE
  5
C85E
330
1F
100
AcDbEntity
  8
0
100
AcDbLine
 10
-28.84999999999968
 20
-97.94999999999992
 30
0.0
 11
-28.84999999999968
 21
-104.9499999999999
 31
0.0
  0
LINE
  5
C85F
330
1F
100
AcDbEntity
  8
0
100
AcDbLine
 10
-35.29999999999967
 20
-97.94999999999992
 30
0.0
 11
-28.84999999999968
 21
-97.94999999999992
 31
0.0
  0
LINE
  5
C860
330
1F
100
AcDbEntity
  8
0
100
AcDbLine
 10
-28.84999999999968
 20
-104.9499999999999
 30
0.0
 11
-20.13455499999964
 21
-104.9499999999999
 31
0.0
  0
LINE
  5
C861
330
1F
100
AcDbEntity
  8
0
100
AcDbLine
 10
-35.29999999999967
 20
-97.94999999999992
 30
0.0
 11
-35.29999999999967
 21
-104.9000000000004
 31
0.0
  0
SPLINE
  5
C862
330
1F
100
AcDbEntity
  8
0
100
AcDbSpline
210
0.0
220
0.0
230
1.0
 70
     8
 71
     3
 72
     8
 73
     4
 74
     0
 42
0.0000000001
 43
0.0000000001
 40
5.018953419354302
 40
5.018953419354302
 40
5.018953419354302
 40
5.018953419354302
 40
5.271006674042441
 40
5.271006674042441
 40
5.271006674042441
 40
5.271006674042441
 10
-35.34313940464746
 20
-104.9431394046483
 30
0.0
 10
-35.34155092896799
 20
-105.0340149999885
 30
0.0
 10
-35.34087096448383
 20
-105.1180299999942
 30
0.0
 10
-35.34019099999966
 20
-105.2020449999999
 30
0.0
  0
SPLINE
  5
C863
330
1F
100
AcDbEntity
  8
0
100
AcDbSpline
210
0.0
220
0.0
230
1.0
 70
     8
 71
     3
 72
    11
 73
     7
 74
     5
 42
0.0000000001
 43
0.0000000001
 44
0.0000000001
 40
0.0
 40
0.0
 40
0.0
 40
0.0
 40
4.207539708846945
 40
8.415077077354712
 40
12.6226139273989
 40
16.83015402533892
 40
16.83015402533892
 40
16.83015402533892
 40
16.83015402533892
 10
-35.34019099999966
 20
-105.2020449999999
 30
0.0
 10
-33.93790454630271
 20
-105.1768210744885
 30
0.0
 10
-31.13333241889571
 20
-105.126373237496
 30
0.0
 10
-26.92641095716131
 20
-105.0543241488355
 30
0.0
 10
-22.71944865954887
 20
-104.9846921829712
 30
0.0
 10
-19.91476791401567
 20
-104.9406980666504
 30
0.0
 10
-18.51242699999966
 20
-104.9187009999999
 30
0.0
 11
-35.34019099999966
 21
-105.2020449999999
 31
0.0
 11
-31.13332099999968
 21
-105.1269769999999
 31
0.0
 11
-26.92640399999965
 21
-105.0547269999999
 31
0.0
 11
-22.71943999999968
 21
-104.9852989999999
 31
0.0
 11
-18.51242699999966
 21
-104.9187009999999
 31
0.0
  0
SPLINE
  5
C864
330
1F
100
AcDbEntity
  8
0
100
AcDbSpline
210
0.0
220
0.0
230
1.0
 70
     8
 71
     3
 72
    11
 73
     7
 74
     0
 42
0.0000000001
 43
0.0000000001
 40
0.0
 40
0.0
 40
0.0
 40
0.0
 40
1.958707387341203
 40
3.917415211030326
 40
5.876122058732913
 40
7.155201069144463
 40
7.155201069144463
 40
7.155201069144463
 40
7.155201069144463
 10
-18.51242699999966
 20
-104.9187009999999
 30
0.0
 10
-17.88466376830484
 20
-104.7392714754898
 30
0.0
 10
-16.62913716506631
 20
-104.3804123864974
 30
0.0
 10
-14.74569567357855
 20
-103.8426552636612
 30
0.0
 10
-13.07999965796313
 20
-103.3674175161582
 30
0.0
 10
-12.04208077984964
 20
-103.0715615297971
 30
0.0
 10
-11.63204971015443
 20
-102.9546979716011
 30
0.0
  0
SPLINE
  5
C865
330
1F
100
AcDbEntity
  8
0
100
AcDbSpline
210
0.0
220
0.0
230
1.0
 70
     8
 71
     3
 72
    11
 73
     7
 74
     5
 42
0.0000000001
 43
0.0000000001
 44
0.0000000001
 40
0.0
 40
0.0
 40
0.0
 40
0.0
 40
0.3470734358100743
 40
0.6941466710674335
 40
1.041220696285408
 40
1.388293523140249
 40
1.388293523140249
 40
1.388293523140249
 40
1.388293523140249
 10
-11.27693899999968
 20
-103.3061009999999
 30
0.0
 10
-11.16125434741689
 20
-103.3048753337927
 30
0.0
 10
-10.92988510909846
 20
-103.3024240020864
 30
0.0
 10
-10.58283076822909
 20
-103.298770993824
 30
0.0
 10
-10.23577644112292
 20
-103.2951360081516
 30
0.0
 10
-10.00440668056314
 20
-103.2927286679985
 30
0.0
 10
-9.888721999999631
 20
-103.2915249999999
 30
0.0
 11
-11.27693899999968
 21
-103.3061009999999
 31
0.0
 11
-10.92988499999967
 21
-103.3024279999999
 31
0.0
 11
-10.58283099999965
 21
-103.2987739999999
 31
0.0
 11
-10.23577599999964
 21
-103.2951399999999
 31
0.0
 11
-9.888721999999631
 21
-103.2915249999999
 31
0.0
  0
SPLINE
  5
C866
330
1F
100
AcDbEntity
  8
0
100
AcDbSpline
210
0.0
220
0.0
230
1.0
 70
     8
 71
     3
 72
    11
 73
     7
 74
     5
 42
0.0000000001
 43
0.0000000001
 44
0.0000000001
 40
0.0
 40
0.0
 40
0.0
 40
0.0
 40
0.2486066744156243
 40
0.4972140297633601
 40
0.7458206519478993
 40
0.9944272518683078
 40
0.9944272518683078
 40
0.9944272518683078
 40
0.9944272518683078
 10
-11.98379899999963
 20
-102.6066479999999
 30
0.0
 10
-11.92489208732641
 20
-102.6649337513767
 30
0.0
 10
-11.80707810063432
 20
-102.7815054137746
 30
0.0
 10
-11.63036164177284
 20
-102.9563672905311
 30
0.0
 10
-11.45364839221643
 20
-103.1312323752576
 30
0.0
 10
-11.33584212898023
 20
-103.2478114601592
 30
0.0
 10
-11.27693899999968
 20
-103.3061009999999
 30
0.0
 11
-11.98379899999963
 21
-102.6066479999999
 31
0.0
 11
-11.80707899999964
 21
-102.7815059999999
 31
0.0
 11
-11.63036199999965
 21
-102.9563679999999
 31
0.0
 11
-11.45364899999964
 21
-103.1312329999999
 31
0.0
 11
-11.27693899999968
 21
-103.3061009999999
 31
0.0
  0
SPLINE
  5
C867
330
1F
100
AcDbEntity
  8
0
100
AcDbSpline
210
0.0
220
0.0
230
1.0
 70
     8
 71
     3
 72
    11
 73
     7
 74
     5
 42
0.0000000001
 43
0.0000000001
 44
0.0000000001
 40
0.0
 40
0.0
 40
0.0
 40
0.0
 40
2.401080832118114
 40
4.802162709404688
 40
7.203243534419341
 40
9.604325067075821
 40
9.604325067075821
 40
9.604325067075821
 40
9.604325067075821
 10
-11.98379899999963
 20
-102.6066479999999
 30
0.0
 10
-12.19574625865606
 20
-101.8348611556019
 30
0.0
 10
-12.6196408682276
 20
-100.2912871308543
 30
0.0
 10
-13.25553808003295
 20
-97.97594146316082
 30
0.0
 10
-13.89147631610164
 20
-95.6606068207194
 30
0.0
 10
-14.31547808454018
 20
-94.11706234939146
 30
0.0
 10
-14.52747899999969
 20
-93.34528999999994
 30
0.0
 11
-11.98379899999963
 21
-102.6066479999999
 31
0.0
 11
-12.61964999999964
 21
-100.2912899999999
 31
0.0
 11
-13.25554499999964
 21
-97.97594299999992
 31
0.0
 11
-13.89148699999964
 21
-95.66060999999992
 31
0.0
 11
-14.52747899999969
 21
-93.34528999999994
 31
0.0
  0
SPLINE
  5
C868
330
1F
100
AcDbEntity
  8
0
100
AcDbSpline
210
0.0
220
0.0
230
1.0
 70
    24
 71
     3
 72
    11
 73
     7
 74
     5
 42
0.0000000001
 43
0.0000000001
 44
0.0000000001
 40
0.0
 40
0.0
 40
0.0
 40
0.0
 40
0.349879396935559
 40
0.6997587938711468
 40
1.049638190806705
 40
1.399517587742293
 40
1.399517587742293
 40
1.399517587742293
 40
1.399517587742293
 10
-14.53877499999964
 20
-91.94581799999992
 30
0.0
 10
-14.53783366666632
 20
-92.06244066666661
 30
0.0
 10
-14.53595099999969
 20
-92.29568599999993
 30
0.0
 10
-14.53312699999962
 20
-92.6455539999999
 30
0.0
 10
-14.53030299999966
 20
-92.99542199999994
 30
0.0
 10
-14.52842033333301
 20
-93.22866733333325
 30
0.0
 10
-14.52747899999969
 20
-93.34528999999994
 30
0.0
 11
-14.53877499999964
 21
-91.94581799999992
 31
0.0
 11
-14.53595099999967
 21
-92.29568599999991
 31
0.0
 11
-14.53312699999964
 21
-92.64555399999993
 31
0.0
 11
-14.53030299999966
 21
-92.99542199999992
 31
0.0
 11
-14.52747899999969
 21
-93.34528999999994
 31
0.0
  0
SPLINE
  5
C869
330
1F
100
AcDbEntity
  8
0
100
AcDbSpline
210
0.0
220
0.0
230
1.0
 70
     8
 71
     3
 72
    11
 73
     7
 74
     5
 42
0.0000000001
 43
0.0000000001
 44
0.0000000001
 40
0.0
 40
0.0
 40
0.0
 40
0.0
 40
0.2493367287705809
 40
0.4986734964763974
 40
0.7480110004443996
 40
0.9973478266133481
 40
0.9973478266133481
 40
0.9973478266133481
 40
0.9973478266133481
 10
-13.84332499999965
 20
-91.23093899999993
 30
0.0
 10
-13.90128015405355
 20
-91.29051118346314
 30
0.0
 10
-14.01719047121133
 20
-91.40965555969204
 30
0.0
 10
-14.19105334963468
 20
-91.58837500226189
 30
0.0
 10
-14.36491517967624
 20
-91.7670955100076
 30
0.0
 10
-14.480821779072
 20
-91.88624389065141
 30
0.0
 10
-14.53877499999964
 20
-91.94581799999992
 30
0.0
 11
-13.84332499999965
 21
-91.23093899999993
 31
0.0
 11
-14.01718999999969
 21
-91.40965599999994
 31
0.0
 11
-14.19105299999967
 21
-91.58837499999991
 31
0.0
 11
-14.36491499999965
 21
-91.76709599999991
 31
0.0
 11
-14.53877499999964
 21
-91.94581799999992
 31
0.0
  0
SPLINE
  5
C86A
330
1F
100
AcDbEntity
  8
0
100
AcDbSpline
210
0.0
220
0.0
230
1.0
 70
     8
 71
     3
 72
    11
 73
     7
 74
     5
 42
0.0000000001
 43
0.0000000001
 44
0.0000000001
 40
0.0
 40
0.0
 40
0.0
 40
0.0
 40
2.387557927882997
 40
4.775114633032863
 40
7.162671334321639
 40
9.550229001419324
 40
9.550229001419324
 40
9.550229001419324
 40
9.550229001419324
 10
-13.84332499999965
 20
-91.23093899999993
 30
0.0
 10
-13.07735474232146
 20
-91.01490426014715
 30
0.0
 10
-11.54541461923923
 20
-90.58283489107884
 30
0.0
 10
-9.247203270379253
 20
-89.93580020985497
 30
0.0
 10
-6.948786390322942
 20
-89.28949629524863
 30
0.0
 10
-5.416297566760547
 20
-88.85937746074793
 30
0.0
 10
-4.650052999999672
 20
-88.64431799999993
 30
0.0
 11
-13.84332499999965
 21
-91.23093899999993
 31
0.0
 11
-11.54536399999966
 21
-90.58301299999993
 31
0.0
 11
-9.247168999999644
 21
-89.93592199999993
 31
0.0
 11
-6.94873399999966
 21
-89.28968399999993
 31
0.0
 11
-4.650052999999672
 21
-88.64431799999993
 31
0.0
  0
SPLINE
  5
C86B
330
1F
100
AcDbEntity
  8
0
100
AcDbSpline
210
0.0
220
0.0
230
1.0
 70
     8
 71
     3
 72
    11
 73
     7
 74
     5
 42
0.0000000001
 43
0.0000000001
 44
0.0000000001
 40
0.0
 40
0.0
 40
0.0
 40
0.0
 40
0.3470706888012989
 40
0.6941406066737221
 40
1.041210745586607
 40
1.388281107063945
 40
1.388281107063945
 40
1.388281107063945
 40
1.388281107063945
 10
-3.261835999999675
 20
-88.63097699999993
 30
0.0
 10
-3.377521016517732
 20
-88.63207526715912
 30
0.0
 10
-3.608890792589132
 20
-88.63427179903792
 30
0.0
 10
-3.955945104566472
 20
-88.63759778739646
 30
0.0
 10
-4.302999122100313
 20
-88.64094305458523
 30
0.0
 10
-4.534368349305005
 20
-88.64319301795452
 30
0.0
 10
-4.650052999999672
 20
-88.64431799999993
 30
0.0
 11
-3.261835999999675
 21
-88.63097699999993
 31
0.0
 11
-3.608890999999687
 21
-88.63427699999993
 31
0.0
 11
-3.955944999999644
 21
-88.63760099999995
 31
0.0
 11
-4.302998999999658
 21
-88.64094799999991
 31
0.0
 11
-4.650052999999672
 21
-88.64431799999993
 31
0.0
  0
SPLINE
  5
C86C
330
1F
100
AcDbEntity
  8
0
100
AcDbSpline
210
0.0
220
0.0
230
1.0
 70
     8
 71
     3
 72
    11
 73
     7
 74
     5
 42
0.0000000001
 43
0.0000000001
 44
0.0000000001
 40
0.0
 40
0.0
 40
0.0
 40
0.0
 40
0.2487825114914916
 40
0.4975643383297375
 40
0.7463475986850583
 40
0.9951294707115286
 40
0.9951294707115286
 40
0.9951294707115286
 40
0.9951294707115286
 10
-2.554975999999669
 20
-89.33142799999995
 30
0.0
 10
-2.613879069320827
 20
-89.27305506691643
 30
0.0
 10
-2.731685045861002
 20
-89.15630936139267
 30
0.0
 10
-2.908399021240429
 20
-88.98119534257267
 30
0.0
 10
-3.08511475427464
 20
-88.80608340030292
 30
0.0
 10
-3.202929027668244
 20
-88.68934569152532
 30
0.0
 10
-3.261835999999675
 20
-88.63097699999993
 30
0.0
 11
-2.554975999999669
 21
-89.33142799999995
 31
0.0
 11
-2.731685999999683
 21
-89.15630999999992
 31
0.0
 11
-2.908398999999633
 21
-88.98119599999994
 31
0.0
 11
-3.085115999999686
 21
-88.80608399999992
 31
0.0
 11
-3.261835999999675
 21
-88.63097699999993
 31
0.0
  0
SPLINE
  5
C86D
330
1F
100
AcDbEntity
  8
0
100
AcDbSpline
210
0.0
220
0.0
230
1.0
 70
     8
 71
     3
 72
    11
 73
     7
 74
     5
 42
0.0000000001
 43
0.0000000001
 44
0.0000000001
 40
0.0
 40
0.0
 40
0.0
 40
0.0
 40
2.402836783845478
 40
4.805673172121859
 40
7.208510129497854
 40
9.611346256881727
 40
9.611346256881727
 40
9.611346256881727
 40
9.611346256881727
 10
-2.554975999999669
 20
-89.33142799999995
 30
0.0
 10
-2.34298743090706
 20
-90.10381047787138
 30
0.0
 10
-1.919010327620646
 20
-91.6485753064601
 30
0.0
 10
-1.283078883595029
 20
-93.96573206701397
 30
0.0
 10
-0.6471718946794848
 20
-96.28289531208032
 30
0.0
 10
-0.223254607154566
 20
-97.8276765262936
 30
0.0
 10
-0.0112959999996747
 20
-98.60006699999996
 30
0.0
 11
-2.554975999999669
 21
-89.33142799999995
 31
0.0
 11
-1.919015999999658
 21
-91.64857699999991
 31
0.0
 11
-1.283082999999635
 21
-93.96573299999992
 31
0.0
 11
-0.6471769999996582
 21
-96.28289699999992
 31
0.0
 11
-0.0112959999996747
 21
-98.60006699999996
 31
0.0
  0
SPLINE
  5
C86E
330
1F
100
AcDbEntity
  8
0
100
AcDbSpline
210
0.0
220
0.0
230
1.0
 70
     8
 71
     3
 72
    11
 73
     7
 74
     5
 42
0.0000000001
 43
0.0000000001
 44
0.0000000001
 40
0.0
 40
0.0
 40
0.0
 40
0.0
 40
0.3499943931908139
 40
0.6999897863490733
 40
1.049984179539858
 40
1.399978572730644
 40
1.399978572730644
 40
1.399978572730644
 40
1.399978572730644
 10
0.0000000000003411
 20
-99.99999999999992
 30
0.0
 10
-0.0009413342454758
 20
-99.88333900000727
 30
0.0
 10
-0.0028240054265914
 20
-99.65001666671037
 30
0.0
 10
-0.0056479944286345
 20
-99.3000333332883
 30
0.0
 10
-0.0084720007200155
 20
-98.95005000000576
 30
0.0
 10
-0.010354666906455
 20
-98.7167280000019
 30
0.0
 10
-0.0112959999996747
 20
-98.60006699999996
 30
0.0
 11
0.0000000000003411
 21
-99.99999999999992
 31
0.0
 11
-0.0028239999996345
 21
-99.65001699999993
 31
0.0
 11
-0.0056479999996668
 21
-99.30003299999992
 31
0.0
 11
-0.0084719999996423
 21
-98.95004999999994
 31
0.0
 11
-0.0112959999996747
 21
-98.60006699999996
 31
0.0
  0
SPLINE
  5
C86F
330
1F
100
AcDbEntity
  8
0
100
AcDbSpline
210
0.0
220
0.0
230
1.0
 70
     8
 71
     3
 72
    11
 73
     7
 74
     5
 42
0.0000000001
 43
0.0000000001
 44
0.0000000001
 40
0.0
 40
0.0
 40
0.0
 40
0.0
 40
0.2490481364736593
 40
0.4980962371389573
 40
0.7471450001393209
 40
0.9961930114242786
 40
0.9961930114242786
 40
0.9961930114242786
 40
0.9961930114242786
 10
-0.6954499999996529
 20
-100.7132669999999
 30
0.0
 10
-0.6374971354121478
 20
-100.6538268679742
 30
0.0
 10
-0.5215914145696515
 20
-100.5349466124692
 30
0.0
 10
-0.3477302459218696
 20
-100.3566284518699
 30
0.0
 10
-0.1738667061123444
 20
-100.1783126614726
 30
0.0
 10
-0.0579555103937785
 20
-100.0594374940229
 30
0.0
 10
0.0000000000003411
 20
-99.99999999999992
 30
0.0
 11
-0.6954499999996529
 21
-100.7132669999999
 31
0.0
 11
-0.5215909999996598
 21
-100.5349469999999
 31
0.0
 11
-0.3477299999996717
 21
-100.3566289999999
 31
0.0
 11
-0.1738659999996344
 21
-100.1783129999999
 31
0.0
 11
0.0000000000003411
 21
-99.99999999999992
 31
0.0
  0
SPLINE
  5
C870
330
1F
100
AcDbEntity
  8
0
100
AcDbSpline
210
0.0
220
0.0
230
1.0
 70
     8
 71
     3
 72
    11
 73
     7
 74
     5
 42
0.0000000001
 43
0.0000000001
 44
0.0000000001
 40
0.0
 40
0.0
 40
0.0
 40
0.0
 40
2.386991832723784
 40
4.773983769551612
 40
7.160975622568701
 40
9.547967187139636
 40
9.547967187139636
 40
9.547967187139636
 40
9.547967187139636
 10
-0.6954499999996529
 20
-100.7132669999999
 30
0.0
 10
-1.461681580646611
 20
-100.9276738359167
 30
0.0
 10
-2.994144775358239
 20
-101.3564875171013
 30
0.0
 10
-5.292553105574667
 20
-102.0007309895627
 30
0.0
 10
-7.5907745548883
 20
-102.6456404552279
 30
0.0
 10
-9.122739549149853
 20
-103.0762301604147
 30
0.0
 10
-9.888721999999631
 20
-103.2915249999999
 30
0.0
 11
-0.6954499999996529
 21
-100.7132669999999
 31
0.0
 11
-2.994096999999669
 21
-101.3566579999999
 31
0.0
 11
-5.292521999999678
 21
-102.0008419999999
 31
0.0
 11
-7.590728999999669
 21
-102.6458029999999
 31
0.0
 11
-9.888721999999631
 21
-103.2915249999999
 31
0.0
  0
DIMENSION
  5
C881
330
1F
100
AcDbEntity
  8
AM_5
100
AcDbDimension
  2
*D10
 10
288.8553912036166
 20
-19.50858027475665
 30
0.0
 11
-10.49991199563045
 21
-114.3679527980066
 31
0.0
 70
    34
  1
75%%d
 71
     5
 42
1.297369896749314
  3
AM_JIS$2
100
AcDb2LineAngularDimension
 13
0.0000000000014779
 23
100.0
 33
0.0
 14
-0.0000000000014211
 24
-99.99999999964671
 34
0.0
 15
-0.0000000000014264
 25
-100.5182276792776
 35
0.0
 16
-15.58604890856956
 26
-113.803703742489
 36
0.0
1001
ACAD
1000
DSTYLE
1002
{
1070
    79
1070
     2
1070
   371
1070
    -1
1070
   372
1070
    -1
1002
}
  0
DIMENSION
  5
C8C9
330
1F
100
AcDbEntity
  8
AM_5
100
AcDbDimension
  2
*D11
 10
33.80699442689378
 20
-105.2020449999999
 30
0.0
 11
30.7069944268938
 21
0.0000000000000054
 31
0.0
 70
    32
  1
%%c210.40
 71
     5
 42
210.4040899999999
  3
AM_JIS$0
100
AcDbAlignedDimension
 13
-35.34019099999966
 23
105.2020449999999
 33
0.0
 14
-35.34019099999966
 24
-105.2020449999999
 34
0.0
 50
90.00000000000003
100
AcDbRotatedDimension
1001
ACAD
1000
DSTYLE
1002
{
1070
    40
1040
1.0
1070
    43
1040
12.0
1070
   140
1040
3.2
1070
   147
1040
1.5
1070
   178
1070
     2
1070
   271
1070
     2
1002
}
  0
VIEWPORT
  5
110
102
{ACAD_XDICTIONARY
360
C910
102
}
330
101
100
AcDbEntity
 67
     1
  8
0
100
AcDbViewport
 10
420.5
 20
297.0
 30
0.0
 40
948.9782706766916
 41
628.452
 68
     1
 69
     1
 12
420.5
 22
297.0
 13
0.0
 23
0.0
 14
10.0
 24
10.0
 15
10.0
 25
10.0
 16
0.0
 26
0.0
 36
1.0
 17
0.0
 27
0.0
 37
0.0
 42
50.0
 43
0.0
 44
0.0
 45
628.452
 50
0.0
 51
0.0
 72
   100
 90
    32800
  1

281
     0
 71
     1
 74
     0
110
0.0
120
0.0
130
0.0
111
1.0
121
0.0
131
0.0
112
0.0
122
1.0
132
0.0
 79
     0
146
0.0
1001
GENIUS_GENSCREG_15
1000
PF
1040
1.0
1000
DF
1040
1.0
1000
MIN
1011
-53.98913533834582
1021
-17.226
1031
0.0
1000
MAX
1011
894.9891353383458
1021
611.226
1031
0.0
1000
FLAGS
1070
     4
1001
GENIUS_GENOBJ-N-SDF_13
1002
{
1000
OWNER
1000
GEN
1002
}
1001
GENIUS_GENODEF_13
1002
{
1000
HIER
1070
     0
1002
}
1002
{
1000
MANEDIT
1070
     0
1002
}
1002
{
1000
NOSEL
1070
     0
1002
}
1002
{
1000
BEHIND
1070
     0
1002
}
1002
{
1000
OTHER
1070
     0
1002
}
1002
{
1000
REACTOR
1002
}
  0
ENDSEC
  0
SECTION
  2
OBJECTS
  0
DICTIONARY
  5
C
330
0
100
AcDbDictionary
281
     1
  3
ACAD_COLOR
350
C72D
  3
ACAD_GROUP
350
D
  3
ACAD_LAYOUT
350
1A
  3
ACAD_MATERIAL
350
C72C
  3
ACAD_MLINESTYLE
350
17
  3
ACAD_PLOTSETTINGS
350
19
  3
ACAD_PLOTSTYLENAME
350
E
  3
ACAD_TABLESTYLE
350
C72E
  3
ACDBHEADERROUNDTRIPXREC
350
C90F
  3
ACDBVARIABLEDICTIONARY
350
34
  3
ACMDICTIONARY
350
43
  3
AMG
350
2B
  3
AMGSNAPSETTINGS
350
6E
  3
DWGPROPS
350
C90E
  0
DICTIONARY
  5
74
330
1F
100
AcDbDictionary
280
     1
281
     1
  3
ACAD_INDEX
360
C6F0
  3
ACAD_LAYOUTSELFREF
360
C71F
  0
DICTIONARY
  5
C724
330
101
100
AcDbDictionary
280
     1
281
     1
  3
ACAD_LAYOUTSELFREF
360
C725
  0
DICTIONARY
  5
C910
330
110
100
AcDbDictionary
280
     1
281
     1
  3
ACAD_XREC_ROUNDTRIP
360
C911
  0
DICTIONARY
  5
C72D
102
{ACAD_REACTORS
330
C
102
}
330
C
100
AcDbDictionary
281
     1
  0
DICTIONARY
  5
D
102
{ACAD_REACTORS
330
C
102
}
330
C
100
AcDbDictionary
281
     1
  0
DICTIONARY
  5
1A
102
{ACAD_REACTORS
330
C
102
}
330
C
100
AcDbDictionary
281
     1
  3
Model
350
C730
  3
レイアウト1
350
C731
  0
DICTIONARY
  5
C72C
102
{ACAD_REACTORS
330
C
102
}
330
C
100
AcDbDictionary
281
     1
  0
DICTIONARY
  5
17
102
{ACAD_REACTORS
330
C
102
}
330
C
100
AcDbDictionary
281
     1
  3
STANDARD
350
18
  0
DICTIONARY
  5
19
102
{ACAD_REACTORS
330
C
102
}
330
C
100
AcDbDictionary
281
     1
  0
ACDBDICTIONARYWDFLT
  5
E
102
{ACAD_REACTORS
330
C
102
}
330
C
100
AcDbDictionary
281
     1
  3
Normal
350
F
100
AcDbDictionaryWithDefault
340
F
  0
DICTIONARY
  5
C72E
102
{ACAD_REACTORS
330
C
102
}
330
C
100
AcDbDictionary
281
     1
  3
Standard
350
C72F
  0
DICTIONARY
  5
C90F
102
{ACAD_REACTORS
330
C
102
}
330
C
100
AcDbDictionary
281
     1
  0
DICTIONARY
  5
34
102
{ACAD_REACTORS
330
C
102
}
330
C
100
AcDbDictionary
281
     1
  3
CTABLESTYLE
350
C90A
  3
DIMASSOC
350
C90B
  3
INDEXCTL
350
35
  3
PROJECTNAME
350
C90C
  3
SORTENTS
350
B5E
  0
DICTIONARY
  5
43
102
{ACAD_REACTORS
330
C
102
}
330
C
100
AcDbDictionary
281
     1
  3
ACMSTDDICTIONARY
350
260
  3
AMDTSECTSYM_ARROWCOLOR
350
C7A9
  0
DICTIONARY
  5
2B
102
{ACAD_REACTORS
330
C
102
}
330
C
100
AcDbDictionary
281
     1
  0
DICTIONARY
  5
6E
102
{ACAD_REACTORS
330
C
102
}
330
C
100
AcDbDictionary
281
     1
  0
XRECORD
  5
C90E
102
{ACAD_REACTORS
330
C
102
}
330
C
100
AcDbXrecord
280
     1
  1
DWGPROPS COOKIE
  2

  3

  4

  6

  7

  8

  9

300
AmdtFileType=82
301
=
302
=
303
=
304
=
305
=
306
=
307
=
308
=
309
=
 40
0.1877987268518518
 41
2452836.771637361
 42
2455596.384643912
  1

 90
        1
  0
DICTIONARY
  5
C6F0
102
{ACAD_REACTORS
330
74
102
}
330
74
100
AcDbDictionary
281
     1
  3
*A1
350
C6F1
  0
XRECORD
  5
C71F
102
{ACAD_REACTORS
330
74
102
}
330
74
100
AcDbXrecord
280
     1
340
1F
  0
XRECORD
  5
C725
102
{ACAD_REACTORS
330
C724
102
}
330
C724
100
AcDbXrecord
280
     1
340
101
  0
XRECORD
  5
C911
102
{ACAD_REACTORS
330
C910
102
}
330
C910
100
AcDbXrecord
280
     1
102
SHADEPLOT
 70
     0
  0
LAYOUT
  5
C730
102
{ACAD_XDICTIONARY
360
C912
102
}
102
{ACAD_REACTORS
330
1A
102
}
330
1A
100
AcDbPlotSettings
  1

  2
SII LP-1010 (C2 VR)2R
  4

  6

 40
0.0
 41
0.0
 42
0.0
 43
0.0
 44
0.0
 45
0.0
 46
0.0
 47
0.0
 48
0.0
 49
0.0
140
0.0
141
0.0
142
1.0
143
1.0
 70
  1712
 72
     0
 73
     0
 74
     0
  7
sei_cad.ctb
 75
     0
147
1.0
148
0.0
149
0.0
100
AcDbLayout
  1
Model
 70
     1
 71
     0
 10
0.0
 20
0.0
 11
12.0
 21
9.0
 12
0.0
 22
0.0
 32
0.0
 14
0.0
 24
0.0
 34
0.0
 15
0.0
 25
0.0
 35
0.0
146
0.0
 13
0.0
 23
0.0
 33
0.0
 16
1.0
 26
0.0
 36
0.0
 17
0.0
 27
1.0
 37
0.0
 76
     0
330
1F
  0
LAYOUT
  5
C731
102
{ACAD_XDICTIONARY
360
C914
102
}
102
{ACAD_REACTORS
330
1A
102
}
330
1A
100
AcDbPlotSettings
  1

  2
SII LP-1010 (C2 VR)2R
  4

  6

 40
0.0
 41
0.0
 42
0.0
 43
0.0
 44
0.0
 45
0.0
 46
0.0
 47
0.0
 48
0.0
 49
0.0
140
0.0
141
0.0
142
1.0
143
1.0
 70
   688
 72
     0
 73
     0
 74
     5
  7
sei_cad.ctb
 75
    16
147
1.0
148
0.0
149
0.0
100
AcDbLayout
  1
レイアウト1
 70
     0
 71
     1
 10
0.0
 20
0.0
 11
841.0
 21
594.0
 12
0.0
 22
0.0
 32
0.0
 14
1.000000000000000E+20
 24
1.000000000000000E+20
 34
1.000000000000000E+20
 15
-1.000000000000000E+20
 25
-1.000000000000000E+20
 35
-1.000000000000000E+20
146
0.0
 13
0.0
 23
0.0
 33
0.0
 16
1.0
 26
0.0
 36
0.0
 17
0.0
 27
1.0
 37
0.0
 76
     0
330
101
331
110
  0
MLINESTYLE
  5
18
102
{ACAD_REACTORS
330
17
102
}
330
17
100
AcDbMlineStyle
  2
STANDARD
 70
     0
  3

 62
   256
 51
90.0
 52
90.0
 71
     2
 49
0.5
 62
   256
  6
BYLAYER
 49
-0.5
 62
   256
  6
BYLAYER
  0
ACDBPLACEHOLDER
  5
F
102
{ACAD_REACTORS
330
E
102
}
330
E
  0
TABLESTYLE
  5
C72F
102
{ACAD_REACTORS
330
C72E
102
}
330
C72E
100
AcDbTableStyle
  3
Standard
 70
     0
 71
     0
 40
1.5
 41
1.5
280
     0
281
     0
  7
STANDARD
140
4.5
170
     2
 62
     0
 63
     7
283
     0
274
    -2
284
     1
 64
     0
275
    -2
285
     1
 65
     0
276
    -2
286
     1
 66
     0
277
    -2
287
     1
 67
     0
278
    -2
288
     1
 68
     0
279
    -2
289
     1
 69
     0
  7
STANDARD
140
6.0
170
     5
 62
     0
 63
     7
283
     0
274
    -2
284
     1
 64
     0
275
    -2
285
     1
 65
     0
276
    -2
286
     1
 66
     0
277
    -2
287
     1
 67
     0
278
    -2
288
     1
 68
     0
279
    -2
289
     1
 69
     0
  7
STANDARD
140
4.5
170
     5
 62
     0
 63
     7
283
     0
274
    -2
284
     1
 64
     0
275
    -2
285
     1
 65
     0
276
    -2
286
     1
 66
     0
277
    -2
287
     1
 67
     0
278
    -2
288
     1
 68
     0
279
    -2
289
     1
 69
     0
  0
DICTIONARYVAR
  5
C90A
102
{ACAD_REACTORS
330
34
102
}
330
34
100
DictionaryVariables
280
     0
  1
STANDARD
  0
DICTIONARYVAR
  5
C90B
102
{ACAD_REACTORS
330
34
102
}
330
34
100
DictionaryVariables
280
     0
  1
1
  0
DICTIONARYVAR
  5
35
102
{ACAD_REACTORS
330
34
102
}
330
34
100
DictionaryVariables
280
     0
  1
1
  0
DICTIONARYVAR
  5
C90C
102
{ACAD_REACTORS
330
34
102
}
330
34
100
DictionaryVariables
280
     0
  1

  0
DICTIONARYVAR
  5
B5E
102
{ACAD_REACTORS
330
34
102
}
330
34
100
DictionaryVariables
280
     0
  1
96
  0
DICTIONARY
  5
260
102
{ACAD_REACTORS
330
43
102
}
330
43
100
AcDbDictionary
281
     1
  0
XRECORD
  5
C7A9
102
{ACAD_REACTORS
330
43
102
}
330
43
100
AcDbXrecord
280
     1
 90
-1023410169
  0
LAYER_INDEX
  5
C6F1
102
{ACAD_REACTORS
330
C6F0
102
}
330
C6F0
100
AcDbIndex
 40
2455596.384643912
100
AcDbLayerIndex
  8
0
360
C6F2
 90
       42
  8
AM_0
360
C6F3
 90
       58
  8
AM_7
360
C6F4
 90
        3
  8
AM_5
360
C6F5
 90
        9
  8
DEFPOINTS
360
C6F6
 90
        0
  8
AM_6
360
C6F7
 90
        1
  8
AM_11
360
C6F8
 90
       25
  0
DICTIONARY
  5
C912
330
C730
100
AcDbDictionary
280
     1
281
     1
  3
ACAD_XREC_ROUNDTRIP
360
C913
  0
DICTIONARY
  5
C914
330
C731
100
AcDbDictionary
280
     1
281
     1
  3
ACAD_XREC_ROUNDTRIP
360
C915
  0
IDBUFFER
  5
C6F2
330
0
100
AcDbIdBuffer
330
C865
330
C866
330
C867
330
C868
330
C869
330
C86A
330
C86B
330
C86C
330
C86D
330
C86E
330
C86F
330
C870
330
C41F
330
C61D
330
C848
330
C849
330
C84A
330
C84B
330
C84C
330
C84D
330
C84E
330
C84F
330
C850
330
C851
330
C852
330
C853
330
C854
330
C855
330
C856
330
C857
330
C858
330
C859
330
C85A
330
C85B
330
C85D
330
C85E
330
C85F
330
C860
330
C861
330
C862
330
C863
330
C864
  0
IDBUFFER
  5
C6F3
330
0
100
AcDbIdBuffer
330
A796
330
A798
330
A799
330
A79A
330
A79B
330
A79C
330
A7A0
330
A7A3
330
A7A6
330
A7A7
330
A7A8
330
A7A9
330
A7AA
330
A7AB
330
B686
330
B689
330
B695
330
B698
330
B69B
330
B6B4
330
B6B9
330
B6BA
330
B6BB
330
B6BC
330
B7DE
330
B7DF
330
B7E0
330
B7E2
330
B7E4
330
B7E5
330
B7E6
330
B7E7
330
B7E8
330
B7EA
330
B7EE
330
B7EF
330
B7F0
330
B7F3
330
B7F4
330
B7F5
330
B7F7
330
B7FA
330
B7FF
330
B807
330
B808
330
B809
330
B80A
330
B80B
330
B80C
330
B80D
330
B9FB
330
BA00
330
BA01
330
BD62
330
C41D
330
C61B
330
C61C
330
C85C
  0
IDBUFFER
  5
C6F4
330
0
100
AcDbIdBuffer
330
A797
330
A79F
330
B7E1
  0
IDBUFFER
  5
C6F5
330
0
100
AcDbIdBuffer
330
C881
330
C8C9
330
B813
330
B814
330
B816
330
B817
330
B818
330
C0A4
330
C627
  0
IDBUFFER
  5
C6F6
330
0
100
AcDbIdBuffer
  0
IDBUFFER
  5
C6F7
330
0
100
AcDbIdBuffer
330
E5A
  0
IDBUFFER
  5
C6F8
330
0
100
AcDbIdBuffer
330
A79D
330
A79E
330
A7A2
330
A7A4
330
A7A5
330
B6A3
330
B6A7
330
B6AA
330
B6AE
330
B6B1
330
B6B6
330
B6B7
330
B7DC
330
B7DD
330
B7E3
330
B7E9
330
B7ED
330
B7F1
330
B7F2
330
B7F6
330
B7F8
330
B7F9
330
B7FB
330
B7FD
330
B998
  0
XRECORD
  5
C913
102
{ACAD_REACTORS
330
C912
102
}
330
C912
100
AcDbXrecord
280
     1
102
SHADEPLOT
 70
     0
102
SHADEPLOTRESLEVEL
 70
     2
102
SHADEPLOTCUSTOMDPI
 70
   300
  0
XRECORD
  5
C915
102
{ACAD_REACTORS
330
C914
102
}
330
C914
100
AcDbXrecord
280
     1
102
SHADEPLOT
 70
     0
102
SHADEPLOTRESLEVEL
 70
     2
102
SHADEPLOTCUSTOMDPI
 70
   300
  0
ENDSEC
  0
EOF
