  0
SECTION
  2
HEADER
  9
$ACADVER
  1
AC1015
  9
$ACADMAINTVER
 70
    20
  9
$DWGCODEPAGE
  3
ANSI_932
  9
$INSBASE
 10
0.0
 20
0.0
 30
0.0
  9
$EXTMIN
 10
-98.6999999999991
 20
-113.886616
 30
0.0
  9
$EXTMAX
 10
288.8488631393213
 20
57.89223100000004
 30
0.0
  9
$LIMMIN
 10
-127.1087595986891
 20
-135.9762117258254
  9
$LIMMAX
 10
69.5318033421687
 20
90.69889831245143
  9
$ORTHOMODE
 70
     0
  9
$REGENMODE
 70
     1
  9
$FILLMODE
 70
     1
  9
$QTEXTMODE
 70
     0
  9
$MIRRTEXT
 70
     0
  9
$LTSCALE
 40
1.0
  9
$ATTMODE
 70
     1
  9
$TEXTSIZE
 40
2.5
  9
$TRACEWID
 40
1.0
  9
$TEXTSTYLE
  7
STANDARD
  9
$CLAYER
  8
AM_0
  9
$CELTYPE
  6
BYLAYER
  9
$CECOLOR
 62
   256
  9
$CELTSCALE
 40
1.0
  9
$DISPSILH
 70
     0
  9
$DIMSCALE
 40
1.0
  9
$DIMASZ
 40
2.5
  9
$DIMEXO
 40
1.0
  9
$DIMDLI
 40
12.0
  9
$DIMRND
 40
0.0
  9
$DIMDLE
 40
0.0
  9
$DIMEXE
 40
1.0
  9
$DIMTP
 40
0.1
  9
$DIMTM
 40
0.1
  9
$DIMTXT
 40
3.2
  9
$DIMCEN
 40
0.0
  9
$DIMTSZ
 40
0.0
  9
$DIMTOL
 70
     0
  9
$DIMLIM
 70
     0
  9
$DIMTIH
 70
     0
  9
$DIMTOH
 70
     0
  9
$DIMSE1
 70
     0
  9
$DIMSE2
 70
     0
  9
$DIMTAD
 70
     3
  9
$DIMZIN
 70
     8
  9
$DIMBLK
  1
OPEN30
  9
$DIMASO
 70
     1
  9
$DIMSHO
 70
     1
  9
$DIMPOST
  1

  9
$DIMAPOST
  1
"
  9
$DIMALT
 70
     0
  9
$DIMALTD
 70
     2
  9
$DIMALTF
 40
0.0393701
  9
$DIMLFAC
 40
1.0
  9
$DIMTOFL
 70
     1
  9
$DIMTVP
 40
0.0
  9
$DIMTIX
 70
     0
  9
$DIMSOXD
 70
     0
  9
$DIMSAH
 70
     0
  9
$DIMBLK1
  1

  9
$DIMBLK2
  1

  9
$DIMSTYLE
  2
AM_JIS
  9
$DIMCLRD
 70
   256
  9
$DIMCLRE
 70
   256
  9
$DIMCLRT
 70
     2
  9
$DIMTFAC
 40
0.71
  9
$DIMGAP
 40
1.5
  9
$DIMJUST
 70
     0
  9
$DIMSD1
 70
     0
  9
$DIMSD2
 70
     0
  9
$DIMTOLJ
 70
     0
  9
$DIMTZIN
 70
     0
  9
$DIMALTZ
 70
     0
  9
$DIMALTTZ
 70
     0
  9
$DIMUPT
 70
     0
  9
$DIMDEC
 70
     2
  9
$DIMTDEC
 70
     3
  9
$DIMALTU
 70
     2
  9
$DIMALTTD
 70
     2
  9
$DIMTXSTY
  7
ASAMI
  9
$DIMAUNIT
 70
     0
  9
$DIMADEC
 70
     0
  9
$DIMALTRND
 40
0.0
  9
$DIMAZIN
 70
     2
  9
$DIMDSEP
 70
    46
  9
$DIMATFIT
 70
     3
  9
$DIMFRAC
 70
     0
  9
$DIMLDRBLK
  1
OPEN30
  9
$DIMLUNIT
 70
     2
  9
$DIMLWD
 70
    -1
  9
$DIMLWE
 70
    -1
  9
$DIMTMOVE
 70
     0
  9
$LUNITS
 70
     2
  9
$LUPREC
 70
     2
  9
$SKETCHINC
 40
1.0
  9
$FILLETRAD
 40
0.8
  9
$AUNITS
 70
     0
  9
$AUPREC
 70
     0
  9
$MENU
  1
.
  9
$ELEVATION
 40
0.0
  9
$PELEVATION
 40
0.0
  9
$THICKNESS
 40
0.0
  9
$LIMCHECK
 70
     0
  9
$CHAMFERA
 40
1.0
  9
$CHAMFERB
 40
1.0
  9
$CHAMFERC
 40
20.0
  9
$CHAMFERD
 40
0.0
  9
$SKPOLY
 70
     0
  9
$TDCREATE
 40
2452836.771637361
  9
$TDUCREATE
 40
2452836.396637361
  9
$TDUPDATE
 40
2455596.432029803
  9
$TDUUPDATE
 40
2455596.057029803
  9
$TDINDWG
 40
0.1599643403
  9
$TDUSRTIMER
 40
0.1599641551
  9
$USRTIMER
 70
     1
  9
$ANGBASE
 50
0.0
  9
$ANGDIR
 70
     0
  9
$PDMODE
 70
     0
  9
$PDSIZE
 40
0.0
  9
$PLINEWID
 40
0.0
  9
$SPLFRAME
 70
     0
  9
$SPLINETYPE
 70
     6
  9
$SPLINESEGS
 70
     8
  9
$HANDSEED
  5
8724
  9
$SURFTAB1
 70
     6
  9
$SURFTAB2
 70
     6
  9
$SURFTYPE
 70
     6
  9
$SURFU
 70
     6
  9
$SURFV
 70
     6
  9
$UCSBASE
  2

  9
$UCSNAME
  2

  9
$UCSORG
 10
0.0
 20
0.0
 30
0.0
  9
$UCSXDIR
 10
1.0
 20
0.0
 30
0.0
  9
$UCSYDIR
 10
0.0
 20
1.0
 30
0.0
  9
$UCSORTHOREF
  2

  9
$UCSORTHOVIEW
 70
     0
  9
$UCSORGTOP
 10
0.0
 20
0.0
 30
0.0
  9
$UCSORGBOTTOM
 10
0.0
 20
0.0
 30
0.0
  9
$UCSORGLEFT
 10
0.0
 20
0.0
 30
0.0
  9
$UCSORGRIGHT
 10
0.0
 20
0.0
 30
0.0
  9
$UCSORGFRONT
 10
0.0
 20
0.0
 30
0.0
  9
$UCSORGBACK
 10
0.0
 20
0.0
 30
0.0
  9
$PUCSBASE
  2

  9
$PUCSNAME
  2

  9
$PUCSORG
 10
0.0
 20
0.0
 30
0.0
  9
$PUCSXDIR
 10
1.0
 20
0.0
 30
0.0
  9
$PUCSYDIR
 10
0.0
 20
1.0
 30
0.0
  9
$PUCSORTHOREF
  2

  9
$PUCSORTHOVIEW
 70
     0
  9
$PUCSORGTOP
 10
0.0
 20
0.0
 30
0.0
  9
$PUCSORGBOTTOM
 10
0.0
 20
0.0
 30
0.0
  9
$PUCSORGLEFT
 10
0.0
 20
0.0
 30
0.0
  9
$PUCSORGRIGHT
 10
0.0
 20
0.0
 30
0.0
  9
$PUCSORGFRONT
 10
0.0
 20
0.0
 30
0.0
  9
$PUCSORGBACK
 10
0.0
 20
0.0
 30
0.0
  9
$USERI1
 70
     0
  9
$USERI2
 70
     0
  9
$USERI3
 70
     0
  9
$USERI4
 70
     0
  9
$USERI5
 70
     0
  9
$USERR1
 40
0.0
  9
$USERR2
 40
0.0
  9
$USERR3
 40
0.0
  9
$USERR4
 40
0.0
  9
$USERR5
 40
0.0
  9
$WORLDVIEW
 70
     1
  9
$SHADEDGE
 70
     3
  9
$SHADEDIF
 70
    70
  9
$TILEMODE
 70
     1
  9
$MAXACTVP
 70
    64
  9
$PINSBASE
 10
0.0
 20
0.0
 30
0.0
  9
$PLIMCHECK
 70
     0
  9
$PEXTMIN
 10
1.000000000000000E+20
 20
1.000000000000000E+20
 30
1.000000000000000E+20
  9
$PEXTMAX
 10
-1.000000000000000E+20
 20
-1.000000000000000E+20
 30
-1.000000000000000E+20
  9
$PLIMMIN
 10
0.0
 20
0.0
  9
$PLIMMAX
 10
841.0
 20
594.0
  9
$UNITMODE
 70
     0
  9
$VISRETAIN
 70
     1
  9
$PLINEGEN
 70
     0
  9
$PSLTSCALE
 70
     0
  9
$TREEDEPTH
 70
  3020
  9
$CMLSTYLE
  2
STANDARD
  9
$CMLJUST
 70
     0
  9
$CMLSCALE
 40
20.0
  9
$PROXYGRAPHICS
 70
     1
  9
$MEASUREMENT
 70
     1
  9
$CELWEIGHT
370
    -1
  9
$ENDCAPS
280
     0
  9
$JOINSTYLE
280
     0
  9
$LWDISPLAY
290
     0
  9
$INSUNITS
 70
     4
  9
$HYPERLINKBASE
  1

  9
$STYLESHEET
  1
ASAMI.CTB
  9
$XEDIT
290
     1
  9
$CEPSNTYPE
380
     0
  9
$PSTYLEMODE
290
     1
  9
$FINGERPRINTGUID
  2
{AFB28963-8C59-40AE-9337-C84526B81ACE}
  9
$VERSIONGUID
  2
{B738596B-B9F2-4F7E-85CC-23DBF24606D4}
  9
$EXTNAMES
290
     1
  9
$PSVPSCALE
 40
0.0
  9
$OLESTARTUP
290
     0
  0
ENDSEC
  0
SECTION
  2
CLASSES
  0
CLASS
  1
ACDBDICTIONARYWDFLT
  2
AcDbDictionaryWithDefault
  3
ObjectDBX Classes
 90
        0
280
     0
281
     0
  0
CLASS
  1
ACDBPLACEHOLDER
  2
AcDbPlaceHolder
  3
ObjectDBX Classes
 90
        0
280
     0
281
     0
  0
CLASS
  1
LAYOUT
  2
AcDbLayout
  3
ObjectDBX Classes
 90
        0
280
     0
281
     0
  0
CLASS
  1
AMGSETTINGSOBJ
  2
AmgSettingsObj
  3
"AcadM|Product Description: AutoCAD Mechanical 2000|Company: Autodesk"
 90
        0
280
     0
281
     0
  0
CLASS
  1
ACME_DOCUMENT
  2
AcMeDbDoc
  3
AcMeServices
 90
        0
280
     0
281
     0
  0
CLASS
  1
ACMESCOPE
  2
AcMeScope
  3
AcMeServices
 90
        0
280
     0
281
     0
  0
CLASS
  1
ACMECOMMANDHISTORY
  2
AcMeCommandHistory
  3
AcMeServices
 90
        0
280
     0
281
     0
  0
CLASS
  1
DICTIONARYVAR
  2
AcDbDictionaryVar
  3
ObjectDBX Classes
 90
        0
280
     0
281
     0
  0
CLASS
  1
ACIMSYSVARMAN
  2
AcImSysVarManager
  3
AcMeServices
 90
        0
280
     0
281
     0
  0
CLASS
  1
ACIMREALSYSVAR
  2
AcImRealSysVar
  3
AcMeServices
 90
        0
280
     0
281
     0
  0
CLASS
  1
ACIMINTSYSVAR
  2
AcImIntSysVar
  3
AcMeServices
 90
        0
280
     0
281
     0
  0
CLASS
  1
ACMEDRAWINGMAN
  2
AcMeDrawingMan
  3
AcMeServices
 90
        0
280
     0
281
     0
  0
CLASS
  1
ACMEVIEW
  2
AcMeView
  3
AcMeServices
 90
        0
280
     0
281
     0
  0
CLASS
  1
ACDBENTITYCACHE
  2
AcMeEntityCache
  3
AcMeServices
 90
        0
280
     0
281
     0
  0
CLASS
  1
GSMANAGER
  2
AcMeGSManager
  3
AcMeServices
 90
        0
280
     0
281
     0
  0
CLASS
  1
AMDTINTERNALREACTOR
  2
AmdtInternalReactor
  3
AcMeServices
 90
        0
280
     0
281
     0
  0
CLASS
  1
ACMESTATEMGR
  2
AcMeStateMgr
  3
AcMeServices
 90
        0
280
     0
281
     0
  0
CLASS
  1
ACME_DATABASE
  2
AcMeDbDatabase
  3
AcMeServices
 90
        0
280
     0
281
     0
  0
CLASS
  1
ACRFINSADJUSTERMGR
  2
AcRfInsAdjusterMgr
  3
AcMeServices
 90
        0
280
     0
281
     0
  0
CLASS
  1
ACMDATADICTIONARY
  2
AcmDataDictionary
  3
"AcmSymBB|Product Description: AutoCAD Mechanical 2004 DX|Company: Autodesk"
 90
        0
280
     0
281
     0
  0
CLASS
  1
ACMDATAENTRYBLOCK
  2
AcmDataEntryBlock
  3
"AcmSymBB|Product Description: AutoCAD Mechanical 2004 DX|Company: Autodesk"
 90
    32768
280
     0
281
     0
  0
CLASS
  1
AMGOBJPROPCFG
  2
AmgObjPropCfg
  3
"AmgLay|Product Description: AutoCAD Mechanical 2000|Company: Autodesk"
 90
        1
280
     0
281
     0
  0
CLASS
  1
ACAMGFILTERDAT
  2
AcAmgFilterDat
  3
"AcadM|Product Description: AutoCAD Mechanical 2000|Company: Autodesk"
 90
    32768
280
     0
281
     0
  0
CLASS
  1
LAYER_INDEX
  2
AcDbLayerIndex
  3
ObjectDBX Classes
 90
        0
280
     0
281
     0
  0
CLASS
  1
IDBUFFER
  2
AcDbIdBuffer
  3
ObjectDBX Classes
 90
        0
280
     0
281
     0
  0
CLASS
  1
ACIMSTRSYSVAR
  2
AcImStrSysVar
  3
AcMeServices
 90
        0
280
     0
281
     0
  0
CLASS
  1
ACMSTANDARDJIS
  2
AcmStandardJIS
  3
"Amdt_StdImp|Product Description: AutoCAD Mechanical 2004 DX|Company: Autodesk"
 90
    32768
280
     0
281
     0
  0
CLASS
  1
ACMSURFSTANDARDJIS
  2
AcmSurfTextStdJIS
  3
"Amdt_StdImp|Product Description: AutoCAD Mechanical 2004 DX|Company: Autodesk"
 90
    32768
280
     0
281
     0
  0
CLASS
  1
ACMFCFSTANDARDJIS
  2
AcmFCFStdJIS
  3
"Amdt_StdImp|Product Description: AutoCAD Mechanical 2004 DX|Company: Autodesk"
 90
    32768
280
     0
281
     0
  0
CLASS
  1
ACMWELDSTANDARDJIS
  2
AcmWeldingStdJIS
  3
"Amdt_StdImp|Product Description: AutoCAD Mechanical 2004 DX|Company: Autodesk"
 90
    32768
280
     0
281
     0
  0
CLASS
  1
ACMIDSTANDARDJIS
  2
AcmIdStdJIS
  3
"Amdt_StdImp|Product Description: AutoCAD Mechanical 2004 DX|Company: Autodesk"
 90
    32768
280
     0
281
     0
  0
CLASS
  1
ACMDATUMSTANDARDJIS
  2
AcmDatumStdJIS
  3
"Amdt_StdImp|Product Description: AutoCAD Mechanical 2004 DX|Company: Autodesk"
 90
    32768
280
     0
281
     0
  0
CLASS
  1
ACMBOMSTANDARDJIS
  2
AcmBOMStdJIS
  3
"Amdt_StdImp|Product Description: AutoCAD Mechanical 2004 DX|Company: Autodesk"
 90
    32768
280
     0
281
     0
  0
CLASS
  1
ACMSTANDARDANSI
  2
AcmStandardANSI
  3
"Amdt_StdImp|Product Description: AutoCAD Mechanical 2004 DX|Company: Autodesk"
 90
    32768
280
     0
281
     0
  0
CLASS
  1
ACMSURFSTANDARDANSI
  2
AcmSurfTextStdANSI
  3
"Amdt_StdImp|Product Description: AutoCAD Mechanical 2004 DX|Company: Autodesk"
 90
    32768
280
     0
281
     0
  0
CLASS
  1
ACMFCFSTANDARDANSI
  2
AcmFCFStdANSI
  3
"Amdt_StdImp|Product Description: AutoCAD Mechanical 2004 DX|Company: Autodesk"
 90
    32768
280
     0
281
     0
  0
CLASS
  1
ACMWELDSTANDARDANSI
  2
AcmWeldingStdANSI
  3
"Amdt_StdImp|Product Description: AutoCAD Mechanical 2004 DX|Company: Autodesk"
 90
    32768
280
     0
281
     0
  0
CLASS
  1
ACMIDSTANDARDANSI
  2
AcmIdStdANSI
  3
"Amdt_StdImp|Product Description: AutoCAD Mechanical 2004 DX|Company: Autodesk"
 90
    32768
280
     0
281
     0
  0
CLASS
  1
ACMDATUMSTANDARDANSI
  2
AcmDatumStdANSI
  3
"Amdt_StdImp|Product Description: AutoCAD Mechanical 2004 DX|Company: Autodesk"
 90
    32768
280
     0
281
     0
  0
CLASS
  1
ACMBOMSTANDARDANSI
  2
AcmBOMStdANSI
  3
"Amdt_StdImp|Product Description: AutoCAD Mechanical 2004 DX|Company: Autodesk"
 90
    32768
280
     0
281
     0
  0
CLASS
  1
ACMSTANDARDBSI
  2
AcmStandardBSI
  3
"Amdt_StdImp|Product Description: AutoCAD Mechanical 2004 DX|Company: Autodesk"
 90
    32768
280
     0
281
     0
  0
CLASS
  1
ACMSURFSTANDARDBSI
  2
AcmSurfTextStdBSI
  3
"Amdt_StdImp|Product Description: AutoCAD Mechanical 2004 DX|Company: Autodesk"
 90
    32768
280
     0
281
     0
  0
CLASS
  1
ACMFCFSTANDARDBSI
  2
AcmFCFStdBSI
  3
"Amdt_StdImp|Product Description: AutoCAD Mechanical 2004 DX|Company: Autodesk"
 90
    32768
280
     0
281
     0
  0
CLASS
  1
ACMWELDSTANDARDBSI
  2
AcmWeldingStdBSI
  3
"Amdt_StdImp|Product Description: AutoCAD Mechanical 2004 DX|Company: Autodesk"
 90
    32768
280
     0
281
     0
  0
CLASS
  1
ACMIDSTANDARDBSI
  2
AcmIdStdBSI
  3
"Amdt_StdImp|Product Description: AutoCAD Mechanical 2004 DX|Company: Autodesk"
 90
    32768
280
     0
281
     0
  0
CLASS
  1
ACMDATUMSTANDARDBSI
  2
AcmDatumStdBSI
  3
"Amdt_StdImp|Product Description: AutoCAD Mechanical 2004 DX|Company: Autodesk"
 90
    32768
280
     0
281
     0
  0
CLASS
  1
ACMBOMSTANDARDBSI
  2
AcmBOMStdBSI
  3
"Amdt_StdImp|Product Description: AutoCAD Mechanical 2004 DX|Company: Autodesk"
 90
    32768
280
     0
281
     0
  0
CLASS
  1
TABLESTYLE
  2
AcDbTableStyle
  3
ObjectDBX Classes
 90
     2047
280
     0
281
     0
  0
CLASS
  1
ACGREFMASTER
  2
AcGrefMaster
  3
AcAttribServices
 90
        0
280
     0
281
     0
  0
CLASS
  1
AM_DRAWING_MGR
  2
AcDmDwgMgr
  3
AcMechDwgViewMgmt
 90
        0
280
     0
281
     0
  0
CLASS
  1
AM_DWG_DOCUMENT
  2
AcDmDwgDocument
  3
AcMechDwgViewMgmt
 90
        0
280
     0
281
     0
  0
CLASS
  1
AM_DWG_SHEET
  2
AcDmSheet
  3
AcMechDwgViewMgmt
 90
        0
280
     0
281
     0
  0
CLASS
  1
AM_VIEWDIMPARMAP
  2
AcDmViewDimParMap
  3
AcMechDwgViewMgmt
 90
        0
280
     0
281
     0
  0
CLASS
  1
AM_DWGMGR_NAME
  2
AcDmDwgMgrName
  3
AcMechDwgViewMgmt
 90
        0
280
     0
281
     0
  0
CLASS
  1
ACGREFACADMASTER
  2
AcGrefacadMaster
  3
AcGrefServices
 90
        0
280
     0
281
     0
  0
CLASS
  1
AMDTMENUSTATEMGR
  2
AmdtMenuStateMgr
  3
McadcomServices
 90
        0
280
     0
281
     0
  0
CLASS
  1
AMDTMCOMMENUSTATE
  2
AmdtMcomMenuState
  3
McadcomServices
 90
        0
280
     0
281
     0
  0
CLASS
  1
AMIMASTER
  2
AmiMaster
  3
AmiServices
 90
        0
280
     0
281
     0
  0
CLASS
  1
MAPIAMMOUDLE
  2
MApiAmModule
  3
MApiAmServices
 90
        0
280
     0
281
     0
  0
CLASS
  1
AMDTADMENUSTATE
  2
AmdtAdMenuState
  3
DesignerServices
 90
        0
280
     0
281
     0
  0
CLASS
  1
ADAPPL
  2
AcAdAppl
  3
DesignerServices
 90
        0
280
     0
281
     0
  0
CLASS
  1
DEPMGR
  2
AcAdDepMgr
  3
DesignerServices
 90
        0
280
     0
281
     0
  0
CLASS
  1
PARAMMGR
  2
AcAdParamMgr
  3
DesignerServices
 90
        0
280
     0
281
     0
  0
CLASS
  1
PARAMSCOPE
  2
AcAdParamScope
  3
DesignerServices
 90
        0
280
     0
281
     0
  0
CLASS
  1
NAMEDAPPL
  2
AcAdNamedAppl
  3
DesignerServices
 90
        0
280
     0
281
     0
  0
CLASS
  1
AMDTDMMENUSTATE
  2
AmdtDmMenuState
  3
AcMechDwgViewMgmt
 90
        0
280
     0
281
     0
  0
CLASS
  1
AMDTAMMENUSTATE
  2
AmdtAmMenuState
  3
DesignerAssemblies
 90
        0
280
     0
281
     0
  0
CLASS
  1
ACAMPROJECT
  2
AcAmProject
  3
DesignerAssemblies
 90
        0
280
     0
281
     0
  0
CLASS
  1
ACAMGRCOMPDEF
  2
AcAmGrCompDef
  3
DesignerAssemblies
 90
        0
280
     0
281
     0
  0
CLASS
  1
ACCMCONTEXT
  2
AcCmContext
  3
DesignerAssemblies
 90
        0
280
     0
281
     0
  0
CLASS
  1
ACAMCOMPDEF
  2
AcAmCompDef
  3
DesignerAssemblies
 90
        0
280
     0
281
     0
  0
CLASS
  1
ACAMCOMPDEFMGR
  2
AcAmCompDefMgr
  3
DesignerAssemblies
 90
        0
280
     0
281
     0
  0
CLASS
  1
AMCONTEXTMGR
  2
AcAmContextMgr
  3
DesignerAssemblies
 90
        0
280
     0
281
     0
  0
CLASS
  1
ACAMCONTEXTMODELER
  2
AcAmContextModeler
  3
DesignerAssemblies
 90
        0
280
     0
281
     0
  0
CLASS
  1
CATALOGSTATE
  2
AcAmCatalogState
  3
DesignerAssemblies
 90
        0
280
     0
281
     0
  0
CLASS
  1
ACAMGRCOMPDEFSET
  2
AcAmGrCompDefSet
  3
DesignerAssemblies
 90
        0
280
     0
281
     0
  0
CLASS
  1
AMDTBROWSERDBTAB
  2
AmdtBrowserDbTab
  3
McadcomServices
 90
        0
280
     0
281
     0
  0
CLASS
  1
CBROWSERAPPOBJECT
  2
CBrowserAppObject
  3
McadcomServices
 90
        0
280
     0
281
     0
  0
CLASS
  1
DM_PLACEHOLDER
  2
AcDmSelsetPlaceholder
  3
AcMechDwgViewMgmt
 90
        0
280
     0
281
     0
  0
CLASS
  1
ACMSTANDARDISO
  2
AcmStandardISO
  3
"Amdt_StdImp|Product Description: AutoCAD Mechanical 2004 DX|Company: Autodesk"
 90
        0
280
     0
281
     0
  0
CLASS
  1
AMDTEDGESTANDARDISO13715
  2
AmdtEdgeStdISO13715
  3
"Amdt_StdImp|Product Description: AutoCAD Mechanical 2004 DX|Company: Autodesk"
 90
        0
280
     0
281
     0
  0
CLASS
  1
ACMSURFSTANDARDISO
  2
AcmSurfTextStdISO
  3
"Amdt_StdImp|Product Description: AutoCAD Mechanical 2004 DX|Company: Autodesk"
 90
        0
280
     0
281
     0
  0
CLASS
  1
ACMFCFSTANDARDISO
  2
AcmFCFStdISO
  3
"Amdt_StdImp|Product Description: AutoCAD Mechanical 2004 DX|Company: Autodesk"
 90
        0
280
     0
281
     0
  0
CLASS
  1
ACMWELDSTANDARDISO
  2
AcmWeldingStdISO
  3
"Amdt_StdImp|Product Description: AutoCAD Mechanical 2004 DX|Company: Autodesk"
 90
        0
280
     0
281
     0
  0
CLASS
  1
ACMIDSTANDARDISO
  2
AcmIdStdISO
  3
"Amdt_StdImp|Product Description: AutoCAD Mechanical 2004 DX|Company: Autodesk"
 90
        0
280
     0
281
     0
  0
CLASS
  1
ACMDATUMSTANDARDISO
  2
AcmDatumStdISO
  3
"Amdt_StdImp|Product Description: AutoCAD Mechanical 2004 DX|Company: Autodesk"
 90
        0
280
     0
281
     0
  0
CLASS
  1
ACMBOMSTANDARDISO
  2
AcmBOMStdISO
  3
"Amdt_StdImp|Product Description: AutoCAD Mechanical 2004 DX|Company: Autodesk"
 90
        0
280
     0
281
     0
  0
CLASS
  1
ACMDETAILSTANDARDISO
  2
AmdtDetailSymStdISO
  3
"Amdt_StdImp|Product Description: AutoCAD Mechanical 2004 DX|Company: Autodesk"
 90
        0
280
     0
281
     0
  0
CLASS
  1
ACMSECTIONSTANDARDISO
  2
AmdtSectionSymStdISO
  3
"Amdt_StdImp|Product Description: AutoCAD Mechanical 2004 DX|Company: Autodesk"
 90
        0
280
     0
281
     0
  0
CLASS
  1
ACMCENTERLINESTANDARDISO
  2
AmdtCenterLineStdISO
  3
"Amdt_StdImp|Product Description: AutoCAD Mechanical 2004 DX|Company: Autodesk"
 90
        0
280
     0
281
     0
  0
CLASS
  1
ACMTHREADLINESTANDARDISO
  2
AmdtThreadLineStdISO
  3
"Amdt_StdImp|Product Description: AutoCAD Mechanical 2004 DX|Company: Autodesk"
 90
        0
280
     0
281
     0
  0
CLASS
  1
ACMNOTESTANDARDISO
  2
AmdtNoteStdISO
  3
"Amdt_StdImp|Product Description: AutoCAD Mechanical 2004 DX|Company: Autodesk"
 90
        0
280
     0
281
     0
  0
CLASS
  1
AMDTNOTETEMPLATEDB
  2
AmdtNoteTemplateDB
  3
AMDT_STDIMP_MODULE_NAME
 90
        0
280
     0
281
     0
  0
CLASS
  1
ACAMGLAYSTD
  2
AcAmgLayStd
  3
"AcAmgLayStd|Product Description: AutoCAD Mechanical 2000|Company: Autodesk"
 90
        0
280
     0
281
     0
  0
CLASS
  1
ACAMGDIMSTD
  2
AcAmgDimStd
  3
"AcAmgDimStd|Product Description: AutoCAD Mechanical 2000|Company: Autodesk"
 90
        0
280
     0
281
     0
  0
CLASS
  1
ACAMGHOLECHARTSTDISO
  2
AcAmgHoleChartStdISO
  3
ACMSYMBB_MODULE_NAME
 90
        0
280
     0
281
     0
  0
CLASS
  1
ACAMGTITLESTD
  2
AcAmgTitleStd
  3
"TITLEAPP"
 90
        0
280
     0
281
     0
  0
CLASS
  1
ACRFATTGENMGR
  2
AcRfAttGeneralMgr
  3
AcAttribServices
 90
    32768
280
     0
281
     0
  0
ENDSEC
  0
SECTION
  2
TABLES
  0
TABLE
  2
VPORT
  5
8
330
0
100
AcDbSymbolTable
 70
     4
  0
VPORT
  5
871B
330
8
100
AcDbSymbolTableRecord
100
AcDbViewportTableRecord
  2
*Active
 70
     0
 10
0.0
 20
0.0
 11
1.0
 21
1.0
 12
-28.78847812826018
 22
-22.638656706687
 13
0.0
 23
0.0
 14
2.5
 24
2.5
 15
10.0
 25
10.0
 16
0.0
 26
0.0
 36
1.0
 17
0.0
 27
0.0
 37
0.0
 40
226.6751100382768
 41
2.002364066193853
 42
50.0
 43
0.0
 44
0.0
 50
0.0
 51
0.0
 71
     0
 72
   100
 73
     1
 74
     3
 75
     0
 76
     0
 77
     0
 78
     0
281
     0
 65
     0
110
0.0
120
0.0
130
0.0
111
1.0
121
0.0
131
0.0
112
0.0
122
1.0
132
0.0
 79
     0
146
0.0
  0
ENDTAB
  0
TABLE
  2
LTYPE
  5
5
330
0
100
AcDbSymbolTable
 70
    14
  0
LTYPE
  5
14
330
5
100
AcDbSymbolTableRecord
100
AcDbLinetypeTableRecord
  2
BYBLOCK
 70
     0
  3

 72
    65
 73
     0
 40
0.0
  0
LTYPE
  5
15
330
5
100
AcDbSymbolTableRecord
100
AcDbLinetypeTableRecord
  2
BYLAYER
 70
     0
  3

 72
    65
 73
     0
 40
0.0
  0
LTYPE
  5
16
330
5
100
AcDbSymbolTableRecord
100
AcDbLinetypeTableRecord
  2
CONTINUOUS
 70
     0
  3
Solid line
 72
    65
 73
     0
 40
0.0
  0
LTYPE
  5
4B
330
5
100
AcDbSymbolTableRecord
100
AcDbLinetypeTableRecord
  2
AM_ISO02W050
 70
     0
  3
__ __ __ __ __ __ __ __ __ __ __ __ __ __ __
 72
    65
 73
     2
 40
7.5
 49
6.0
 74
     0
 49
-1.5
 74
     0
  0
LTYPE
  5
4C
330
5
100
AcDbSymbolTableRecord
100
AcDbLinetypeTableRecord
  2
AM_ISO08W050
 70
     0
  3
____ . ____ . ____ . ____ . ____ . ____ . ____
 72
    65
 73
     4
 40
18.0
 49
12.0
 74
     0
 49
-1.5
 74
     0
 49
3.0
 74
     0
 49
-1.5
 74
     0
  0
LTYPE
  5
4D
330
5
100
AcDbSymbolTableRecord
100
AcDbLinetypeTableRecord
  2
AM_ISO09W050
 70
     0
  3
_____ . . _____ . . _____ . . ____ .. ____
 72
    65
 73
     6
 40
22.5
 49
12.0
 74
     0
 49
-1.5
 74
     0
 49
3.0
 74
     0
 49
-1.5
 74
     0
 49
3.0
 74
     0
 49
-1.5
 74
     0
  0
LTYPE
  5
4E
330
5
100
AcDbSymbolTableRecord
100
AcDbLinetypeTableRecord
  2
AMCONSTR
 70
     0
  3
_______________________
 72
    65
 73
     2
 40
9999.0
 49
9999.0
 74
     0
 49
0.0
 74
     0
  0
LTYPE
  5
4F
330
5
100
AcDbSymbolTableRecord
100
AcDbLinetypeTableRecord
  2
AM_ISO02W050X2
 70
     0
  3
 _ _ _ _ _ _ _ _ _ _ _ _
 72
    65
 73
     2
 40
3.75
 49
3.0
 74
     0
 49
-0.75
 74
     0
  0
LTYPE
  5
50
330
5
100
AcDbSymbolTableRecord
100
AcDbLinetypeTableRecord
  2
AM_ISO08W050X2
 70
     0
  3
__ . __ . __ . __ . __ . __
 72
    65
 73
     4
 40
9.0
 49
6.0
 74
     0
 49
-0.75
 74
     0
 49
1.5
 74
     0
 49
-0.75
 74
     0
  0
LTYPE
  5
53
330
5
100
AcDbSymbolTableRecord
100
AcDbLinetypeTableRecord
  2
AMZIGZAG
 70
     0
  3
/\/-/\/-/\/-/\/-/\/-/\/
 72
    65
 73
     2
 40
11.00009999999999
 49
0.0001
 74
     4
 75
   135
340
52
 46
0.04
 50
0.0
 44
0.0
 45
0.0
 49
-11.0
 74
     0
  0
LTYPE
  5
8429
330
5
100
AcDbSymbolTableRecord
100
AcDbLinetypeTableRecord
  2
HIDDEN
 70
     0
  3
Hidden __ __ __ __ __ __ __ __ __ __ __ __ __ _
 72
    65
 73
     2
 40
9.524999999999996
 49
6.349999999999998
 74
     0
 49
-3.174999999999998
 74
     0
  0
LTYPE
  5
842A
330
5
100
AcDbSymbolTableRecord
100
AcDbLinetypeTableRecord
  2
PHANTOM2
 70
     0
  3
Phantom (.5x) ___ _ _ ___ _ _ ___ _ _ ___ _ _
 72
    65
 73
     6
 40
31.75
 49
15.875
 74
     0
 49
-3.174999999999998
 74
     0
 49
3.174999999999998
 74
     0
 49
-3.174999999999998
 74
     0
 49
3.174999999999998
 74
     0
 49
-3.174999999999998
 74
     0
  0
LTYPE
  5
842B
330
5
100
AcDbSymbolTableRecord
100
AcDbLinetypeTableRecord
  2
CENTER
 70
     0
  3
Center ____ _ ____ _ ____ _ ____ _ ____ _ ____
 72
    65
 73
     4
 40
50.8
 49
31.75
 74
     0
 49
-6.349999999999998
 74
     0
 49
6.349999999999998
 74
     0
 49
-6.349999999999998
 74
     0
  0
LTYPE
  5
846B
330
5
100
AcDbSymbolTableRecord
100
AcDbLinetypeTableRecord
  2
ACISOWELD
 70
     0
  3
_ _ _ _ _
 72
    65
 73
     2
 40
2.0
 49
2.0
 74
     0
 49
-1.0
 74
     0
  0
LTYPE
  5
846C
330
5
100
AcDbSymbolTableRecord
100
AcDbLinetypeTableRecord
  2
ACISOTGB
 70
     0
  3
__ . . __ . .
 72
    65
 73
     6
 40
9.0
 49
4.0
 74
     0
 49
-1.0
 74
     0
 49
1.0
 74
     0
 49
-1.0
 74
     0
 49
1.0
 74
     0
 49
-1.0
 74
     0
  0
LTYPE
  5
846D
330
5
100
AcDbSymbolTableRecord
100
AcDbLinetypeTableRecord
  2
ACISOTGL
 70
     0
  3
_ _ _ _ _
 72
    65
 73
     2
 40
3.0
 49
2.0
 74
     0
 49
-1.0
 74
     0
  0
ENDTAB
  0
TABLE
  2
LAYER
  5
2
330
0
100
AcDbSymbolTable
 70
     7
  0
LAYER
  5
10
330
2
100
AcDbSymbolTableRecord
100
AcDbLayerTableRecord
  2
0
 70
     0
 62
     7
  6
CONTINUOUS
370
    -3
390
F
  0
LAYER
  5
3F9
330
2
100
AcDbSymbolTableRecord
100
AcDbLayerTableRecord
  2
AM_0
 70
     0
 62
     7
  6
CONTINUOUS
370
    -3
390
F
  0
LAYER
  5
BD5
330
2
100
AcDbSymbolTableRecord
100
AcDbLayerTableRecord
  2
AM_7
 70
     0
 62
     4
  6
AM_ISO08W050
370
    -3
390
F
  0
LAYER
  5
BD6
330
2
100
AcDbSymbolTableRecord
100
AcDbLayerTableRecord
  2
AM_5
 70
     0
 62
     3
  6
CONTINUOUS
370
    -3
390
F
  0
LAYER
  5
BD7
330
2
100
AcDbSymbolTableRecord
100
AcDbLayerTableRecord
  2
DEFPOINTS
 70
     0
 62
     7
  6
CONTINUOUS
290
     0
370
    -3
390
F
  0
LAYER
  5
E59
330
2
100
AcDbSymbolTableRecord
100
AcDbLayerTableRecord
  2
AM_6
 70
     0
 62
     2
  6
CONTINUOUS
370
    -3
390
F
  0
LAYER
  5
1E31
330
2
100
AcDbSymbolTableRecord
100
AcDbLayerTableRecord
  2
AM_11
 70
     0
 62
     3
  6
AM_ISO09W050
370
    -3
390
F
  0
ENDTAB
  0
TABLE
  2
STYLE
  5
3
330
0
100
AcDbSymbolTable
 70
     5
  0
STYLE
  5
11
330
3
100
AcDbSymbolTableRecord
100
AcDbTextStyleTableRecord
  2
STANDARD
 70
     0
 40
0.0
 41
1.0
 50
0.0
 71
     0
 42
2.5
  3
simplex.shx
  4
EXTFONT.SHX
  0
STYLE
  5
52
330
3
100
AcDbSymbolTableRecord
100
AcDbTextStyleTableRecord
  2

 70
     1
 40
0.0
 41
1.0
 50
0.0
 71
     0
 42
2.5
  3
ltypeshp.shx
  4

  0
STYLE
  5
6B
330
3
100
AcDbSymbolTableRecord
100
AcDbTextStyleTableRecord
  2
ASAMI
 70
     0
 40
0.0
 41
1.0
 50
0.0
 71
     0
 42
2.5
  3
simplex.shx
  4
EXTFONT.SHX
  0
STYLE
  5
845D
330
3
100
AcDbSymbolTableRecord
100
AcDbTextStyleTableRecord
  2
ACISOTS
 70
     0
 40
1.0
 41
1.0
 50
0.0
 71
     0
 42
2.5
  3
isocp.shx
  4
extfont.shx
  0
STYLE
  5
846A
330
3
100
AcDbSymbolTableRecord
100
AcDbTextStyleTableRecord
  2
ACISOGDT
 70
     0
 40
0.0
 41
1.0
 50
0.0
 71
     0
 42
2.5
  3
amgdt.shx
  4

  0
ENDTAB
  0
TABLE
  2
VIEW
  5
6
330
0
100
AcDbSymbolTable
 70
     0
  0
ENDTAB
  0
TABLE
  2
UCS
  5
7
330
0
100
AcDbSymbolTable
 70
     0
  0
ENDTAB
  0
TABLE
  2
APPID
  5
9
330
0
100
AcDbSymbolTable
 70
    20
  0
APPID
  5
12
330
9
100
AcDbSymbolTableRecord
100
AcDbRegAppTableRecord
  2
ACAD
 70
     0
  0
APPID
  5
30
330
9
100
AcDbSymbolTableRecord
100
AcDbRegAppTableRecord
  2
MCAD_NO_VIS
 70
     0
  0
APPID
  5
31
330
9
100
AcDbSymbolTableRecord
100
AcDbRegAppTableRecord
  2
ACAD_TEMP_GRAPHIC
 70
     0
  0
APPID
  5
2C2
330
9
100
AcDbSymbolTableRecord
100
AcDbRegAppTableRecord
  2
GENIUS_GENDTOL_13
 70
     0
  0
APPID
  5
339
330
9
100
AcDbSymbolTableRecord
100
AcDbRegAppTableRecord
  2
GENIUS_GENODEF_13
 70
     0
  0
APPID
  5
33A
330
9
100
AcDbSymbolTableRecord
100
AcDbRegAppTableRecord
  2
GENIUS_GENOBJ-N-RSBK_13
 70
     0
  0
APPID
  5
33B
330
9
100
AcDbSymbolTableRecord
100
AcDbRegAppTableRecord
  2
GENIUS_GENOBJ-N-LIB_13
 70
     0
  0
APPID
  5
33C
330
9
100
AcDbSymbolTableRecord
100
AcDbRegAppTableRecord
  2
GENIUS_GENSCALE_13
 70
     0
  0
APPID
  5
378
330
9
100
AcDbSymbolTableRecord
100
AcDbRegAppTableRecord
  2
GENIUS_GENDIMSH_14
 70
     0
  0
APPID
  5
BD8
330
9
100
AcDbSymbolTableRecord
100
AcDbRegAppTableRecord
  2
GENIUS_GENOBJ-N-CEN_13
 70
     0
  0
APPID
  5
BD9
330
9
100
AcDbSymbolTableRecord
100
AcDbRegAppTableRecord
  2
GENIUS_GENFIL_13
 70
     0
  0
APPID
  5
BDA
330
9
100
AcDbSymbolTableRecord
100
AcDbRegAppTableRecord
  2
GENIUS_GENOBJ-N-CHA_13
 70
     0
  0
APPID
  5
2BC1
330
9
100
AcDbSymbolTableRecord
100
AcDbRegAppTableRecord
  2
GENIUS_GENOBJ-N-FIL_13
 70
     0
  0
APPID
  5
842D
330
9
100
AcDbSymbolTableRecord
100
AcDbRegAppTableRecord
  2
AD_DRAW
 70
     0
  0
APPID
  5
8430
330
9
100
AcDbSymbolTableRecord
100
AcDbRegAppTableRecord
  2
ACATTRIBSERVICES
 70
     0
  0
APPID
  5
844E
330
9
100
AcDbSymbolTableRecord
100
AcDbRegAppTableRecord
  2
DESIGNERASSEMBLIES
 70
     0
  0
APPID
  5
8453
330
9
100
AcDbSymbolTableRecord
100
AcDbRegAppTableRecord
  2
ACADM_DIM_EDIT
 70
     0
  0
APPID
  5
8454
330
9
100
AcDbSymbolTableRecord
100
AcDbRegAppTableRecord
  2
AMDT_DM_ADJ
 70
     0
  0
APPID
  5
8480
330
9
100
AcDbSymbolTableRecord
100
AcDbRegAppTableRecord
  2
GENIUS_GENSCREG_15
 70
     0
  0
APPID
  5
8481
330
9
100
AcDbSymbolTableRecord
100
AcDbRegAppTableRecord
  2
GENIUS_GENOBJ-N-SDF_13
 70
     0
  0
ENDTAB
  0
TABLE
  2
DIMSTYLE
  5
A
330
0
100
AcDbSymbolTable
 70
    11
100
AcDbDimStyleTable
 71
     1
340
58
  0
DIMSTYLE
105
58
102
{ACAD_REACTORS
330
7D7E
330
7D7D
330
7D7F
330
7D80
330
7D81
330
7D82
330
7D83
102
}
330
A
100
AcDbSymbolTableRecord
100
AcDbDimStyleTableRecord
  2
AM_JIS
 70
     0
  4
"
 41
2.5
 42
1.0
 43
12.0
 44
1.0
 47
0.1
 48
0.1
 73
     0
 74
     0
 77
     3
 78
     8
140
3.2
141
0.0
143
0.0393701
146
0.71
147
1.5
172
     1
176
   256
177
   256
178
     2
271
     3
272
     3
283
     0
340
6B
341
59
342
59
  0
DIMSTYLE
105
B34
102
{ACAD_REACTORS
330
860C
102
}
330
A
100
AcDbSymbolTableRecord
100
AcDbDimStyleTableRecord
  2
AM_JIS$2
 70
     0
  4
"
 41
2.5
 42
1.0
 43
12.0
 44
1.0
 47
0.1
 48
0.1
 73
     0
 74
     0
 77
     3
 78
     8
140
3.2
141
0.0
143
0.0393701
146
0.71
147
1.5
172
     1
176
   256
177
   256
178
     2
271
     3
272
     3
283
     0
340
6B
341
59
342
59
  0
DIMSTYLE
105
1E42
102
{ACAD_REACTORS
330
82E6
330
8654
102
}
330
A
100
AcDbSymbolTableRecord
100
AcDbDimStyleTableRecord
  2
AM_JIS$0
 70
     0
  4
"
 40
2.0
 41
2.5
 42
1.0
 43
10.0
 44
1.0
 47
0.1
 48
0.1
 73
     0
 74
     0
 77
     3
 78
     8
140
2.5
141
0.0
143
0.0393701
146
0.71
147
1.0
172
     1
176
   256
177
   256
178
     4
271
     3
272
     3
283
     0
340
6B
341
59
342
59
  0
DIMSTYLE
105
8477
330
A
100
AcDbSymbolTableRecord
100
AcDbDimStyleTableRecord
  2
AM_ISO
 70
     0
  4
"
 41
2.5
 42
1.0
 43
10.0
 44
1.0
 47
0.1
 48
0.1
 73
     0
 74
     0
 77
     1
 78
     8
 79
     2
140
3.5
141
0.0
143
0.0393701
146
0.71
147
1.5
172
     1
176
   256
177
   256
178
     2
271
     2
272
     3
274
     4
283
     0
284
     8
340
11
371
    -1
372
    -1
  0
DIMSTYLE
105
8478
330
A
100
AcDbSymbolTableRecord
100
AcDbDimStyleTableRecord
  2
AM_ISO$3
 70
     0
  4
"
 41
2.5
 42
1.0
 43
10.0
 44
1.0
 47
0.1
 48
0.1
 73
     0
 77
     1
 78
     8
 79
     2
140
3.5
141
0.0
143
0.0393701
146
0.71
147
1.5
176
   256
177
   256
178
     2
271
     2
272
     3
274
     4
283
     0
284
     8
288
     1
289
     0
340
11
371
    -1
372
    -1
  0
DIMSTYLE
105
8479
330
A
100
AcDbSymbolTableRecord
100
AcDbDimStyleTableRecord
  2
AM_ISO$4
 70
     0
  4
"
 41
2.5
 42
1.0
 43
10.0
 44
1.0
 47
0.1
 48
0.1
 73
     0
 77
     1
 78
     8
 79
     2
140
3.5
141
0.0
143
0.0393701
146
0.71
147
1.5
176
   256
177
   256
178
     2
271
     2
272
     3
274
     4
283
     0
284
     8
288
     1
289
     0
340
11
371
    -1
372
    -1
  0
DIMSTYLE
105
847A
330
A
100
AcDbSymbolTableRecord
100
AcDbDimStyleTableRecord
  2
AM_ISO$6
 70
     0
  4
"
 41
2.5
 42
1.0
 43
10.0
 44
1.0
 47
0.1
 48
0.1
 73
     0
 74
     0
 78
     8
 79
     2
140
3.5
141
0.0
143
0.0393701
146
0.71
147
1.5
172
     1
176
   256
177
   256
178
     2
271
     2
272
     3
274
     4
283
     0
284
     8
340
11
371
    -1
372
    -1
  0
DIMSTYLE
105
847B
330
A
100
AcDbSymbolTableRecord
100
AcDbDimStyleTableRecord
  2
AM_ISO$7
 70
     0
  4
"
 41
2.5
 42
1.0
 43
10.0
 44
1.0
 47
0.1
 48
0.1
 73
     0
 74
     0
 77
     1
 78
     8
 79
     2
140
5.0
141
0.0
143
0.0393701
146
0.71
147
1.5
172
     1
176
   256
177
   256
178
     2
271
     2
272
     3
274
     4
283
     0
284
     8
340
11
371
    -1
372
    -1
  0
DIMSTYLE
105
847C
330
A
100
AcDbSymbolTableRecord
100
AcDbDimStyleTableRecord
  2
AM_ISO$SF
 70
     0
  4
"
 41
2.5
 42
1.0
 43
10.0
 44
1.0
 47
0.1
 48
0.1
 73
     0
 74
     0
 75
     1
 76
     1
 77
     1
 78
     8
 79
     2
140
3.5
141
0.0
143
0.0393701
146
0.71
147
1.5
172
     1
176
   256
177
   256
178
     2
271
     2
272
     3
274
     4
283
     0
284
     8
340
11
371
    -1
372
    -1
  0
DIMSTYLE
105
847D
330
A
100
AcDbSymbolTableRecord
100
AcDbDimStyleTableRecord
  2
AM_ISO$SH
 70
     0
  4
"
 41
2.5
 42
1.0
 43
10.0
 44
1.0
 47
0.1
 48
0.1
 73
     0
 74
     0
 75
     1
 76
     1
 77
     1
 78
     8
 79
     2
140
3.5
141
0.0
143
0.0393701
144
2.0
146
0.71
147
1.5
172
     1
173
     1
176
   256
177
   256
178
     2
271
     2
272
     3
274
     4
283
     0
284
     8
340
11
343
64
371
    -1
372
    -1
  0
DIMSTYLE
105
8484
330
A
100
AcDbSymbolTableRecord
100
AcDbDimStyleTableRecord
  2
STANDARD
 70
     0
340
11
  0
ENDTAB
  0
TABLE
  2
BLOCK_RECORD
  5
1
330
0
100
AcDbSymbolTable
 70
    13
  0
BLOCK_RECORD
  5
1F
102
{ACAD_XDICTIONARY
360
74
102
}
330
1
100
AcDbSymbolTableRecord
100
AcDbBlockTableRecord
  2
*MODEL_SPACE
340
83F6
  0
BLOCK_RECORD
  5
101
102
{ACAD_XDICTIONARY
360
83EA
102
}
330
1
100
AcDbSymbolTableRecord
100
AcDbBlockTableRecord
  2
*PAPER_SPACE
340
83F7
  0
BLOCK_RECORD
  5
59
330
1
100
AcDbSymbolTableRecord
100
AcDbBlockTableRecord
  2
_OPEN30
340
0
102
{BLKREFS
331
8395
331
8396
331
838A
331
838B
331
8113
331
8114
331
810A
331
810B
331
8101
331
8102
331
80F6
331
80F7
331
811C
331
811D
331
8381
331
8382
331
863B
331
863C
331
868D
331
868E
102
}
  0
BLOCK_RECORD
  5
64
330
1
100
AcDbSymbolTableRecord
100
AcDbBlockTableRecord
  2
GENAXEH
340
0
  0
BLOCK_RECORD
  5
7D84
330
1
100
AcDbSymbolTableRecord
100
AcDbBlockTableRecord
  2
*D2
340
0
  0
BLOCK_RECORD
  5
7D90
330
1
100
AcDbSymbolTableRecord
100
AcDbBlockTableRecord
  2
*D3
340
0
  0
BLOCK_RECORD
  5
7D9C
330
1
100
AcDbSymbolTableRecord
100
AcDbBlockTableRecord
  2
*D4
340
0
  0
BLOCK_RECORD
  5
7DA8
330
1
100
AcDbSymbolTableRecord
100
AcDbBlockTableRecord
  2
*D5
340
0
  0
BLOCK_RECORD
  5
7DB4
330
1
100
AcDbSymbolTableRecord
100
AcDbBlockTableRecord
  2
*D6
340
0
  0
BLOCK_RECORD
  5
7DC2
330
1
100
AcDbSymbolTableRecord
100
AcDbBlockTableRecord
  2
*D7
340
0
  0
BLOCK_RECORD
  5
7DCE
330
1
100
AcDbSymbolTableRecord
100
AcDbBlockTableRecord
  2
*D8
340
0
  0
BLOCK_RECORD
  5
82E7
330
1
100
AcDbSymbolTableRecord
100
AcDbBlockTableRecord
  2
*D9
340
0
  0
BLOCK_RECORD
  5
860D
330
1
100
AcDbSymbolTableRecord
100
AcDbBlockTableRecord
  2
*D10
340
0
  0
BLOCK_RECORD
  5
8655
330
1
100
AcDbSymbolTableRecord
100
AcDbBlockTableRecord
  2
*D11
340
0
  0
ENDTAB
  0
ENDSEC
  0
SECTION
  2
BLOCKS
  0
BLOCK
  5
20
330
1F
100
AcDbEntity
  8
0
100
AcDbBlockBegin
  2
*MODEL_SPACE
 70
     0
 10
0.0
 20
0.0
 30
0.0
  3
*MODEL_SPACE
  1

  0
ENDBLK
  5
21
330
1F
100
AcDbEntity
  8
0
100
AcDbBlockEnd
  0
BLOCK
  5
103
330
101
100
AcDbEntity
 67
     1
  8
0
100
AcDbBlockBegin
  2
*PAPER_SPACE
 70
     0
 10
0.0
 20
0.0
 30
0.0
  3
*PAPER_SPACE
  1

  0
ENDBLK
  5
104
330
101
100
AcDbEntity
 67
     1
  8
0
100
AcDbBlockEnd
  0
BLOCK
  5
5D
330
59
100
AcDbEntity
  8
0
100
AcDbBlockBegin
  2
_OPEN30
 70
     0
 10
0.0
 20
0.0
 30
0.0
  3
_OPEN30
  1

  0
LINE
  5
5A
330
59
100
AcDbEntity
  8
0
 62
     0
100
AcDbLine
 10
-1.0
 20
0.26794919
 30
0.0
 11
0.0
 21
0.0
 31
0.0
  0
LINE
  5
5B
330
59
100
AcDbEntity
  8
0
 62
     0
100
AcDbLine
 10
0.0
 20
0.0
 30
0.0
 11
-1.0
 21
-0.26794919
 31
0.0
  0
LINE
  5
5C
330
59
100
AcDbEntity
  8
0
 62
     0
100
AcDbLine
 10
0.0
 20
0.0
 30
0.0
 11
-1.0
 21
0.0
 31
0.0
  0
ENDBLK
  5
5E
330
59
100
AcDbEntity
  8
0
100
AcDbBlockEnd
  0
BLOCK
  5
66
330
64
100
AcDbEntity
  8
0
100
AcDbBlockBegin
  2
GENAXEH
 70
     0
 10
0.0
 20
0.0
 30
0.0
  3
GENAXEH
  1

  0
LINE
  5
65
330
64
100
AcDbEntity
  8
0
100
AcDbLine
 10
-1.0
 20
0.0
 30
0.0
 11
1.0
 21
0.0
 31
0.0
  0
ENDBLK
  5
67
330
64
100
AcDbEntity
  8
0
100
AcDbBlockEnd
  0
BLOCK
  5
7D8E
330
7D84
100
AcDbEntity
  8
0
100
AcDbBlockBegin
  2
*D2
 70
     1
 10
0.0
 20
0.0
 30
0.0
  3
*D2
  1

  0
LINE
  5
8390
330
7D84
100
AcDbEntity
  8
AM_5
100
AcDbLine
 10
-60.00000000000003
 20
6.349999999999922
 30
0.0
 11
-74.99999999999978
 21
6.349999999999927
 31
0.0
  0
LINE
  5
8391
330
7D84
100
AcDbEntity
  8
AM_5
100
AcDbLine
 10
-60.00000000000003
 20
-6.349999999999922
 30
0.0
 11
-74.99999999999978
 21
-6.349999999999917
 31
0.0
  0
LINE
  5
8392
330
7D84
100
AcDbEntity
  8
AM_5
100
AcDbLine
 10
-73.9999999999998
 20
8.849999999999926
 30
0.0
 11
-73.9999999999998
 21
11.34999999999992
 31
0.0
  0
LINE
  5
8393
330
7D84
100
AcDbEntity
  8
AM_5
100
AcDbLine
 10
-73.9999999999998
 20
-8.849999999999917
 30
0.0
 11
-73.9999999999998
 21
-11.34999999999992
 31
0.0
  0
LINE
  5
8394
330
7D84
100
AcDbEntity
  8
AM_5
100
AcDbLine
 10
-73.9999999999998
 20
6.349999999999925
 30
0.0
 11
-73.9999999999998
 21
-6.349999999999917
 31
0.0
  0
INSERT
  5
8395
330
7D84
100
AcDbEntity
  8
AM_5
100
AcDbBlockReference
  2
_OPEN30
 10
-73.9999999999998
 20
6.349999999999925
 30
0.0
 41
2.5
 42
2.5
 43
2.5
 50
270.0
  0
INSERT
  5
8396
330
7D84
100
AcDbEntity
  8
AM_5
100
AcDbBlockReference
  2
_OPEN30
 10
-73.9999999999998
 20
-6.349999999999917
 30
0.0
 41
2.5
 42
2.5
 43
2.5
 50
90.0
  0
MTEXT
  5
8397
330
7D84
100
AcDbEntity
  8
AM_5
 62
     2
100
AcDbMText
 10
-77.09999999999978
 20
-0.0000000000001408
 30
0.0
 40
3.2
 41
0.0
 71
     5
 72
     1
  1
12.7
  7
ASAMI
 11
0.0000000000000001
 21
1.0
 31
0.0
 73
     1
 44
1.0
1001
ACAD
1000
MTEXTBEGIN
1070
    73
1070
     1
1070
    44
1040
1.0
1070
    74
1070
     0
1000
MTEXTEND
  0
POINT
  5
8398
330
7D84
100
AcDbEntity
  8
DEFPOINTS
 62
     0
100
AcDbPoint
 10
-59.00000000000003
 20
6.349999999999922
 30
0.0
  0
POINT
  5
8399
330
7D84
100
AcDbEntity
  8
DEFPOINTS
 62
     0
100
AcDbPoint
 10
-59.00000000000003
 20
-6.349999999999922
 30
0.0
  0
POINT
  5
839A
330
7D84
100
AcDbEntity
  8
DEFPOINTS
 62
     0
100
AcDbPoint
 10
-73.9999999999998
 20
-6.349999999999917
 30
0.0
  0
ENDBLK
  5
7D8F
330
7D84
100
AcDbEntity
  8
0
100
AcDbBlockEnd
  0
BLOCK
  5
7D9A
330
7D90
100
AcDbEntity
  8
0
100
AcDbBlockBegin
  2
*D3
 70
     1
 10
0.0
 20
0.0
 30
0.0
  3
*D3
  1

  0
LINE
  5
8387
330
7D90
100
AcDbEntity
  8
AM_5
100
AcDbLine
 10
-59.24648456429875
 20
15.87500000000002
 30
0.0
 11
-84.99999999999992
 21
15.87500000000003
 31
0.0
  0
LINE
  5
8388
330
7D90
100
AcDbEntity
  8
AM_5
100
AcDbLine
 10
-59.50000000000006
 20
-15.87500000000002
 30
0.0
 11
-84.99999999999992
 21
-15.87500000000001
 31
0.0
  0
LINE
  5
8389
330
7D90
100
AcDbEntity
  8
AM_5
100
AcDbLine
 10
-83.99999999999996
 20
13.37500000000003
 30
0.0
 11
-83.99999999999996
 21
-13.37500000000001
 31
0.0
  0
INSERT
  5
838A
330
7D90
100
AcDbEntity
  8
AM_5
100
AcDbBlockReference
  2
_OPEN30
 10
-83.99999999999996
 20
15.87500000000003
 30
0.0
 41
2.5
 42
2.5
 43
2.5
 50
90.0
  0
INSERT
  5
838B
330
7D90
100
AcDbEntity
  8
AM_5
100
AcDbBlockReference
  2
_OPEN30
 10
-83.99999999999996
 20
-15.87500000000001
 30
0.0
 41
2.5
 42
2.5
 43
2.5
 50
270.0
  0
MTEXT
  5
838C
330
7D90
100
AcDbEntity
  8
AM_5
 62
     2
100
AcDbMText
 10
-87.09999999999993
 20
-0.000000000000006
 30
0.0
 40
3.2
 41
0.0
 71
     5
 72
     1
  1
%%c31.75
  7
ASAMI
 11
0.0000000000000001
 21
1.0
 31
0.0
 73
     1
 44
1.0
1001
ACAD
1000
MTEXTBEGIN
1070
    73
1070
     1
1070
    44
1040
1.0
1070
    74
1070
     0
1000
MTEXTEND
  0
POINT
  5
838D
330
7D90
100
AcDbEntity
  8
DEFPOINTS
 62
     0
100
AcDbPoint
 10
-58.24648456429875
 20
15.87500000000002
 30
0.0
  0
POINT
  5
838E
330
7D90
100
AcDbEntity
  8
DEFPOINTS
 62
     0
100
AcDbPoint
 10
-58.50000000000004
 20
-15.87500000000002
 30
0.0
  0
POINT
  5
838F
330
7D90
100
AcDbEntity
  8
DEFPOINTS
 62
     0
100
AcDbPoint
 10
-83.99999999999996
 20
-15.87500000000001
 30
0.0
  0
ENDBLK
  5
7D9B
330
7D90
100
AcDbEntity
  8
0
100
AcDbBlockEnd
  0
BLOCK
  5
7DA6
330
7D9C
100
AcDbEntity
  8
0
100
AcDbBlockBegin
  2
*D4
 70
     1
 10
0.0
 20
0.0
 30
0.0
  3
*D4
  1

  0
LINE
  5
8110
330
7D9C
100
AcDbEntity
  8
AM_5
100
AcDbLine
 10
-60.00000000000007
 20
-37.49999999999988
 30
0.0
 11
-60.00000000000007
 21
-92.386616
 31
0.0
  0
LINE
  5
8111
330
7D9C
100
AcDbEntity
  8
AM_5
100
AcDbLine
 10
0.0000000000000568
 20
-53.49999999999987
 30
0.0
 11
0.0000000000000544
 21
-92.386616
 31
0.0
  0
LINE
  5
8112
330
7D9C
100
AcDbEntity
  8
AM_5
100
AcDbLine
 10
-57.50000000000007
 20
-91.386616
 30
0.0
 11
-2.499999999999944
 21
-91.386616
 31
0.0
  0
INSERT
  5
8113
330
7D9C
100
AcDbEntity
  8
AM_5
100
AcDbBlockReference
  2
_OPEN30
 10
-60.00000000000007
 20
-91.386616
 30
0.0
 41
2.5
 42
2.5
 43
2.5
 50
180.0
  0
INSERT
  5
8114
330
7D9C
100
AcDbEntity
  8
AM_5
100
AcDbBlockReference
  2
_OPEN30
 10
0.0000000000000545
 20
-91.386616
 30
0.0
 41
2.5
 42
2.5
 43
2.5
  0
MTEXT
  5
8115
330
7D9C
100
AcDbEntity
  8
AM_5
 62
     2
100
AcDbMText
 10
-30.0
 20
-88.28661600000001
 30
0.0
 40
3.2
 41
0.0
 71
     5
 72
     1
  1
60
  7
ASAMI
 73
     1
 44
1.0
1001
ACAD
1000
MTEXTBEGIN
1070
    73
1070
     1
1070
    44
1040
1.0
1070
    74
1070
     0
1000
MTEXTEND
  0
POINT
  5
8116
330
7D9C
100
AcDbEntity
  8
DEFPOINTS
 62
     0
100
AcDbPoint
 10
-60.00000000000007
 20
-36.49999999999988
 30
0.0
  0
POINT
  5
8117
330
7D9C
100
AcDbEntity
  8
DEFPOINTS
 62
     0
100
AcDbPoint
 10
0.0000000000000568
 20
-52.49999999999985
 30
0.0
  0
POINT
  5
8118
330
7D9C
100
AcDbEntity
  8
DEFPOINTS
 62
     0
100
AcDbPoint
 10
0.0000000000000545
 20
-91.386616
 30
0.0
  0
ENDBLK
  5
7DA7
330
7D9C
100
AcDbEntity
  8
0
100
AcDbBlockEnd
  0
BLOCK
  5
7DB2
330
7DA8
100
AcDbEntity
  8
0
100
AcDbBlockBegin
  2
*D5
 70
     1
 10
0.0
 20
0.0
 30
0.0
  3
*D5
  1

  0
LINE
  5
8107
330
7DA8
100
AcDbEntity
  8
AM_5
100
AcDbLine
 10
-60.00000000000007
 20
-37.49999999999988
 30
0.0
 11
-60.00000000000007
 21
-82.386616
 31
0.0
  0
LINE
  5
8108
330
7DA8
100
AcDbEntity
  8
AM_5
100
AcDbLine
 10
-28.00000000000006
 20
-21.99999999999988
 30
0.0
 11
-28.00000000000006
 21
-82.386616
 31
0.0
  0
LINE
  5
8109
330
7DA8
100
AcDbEntity
  8
AM_5
100
AcDbLine
 10
-57.50000000000007
 20
-81.386616
 30
0.0
 11
-30.50000000000006
 21
-81.386616
 31
0.0
  0
INSERT
  5
810A
330
7DA8
100
AcDbEntity
  8
AM_5
100
AcDbBlockReference
  2
_OPEN30
 10
-60.00000000000007
 20
-81.386616
 30
0.0
 41
2.5
 42
2.5
 43
2.5
 50
180.0
  0
INSERT
  5
810B
330
7DA8
100
AcDbEntity
  8
AM_5
100
AcDbBlockReference
  2
_OPEN30
 10
-28.00000000000006
 20
-81.386616
 30
0.0
 41
2.5
 42
2.5
 43
2.5
  0
MTEXT
  5
810C
330
7DA8
100
AcDbEntity
  8
AM_5
 62
     2
100
AcDbMText
 10
-44.00000000000003
 20
-78.28661600000002
 30
0.0
 40
3.2
 41
0.0
 71
     5
 72
     1
  1
32
  7
ASAMI
 73
     1
 44
1.0
1001
ACAD
1000
MTEXTBEGIN
1070
    73
1070
     1
1070
    44
1040
1.0
1070
    74
1070
     0
1000
MTEXTEND
  0
POINT
  5
810D
330
7DA8
100
AcDbEntity
  8
DEFPOINTS
 62
     0
100
AcDbPoint
 10
-60.00000000000007
 20
-36.49999999999988
 30
0.0
  0
POINT
  5
810E
330
7DA8
100
AcDbEntity
  8
DEFPOINTS
 62
     0
100
AcDbPoint
 10
-28.00000000000006
 20
-20.99999999999988
 30
0.0
  0
POINT
  5
810F
330
7DA8
100
AcDbEntity
  8
DEFPOINTS
 62
     0
100
AcDbPoint
 10
-28.00000000000006
 20
-81.386616
 30
0.0
  0
ENDBLK
  5
7DB3
330
7DA8
100
AcDbEntity
  8
0
100
AcDbBlockEnd
  0
BLOCK
  5
7DC0
330
7DB4
100
AcDbEntity
  8
0
100
AcDbBlockBegin
  2
*D6
 70
     1
 10
0.0
 20
0.0
 30
0.0
  3
*D6
  1

  0
LINE
  5
80FC
330
7DB4
100
AcDbEntity
  8
AM_5
100
AcDbLine
 10
-60.00000000000007
 20
-37.49999999999988
 30
0.0
 11
-60.00000000000007
 21
-72.386616
 31
0.0
  0
LINE
  5
80FD
330
7DB4
100
AcDbEntity
  8
AM_5
100
AcDbLine
 10
-52.00000000000006
 20
-6.350000000000008
 30
0.0
 11
-52.00000000000006
 21
-72.386616
 31
0.0
  0
LINE
  5
80FE
330
7DB4
100
AcDbEntity
  8
AM_5
100
AcDbLine
 10
-62.50000000000007
 20
-71.386616
 30
0.0
 11
-65.00000000000007
 21
-71.386616
 31
0.0
  0
LINE
  5
80FF
330
7DB4
100
AcDbEntity
  8
AM_5
100
AcDbLine
 10
-49.50000000000006
 20
-71.386616
 30
0.0
 11
-47.00000000000006
 21
-71.386616
 31
0.0
  0
LINE
  5
8100
330
7DB4
100
AcDbEntity
  8
AM_5
100
AcDbLine
 10
-60.00000000000007
 20
-71.386616
 30
0.0
 11
-52.00000000000006
 21
-71.386616
 31
0.0
  0
INSERT
  5
8101
330
7DB4
100
AcDbEntity
  8
AM_5
100
AcDbBlockReference
  2
_OPEN30
 10
-60.00000000000007
 20
-71.386616
 30
0.0
 41
2.5
 42
2.5
 43
2.5
  0
INSERT
  5
8102
330
7DB4
100
AcDbEntity
  8
AM_5
100
AcDbBlockReference
  2
_OPEN30
 10
-52.00000000000006
 20
-71.386616
 30
0.0
 41
2.5
 42
2.5
 43
2.5
 50
180.0
  0
MTEXT
  5
8103
330
7DB4
100
AcDbEntity
  8
AM_5
 62
     2
100
AcDbMText
 10
-56.00000000000004
 20
-68.28661600000001
 30
0.0
 40
3.2
 41
0.0
 71
     5
 72
     1
  1
8
  7
ASAMI
 73
     1
 44
1.0
1001
ACAD
1000
MTEXTBEGIN
1070
    73
1070
     1
1070
    44
1040
1.0
1070
    74
1070
     0
1000
MTEXTEND
  0
POINT
  5
8104
330
7DB4
100
AcDbEntity
  8
DEFPOINTS
 62
     0
100
AcDbPoint
 10
-60.00000000000007
 20
-36.49999999999988
 30
0.0
  0
POINT
  5
8105
330
7DB4
100
AcDbEntity
  8
DEFPOINTS
 62
     0
100
AcDbPoint
 10
-52.00000000000006
 20
-5.350000000000006
 30
0.0
  0
POINT
  5
8106
330
7DB4
100
AcDbEntity
  8
DEFPOINTS
 62
     0
100
AcDbPoint
 10
-52.00000000000006
 20
-71.386616
 30
0.0
  0
ENDBLK
  5
7DC1
330
7DB4
100
AcDbEntity
  8
0
100
AcDbBlockEnd
  0
BLOCK
  5
7DCC
330
7DC2
100
AcDbEntity
  8
0
100
AcDbBlockBegin
  2
*D7
 70
     1
 10
0.0
 20
0.0
 30
0.0
  3
*D7
  1

  0
LINE
  5
80F3
330
7DC2
100
AcDbEntity
  8
AM_5
100
AcDbLine
 10
0.9999999999999431
 20
52.5
 30
0.0
 11
27.59515612722335
 21
52.5
 31
0.0
  0
LINE
  5
80F4
330
7DC2
100
AcDbEntity
  8
AM_5
100
AcDbLine
 10
1.000000000000055
 20
-52.49999999999985
 30
0.0
 11
27.59515612722333
 21
-52.49999999999985
 31
0.0
  0
LINE
  5
80F5
330
7DC2
100
AcDbEntity
  8
AM_5
100
AcDbLine
 10
26.59515612722336
 20
50.0
 30
0.0
 11
26.59515612722333
 21
-49.99999999999985
 31
0.0
  0
INSERT
  5
80F6
330
7DC2
100
AcDbEntity
  8
AM_5
100
AcDbBlockReference
  2
_OPEN30
 10
26.59515612722336
 20
52.5
 30
0.0
 41
2.5
 42
2.5
 43
2.5
 50
90.0
  0
INSERT
  5
80F7
330
7DC2
100
AcDbEntity
  8
AM_5
100
AcDbBlockReference
  2
_OPEN30
 10
26.59515612722333
 20
-52.49999999999985
 30
0.0
 41
2.5
 42
2.5
 43
2.5
 50
270.0
  0
MTEXT
  5
80F8
330
7DC2
100
AcDbEntity
  8
AM_5
 62
     2
100
AcDbMText
 10
23.49515612722334
 20
0.0000000000000627
 30
0.0
 40
3.2
 41
0.0
 71
     5
 72
     1
  1
%%c105
  7
ASAMI
 11
0.0000000000000001
 21
1.0
 31
0.0
 73
     1
 44
1.0
1001
ACAD
1000
MTEXTBEGIN
1070
    73
1070
     1
1070
    44
1040
1.0
1070
    74
1070
     0
1000
MTEXTEND
  0
POINT
  5
80F9
330
7DC2
100
AcDbEntity
  8
DEFPOINTS
 62
     0
100
AcDbPoint
 10
-0.0000000000000568
 20
52.5
 30
0.0
  0
POINT
  5
80FA
330
7DC2
100
AcDbEntity
  8
DEFPOINTS
 62
     0
100
AcDbPoint
 10
0.0000000000000568
 20
-52.49999999999985
 30
0.0
  0
POINT
  5
80FB
330
7DC2
100
AcDbEntity
  8
DEFPOINTS
 62
     0
100
AcDbPoint
 10
26.59515612722333
 20
-52.49999999999985
 30
0.0
  0
ENDBLK
  5
7DCD
330
7DC2
100
AcDbEntity
  8
0
100
AcDbBlockEnd
  0
BLOCK
  5
7DD8
330
7DCE
100
AcDbEntity
  8
0
100
AcDbBlockBegin
  2
*D8
 70
     1
 10
0.0
 20
0.0
 30
0.0
  3
*D8
  1

  0
LINE
  5
8119
330
7DCE
100
AcDbEntity
  8
AM_5
100
AcDbLine
 10
-27.00000000000005
 20
20.99999999999988
 30
0.0
 11
17.59515612722334
 21
20.99999999999987
 31
0.0
  0
LINE
  5
811A
330
7DCE
100
AcDbEntity
  8
AM_5
100
AcDbLine
 10
-27.00000000000005
 20
-21.0000000000004
 30
0.0
 11
17.59515612722332
 21
-21.00000000000041
 31
0.0
  0
LINE
  5
811B
330
7DCE
100
AcDbEntity
  8
AM_5
100
AcDbLine
 10
16.59515612722334
 20
18.49999999999987
 30
0.0
 11
16.59515612722333
 21
-18.50000000000041
 31
0.0
  0
INSERT
  5
811C
330
7DCE
100
AcDbEntity
  8
AM_5
100
AcDbBlockReference
  2
_OPEN30
 10
16.59515612722334
 20
20.99999999999987
 30
0.0
 41
2.5
 42
2.5
 43
2.5
 50
90.0
  0
INSERT
  5
811D
330
7DCE
100
AcDbEntity
  8
AM_5
100
AcDbBlockReference
  2
_OPEN30
 10
16.59515612722333
 20
-21.00000000000041
 30
0.0
 41
2.5
 42
2.5
 43
2.5
 50
270.0
  0
MTEXT
  5
811E
330
7DCE
100
AcDbEntity
  8
AM_5
 62
     2
100
AcDbMText
 10
13.49515612722333
 20
-0.0000000000002671
 30
0.0
 40
3.2
 41
0.0
 71
     5
 72
     1
  1
%%c42
  7
ASAMI
 11
0.0000000000000001
 21
1.0
 31
0.0
 73
     1
 44
1.0
1001
ACAD
1000
MTEXTBEGIN
1070
    73
1070
     1
1070
    44
1040
1.0
1070
    74
1070
     0
1000
MTEXTEND
  0
POINT
  5
811F
330
7DCE
100
AcDbEntity
  8
DEFPOINTS
 62
     0
100
AcDbPoint
 10
-28.00000000000006
 20
20.99999999999988
 30
0.0
  0
POINT
  5
8120
330
7DCE
100
AcDbEntity
  8
DEFPOINTS
 62
     0
100
AcDbPoint
 10
-28.00000000000006
 20
-21.0000000000004
 30
0.0
  0
POINT
  5
8121
330
7DCE
100
AcDbEntity
  8
DEFPOINTS
 62
     0
100
AcDbPoint
 10
16.59515612722333
 20
-21.00000000000041
 30
0.0
  0
ENDBLK
  5
7DD9
330
7DCE
100
AcDbEntity
  8
0
100
AcDbBlockEnd
  0
BLOCK
  5
82F1
330
82E7
100
AcDbEntity
  8
0
100
AcDbBlockBegin
  2
*D9
 70
     1
 10
0.0
 20
0.0
 30
0.0
  3
*D9
  1

  0
LINE
  5
837E
330
82E7
100
AcDbEntity
  8
AM_5
100
AcDbLine
 10
-60.00000000000007
 20
37.4999999999999
 30
0.0
 11
-94.99999999999909
 21
37.49999999999991
 31
0.0
  0
LINE
  5
837F
330
82E7
100
AcDbEntity
  8
AM_5
100
AcDbLine
 10
-60.00000000000007
 20
-37.4999999999999
 30
0.0
 11
-94.99999999999912
 21
-37.49999999999989
 31
0.0
  0
LINE
  5
8380
330
82E7
100
AcDbEntity
  8
AM_5
100
AcDbLine
 10
-93.99999999999909
 20
34.99999999999991
 30
0.0
 11
-93.99999999999911
 21
-34.99999999999989
 31
0.0
  0
INSERT
  5
8381
330
82E7
100
AcDbEntity
  8
AM_5
100
AcDbBlockReference
  2
_OPEN30
 10
-93.99999999999909
 20
37.49999999999991
 30
0.0
 41
2.5
 42
2.5
 43
2.5
 50
90.0
  0
INSERT
  5
8382
330
82E7
100
AcDbEntity
  8
AM_5
100
AcDbBlockReference
  2
_OPEN30
 10
-93.99999999999911
 20
-37.49999999999989
 30
0.0
 41
2.5
 42
2.5
 43
2.5
 50
270.0
  0
MTEXT
  5
8383
330
82E7
100
AcDbEntity
  8
AM_5
 62
     2
100
AcDbMText
 10
-97.09999999999908
 20
-0.0000000000000081
 30
0.0
 40
3.2
 41
0.0
 71
     5
 72
     1
  1
%%c75
  7
ASAMI
 11
0.0000000000000001
 21
1.0
 31
0.0
 73
     1
 44
1.0
1001
ACAD
1000
MTEXTBEGIN
1070
    73
1070
     1
1070
    44
1040
1.0
1070
    74
1070
     0
1000
MTEXTEND
  0
POINT
  5
8384
330
82E7
100
AcDbEntity
  8
DEFPOINTS
 62
     0
100
AcDbPoint
 10
-59.00000000000005
 20
37.4999999999999
 30
0.0
  0
POINT
  5
8385
330
82E7
100
AcDbEntity
  8
DEFPOINTS
 62
     0
100
AcDbPoint
 10
-59.00000000000005
 20
-37.4999999999999
 30
0.0
  0
POINT
  5
8386
330
82E7
100
AcDbEntity
  8
DEFPOINTS
 62
     0
100
AcDbPoint
 10
-93.99999999999911
 20
-37.49999999999989
 30
0.0
  0
ENDBLK
  5
82F2
330
82E7
100
AcDbEntity
  8
0
100
AcDbBlockEnd
  0
BLOCK
  5
8643
330
860D
100
AcDbEntity
  8
0
100
AcDbBlockBegin
  2
*D10
 70
     1
 10
0.0
 20
0.0
 30
0.0
  3
*D10
  1

  0
LINE
  5
8638
330
860D
100
AcDbEntity
  8
AM_5
100
AcDbLine
 10
-0.9628295437976746
 20
-53.28784897295509
 30
0.0
 11
-24.90641116294494
 21
-60.00492008538742
 31
0.0
  0
LINE
  5
8639
330
860D
100
AcDbEntity
  8
AM_5
100
AcDbLine
 10
0.0000000000000711
 20
-54.01773923675471
 30
0.0
 11
0.0000000000000924
 21
-78.88567331022048
 31
0.0
  0
ARC
  5
863A
330
860D
100
AcDbEntity
  8
AM_5
100
AcDbCircle
 10
0.0000000000000746
 20
-53.01773923675471
 30
0.0
 40
24.86793407346577
100
AcDbArc
 50
201.4332311926087
 51
264.2375657041746
  0
INSERT
  5
863B
330
860D
100
AcDbEntity
  8
AM_5
100
AcDbBlockReference
  2
_OPEN30
 10
-23.9435816191472
 20
-59.73481034918704
 30
0.0
 41
2.5
 42
2.5
 43
2.5
 50
108.5520140446959
  0
INSERT
  5
863C
330
860D
100
AcDbEntity
  8
AM_5
100
AcDbBlockReference
  2
_OPEN30
 10
0.0000000000000995
 20
-77.88567331022048
 30
0.0
 41
2.5
 42
2.5
 43
2.5
 50
357.1187828520873
  0
MTEXT
  5
863D
330
860D
100
AcDbEntity
  8
AM_5
 62
     2
100
AcDbMText
 10
-13.15015890718045
 20
-70.36467771426865
 30
0.0
 40
3.2
 41
0.0
 71
     5
 72
     1
  1
75%%d
  7
ASAMI
 11
0.7969032990897901
 21
-0.6041068878102688
 31
0.0
 73
     1
 44
1.0
1001
ACAD
1000
MTEXTBEGIN
1070
    73
1070
     1
1070
    44
1040
1.0
1070
    74
1070
     0
1000
MTEXTEND
  0
POINT
  5
863E
330
860D
100
AcDbEntity
  8
DEFPOINTS
 62
     0
100
AcDbPoint
 10
-18.92460114173576
 20
-69.1507369962677
 30
0.0
  0
POINT
  5
863F
330
860D
100
AcDbEntity
  8
DEFPOINTS
 62
     0
100
AcDbPoint
 10
0.0000000000000639
 20
-53.01773923675471
 30
0.0
  0
POINT
  5
8640
330
860D
100
AcDbEntity
  8
DEFPOINTS
 62
     0
100
AcDbPoint
 10
-0.0000000000000604
 20
52.5
 30
0.0
  0
POINT
  5
8641
330
860D
100
AcDbEntity
  8
DEFPOINTS
 62
     0
100
AcDbPoint
 10
0.0000000000000604
 20
-52.50000000000863
 30
0.0
  0
POINT
  5
8642
330
860D
100
AcDbEntity
  8
DEFPOINTS
 62
     0
100
AcDbPoint
 10
288.8488631393213
 20
28.01518162336002
 30
0.0
  0
ENDBLK
  5
8644
330
860D
100
AcDbEntity
  8
0
100
AcDbBlockEnd
  0
BLOCK
  5
8674
330
8655
100
AcDbEntity
  8
0
100
AcDbBlockBegin
  2
*D11
 70
     1
 10
0.0
 20
0.0
 30
0.0
  3
*D11
  1

  0
LINE
  5
868A
330
8655
100
AcDbEntity
  8
AM_5
370
    -2
100
AcDbLine
 10
-34.340191
 20
57.89223100000004
 30
0.0
 11
37.59515612722334
 21
57.89223100000001
 31
0.0
  0
LINE
  5
868B
330
8655
100
AcDbEntity
  8
AM_5
370
    -2
100
AcDbLine
 10
-34.340191
 20
-57.89223100000004
 30
0.0
 11
37.59515612722331
 21
-57.89223100000007
 31
0.0
  0
LINE
  5
868C
330
8655
100
AcDbEntity
  8
AM_5
370
    -2
100
AcDbLine
 10
36.59515612722334
 20
55.39223100000001
 30
0.0
 11
36.59515612722331
 21
-55.39223100000007
 31
0.0
  0
INSERT
  5
868D
330
8655
100
AcDbEntity
  8
AM_5
370
    -2
100
AcDbBlockReference
  2
_OPEN30
 10
36.59515612722334
 20
57.89223100000001
 30
0.0
 41
2.5
 42
2.5
 43
2.5
 50
90.0
  0
INSERT
  5
868E
330
8655
100
AcDbEntity
  8
AM_5
370
    -2
100
AcDbBlockReference
  2
_OPEN30
 10
36.59515612722331
 20
-57.89223100000007
 30
0.0
 41
2.5
 42
2.5
 43
2.5
 50
270.0
  0
MTEXT
  5
868F
330
8655
100
AcDbEntity
  8
AM_5
 62
     2
100
AcDbMText
 10
33.49515612722334
 20
-0.0000000000000125
 30
0.0
 40
3.2
 41
0.0
 71
     5
 72
     1
  1
%%c115.78
  7
ASAMI
 11
0.0000000000000001
 21
1.0
 31
0.0
 73
     1
 44
1.0
1001
ACAD
1000
MTEXTBEGIN
1070
    73
1070
     1
1070
    44
1040
1.0
1070
    74
1070
     0
1000
MTEXTEND
  0
POINT
  5
8690
330
8655
100
AcDbEntity
  8
DEFPOINTS
 62
     0
100
AcDbPoint
 10
-35.340191
 20
57.89223100000004
 30
0.0
  0
POINT
  5
8691
330
8655
100
AcDbEntity
  8
DEFPOINTS
 62
     0
100
AcDbPoint
 10
-35.340191
 20
-57.89223100000004
 30
0.0
  0
POINT
  5
8692
330
8655
100
AcDbEntity
  8
DEFPOINTS
 62
     0
100
AcDbPoint
 10
36.59515612722331
 20
-57.89223100000007
 30
0.0
  0
ENDBLK
  5
8675
330
8655
100
AcDbEntity
  8
0
100
AcDbBlockEnd
  0
ENDSEC
  0
SECTION
  2
ENTITIES
  0
TEXT
  5
E5A
330
1F
100
AcDbEntity
  8
AM_6
100
AcDbText
 10
-50.35714285714284
 20
-113.886616
 30
0.0
 40
5.0
  1
DPGF4100R
 72
     4
 11
-29.99999999999998
 21
-111.386616
 31
0.0
100
AcDbText
  0
LINE
  5
7011
330
1F
100
AcDbEntity
  8
AM_7
100
AcDbLine
 10
-64.32409533116828
 20
0.0
 30
0.0
 11
2.595155127223335
 21
0.0
 31
0.0
  0
LINE
  5
7012
330
1F
100
AcDbEntity
  8
AM_0
100
AcDbLine
 10
-8.00000000000017
 20
28.1576951545868
 30
0.0
 11
-8.0
 21
-0.0000000000000018
 31
0.0
  0
LINE
  5
7013
330
1F
100
AcDbEntity
  8
AM_11
100
AcDbLine
 10
-28.00000000000006
 20
20.99999999999988
 30
0.0
 11
-28.00000000000006
 21
20.26693506078595
 31
0.0
  0
LINE
  5
7014
330
1F
100
AcDbEntity
  8
AM_0
100
AcDbLine
 10
-60.00000000000007
 20
36.49999999999988
 30
0.0
 11
-60.00000000000003
 21
7.349999999999909
 31
0.0
  0
LINE
  5
7015
330
1F
100
AcDbEntity
  8
AM_0
100
AcDbLine
 10
-59.00000000000003
 20
6.349999999999922
 30
0.0
 11
-53.00000000000006
 21
6.350000000000008
 31
0.0
  0
LINE
  5
7016
330
1F
100
AcDbEntity
  8
AM_0
100
AcDbLine
 10
-52.00000000000006
 20
5.350000000000006
 30
0.0
 11
-52.00000000000006
 21
0.0
 31
0.0
  0
LINE
  5
7017
330
1F
100
AcDbEntity
  8
AM_11
100
AcDbLine
 10
-28.00000000000006
 20
20.99999999999988
 30
0.0
 11
-27.26972459419821
 21
21.06389081925937
 31
0.0
  0
LINE
  5
7019
330
1F
100
AcDbEntity
  8
AM_0
100
AcDbLine
 10
-47.39719767662029
 20
55.86763809020506
 30
0.0
 11
-51.9215937931376
 21
38.98236190979494
 31
0.0
  0
LINE
  5
701C
330
1F
100
AcDbEntity
  8
AM_0
100
AcDbLine
 10
-58.50000000000004
 20
15.87500000000002
 30
0.0
 11
-29.50000000000002
 21
15.87500000000002
 31
0.0
  0
LINE
  5
701D
330
1F
100
AcDbEntity
  8
AM_0
100
AcDbLine
 10
-59.00000000000005
 20
37.4999999999999
 30
0.0
 11
-53.85344544571569
 21
37.49999999999998
 31
0.0
  0
LINE
  5
7021
330
1F
100
AcDbEntity
  8
AM_0
100
AcDbLine
 10
-45.46534602404214
 20
57.35000000000002
 30
0.0
 11
-35.50000000000017
 21
57.35000000000002
 31
0.0
  0
LINE
  5
7024
330
1F
100
AcDbEntity
  8
AM_0
100
AcDbLine
 10
-9.00000000000017
 20
29.1576951545868
 30
0.0
 11
-9.00000000000017
 21
28.1576951545868
 31
0.0
  0
LINE
  5
7025
330
1F
100
AcDbEntity
  8
AM_0
100
AcDbLine
 10
-8.00000000000017
 20
28.1576951545868
 30
0.0
 11
-9.00000000000017
 21
28.1576951545868
 31
0.0
  0
LINE
  5
7026
330
1F
100
AcDbEntity
  8
AM_0
100
AcDbLine
 10
-8.00000000000017
 20
29.1576951545868
 30
0.0
 11
-9.00000000000017
 21
29.1576951545868
 31
0.0
  0
ARC
  5
7D2F
330
1F
100
AcDbEntity
  8
AM_0
100
AcDbCircle
 10
-45.46534602404214
 20
55.35000000000001
 30
0.0
 40
2.0
100
AcDbArc
 50
90.0
 51
165.0000000000002
1001
GENIUS_GENODEF_13
1002
{
1000
HIER
1070
     0
1002
}
1002
{
1000
MANEDIT
1070
     0
1002
}
1002
{
1000
NOSEL
1070
     0
1002
}
1002
{
1000
BEHIND
1070
     0
1002
}
1002
{
1000
REACTOR
1002
}
1001
GENIUS_GENOBJ-N-FIL_13
1002
{
1000
OWNER
1000
GEN
1002
}
  0
ARC
  5
7D32
330
1F
100
AcDbEntity
  8
AM_0
100
AcDbCircle
 10
-53.85344544571572
 20
39.49999999999997
 30
0.0
 40
2.0
100
AcDbArc
 50
270.0000000000008
 51
345.0000000000002
1001
GENIUS_GENODEF_13
1002
{
1000
HIER
1070
     0
1002
}
1002
{
1000
MANEDIT
1070
     0
1002
}
1002
{
1000
NOSEL
1070
     0
1002
}
1002
{
1000
BEHIND
1070
     0
1002
}
1002
{
1000
REACTOR
1002
}
1001
GENIUS_GENOBJ-N-FIL_13
1002
{
1000
OWNER
1000
GEN
1002
}
  0
ARC
  5
7D35
330
1F
100
AcDbEntity
  8
AM_0
100
AcDbCircle
 10
-53.00000000000006
 20
5.350000000000006
 30
0.0
 40
1.0
100
AcDbArc
 50
0.0
 51
90.00000000000083
1001
GENIUS_GENODEF_13
1002
{
1000
HIER
1070
     0
1002
}
1002
{
1000
MANEDIT
1070
     0
1002
}
1002
{
1000
NOSEL
1070
     0
1002
}
1002
{
1000
BEHIND
1070
     0
1002
}
1002
{
1000
REACTOR
1002
}
1001
GENIUS_GENOBJ-N-FIL_13
1002
{
1000
OWNER
1000
GEN
1002
}
  0
ARC
  5
7D38
330
1F
100
AcDbEntity
  8
AM_0
100
AcDbCircle
 10
-27.20000000000004
 20
20.26693506078595
 30
0.0
 40
0.8
100
AcDbArc
 50
95.00000000000044
 51
180.0000000000001
1001
GENIUS_GENODEF_13
1002
{
1000
HIER
1070
     0
1002
}
1002
{
1000
MANEDIT
1070
     0
1002
}
1002
{
1000
NOSEL
1070
     0
1002
}
1002
{
1000
BEHIND
1070
     0
1002
}
1002
{
1000
REACTOR
1002
}
1001
GENIUS_GENOBJ-N-FIL_13
1002
{
1000
OWNER
1000
GEN
1002
}
  0
LINE
  5
7D39
330
1F
100
AcDbEntity
  8
AM_0
100
AcDbLine
 10
-27.26972459419821
 20
21.06389081925935
 30
0.0
 11
-8.996194698091898
 21
22.66261752777084
 31
0.0
  0
LINE
  5
7D3A
330
1F
100
AcDbEntity
  8
AM_0
100
AcDbLine
 10
-28.00000000000006
 20
20.26693506078595
 30
0.0
 11
-27.99999999999986
 21
-0.0000000000000018
 31
0.0
  0
LINE
  5
7D43
330
1F
100
AcDbEntity
  8
AM_0
100
AcDbLine
 10
-58.50000000000004
 20
15.87500000000002
 30
0.0
 11
-60.00000000000007
 21
17.37500000000002
 31
0.0
1001
GENIUS_GENFIL_13
1070
     0
1040
1.5
1040
1.5
1040
20.0
1040
0.0
1002
{
1002
}
1001
GENIUS_GENODEF_13
1002
{
1000
HIER
1070
     0
1002
}
1002
{
1000
MANEDIT
1070
     0
1002
}
1002
{
1000
NOSEL
1070
     0
1002
}
1002
{
1000
BEHIND
1070
     0
1002
}
1002
{
1000
REACTOR
1002
}
1001
GENIUS_GENOBJ-N-CHA_13
1002
{
1000
OWNER
1000
GEN
1002
}
  0
LINE
  5
7D46
330
1F
100
AcDbEntity
  8
AM_0
100
AcDbLine
 10
-28.00000000000002
 20
17.37500000000002
 30
0.0
 11
-29.50000000000002
 21
15.87500000000002
 31
0.0
1001
GENIUS_GENFIL_13
1070
     0
1040
1.5
1040
1.5
1040
20.0
1040
0.0
1002
{
1002
}
1001
GENIUS_GENODEF_13
1002
{
1000
HIER
1070
     0
1002
}
1002
{
1000
MANEDIT
1070
     0
1002
}
1002
{
1000
NOSEL
1070
     0
1002
}
1002
{
1000
BEHIND
1070
     0
1002
}
1002
{
1000
REACTOR
1002
}
1001
GENIUS_GENOBJ-N-CHA_13
1002
{
1000
OWNER
1000
GEN
1002
}
  0
LINE
  5
7D49
330
1F
100
AcDbEntity
  8
AM_0
100
AcDbLine
 10
-59.00000000000005
 20
37.4999999999999
 30
0.0
 11
-60.00000000000007
 21
36.49999999999988
 31
0.0
1001
GENIUS_GENFIL_13
1070
     0
1040
1.0
1040
1.0
1040
20.0
1040
0.0
1002
{
1002
}
1001
GENIUS_GENODEF_13
1002
{
1000
HIER
1070
     0
1002
}
1002
{
1000
MANEDIT
1070
     0
1002
}
1002
{
1000
NOSEL
1070
     0
1002
}
1002
{
1000
BEHIND
1070
     0
1002
}
1002
{
1000
REACTOR
1002
}
1001
GENIUS_GENOBJ-N-CHA_13
1002
{
1000
OWNER
1000
GEN
1002
}
  0
LINE
  5
7D4C
330
1F
100
AcDbEntity
  8
AM_0
100
AcDbLine
 10
-60.00000000000003
 20
7.349999999999909
 30
0.0
 11
-59.00000000000003
 21
6.349999999999922
 31
0.0
1001
GENIUS_GENFIL_13
1070
     0
1040
1.0
1040
1.0
1040
20.0
1040
0.0
1002
{
1002
}
1001
GENIUS_GENODEF_13
1002
{
1000
HIER
1070
     0
1002
}
1002
{
1000
MANEDIT
1070
     0
1002
}
1002
{
1000
NOSEL
1070
     0
1002
}
1002
{
1000
BEHIND
1070
     0
1002
}
1002
{
1000
REACTOR
1002
}
1001
GENIUS_GENOBJ-N-CHA_13
1002
{
1000
OWNER
1000
GEN
1002
}
  0
LINE
  5
7D4F
330
1F
100
AcDbEntity
  8
AM_0
100
AcDbLine
 10
-8.000000000000143
 20
23.74977327051851
 30
0.0
 11
-8.996194698091898
 21
22.66261752777084
 31
0.0
1001
GENIUS_GENFIL_13
1070
     0
1040
1.0
1040
1.0
1040
20.0
1040
0.0
1002
{
1002
}
1001
GENIUS_GENODEF_13
1002
{
1000
HIER
1070
     0
1002
}
1002
{
1000
MANEDIT
1070
     0
1002
}
1002
{
1000
NOSEL
1070
     0
1002
}
1002
{
1000
BEHIND
1070
     0
1002
}
1002
{
1000
REACTOR
1002
}
1001
GENIUS_GENOBJ-N-CHA_13
1002
{
1000
OWNER
1000
GEN
1002
}
  0
LINE
  5
7D50
330
1F
100
AcDbEntity
  8
AM_0
100
AcDbLine
 10
-58.50000000000004
 20
15.87500000000002
 30
0.0
 11
-58.50000000000004
 21
6.349999999999928
 31
0.0
  0
LINE
  5
7D52
330
1F
100
AcDbEntity
  8
AM_0
100
AcDbLine
 10
-29.50000000000002
 20
15.87500000000002
 30
0.0
 11
-29.50000000000002
 21
0.0
 31
0.0
  0
LINE
  5
7D53
330
1F
100
AcDbEntity
  8
AM_0
100
AcDbLine
 10
-8.996194698091898
 20
22.66261752777084
 30
0.0
 11
-8.996194698091869
 21
0.0
 31
0.0
  0
LINE
  5
7D54
330
1F
100
AcDbEntity
  8
AM_0
100
AcDbLine
 10
-27.26972459419821
 20
-21.06389081925935
 30
0.0
 11
-8.996194698091898
 21
-22.66261752777084
 31
0.0
  0
LINE
  5
7D56
330
1F
100
AcDbEntity
  8
AM_0
100
AcDbLine
 10
-60.00000000000007
 20
-36.49999999999988
 30
0.0
 11
-60.00000000000003
 21
-7.349999999999909
 31
0.0
  0
LINE
  5
7D57
330
1F
100
AcDbEntity
  8
AM_0
100
AcDbLine
 10
-28.00000000000006
 20
-20.26693506078595
 30
0.0
 11
-27.99999999999986
 21
0.0000000000000018
 31
0.0
  0
LINE
  5
7D58
330
1F
100
AcDbEntity
  8
AM_0
100
AcDbLine
 10
-28.00000000000002
 20
-17.37500000000002
 30
0.0
 11
-29.50000000000002
 21
-15.87500000000002
 31
0.0
1001
GENIUS_GENFIL_13
1070
     0
1040
1.5
1040
1.5
1040
20.0
1040
0.0
1002
{
1002
}
1001
GENIUS_GENODEF_13
1002
{
1000
HIER
1070
     0
1002
}
1002
{
1000
MANEDIT
1070
     0
1002
}
1002
{
1000
NOSEL
1070
     0
1002
}
1002
{
1000
BEHIND
1070
     0
1002
}
1002
{
1000
REACTOR
1002
}
1001
GENIUS_GENOBJ-N-CHA_13
1002
{
1000
OWNER
1000
GEN
1002
}
  0
LINE
  5
7D59
330
1F
100
AcDbEntity
  8
AM_0
100
AcDbLine
 10
-58.50000000000004
 20
-15.87500000000002
 30
0.0
 11
-60.00000000000007
 21
-17.37500000000002
 31
0.0
1001
GENIUS_GENFIL_13
1070
     0
1040
1.5
1040
1.5
1040
20.0
1040
0.0
1002
{
1002
}
1001
GENIUS_GENODEF_13
1002
{
1000
HIER
1070
     0
1002
}
1002
{
1000
MANEDIT
1070
     0
1002
}
1002
{
1000
NOSEL
1070
     0
1002
}
1002
{
1000
BEHIND
1070
     0
1002
}
1002
{
1000
REACTOR
1002
}
1001
GENIUS_GENOBJ-N-CHA_13
1002
{
1000
OWNER
1000
GEN
1002
}
  0
LINE
  5
7D5A
330
1F
100
AcDbEntity
  8
AM_0
100
AcDbLine
 10
-58.50000000000004
 20
-15.87500000000002
 30
0.0
 11
-29.50000000000002
 21
-15.87500000000002
 31
0.0
  0
LINE
  5
7D5B
330
1F
100
AcDbEntity
  8
AM_0
100
AcDbLine
 10
-52.00000000000006
 20
-5.350000000000006
 30
0.0
 11
-52.00000000000006
 21
0.0
 31
0.0
  0
LINE
  5
7D5C
330
1F
100
AcDbEntity
  8
AM_0
100
AcDbLine
 10
-59.00000000000003
 20
-6.349999999999922
 30
0.0
 11
-53.00000000000006
 21
-6.350000000000008
 31
0.0
  0
LINE
  5
7D5D
330
1F
100
AcDbEntity
  8
AM_0
100
AcDbLine
 10
-58.50000000000004
 20
-15.87500000000002
 30
0.0
 11
-58.50000000000004
 21
-6.349999999999928
 31
0.0
  0
LINE
  5
7D5E
330
1F
100
AcDbEntity
  8
AM_0
100
AcDbLine
 10
-60.00000000000003
 20
-7.349999999999909
 30
0.0
 11
-59.00000000000003
 21
-6.349999999999922
 31
0.0
1001
GENIUS_GENFIL_13
1070
     0
1040
1.0
1040
1.0
1040
20.0
1040
0.0
1002
{
1002
}
1001
GENIUS_GENODEF_13
1002
{
1000
HIER
1070
     0
1002
}
1002
{
1000
MANEDIT
1070
     0
1002
}
1002
{
1000
NOSEL
1070
     0
1002
}
1002
{
1000
BEHIND
1070
     0
1002
}
1002
{
1000
REACTOR
1002
}
1001
GENIUS_GENOBJ-N-CHA_13
1002
{
1000
OWNER
1000
GEN
1002
}
  0
ARC
  5
7D5F
330
1F
100
AcDbEntity
  8
AM_0
100
AcDbCircle
 10
-53.00000000000006
 20
-5.350000000000006
 30
0.0
 40
1.0
100
AcDbArc
 50
269.9999999999992
 51
0.0
1001
GENIUS_GENODEF_13
1002
{
1000
HIER
1070
     0
1002
}
1002
{
1000
MANEDIT
1070
     0
1002
}
1002
{
1000
NOSEL
1070
     0
1002
}
1002
{
1000
BEHIND
1070
     0
1002
}
1002
{
1000
REACTOR
1002
}
1001
GENIUS_GENOBJ-N-FIL_13
1002
{
1000
OWNER
1000
GEN
1002
}
  0
LINE
  5
7D60
330
1F
100
AcDbEntity
  8
AM_0
100
AcDbLine
 10
-29.50000000000002
 20
-15.87500000000002
 30
0.0
 11
-29.50000000000002
 21
0.0
 31
0.0
  0
LINE
  5
7D61
330
1F
100
AcDbEntity
  8
AM_0
100
AcDbLine
 10
-45.46534602404214
 20
-57.35000000000002
 30
0.0
 11
-35.50000000000017
 21
-57.35000000000002
 31
0.0
  0
LINE
  5
7D62
330
1F
100
AcDbEntity
  8
AM_0
100
AcDbLine
 10
-47.39719767662029
 20
-55.86763809020506
 30
0.0
 11
-51.9215937931376
 21
-38.98236190979494
 31
0.0
  0
LINE
  5
7D63
330
1F
100
AcDbEntity
  8
AM_0
100
AcDbLine
 10
-59.00000000000005
 20
-37.4999999999999
 30
0.0
 11
-53.85344544571569
 21
-37.49999999999998
 31
0.0
  0
LINE
  5
7D64
330
1F
100
AcDbEntity
  8
AM_0
100
AcDbLine
 10
-59.00000000000005
 20
-37.4999999999999
 30
0.0
 11
-60.00000000000007
 21
-36.49999999999988
 31
0.0
1001
GENIUS_GENFIL_13
1070
     0
1040
1.0
1040
1.0
1040
20.0
1040
0.0
1002
{
1002
}
1001
GENIUS_GENODEF_13
1002
{
1000
HIER
1070
     0
1002
}
1002
{
1000
MANEDIT
1070
     0
1002
}
1002
{
1000
NOSEL
1070
     0
1002
}
1002
{
1000
BEHIND
1070
     0
1002
}
1002
{
1000
REACTOR
1002
}
1001
GENIUS_GENOBJ-N-CHA_13
1002
{
1000
OWNER
1000
GEN
1002
}
  0
ARC
  5
7D65
330
1F
100
AcDbEntity
  8
AM_0
100
AcDbCircle
 10
-53.85344544571572
 20
-39.49999999999997
 30
0.0
 40
2.0
100
AcDbArc
 50
14.99999999999979
 51
89.9999999999992
1001
GENIUS_GENODEF_13
1002
{
1000
HIER
1070
     0
1002
}
1002
{
1000
MANEDIT
1070
     0
1002
}
1002
{
1000
NOSEL
1070
     0
1002
}
1002
{
1000
BEHIND
1070
     0
1002
}
1002
{
1000
REACTOR
1002
}
1001
GENIUS_GENOBJ-N-FIL_13
1002
{
1000
OWNER
1000
GEN
1002
}
  0
ARC
  5
7D66
330
1F
100
AcDbEntity
  8
AM_0
100
AcDbCircle
 10
-45.46534602404214
 20
-55.35000000000001
 30
0.0
 40
2.0
100
AcDbArc
 50
194.9999999999997
 51
270.0
1001
GENIUS_GENODEF_13
1002
{
1000
HIER
1070
     0
1002
}
1002
{
1000
MANEDIT
1070
     0
1002
}
1002
{
1000
NOSEL
1070
     0
1002
}
1002
{
1000
BEHIND
1070
     0
1002
}
1002
{
1000
REACTOR
1002
}
1001
GENIUS_GENOBJ-N-FIL_13
1002
{
1000
OWNER
1000
GEN
1002
}
  0
LINE
  5
7D67
330
1F
100
AcDbEntity
  8
AM_11
100
AcDbLine
 10
-28.00000000000006
 20
-20.99999999999988
 30
0.0
 11
-28.00000000000006
 21
-20.26693506078595
 31
0.0
  0
ARC
  5
7D68
330
1F
100
AcDbEntity
  8
AM_0
100
AcDbCircle
 10
-27.20000000000004
 20
-20.26693506078595
 30
0.0
 40
0.8
100
AcDbArc
 50
179.9999999999998
 51
264.9999999999995
1001
GENIUS_GENODEF_13
1002
{
1000
HIER
1070
     0
1002
}
1002
{
1000
MANEDIT
1070
     0
1002
}
1002
{
1000
NOSEL
1070
     0
1002
}
1002
{
1000
BEHIND
1070
     0
1002
}
1002
{
1000
REACTOR
1002
}
1001
GENIUS_GENOBJ-N-FIL_13
1002
{
1000
OWNER
1000
GEN
1002
}
  0
LINE
  5
7D69
330
1F
100
AcDbEntity
  8
AM_11
100
AcDbLine
 10
-28.00000000000006
 20
-20.99999999999988
 30
0.0
 11
-27.26972459419821
 21
-21.06389081925937
 31
0.0
  0
LINE
  5
7D72
330
1F
100
AcDbEntity
  8
AM_0
100
AcDbLine
 10
-8.996194698091898
 20
-22.66261752777084
 30
0.0
 11
-8.996194698091869
 21
0.0
 31
0.0
  0
LINE
  5
7D73
330
1F
100
AcDbEntity
  8
AM_0
100
AcDbLine
 10
-8.00000000000017
 20
-28.1576951545868
 30
0.0
 11
-8.0
 21
0.0000000000000018
 31
0.0
  0
LINE
  5
7D74
330
1F
100
AcDbEntity
  8
AM_0
100
AcDbLine
 10
-2.000000000000111
 20
-43.85156751788835
 30
0.0
 11
-2.000000000000083
 21
0.0
 31
0.0
  0
LINE
  5
7D75
330
1F
100
AcDbEntity
  8
AM_0
100
AcDbLine
 10
-8.00000000000017
 20
-29.1576951545868
 30
0.0
 11
-4.7788643422674
 21
-41.17913708731673
 31
0.0
  0
LINE
  5
7D76
330
1F
100
AcDbEntity
  8
AM_0
100
AcDbLine
 10
-8.000000000000143
 20
-23.74977327051851
 30
0.0
 11
-8.996194698091898
 21
-22.66261752777084
 31
0.0
1001
GENIUS_GENFIL_13
1070
     0
1040
1.0
1040
1.0
1040
20.0
1040
0.0
1002
{
1002
}
1001
GENIUS_GENODEF_13
1002
{
1000
HIER
1070
     0
1002
}
1002
{
1000
MANEDIT
1070
     0
1002
}
1002
{
1000
NOSEL
1070
     0
1002
}
1002
{
1000
BEHIND
1070
     0
1002
}
1002
{
1000
REACTOR
1002
}
1001
GENIUS_GENOBJ-N-CHA_13
1002
{
1000
OWNER
1000
GEN
1002
}
  0
LINE
  5
7D77
330
1F
100
AcDbEntity
  8
AM_0
100
AcDbLine
 10
-8.00000000000017
 20
-29.1576951545868
 30
0.0
 11
-9.00000000000017
 21
-29.1576951545868
 31
0.0
  0
LINE
  5
7D78
330
1F
100
AcDbEntity
  8
AM_0
100
AcDbLine
 10
-8.00000000000017
 20
-28.1576951545868
 30
0.0
 11
-9.00000000000017
 21
-28.1576951545868
 31
0.0
  0
LINE
  5
7D79
330
1F
100
AcDbEntity
  8
AM_0
100
AcDbLine
 10
-9.00000000000017
 20
-29.1576951545868
 30
0.0
 11
-9.00000000000017
 21
-28.1576951545868
 31
0.0
  0
DIMENSION
  5
7D7D
330
1F
100
AcDbEntity
  8
AM_5
100
AcDbDimension
  2
*D3
 10
-83.99999999999996
 20
-15.87500000000001
 30
0.0
 11
-87.09999999999993
 21
-0.000000000000006
 31
0.0
 70
    32
  1
%%c<>
 71
     5
 42
-1.0
  3
AM_JIS
100
AcDbAlignedDimension
 13
-58.24648456429875
 23
15.87500000000002
 33
0.0
 14
-58.50000000000004
 24
-15.87500000000002
 34
0.0
 50
90.0
100
AcDbRotatedDimension
1001
GENIUS_GENDTOL_13
1000

1000
h7
1000

1040
0.0
  0
DIMENSION
  5
7D7E
330
1F
100
AcDbEntity
  8
AM_5
100
AcDbDimension
  2
*D2
 10
-73.9999999999998
 20
-6.349999999999917
 30
0.0
 11
-73.9999999999998
 21
-0.0000000000001412
 31
0.0
 70
   160
 71
     5
 42
-1.0
  3
AM_JIS
100
AcDbAlignedDimension
 13
-59.00000000000003
 23
6.349999999999922
 33
0.0
 14
-59.00000000000003
 24
-6.349999999999922
 34
0.0
 50
90.0
100
AcDbRotatedDimension
  0
DIMENSION
  5
7D7F
330
1F
100
AcDbEntity
  8
AM_5
100
AcDbDimension
  2
*D4
 10
0.0000000000000545
 20
-91.386616
 30
0.0
 11
-30.0
 21
-88.28661600000001
 31
0.0
 70
    32
 71
     5
 42
-1.0
  3
AM_JIS
100
AcDbAlignedDimension
 13
-60.00000000000007
 23
-36.49999999999988
 33
0.0
 14
0.0000000000000568
 24
-52.49999999999985
 34
0.0
100
AcDbRotatedDimension
  0
DIMENSION
  5
7D80
330
1F
100
AcDbEntity
  8
AM_5
100
AcDbDimension
  2
*D5
 10
-28.00000000000006
 20
-81.386616
 30
0.0
 11
-44.00000000000003
 21
-78.28661600000002
 31
0.0
 70
    32
 71
     5
 42
-1.0
  3
AM_JIS
100
AcDbAlignedDimension
 13
-60.00000000000007
 23
-36.49999999999988
 33
0.0
 14
-28.00000000000006
 24
-20.99999999999988
 34
0.0
100
AcDbRotatedDimension
  0
DIMENSION
  5
7D81
330
1F
100
AcDbEntity
  8
AM_5
100
AcDbDimension
  2
*D6
 10
-52.00000000000006
 20
-71.386616
 30
0.0
 11
-56.00000000000004
 21
-68.28661600000001
 31
0.0
 70
    32
 71
     5
 42
-1.0
  3
AM_JIS
100
AcDbAlignedDimension
 13
-60.00000000000007
 23
-36.49999999999988
 33
0.0
 14
-52.00000000000006
 24
-5.350000000000006
 34
0.0
100
AcDbRotatedDimension
  0
DIMENSION
  5
7D82
330
1F
100
AcDbEntity
  8
AM_5
100
AcDbDimension
  2
*D7
 10
26.59515612722333
 20
-52.49999999999985
 30
0.0
 11
23.49515612722334
 21
0.0000000000000627
 31
0.0
 70
    32
  1
%%c<>
 71
     5
 42
-1.0
  3
AM_JIS
100
AcDbAlignedDimension
 13
-0.0000000000000568
 23
52.5
 33
0.0
 14
0.0000000000000568
 24
-52.49999999999985
 34
0.0
 50
90.0
100
AcDbRotatedDimension
1001
GENIUS_GENDTOL_13
1000

1000
h7
1000

1040
0.0
  0
DIMENSION
  5
7D83
330
1F
100
AcDbEntity
  8
AM_5
100
AcDbDimension
  2
*D8
 10
16.59515612722333
 20
-21.00000000000041
 30
0.0
 11
13.49515612722333
 21
-0.0000000000002671
 31
0.0
 70
    32
  1
%%c<>
 71
     5
 42
-1.0
  3
AM_JIS
100
AcDbAlignedDimension
 13
-28.00000000000006
 23
20.99999999999988
 33
0.0
 14
-28.00000000000006
 24
-21.0000000000004
 34
0.0
 50
90.0
100
AcDbRotatedDimension
1001
GENIUS_GENDTOL_13
1000

1000
h7
1000

1040
0.0
  0
LINE
  5
7EFF
330
1F
100
AcDbEntity
  8
AM_11
100
AcDbLine
 10
-0.0000000000000568
 20
52.5
 30
0.0
 11
0.0000000000000568
 21
-52.50000000000863
 31
0.0
  0
LINE
  5
8069
330
1F
100
AcDbEntity
  8
AM_0
100
AcDbLine
 10
-8.00000000000017
 20
29.1576951545868
 30
0.0
 11
-4.778864342267415
 21
41.17913708731673
 31
0.0
  0
LINE
  5
806A
330
1F
100
AcDbEntity
  8
AM_0
100
AcDbLine
 10
-2.00000000000014
 20
43.85156751788832
 30
0.0
 11
-2.000000000000111
 21
0.0
 31
0.0
  0
DIMENSION
  5
82E6
330
1F
100
AcDbEntity
  8
AM_5
100
AcDbDimension
  2
*D9
 10
-93.99999999999911
 20
-37.49999999999989
 30
0.0
 11
-97.09999999999908
 21
-0.0000000000000081
 31
0.0
 70
    32
  1
%%c<>
 71
     5
 42
-1.0
  3
AM_JIS$0
100
AcDbAlignedDimension
 13
-59.00000000000005
 23
37.4999999999999
 33
0.0
 14
-59.00000000000005
 24
-37.4999999999999
 34
0.0
 50
270.0000000000009
100
AcDbRotatedDimension
1001
GENIUS_GENDTOL_13
1000

1000
h7
1000

1040
0.0
1001
ACAD
1000
DSTYLE
1002
{
1070
    40
1040
1.0
1070
    43
1040
12.0
1070
   140
1040
3.2
1070
   147
1040
1.5
1070
   178
1070
     2
1002
}
  0
LINE
  5
85A1
330
1F
100
AcDbEntity
  8
0
100
AcDbLine
 10
-35.29999999999996
 20
57.14999999999982
 30
0.0
 11
-35.29999999999996
 21
50.35000000000001
 31
0.0
  0
LINE
  5
85A2
330
1F
100
AcDbEntity
  8
0
100
AcDbLine
 10
-29.29999999999996
 20
50.35000000000001
 30
0.0
 11
-29.29999999999996
 21
57.35000000000002
 31
0.0
  0
LINE
  5
85A3
330
1F
100
AcDbEntity
  8
0
100
AcDbLine
 10
-29.29999999999996
 20
50.35000000000001
 30
0.0
 11
-35.29999999999996
 21
50.35000000000001
 31
0.0
  0
LINE
  5
85A4
330
1F
100
AcDbEntity
  8
0
100
AcDbLine
 10
-19.03958899999998
 20
57.35000000000002
 30
0.0
 11
-29.29999999999996
 21
57.35000000000002
 31
0.0
  0
LINE
  5
85A5
330
1F
100
AcDbEntity
  8
0
100
AcDbLine
 10
-19.03958899999998
 20
57.35000000000002
 30
0.0
 11
-11.81296748818386
 21
55.27779958595657
 31
0.0
  0
SPLINE
  5
85A6
330
1F
100
AcDbEntity
  8
0
100
AcDbSpline
210
0.0
220
0.0
230
1.0
 70
     8
 71
     3
 72
    11
 73
     7
 74
     5
 42
0.0000000001
 43
0.0000000001
 44
0.0000000001
 40
0.0
 40
0.0
 40
0.0
 40
0.0
 40
2.387047117479063
 40
4.77409264122192
 40
7.161137969378533
 40
9.548184668674689
 40
9.548184668674689
 40
9.548184668674689
 40
9.548184668674689
 10
-0.6954499999999371
 20
53.21283900000003
 30
0.0
 10
-1.461792196751538
 20
53.42691872101532
 30
0.0
 10
-2.994476078598604
 20
53.85507802011339
 30
0.0
 10
-5.292958041659316
 20
54.49925989991155
 30
0.0
 10
-7.591091243848474
 20
55.14468423717798
 30
0.0
 10
-9.12284493464071
 20
55.57615870441892
 30
0.0
 10
-9.888721999999916
 20
55.79189600000002
 30
0.0
 11
-0.6954499999999371
 21
53.21283900000003
 31
0.0
 11
-2.994385999999963
 21
53.85540200000002
 31
0.0
 11
-5.292899999999916
 21
54.49946700000004
 31
0.0
 11
-7.59100699999999
 21
55.14498200000002
 31
0.0
 11
-9.888721999999916
 21
55.79189600000002
 31
0.0
  0
SPLINE
  5
85A7
330
1F
100
AcDbEntity
  8
0
100
AcDbSpline
210
0.0
220
0.0
230
1.0
 70
     8
 71
     3
 72
    11
 73
     7
 74
     5
 42
0.0000000001
 43
0.0000000001
 44
0.0000000001
 40
0.0
 40
0.0
 40
0.0
 40
0.0
 40
0.2489716050355891
 40
0.4979431225712454
 40
0.7469145528076982
 40
0.995886611699834
 40
0.995886611699834
 40
0.995886611699834
 40
0.995886611699834
 10
-0.6954499999999371
 20
53.21283900000003
 30
0.0
 10
-0.6374986918669339
 20
53.15343298356889
 30
0.0
 10
-0.5215960959676499
 20
53.0346209715846
 30
0.0
 10
-0.3477357790195239
 20
52.85640928063433
 30
0.0
 10
-0.1738708042316652
 20
52.67820192256724
 30
0.0
 10
-0.0579569835244453
 20
52.55940069085145
 30
0.0
 10
0.0
 20
52.50000000000003
 30
0.0
 11
-0.6954499999999371
 21
53.21283900000003
 31
0.0
 11
-0.5215949999999339
 21
53.03462200000004
 31
0.0
 11
-0.3477349999999433
 21
52.85641000000001
 31
0.0
 11
-0.1738699999999653
 21
52.67820300000003
 31
0.0
 11
0.0
 21
52.50000000000003
 31
0.0
  0
SPLINE
  5
85A8
330
1F
100
AcDbEntity
  8
0
100
AcDbSpline
210
0.0
220
0.0
230
1.0
 70
     8
 71
     3
 72
    11
 73
     7
 74
     5
 42
0.0000000001
 43
0.0000000001
 44
0.0000000001
 40
0.0
 40
0.0
 40
0.0
 40
0.0
 40
0.3500003929954937
 40
0.6999997860235282
 40
1.050000179019022
 40
1.399999572047085
 40
1.399999572047085
 40
1.399999572047085
 40
1.399999572047085
 10
0.0
 20
52.50000000000003
 30
0.0
 10
-0.0009413323727812
 20
52.38333699999228
 30
0.0
 10
-0.002823994428913
 20
52.1500113332884
 30
0.0
 10
-0.0056480061472358
 20
51.80002266671632
 30
0.0
 10
-0.0084719944290355
 20
51.45003433328842
 30
0.0
 10
-0.0103546657060945
 20
51.21670866665894
 30
0.0
 10
-0.0112959999999021
 20
51.10004600000002
 30
0.0
 11
0.0
 21
52.50000000000003
 31
0.0
 11
-0.0028239999999187
 21
52.15001100000002
 31
0.0
 11
-0.005647999999951
 21
51.80002300000004
 31
0.0
 11
-0.0084719999999834
 21
51.45003400000003
 31
0.0
 11
-0.0112959999999021
 21
51.10004600000002
 31
0.0
  0
SPLINE
  5
85A9
330
1F
100
AcDbEntity
  8
0
100
AcDbSpline
210
0.0
220
0.0
230
1.0
 70
     8
 71
     3
 72
    11
 73
     7
 74
     5
 42
0.0000000001
 43
0.0000000001
 44
0.0000000001
 40
0.0
 40
0.0
 40
0.0
 40
0.0
 40
2.403167778236898
 40
4.806335560919761
 40
7.209503272737851
 40
9.612671273144217
 40
9.612671273144217
 40
9.612671273144217
 40
9.612671273144217
 10
-2.554976000000009
 20
41.83003300000003
 30
0.0
 10
-2.342975594232046
 20
42.60252664057128
 30
0.0
 10
-1.91897478230391
 20
44.14751392314292
 30
0.0
 10
-1.28304087428927
 20
46.46501329465287
 30
0.0
 10
-0.6471437384471346
 20
48.78252283298512
 30
0.0
 10
-0.2232452546330681
 20
50.32753824673911
 30
0.0
 10
-0.0112959999999021
 20
51.10004600000002
 30
0.0
 11
-2.554976000000009
 21
41.83003300000003
 31
0.0
 11
-1.918985999999904
 21
44.14751700000002
 31
0.0
 11
-1.28304700000001
 21
46.46501500000002
 31
0.0
 11
-0.6471520000000055
 21
48.78252500000002
 31
0.0
 11
-0.0112959999999021
 21
51.10004600000002
 31
0.0
  0
SPLINE
  5
85AA
330
1F
100
AcDbEntity
  8
0
100
AcDbSpline
210
0.0
220
0.0
230
1.0
 70
     8
 71
     3
 72
    11
 73
     7
 74
     5
 42
0.0000000001
 43
0.0000000001
 44
0.0000000001
 40
0.0
 40
0.0
 40
0.0
 40
0.0
 40
0.2488021839132433
 40
0.4976044179867629
 40
0.7464059860948093
 40
0.9952076052956686
 40
0.9952076052956686
 40
0.9952076052956686
 40
0.9952076052956686
 10
-2.554976000000009
 20
41.83003300000003
 30
0.0
 10
-2.613876728945038
 20
41.77164839023353
 30
0.0
 10
-2.731678198709899
 20
41.65487915892977
 30
0.0
 10
-2.908391130617969
 20
41.47973643815583
 30
0.0
 10
-3.085108199097145
 20
41.30459815854769
 30
0.0
 10
-3.202926728999865
 20
41.18784672351184
 30
0.0
 10
-3.261835999999901
 20
41.12947100000002
 30
0.0
 11
-2.554976000000009
 21
41.83003300000003
 31
0.0
 11
-2.731679999999982
 21
41.65488100000001
 31
0.0
 11
-2.908391999999935
 21
41.47973700000004
 31
0.0
 11
-3.085109999999986
 21
41.30460000000002
 31
0.0
 11
-3.261835999999901
 21
41.12947100000002
 31
0.0
  0
SPLINE
  5
85AB
330
1F
100
AcDbEntity
  8
0
100
AcDbSpline
210
0.0
220
0.0
230
1.0
 70
     8
 71
     3
 72
    11
 73
     7
 74
     5
 42
0.0000000001
 43
0.0000000001
 44
0.0000000001
 40
0.0
 40
0.0
 40
0.0
 40
0.0
 40
2.388247889754536
 40
4.776493746095507
 40
7.164739915706139
 40
9.552987552934155
 40
9.552987552934155
 40
9.552987552934155
 40
9.552987552934155
 10
-13.84332499999993
 20
43.73971400000002
 30
0.0
 10
-13.07749356633002
 20
43.52234373953968
 30
0.0
 10
-11.5458313510381
 20
43.08760340369341
 30
0.0
 10
-9.247740060295493
 20
42.43760365023043
 30
0.0
 10
-6.949227885739301
 20
41.78909384830513
 30
0.0
 10
-5.416444785566516
 20
41.35832199355447
 30
0.0
 10
-4.650052999999957
 20
41.14293600000002
 30
0.0
 11
-13.84332499999993
 21
43.73971400000002
 31
0.0
 11
-11.54573099999993
 21
43.08795500000002
 31
0.0
 11
-9.24766999999997
 21
42.43785200000002
 31
0.0
 11
-6.949117999999997
 21
41.78948600000004
 31
0.0
 11
-4.650052999999957
 21
41.14293600000002
 31
0.0
  0
SPLINE
  5
85AC
330
1F
100
AcDbEntity
  8
0
100
AcDbSpline
210
0.0
220
0.0
230
1.0
 70
     8
 71
     3
 72
    11
 73
     7
 74
     5
 42
0.0000000001
 43
0.0000000001
 44
0.0000000001
 40
0.0
 40
0.0
 40
0.0
 40
0.0
 40
0.3470706128283531
 40
0.6941416938852001
 40
1.041212259904632
 40
1.388282318091696
 40
1.388282318091696
 40
1.388282318091696
 40
1.388282318091696
 10
-3.261835999999901
 20
41.12947100000002
 30
0.0
 10
-3.377521033186513
 20
41.13056485168359
 30
0.0
 10
-3.608891255628927
 20
41.13275255652641
 30
0.0
 10
-3.955945898296426
 20
41.1360967826689
 30
0.0
 10
-4.30299993628699
 20
41.13948430099515
 30
0.0
 10
-4.534368701851996
 20
41.14178543422624
 30
0.0
 10
-4.650052999999957
 20
41.14293600000002
 30
0.0
 11
-3.261835999999901
 21
41.12947100000002
 31
0.0
 11
-3.608890999999971
 21
41.13276300000004
 31
0.0
 11
-3.955945999999926
 21
41.13610400000001
 31
0.0
 11
-4.302999999999997
 21
41.13949500000003
 31
0.0
 11
-4.650052999999957
 21
41.14293600000002
 31
0.0
  0
SPLINE
  5
85AD
330
1F
100
AcDbEntity
  8
0
100
AcDbSpline
210
0.0
220
0.0
230
1.0
 70
     8
 71
     3
 72
    11
 73
     7
 74
     5
 42
0.0000000001
 43
0.0000000001
 44
0.0000000001
 40
0.0
 40
0.0
 40
0.0
 40
0.0
 40
0.2495288725017511
 40
0.4990577860409122
 40
0.7485860438895741
 40
0.9981157774786007
 40
0.9981157774786007
 40
0.9981157774786007
 40
0.9981157774786007
 10
-13.84332499999993
 20
43.73971400000002
 30
0.0
 10
-13.90128047193173
 20
43.79937519869907
 30
0.0
 10
-14.01719142532667
 20
43.91869760590906
 30
0.0
 10
-14.19105521312346
 20
44.09768348827266
 30
0.0
 10
-14.36491700844546
 20
44.27667170623482
 30
0.0
 10
-14.48082222190257
 20
44.39599978445852
 30
0.0
 10
-14.53877499999999
 20
44.45566400000004
 30
0.0
 11
-13.84332499999993
 21
43.73971400000002
 31
0.0
 11
-14.01719099999991
 21
43.91869800000002
 31
0.0
 11
-14.191055
 21
44.09768400000003
 31
0.0
 11
-14.36491599999999
 21
44.27667200000001
 31
0.0
 11
-14.53877499999999
 21
44.45566400000004
 31
0.0
  0
SPLINE
  5
85AE
330
1F
100
AcDbEntity
  8
0
100
AcDbSpline
210
0.0
220
0.0
230
1.0
 70
     8
 71
     3
 72
    11
 73
     7
 74
     5
 42
0.0000000001
 43
0.0000000001
 44
0.0000000001
 40
0.0
 40
0.0
 40
0.0
 40
0.0
 40
0.3496904030953475
 40
0.6993808061907093
 40
1.049072209253479
 40
1.398762612348827
 40
1.398762612348827
 40
1.398762612348827
 40
1.398762612348827
 10
-14.53877499999999
 20
44.45566400000004
 30
0.0
 10
-14.53783366690698
 20
44.57222366666864
 30
0.0
 10
-14.53595100072097
 20
44.80534300000584
 30
0.0
 10
-14.53312699442398
 20
45.15502233328831
 30
0.0
 10
-14.53030300543173
 20
45.50470166671056
 30
0.0
 10
-14.52842033424662
 20
45.73782133334073
 30
0.0
 10
-14.52747899999997
 20
45.85438100000001
 30
0.0
 11
-14.53877499999999
 21
44.45566400000004
 31
0.0
 11
-14.53595099999995
 21
44.80534300000002
 31
0.0
 11
-14.53312699999992
 21
45.15502200000002
 31
0.0
 11
-14.530303
 21
45.50470200000003
 31
0.0
 11
-14.52747899999997
 21
45.85438100000001
 31
0.0
  0
SPLINE
  5
85AF
330
1F
100
AcDbEntity
  8
0
100
AcDbSpline
210
0.0
220
0.0
230
1.0
 70
     8
 71
     3
 72
    11
 73
     7
 74
     5
 42
0.0000000001
 43
0.0000000001
 44
0.0000000001
 40
0.0
 40
0.0
 40
0.0
 40
0.0
 40
2.399451233461907
 40
4.798901817571961
 40
7.198352672083899
 40
9.597803755684685
 40
9.597803755684685
 40
9.597803755684685
 40
9.597803755684685
 10
-11.98379899999997
 20
55.10897600000001
 30
0.0
 10
-12.1957013880527
 20
54.33774015008379
 30
0.0
 10
-12.61950610681204
 20
52.7952686589672
 30
0.0
 10
-13.25535619516888
 20
50.48160073821819
 30
0.0
 10
-13.891319242605
 20
48.16796391486353
 30
0.0
 10
-14.31542574078634
 20
46.6255753294979
 30
0.0
 10
-14.52747899999997
 20
45.85438100000001
 30
0.0
 11
-11.98379899999997
 21
55.10897600000001
 31
0.0
 11
-12.61952999999994
 21
52.79527500000003
 31
0.0
 11
-13.25537499999996
 21
50.48160600000002
 31
0.0
 11
-13.89135199999998
 21
48.16797300000001
 31
0.0
 11
-14.52747899999997
 21
45.85438100000001
 31
0.0
  0
SPLINE
  5
85B0
330
1F
100
AcDbEntity
  8
0
100
AcDbSpline
210
0.0
220
0.0
230
1.0
 70
     8
 71
     3
 72
    11
 73
     7
 74
     5
 42
0.0000000001
 43
0.0000000001
 44
0.0000000001
 40
0.0
 40
0.0
 40
0.0
 40
0.0
 40
0.2484625716863965
 40
0.4969264992432457
 40
0.7453903688762917
 40
0.993853469790665
 40
0.993853469790665
 40
0.993853469790665
 40
0.993853469790665
 10
-11.98379899999997
 20
55.10897600000001
 30
0.0
 10
-11.92489016617046
 20
55.16719149356582
 30
0.0
 10
-11.8070721770435
 20
55.28362279838176
 30
0.0
 10
-11.63035405534017
 20
55.45827901674911
 30
0.0
 10
-11.4536415585142
 20
55.63294117718598
 30
0.0
 10
-11.33583979209376
 20
55.7493891191082
 30
0.0
 10
-11.27693899999997
 20
55.80761300000003
 30
0.0
 11
-11.98379899999997
 21
55.10897600000001
 31
0.0
 11
-11.80707399999994
 21
55.28362400000003
 31
0.0
 11
-11.63035500000001
 21
55.45828000000003
 31
0.0
 11
-11.45364299999994
 21
55.63294300000004
 31
0.0
 11
-11.27693899999997
 21
55.80761300000003
 31
0.0
  0
SPLINE
  5
85B1
330
1F
100
AcDbEntity
  8
0
100
AcDbSpline
210
0.0
220
0.0
230
1.0
 70
     8
 71
     3
 72
    11
 73
     7
 74
     5
 42
0.0000000001
 43
0.0000000001
 44
0.0000000001
 40
0.0
 40
0.0
 40
0.0
 40
0.0
 40
0.3470768663740794
 40
0.6941533100071398
 40
1.041229346110138
 40
1.388305978354438
 40
1.388305978354438
 40
1.388305978354438
 40
1.388305978354438
 10
-11.27693899999997
 20
55.80761300000003
 30
0.0
 10
-11.16125436377723
 20
55.80628233956547
 30
0.0
 10
-10.9298852322361
 20
55.80362102031707
 30
0.0
 10
-10.58283119322082
 20
55.79967693155275
 30
0.0
 10
-10.23577688792622
 20
55.79576326359679
 30
0.0
 10
-10.00440702887583
 20
55.79318508860366
 30
0.0
 10
-9.888721999999916
 20
55.79189600000002
 30
0.0
 11
-11.27693899999997
 21
55.80761300000003
 31
0.0
 11
-10.9298849999999
 21
55.80362900000003
 31
0.0
 11
-10.58283099999994
 21
55.79968200000002
 31
0.0
 11
-10.23577699999998
 21
55.79577100000003
 31
0.0
 11
-9.888721999999916
 21
55.79189600000002
 31
0.0
  0
SPLINE
  5
85B2
330
1F
100
AcDbEntity
  8
0
100
AcDbSpline
210
0.0
220
0.0
230
1.0
 70
     8
 71
     3
 72
    11
 73
     7
 74
     5
 42
0.0000000001
 43
0.0000000001
 44
0.0000000001
 40
0.0
 40
0.0
 40
0.0
 40
0.0
 40
4.208042204413837
 40
8.416078350258892
 40
12.62411390210538
 40
16.83215643900165
 40
16.83215643900165
 40
16.83215643900165
 40
16.83215643900165
 10
-35.340191
 20
57.89223100000004
 30
0.0
 10
-33.93794371128037
 20
57.8573552554349
 30
0.0
 10
-31.13345115273999
 20
57.78760381651733
 30
0.0
 10
-26.9265567195412
 20
57.68945207916097
 30
0.0
 10
-22.71956304593321
 20
57.59564389365178
 30
0.0
 10
-19.91480645792762
 20
57.53747331397713
 30
0.0
 10
-18.512427
 20
57.50838800000003
 30
0.0
 11
-35.340191
 21
57.89223100000004
 31
0.0
 11
-31.13342299999999
 21
57.78868300000002
 31
0.0
 11
-26.92653999999993
 21
57.69017600000004
 31
0.0
 11
-22.71954199999993
 21
57.59673600000002
 31
0.0
 11
-18.512427
 21
57.50838800000003
 31
0.0
  0
SPLINE
  5
85B3
330
1F
100
AcDbEntity
  8
0
100
AcDbSpline
210
0.0
220
0.0
230
1.0
 70
     8
 71
     3
 72
     8
 73
     4
 74
     0
 42
0.0000000001
 43
0.0000000001
 40
4.694650829450655
 40
4.694650829450655
 40
4.694650829450655
 40
4.694650829450655
 40
5.236899798719106
 40
5.236899798719106
 40
5.236899798719106
 40
5.236899798719106
 10
-35.34390778632231
 20
57.19390778632218
 30
0.0
 10
-35.34313392755087
 20
57.53074366638323
 30
0.0
 10
-35.34166246377549
 20
57.71148733319162
 30
0.0
 10
-35.340191
 20
57.89223100000004
 30
0.0
  0
SPLINE
  5
85B4
330
1F
100
AcDbEntity
  8
0
100
AcDbSpline
210
0.0
220
0.0
230
1.0
 70
     8
 71
     3
 72
    11
 73
     7
 74
     5
 42
0.0000000001
 43
0.0000000001
 44
0.0000000001
 40
0.0
 40
0.0
 40
0.0
 40
0.0
 40
4.208042204413837
 40
8.416078350258892
 40
12.62411390210538
 40
16.83215643900165
 40
16.83215643900165
 40
16.83215643900165
 40
16.83215643900165
 10
-35.340191
 20
57.89223100000004
 30
0.0
 10
-33.93794371128037
 20
57.8573552554349
 30
0.0
 10
-31.13345115273999
 20
57.78760381651733
 30
0.0
 10
-26.9265567195412
 20
57.68945207916097
 30
0.0
 10
-22.71956304593321
 20
57.59564389365178
 30
0.0
 10
-19.91480645792762
 20
57.53747331397713
 30
0.0
 10
-18.512427
 20
57.50838800000003
 30
0.0
 11
-35.340191
 21
57.89223100000004
 31
0.0
 11
-31.13342299999999
 21
57.78868300000002
 31
0.0
 11
-26.92653999999993
 21
57.69017600000004
 31
0.0
 11
-22.71954199999993
 21
57.59673600000002
 31
0.0
 11
-18.512427
 21
57.50838800000003
 31
0.0
  0
SPLINE
  5
85B5
330
1F
100
AcDbEntity
  8
0
100
AcDbSpline
210
0.0
220
0.0
230
1.0
 70
     8
 71
     3
 72
    11
 73
     7
 74
     0
 42
0.0000000001
 43
0.0000000001
 40
0.0
 40
0.0
 40
0.0
 40
0.0
 40
1.960726009163441
 40
3.921450867603299
 40
5.882176796817272
 40
7.212281929685822
 40
7.212281929685822
 40
7.212281929685822
 40
7.212281929685822
 10
-18.512427
 20
57.50838800000003
 30
0.0
 10
-17.88470095491641
 20
57.32639695184932
 30
0.0
 10
-16.62924923315324
 20
56.962414962356
 30
0.0
 10
-14.74583830352344
 20
56.41724679844074
 30
0.0
 10
-13.06420278489804
 20
55.93101880616186
 30
0.0
 10
-12.01030700262265
 20
55.62673417934419
 30
0.0
 10
-11.58433180457905
 20
55.50376811927347
 30
0.0
  0
LINE
  5
85B6
330
1F
100
AcDbEntity
  8
AM_0
100
AcDbLine
 10
-35.50000000000017
 20
57.35000000000002
 30
0.0
 11
-35.29999999999996
 21
57.14999999999982
 31
0.0
1001
GENIUS_GENFIL_13
1070
     0
1040
0.5
1040
0.5
1040
20.0
1040
0.0
1002
{
1002
}
1001
GENIUS_GENODEF_13
1002
{
1000
HIER
1070
     0
1002
}
1002
{
1000
MANEDIT
1070
     0
1002
}
1002
{
1000
NOSEL
1070
     0
1002
}
1002
{
1000
BEHIND
1070
     0
1002
}
1002
{
1000
REACTOR
1002
}
1001
GENIUS_GENOBJ-N-CHA_13
1002
{
1000
OWNER
1000
GEN
1002
}
  0
LINE
  5
85B7
330
1F
100
AcDbEntity
  8
0
100
AcDbLine
 10
-35.29999999999996
 20
-57.14999999999982
 30
0.0
 11
-35.29999999999996
 21
-50.35000000000001
 31
0.0
  0
LINE
  5
85B8
330
1F
100
AcDbEntity
  8
0
100
AcDbLine
 10
-29.29999999999996
 20
-50.35000000000001
 30
0.0
 11
-29.29999999999996
 21
-57.35000000000002
 31
0.0
  0
LINE
  5
85B9
330
1F
100
AcDbEntity
  8
0
100
AcDbLine
 10
-29.29999999999996
 20
-50.35000000000001
 30
0.0
 11
-35.29999999999996
 21
-50.35000000000001
 31
0.0
  0
LINE
  5
85BA
330
1F
100
AcDbEntity
  8
0
100
AcDbLine
 10
-19.03958899999998
 20
-57.35000000000002
 30
0.0
 11
-29.29999999999996
 21
-57.35000000000002
 31
0.0
  0
LINE
  5
85BB
330
1F
100
AcDbEntity
  8
0
100
AcDbLine
 10
-19.03958899999998
 20
-57.35000000000002
 30
0.0
 11
-11.81296748818386
 21
-55.27779958595657
 31
0.0
  0
SPLINE
  5
85BC
330
1F
100
AcDbEntity
  8
0
100
AcDbSpline
210
0.0
220
0.0
230
1.0
 70
     8
 71
     3
 72
    11
 73
     7
 74
     5
 42
0.0000000001
 43
0.0000000001
 44
0.0000000001
 40
0.0
 40
0.0
 40
0.0
 40
0.0
 40
2.387047117479063
 40
4.77409264122192
 40
7.161137969378533
 40
9.548184668674689
 40
9.548184668674689
 40
9.548184668674689
 40
9.548184668674689
 10
-0.6954499999999371
 20
-53.21283900000003
 30
0.0
 10
-1.461792196751538
 20
-53.42691872101532
 30
0.0
 10
-2.994476078598604
 20
-53.85507802011339
 30
0.0
 10
-5.292958041659316
 20
-54.49925989991155
 30
0.0
 10
-7.591091243848474
 20
-55.14468423717798
 30
0.0
 10
-9.12284493464071
 20
-55.57615870441892
 30
0.0
 10
-9.888721999999916
 20
-55.79189600000002
 30
0.0
 11
-0.6954499999999371
 21
-53.21283900000003
 31
0.0
 11
-2.994385999999963
 21
-53.85540200000002
 31
0.0
 11
-5.292899999999916
 21
-54.49946700000004
 31
0.0
 11
-7.59100699999999
 21
-55.14498200000002
 31
0.0
 11
-9.888721999999916
 21
-55.79189600000002
 31
0.0
  0
SPLINE
  5
85BD
330
1F
100
AcDbEntity
  8
0
100
AcDbSpline
210
0.0
220
0.0
230
1.0
 70
     8
 71
     3
 72
    11
 73
     7
 74
     5
 42
0.0000000001
 43
0.0000000001
 44
0.0000000001
 40
0.0
 40
0.0
 40
0.0
 40
0.0
 40
0.2489716050355891
 40
0.4979431225712454
 40
0.7469145528076982
 40
0.995886611699834
 40
0.995886611699834
 40
0.995886611699834
 40
0.995886611699834
 10
-0.6954499999999371
 20
-53.21283900000003
 30
0.0
 10
-0.6374986918669339
 20
-53.15343298356889
 30
0.0
 10
-0.5215960959676499
 20
-53.0346209715846
 30
0.0
 10
-0.3477357790195239
 20
-52.85640928063433
 30
0.0
 10
-0.1738708042316652
 20
-52.67820192256724
 30
0.0
 10
-0.0579569835244453
 20
-52.55940069085145
 30
0.0
 10
0.0
 20
-52.50000000000003
 30
0.0
 11
-0.6954499999999371
 21
-53.21283900000003
 31
0.0
 11
-0.5215949999999339
 21
-53.03462200000004
 31
0.0
 11
-0.3477349999999433
 21
-52.85641000000001
 31
0.0
 11
-0.1738699999999653
 21
-52.67820300000003
 31
0.0
 11
0.0
 21
-52.50000000000003
 31
0.0
  0
SPLINE
  5
85BE
330
1F
100
AcDbEntity
  8
0
100
AcDbSpline
210
0.0
220
0.0
230
1.0
 70
     8
 71
     3
 72
    11
 73
     7
 74
     5
 42
0.0000000001
 43
0.0000000001
 44
0.0000000001
 40
0.0
 40
0.0
 40
0.0
 40
0.0
 40
0.3500003929954937
 40
0.6999997860235282
 40
1.050000179019022
 40
1.399999572047085
 40
1.399999572047085
 40
1.399999572047085
 40
1.399999572047085
 10
0.0
 20
-52.50000000000003
 30
0.0
 10
-0.0009413323727812
 20
-52.38333699999228
 30
0.0
 10
-0.002823994428913
 20
-52.1500113332884
 30
0.0
 10
-0.0056480061472358
 20
-51.80002266671632
 30
0.0
 10
-0.0084719944290355
 20
-51.45003433328842
 30
0.0
 10
-0.0103546657060945
 20
-51.21670866665894
 30
0.0
 10
-0.0112959999999021
 20
-51.10004600000002
 30
0.0
 11
0.0
 21
-52.50000000000003
 31
0.0
 11
-0.0028239999999187
 21
-52.15001100000002
 31
0.0
 11
-0.005647999999951
 21
-51.80002300000004
 31
0.0
 11
-0.0084719999999834
 21
-51.45003400000003
 31
0.0
 11
-0.0112959999999021
 21
-51.10004600000002
 31
0.0
  0
SPLINE
  5
85BF
330
1F
100
AcDbEntity
  8
0
100
AcDbSpline
210
0.0
220
0.0
230
1.0
 70
     8
 71
     3
 72
    11
 73
     7
 74
     5
 42
0.0000000001
 43
0.0000000001
 44
0.0000000001
 40
0.0
 40
0.0
 40
0.0
 40
0.0
 40
2.403167778236898
 40
4.806335560919761
 40
7.209503272737851
 40
9.612671273144217
 40
9.612671273144217
 40
9.612671273144217
 40
9.612671273144217
 10
-2.554976000000009
 20
-41.83003300000003
 30
0.0
 10
-2.342975594232046
 20
-42.60252664057128
 30
0.0
 10
-1.91897478230391
 20
-44.14751392314292
 30
0.0
 10
-1.28304087428927
 20
-46.46501329465287
 30
0.0
 10
-0.6471437384471346
 20
-48.78252283298512
 30
0.0
 10
-0.2232452546330681
 20
-50.32753824673911
 30
0.0
 10
-0.0112959999999021
 20
-51.10004600000002
 30
0.0
 11
-2.554976000000009
 21
-41.83003300000003
 31
0.0
 11
-1.918985999999904
 21
-44.14751700000002
 31
0.0
 11
-1.28304700000001
 21
-46.46501500000002
 31
0.0
 11
-0.6471520000000055
 21
-48.78252500000002
 31
0.0
 11
-0.0112959999999021
 21
-51.10004600000002
 31
0.0
  0
SPLINE
  5
85C0
330
1F
100
AcDbEntity
  8
0
100
AcDbSpline
210
0.0
220
0.0
230
1.0
 70
     8
 71
     3
 72
    11
 73
     7
 74
     5
 42
0.0000000001
 43
0.0000000001
 44
0.0000000001
 40
0.0
 40
0.0
 40
0.0
 40
0.0
 40
0.2488021839132433
 40
0.4976044179867629
 40
0.7464059860948093
 40
0.9952076052956686
 40
0.9952076052956686
 40
0.9952076052956686
 40
0.9952076052956686
 10
-2.554976000000009
 20
-41.83003300000003
 30
0.0
 10
-2.613876728945038
 20
-41.77164839023353
 30
0.0
 10
-2.731678198709899
 20
-41.65487915892977
 30
0.0
 10
-2.908391130617969
 20
-41.47973643815583
 30
0.0
 10
-3.085108199097145
 20
-41.30459815854769
 30
0.0
 10
-3.202926728999865
 20
-41.18784672351184
 30
0.0
 10
-3.261835999999901
 20
-41.12947100000002
 30
0.0
 11
-2.554976000000009
 21
-41.83003300000003
 31
0.0
 11
-2.731679999999982
 21
-41.65488100000001
 31
0.0
 11
-2.908391999999935
 21
-41.47973700000004
 31
0.0
 11
-3.085109999999986
 21
-41.30460000000002
 31
0.0
 11
-3.261835999999901
 21
-41.12947100000002
 31
0.0
  0
SPLINE
  5
85C1
330
1F
100
AcDbEntity
  8
0
100
AcDbSpline
210
0.0
220
0.0
230
1.0
 70
     8
 71
     3
 72
    11
 73
     7
 74
     5
 42
0.0000000001
 43
0.0000000001
 44
0.0000000001
 40
0.0
 40
0.0
 40
0.0
 40
0.0
 40
2.388247889754536
 40
4.776493746095507
 40
7.164739915706139
 40
9.552987552934155
 40
9.552987552934155
 40
9.552987552934155
 40
9.552987552934155
 10
-13.84332499999993
 20
-43.73971400000002
 30
0.0
 10
-13.07749356633002
 20
-43.52234373953968
 30
0.0
 10
-11.5458313510381
 20
-43.08760340369341
 30
0.0
 10
-9.247740060295493
 20
-42.43760365023043
 30
0.0
 10
-6.949227885739301
 20
-41.78909384830513
 30
0.0
 10
-5.416444785566516
 20
-41.35832199355447
 30
0.0
 10
-4.650052999999957
 20
-41.14293600000002
 30
0.0
 11
-13.84332499999993
 21
-43.73971400000002
 31
0.0
 11
-11.54573099999993
 21
-43.08795500000002
 31
0.0
 11
-9.24766999999997
 21
-42.43785200000002
 31
0.0
 11
-6.949117999999997
 21
-41.78948600000004
 31
0.0
 11
-4.650052999999957
 21
-41.14293600000002
 31
0.0
  0
SPLINE
  5
85C2
330
1F
100
AcDbEntity
  8
0
100
AcDbSpline
210
0.0
220
0.0
230
1.0
 70
     8
 71
     3
 72
    11
 73
     7
 74
     5
 42
0.0000000001
 43
0.0000000001
 44
0.0000000001
 40
0.0
 40
0.0
 40
0.0
 40
0.0
 40
0.3470706128283531
 40
0.6941416938852001
 40
1.041212259904632
 40
1.388282318091696
 40
1.388282318091696
 40
1.388282318091696
 40
1.388282318091696
 10
-3.261835999999901
 20
-41.12947100000002
 30
0.0
 10
-3.377521033186513
 20
-41.13056485168359
 30
0.0
 10
-3.608891255628927
 20
-41.13275255652641
 30
0.0
 10
-3.955945898296426
 20
-41.1360967826689
 30
0.0
 10
-4.30299993628699
 20
-41.13948430099515
 30
0.0
 10
-4.534368701851996
 20
-41.14178543422624
 30
0.0
 10
-4.650052999999957
 20
-41.14293600000002
 30
0.0
 11
-3.261835999999901
 21
-41.12947100000002
 31
0.0
 11
-3.608890999999971
 21
-41.13276300000004
 31
0.0
 11
-3.955945999999926
 21
-41.13610400000001
 31
0.0
 11
-4.302999999999997
 21
-41.13949500000003
 31
0.0
 11
-4.650052999999957
 21
-41.14293600000002
 31
0.0
  0
SPLINE
  5
85C3
330
1F
100
AcDbEntity
  8
0
100
AcDbSpline
210
0.0
220
0.0
230
1.0
 70
     8
 71
     3
 72
    11
 73
     7
 74
     5
 42
0.0000000001
 43
0.0000000001
 44
0.0000000001
 40
0.0
 40
0.0
 40
0.0
 40
0.0
 40
0.2495288725017511
 40
0.4990577860409122
 40
0.7485860438895741
 40
0.9981157774786007
 40
0.9981157774786007
 40
0.9981157774786007
 40
0.9981157774786007
 10
-13.84332499999993
 20
-43.73971400000002
 30
0.0
 10
-13.90128047193173
 20
-43.79937519869907
 30
0.0
 10
-14.01719142532667
 20
-43.91869760590906
 30
0.0
 10
-14.19105521312346
 20
-44.09768348827266
 30
0.0
 10
-14.36491700844546
 20
-44.27667170623482
 30
0.0
 10
-14.48082222190257
 20
-44.39599978445852
 30
0.0
 10
-14.53877499999999
 20
-44.45566400000004
 30
0.0
 11
-13.84332499999993
 21
-43.73971400000002
 31
0.0
 11
-14.01719099999991
 21
-43.91869800000002
 31
0.0
 11
-14.191055
 21
-44.09768400000003
 31
0.0
 11
-14.36491599999999
 21
-44.27667200000001
 31
0.0
 11
-14.53877499999999
 21
-44.45566400000004
 31
0.0
  0
SPLINE
  5
85C4
330
1F
100
AcDbEntity
  8
0
100
AcDbSpline
210
0.0
220
0.0
230
1.0
 70
     8
 71
     3
 72
    11
 73
     7
 74
     5
 42
0.0000000001
 43
0.0000000001
 44
0.0000000001
 40
0.0
 40
0.0
 40
0.0
 40
0.0
 40
0.3496904030953475
 40
0.6993808061907093
 40
1.049072209253479
 40
1.398762612348827
 40
1.398762612348827
 40
1.398762612348827
 40
1.398762612348827
 10
-14.53877499999999
 20
-44.45566400000004
 30
0.0
 10
-14.53783366690698
 20
-44.57222366666864
 30
0.0
 10
-14.53595100072097
 20
-44.80534300000584
 30
0.0
 10
-14.53312699442398
 20
-45.15502233328831
 30
0.0
 10
-14.53030300543173
 20
-45.50470166671056
 30
0.0
 10
-14.52842033424662
 20
-45.73782133334073
 30
0.0
 10
-14.52747899999997
 20
-45.85438100000001
 30
0.0
 11
-14.53877499999999
 21
-44.45566400000004
 31
0.0
 11
-14.53595099999995
 21
-44.80534300000002
 31
0.0
 11
-14.53312699999992
 21
-45.15502200000002
 31
0.0
 11
-14.530303
 21
-45.50470200000003
 31
0.0
 11
-14.52747899999997
 21
-45.85438100000001
 31
0.0
  0
SPLINE
  5
85C5
330
1F
100
AcDbEntity
  8
0
100
AcDbSpline
210
0.0
220
0.0
230
1.0
 70
     8
 71
     3
 72
    11
 73
     7
 74
     5
 42
0.0000000001
 43
0.0000000001
 44
0.0000000001
 40
0.0
 40
0.0
 40
0.0
 40
0.0
 40
2.399451233461907
 40
4.798901817571961
 40
7.198352672083899
 40
9.597803755684685
 40
9.597803755684685
 40
9.597803755684685
 40
9.597803755684685
 10
-11.98379899999997
 20
-55.10897600000001
 30
0.0
 10
-12.1957013880527
 20
-54.33774015008379
 30
0.0
 10
-12.61950610681204
 20
-52.7952686589672
 30
0.0
 10
-13.25535619516888
 20
-50.48160073821819
 30
0.0
 10
-13.891319242605
 20
-48.16796391486353
 30
0.0
 10
-14.31542574078634
 20
-46.6255753294979
 30
0.0
 10
-14.52747899999997
 20
-45.85438100000001
 30
0.0
 11
-11.98379899999997
 21
-55.10897600000001
 31
0.0
 11
-12.61952999999994
 21
-52.79527500000003
 31
0.0
 11
-13.25537499999996
 21
-50.48160600000002
 31
0.0
 11
-13.89135199999998
 21
-48.16797300000001
 31
0.0
 11
-14.52747899999997
 21
-45.85438100000001
 31
0.0
  0
SPLINE
  5
85C6
330
1F
100
AcDbEntity
  8
0
100
AcDbSpline
210
0.0
220
0.0
230
1.0
 70
     8
 71
     3
 72
    11
 73
     7
 74
     5
 42
0.0000000001
 43
0.0000000001
 44
0.0000000001
 40
0.0
 40
0.0
 40
0.0
 40
0.0
 40
0.2484625716863965
 40
0.4969264992432457
 40
0.7453903688762917
 40
0.993853469790665
 40
0.993853469790665
 40
0.993853469790665
 40
0.993853469790665
 10
-11.98379899999997
 20
-55.10897600000001
 30
0.0
 10
-11.92489016617046
 20
-55.16719149356582
 30
0.0
 10
-11.8070721770435
 20
-55.28362279838176
 30
0.0
 10
-11.63035405534017
 20
-55.45827901674911
 30
0.0
 10
-11.4536415585142
 20
-55.63294117718598
 30
0.0
 10
-11.33583979209376
 20
-55.7493891191082
 30
0.0
 10
-11.27693899999997
 20
-55.80761300000003
 30
0.0
 11
-11.98379899999997
 21
-55.10897600000001
 31
0.0
 11
-11.80707399999994
 21
-55.28362400000003
 31
0.0
 11
-11.63035500000001
 21
-55.45828000000003
 31
0.0
 11
-11.45364299999994
 21
-55.63294300000004
 31
0.0
 11
-11.27693899999997
 21
-55.80761300000003
 31
0.0
  0
SPLINE
  5
85C7
330
1F
100
AcDbEntity
  8
0
100
AcDbSpline
210
0.0
220
0.0
230
1.0
 70
     8
 71
     3
 72
    11
 73
     7
 74
     5
 42
0.0000000001
 43
0.0000000001
 44
0.0000000001
 40
0.0
 40
0.0
 40
0.0
 40
0.0
 40
0.3470768663740794
 40
0.6941533100071398
 40
1.041229346110138
 40
1.388305978354438
 40
1.388305978354438
 40
1.388305978354438
 40
1.388305978354438
 10
-11.27693899999997
 20
-55.80761300000003
 30
0.0
 10
-11.16125436377723
 20
-55.80628233956547
 30
0.0
 10
-10.9298852322361
 20
-55.80362102031707
 30
0.0
 10
-10.58283119322082
 20
-55.79967693155275
 30
0.0
 10
-10.23577688792622
 20
-55.79576326359679
 30
0.0
 10
-10.00440702887583
 20
-55.79318508860366
 30
0.0
 10
-9.888721999999916
 20
-55.79189600000002
 30
0.0
 11
-11.27693899999997
 21
-55.80761300000003
 31
0.0
 11
-10.9298849999999
 21
-55.80362900000003
 31
0.0
 11
-10.58283099999994
 21
-55.79968200000002
 31
0.0
 11
-10.23577699999998
 21
-55.79577100000003
 31
0.0
 11
-9.888721999999916
 21
-55.79189600000002
 31
0.0
  0
SPLINE
  5
85C8
330
1F
100
AcDbEntity
  8
0
100
AcDbSpline
210
0.0
220
0.0
230
1.0
 70
     8
 71
     3
 72
    11
 73
     7
 74
     5
 42
0.0000000001
 43
0.0000000001
 44
0.0000000001
 40
0.0
 40
0.0
 40
0.0
 40
0.0
 40
4.208042204413837
 40
8.416078350258892
 40
12.62411390210538
 40
16.83215643900165
 40
16.83215643900165
 40
16.83215643900165
 40
16.83215643900165
 10
-35.340191
 20
-57.89223100000004
 30
0.0
 10
-33.93794371128037
 20
-57.8573552554349
 30
0.0
 10
-31.13345115273999
 20
-57.78760381651733
 30
0.0
 10
-26.9265567195412
 20
-57.68945207916097
 30
0.0
 10
-22.71956304593321
 20
-57.59564389365178
 30
0.0
 10
-19.91480645792762
 20
-57.53747331397713
 30
0.0
 10
-18.512427
 20
-57.50838800000003
 30
0.0
 11
-35.340191
 21
-57.89223100000004
 31
0.0
 11
-31.13342299999999
 21
-57.78868300000002
 31
0.0
 11
-26.92653999999993
 21
-57.69017600000004
 31
0.0
 11
-22.71954199999993
 21
-57.59673600000002
 31
0.0
 11
-18.512427
 21
-57.50838800000003
 31
0.0
  0
SPLINE
  5
85C9
330
1F
100
AcDbEntity
  8
0
100
AcDbSpline
210
0.0
220
0.0
230
1.0
 70
     8
 71
     3
 72
     8
 73
     4
 74
     0
 42
0.0000000001
 43
0.0000000001
 40
4.694650829450655
 40
4.694650829450655
 40
4.694650829450655
 40
4.694650829450655
 40
5.236899798719106
 40
5.236899798719106
 40
5.236899798719106
 40
5.236899798719106
 10
-35.34390778632231
 20
-57.19390778632218
 30
0.0
 10
-35.34313392755087
 20
-57.53074366638323
 30
0.0
 10
-35.34166246377549
 20
-57.71148733319162
 30
0.0
 10
-35.340191
 20
-57.89223100000004
 30
0.0
  0
SPLINE
  5
85CA
330
1F
100
AcDbEntity
  8
0
100
AcDbSpline
210
0.0
220
0.0
230
1.0
 70
     8
 71
     3
 72
    11
 73
     7
 74
     5
 42
0.0000000001
 43
0.0000000001
 44
0.0000000001
 40
0.0
 40
0.0
 40
0.0
 40
0.0
 40
4.208042204413837
 40
8.416078350258892
 40
12.62411390210538
 40
16.83215643900165
 40
16.83215643900165
 40
16.83215643900165
 40
16.83215643900165
 10
-35.340191
 20
-57.89223100000004
 30
0.0
 10
-33.93794371128037
 20
-57.8573552554349
 30
0.0
 10
-31.13345115273999
 20
-57.78760381651733
 30
0.0
 10
-26.9265567195412
 20
-57.68945207916097
 30
0.0
 10
-22.71956304593321
 20
-57.59564389365178
 30
0.0
 10
-19.91480645792762
 20
-57.53747331397713
 30
0.0
 10
-18.512427
 20
-57.50838800000003
 30
0.0
 11
-35.340191
 21
-57.89223100000004
 31
0.0
 11
-31.13342299999999
 21
-57.78868300000002
 31
0.0
 11
-26.92653999999993
 21
-57.69017600000004
 31
0.0
 11
-22.71954199999993
 21
-57.59673600000002
 31
0.0
 11
-18.512427
 21
-57.50838800000003
 31
0.0
  0
SPLINE
  5
85CB
330
1F
100
AcDbEntity
  8
0
100
AcDbSpline
210
0.0
220
0.0
230
1.0
 70
     8
 71
     3
 72
    11
 73
     7
 74
     0
 42
0.0000000001
 43
0.0000000001
 40
0.0
 40
0.0
 40
0.0
 40
0.0
 40
1.960726009163441
 40
3.921450867603299
 40
5.882176796817272
 40
7.212281929685822
 40
7.212281929685822
 40
7.212281929685822
 40
7.212281929685822
 10
-18.512427
 20
-57.50838800000003
 30
0.0
 10
-17.88470095491641
 20
-57.32639695184932
 30
0.0
 10
-16.62924923315324
 20
-56.962414962356
 30
0.0
 10
-14.74583830352344
 20
-56.41724679844074
 30
0.0
 10
-13.06420278489804
 20
-55.93101880616186
 30
0.0
 10
-12.01030700262265
 20
-55.62673417934419
 30
0.0
 10
-11.58433180457905
 20
-55.50376811927347
 30
0.0
  0
LINE
  5
85CC
330
1F
100
AcDbEntity
  8
AM_0
100
AcDbLine
 10
-35.50000000000017
 20
-57.35000000000002
 30
0.0
 11
-35.29999999999996
 21
-57.14999999999982
 31
0.0
1001
GENIUS_GENFIL_13
1070
     0
1040
0.5
1040
0.5
1040
20.0
1040
0.0
1002
{
1002
}
1001
GENIUS_GENODEF_13
1002
{
1000
HIER
1070
     0
1002
}
1002
{
1000
MANEDIT
1070
     0
1002
}
1002
{
1000
NOSEL
1070
     0
1002
}
1002
{
1000
BEHIND
1070
     0
1002
}
1002
{
1000
REACTOR
1002
}
1001
GENIUS_GENOBJ-N-CHA_13
1002
{
1000
OWNER
1000
GEN
1002
}
  0
DIMENSION
  5
860C
330
1F
100
AcDbEntity
  8
AM_5
100
AcDbDimension
  2
*D10
 10
288.8488631393213
 20
28.01518162336002
 30
0.0
 11
-13.15015890718045
 21
-70.36467771426865
 31
0.0
 70
    34
  1
75%%d
 71
     5
 42
1.29728932453472
  3
AM_JIS$2
100
AcDb2LineAngularDimension
 13
-0.0000000000000568
 23
52.5
 33
0.0
 14
0.0000000000000568
 24
-52.50000000000864
 34
0.0
 15
0.0000000000000586
 25
-53.01773923675471
 35
0.0
 16
-18.92460114173576
 26
-69.1507369962677
 36
0.0
1001
ACAD
1000
DSTYLE
1002
{
1070
    79
1070
     2
1070
   371
1070
    -1
1070
   372
1070
    -1
1002
}
  0
DIMENSION
  5
8654
330
1F
100
AcDbEntity
  8
AM_5
100
AcDbDimension
  2
*D11
 10
36.59515612722331
 20
-57.89223100000007
 30
0.0
 11
33.49515612722334
 21
-0.0000000000000125
 31
0.0
 70
    32
  1
%%c<>
 71
     5
 42
115.784462
  3
AM_JIS$0
100
AcDbAlignedDimension
 13
-35.340191
 23
57.89223100000004
 33
0.0
 14
-35.340191
 24
-57.89223100000004
 34
0.0
 50
90.00000000000005
100
AcDbRotatedDimension
1001
ACAD
1000
DSTYLE
1002
{
1070
    40
1040
1.0
1070
    43
1040
12.0
1070
   140
1040
3.2
1070
   147
1040
1.5
1070
   178
1070
     2
1070
   271
1070
     2
1002
}
  0
VIEWPORT
  5
110
102
{ACAD_XDICTIONARY
360
871E
102
}
330
101
100
AcDbEntity
 67
     1
  8
0
100
AcDbViewport
 10
420.5
 20
297.0
 30
0.0
 40
948.9782706766916
 41
628.452
 68
     1
 69
     1
 12
420.5
 22
297.0
 13
0.0
 23
0.0
 14
10.0
 24
10.0
 15
10.0
 25
10.0
 16
0.0
 26
0.0
 36
1.0
 17
0.0
 27
0.0
 37
0.0
 42
50.0
 43
0.0
 44
0.0
 45
628.452
 50
0.0
 51
0.0
 72
   100
 90
    32800
  1

281
     0
 71
     1
 74
     0
110
0.0
120
0.0
130
0.0
111
1.0
121
0.0
131
0.0
112
0.0
122
1.0
132
0.0
 79
     0
146
0.0
1001
GENIUS_GENODEF_13
1002
{
1000
HIER
1070
     0
1002
}
1002
{
1000
MANEDIT
1070
     0
1002
}
1002
{
1000
NOSEL
1070
     0
1002
}
1002
{
1000
BEHIND
1070
     0
1002
}
1002
{
1000
OTHER
1070
     0
1002
}
1002
{
1000
REACTOR
1002
}
1001
GENIUS_GENOBJ-N-SDF_13
1002
{
1000
OWNER
1000
GEN
1002
}
1001
GENIUS_GENSCREG_15
1000
PF
1040
1.0
1000
DF
1040
1.0
1000
MIN
1011
-53.98913533834582
1021
-17.226
1031
0.0
1000
MAX
1011
894.9891353383458
1021
611.226
1031
0.0
1000
FLAGS
1070
     2
  0
ENDSEC
  0
SECTION
  2
OBJECTS
  0
DICTIONARY
  5
C
330
0
100
AcDbDictionary
281
     1
  3
ACAD_COLOR
350
83F3
  3
ACAD_GROUP
350
D
  3
ACAD_LAYOUT
350
1A
  3
ACAD_MATERIAL
350
83F2
  3
ACAD_MLINESTYLE
350
17
  3
ACAD_PLOTSETTINGS
350
19
  3
ACAD_PLOTSTYLENAME
350
E
  3
ACAD_TABLESTYLE
350
83F4
  3
ACDBHEADERROUNDTRIPXREC
350
871D
  3
ACDBVARIABLEDICTIONARY
350
34
  3
ACMDICTIONARY
350
43
  3
AMG
350
2B
  3
AMGSNAPSETTINGS
350
6E
  3
DWGPROPS
350
871C
  0
DICTIONARY
  5
74
330
1F
100
AcDbDictionary
280
     1
281
     1
  3
ACAD_INDEX
360
83B7
  3
ACAD_LAYOUTSELFREF
360
83E5
  0
DICTIONARY
  5
83EA
330
101
100
AcDbDictionary
280
     1
281
     1
  3
ACAD_LAYOUTSELFREF
360
83EB
  0
DICTIONARY
  5
871E
330
110
100
AcDbDictionary
280
     1
281
     1
  3
ACAD_XREC_ROUNDTRIP
360
871F
  0
DICTIONARY
  5
83F3
102
{ACAD_REACTORS
330
C
102
}
330
C
100
AcDbDictionary
281
     1
  0
DICTIONARY
  5
D
102
{ACAD_REACTORS
330
C
102
}
330
C
100
AcDbDictionary
281
     1
  0
DICTIONARY
  5
1A
102
{ACAD_REACTORS
330
C
102
}
330
C
100
AcDbDictionary
281
     1
  3
Model
350
83F6
  3
レイアウト1
350
83F7
  0
DICTIONARY
  5
83F2
102
{ACAD_REACTORS
330
C
102
}
330
C
100
AcDbDictionary
281
     1
  0
DICTIONARY
  5
17
102
{ACAD_REACTORS
330
C
102
}
330
C
100
AcDbDictionary
281
     1
  3
STANDARD
350
18
  0
DICTIONARY
  5
19
102
{ACAD_REACTORS
330
C
102
}
330
C
100
AcDbDictionary
281
     1
  0
ACDBDICTIONARYWDFLT
  5
E
102
{ACAD_REACTORS
330
C
102
}
330
C
100
AcDbDictionary
281
     1
  3
Normal
350
F
100
AcDbDictionaryWithDefault
340
F
  0
DICTIONARY
  5
83F4
102
{ACAD_REACTORS
330
C
102
}
330
C
100
AcDbDictionary
281
     1
  3
Standard
350
83F5
  0
DICTIONARY
  5
871D
102
{ACAD_REACTORS
330
C
102
}
330
C
100
AcDbDictionary
281
     1
  0
DICTIONARY
  5
34
102
{ACAD_REACTORS
330
C
102
}
330
C
100
AcDbDictionary
281
     1
  3
CTABLESTYLE
350
8694
  3
DIMASSOC
350
8695
  3
INDEXCTL
350
35
  3
PROJECTNAME
350
8696
  3
SORTENTS
350
B5E
  0
DICTIONARY
  5
43
102
{ACAD_REACTORS
330
C
102
}
330
C
100
AcDbDictionary
281
     1
  3
ACMSTDDICTIONARY
350
260
  3
AMDTSECTSYM_ARROWCOLOR
350
846F
  0
DICTIONARY
  5
2B
102
{ACAD_REACTORS
330
C
102
}
330
C
100
AcDbDictionary
281
     1
  0
DICTIONARY
  5
6E
102
{ACAD_REACTORS
330
C
102
}
330
C
100
AcDbDictionary
281
     1
  0
XRECORD
  5
871C
102
{ACAD_REACTORS
330
C
102
}
330
C
100
AcDbXrecord
280
     1
  1
DWGPROPS COOKIE
  2

  3

  4

  6

  7

  8

  9

300
AmdtFileType=82
301
=
302
=
303
=
304
=
305
=
306
=
307
=
308
=
309
=
 40
0.1599639814814815
 41
2452836.771637361
 42
2455596.432029803
  1

 90
        1
  0
DICTIONARY
  5
83B7
102
{ACAD_REACTORS
330
74
102
}
330
74
100
AcDbDictionary
281
     1
  3
*A1
350
83B8
  0
XRECORD
  5
83E5
102
{ACAD_REACTORS
330
74
102
}
330
74
100
AcDbXrecord
280
     1
340
1F
  0
XRECORD
  5
83EB
102
{ACAD_REACTORS
330
83EA
102
}
330
83EA
100
AcDbXrecord
280
     1
340
101
  0
XRECORD
  5
871F
102
{ACAD_REACTORS
330
871E
102
}
330
871E
100
AcDbXrecord
280
     1
102
SHADEPLOT
 70
     0
  0
LAYOUT
  5
83F6
102
{ACAD_XDICTIONARY
360
8720
102
}
102
{ACAD_REACTORS
330
1A
102
}
330
1A
100
AcDbPlotSettings
  1

  2
SII LP-1010 (C2 VR)2R
  4

  6

 40
0.0
 41
0.0
 42
0.0
 43
0.0
 44
0.0
 45
0.0
 46
0.0
 47
0.0
 48
0.0
 49
0.0
140
0.0
141
0.0
142
1.0
143
1.0
 70
  1712
 72
     0
 73
     0
 74
     0
  7
sei_cad.ctb
 75
     0
147
1.0
148
0.0
149
0.0
100
AcDbLayout
  1
Model
 70
     1
 71
     0
 10
0.0
 20
0.0
 11
12.0
 21
9.0
 12
0.0
 22
0.0
 32
0.0
 14
0.0
 24
0.0
 34
0.0
 15
0.0
 25
0.0
 35
0.0
146
0.0
 13
0.0
 23
0.0
 33
0.0
 16
1.0
 26
0.0
 36
0.0
 17
0.0
 27
1.0
 37
0.0
 76
     0
330
1F
  0
LAYOUT
  5
83F7
102
{ACAD_XDICTIONARY
360
8722
102
}
102
{ACAD_REACTORS
330
1A
102
}
330
1A
100
AcDbPlotSettings
  1

  2
SII LP-1010 (C2 VR)2R
  4

  6

 40
0.0
 41
0.0
 42
0.0
 43
0.0
 44
0.0
 45
0.0
 46
0.0
 47
0.0
 48
0.0
 49
0.0
140
0.0
141
0.0
142
1.0
143
1.0
 70
   688
 72
     0
 73
     0
 74
     5
  7
sei_cad.ctb
 75
    16
147
1.0
148
0.0
149
0.0
100
AcDbLayout
  1
レイアウト1
 70
     0
 71
     1
 10
0.0
 20
0.0
 11
841.0
 21
594.0
 12
0.0
 22
0.0
 32
0.0
 14
1.000000000000000E+20
 24
1.000000000000000E+20
 34
1.000000000000000E+20
 15
-1.000000000000000E+20
 25
-1.000000000000000E+20
 35
-1.000000000000000E+20
146
0.0
 13
0.0
 23
0.0
 33
0.0
 16
1.0
 26
0.0
 36
0.0
 17
0.0
 27
1.0
 37
0.0
 76
     0
330
101
331
110
  0
MLINESTYLE
  5
18
102
{ACAD_REACTORS
330
17
102
}
330
17
100
AcDbMlineStyle
  2
STANDARD
 70
     0
  3

 62
   256
 51
90.0
 52
90.0
 71
     2
 49
0.5
 62
   256
  6
BYLAYER
 49
-0.5
 62
   256
  6
BYLAYER
  0
ACDBPLACEHOLDER
  5
F
102
{ACAD_REACTORS
330
E
102
}
330
E
  0
TABLESTYLE
  5
83F5
102
{ACAD_REACTORS
330
83F4
102
}
330
83F4
100
AcDbTableStyle
  3
Standard
 70
     0
 71
     0
 40
1.5
 41
1.5
280
     0
281
     0
  7
STANDARD
140
4.5
170
     2
 62
     0
 63
     7
283
     0
274
    -2
284
     1
 64
     0
275
    -2
285
     1
 65
     0
276
    -2
286
     1
 66
     0
277
    -2
287
     1
 67
     0
278
    -2
288
     1
 68
     0
279
    -2
289
     1
 69
     0
  7
STANDARD
140
6.0
170
     5
 62
     0
 63
     7
283
     0
274
    -2
284
     1
 64
     0
275
    -2
285
     1
 65
     0
276
    -2
286
     1
 66
     0
277
    -2
287
     1
 67
     0
278
    -2
288
     1
 68
     0
279
    -2
289
     1
 69
     0
  7
STANDARD
140
4.5
170
     5
 62
     0
 63
     7
283
     0
274
    -2
284
     1
 64
     0
275
    -2
285
     1
 65
     0
276
    -2
286
     1
 66
     0
277
    -2
287
     1
 67
     0
278
    -2
288
     1
 68
     0
279
    -2
289
     1
 69
     0
  0
DICTIONARYVAR
  5
8694
102
{ACAD_REACTORS
330
34
102
}
330
34
100
DictionaryVariables
280
     0
  1
STANDARD
  0
DICTIONARYVAR
  5
8695
102
{ACAD_REACTORS
330
34
102
}
330
34
100
DictionaryVariables
280
     0
  1
1
  0
DICTIONARYVAR
  5
35
102
{ACAD_REACTORS
330
34
102
}
330
34
100
DictionaryVariables
280
     0
  1
1
  0
DICTIONARYVAR
  5
8696
102
{ACAD_REACTORS
330
34
102
}
330
34
100
DictionaryVariables
280
     0
  1

  0
DICTIONARYVAR
  5
B5E
102
{ACAD_REACTORS
330
34
102
}
330
34
100
DictionaryVariables
280
     0
  1
96
  0
DICTIONARY
  5
260
102
{ACAD_REACTORS
330
43
102
}
330
43
100
AcDbDictionary
281
     1
  0
XRECORD
  5
846F
102
{ACAD_REACTORS
330
43
102
}
330
43
100
AcDbXrecord
280
     1
 90
-1023410169
  0
LAYER_INDEX
  5
83B8
102
{ACAD_REACTORS
330
83B7
102
}
330
83B7
100
AcDbIndex
 40
2455596.432029803
100
AcDbLayerIndex
  8
0
360
83B9
 90
       42
  8
AM_0
360
83BA
 90
       56
  8
AM_7
360
83BB
 90
        1
  8
AM_5
360
83BC
 90
       10
  8
DEFPOINTS
360
83BD
 90
        0
  8
AM_6
360
83BE
 90
        1
  8
AM_11
360
83BF
 90
        5
  0
DICTIONARY
  5
8720
330
83F6
100
AcDbDictionary
280
     1
281
     1
  3
ACAD_XREC_ROUNDTRIP
360
8721
  0
DICTIONARY
  5
8722
330
83F7
100
AcDbDictionary
280
     1
281
     1
  3
ACAD_XREC_ROUNDTRIP
360
8723
  0
IDBUFFER
  5
83B9
330
0
100
AcDbIdBuffer
330
85A1
330
85A2
330
85A3
330
85A4
330
85A5
330
85A6
330
85A7
330
85A8
330
85A9
330
85AA
330
85AB
330
85AC
330
85AD
330
85AE
330
85AF
330
85B0
330
85B1
330
85B2
330
85B3
330
85B4
330
85B5
330
85B7
330
85B8
330
85B9
330
85BA
330
85BB
330
85BC
330
85BD
330
85BE
330
85BF
330
85C0
330
85C1
330
85C2
330
85C3
330
85C4
330
85C5
330
85C6
330
85C7
330
85C8
330
85C9
330
85CA
330
85CB
  0
IDBUFFER
  5
83BA
330
0
100
AcDbIdBuffer
330
7012
330
7014
330
7015
330
7016
330
7019
330
701C
330
701D
330
7021
330
7024
330
7025
330
7026
330
7D2F
330
7D32
330
7D35
330
7D38
330
7D39
330
7D3A
330
7D43
330
7D46
330
7D49
330
7D4C
330
7D4F
330
7D50
330
7D52
330
7D53
330
7D54
330
7D56
330
7D57
330
7D58
330
7D59
330
7D5A
330
7D5B
330
7D5C
330
7D5D
330
7D5E
330
7D5F
330
7D60
330
7D61
330
7D62
330
7D63
330
7D64
330
7D65
330
7D66
330
7D68
330
7D72
330
7D73
330
7D74
330
7D75
330
7D76
330
7D77
330
7D78
330
7D79
330
8069
330
806A
330
85B6
330
85CC
  0
IDBUFFER
  5
83BB
330
0
100
AcDbIdBuffer
330
7011
  0
IDBUFFER
  5
83BC
330
0
100
AcDbIdBuffer
330
7D7D
330
7D7E
330
7D7F
330
7D80
330
7D81
330
7D82
330
7D83
330
82E6
330
860C
330
8654
  0
IDBUFFER
  5
83BD
330
0
100
AcDbIdBuffer
  0
IDBUFFER
  5
83BE
330
0
100
AcDbIdBuffer
330
E5A
  0
IDBUFFER
  5
83BF
330
0
100
AcDbIdBuffer
330
7013
330
7017
330
7D67
330
7D69
330
7EFF
  0
XRECORD
  5
8721
102
{ACAD_REACTORS
330
8720
102
}
330
8720
100
AcDbXrecord
280
     1
102
SHADEPLOT
 70
     0
102
SHADEPLOTRESLEVEL
 70
     2
102
SHADEPLOTCUSTOMDPI
 70
   300
  0
XRECORD
  5
8723
102
{ACAD_REACTORS
330
8722
102
}
330
8722
100
AcDbXrecord
280
     1
102
SHADEPLOT
 70
     0
102
SHADEPLOTRESLEVEL
 70
     2
102
SHADEPLOTCUSTOMDPI
 70
   300
  0
ENDSEC
  0
EOF
