  0
SECTION
  2
HEADER
  9
$ACADVER
  1
AC1015
  9
$ACADMAINTVER
 70
    20
  9
$DWGCODEPAGE
  3
ANSI_932
  9
$INSBASE
 10
0.0
 20
0.0
 30
0.0
  9
$EXTMIN
 10
-98.70000000000004
 20
-139.9500010100002
 30
0.0
  9
$EXTMAX
 10
288.8874529677143
 20
83.77788763548
 30
0.0
  9
$LIMMIN
 10
-127.6345166235091
 20
-165.8457001472045
  9
$LIMMAX
 10
76.68266932507956
 20
118.1469017567428
  9
$ORTHOMODE
 70
     0
  9
$REGENMODE
 70
     1
  9
$FILLMODE
 70
     1
  9
$QTEXTMODE
 70
     0
  9
$MIRRTEXT
 70
     0
  9
$LTSCALE
 40
1.0
  9
$ATTMODE
 70
     1
  9
$TEXTSIZE
 40
2.5
  9
$TRACEWID
 40
1.0
  9
$TEXTSTYLE
  7
STANDARD
  9
$CLAYER
  8
AM_0
  9
$CELTYPE
  6
BYLAYER
  9
$CECOLOR
 62
   256
  9
$CELTSCALE
 40
1.0
  9
$DISPSILH
 70
     0
  9
$DIMSCALE
 40
1.0
  9
$DIMASZ
 40
2.5
  9
$DIMEXO
 40
1.0
  9
$DIMDLI
 40
12.0
  9
$DIMRND
 40
0.0
  9
$DIMDLE
 40
0.0
  9
$DIMEXE
 40
1.0
  9
$DIMTP
 40
0.1
  9
$DIMTM
 40
0.1
  9
$DIMTXT
 40
3.2
  9
$DIMCEN
 40
0.0
  9
$DIMTSZ
 40
0.0
  9
$DIMTOL
 70
     0
  9
$DIMLIM
 70
     0
  9
$DIMTIH
 70
     0
  9
$DIMTOH
 70
     0
  9
$DIMSE1
 70
     0
  9
$DIMSE2
 70
     0
  9
$DIMTAD
 70
     3
  9
$DIMZIN
 70
     8
  9
$DIMBLK
  1
OPEN30
  9
$DIMASO
 70
     1
  9
$DIMSHO
 70
     1
  9
$DIMPOST
  1

  9
$DIMAPOST
  1
"
  9
$DIMALT
 70
     0
  9
$DIMALTD
 70
     2
  9
$DIMALTF
 40
0.0393701
  9
$DIMLFAC
 40
1.0
  9
$DIMTOFL
 70
     1
  9
$DIMTVP
 40
0.0
  9
$DIMTIX
 70
     0
  9
$DIMSOXD
 70
     0
  9
$DIMSAH
 70
     0
  9
$DIMBLK1
  1

  9
$DIMBLK2
  1

  9
$DIMSTYLE
  2
AM_JIS
  9
$DIMCLRD
 70
   256
  9
$DIMCLRE
 70
   256
  9
$DIMCLRT
 70
     2
  9
$DIMTFAC
 40
0.71
  9
$DIMGAP
 40
1.5
  9
$DIMJUST
 70
     0
  9
$DIMSD1
 70
     0
  9
$DIMSD2
 70
     0
  9
$DIMTOLJ
 70
     0
  9
$DIMTZIN
 70
     0
  9
$DIMALTZ
 70
     0
  9
$DIMALTTZ
 70
     0
  9
$DIMUPT
 70
     0
  9
$DIMDEC
 70
     3
  9
$DIMTDEC
 70
     3
  9
$DIMALTU
 70
     2
  9
$DIMALTTD
 70
     2
  9
$DIMTXSTY
  7
ASAMI
  9
$DIMAUNIT
 70
     0
  9
$DIMADEC
 70
     0
  9
$DIMALTRND
 40
0.0
  9
$DIMAZIN
 70
     2
  9
$DIMDSEP
 70
    46
  9
$DIMATFIT
 70
     3
  9
$DIMFRAC
 70
     0
  9
$DIMLDRBLK
  1
OPEN30
  9
$DIMLUNIT
 70
     2
  9
$DIMLWD
 70
    -1
  9
$DIMLWE
 70
    -1
  9
$DIMTMOVE
 70
     0
  9
$LUNITS
 70
     2
  9
$LUPREC
 70
     2
  9
$SKETCHINC
 40
1.0
  9
$FILLETRAD
 40
0.8
  9
$AUNITS
 70
     0
  9
$AUPREC
 70
     0
  9
$MENU
  1
.
  9
$ELEVATION
 40
0.0
  9
$PELEVATION
 40
0.0
  9
$THICKNESS
 40
0.0
  9
$LIMCHECK
 70
     0
  9
$CHAMFERA
 40
1.3
  9
$CHAMFERB
 40
1.3
  9
$CHAMFERC
 40
20.0
  9
$CHAMFERD
 40
0.0
  9
$SKPOLY
 70
     0
  9
$TDCREATE
 40
2452836.771637361
  9
$TDUCREATE
 40
2452836.396637361
  9
$TDUPDATE
 40
2455596.432941077
  9
$TDUUPDATE
 40
2455596.057941077
  9
$TDINDWG
 40
0.1709951852
  9
$TDUSRTIMER
 40
0.1709946528
  9
$USRTIMER
 70
     1
  9
$ANGBASE
 50
0.0
  9
$ANGDIR
 70
     0
  9
$PDMODE
 70
     0
  9
$PDSIZE
 40
0.0
  9
$PLINEWID
 40
0.0
  9
$SPLFRAME
 70
     0
  9
$SPLINETYPE
 70
     6
  9
$SPLINESEGS
 70
     8
  9
$HANDSEED
  5
AB3A
  9
$SURFTAB1
 70
     6
  9
$SURFTAB2
 70
     6
  9
$SURFTYPE
 70
     6
  9
$SURFU
 70
     6
  9
$SURFV
 70
     6
  9
$UCSBASE
  2

  9
$UCSNAME
  2

  9
$UCSORG
 10
0.0
 20
0.0
 30
0.0
  9
$UCSXDIR
 10
1.0
 20
0.0
 30
0.0
  9
$UCSYDIR
 10
0.0
 20
1.0
 30
0.0
  9
$UCSORTHOREF
  2

  9
$UCSORTHOVIEW
 70
     0
  9
$UCSORGTOP
 10
0.0
 20
0.0
 30
0.0
  9
$UCSORGBOTTOM
 10
0.0
 20
0.0
 30
0.0
  9
$UCSORGLEFT
 10
0.0
 20
0.0
 30
0.0
  9
$UCSORGRIGHT
 10
0.0
 20
0.0
 30
0.0
  9
$UCSORGFRONT
 10
0.0
 20
0.0
 30
0.0
  9
$UCSORGBACK
 10
0.0
 20
0.0
 30
0.0
  9
$PUCSBASE
  2

  9
$PUCSNAME
  2

  9
$PUCSORG
 10
0.0
 20
0.0
 30
0.0
  9
$PUCSXDIR
 10
1.0
 20
0.0
 30
0.0
  9
$PUCSYDIR
 10
0.0
 20
1.0
 30
0.0
  9
$PUCSORTHOREF
  2

  9
$PUCSORTHOVIEW
 70
     0
  9
$PUCSORGTOP
 10
0.0
 20
0.0
 30
0.0
  9
$PUCSORGBOTTOM
 10
0.0
 20
0.0
 30
0.0
  9
$PUCSORGLEFT
 10
0.0
 20
0.0
 30
0.0
  9
$PUCSORGRIGHT
 10
0.0
 20
0.0
 30
0.0
  9
$PUCSORGFRONT
 10
0.0
 20
0.0
 30
0.0
  9
$PUCSORGBACK
 10
0.0
 20
0.0
 30
0.0
  9
$USERI1
 70
     0
  9
$USERI2
 70
     0
  9
$USERI3
 70
     0
  9
$USERI4
 70
     0
  9
$USERI5
 70
     0
  9
$USERR1
 40
0.0
  9
$USERR2
 40
0.0
  9
$USERR3
 40
0.0
  9
$USERR4
 40
0.0
  9
$USERR5
 40
0.0
  9
$WORLDVIEW
 70
     1
  9
$SHADEDGE
 70
     3
  9
$SHADEDIF
 70
    70
  9
$TILEMODE
 70
     1
  9
$MAXACTVP
 70
    64
  9
$PINSBASE
 10
0.0
 20
0.0
 30
0.0
  9
$PLIMCHECK
 70
     0
  9
$PEXTMIN
 10
1.000000000000000E+20
 20
1.000000000000000E+20
 30
1.000000000000000E+20
  9
$PEXTMAX
 10
-1.000000000000000E+20
 20
-1.000000000000000E+20
 30
-1.000000000000000E+20
  9
$PLIMMIN
 10
0.0
 20
0.0
  9
$PLIMMAX
 10
841.0
 20
594.0
  9
$UNITMODE
 70
     0
  9
$VISRETAIN
 70
     1
  9
$PLINEGEN
 70
     0
  9
$PSLTSCALE
 70
     0
  9
$TREEDEPTH
 70
  3020
  9
$CMLSTYLE
  2
STANDARD
  9
$CMLJUST
 70
     0
  9
$CMLSCALE
 40
20.0
  9
$PROXYGRAPHICS
 70
     1
  9
$MEASUREMENT
 70
     1
  9
$CELWEIGHT
370
    -1
  9
$ENDCAPS
280
     0
  9
$JOINSTYLE
280
     0
  9
$LWDISPLAY
290
     0
  9
$INSUNITS
 70
     4
  9
$HYPERLINKBASE
  1

  9
$STYLESHEET
  1
ASAMI.CTB
  9
$XEDIT
290
     1
  9
$CEPSNTYPE
380
     0
  9
$PSTYLEMODE
290
     1
  9
$FINGERPRINTGUID
  2
{AFB28963-8C59-40AE-9337-C84526B81ACE}
  9
$VERSIONGUID
  2
{64E13D06-FA3D-4978-9505-ED3774F36830}
  9
$EXTNAMES
290
     1
  9
$PSVPSCALE
 40
0.0
  9
$OLESTARTUP
290
     0
  0
ENDSEC
  0
SECTION
  2
CLASSES
  0
CLASS
  1
ACDBDICTIONARYWDFLT
  2
AcDbDictionaryWithDefault
  3
ObjectDBX Classes
 90
        0
280
     0
281
     0
  0
CLASS
  1
ACDBPLACEHOLDER
  2
AcDbPlaceHolder
  3
ObjectDBX Classes
 90
        0
280
     0
281
     0
  0
CLASS
  1
LAYOUT
  2
AcDbLayout
  3
ObjectDBX Classes
 90
        0
280
     0
281
     0
  0
CLASS
  1
AMGSETTINGSOBJ
  2
AmgSettingsObj
  3
"AcadM|Product Description: AutoCAD Mechanical 2000|Company: Autodesk"
 90
        0
280
     0
281
     0
  0
CLASS
  1
ACME_DOCUMENT
  2
AcMeDbDoc
  3
AcMeServices
 90
        0
280
     0
281
     0
  0
CLASS
  1
ACMESCOPE
  2
AcMeScope
  3
AcMeServices
 90
        0
280
     0
281
     0
  0
CLASS
  1
ACMECOMMANDHISTORY
  2
AcMeCommandHistory
  3
AcMeServices
 90
        0
280
     0
281
     0
  0
CLASS
  1
DICTIONARYVAR
  2
AcDbDictionaryVar
  3
ObjectDBX Classes
 90
        0
280
     0
281
     0
  0
CLASS
  1
ACIMSYSVARMAN
  2
AcImSysVarManager
  3
AcMeServices
 90
        0
280
     0
281
     0
  0
CLASS
  1
ACIMREALSYSVAR
  2
AcImRealSysVar
  3
AcMeServices
 90
        0
280
     0
281
     0
  0
CLASS
  1
ACIMINTSYSVAR
  2
AcImIntSysVar
  3
AcMeServices
 90
        0
280
     0
281
     0
  0
CLASS
  1
ACMEDRAWINGMAN
  2
AcMeDrawingMan
  3
AcMeServices
 90
        0
280
     0
281
     0
  0
CLASS
  1
ACMEVIEW
  2
AcMeView
  3
AcMeServices
 90
        0
280
     0
281
     0
  0
CLASS
  1
ACDBENTITYCACHE
  2
AcMeEntityCache
  3
AcMeServices
 90
        0
280
     0
281
     0
  0
CLASS
  1
GSMANAGER
  2
AcMeGSManager
  3
AcMeServices
 90
        0
280
     0
281
     0
  0
CLASS
  1
AMDTINTERNALREACTOR
  2
AmdtInternalReactor
  3
AcMeServices
 90
        0
280
     0
281
     0
  0
CLASS
  1
ACMESTATEMGR
  2
AcMeStateMgr
  3
AcMeServices
 90
        0
280
     0
281
     0
  0
CLASS
  1
ACME_DATABASE
  2
AcMeDbDatabase
  3
AcMeServices
 90
        0
280
     0
281
     0
  0
CLASS
  1
ACRFINSADJUSTERMGR
  2
AcRfInsAdjusterMgr
  3
AcMeServices
 90
        0
280
     0
281
     0
  0
CLASS
  1
ACMDATADICTIONARY
  2
AcmDataDictionary
  3
"AcmSymBB|Product Description: AutoCAD Mechanical 2004 DX|Company: Autodesk"
 90
        0
280
     0
281
     0
  0
CLASS
  1
ACMDATAENTRYBLOCK
  2
AcmDataEntryBlock
  3
"AcmSymBB|Product Description: AutoCAD Mechanical 2004 DX|Company: Autodesk"
 90
    32768
280
     0
281
     0
  0
CLASS
  1
AMGOBJPROPCFG
  2
AmgObjPropCfg
  3
"AmgLay|Product Description: AutoCAD Mechanical 2000|Company: Autodesk"
 90
        1
280
     0
281
     0
  0
CLASS
  1
ACAMGFILTERDAT
  2
AcAmgFilterDat
  3
"AcadM|Product Description: AutoCAD Mechanical 2000|Company: Autodesk"
 90
    32768
280
     0
281
     0
  0
CLASS
  1
LAYER_INDEX
  2
AcDbLayerIndex
  3
ObjectDBX Classes
 90
        0
280
     0
281
     0
  0
CLASS
  1
IDBUFFER
  2
AcDbIdBuffer
  3
ObjectDBX Classes
 90
        0
280
     0
281
     0
  0
CLASS
  1
ACIMSTRSYSVAR
  2
AcImStrSysVar
  3
AcMeServices
 90
        0
280
     0
281
     0
  0
CLASS
  1
ACMSTANDARDJIS
  2
AcmStandardJIS
  3
"Amdt_StdImp|Product Description: AutoCAD Mechanical 2004 DX|Company: Autodesk"
 90
    32768
280
     0
281
     0
  0
CLASS
  1
ACMSURFSTANDARDJIS
  2
AcmSurfTextStdJIS
  3
"Amdt_StdImp|Product Description: AutoCAD Mechanical 2004 DX|Company: Autodesk"
 90
    32768
280
     0
281
     0
  0
CLASS
  1
ACMFCFSTANDARDJIS
  2
AcmFCFStdJIS
  3
"Amdt_StdImp|Product Description: AutoCAD Mechanical 2004 DX|Company: Autodesk"
 90
    32768
280
     0
281
     0
  0
CLASS
  1
ACMWELDSTANDARDJIS
  2
AcmWeldingStdJIS
  3
"Amdt_StdImp|Product Description: AutoCAD Mechanical 2004 DX|Company: Autodesk"
 90
    32768
280
     0
281
     0
  0
CLASS
  1
ACMIDSTANDARDJIS
  2
AcmIdStdJIS
  3
"Amdt_StdImp|Product Description: AutoCAD Mechanical 2004 DX|Company: Autodesk"
 90
    32768
280
     0
281
     0
  0
CLASS
  1
ACMDATUMSTANDARDJIS
  2
AcmDatumStdJIS
  3
"Amdt_StdImp|Product Description: AutoCAD Mechanical 2004 DX|Company: Autodesk"
 90
    32768
280
     0
281
     0
  0
CLASS
  1
ACMBOMSTANDARDJIS
  2
AcmBOMStdJIS
  3
"Amdt_StdImp|Product Description: AutoCAD Mechanical 2004 DX|Company: Autodesk"
 90
    32768
280
     0
281
     0
  0
CLASS
  1
ACMSTANDARDANSI
  2
AcmStandardANSI
  3
"Amdt_StdImp|Product Description: AutoCAD Mechanical 2004 DX|Company: Autodesk"
 90
    32768
280
     0
281
     0
  0
CLASS
  1
ACMSURFSTANDARDANSI
  2
AcmSurfTextStdANSI
  3
"Amdt_StdImp|Product Description: AutoCAD Mechanical 2004 DX|Company: Autodesk"
 90
    32768
280
     0
281
     0
  0
CLASS
  1
ACMFCFSTANDARDANSI
  2
AcmFCFStdANSI
  3
"Amdt_StdImp|Product Description: AutoCAD Mechanical 2004 DX|Company: Autodesk"
 90
    32768
280
     0
281
     0
  0
CLASS
  1
ACMWELDSTANDARDANSI
  2
AcmWeldingStdANSI
  3
"Amdt_StdImp|Product Description: AutoCAD Mechanical 2004 DX|Company: Autodesk"
 90
    32768
280
     0
281
     0
  0
CLASS
  1
ACMIDSTANDARDANSI
  2
AcmIdStdANSI
  3
"Amdt_StdImp|Product Description: AutoCAD Mechanical 2004 DX|Company: Autodesk"
 90
    32768
280
     0
281
     0
  0
CLASS
  1
ACMDATUMSTANDARDANSI
  2
AcmDatumStdANSI
  3
"Amdt_StdImp|Product Description: AutoCAD Mechanical 2004 DX|Company: Autodesk"
 90
    32768
280
     0
281
     0
  0
CLASS
  1
ACMBOMSTANDARDANSI
  2
AcmBOMStdANSI
  3
"Amdt_StdImp|Product Description: AutoCAD Mechanical 2004 DX|Company: Autodesk"
 90
    32768
280
     0
281
     0
  0
CLASS
  1
ACMSTANDARDBSI
  2
AcmStandardBSI
  3
"Amdt_StdImp|Product Description: AutoCAD Mechanical 2004 DX|Company: Autodesk"
 90
    32768
280
     0
281
     0
  0
CLASS
  1
ACMSURFSTANDARDBSI
  2
AcmSurfTextStdBSI
  3
"Amdt_StdImp|Product Description: AutoCAD Mechanical 2004 DX|Company: Autodesk"
 90
    32768
280
     0
281
     0
  0
CLASS
  1
ACMFCFSTANDARDBSI
  2
AcmFCFStdBSI
  3
"Amdt_StdImp|Product Description: AutoCAD Mechanical 2004 DX|Company: Autodesk"
 90
    32768
280
     0
281
     0
  0
CLASS
  1
ACMWELDSTANDARDBSI
  2
AcmWeldingStdBSI
  3
"Amdt_StdImp|Product Description: AutoCAD Mechanical 2004 DX|Company: Autodesk"
 90
    32768
280
     0
281
     0
  0
CLASS
  1
ACMIDSTANDARDBSI
  2
AcmIdStdBSI
  3
"Amdt_StdImp|Product Description: AutoCAD Mechanical 2004 DX|Company: Autodesk"
 90
    32768
280
     0
281
     0
  0
CLASS
  1
ACMDATUMSTANDARDBSI
  2
AcmDatumStdBSI
  3
"Amdt_StdImp|Product Description: AutoCAD Mechanical 2004 DX|Company: Autodesk"
 90
    32768
280
     0
281
     0
  0
CLASS
  1
ACMBOMSTANDARDBSI
  2
AcmBOMStdBSI
  3
"Amdt_StdImp|Product Description: AutoCAD Mechanical 2004 DX|Company: Autodesk"
 90
    32768
280
     0
281
     0
  0
CLASS
  1
TABLESTYLE
  2
AcDbTableStyle
  3
ObjectDBX Classes
 90
     2047
280
     0
281
     0
  0
CLASS
  1
ACGREFMASTER
  2
AcGrefMaster
  3
AcAttribServices
 90
        0
280
     0
281
     0
  0
CLASS
  1
AM_DRAWING_MGR
  2
AcDmDwgMgr
  3
AcMechDwgViewMgmt
 90
        0
280
     0
281
     0
  0
CLASS
  1
AM_DWG_DOCUMENT
  2
AcDmDwgDocument
  3
AcMechDwgViewMgmt
 90
        0
280
     0
281
     0
  0
CLASS
  1
AM_DWG_SHEET
  2
AcDmSheet
  3
AcMechDwgViewMgmt
 90
        0
280
     0
281
     0
  0
CLASS
  1
AM_VIEWDIMPARMAP
  2
AcDmViewDimParMap
  3
AcMechDwgViewMgmt
 90
        0
280
     0
281
     0
  0
CLASS
  1
AM_DWGMGR_NAME
  2
AcDmDwgMgrName
  3
AcMechDwgViewMgmt
 90
        0
280
     0
281
     0
  0
CLASS
  1
ACGREFACADMASTER
  2
AcGrefacadMaster
  3
AcGrefServices
 90
        0
280
     0
281
     0
  0
CLASS
  1
AMDTMENUSTATEMGR
  2
AmdtMenuStateMgr
  3
McadcomServices
 90
        0
280
     0
281
     0
  0
CLASS
  1
AMDTMCOMMENUSTATE
  2
AmdtMcomMenuState
  3
McadcomServices
 90
        0
280
     0
281
     0
  0
CLASS
  1
AMIMASTER
  2
AmiMaster
  3
AmiServices
 90
        0
280
     0
281
     0
  0
CLASS
  1
MAPIAMMOUDLE
  2
MApiAmModule
  3
MApiAmServices
 90
        0
280
     0
281
     0
  0
CLASS
  1
AMDTADMENUSTATE
  2
AmdtAdMenuState
  3
DesignerServices
 90
        0
280
     0
281
     0
  0
CLASS
  1
ADAPPL
  2
AcAdAppl
  3
DesignerServices
 90
        0
280
     0
281
     0
  0
CLASS
  1
DEPMGR
  2
AcAdDepMgr
  3
DesignerServices
 90
        0
280
     0
281
     0
  0
CLASS
  1
PARAMMGR
  2
AcAdParamMgr
  3
DesignerServices
 90
        0
280
     0
281
     0
  0
CLASS
  1
PARAMSCOPE
  2
AcAdParamScope
  3
DesignerServices
 90
        0
280
     0
281
     0
  0
CLASS
  1
NAMEDAPPL
  2
AcAdNamedAppl
  3
DesignerServices
 90
        0
280
     0
281
     0
  0
CLASS
  1
AMDTDMMENUSTATE
  2
AmdtDmMenuState
  3
AcMechDwgViewMgmt
 90
        0
280
     0
281
     0
  0
CLASS
  1
AMDTAMMENUSTATE
  2
AmdtAmMenuState
  3
DesignerAssemblies
 90
        0
280
     0
281
     0
  0
CLASS
  1
ACAMPROJECT
  2
AcAmProject
  3
DesignerAssemblies
 90
        0
280
     0
281
     0
  0
CLASS
  1
ACAMGRCOMPDEF
  2
AcAmGrCompDef
  3
DesignerAssemblies
 90
        0
280
     0
281
     0
  0
CLASS
  1
ACCMCONTEXT
  2
AcCmContext
  3
DesignerAssemblies
 90
        0
280
     0
281
     0
  0
CLASS
  1
ACAMCOMPDEF
  2
AcAmCompDef
  3
DesignerAssemblies
 90
        0
280
     0
281
     0
  0
CLASS
  1
ACAMCOMPDEFMGR
  2
AcAmCompDefMgr
  3
DesignerAssemblies
 90
        0
280
     0
281
     0
  0
CLASS
  1
AMCONTEXTMGR
  2
AcAmContextMgr
  3
DesignerAssemblies
 90
        0
280
     0
281
     0
  0
CLASS
  1
ACAMCONTEXTMODELER
  2
AcAmContextModeler
  3
DesignerAssemblies
 90
        0
280
     0
281
     0
  0
CLASS
  1
CATALOGSTATE
  2
AcAmCatalogState
  3
DesignerAssemblies
 90
        0
280
     0
281
     0
  0
CLASS
  1
ACAMGRCOMPDEFSET
  2
AcAmGrCompDefSet
  3
DesignerAssemblies
 90
        0
280
     0
281
     0
  0
CLASS
  1
AMDTBROWSERDBTAB
  2
AmdtBrowserDbTab
  3
McadcomServices
 90
        0
280
     0
281
     0
  0
CLASS
  1
CBROWSERAPPOBJECT
  2
CBrowserAppObject
  3
McadcomServices
 90
        0
280
     0
281
     0
  0
CLASS
  1
DM_PLACEHOLDER
  2
AcDmSelsetPlaceholder
  3
AcMechDwgViewMgmt
 90
        0
280
     0
281
     0
  0
CLASS
  1
ACMSTANDARDISO
  2
AcmStandardISO
  3
"Amdt_StdImp|Product Description: AutoCAD Mechanical 2004 DX|Company: Autodesk"
 90
        0
280
     0
281
     0
  0
CLASS
  1
AMDTEDGESTANDARDISO13715
  2
AmdtEdgeStdISO13715
  3
"Amdt_StdImp|Product Description: AutoCAD Mechanical 2004 DX|Company: Autodesk"
 90
        0
280
     0
281
     0
  0
CLASS
  1
ACMSURFSTANDARDISO
  2
AcmSurfTextStdISO
  3
"Amdt_StdImp|Product Description: AutoCAD Mechanical 2004 DX|Company: Autodesk"
 90
        0
280
     0
281
     0
  0
CLASS
  1
ACMFCFSTANDARDISO
  2
AcmFCFStdISO
  3
"Amdt_StdImp|Product Description: AutoCAD Mechanical 2004 DX|Company: Autodesk"
 90
        0
280
     0
281
     0
  0
CLASS
  1
ACMWELDSTANDARDISO
  2
AcmWeldingStdISO
  3
"Amdt_StdImp|Product Description: AutoCAD Mechanical 2004 DX|Company: Autodesk"
 90
        0
280
     0
281
     0
  0
CLASS
  1
ACMIDSTANDARDISO
  2
AcmIdStdISO
  3
"Amdt_StdImp|Product Description: AutoCAD Mechanical 2004 DX|Company: Autodesk"
 90
        0
280
     0
281
     0
  0
CLASS
  1
ACMDATUMSTANDARDISO
  2
AcmDatumStdISO
  3
"Amdt_StdImp|Product Description: AutoCAD Mechanical 2004 DX|Company: Autodesk"
 90
        0
280
     0
281
     0
  0
CLASS
  1
ACMBOMSTANDARDISO
  2
AcmBOMStdISO
  3
"Amdt_StdImp|Product Description: AutoCAD Mechanical 2004 DX|Company: Autodesk"
 90
        0
280
     0
281
     0
  0
CLASS
  1
ACMDETAILSTANDARDISO
  2
AmdtDetailSymStdISO
  3
"Amdt_StdImp|Product Description: AutoCAD Mechanical 2004 DX|Company: Autodesk"
 90
        0
280
     0
281
     0
  0
CLASS
  1
ACMSECTIONSTANDARDISO
  2
AmdtSectionSymStdISO
  3
"Amdt_StdImp|Product Description: AutoCAD Mechanical 2004 DX|Company: Autodesk"
 90
        0
280
     0
281
     0
  0
CLASS
  1
ACMCENTERLINESTANDARDISO
  2
AmdtCenterLineStdISO
  3
"Amdt_StdImp|Product Description: AutoCAD Mechanical 2004 DX|Company: Autodesk"
 90
        0
280
     0
281
     0
  0
CLASS
  1
ACMTHREADLINESTANDARDISO
  2
AmdtThreadLineStdISO
  3
"Amdt_StdImp|Product Description: AutoCAD Mechanical 2004 DX|Company: Autodesk"
 90
        0
280
     0
281
     0
  0
CLASS
  1
ACMNOTESTANDARDISO
  2
AmdtNoteStdISO
  3
"Amdt_StdImp|Product Description: AutoCAD Mechanical 2004 DX|Company: Autodesk"
 90
        0
280
     0
281
     0
  0
CLASS
  1
AMDTNOTETEMPLATEDB
  2
AmdtNoteTemplateDB
  3
AMDT_STDIMP_MODULE_NAME
 90
        0
280
     0
281
     0
  0
CLASS
  1
ACAMGLAYSTD
  2
AcAmgLayStd
  3
"AcAmgLayStd|Product Description: AutoCAD Mechanical 2000|Company: Autodesk"
 90
        0
280
     0
281
     0
  0
CLASS
  1
ACAMGDIMSTD
  2
AcAmgDimStd
  3
"AcAmgDimStd|Product Description: AutoCAD Mechanical 2000|Company: Autodesk"
 90
        0
280
     0
281
     0
  0
CLASS
  1
ACAMGHOLECHARTSTDISO
  2
AcAmgHoleChartStdISO
  3
ACMSYMBB_MODULE_NAME
 90
        0
280
     0
281
     0
  0
CLASS
  1
ACAMGTITLESTD
  2
AcAmgTitleStd
  3
"TITLEAPP"
 90
        0
280
     0
281
     0
  0
CLASS
  1
ACRFATTGENMGR
  2
AcRfAttGeneralMgr
  3
AcAttribServices
 90
    32768
280
     0
281
     0
  0
ENDSEC
  0
SECTION
  2
TABLES
  0
TABLE
  2
VPORT
  5
8
330
0
100
AcDbSymbolTable
 70
     4
  0
VPORT
  5
AB31
330
8
100
AcDbSymbolTableRecord
100
AcDbViewportTableRecord
  2
*Active
 70
     0
 10
0.0
 20
0.0
 11
1.0
 21
1.0
 12
-25.47592364921474
 22
-23.84939919523086
 13
0.0
 23
0.0
 14
2.5
 24
2.5
 15
10.0
 25
10.0
 16
0.0
 26
0.0
 36
1.0
 17
0.0
 27
0.0
 37
0.0
 40
283.9926019039473
 41
2.002364066193853
 42
50.0
 43
0.0
 44
0.0
 50
0.0
 51
0.0
 71
     0
 72
   100
 73
     1
 74
     3
 75
     0
 76
     0
 77
     0
 78
     0
281
     0
 65
     0
110
0.0
120
0.0
130
0.0
111
1.0
121
0.0
131
0.0
112
0.0
122
1.0
132
0.0
 79
     0
146
0.0
  0
ENDTAB
  0
TABLE
  2
LTYPE
  5
5
330
0
100
AcDbSymbolTable
 70
    14
  0
LTYPE
  5
14
330
5
100
AcDbSymbolTableRecord
100
AcDbLinetypeTableRecord
  2
BYBLOCK
 70
     0
  3

 72
    65
 73
     0
 40
0.0
  0
LTYPE
  5
15
330
5
100
AcDbSymbolTableRecord
100
AcDbLinetypeTableRecord
  2
BYLAYER
 70
     0
  3

 72
    65
 73
     0
 40
0.0
  0
LTYPE
  5
16
330
5
100
AcDbSymbolTableRecord
100
AcDbLinetypeTableRecord
  2
CONTINUOUS
 70
     0
  3
Solid line
 72
    65
 73
     0
 40
0.0
  0
LTYPE
  5
4B
330
5
100
AcDbSymbolTableRecord
100
AcDbLinetypeTableRecord
  2
AM_ISO02W050
 70
     0
  3
__ __ __ __ __ __ __ __ __ __ __ __ __ __ __
 72
    65
 73
     2
 40
7.5
 49
6.0
 74
     0
 49
-1.5
 74
     0
  0
LTYPE
  5
4C
330
5
100
AcDbSymbolTableRecord
100
AcDbLinetypeTableRecord
  2
AM_ISO08W050
 70
     0
  3
____ . ____ . ____ . ____ . ____ . ____ . ____
 72
    65
 73
     4
 40
18.0
 49
12.0
 74
     0
 49
-1.5
 74
     0
 49
3.0
 74
     0
 49
-1.5
 74
     0
  0
LTYPE
  5
4D
330
5
100
AcDbSymbolTableRecord
100
AcDbLinetypeTableRecord
  2
AM_ISO09W050
 70
     0
  3
_____ . . _____ . . _____ . . ____ .. ____
 72
    65
 73
     6
 40
22.5
 49
12.0
 74
     0
 49
-1.5
 74
     0
 49
3.0
 74
     0
 49
-1.5
 74
     0
 49
3.0
 74
     0
 49
-1.5
 74
     0
  0
LTYPE
  5
4E
330
5
100
AcDbSymbolTableRecord
100
AcDbLinetypeTableRecord
  2
AMCONSTR
 70
     0
  3
_______________________
 72
    65
 73
     2
 40
9999.0
 49
9999.0
 74
     0
 49
0.0
 74
     0
  0
LTYPE
  5
4F
330
5
100
AcDbSymbolTableRecord
100
AcDbLinetypeTableRecord
  2
AM_ISO02W050X2
 70
     0
  3
 _ _ _ _ _ _ _ _ _ _ _ _
 72
    65
 73
     2
 40
3.75
 49
3.0
 74
     0
 49
-0.75
 74
     0
  0
LTYPE
  5
50
330
5
100
AcDbSymbolTableRecord
100
AcDbLinetypeTableRecord
  2
AM_ISO08W050X2
 70
     0
  3
__ . __ . __ . __ . __ . __
 72
    65
 73
     4
 40
9.0
 49
6.0
 74
     0
 49
-0.75
 74
     0
 49
1.5
 74
     0
 49
-0.75
 74
     0
  0
LTYPE
  5
53
330
5
100
AcDbSymbolTableRecord
100
AcDbLinetypeTableRecord
  2
AMZIGZAG
 70
     0
  3
/\/-/\/-/\/-/\/-/\/-/\/
 72
    65
 73
     2
 40
11.00009999999999
 49
0.0001
 74
     4
 75
   135
340
52
 46
0.04
 50
0.0
 44
0.0
 45
0.0
 49
-11.0
 74
     0
  0
LTYPE
  5
A8FD
330
5
100
AcDbSymbolTableRecord
100
AcDbLinetypeTableRecord
  2
HIDDEN
 70
     0
  3
Hidden __ __ __ __ __ __ __ __ __ __ __ __ __ _
 72
    65
 73
     2
 40
9.524999999999996
 49
6.349999999999998
 74
     0
 49
-3.174999999999998
 74
     0
  0
LTYPE
  5
A8FE
330
5
100
AcDbSymbolTableRecord
100
AcDbLinetypeTableRecord
  2
PHANTOM2
 70
     0
  3
Phantom (.5x) ___ _ _ ___ _ _ ___ _ _ ___ _ _
 72
    65
 73
     6
 40
31.75
 49
15.875
 74
     0
 49
-3.174999999999998
 74
     0
 49
3.174999999999998
 74
     0
 49
-3.174999999999998
 74
     0
 49
3.174999999999998
 74
     0
 49
-3.174999999999998
 74
     0
  0
LTYPE
  5
A8FF
330
5
100
AcDbSymbolTableRecord
100
AcDbLinetypeTableRecord
  2
CENTER
 70
     0
  3
Center ____ _ ____ _ ____ _ ____ _ ____ _ ____
 72
    65
 73
     4
 40
50.8
 49
31.75
 74
     0
 49
-6.349999999999998
 74
     0
 49
6.349999999999998
 74
     0
 49
-6.349999999999998
 74
     0
  0
LTYPE
  5
A93F
330
5
100
AcDbSymbolTableRecord
100
AcDbLinetypeTableRecord
  2
ACISOWELD
 70
     0
  3
_ _ _ _ _
 72
    65
 73
     2
 40
2.0
 49
2.0
 74
     0
 49
-1.0
 74
     0
  0
LTYPE
  5
A940
330
5
100
AcDbSymbolTableRecord
100
AcDbLinetypeTableRecord
  2
ACISOTGB
 70
     0
  3
__ . . __ . .
 72
    65
 73
     6
 40
9.0
 49
4.0
 74
     0
 49
-1.0
 74
     0
 49
1.0
 74
     0
 49
-1.0
 74
     0
 49
1.0
 74
     0
 49
-1.0
 74
     0
  0
LTYPE
  5
A941
330
5
100
AcDbSymbolTableRecord
100
AcDbLinetypeTableRecord
  2
ACISOTGL
 70
     0
  3
_ _ _ _ _
 72
    65
 73
     2
 40
3.0
 49
2.0
 74
     0
 49
-1.0
 74
     0
  0
ENDTAB
  0
TABLE
  2
LAYER
  5
2
330
0
100
AcDbSymbolTable
 70
     7
  0
LAYER
  5
10
330
2
100
AcDbSymbolTableRecord
100
AcDbLayerTableRecord
  2
0
 70
     0
 62
     7
  6
CONTINUOUS
370
    -3
390
F
  0
LAYER
  5
3F9
330
2
100
AcDbSymbolTableRecord
100
AcDbLayerTableRecord
  2
AM_0
 70
     0
 62
     7
  6
CONTINUOUS
370
    -3
390
F
  0
LAYER
  5
BD5
330
2
100
AcDbSymbolTableRecord
100
AcDbLayerTableRecord
  2
AM_7
 70
     0
 62
     4
  6
AM_ISO08W050
370
    -3
390
F
  0
LAYER
  5
BD6
330
2
100
AcDbSymbolTableRecord
100
AcDbLayerTableRecord
  2
AM_5
 70
     0
 62
     3
  6
CONTINUOUS
370
    -3
390
F
  0
LAYER
  5
BD7
330
2
100
AcDbSymbolTableRecord
100
AcDbLayerTableRecord
  2
DEFPOINTS
 70
     0
 62
     7
  6
CONTINUOUS
290
     0
370
    -3
390
F
  0
LAYER
  5
E59
330
2
100
AcDbSymbolTableRecord
100
AcDbLayerTableRecord
  2
AM_6
 70
     0
 62
     2
  6
CONTINUOUS
370
    -3
390
F
  0
LAYER
  5
1E31
330
2
100
AcDbSymbolTableRecord
100
AcDbLayerTableRecord
  2
AM_11
 70
     0
 62
     3
  6
AM_ISO09W050
370
    -3
390
F
  0
ENDTAB
  0
TABLE
  2
STYLE
  5
3
330
0
100
AcDbSymbolTable
 70
     5
  0
STYLE
  5
11
330
3
100
AcDbSymbolTableRecord
100
AcDbTextStyleTableRecord
  2
STANDARD
 70
     0
 40
0.0
 41
1.0
 50
0.0
 71
     0
 42
2.5
  3
simplex.shx
  4
EXTFONT.SHX
  0
STYLE
  5
52
330
3
100
AcDbSymbolTableRecord
100
AcDbTextStyleTableRecord
  2

 70
     1
 40
0.0
 41
1.0
 50
0.0
 71
     0
 42
2.5
  3
ltypeshp.shx
  4

  0
STYLE
  5
6B
330
3
100
AcDbSymbolTableRecord
100
AcDbTextStyleTableRecord
  2
ASAMI
 70
     0
 40
0.0
 41
1.0
 50
0.0
 71
     0
 42
2.5
  3
simplex.shx
  4
EXTFONT.SHX
  0
STYLE
  5
A931
330
3
100
AcDbSymbolTableRecord
100
AcDbTextStyleTableRecord
  2
ACISOTS
 70
     0
 40
1.0
 41
1.0
 50
0.0
 71
     0
 42
2.5
  3
isocp.shx
  4
extfont.shx
  0
STYLE
  5
A93E
330
3
100
AcDbSymbolTableRecord
100
AcDbTextStyleTableRecord
  2
ACISOGDT
 70
     0
 40
0.0
 41
1.0
 50
0.0
 71
     0
 42
2.5
  3
amgdt.shx
  4

  0
ENDTAB
  0
TABLE
  2
VIEW
  5
6
330
0
100
AcDbSymbolTable
 70
     0
  0
ENDTAB
  0
TABLE
  2
UCS
  5
7
330
0
100
AcDbSymbolTable
 70
     0
  0
ENDTAB
  0
TABLE
  2
APPID
  5
9
330
0
100
AcDbSymbolTable
 70
    20
  0
APPID
  5
12
330
9
100
AcDbSymbolTableRecord
100
AcDbRegAppTableRecord
  2
ACAD
 70
     0
  0
APPID
  5
30
330
9
100
AcDbSymbolTableRecord
100
AcDbRegAppTableRecord
  2
MCAD_NO_VIS
 70
     0
  0
APPID
  5
31
330
9
100
AcDbSymbolTableRecord
100
AcDbRegAppTableRecord
  2
ACAD_TEMP_GRAPHIC
 70
     0
  0
APPID
  5
2C2
330
9
100
AcDbSymbolTableRecord
100
AcDbRegAppTableRecord
  2
GENIUS_GENDTOL_13
 70
     0
  0
APPID
  5
339
330
9
100
AcDbSymbolTableRecord
100
AcDbRegAppTableRecord
  2
GENIUS_GENODEF_13
 70
     0
  0
APPID
  5
33A
330
9
100
AcDbSymbolTableRecord
100
AcDbRegAppTableRecord
  2
GENIUS_GENOBJ-N-RSBK_13
 70
     0
  0
APPID
  5
33B
330
9
100
AcDbSymbolTableRecord
100
AcDbRegAppTableRecord
  2
GENIUS_GENOBJ-N-LIB_13
 70
     0
  0
APPID
  5
33C
330
9
100
AcDbSymbolTableRecord
100
AcDbRegAppTableRecord
  2
GENIUS_GENSCALE_13
 70
     0
  0
APPID
  5
378
330
9
100
AcDbSymbolTableRecord
100
AcDbRegAppTableRecord
  2
GENIUS_GENDIMSH_14
 70
     0
  0
APPID
  5
BD8
330
9
100
AcDbSymbolTableRecord
100
AcDbRegAppTableRecord
  2
GENIUS_GENOBJ-N-CEN_13
 70
     0
  0
APPID
  5
BD9
330
9
100
AcDbSymbolTableRecord
100
AcDbRegAppTableRecord
  2
GENIUS_GENFIL_13
 70
     0
  0
APPID
  5
BDA
330
9
100
AcDbSymbolTableRecord
100
AcDbRegAppTableRecord
  2
GENIUS_GENOBJ-N-CHA_13
 70
     0
  0
APPID
  5
2BC1
330
9
100
AcDbSymbolTableRecord
100
AcDbRegAppTableRecord
  2
GENIUS_GENOBJ-N-FIL_13
 70
     0
  0
APPID
  5
A901
330
9
100
AcDbSymbolTableRecord
100
AcDbRegAppTableRecord
  2
AD_DRAW
 70
     0
  0
APPID
  5
A904
330
9
100
AcDbSymbolTableRecord
100
AcDbRegAppTableRecord
  2
ACATTRIBSERVICES
 70
     0
  0
APPID
  5
A922
330
9
100
AcDbSymbolTableRecord
100
AcDbRegAppTableRecord
  2
DESIGNERASSEMBLIES
 70
     0
  0
APPID
  5
A927
330
9
100
AcDbSymbolTableRecord
100
AcDbRegAppTableRecord
  2
ACADM_DIM_EDIT
 70
     0
  0
APPID
  5
A928
330
9
100
AcDbSymbolTableRecord
100
AcDbRegAppTableRecord
  2
AMDT_DM_ADJ
 70
     0
  0
APPID
  5
A954
330
9
100
AcDbSymbolTableRecord
100
AcDbRegAppTableRecord
  2
GENIUS_GENSCREG_15
 70
     0
  0
APPID
  5
A955
330
9
100
AcDbSymbolTableRecord
100
AcDbRegAppTableRecord
  2
GENIUS_GENOBJ-N-SDF_13
 70
     0
  0
ENDTAB
  0
TABLE
  2
DIMSTYLE
  5
A
330
0
100
AcDbSymbolTable
 70
    11
100
AcDbDimStyleTable
 71
     1
340
58
  0
DIMSTYLE
105
58
102
{ACAD_REACTORS
330
A398
330
A399
330
A39B
330
A39A
330
A39C
330
A39D
330
A39E
102
}
330
A
100
AcDbSymbolTableRecord
100
AcDbDimStyleTableRecord
  2
AM_JIS
 70
     0
  4
"
 41
2.5
 42
1.0
 43
12.0
 44
1.0
 47
0.1
 48
0.1
 73
     0
 74
     0
 77
     3
 78
     8
140
3.2
141
0.0
143
0.0393701
146
0.71
147
1.5
172
     1
176
   256
177
   256
178
     2
271
     3
272
     3
283
     0
340
6B
341
59
342
59
  0
DIMSTYLE
105
B34
102
{ACAD_REACTORS
330
AA2B
102
}
330
A
100
AcDbSymbolTableRecord
100
AcDbDimStyleTableRecord
  2
AM_JIS$2
 70
     0
  4
"
 41
2.5
 42
1.0
 43
12.0
 44
1.0
 47
0.1
 48
0.1
 73
     0
 74
     0
 77
     3
 78
     8
140
3.2
141
0.0
143
0.0393701
146
0.71
147
1.5
172
     1
176
   256
177
   256
178
     2
271
     3
272
     3
283
     0
340
6B
341
59
342
59
  0
DIMSTYLE
105
1E42
102
{ACAD_REACTORS
330
A7BC
330
AA73
102
}
330
A
100
AcDbSymbolTableRecord
100
AcDbDimStyleTableRecord
  2
AM_JIS$0
 70
     0
  4
"
 40
2.0
 41
2.5
 42
1.0
 43
10.0
 44
1.0
 47
0.1
 48
0.1
 73
     0
 74
     0
 77
     3
 78
     8
140
2.5
141
0.0
143
0.0393701
146
0.71
147
1.0
172
     1
176
   256
177
   256
178
     4
271
     3
272
     3
283
     0
340
6B
341
59
342
59
  0
DIMSTYLE
105
A94B
330
A
100
AcDbSymbolTableRecord
100
AcDbDimStyleTableRecord
  2
AM_ISO
 70
     0
  4
"
 41
2.5
 42
1.0
 43
10.0
 44
1.0
 47
0.1
 48
0.1
 73
     0
 74
     0
 77
     1
 78
     8
 79
     2
140
3.5
141
0.0
143
0.0393701
146
0.71
147
1.5
172
     1
176
   256
177
   256
178
     2
271
     2
272
     3
274
     4
283
     0
284
     8
340
11
371
    -1
372
    -1
  0
DIMSTYLE
105
A94C
330
A
100
AcDbSymbolTableRecord
100
AcDbDimStyleTableRecord
  2
AM_ISO$3
 70
     0
  4
"
 41
2.5
 42
1.0
 43
10.0
 44
1.0
 47
0.1
 48
0.1
 73
     0
 77
     1
 78
     8
 79
     2
140
3.5
141
0.0
143
0.0393701
146
0.71
147
1.5
176
   256
177
   256
178
     2
271
     2
272
     3
274
     4
283
     0
284
     8
288
     1
289
     0
340
11
371
    -1
372
    -1
  0
DIMSTYLE
105
A94D
330
A
100
AcDbSymbolTableRecord
100
AcDbDimStyleTableRecord
  2
AM_ISO$4
 70
     0
  4
"
 41
2.5
 42
1.0
 43
10.0
 44
1.0
 47
0.1
 48
0.1
 73
     0
 77
     1
 78
     8
 79
     2
140
3.5
141
0.0
143
0.0393701
146
0.71
147
1.5
176
   256
177
   256
178
     2
271
     2
272
     3
274
     4
283
     0
284
     8
288
     1
289
     0
340
11
371
    -1
372
    -1
  0
DIMSTYLE
105
A94E
330
A
100
AcDbSymbolTableRecord
100
AcDbDimStyleTableRecord
  2
AM_ISO$6
 70
     0
  4
"
 41
2.5
 42
1.0
 43
10.0
 44
1.0
 47
0.1
 48
0.1
 73
     0
 74
     0
 78
     8
 79
     2
140
3.5
141
0.0
143
0.0393701
146
0.71
147
1.5
172
     1
176
   256
177
   256
178
     2
271
     2
272
     3
274
     4
283
     0
284
     8
340
11
371
    -1
372
    -1
  0
DIMSTYLE
105
A94F
330
A
100
AcDbSymbolTableRecord
100
AcDbDimStyleTableRecord
  2
AM_ISO$7
 70
     0
  4
"
 41
2.5
 42
1.0
 43
10.0
 44
1.0
 47
0.1
 48
0.1
 73
     0
 74
     0
 77
     1
 78
     8
 79
     2
140
5.0
141
0.0
143
0.0393701
146
0.71
147
1.5
172
     1
176
   256
177
   256
178
     2
271
     2
272
     3
274
     4
283
     0
284
     8
340
11
371
    -1
372
    -1
  0
DIMSTYLE
105
A950
330
A
100
AcDbSymbolTableRecord
100
AcDbDimStyleTableRecord
  2
AM_ISO$SF
 70
     0
  4
"
 41
2.5
 42
1.0
 43
10.0
 44
1.0
 47
0.1
 48
0.1
 73
     0
 74
     0
 75
     1
 76
     1
 77
     1
 78
     8
 79
     2
140
3.5
141
0.0
143
0.0393701
146
0.71
147
1.5
172
     1
176
   256
177
   256
178
     2
271
     2
272
     3
274
     4
283
     0
284
     8
340
11
371
    -1
372
    -1
  0
DIMSTYLE
105
A951
330
A
100
AcDbSymbolTableRecord
100
AcDbDimStyleTableRecord
  2
AM_ISO$SH
 70
     0
  4
"
 41
2.5
 42
1.0
 43
10.0
 44
1.0
 47
0.1
 48
0.1
 73
     0
 74
     0
 75
     1
 76
     1
 77
     1
 78
     8
 79
     2
140
3.5
141
0.0
143
0.0393701
144
2.0
146
0.71
147
1.5
172
     1
173
     1
176
   256
177
   256
178
     2
271
     2
272
     3
274
     4
283
     0
284
     8
340
11
343
64
371
    -1
372
    -1
  0
DIMSTYLE
105
A958
330
A
100
AcDbSymbolTableRecord
100
AcDbDimStyleTableRecord
  2
STANDARD
 70
     0
340
11
  0
ENDTAB
  0
TABLE
  2
BLOCK_RECORD
  5
1
330
0
100
AcDbSymbolTable
 70
    13
  0
BLOCK_RECORD
  5
1F
102
{ACAD_XDICTIONARY
360
74
102
}
330
1
100
AcDbSymbolTableRecord
100
AcDbBlockTableRecord
  2
*MODEL_SPACE
340
A8CA
  0
BLOCK_RECORD
  5
101
102
{ACAD_XDICTIONARY
360
A8BE
102
}
330
1
100
AcDbSymbolTableRecord
100
AcDbBlockTableRecord
  2
*PAPER_SPACE
340
A8CB
  0
BLOCK_RECORD
  5
59
330
1
100
AcDbSymbolTableRecord
100
AcDbBlockTableRecord
  2
_OPEN30
340
0
102
{BLKREFS
331
A860
331
A861
331
A869
331
A86A
331
A62C
331
A62D
331
A647
331
A648
331
A63E
331
A63F
331
A662
331
A663
331
A635
331
A636
331
A857
331
A858
331
AA5A
331
AA5B
331
AAA3
331
AAA4
102
}
  0
BLOCK_RECORD
  5
64
330
1
100
AcDbSymbolTableRecord
100
AcDbBlockTableRecord
  2
GENAXEH
340
0
  0
BLOCK_RECORD
  5
A39F
330
1
100
AcDbSymbolTableRecord
100
AcDbBlockTableRecord
  2
*D2
340
0
  0
BLOCK_RECORD
  5
A3AB
330
1
100
AcDbSymbolTableRecord
100
AcDbBlockTableRecord
  2
*D3
340
0
  0
BLOCK_RECORD
  5
A3B9
330
1
100
AcDbSymbolTableRecord
100
AcDbBlockTableRecord
  2
*D4
340
0
  0
BLOCK_RECORD
  5
A3C5
330
1
100
AcDbSymbolTableRecord
100
AcDbBlockTableRecord
  2
*D5
340
0
  0
BLOCK_RECORD
  5
A3D1
330
1
100
AcDbSymbolTableRecord
100
AcDbBlockTableRecord
  2
*D6
340
0
  0
BLOCK_RECORD
  5
A3DD
330
1
100
AcDbSymbolTableRecord
100
AcDbBlockTableRecord
  2
*D7
340
0
  0
BLOCK_RECORD
  5
A3E9
330
1
100
AcDbSymbolTableRecord
100
AcDbBlockTableRecord
  2
*D8
340
0
  0
BLOCK_RECORD
  5
A7BD
330
1
100
AcDbSymbolTableRecord
100
AcDbBlockTableRecord
  2
*D9
340
0
  0
BLOCK_RECORD
  5
AA2C
330
1
100
AcDbSymbolTableRecord
100
AcDbBlockTableRecord
  2
*D10
340
0
  0
BLOCK_RECORD
  5
AA74
330
1
100
AcDbSymbolTableRecord
100
AcDbBlockTableRecord
  2
*D11
340
0
  0
ENDTAB
  0
ENDSEC
  0
SECTION
  2
BLOCKS
  0
BLOCK
  5
20
330
1F
100
AcDbEntity
  8
0
100
AcDbBlockBegin
  2
*MODEL_SPACE
 70
     0
 10
0.0
 20
0.0
 30
0.0
  3
*MODEL_SPACE
  1

  0
ENDBLK
  5
21
330
1F
100
AcDbEntity
  8
0
100
AcDbBlockEnd
  0
BLOCK
  5
103
330
101
100
AcDbEntity
 67
     1
  8
0
100
AcDbBlockBegin
  2
*PAPER_SPACE
 70
     0
 10
0.0
 20
0.0
 30
0.0
  3
*PAPER_SPACE
  1

  0
ENDBLK
  5
104
330
101
100
AcDbEntity
 67
     1
  8
0
100
AcDbBlockEnd
  0
BLOCK
  5
5D
330
59
100
AcDbEntity
  8
0
100
AcDbBlockBegin
  2
_OPEN30
 70
     0
 10
0.0
 20
0.0
 30
0.0
  3
_OPEN30
  1

  0
LINE
  5
5A
330
59
100
AcDbEntity
  8
0
 62
     0
100
AcDbLine
 10
-1.0
 20
0.26794919
 30
0.0
 11
0.0
 21
0.0
 31
0.0
  0
LINE
  5
5B
330
59
100
AcDbEntity
  8
0
 62
     0
100
AcDbLine
 10
0.0
 20
0.0
 30
0.0
 11
-1.0
 21
-0.26794919
 31
0.0
  0
LINE
  5
5C
330
59
100
AcDbEntity
  8
0
 62
     0
100
AcDbLine
 10
0.0
 20
0.0
 30
0.0
 11
-1.0
 21
0.0
 31
0.0
  0
ENDBLK
  5
5E
330
59
100
AcDbEntity
  8
0
100
AcDbBlockEnd
  0
BLOCK
  5
66
330
64
100
AcDbEntity
  8
0
100
AcDbBlockBegin
  2
GENAXEH
 70
     0
 10
0.0
 20
0.0
 30
0.0
  3
GENAXEH
  1

  0
LINE
  5
65
330
64
100
AcDbEntity
  8
0
100
AcDbLine
 10
-1.0
 20
0.0
 30
0.0
 11
1.0
 21
0.0
 31
0.0
  0
ENDBLK
  5
67
330
64
100
AcDbEntity
  8
0
100
AcDbBlockEnd
  0
BLOCK
  5
A3A9
330
A39F
100
AcDbEntity
  8
0
100
AcDbBlockBegin
  2
*D2
 70
     1
 10
0.0
 20
0.0
 30
0.0
  3
*D2
  1

  0
LINE
  5
A85D
330
A39F
100
AcDbEntity
  8
AM_5
100
AcDbLine
 10
-59.2000000000001
 20
25.4
 30
0.0
 11
-85.0000000000001
 21
25.4
 31
0.0
  0
LINE
  5
A85E
330
A39F
100
AcDbEntity
  8
AM_5
100
AcDbLine
 10
-59.2000000000001
 20
-25.4
 30
0.0
 11
-85.0000000000001
 21
-25.39999999999999
 31
0.0
  0
LINE
  5
A85F
330
A39F
100
AcDbEntity
  8
AM_5
100
AcDbLine
 10
-84.00000000000011
 20
22.9
 30
0.0
 11
-84.00000000000011
 21
-22.89999999999999
 31
0.0
  0
INSERT
  5
A860
330
A39F
100
AcDbEntity
  8
AM_5
100
AcDbBlockReference
  2
_OPEN30
 10
-84.00000000000011
 20
25.4
 30
0.0
 41
2.5
 42
2.5
 43
2.5
 50
90.0
  0
INSERT
  5
A861
330
A39F
100
AcDbEntity
  8
AM_5
100
AcDbBlockReference
  2
_OPEN30
 10
-84.00000000000011
 20
-25.39999999999999
 30
0.0
 41
2.5
 42
2.5
 43
2.5
 50
270.0
  0
MTEXT
  5
A862
330
A39F
100
AcDbEntity
  8
AM_5
 62
     2
100
AcDbMText
 10
-87.10000000000009
 20
-0.0000000000000087
 30
0.0
 40
3.2
 41
0.0
 71
     5
 72
     1
  1
%%c50.8
  7
ASAMI
 11
0.0000000000000001
 21
1.0
 31
0.0
 73
     1
 44
1.0
1001
ACAD
1000
MTEXTBEGIN
1070
    73
1070
     1
1070
    44
1040
1.0
1070
    74
1070
     0
1000
MTEXTEND
  0
POINT
  5
A863
330
A39F
100
AcDbEntity
  8
DEFPOINTS
 62
     0
100
AcDbPoint
 10
-58.2000000000001
 20
25.4
 30
0.0
  0
POINT
  5
A864
330
A39F
100
AcDbEntity
  8
DEFPOINTS
 62
     0
100
AcDbPoint
 10
-58.2000000000001
 20
-25.4
 30
0.0
  0
POINT
  5
A865
330
A39F
100
AcDbEntity
  8
DEFPOINTS
 62
     0
100
AcDbPoint
 10
-84.00000000000011
 20
-25.39999999999999
 30
0.0
  0
ENDBLK
  5
A3AA
330
A39F
100
AcDbEntity
  8
0
100
AcDbBlockEnd
  0
BLOCK
  5
A3B7
330
A3AB
100
AcDbEntity
  8
0
100
AcDbBlockBegin
  2
*D3
 70
     1
 10
0.0
 20
0.0
 30
0.0
  3
*D3
  1

  0
LINE
  5
A866
330
A3AB
100
AcDbEntity
  8
AM_5
100
AcDbLine
 10
-59.70000000000005
 20
9.5
 30
0.0
 11
-75.00000000000007
 21
9.500000000000003
 31
0.0
  0
LINE
  5
A867
330
A3AB
100
AcDbEntity
  8
AM_5
100
AcDbLine
 10
-59.70000000000005
 20
-9.5
 30
0.0
 11
-75.00000000000007
 21
-9.499999999999994
 31
0.0
  0
LINE
  5
A868
330
A3AB
100
AcDbEntity
  8
AM_5
100
AcDbLine
 10
-74.0000000000001
 20
7.000000000000006
 30
0.0
 11
-74.0000000000001
 21
-6.999999999999992
 31
0.0
  0
INSERT
  5
A869
330
A3AB
100
AcDbEntity
  8
AM_5
100
AcDbBlockReference
  2
_OPEN30
 10
-74.0000000000001
 20
9.500000000000003
 30
0.0
 41
2.5
 42
2.5
 43
2.5
 50
90.0
  0
INSERT
  5
A86A
330
A3AB
100
AcDbEntity
  8
AM_5
100
AcDbBlockReference
  2
_OPEN30
 10
-74.0000000000001
 20
-9.499999999999994
 30
0.0
 41
2.5
 42
2.5
 43
2.5
 50
270.0
  0
MTEXT
  5
A86B
330
A3AB
100
AcDbEntity
  8
AM_5
 62
     2
100
AcDbMText
 10
-77.10000000000007
 20
-0.0000000000001417
 30
0.0
 40
3.2
 41
0.0
 71
     5
 72
     1
  1
19
  7
ASAMI
 11
0.0000000000000001
 21
1.0
 31
0.0
 73
     1
 44
1.0
1001
ACAD
1000
MTEXTBEGIN
1070
    73
1070
     1
1070
    44
1040
1.0
1070
    74
1070
     0
1000
MTEXTEND
  0
POINT
  5
A86C
330
A3AB
100
AcDbEntity
  8
DEFPOINTS
 62
     0
100
AcDbPoint
 10
-58.70000000000004
 20
9.5
 30
0.0
  0
POINT
  5
A86D
330
A3AB
100
AcDbEntity
  8
DEFPOINTS
 62
     0
100
AcDbPoint
 10
-58.70000000000004
 20
-9.5
 30
0.0
  0
POINT
  5
A86E
330
A3AB
100
AcDbEntity
  8
DEFPOINTS
 62
     0
100
AcDbPoint
 10
-74.0000000000001
 20
-9.499999999999994
 30
0.0
  0
ENDBLK
  5
A3B8
330
A3AB
100
AcDbEntity
  8
0
100
AcDbBlockEnd
  0
BLOCK
  5
A3C3
330
A3B9
100
AcDbEntity
  8
0
100
AcDbBlockBegin
  2
*D4
 70
     1
 10
0.0
 20
0.0
 30
0.0
  3
*D4
  1

  0
LINE
  5
A629
330
A3B9
100
AcDbEntity
  8
AM_5
100
AcDbLine
 10
-60.00000000000017
 20
-50.0
 30
0.0
 11
-60.00000000000017
 21
-118.45000101
 31
0.0
  0
LINE
  5
A62A
330
A3B9
100
AcDbEntity
  8
AM_5
100
AcDbLine
 10
0.0000000000002557
 20
-79.49999999999953
 30
0.0
 11
0.0000000000002533
 21
-118.45000101
 31
0.0
  0
LINE
  5
A62B
330
A3B9
100
AcDbEntity
  8
AM_5
100
AcDbLine
 10
-57.50000000000017
 20
-117.45000101
 30
0.0
 11
-2.499999999999745
 21
-117.45000101
 31
0.0
  0
INSERT
  5
A62C
330
A3B9
100
AcDbEntity
  8
AM_5
100
AcDbBlockReference
  2
_OPEN30
 10
-60.00000000000017
 20
-117.45000101
 30
0.0
 41
2.5
 42
2.5
 43
2.5
 50
180.0
  0
INSERT
  5
A62D
330
A3B9
100
AcDbEntity
  8
AM_5
100
AcDbBlockReference
  2
_OPEN30
 10
0.0000000000002534
 20
-117.45000101
 30
0.0
 41
2.5
 42
2.5
 43
2.5
  0
MTEXT
  5
A62E
330
A3B9
100
AcDbEntity
  8
AM_5
 62
     2
100
AcDbMText
 10
-29.99999999999996
 20
-114.35000101
 30
0.0
 40
3.2
 41
0.0
 71
     5
 72
     1
  1
60
  7
ASAMI
 73
     1
 44
1.0
1001
ACAD
1000
MTEXTBEGIN
1070
    73
1070
     1
1070
    44
1040
1.0
1070
    74
1070
     0
1000
MTEXTEND
  0
POINT
  5
A62F
330
A3B9
100
AcDbEntity
  8
DEFPOINTS
 62
     0
100
AcDbPoint
 10
-60.00000000000017
 20
-49.0
 30
0.0
  0
POINT
  5
A630
330
A3B9
100
AcDbEntity
  8
DEFPOINTS
 62
     0
100
AcDbPoint
 10
0.0000000000002558
 20
-78.49999999999953
 30
0.0
  0
POINT
  5
A631
330
A3B9
100
AcDbEntity
  8
DEFPOINTS
 62
     0
100
AcDbPoint
 10
0.0000000000002534
 20
-117.45000101
 30
0.0
  0
ENDBLK
  5
A3C4
330
A3B9
100
AcDbEntity
  8
0
100
AcDbBlockEnd
  0
BLOCK
  5
A3CF
330
A3C5
100
AcDbEntity
  8
0
100
AcDbBlockBegin
  2
*D5
 70
     1
 10
0.0
 20
0.0
 30
0.0
  3
*D5
  1

  0
LINE
  5
A644
330
A3C5
100
AcDbEntity
  8
AM_5
100
AcDbLine
 10
-60.00000000000017
 20
-50.0
 30
0.0
 11
-60.00000000000017
 21
-108.45000101
 31
0.0
  0
LINE
  5
A645
330
A3C5
100
AcDbEntity
  8
AM_5
100
AcDbLine
 10
-22.00000000000011
 20
-35.99999999999985
 30
0.0
 11
-22.00000000000011
 21
-108.45000101
 31
0.0
  0
LINE
  5
A646
330
A3C5
100
AcDbEntity
  8
AM_5
100
AcDbLine
 10
-57.50000000000017
 20
-107.45000101
 30
0.0
 11
-24.50000000000011
 21
-107.45000101
 31
0.0
  0
INSERT
  5
A647
330
A3C5
100
AcDbEntity
  8
AM_5
100
AcDbBlockReference
  2
_OPEN30
 10
-60.00000000000017
 20
-107.45000101
 30
0.0
 41
2.5
 42
2.5
 43
2.5
 50
180.0
  0
INSERT
  5
A648
330
A3C5
100
AcDbEntity
  8
AM_5
100
AcDbBlockReference
  2
_OPEN30
 10
-22.00000000000011
 20
-107.45000101
 30
0.0
 41
2.5
 42
2.5
 43
2.5
  0
MTEXT
  5
A649
330
A3C5
100
AcDbEntity
  8
AM_5
 62
     2
100
AcDbMText
 10
-41.00000000000013
 20
-104.35000101
 30
0.0
 40
3.2
 41
0.0
 71
     5
 72
     1
  1
38
  7
ASAMI
 73
     1
 44
1.0
1001
ACAD
1000
MTEXTBEGIN
1070
    73
1070
     1
1070
    44
1040
1.0
1070
    74
1070
     0
1000
MTEXTEND
  0
POINT
  5
A64A
330
A3C5
100
AcDbEntity
  8
DEFPOINTS
 62
     0
100
AcDbPoint
 10
-60.00000000000017
 20
-49.0
 30
0.0
  0
POINT
  5
A64B
330
A3C5
100
AcDbEntity
  8
DEFPOINTS
 62
     0
100
AcDbPoint
 10
-22.00000000000011
 20
-34.99999999999985
 30
0.0
  0
POINT
  5
A64C
330
A3C5
100
AcDbEntity
  8
DEFPOINTS
 62
     0
100
AcDbPoint
 10
-22.00000000000011
 20
-107.45000101
 30
0.0
  0
ENDBLK
  5
A3D0
330
A3C5
100
AcDbEntity
  8
0
100
AcDbBlockEnd
  0
BLOCK
  5
A3DB
330
A3D1
100
AcDbEntity
  8
0
100
AcDbBlockBegin
  2
*D6
 70
     1
 10
0.0
 20
0.0
 30
0.0
  3
*D6
  1

  0
LINE
  5
A63B
330
A3D1
100
AcDbEntity
  8
AM_5
100
AcDbLine
 10
-60.00000000000017
 20
-50.0
 30
0.0
 11
-60.00000000000017
 21
-98.45000101000003
 31
0.0
  0
LINE
  5
A63C
330
A3D1
100
AcDbEntity
  8
AM_5
100
AcDbLine
 10
-49.00000000000005
 20
-9.5
 30
0.0
 11
-49.00000000000006
 21
-98.45000101000003
 31
0.0
  0
LINE
  5
A63D
330
A3D1
100
AcDbEntity
  8
AM_5
100
AcDbLine
 10
-57.50000000000017
 20
-97.45000101000004
 30
0.0
 11
-51.50000000000006
 21
-97.45000101000004
 31
0.0
  0
INSERT
  5
A63E
330
A3D1
100
AcDbEntity
  8
AM_5
100
AcDbBlockReference
  2
_OPEN30
 10
-60.00000000000017
 20
-97.45000101000004
 30
0.0
 41
2.5
 42
2.5
 43
2.5
 50
180.0
  0
INSERT
  5
A63F
330
A3D1
100
AcDbEntity
  8
AM_5
100
AcDbBlockReference
  2
_OPEN30
 10
-49.00000000000006
 20
-97.45000101000004
 30
0.0
 41
2.5
 42
2.5
 43
2.5
  0
MTEXT
  5
A640
330
A3D1
100
AcDbEntity
  8
AM_5
 62
     2
100
AcDbMText
 10
-54.5000000000001
 20
-94.35000101000005
 30
0.0
 40
3.2
 41
0.0
 71
     5
 72
     1
  1
11
  7
ASAMI
 73
     1
 44
1.0
1001
ACAD
1000
MTEXTBEGIN
1070
    73
1070
     1
1070
    44
1040
1.0
1070
    74
1070
     0
1000
MTEXTEND
  0
POINT
  5
A641
330
A3D1
100
AcDbEntity
  8
DEFPOINTS
 62
     0
100
AcDbPoint
 10
-60.00000000000017
 20
-49.0
 30
0.0
  0
POINT
  5
A642
330
A3D1
100
AcDbEntity
  8
DEFPOINTS
 62
     0
100
AcDbPoint
 10
-49.00000000000005
 20
-8.5
 30
0.0
  0
POINT
  5
A643
330
A3D1
100
AcDbEntity
  8
DEFPOINTS
 62
     0
100
AcDbPoint
 10
-49.00000000000006
 20
-97.45000101000004
 30
0.0
  0
ENDBLK
  5
A3DC
330
A3D1
100
AcDbEntity
  8
0
100
AcDbBlockEnd
  0
BLOCK
  5
A3E7
330
A3DD
100
AcDbEntity
  8
0
100
AcDbBlockBegin
  2
*D7
 70
     1
 10
0.0
 20
0.0
 30
0.0
  3
*D7
  1

  0
LINE
  5
A65F
330
A3DD
100
AcDbEntity
  8
AM_5
100
AcDbLine
 10
0.9999999999997156
 20
78.49999999999998
 30
0.0
 11
34.8069944268926
 21
78.49999999999997
 31
0.0
  0
LINE
  5
A660
330
A3DD
100
AcDbEntity
  8
AM_5
100
AcDbLine
 10
1.000000000000254
 20
-78.49999999999953
 30
0.0
 11
34.80699442689257
 21
-78.49999999999955
 31
0.0
  0
LINE
  5
A661
330
A3DD
100
AcDbEntity
  8
AM_5
100
AcDbLine
 10
33.8069944268926
 20
75.99999999999997
 30
0.0
 11
33.80699442689258
 21
-75.99999999999955
 31
0.0
  0
INSERT
  5
A662
330
A3DD
100
AcDbEntity
  8
AM_5
100
AcDbBlockReference
  2
_OPEN30
 10
33.8069944268926
 20
78.49999999999997
 30
0.0
 41
2.5
 42
2.5
 43
2.5
 50
90.0
  0
INSERT
  5
A663
330
A3DD
100
AcDbEntity
  8
AM_5
100
AcDbBlockReference
  2
_OPEN30
 10
33.80699442689258
 20
-78.49999999999955
 30
0.0
 41
2.5
 42
2.5
 43
2.5
 50
270.0
  0
MTEXT
  5
A664
330
A3DD
100
AcDbEntity
  8
AM_5
 62
     2
100
AcDbMText
 10
30.70699442689257
 20
0.0000000000002257
 30
0.0
 40
3.2
 41
0.0
 71
     5
 72
     1
  1
%%c157
  7
ASAMI
 11
0.0000000000000001
 21
1.0
 31
0.0
 73
     1
 44
1.0
1001
ACAD
1000
MTEXTBEGIN
1070
    73
1070
     1
1070
    44
1040
1.0
1070
    74
1070
     0
1000
MTEXTEND
  0
POINT
  5
A665
330
A3DD
100
AcDbEntity
  8
DEFPOINTS
 62
     0
100
AcDbPoint
 10
-0.0000000000002842
 20
78.49999999999998
 30
0.0
  0
POINT
  5
A666
330
A3DD
100
AcDbEntity
  8
DEFPOINTS
 62
     0
100
AcDbPoint
 10
0.0000000000002558
 20
-78.49999999999953
 30
0.0
  0
POINT
  5
A667
330
A3DD
100
AcDbEntity
  8
DEFPOINTS
 62
     0
100
AcDbPoint
 10
33.80699442689258
 20
-78.49999999999955
 30
0.0
  0
ENDBLK
  5
A3E8
330
A3DD
100
AcDbEntity
  8
0
100
AcDbBlockEnd
  0
BLOCK
  5
A3F3
330
A3E9
100
AcDbEntity
  8
0
100
AcDbBlockBegin
  2
*D8
 70
     1
 10
0.0
 20
0.0
 30
0.0
  3
*D8
  1

  0
LINE
  5
A632
330
A3E9
100
AcDbEntity
  8
AM_5
100
AcDbLine
 10
-21.00000000000011
 20
34.99999999999985
 30
0.0
 11
24.80699442689259
 21
34.99999999999984
 31
0.0
  0
LINE
  5
A633
330
A3E9
100
AcDbEntity
  8
AM_5
100
AcDbLine
 10
-21.00000000000011
 20
-35.00000000000037
 30
0.0
 11
24.80699442689257
 21
-35.00000000000038
 31
0.0
  0
LINE
  5
A634
330
A3E9
100
AcDbEntity
  8
AM_5
100
AcDbLine
 10
23.80699442689258
 20
32.49999999999984
 30
0.0
 11
23.80699442689257
 21
-32.50000000000038
 31
0.0
  0
INSERT
  5
A635
330
A3E9
100
AcDbEntity
  8
AM_5
100
AcDbBlockReference
  2
_OPEN30
 10
23.80699442689258
 20
34.99999999999984
 30
0.0
 41
2.5
 42
2.5
 43
2.5
 50
90.0
  0
INSERT
  5
A636
330
A3E9
100
AcDbEntity
  8
AM_5
100
AcDbBlockReference
  2
_OPEN30
 10
23.80699442689257
 20
-35.00000000000038
 30
0.0
 41
2.5
 42
2.5
 43
2.5
 50
270.0
  0
MTEXT
  5
A637
330
A3E9
100
AcDbEntity
  8
AM_5
 62
     2
100
AcDbMText
 10
20.70699442689257
 20
-0.000000000000264
 30
0.0
 40
3.2
 41
0.0
 71
     5
 72
     1
  1
%%c70
  7
ASAMI
 11
0.0000000000000001
 21
1.0
 31
0.0
 73
     1
 44
1.0
1001
ACAD
1000
MTEXTBEGIN
1070
    73
1070
     1
1070
    44
1040
1.0
1070
    74
1070
     0
1000
MTEXTEND
  0
POINT
  5
A638
330
A3E9
100
AcDbEntity
  8
DEFPOINTS
 62
     0
100
AcDbPoint
 10
-22.00000000000011
 20
34.99999999999985
 30
0.0
  0
POINT
  5
A639
330
A3E9
100
AcDbEntity
  8
DEFPOINTS
 62
     0
100
AcDbPoint
 10
-22.00000000000011
 20
-35.00000000000037
 30
0.0
  0
POINT
  5
A63A
330
A3E9
100
AcDbEntity
  8
DEFPOINTS
 62
     0
100
AcDbPoint
 10
23.80699442689257
 20
-35.00000000000038
 30
0.0
  0
ENDBLK
  5
A3F4
330
A3E9
100
AcDbEntity
  8
0
100
AcDbBlockEnd
  0
BLOCK
  5
A7C7
330
A7BD
100
AcDbEntity
  8
0
100
AcDbBlockBegin
  2
*D9
 70
     1
 10
0.0
 20
0.0
 30
0.0
  3
*D9
  1

  0
LINE
  5
A854
330
A7BD
100
AcDbEntity
  8
AM_5
100
AcDbLine
 10
-60.00000000000017
 20
50.0
 30
0.0
 11
-95.0
 21
50.0
 31
0.0
  0
LINE
  5
A855
330
A7BD
100
AcDbEntity
  8
AM_5
100
AcDbLine
 10
-60.00000000000017
 20
-50.0
 30
0.0
 11
-95.00000000000005
 21
-50.0
 31
0.0
  0
LINE
  5
A856
330
A7BD
100
AcDbEntity
  8
AM_5
100
AcDbLine
 10
-94.00000000000002
 20
47.5
 30
0.0
 11
-94.00000000000003
 21
-47.49999999999999
 31
0.0
  0
INSERT
  5
A857
330
A7BD
100
AcDbEntity
  8
AM_5
100
AcDbBlockReference
  2
_OPEN30
 10
-94.00000000000002
 20
50.0
 30
0.0
 41
2.5
 42
2.5
 43
2.5
 50
90.0
  0
INSERT
  5
A858
330
A7BD
100
AcDbEntity
  8
AM_5
100
AcDbBlockReference
  2
_OPEN30
 10
-94.00000000000003
 20
-50.0
 30
0.0
 41
2.5
 42
2.5
 43
2.5
 50
270.0
  0
MTEXT
  5
A859
330
A7BD
100
AcDbEntity
  8
AM_5
 62
     2
100
AcDbMText
 10
-97.10000000000002
 20
-0.0000000000000081
 30
0.0
 40
3.2
 41
0.0
 71
     5
 72
     1
  1
%%c100
  7
ASAMI
 11
0.0000000000000001
 21
1.0
 31
0.0
 73
     1
 44
1.0
1001
ACAD
1000
MTEXTBEGIN
1070
    73
1070
     1
1070
    44
1040
1.0
1070
    74
1070
     0
1000
MTEXTEND
  0
POINT
  5
A85A
330
A7BD
100
AcDbEntity
  8
DEFPOINTS
 62
     0
100
AcDbPoint
 10
-59.00000000000017
 20
50.0
 30
0.0
  0
POINT
  5
A85B
330
A7BD
100
AcDbEntity
  8
DEFPOINTS
 62
     0
100
AcDbPoint
 10
-59.00000000000017
 20
-50.0
 30
0.0
  0
POINT
  5
A85C
330
A7BD
100
AcDbEntity
  8
DEFPOINTS
 62
     0
100
AcDbPoint
 10
-94.00000000000003
 20
-50.0
 30
0.0
  0
ENDBLK
  5
A7C8
330
A7BD
100
AcDbEntity
  8
0
100
AcDbBlockEnd
  0
BLOCK
  5
AA62
330
AA2C
100
AcDbEntity
  8
0
100
AcDbBlockBegin
  2
*D10
 70
     1
 10
0.0
 20
0.0
 30
0.0
  3
*D10
  1

  0
LINE
  5
AA57
330
AA2C
100
AcDbEntity
  8
AM_5
100
AcDbLine
 10
-0.9629581765587927
 20
-79.28772254090555
 30
0.0
 11
-21.13788660285256
 21
-84.9371739734957
 31
0.0
  0
LINE
  5
AA58
330
AA2C
100
AcDbEntity
  8
AM_5
100
AcDbLine
 10
0.0000000000002558
 20
-80.0180717478452
 30
0.0
 11
0.0000000000003268
 21
-100.9690630965921
 31
0.0
  0
ARC
  5
AA59
330
AA2C
100
AcDbEntity
  8
AM_5
100
AcDbCircle
 10
0.0000000000002487
 20
-79.01807174784519
 30
0.0
 40
20.95099134874699
100
AcDbArc
 50
202.4844324355961
 51
263.1590556314709
  0
INSERT
  5
AA5A
330
AA2C
100
AcDbEntity
  8
AM_5
100
AcDbBlockReference
  2
_OPEN30
 10
-20.17492842629352
 20
-84.66752318043537
 30
0.0
 41
2.5
 42
2.5
 43
2.5
 50
109.0639602513315
  0
INSERT
  5
AA5B
330
AA2C
100
AcDbEntity
  8
AM_5
100
AcDbBlockReference
  2
_OPEN30
 10
0.0000000000003268
 20
-99.96906309659218
 30
0.0
 41
2.5
 42
2.5
 43
2.5
 50
356.5795278157356
  0
MTEXT
  5
AA5C
330
AA2C
100
AcDbEntity
  8
AM_5
 62
     2
100
AcDbMText
 10
-10.78729666794268
 20
-93.24101528042056
 30
0.0
 40
3.2
 41
0.0
 71
     5
 72
     1
  1
75%%d\P
  7
ASAMI
 11
0.7967593090326445
 21
-0.6042967842623548
 31
0.0
 73
     1
 44
1.0
1001
ACAD
1000
MTEXTBEGIN
1070
    73
1070
     1
1070
    44
1040
1.0
1070
    74
1070
     0
1000
MTEXTEND
  0
POINT
  5
AA5D
330
AA2C
100
AcDbEntity
  8
DEFPOINTS
 62
     0
100
AcDbPoint
 10
-15.94810951078583
 20
-92.60489777629075
 30
0.0
  0
POINT
  5
AA5E
330
AA2C
100
AcDbEntity
  8
DEFPOINTS
 62
     0
100
AcDbPoint
 10
0.0000000000002487
 20
-79.01807174784519
 30
0.0
  0
POINT
  5
AA5F
330
AA2C
100
AcDbEntity
  8
DEFPOINTS
 62
     0
100
AcDbPoint
 10
-0.0000000000002842
 20
78.49999999999997
 30
0.0
  0
POINT
  5
AA60
330
AA2C
100
AcDbEntity
  8
DEFPOINTS
 62
     0
100
AcDbPoint
 10
0.0000000000002558
 20
-78.500000000054
 30
0.0
  0
POINT
  5
AA61
330
AA2C
100
AcDbEntity
  8
DEFPOINTS
 62
     0
100
AcDbPoint
 10
288.8874529677143
 20
1.877166170259698
 30
0.0
  0
ENDBLK
  5
AA63
330
AA2C
100
AcDbEntity
  8
0
100
AcDbBlockEnd
  0
BLOCK
  5
AA8A
330
AA74
100
AcDbEntity
  8
0
100
AcDbBlockBegin
  2
*D11
 70
     1
 10
0.0
 20
0.0
 30
0.0
  3
*D11
  1

  0
LINE
  5
AAA0
330
AA74
100
AcDbEntity
  8
AM_5
370
    -2
100
AcDbLine
 10
-34.34019100000012
 20
83.73538300000001
 30
0.0
 11
44.80699442689256
 21
83.73538299999998
 31
0.0
  0
LINE
  5
AAA1
330
AA74
100
AcDbEntity
  8
AM_5
370
    -2
100
AcDbLine
 10
-34.34019100000012
 20
-83.73538300000001
 30
0.0
 11
44.80699442689253
 21
-83.73538300000005
 31
0.0
  0
LINE
  5
AAA2
330
AA74
100
AcDbEntity
  8
AM_5
370
    -2
100
AcDbLine
 10
43.80699442689258
 20
81.23538299999998
 30
0.0
 11
43.80699442689254
 21
-81.23538300000005
 31
0.0
  0
INSERT
  5
AAA3
330
AA74
100
AcDbEntity
  8
AM_5
370
    -2
100
AcDbBlockReference
  2
_OPEN30
 10
43.80699442689258
 20
83.73538299999998
 30
0.0
 41
2.5
 42
2.5
 43
2.5
 50
90.0
  0
INSERT
  5
AAA4
330
AA74
100
AcDbEntity
  8
AM_5
370
    -2
100
AcDbBlockReference
  2
_OPEN30
 10
43.80699442689254
 20
-83.73538300000005
 30
0.0
 41
2.5
 42
2.5
 43
2.5
 50
270.0
  0
MTEXT
  5
AAA5
330
AA74
100
AcDbEntity
  8
AM_5
 62
     2
100
AcDbMText
 10
40.70699442689256
 20
-0.0000000000000165
 30
0.0
 40
3.2
 41
0.0
 71
     5
 72
     1
  1
%%c167.47
  7
ASAMI
 11
0.0000000000000001
 21
1.0
 31
0.0
 73
     1
 44
1.0
1001
ACAD
1000
MTEXTBEGIN
1070
    73
1070
     1
1070
    44
1040
1.0
1070
    74
1070
     0
1000
MTEXTEND
  0
POINT
  5
AAA6
330
AA74
100
AcDbEntity
  8
DEFPOINTS
 62
     0
100
AcDbPoint
 10
-35.34019100000012
 20
83.73538300000001
 30
0.0
  0
POINT
  5
AAA7
330
AA74
100
AcDbEntity
  8
DEFPOINTS
 62
     0
100
AcDbPoint
 10
-35.34019100000012
 20
-83.73538300000001
 30
0.0
  0
POINT
  5
AAA8
330
AA74
100
AcDbEntity
  8
DEFPOINTS
 62
     0
100
AcDbPoint
 10
43.80699442689254
 20
-83.73538300000005
 30
0.0
  0
ENDBLK
  5
AA8B
330
AA74
100
AcDbEntity
  8
0
100
AcDbBlockEnd
  0
ENDSEC
  0
SECTION
  2
ENTITIES
  0
TEXT
  5
E5A
330
1F
100
AcDbEntity
  8
AM_6
100
AcDbText
 10
-50.35714285714281
 20
-139.95000101
 30
0.0
 40
5.0
  1
DPGF4160R
 72
     4
 11
-29.99999999999995
 21
-137.45000101
 31
0.0
100
AcDbText
  0
LINE
  5
92AE
330
1F
100
AcDbEntity
  8
AM_0
100
AcDbLine
 10
-8.000000000000312
 20
47.6
 30
0.0
 11
-7.999999999999943
 21
0.0
 31
0.0
  0
LINE
  5
92B0
330
1F
100
AcDbEntity
  8
AM_11
100
AcDbLine
 10
-22.00000000000011
 20
34.99999999999985
 30
0.0
 11
-22.00000000000011
 21
34.3861384096167
 31
0.0
  0
LINE
  5
92B1
330
1F
100
AcDbEntity
  8
AM_0
100
AcDbLine
 10
-60.00000000000017
 20
49.0
 30
0.0
 11
-60.00000000000007
 21
10.8
 31
0.0
  0
LINE
  5
92B2
330
1F
100
AcDbEntity
  8
AM_7
100
AcDbLine
 10
-64.32409533116839
 20
0.0
 30
0.0
 11
9.806993426892573
 21
0.0
 31
0.0
  0
LINE
  5
92B3
330
1F
100
AcDbEntity
  8
AM_0
100
AcDbLine
 10
-58.70000000000004
 20
9.5
 30
0.0
 11
-50.00000000000017
 21
9.5
 31
0.0
  0
LINE
  5
92B4
330
1F
100
AcDbEntity
  8
AM_0
100
AcDbLine
 10
-49.00000000000017
 20
8.5
 30
0.0
 11
-49.00000000000011
 21
0.0
 31
0.0
  0
LINE
  5
92B6
330
1F
100
AcDbEntity
  8
AM_0
100
AcDbLine
 10
-58.2000000000001
 20
25.4
 30
0.0
 11
-23.80000000000012
 21
25.4
 31
0.0
  0
LINE
  5
92B7
330
1F
100
AcDbEntity
  8
AM_0
100
AcDbLine
 10
-47.39719767662046
 20
81.96763809020508
 30
0.0
 11
-55.5657028102011
 21
51.48236190979496
 31
0.0
  0
LINE
  5
92B8
330
1F
100
AcDbEntity
  8
AM_0
100
AcDbLine
 10
-59.00000000000017
 20
50.0
 30
0.0
 11
-57.49755446277925
 21
50.0
 31
0.0
  0
LINE
  5
92B9
330
1F
100
AcDbEntity
  8
AM_0
100
AcDbLine
 10
-45.46534602404233
 20
83.45000000000004
 30
0.0
 11
-35.50000000000034
 21
83.45000000000004
 31
0.0
  0
LINE
  5
92BF
330
1F
100
AcDbEntity
  8
AM_0
100
AcDbLine
 10
-8.000000000000312
 20
53.60769515458663
 30
0.0
 11
-8.000000000000312
 21
51.60000000000001
 31
0.0
  0
LINE
  5
92C0
330
1F
100
AcDbEntity
  8
AM_11
100
AcDbLine
 10
-22.00000000000011
 20
34.99999999999985
 30
0.0
 11
-21.4070552360821
 21
35.15887907064794
 31
0.0
  0
LINE
  5
92C2
330
1F
100
AcDbEntity
  8
AM_0
100
AcDbLine
 10
-7.500000000000254
 20
51.60000000000003
 30
0.0
 11
-7.500000000000312
 21
47.60000000000003
 31
0.0
  0
LINE
  5
92C3
330
1F
100
AcDbEntity
  8
AM_0
100
AcDbLine
 10
-7.500000000000369
 20
47.60000000000003
 30
0.0
 11
-8.000000000000284
 21
47.6
 31
0.0
  0
LINE
  5
92C4
330
1F
100
AcDbEntity
  8
AM_0
100
AcDbLine
 10
-7.500000000000312
 20
51.60000000000003
 30
0.0
 11
-8.000000000000312
 21
51.60000000000001
 31
0.0
  0
ARC
  5
A1FF
330
1F
100
AcDbEntity
  8
AM_0
100
AcDbCircle
 10
-45.46534602404233
 20
81.45000000000004
 30
0.0
 40
2.0
100
AcDbArc
 50
90.0
 51
165.0
1001
GENIUS_GENODEF_13
1002
{
1000
HIER
1070
     0
1002
}
1002
{
1000
MANEDIT
1070
     0
1002
}
1002
{
1000
NOSEL
1070
     0
1002
}
1002
{
1000
BEHIND
1070
     0
1002
}
1002
{
1000
REACTOR
1002
}
1001
GENIUS_GENOBJ-N-FIL_13
1002
{
1000
OWNER
1000
GEN
1002
}
  0
ARC
  5
A202
330
1F
100
AcDbEntity
  8
AM_0
100
AcDbCircle
 10
-57.49755446277925
 20
52.0
 30
0.0
 40
2.0
100
AcDbArc
 50
270.0
 51
345.0
1001
GENIUS_GENODEF_13
1002
{
1000
HIER
1070
     0
1002
}
1002
{
1000
MANEDIT
1070
     0
1002
}
1002
{
1000
NOSEL
1070
     0
1002
}
1002
{
1000
BEHIND
1070
     0
1002
}
1002
{
1000
REACTOR
1002
}
1001
GENIUS_GENOBJ-N-FIL_13
1002
{
1000
OWNER
1000
GEN
1002
}
  0
ARC
  5
A205
330
1F
100
AcDbEntity
  8
AM_0
100
AcDbCircle
 10
-50.00000000000017
 20
8.5
 30
0.0
 40
1.0
100
AcDbArc
 50
0.0
 51
90.0
1001
GENIUS_GENODEF_13
1002
{
1000
HIER
1070
     0
1002
}
1002
{
1000
MANEDIT
1070
     0
1002
}
1002
{
1000
NOSEL
1070
     0
1002
}
1002
{
1000
BEHIND
1070
     0
1002
}
1002
{
1000
REACTOR
1002
}
1001
GENIUS_GENOBJ-N-FIL_13
1002
{
1000
OWNER
1000
GEN
1002
}
  0
ARC
  5
A209
330
1F
100
AcDbEntity
  8
AM_0
100
AcDbCircle
 10
-21.2000000000001
 20
34.3861384096167
 30
0.0
 40
0.8
100
AcDbArc
 50
105.0000000000004
 51
180.0
1001
GENIUS_GENODEF_13
1002
{
1000
HIER
1070
     0
1002
}
1002
{
1000
MANEDIT
1070
     0
1002
}
1002
{
1000
NOSEL
1070
     0
1002
}
1002
{
1000
BEHIND
1070
     0
1002
}
1002
{
1000
REACTOR
1002
}
1001
GENIUS_GENOBJ-N-FIL_13
1002
{
1000
OWNER
1000
GEN
1002
}
  0
LINE
  5
A20C
330
1F
100
AcDbEntity
  8
AM_0
100
AcDbLine
 10
-21.4070552360821
 20
35.15887907064795
 30
0.0
 11
-8.965925826289318
 21
38.49246964893314
 31
0.0
  0
LINE
  5
A20D
330
1F
100
AcDbEntity
  8
AM_0
100
AcDbLine
 10
-22.00000000000011
 20
34.3861384096167
 30
0.0
 11
-22.00000000000011
 21
0.0000000000000001
 31
0.0
  0
LINE
  5
A210
330
1F
100
AcDbEntity
  8
AM_0
100
AcDbLine
 10
-8.000000000000255
 20
39.75128869403567
 30
0.0
 11
-8.965925826289318
 21
38.49246964893314
 31
0.0
1001
GENIUS_GENFIL_13
1070
     0
1040
1.0
1040
1.0
1040
20.0
1040
0.0
1002
{
1002
}
1001
GENIUS_GENODEF_13
1002
{
1000
HIER
1070
     0
1002
}
1002
{
1000
MANEDIT
1070
     0
1002
}
1002
{
1000
NOSEL
1070
     0
1002
}
1002
{
1000
BEHIND
1070
     0
1002
}
1002
{
1000
REACTOR
1002
}
1001
GENIUS_GENOBJ-N-CHA_13
1002
{
1000
OWNER
1000
GEN
1002
}
  0
LINE
  5
A213
330
1F
100
AcDbEntity
  8
AM_0
100
AcDbLine
 10
-59.00000000000017
 20
50.0
 30
0.0
 11
-60.00000000000017
 21
49.0
 31
0.0
1001
GENIUS_GENFIL_13
1070
     0
1040
1.0
1040
1.0
1040
20.0
1040
0.0
1002
{
1002
}
1001
GENIUS_GENODEF_13
1002
{
1000
HIER
1070
     0
1002
}
1002
{
1000
MANEDIT
1070
     0
1002
}
1002
{
1000
NOSEL
1070
     0
1002
}
1002
{
1000
BEHIND
1070
     0
1002
}
1002
{
1000
REACTOR
1002
}
1001
GENIUS_GENOBJ-N-CHA_13
1002
{
1000
OWNER
1000
GEN
1002
}
  0
LINE
  5
A21C
330
1F
100
AcDbEntity
  8
AM_0
100
AcDbLine
 10
-60.0000000000001
 20
27.2
 30
0.0
 11
-58.2000000000001
 21
25.4
 31
0.0
1001
GENIUS_GENFIL_13
1070
     0
1040
1.8
1040
1.8
1040
20.0
1040
0.0
1002
{
1002
}
1001
GENIUS_GENODEF_13
1002
{
1000
HIER
1070
     0
1002
}
1002
{
1000
MANEDIT
1070
     0
1002
}
1002
{
1000
NOSEL
1070
     0
1002
}
1002
{
1000
BEHIND
1070
     0
1002
}
1002
{
1000
REACTOR
1002
}
1001
GENIUS_GENOBJ-N-CHA_13
1002
{
1000
OWNER
1000
GEN
1002
}
  0
LINE
  5
A21F
330
1F
100
AcDbEntity
  8
AM_0
100
AcDbLine
 10
-22.00000000000011
 20
27.2
 30
0.0
 11
-23.80000000000012
 21
25.4
 31
0.0
1001
GENIUS_GENFIL_13
1070
     0
1040
1.8
1040
1.8
1040
20.0
1040
0.0
1002
{
1002
}
1001
GENIUS_GENODEF_13
1002
{
1000
HIER
1070
     0
1002
}
1002
{
1000
MANEDIT
1070
     0
1002
}
1002
{
1000
NOSEL
1070
     0
1002
}
1002
{
1000
BEHIND
1070
     0
1002
}
1002
{
1000
REACTOR
1002
}
1001
GENIUS_GENOBJ-N-CHA_13
1002
{
1000
OWNER
1000
GEN
1002
}
  0
LINE
  5
A222
330
1F
100
AcDbEntity
  8
AM_0
100
AcDbLine
 10
-58.70000000000004
 20
9.5
 30
0.0
 11
-60.00000000000007
 21
10.8
 31
0.0
1001
GENIUS_GENFIL_13
1070
     0
1040
1.3
1040
1.3
1040
20.0
1040
0.0
1002
{
1002
}
1001
GENIUS_GENODEF_13
1002
{
1000
HIER
1070
     0
1002
}
1002
{
1000
MANEDIT
1070
     0
1002
}
1002
{
1000
NOSEL
1070
     0
1002
}
1002
{
1000
BEHIND
1070
     0
1002
}
1002
{
1000
REACTOR
1002
}
1001
GENIUS_GENOBJ-N-CHA_13
1002
{
1000
OWNER
1000
GEN
1002
}
  0
LINE
  5
A223
330
1F
100
AcDbEntity
  8
AM_0
100
AcDbLine
 10
-58.2000000000001
 20
25.4
 30
0.0
 11
-58.2000000000001
 21
9.5
 31
0.0
  0
LINE
  5
A224
330
1F
100
AcDbEntity
  8
AM_0
100
AcDbLine
 10
-23.80000000000012
 20
25.4
 30
0.0
 11
-23.80000000000012
 21
0.0
 31
0.0
  0
LINE
  5
A225
330
1F
100
AcDbEntity
  8
AM_0
100
AcDbLine
 10
-8.965925826289318
 20
38.49246964893314
 30
0.0
 11
-8.965925826289293
 21
0.0
 31
0.0
  0
LINE
  5
A30C
330
1F
100
AcDbEntity
  8
AM_0
100
AcDbLine
 10
-7.500000000000312
 20
47.60000000000003
 30
0.0
 11
-7.500000000000282
 21
0.0
 31
0.0
  0
LINE
  5
A30D
330
1F
100
AcDbEntity
  8
AM_0
100
AcDbLine
 10
-8.000000000000312
 20
-53.60769515458663
 30
0.0
 11
-4.3743726823041
 21
-67.13872051353911
 31
0.0
  0
LINE
  5
A30F
330
1F
100
AcDbEntity
  8
AM_0
100
AcDbLine
 10
-7.500000000000312
 20
-47.60000000000003
 30
0.0
 11
-7.500000000000282
 21
0.0
 31
0.0
  0
LINE
  5
A310
330
1F
100
AcDbEntity
  8
AM_0
100
AcDbLine
 10
-8.965925826289318
 20
-38.49246964893314
 30
0.0
 11
-8.965925826289293
 21
0.0
 31
0.0
  0
LINE
  5
A311
330
1F
100
AcDbEntity
  8
AM_0
100
AcDbLine
 10
-22.00000000000011
 20
-34.3861384096167
 30
0.0
 11
-22.00000000000011
 21
-0.0000000000000001
 31
0.0
  0
LINE
  5
A312
330
1F
100
AcDbEntity
  8
AM_0
100
AcDbLine
 10
-8.000000000000312
 20
-47.6
 30
0.0
 11
-7.999999999999943
 21
0.0
 31
0.0
  0
LINE
  5
A313
330
1F
100
AcDbEntity
  8
AM_0
100
AcDbLine
 10
-60.00000000000017
 20
-49.0
 30
0.0
 11
-60.00000000000007
 21
-10.8
 31
0.0
  0
LINE
  5
A314
330
1F
100
AcDbEntity
  8
AM_0
100
AcDbLine
 10
-58.2000000000001
 20
-25.4
 30
0.0
 11
-23.80000000000012
 21
-25.4
 31
0.0
  0
LINE
  5
A315
330
1F
100
AcDbEntity
  8
AM_0
100
AcDbLine
 10
-58.2000000000001
 20
-25.4
 30
0.0
 11
-58.2000000000001
 21
-9.5
 31
0.0
  0
LINE
  5
A316
330
1F
100
AcDbEntity
  8
AM_0
100
AcDbLine
 10
-58.70000000000004
 20
-9.5
 30
0.0
 11
-50.00000000000017
 21
-9.5
 31
0.0
  0
LINE
  5
A317
330
1F
100
AcDbEntity
  8
AM_0
100
AcDbLine
 10
-58.70000000000004
 20
-9.5
 30
0.0
 11
-60.00000000000007
 21
-10.8
 31
0.0
1001
GENIUS_GENFIL_13
1070
     0
1040
1.3
1040
1.3
1040
20.0
1040
0.0
1002
{
1002
}
1001
GENIUS_GENODEF_13
1002
{
1000
HIER
1070
     0
1002
}
1002
{
1000
MANEDIT
1070
     0
1002
}
1002
{
1000
NOSEL
1070
     0
1002
}
1002
{
1000
BEHIND
1070
     0
1002
}
1002
{
1000
REACTOR
1002
}
1001
GENIUS_GENOBJ-N-CHA_13
1002
{
1000
OWNER
1000
GEN
1002
}
  0
LINE
  5
A318
330
1F
100
AcDbEntity
  8
AM_0
100
AcDbLine
 10
-49.00000000000017
 20
-8.5
 30
0.0
 11
-49.00000000000011
 21
0.0
 31
0.0
  0
ARC
  5
A319
330
1F
100
AcDbEntity
  8
AM_0
100
AcDbCircle
 10
-50.00000000000017
 20
-8.5
 30
0.0
 40
1.0
100
AcDbArc
 50
270.0
 51
0.0
1001
GENIUS_GENODEF_13
1002
{
1000
HIER
1070
     0
1002
}
1002
{
1000
MANEDIT
1070
     0
1002
}
1002
{
1000
NOSEL
1070
     0
1002
}
1002
{
1000
BEHIND
1070
     0
1002
}
1002
{
1000
REACTOR
1002
}
1001
GENIUS_GENOBJ-N-FIL_13
1002
{
1000
OWNER
1000
GEN
1002
}
  0
LINE
  5
A31A
330
1F
100
AcDbEntity
  8
AM_0
100
AcDbLine
 10
-60.0000000000001
 20
-27.2
 30
0.0
 11
-58.2000000000001
 21
-25.4
 31
0.0
1001
GENIUS_GENFIL_13
1070
     0
1040
1.8
1040
1.8
1040
20.0
1040
0.0
1002
{
1002
}
1001
GENIUS_GENODEF_13
1002
{
1000
HIER
1070
     0
1002
}
1002
{
1000
MANEDIT
1070
     0
1002
}
1002
{
1000
NOSEL
1070
     0
1002
}
1002
{
1000
BEHIND
1070
     0
1002
}
1002
{
1000
REACTOR
1002
}
1001
GENIUS_GENOBJ-N-CHA_13
1002
{
1000
OWNER
1000
GEN
1002
}
  0
LINE
  5
A31B
330
1F
100
AcDbEntity
  8
AM_0
100
AcDbLine
 10
-23.80000000000012
 20
-25.4
 30
0.0
 11
-23.80000000000012
 21
0.0
 31
0.0
  0
LINE
  5
A31C
330
1F
100
AcDbEntity
  8
AM_0
100
AcDbLine
 10
-22.00000000000011
 20
-27.2
 30
0.0
 11
-23.80000000000012
 21
-25.4
 31
0.0
1001
GENIUS_GENFIL_13
1070
     0
1040
1.8
1040
1.8
1040
20.0
1040
0.0
1002
{
1002
}
1001
GENIUS_GENODEF_13
1002
{
1000
HIER
1070
     0
1002
}
1002
{
1000
MANEDIT
1070
     0
1002
}
1002
{
1000
NOSEL
1070
     0
1002
}
1002
{
1000
BEHIND
1070
     0
1002
}
1002
{
1000
REACTOR
1002
}
1001
GENIUS_GENOBJ-N-CHA_13
1002
{
1000
OWNER
1000
GEN
1002
}
  0
LINE
  5
A31E
330
1F
100
AcDbEntity
  8
AM_0
100
AcDbLine
 10
-47.39719767662046
 20
-81.96763809020508
 30
0.0
 11
-55.5657028102011
 21
-51.48236190979496
 31
0.0
  0
LINE
  5
A31F
330
1F
100
AcDbEntity
  8
AM_0
100
AcDbLine
 10
-59.00000000000017
 20
-50.0
 30
0.0
 11
-60.00000000000017
 21
-49.0
 31
0.0
1001
GENIUS_GENFIL_13
1070
     0
1040
1.0
1040
1.0
1040
20.0
1040
0.0
1002
{
1002
}
1001
GENIUS_GENODEF_13
1002
{
1000
HIER
1070
     0
1002
}
1002
{
1000
MANEDIT
1070
     0
1002
}
1002
{
1000
NOSEL
1070
     0
1002
}
1002
{
1000
BEHIND
1070
     0
1002
}
1002
{
1000
REACTOR
1002
}
1001
GENIUS_GENOBJ-N-CHA_13
1002
{
1000
OWNER
1000
GEN
1002
}
  0
ARC
  5
A320
330
1F
100
AcDbEntity
  8
AM_0
100
AcDbCircle
 10
-57.49755446277925
 20
-52.0
 30
0.0
 40
2.0
100
AcDbArc
 50
14.99999999999999
 51
90.00000000000005
1001
GENIUS_GENODEF_13
1002
{
1000
HIER
1070
     0
1002
}
1002
{
1000
MANEDIT
1070
     0
1002
}
1002
{
1000
NOSEL
1070
     0
1002
}
1002
{
1000
BEHIND
1070
     0
1002
}
1002
{
1000
REACTOR
1002
}
1001
GENIUS_GENOBJ-N-FIL_13
1002
{
1000
OWNER
1000
GEN
1002
}
  0
LINE
  5
A321
330
1F
100
AcDbEntity
  8
AM_0
100
AcDbLine
 10
-59.00000000000017
 20
-50.0
 30
0.0
 11
-57.49755446277925
 21
-50.0
 31
0.0
  0
ARC
  5
A322
330
1F
100
AcDbEntity
  8
AM_0
100
AcDbCircle
 10
-45.46534602404233
 20
-81.45000000000004
 30
0.0
 40
2.0
100
AcDbArc
 50
195.0
 51
270.0
1001
GENIUS_GENODEF_13
1002
{
1000
HIER
1070
     0
1002
}
1002
{
1000
MANEDIT
1070
     0
1002
}
1002
{
1000
NOSEL
1070
     0
1002
}
1002
{
1000
BEHIND
1070
     0
1002
}
1002
{
1000
REACTOR
1002
}
1001
GENIUS_GENOBJ-N-FIL_13
1002
{
1000
OWNER
1000
GEN
1002
}
  0
LINE
  5
A323
330
1F
100
AcDbEntity
  8
AM_0
100
AcDbLine
 10
-45.46534602404233
 20
-83.45000000000004
 30
0.0
 11
-35.50000000000034
 21
-83.45000000000004
 31
0.0
  0
LINE
  5
A328
330
1F
100
AcDbEntity
  8
AM_0
100
AcDbLine
 10
-21.4070552360821
 20
-35.15887907064795
 30
0.0
 11
-8.965925826289318
 21
-38.49246964893314
 31
0.0
  0
LINE
  5
A329
330
1F
100
AcDbEntity
  8
AM_11
100
AcDbLine
 10
-22.00000000000011
 20
-34.99999999999985
 30
0.0
 11
-22.00000000000011
 21
-34.3861384096167
 31
0.0
  0
ARC
  5
A32A
330
1F
100
AcDbEntity
  8
AM_0
100
AcDbCircle
 10
-21.2000000000001
 20
-34.3861384096167
 30
0.0
 40
0.8
100
AcDbArc
 50
180.0
 51
254.9999999999995
1001
GENIUS_GENODEF_13
1002
{
1000
HIER
1070
     0
1002
}
1002
{
1000
MANEDIT
1070
     0
1002
}
1002
{
1000
NOSEL
1070
     0
1002
}
1002
{
1000
BEHIND
1070
     0
1002
}
1002
{
1000
REACTOR
1002
}
1001
GENIUS_GENOBJ-N-FIL_13
1002
{
1000
OWNER
1000
GEN
1002
}
  0
LINE
  5
A32B
330
1F
100
AcDbEntity
  8
AM_11
100
AcDbLine
 10
-22.00000000000011
 20
-34.99999999999985
 30
0.0
 11
-21.4070552360821
 21
-35.15887907064794
 31
0.0
  0
LINE
  5
A32C
330
1F
100
AcDbEntity
  8
AM_0
100
AcDbLine
 10
-8.000000000000255
 20
-39.75128869403567
 30
0.0
 11
-8.965925826289318
 21
-38.49246964893314
 31
0.0
1001
GENIUS_GENFIL_13
1070
     0
1040
1.0
1040
1.0
1040
20.0
1040
0.0
1002
{
1002
}
1001
GENIUS_GENODEF_13
1002
{
1000
HIER
1070
     0
1002
}
1002
{
1000
MANEDIT
1070
     0
1002
}
1002
{
1000
NOSEL
1070
     0
1002
}
1002
{
1000
BEHIND
1070
     0
1002
}
1002
{
1000
REACTOR
1002
}
1001
GENIUS_GENOBJ-N-CHA_13
1002
{
1000
OWNER
1000
GEN
1002
}
  0
LINE
  5
A32D
330
1F
100
AcDbEntity
  8
AM_0
100
AcDbLine
 10
-7.500000000000254
 20
-51.60000000000003
 30
0.0
 11
-7.500000000000312
 21
-47.60000000000003
 31
0.0
  0
LINE
  5
A32E
330
1F
100
AcDbEntity
  8
AM_0
100
AcDbLine
 10
-7.500000000000369
 20
-47.60000000000003
 30
0.0
 11
-8.000000000000284
 21
-47.6
 31
0.0
  0
LINE
  5
A32F
330
1F
100
AcDbEntity
  8
AM_0
100
AcDbLine
 10
-8.000000000000312
 20
-53.60769515458663
 30
0.0
 11
-8.000000000000312
 21
-51.60000000000001
 31
0.0
  0
LINE
  5
A330
330
1F
100
AcDbEntity
  8
AM_0
100
AcDbLine
 10
-7.500000000000312
 20
-51.60000000000003
 30
0.0
 11
-8.000000000000312
 21
-51.60000000000001
 31
0.0
  0
LINE
  5
A334
330
1F
100
AcDbEntity
  8
AM_0
100
AcDbLine
 10
-2.000000000000226
 20
-69.85156751788834
 30
0.0
 11
-2.000000000000284
 21
0.0
 31
0.0
  0
DIMENSION
  5
A398
330
1F
100
AcDbEntity
  8
AM_5
100
AcDbDimension
  2
*D2
 10
-84.00000000000011
 20
-25.39999999999999
 30
0.0
 11
-87.10000000000009
 21
-0.0000000000000087
 31
0.0
 70
    32
  1
%%c<>
 71
     5
 42
-1.0
  3
AM_JIS
100
AcDbAlignedDimension
 13
-58.2000000000001
 23
25.4
 33
0.0
 14
-58.2000000000001
 24
-25.4
 34
0.0
 50
90.0
100
AcDbRotatedDimension
1001
GENIUS_GENDTOL_13
1000

1000
h7
1000

1040
0.0
  0
DIMENSION
  5
A399
330
1F
100
AcDbEntity
  8
AM_5
100
AcDbDimension
  2
*D3
 10
-74.0000000000001
 20
-9.499999999999994
 30
0.0
 11
-74.0000000000001
 21
-0.0000000000001421
 31
0.0
 70
   160
 71
     5
 42
-1.0
  3
AM_JIS
100
AcDbAlignedDimension
 13
-58.70000000000004
 23
9.5
 33
0.0
 14
-58.70000000000004
 24
-9.5
 34
0.0
 50
90.0
100
AcDbRotatedDimension
  0
DIMENSION
  5
A39A
330
1F
100
AcDbEntity
  8
AM_5
100
AcDbDimension
  2
*D5
 10
-22.00000000000011
 20
-107.45000101
 30
0.0
 11
-41.00000000000013
 21
-104.35000101
 31
0.0
 70
    32
 71
     5
 42
-1.0
  3
AM_JIS
100
AcDbAlignedDimension
 13
-60.00000000000017
 23
-49.0
 33
0.0
 14
-22.00000000000011
 24
-34.99999999999985
 34
0.0
100
AcDbRotatedDimension
  0
DIMENSION
  5
A39B
330
1F
100
AcDbEntity
  8
AM_5
100
AcDbDimension
  2
*D4
 10
0.0000000000002534
 20
-117.45000101
 30
0.0
 11
-29.99999999999996
 21
-114.35000101
 31
0.0
 70
    32
 71
     5
 42
-1.0
  3
AM_JIS
100
AcDbAlignedDimension
 13
-60.00000000000017
 23
-49.0
 33
0.0
 14
0.0000000000002558
 24
-78.49999999999953
 34
0.0
100
AcDbRotatedDimension
  0
DIMENSION
  5
A39C
330
1F
100
AcDbEntity
  8
AM_5
100
AcDbDimension
  2
*D6
 10
-49.00000000000006
 20
-97.45000101000004
 30
0.0
 11
-54.5000000000001
 21
-94.35000101000005
 31
0.0
 70
    32
 71
     5
 42
-1.0
  3
AM_JIS
100
AcDbAlignedDimension
 13
-60.00000000000017
 23
-49.0
 33
0.0
 14
-49.00000000000005
 24
-8.5
 34
0.0
100
AcDbRotatedDimension
  0
DIMENSION
  5
A39D
330
1F
100
AcDbEntity
  8
AM_5
100
AcDbDimension
  2
*D7
 10
33.80699442689258
 20
-78.49999999999955
 30
0.0
 11
30.70699442689257
 21
0.0000000000002257
 31
0.0
 70
    32
  1
%%c<>
 71
     5
 42
-1.0
  3
AM_JIS
100
AcDbAlignedDimension
 13
-0.0000000000002842
 23
78.49999999999998
 33
0.0
 14
0.0000000000002558
 24
-78.49999999999953
 34
0.0
 50
90.0
100
AcDbRotatedDimension
1001
GENIUS_GENDTOL_13
1000

1000
h7
1000

1040
0.0
  0
DIMENSION
  5
A39E
330
1F
100
AcDbEntity
  8
AM_5
100
AcDbDimension
  2
*D8
 10
23.80699442689257
 20
-35.00000000000038
 30
0.0
 11
20.70699442689257
 21
-0.000000000000264
 31
0.0
 70
    32
  1
%%c<>
 71
     5
 42
-1.0
  3
AM_JIS
100
AcDbAlignedDimension
 13
-22.00000000000011
 23
34.99999999999985
 33
0.0
 14
-22.00000000000011
 24
-35.00000000000037
 34
0.0
 50
90.0
100
AcDbRotatedDimension
1001
GENIUS_GENDTOL_13
1000

1000
h7
1000

1040
0.0
  0
LINE
  5
A50A
330
1F
100
AcDbEntity
  8
AM_11
100
AcDbLine
 10
-0.0000000000002842
 20
78.49999999999998
 30
0.0
 11
0.0000000000002558
 21
-78.50000000005401
 31
0.0
  0
LINE
  5
A586
330
1F
100
AcDbEntity
  8
AM_0
100
AcDbLine
 10
-35.50000000000034
 20
83.45000000000004
 30
0.0
 11
-35.30000000000014
 21
83.24999999999981
 31
0.0
  0
LINE
  5
A58A
330
1F
100
AcDbEntity
  8
AM_0
100
AcDbLine
 10
-4.374372682303696
 20
67.13872051353916
 30
0.0
 11
-8.000000000000312
 21
53.60769515458663
 31
0.0
  0
LINE
  5
A58B
330
1F
100
AcDbEntity
  8
AM_0
100
AcDbLine
 10
-2.000000000000226
 20
69.85156751788882
 30
0.0
 11
-2.000000000000284
 21
0.0
 31
0.0
  0
DIMENSION
  5
A7BC
330
1F
100
AcDbEntity
  8
AM_5
100
AcDbDimension
  2
*D9
 10
-94.00000000000003
 20
-50.0
 30
0.0
 11
-97.10000000000002
 21
-0.0000000000000081
 31
0.0
 70
    32
  1
%%c<>
 71
     5
 42
-1.0
  3
AM_JIS$0
100
AcDbAlignedDimension
 13
-59.00000000000017
 23
50.0
 33
0.0
 14
-59.00000000000017
 24
-50.0
 34
0.0
 50
270.0
100
AcDbRotatedDimension
1001
GENIUS_GENDTOL_13
1000

1000
h7
1000

1040
0.0
1001
ACAD
1000
DSTYLE
1002
{
1070
    40
1040
1.0
1070
    43
1040
12.0
1070
   140
1040
3.2
1070
   147
1040
1.5
1070
   178
1070
     2
1002
}
  0
LINE
  5
A9F2
330
1F
100
AcDbEntity
  8
0
100
AcDbLine
 10
-29.30000000000013
 20
83.44999999999997
 30
0.0
 11
-24.79382300000009
 21
83.44999999999997
 31
0.0
  0
LINE
  5
A9F3
330
1F
100
AcDbEntity
  8
0
100
AcDbLine
 10
-35.30000000000014
 20
83.24999999999981
 30
0.0
 11
-35.30000000000014
 21
76.44999999999997
 31
0.0
  0
LINE
  5
A9F4
330
1F
100
AcDbEntity
  8
0
100
AcDbLine
 10
-29.30000000000013
 20
76.44999999999997
 30
0.0
 11
-29.30000000000013
 21
83.44999999999997
 31
0.0
  0
LINE
  5
A9F5
330
1F
100
AcDbEntity
  8
0
100
AcDbLine
 10
-24.79382300000009
 20
83.44999999999997
 30
0.0
 11
-12.32111170264011
 21
79.87350756169941
 31
0.0
  0
LINE
  5
A9F6
330
1F
100
AcDbEntity
  8
0
100
AcDbLine
 10
-35.30000000000014
 20
76.44999999999997
 30
0.0
 11
-29.30000000000013
 21
76.44999999999997
 31
0.0
  0
SPLINE
  5
A9F7
330
1F
100
AcDbEntity
  8
0
100
AcDbSpline
210
0.0
220
0.0
230
1.0
 70
     8
 71
     3
 72
     8
 73
     4
 74
     0
 42
0.0000000001
 43
0.0000000001
 40
4.978856526690999
 40
4.978856526690999
 40
4.978856526690999
 40
4.978856526690999
 40
5.264248895717224
 40
5.264248895717224
 40
5.264248895717224
 40
5.264248895717224
 10
-35.34744258176136
 20
83.29744258176106
 30
0.0
 10
-35.34173265881964
 20
83.54512766665781
 30
0.0
 10
-35.34096182940988
 20
83.64025533332892
 30
0.0
 10
-35.34019100000012
 20
83.73538300000001
 30
0.0
  0
SPLINE
  5
A9F8
330
1F
100
AcDbEntity
  8
0
100
AcDbSpline
210
0.0
220
0.0
230
1.0
 70
     8
 71
     3
 72
    11
 73
     7
 74
     5
 42
0.0000000001
 43
0.0000000001
 44
0.0000000001
 40
0.0
 40
0.0
 40
0.0
 40
0.0
 40
4.207645926329937
 40
8.415289443427127
 40
12.62293231430067
 40
16.83057838038147
 40
16.83057838038147
 40
16.83057838038147
 40
16.83057838038147
 10
-35.34019100000012
 20
83.73538300000001
 30
0.0
 10
-33.93791451400629
 20
83.70774948554025
 30
0.0
 10
-31.13336234494041
 20
83.65248247244327
 30
0.0
 10
-26.9264474561201
 20
83.57411522196821
 30
0.0
 10
-22.71947707622359
 20
83.49878266311225
 30
0.0
 10
-19.91477738038076
 20
83.45160222700872
 30
0.0
 10
-18.51242700000011
 20
83.428012
 30
0.0
 11
-35.34019100000012
 21
83.73538300000001
 31
0.0
 11
-31.13334700000013
 21
83.65323799999998
 31
0.0
 11
-26.92643800000013
 21
83.57462099999997
 31
0.0
 11
-22.71946500000013
 21
83.49954300000002
 31
0.0
 11
-18.51242700000011
 21
83.428012
 31
0.0
  0
SPLINE
  5
A9F9
330
1F
100
AcDbEntity
  8
0
100
AcDbSpline
210
0.0
220
0.0
230
1.0
 70
     8
 71
     3
 72
    11
 73
     7
 74
     0
 42
0.0000000001
 43
0.0000000001
 40
0.0
 40
0.0
 40
0.0
 40
0.0
 40
1.959146512336426
 40
3.91829289340166
 40
5.877439141315277
 40
7.16346162527339
 40
7.16346162527339
 40
7.16346162527339
 40
7.16346162527339
 10
-18.51242700000011
 20
83.428012
 30
0.0
 10
-17.88467858912696
 20
83.24799888261379
 30
0.0
 10
-16.62918180944251
 20
82.88797265990309
 30
0.0
 10
-14.74575209934636
 20
82.34857745698873
 30
0.0
 10
-13.07791361013187
 20
81.87134822306452
 30
0.0
 10
-12.03783897111975
 20
81.57407864799944
 30
0.0
 10
-11.62566477638876
 20
81.45629082450421
 30
0.0
  0
SPLINE
  5
A9FA
330
1F
100
AcDbEntity
  8
0
100
AcDbSpline
210
0.0
220
0.0
230
1.0
 70
     8
 71
     3
 72
    11
 73
     7
 74
     5
 42
0.0000000001
 43
0.0000000001
 44
0.0000000001
 40
0.0
 40
0.0
 40
0.0
 40
0.0
 40
2.386726912347123
 40
4.773454078583338
 40
7.160180309909652
 40
9.546907966451945
 40
9.546907966451945
 40
9.546907966451945
 40
9.546907966451945
 10
-0.6954500000001076
 20
79.21281399999998
 30
0.0
 10
-1.461717515716779
 20
79.42676425845883
 30
0.0
 10
-2.994252628662155
 20
79.85466479813556
 30
0.0
 10
-5.292685755782287
 20
80.49783688295551
 30
0.0
 10
-7.590878786511133
 20
81.14186723279255
 30
0.0
 10
-9.12277410971048
 20
81.57205236811725
 30
0.0
 10
-9.888722000000086
 20
81.78714500000003
 30
0.0
 11
-0.6954500000001076
 21
79.21281399999998
 31
0.0
 11
-2.994191000000114
 21
79.85488499999998
 31
0.0
 11
-5.292646000000103
 21
80.49797999999999
 31
0.0
 11
-7.590820000000121
 21
81.142075
 31
0.0
 11
-9.888722000000086
 21
81.78714500000003
 31
0.0
  0
SPLINE
  5
A9FB
330
1F
100
AcDbEntity
  8
0
100
AcDbSpline
210
0.0
220
0.0
230
1.0
 70
     8
 71
     3
 72
    11
 73
     7
 74
     5
 42
0.0000000001
 43
0.0000000001
 44
0.0000000001
 40
0.0
 40
0.0
 40
0.0
 40
0.0
 40
0.3470727852151564
 40
0.6941453112266752
 40
1.041218590043995
 40
1.388290603049956
 40
1.388290603049956
 40
1.388290603049956
 40
1.388290603049956
 10
-11.27693900000014
 20
81.80144000000002
 30
0.0
 10
-11.16125435217072
 20
81.80023451835646
 30
0.0
 10
-10.92988514290841
 20
81.79782355596968
 30
0.0
 10
-10.58283078222106
 20
81.79423977980381
 30
0.0
 10
-10.23577648006575
 20
81.79067531195178
 30
0.0
 10
-10.00440668605021
 20
81.78832176922
 30
0.0
 10
-9.888722000000086
 20
81.78714500000003
 30
0.0
 11
-11.27693900000014
 21
81.80144000000002
 31
0.0
 11
-10.92988500000013
 21
81.79782900000002
 31
0.0
 11
-10.58283100000011
 21
81.79424299999999
 31
0.0
 11
-10.2357760000001
 21
81.790681
 31
0.0
 11
-9.888722000000086
 21
81.78714500000003
 31
0.0
  0
SPLINE
  5
A9FC
330
1F
100
AcDbEntity
  8
0
100
AcDbSpline
210
0.0
220
0.0
230
1.0
 70
     8
 71
     3
 72
    11
 73
     7
 74
     5
 42
0.0000000001
 43
0.0000000001
 44
0.0000000001
 40
0.0
 40
0.0
 40
0.0
 40
0.0
 40
0.2486284866723742
 40
0.4972576473474629
 40
0.7458867860500926
 40
0.994515177560369
 40
0.994515177560369
 40
0.994515177560369
 40
0.994515177560369
 10
-11.98379900000009
 20
81.10186199999999
 30
0.0
 10
-11.924891638588
 20
81.16015763480922
 30
0.0
 10
-11.80707675607286
 20
81.27674906246031
 30
0.0
 10
-11.63036086309863
 20
81.45164285125584
 30
0.0
 10
-11.45364584531249
 20
81.62653747928956
 30
0.0
 10
-11.33584122276547
 20
81.74313921816617
 30
0.0
 10
-11.27693900000014
 20
81.80144000000002
 30
0.0
 11
-11.98379900000009
 21
81.10186199999999
 31
0.0
 11
-11.8070780000001
 21
81.27674999999998
 31
0.0
 11
-11.6303610000001
 21
81.45164299999997
 31
0.0
 11
-11.4536470000001
 21
81.626539
 31
0.0
 11
-11.27693900000014
 21
81.80144000000002
 31
0.0
  0
SPLINE
  5
A9FD
330
1F
100
AcDbEntity
  8
0
100
AcDbSpline
210
0.0
220
0.0
230
1.0
 70
     8
 71
     3
 72
    11
 73
     7
 74
     5
 42
0.0000000001
 43
0.0000000001
 44
0.0000000001
 40
0.0
 40
0.0
 40
0.0
 40
0.0
 40
2.4011262090921
 40
4.802252518674526
 40
7.203379025223085
 40
9.604505391007482
 40
9.604505391007482
 40
9.604505391007482
 40
9.604505391007482
 10
-11.98379900000009
 20
81.10186199999999
 30
0.0
 10
-12.19573944138846
 20
80.33005759786863
 30
0.0
 10
-12.61962033303518
 20
78.78644876130488
 30
0.0
 10
-13.25551174734092
 20
76.47105466536302
 30
0.0
 10
-13.89145279576307
 20
74.15567414701127
 30
0.0
 10
-14.3154702693974
 20
72.61210270058865
 30
0.0
 10
-14.52747900000014
 20
71.840317
 30
0.0
 11
-11.98379900000009
 21
81.10186199999999
 31
0.0
 11
-12.61963200000014
 21
78.786452
 31
0.0
 11
-13.2555200000001
 21
76.471057
 31
0.0
 11
-13.89146700000009
 21
74.15567799999998
 31
0.0
 11
-14.52747900000014
 21
71.840317
 31
0.0
  0
SPLINE
  5
A9FE
330
1F
100
AcDbEntity
  8
0
100
AcDbSpline
210
0.0
220
0.0
230
1.0
 70
     8
 71
     3
 72
    11
 73
     7
 74
     5
 42
0.0000000001
 43
0.0000000001
 44
0.0000000001
 40
0.0
 40
0.0
 40
0.0
 40
0.0
 40
0.3498743970984434
 40
0.6997487941968873
 40
1.049623191295316
 40
1.399498588361182
 40
1.399498588361182
 40
1.399498588361182
 40
1.399498588361182
 10
-14.5387750000001
 20
70.44086400000002
 30
0.0
 10
-14.53783366661873
 20
70.55748499999963
 30
0.0
 10
-14.53595099985601
 20
70.79072699999887
 30
0.0
 10
-14.53312700057658
 20
71.14059000000466
 30
0.0
 10
-14.53030299514779
 20
71.49045333329417
 30
0.0
 10
-14.52842033261282
 20
71.72369566666084
 30
0.0
 10
-14.52747900000014
 20
71.840317
 30
0.0
 11
-14.5387750000001
 21
70.44086400000002
 31
0.0
 11
-14.53595100000012
 21
70.79072700000001
 31
0.0
 11
-14.53312700000009
 21
71.14059000000001
 31
0.0
 11
-14.53030300000011
 21
71.490453
 31
0.0
 11
-14.52747900000014
 21
71.840317
 31
0.0
  0
SPLINE
  5
A9FF
330
1F
100
AcDbEntity
  8
0
100
AcDbSpline
210
0.0
220
0.0
230
1.0
 70
     8
 71
     3
 72
    11
 73
     7
 74
     5
 42
0.0000000001
 43
0.0000000001
 44
0.0000000001
 40
0.0
 40
0.0
 40
0.0
 40
0.0
 40
0.2493431602852095
 40
0.498685662273931
 40
0.7480289005720349
 40
0.997372197464119
 40
0.997372197464119
 40
0.997372197464119
 40
0.997372197464119
 10
-13.84332500000011
 20
69.72595099999998
 30
0.0
 10
-13.90128054227343
 20
69.7855257967434
 30
0.0
 10
-14.01719147381034
 20
69.90467523294551
 30
0.0
 10
-14.19105420484164
 20
70.08340314314108
 30
0.0
 10
-14.36491676540704
 20
70.26213128269694
 30
0.0
 10
-14.48082225059625
 20
70.38128642289888
 30
0.0
 10
-14.5387750000001
 20
70.44086400000002
 30
0.0
 11
-13.84332500000011
 21
69.72595099999998
 31
0.0
 11
-14.01719100000014
 21
69.90467599999999
 31
0.0
 11
-14.19105400000012
 21
70.083403
 31
0.0
 11
-14.3649160000001
 21
70.26213199999998
 31
0.0
 11
-14.5387750000001
 21
70.44086400000002
 31
0.0
  0
SPLINE
  5
AA00
330
1F
100
AcDbEntity
  8
0
100
AcDbSpline
210
0.0
220
0.0
230
1.0
 70
     8
 71
     3
 72
    11
 73
     7
 74
     5
 42
0.0000000001
 43
0.0000000001
 44
0.0000000001
 40
0.0
 40
0.0
 40
0.0
 40
0.0
 40
2.38742689059099
 40
4.774853777542935
 40
7.162279712082687
 40
9.549706532515489
 40
9.549706532515489
 40
9.549706532515489
 40
9.549706532515489
 10
-13.84332500000011
 20
69.72595099999998
 30
0.0
 10
-13.07739829483217
 20
69.50992272467612
 30
0.0
 10
-11.54554488566377
 20
69.07786617435768
 30
0.0
 10
-9.247369771120853
 20
68.43118439086504
 30
0.0
 10
-6.948921886072966
 20
67.78547278414457
 30
0.0
 10
-5.416342723472441
 20
67.35599895460872
 30
0.0
 10
-4.650053000000126
 20
67.14126199999999
 30
0.0
 11
-13.84332500000011
 21
69.72595099999998
 31
0.0
 11
-11.54547900000011
 21
69.07810000000001
 31
0.0
 11
-9.247324000000103
 21
68.43134599999999
 31
0.0
 11
-6.948852000000101
 21
67.78572299999999
 31
0.0
 11
-4.650053000000126
 21
67.14126199999999
 31
0.0
  0
SPLINE
  5
AA01
330
1F
100
AcDbEntity
  8
0
100
AcDbSpline
210
0.0
220
0.0
230
1.0
 70
     8
 71
     3
 72
    11
 73
     7
 74
     5
 42
0.0000000001
 43
0.0000000001
 44
0.0000000001
 40
0.0
 40
0.0
 40
0.0
 40
0.0
 40
0.3470688894873867
 40
0.6941370577367528
 40
1.041205498353312
 40
1.38827422313993
 40
1.38827422313993
 40
1.38827422313993
 40
1.38827422313993
 10
-3.261836000000129
 20
67.128658
 30
0.0
 10
-3.377521020098992
 20
67.12969076127834
 30
0.0
 10
-3.608890819893624
 20
67.13175628168883
 30
0.0
 10
-3.955945128390786
 20
67.13489485894479
 30
0.0
 10
-4.302999156357657
 20
67.13805828699118
 30
0.0
 10
-4.534368353879531
 20
67.14019409537226
 30
0.0
 10
-4.650053000000126
 20
67.14126199999999
 30
0.0
 11
-3.261836000000129
 21
67.128658
 31
0.0
 11
-3.608891000000141
 21
67.131763
 31
0.0
 11
-3.955945000000098
 21
67.13489899999999
 31
0.0
 11
-4.302999000000113
 21
67.13806499999998
 31
0.0
 11
-4.650053000000126
 21
67.14126199999999
 31
0.0
  0
SPLINE
  5
AA02
330
1F
100
AcDbEntity
  8
0
100
AcDbSpline
210
0.0
220
0.0
230
1.0
 70
     8
 71
     3
 72
    11
 73
     7
 74
     5
 42
0.0000000001
 43
0.0000000001
 44
0.0000000001
 40
0.0
 40
0.0
 40
0.0
 40
0.0
 40
0.2488599468014214
 40
0.4977206215674049
 40
0.746580616202926
 40
0.9954406349484376
 40
0.9954406349484376
 40
0.9954406349484376
 40
0.9954406349484376
 10
-2.554976000000123
 20
67.82955099999998
 30
0.0
 10
-2.613878772040489
 20
67.77114110344638
 30
0.0
 10
-2.731684488423478
 20
67.6543211394787
 30
0.0
 10
-2.908397091452487
 20
67.47909540570531
 30
0.0
 10
-3.085114196877104
 20
67.30387417857767
 30
0.0
 10
-3.202928730390108
 20
67.18706339474538
 30
0.0
 10
-3.261836000000129
 20
67.128658
 30
0.0
 11
-2.554976000000123
 21
67.82955099999998
 31
0.0
 11
-2.73168500000014
 21
67.65432199999998
 31
0.0
 11
-2.90839800000009
 21
67.47909599999998
 31
0.0
 11
-3.085115000000087
 21
67.303875
 31
0.0
 11
-3.261836000000129
 21
67.128658
 31
0.0
  0
SPLINE
  5
AA03
330
1F
100
AcDbEntity
  8
0
100
AcDbSpline
210
0.0
220
0.0
230
1.0
 70
     8
 71
     3
 72
    11
 73
     7
 74
     5
 42
0.0000000001
 43
0.0000000001
 44
0.0000000001
 40
0.0
 40
0.0
 40
0.0
 40
0.0
 40
2.403284504857907
 40
4.806568086340526
 40
7.209852502971227
 40
9.613136090922713
 40
9.613136090922713
 40
9.613136090922713
 40
9.613136090922713
 10
-2.554976000000123
 20
67.82955099999998
 30
0.0
 10
-2.342986909334347
 20
68.60208809299035
 30
0.0
 10
-1.919008809451947
 20
70.14716198215166
 30
0.0
 10
-1.283079258657538
 20
72.4647832621124
 30
0.0
 10
-0.6471717948239401
 20
74.78241028541898
 30
0.0
 10
-0.2232545739128327
 20
76.32750085060038
 30
0.0
 10
-0.0112960000001294
 20
77.10004599999997
 30
0.0
 11
-2.554976000000123
 21
67.82955099999998
 31
0.0
 11
-1.919015000000115
 21
70.14716400000001
 31
0.0
 11
-1.28308300000009
 21
72.46478399999998
 31
0.0
 11
-0.647177000000113
 21
74.78241199999998
 31
0.0
 11
-0.0112960000001294
 21
77.10004599999997
 31
0.0
  0
SPLINE
  5
AA04
330
1F
100
AcDbEntity
  8
0
100
AcDbSpline
210
0.0
220
0.0
230
1.0
 70
     8
 71
     3
 72
    11
 73
     7
 74
     5
 42
0.0000000001
 43
0.0000000001
 44
0.0000000001
 40
0.0
 40
0.0
 40
0.0
 40
0.0
 40
0.3500003929955155
 40
0.6999997860235573
 40
1.050000179019058
 40
1.3999995720471
 40
1.3999995720471
 40
1.3999995720471
 40
1.3999995720471
 10
-0.0000000000001137
 20
78.5
 30
0.0
 10
-0.0009413323729165
 20
78.38333699999224
 30
0.0
 10
-0.0028239944290915
 20
78.15001133328836
 30
0.0
 10
-0.0056480061474308
 20
77.80002266671627
 30
0.0
 10
-0.0084719944291003
 20
77.45003433328834
 30
0.0
 10
-0.0103546657062676
 20
77.21670866665888
 30
0.0
 10
-0.0112960000001294
 20
77.10004599999997
 30
0.0
 11
-0.0000000000001137
 21
78.5
 31
0.0
 11
-0.0028240000000892
 21
78.15001099999998
 31
0.0
 11
-0.0056480000001216
 21
77.80002299999998
 31
0.0
 11
-0.0084720000000971
 21
77.45003399999998
 31
0.0
 11
-0.0112960000001294
 21
77.10004599999997
 31
0.0
  0
SPLINE
  5
AA05
330
1F
100
AcDbEntity
  8
0
100
AcDbSpline
210
0.0
220
0.0
230
1.0
 70
     8
 71
     3
 72
    11
 73
     7
 74
     5
 42
0.0000000001
 43
0.0000000001
 44
0.0000000001
 40
0.0
 40
0.0
 40
0.0
 40
0.0
 40
0.248966559427162
 40
0.4979337647896108
 40
0.7469016161861753
 40
0.9958687170047024
 40
0.9958687170047024
 40
0.9958687170047024
 40
0.9958687170047024
 10
-0.6954500000001076
 20
79.21281399999998
 30
0.0
 10
-0.6374979140634422
 20
79.15341109197431
 30
0.0
 10
-0.5215935918353914
 20
79.0346051218041
 30
0.0
 10
-0.3477324297808918
 20
78.85640027982614
 30
0.0
 10
-0.1738676607220741
 20
78.67819870489452
 30
0.0
 10
-0.0579558286663088
 20
78.55939950860627
 30
0.0
 10
-0.0000000000001137
 20
78.5
 30
0.0
 11
-0.6954500000001076
 21
79.21281399999998
 31
0.0
 11
-0.5215930000001096
 21
79.03460599999998
 31
0.0
 11
-0.3477320000001214
 21
78.856401
 31
0.0
 11
-0.1738670000000866
 21
78.67819899999997
 31
0.0
 11
-0.0000000000001137
 21
78.5
 31
0.0
  0
LINE
  5
AA06
330
1F
100
AcDbEntity
  8
AM_0
100
AcDbLine
 10
-35.50000000000034
 20
-83.45000000000004
 30
0.0
 11
-35.30000000000014
 21
-83.24999999999981
 31
0.0
  0
LINE
  5
AA07
330
1F
100
AcDbEntity
  8
0
100
AcDbLine
 10
-29.30000000000013
 20
-83.44999999999997
 30
0.0
 11
-24.79382300000009
 21
-83.44999999999997
 31
0.0
  0
LINE
  5
AA08
330
1F
100
AcDbEntity
  8
0
100
AcDbLine
 10
-35.30000000000014
 20
-83.24999999999981
 30
0.0
 11
-35.30000000000014
 21
-76.44999999999997
 31
0.0
  0
LINE
  5
AA09
330
1F
100
AcDbEntity
  8
0
100
AcDbLine
 10
-29.30000000000013
 20
-76.44999999999997
 30
0.0
 11
-29.30000000000013
 21
-83.44999999999997
 31
0.0
  0
LINE
  5
AA0A
330
1F
100
AcDbEntity
  8
0
100
AcDbLine
 10
-24.79382300000009
 20
-83.44999999999997
 30
0.0
 11
-12.32111170264011
 21
-79.87350756169941
 31
0.0
  0
LINE
  5
AA0B
330
1F
100
AcDbEntity
  8
0
100
AcDbLine
 10
-35.30000000000014
 20
-76.44999999999997
 30
0.0
 11
-29.30000000000013
 21
-76.44999999999997
 31
0.0
  0
SPLINE
  5
AA0C
330
1F
100
AcDbEntity
  8
0
100
AcDbSpline
210
0.0
220
0.0
230
1.0
 70
     8
 71
     3
 72
     8
 73
     4
 74
     0
 42
0.0000000001
 43
0.0000000001
 40
4.978856526690999
 40
4.978856526690999
 40
4.978856526690999
 40
4.978856526690999
 40
5.264248895717224
 40
5.264248895717224
 40
5.264248895717224
 40
5.264248895717224
 10
-35.34744258176136
 20
-83.29744258176106
 30
0.0
 10
-35.34173265881964
 20
-83.54512766665781
 30
0.0
 10
-35.34096182940988
 20
-83.64025533332892
 30
0.0
 10
-35.34019100000012
 20
-83.73538300000001
 30
0.0
  0
SPLINE
  5
AA0D
330
1F
100
AcDbEntity
  8
0
100
AcDbSpline
210
0.0
220
0.0
230
1.0
 70
     8
 71
     3
 72
    11
 73
     7
 74
     5
 42
0.0000000001
 43
0.0000000001
 44
0.0000000001
 40
0.0
 40
0.0
 40
0.0
 40
0.0
 40
4.207645926329937
 40
8.415289443427127
 40
12.62293231430067
 40
16.83057838038147
 40
16.83057838038147
 40
16.83057838038147
 40
16.83057838038147
 10
-35.34019100000012
 20
-83.73538300000001
 30
0.0
 10
-33.93791451400629
 20
-83.70774948554025
 30
0.0
 10
-31.13336234494041
 20
-83.65248247244327
 30
0.0
 10
-26.9264474561201
 20
-83.57411522196821
 30
0.0
 10
-22.71947707622359
 20
-83.49878266311225
 30
0.0
 10
-19.91477738038076
 20
-83.45160222700872
 30
0.0
 10
-18.51242700000011
 20
-83.428012
 30
0.0
 11
-35.34019100000012
 21
-83.73538300000001
 31
0.0
 11
-31.13334700000013
 21
-83.65323799999998
 31
0.0
 11
-26.92643800000013
 21
-83.57462099999997
 31
0.0
 11
-22.71946500000013
 21
-83.49954300000002
 31
0.0
 11
-18.51242700000011
 21
-83.428012
 31
0.0
  0
SPLINE
  5
AA0E
330
1F
100
AcDbEntity
  8
0
100
AcDbSpline
210
0.0
220
0.0
230
1.0
 70
     8
 71
     3
 72
    11
 73
     7
 74
     0
 42
0.0000000001
 43
0.0000000001
 40
0.0
 40
0.0
 40
0.0
 40
0.0
 40
1.959146512336426
 40
3.91829289340166
 40
5.877439141315277
 40
7.16346162527339
 40
7.16346162527339
 40
7.16346162527339
 40
7.16346162527339
 10
-18.51242700000011
 20
-83.428012
 30
0.0
 10
-17.88467858912696
 20
-83.24799888261379
 30
0.0
 10
-16.62918180944251
 20
-82.88797265990309
 30
0.0
 10
-14.74575209934636
 20
-82.34857745698873
 30
0.0
 10
-13.07791361013187
 20
-81.87134822306452
 30
0.0
 10
-12.03783897111975
 20
-81.57407864799944
 30
0.0
 10
-11.62566477638876
 20
-81.45629082450421
 30
0.0
  0
SPLINE
  5
AA0F
330
1F
100
AcDbEntity
  8
0
100
AcDbSpline
210
0.0
220
0.0
230
1.0
 70
     8
 71
     3
 72
    11
 73
     7
 74
     5
 42
0.0000000001
 43
0.0000000001
 44
0.0000000001
 40
0.0
 40
0.0
 40
0.0
 40
0.0
 40
2.386726912347123
 40
4.773454078583338
 40
7.160180309909652
 40
9.546907966451945
 40
9.546907966451945
 40
9.546907966451945
 40
9.546907966451945
 10
-0.6954500000001076
 20
-79.21281399999998
 30
0.0
 10
-1.461717515716779
 20
-79.42676425845883
 30
0.0
 10
-2.994252628662155
 20
-79.85466479813556
 30
0.0
 10
-5.292685755782287
 20
-80.49783688295551
 30
0.0
 10
-7.590878786511133
 20
-81.14186723279255
 30
0.0
 10
-9.12277410971048
 20
-81.57205236811725
 30
0.0
 10
-9.888722000000086
 20
-81.78714500000003
 30
0.0
 11
-0.6954500000001076
 21
-79.21281399999998
 31
0.0
 11
-2.994191000000114
 21
-79.85488499999998
 31
0.0
 11
-5.292646000000103
 21
-80.49797999999999
 31
0.0
 11
-7.590820000000121
 21
-81.142075
 31
0.0
 11
-9.888722000000086
 21
-81.78714500000003
 31
0.0
  0
SPLINE
  5
AA10
330
1F
100
AcDbEntity
  8
0
100
AcDbSpline
210
0.0
220
0.0
230
1.0
 70
     8
 71
     3
 72
    11
 73
     7
 74
     5
 42
0.0000000001
 43
0.0000000001
 44
0.0000000001
 40
0.0
 40
0.0
 40
0.0
 40
0.0
 40
0.3470727852151564
 40
0.6941453112266752
 40
1.041218590043995
 40
1.388290603049956
 40
1.388290603049956
 40
1.388290603049956
 40
1.388290603049956
 10
-11.27693900000014
 20
-81.80144000000002
 30
0.0
 10
-11.16125435217072
 20
-81.80023451835646
 30
0.0
 10
-10.92988514290841
 20
-81.79782355596968
 30
0.0
 10
-10.58283078222106
 20
-81.79423977980381
 30
0.0
 10
-10.23577648006575
 20
-81.79067531195178
 30
0.0
 10
-10.00440668605021
 20
-81.78832176922
 30
0.0
 10
-9.888722000000086
 20
-81.78714500000003
 30
0.0
 11
-11.27693900000014
 21
-81.80144000000002
 31
0.0
 11
-10.92988500000013
 21
-81.79782900000002
 31
0.0
 11
-10.58283100000011
 21
-81.79424299999999
 31
0.0
 11
-10.2357760000001
 21
-81.790681
 31
0.0
 11
-9.888722000000086
 21
-81.78714500000003
 31
0.0
  0
SPLINE
  5
AA11
330
1F
100
AcDbEntity
  8
0
100
AcDbSpline
210
0.0
220
0.0
230
1.0
 70
     8
 71
     3
 72
    11
 73
     7
 74
     5
 42
0.0000000001
 43
0.0000000001
 44
0.0000000001
 40
0.0
 40
0.0
 40
0.0
 40
0.0
 40
0.2486284866723742
 40
0.4972576473474629
 40
0.7458867860500926
 40
0.994515177560369
 40
0.994515177560369
 40
0.994515177560369
 40
0.994515177560369
 10
-11.98379900000009
 20
-81.10186199999999
 30
0.0
 10
-11.924891638588
 20
-81.16015763480922
 30
0.0
 10
-11.80707675607286
 20
-81.27674906246031
 30
0.0
 10
-11.63036086309863
 20
-81.45164285125584
 30
0.0
 10
-11.45364584531249
 20
-81.62653747928956
 30
0.0
 10
-11.33584122276547
 20
-81.74313921816617
 30
0.0
 10
-11.27693900000014
 20
-81.80144000000002
 30
0.0
 11
-11.98379900000009
 21
-81.10186199999999
 31
0.0
 11
-11.8070780000001
 21
-81.27674999999998
 31
0.0
 11
-11.6303610000001
 21
-81.45164299999997
 31
0.0
 11
-11.4536470000001
 21
-81.626539
 31
0.0
 11
-11.27693900000014
 21
-81.80144000000002
 31
0.0
  0
SPLINE
  5
AA12
330
1F
100
AcDbEntity
  8
0
100
AcDbSpline
210
0.0
220
0.0
230
1.0
 70
     8
 71
     3
 72
    11
 73
     7
 74
     5
 42
0.0000000001
 43
0.0000000001
 44
0.0000000001
 40
0.0
 40
0.0
 40
0.0
 40
0.0
 40
2.4011262090921
 40
4.802252518674526
 40
7.203379025223085
 40
9.604505391007482
 40
9.604505391007482
 40
9.604505391007482
 40
9.604505391007482
 10
-11.98379900000009
 20
-81.10186199999999
 30
0.0
 10
-12.19573944138846
 20
-80.33005759786863
 30
0.0
 10
-12.61962033303518
 20
-78.78644876130488
 30
0.0
 10
-13.25551174734092
 20
-76.47105466536302
 30
0.0
 10
-13.89145279576307
 20
-74.15567414701127
 30
0.0
 10
-14.3154702693974
 20
-72.61210270058865
 30
0.0
 10
-14.52747900000014
 20
-71.840317
 30
0.0
 11
-11.98379900000009
 21
-81.10186199999999
 31
0.0
 11
-12.61963200000014
 21
-78.786452
 31
0.0
 11
-13.2555200000001
 21
-76.471057
 31
0.0
 11
-13.89146700000009
 21
-74.15567799999998
 31
0.0
 11
-14.52747900000014
 21
-71.840317
 31
0.0
  0
SPLINE
  5
AA13
330
1F
100
AcDbEntity
  8
0
100
AcDbSpline
210
0.0
220
0.0
230
1.0
 70
     8
 71
     3
 72
    11
 73
     7
 74
     5
 42
0.0000000001
 43
0.0000000001
 44
0.0000000001
 40
0.0
 40
0.0
 40
0.0
 40
0.0
 40
0.3498743970984434
 40
0.6997487941968873
 40
1.049623191295316
 40
1.399498588361182
 40
1.399498588361182
 40
1.399498588361182
 40
1.399498588361182
 10
-14.5387750000001
 20
-70.44086400000002
 30
0.0
 10
-14.53783366661873
 20
-70.55748499999963
 30
0.0
 10
-14.53595099985601
 20
-70.79072699999887
 30
0.0
 10
-14.53312700057658
 20
-71.14059000000466
 30
0.0
 10
-14.53030299514779
 20
-71.49045333329417
 30
0.0
 10
-14.52842033261282
 20
-71.72369566666084
 30
0.0
 10
-14.52747900000014
 20
-71.840317
 30
0.0
 11
-14.5387750000001
 21
-70.44086400000002
 31
0.0
 11
-14.53595100000012
 21
-70.79072700000001
 31
0.0
 11
-14.53312700000009
 21
-71.14059000000001
 31
0.0
 11
-14.53030300000011
 21
-71.490453
 31
0.0
 11
-14.52747900000014
 21
-71.840317
 31
0.0
  0
SPLINE
  5
AA14
330
1F
100
AcDbEntity
  8
0
100
AcDbSpline
210
0.0
220
0.0
230
1.0
 70
     8
 71
     3
 72
    11
 73
     7
 74
     5
 42
0.0000000001
 43
0.0000000001
 44
0.0000000001
 40
0.0
 40
0.0
 40
0.0
 40
0.0
 40
0.2493431602852095
 40
0.498685662273931
 40
0.7480289005720349
 40
0.997372197464119
 40
0.997372197464119
 40
0.997372197464119
 40
0.997372197464119
 10
-13.84332500000011
 20
-69.72595099999998
 30
0.0
 10
-13.90128054227343
 20
-69.7855257967434
 30
0.0
 10
-14.01719147381034
 20
-69.90467523294551
 30
0.0
 10
-14.19105420484164
 20
-70.08340314314108
 30
0.0
 10
-14.36491676540704
 20
-70.26213128269694
 30
0.0
 10
-14.48082225059625
 20
-70.38128642289888
 30
0.0
 10
-14.5387750000001
 20
-70.44086400000002
 30
0.0
 11
-13.84332500000011
 21
-69.72595099999998
 31
0.0
 11
-14.01719100000014
 21
-69.90467599999999
 31
0.0
 11
-14.19105400000012
 21
-70.083403
 31
0.0
 11
-14.3649160000001
 21
-70.26213199999998
 31
0.0
 11
-14.5387750000001
 21
-70.44086400000002
 31
0.0
  0
SPLINE
  5
AA15
330
1F
100
AcDbEntity
  8
0
100
AcDbSpline
210
0.0
220
0.0
230
1.0
 70
     8
 71
     3
 72
    11
 73
     7
 74
     5
 42
0.0000000001
 43
0.0000000001
 44
0.0000000001
 40
0.0
 40
0.0
 40
0.0
 40
0.0
 40
2.38742689059099
 40
4.774853777542935
 40
7.162279712082687
 40
9.549706532515489
 40
9.549706532515489
 40
9.549706532515489
 40
9.549706532515489
 10
-13.84332500000011
 20
-69.72595099999998
 30
0.0
 10
-13.07739829483217
 20
-69.50992272467612
 30
0.0
 10
-11.54554488566377
 20
-69.07786617435768
 30
0.0
 10
-9.247369771120853
 20
-68.43118439086504
 30
0.0
 10
-6.948921886072966
 20
-67.78547278414457
 30
0.0
 10
-5.416342723472441
 20
-67.35599895460872
 30
0.0
 10
-4.650053000000126
 20
-67.14126199999999
 30
0.0
 11
-13.84332500000011
 21
-69.72595099999998
 31
0.0
 11
-11.54547900000011
 21
-69.07810000000001
 31
0.0
 11
-9.247324000000103
 21
-68.43134599999999
 31
0.0
 11
-6.948852000000101
 21
-67.78572299999999
 31
0.0
 11
-4.650053000000126
 21
-67.14126199999999
 31
0.0
  0
SPLINE
  5
AA16
330
1F
100
AcDbEntity
  8
0
100
AcDbSpline
210
0.0
220
0.0
230
1.0
 70
     8
 71
     3
 72
    11
 73
     7
 74
     5
 42
0.0000000001
 43
0.0000000001
 44
0.0000000001
 40
0.0
 40
0.0
 40
0.0
 40
0.0
 40
0.3470688894873867
 40
0.6941370577367528
 40
1.041205498353312
 40
1.38827422313993
 40
1.38827422313993
 40
1.38827422313993
 40
1.38827422313993
 10
-3.261836000000129
 20
-67.128658
 30
0.0
 10
-3.377521020098992
 20
-67.12969076127834
 30
0.0
 10
-3.608890819893624
 20
-67.13175628168883
 30
0.0
 10
-3.955945128390786
 20
-67.13489485894479
 30
0.0
 10
-4.302999156357657
 20
-67.13805828699118
 30
0.0
 10
-4.534368353879531
 20
-67.14019409537226
 30
0.0
 10
-4.650053000000126
 20
-67.14126199999999
 30
0.0
 11
-3.261836000000129
 21
-67.128658
 31
0.0
 11
-3.608891000000141
 21
-67.131763
 31
0.0
 11
-3.955945000000098
 21
-67.13489899999999
 31
0.0
 11
-4.302999000000113
 21
-67.13806499999998
 31
0.0
 11
-4.650053000000126
 21
-67.14126199999999
 31
0.0
  0
SPLINE
  5
AA17
330
1F
100
AcDbEntity
  8
0
100
AcDbSpline
210
0.0
220
0.0
230
1.0
 70
     8
 71
     3
 72
    11
 73
     7
 74
     5
 42
0.0000000001
 43
0.0000000001
 44
0.0000000001
 40
0.0
 40
0.0
 40
0.0
 40
0.0
 40
0.2488599468014214
 40
0.4977206215674049
 40
0.746580616202926
 40
0.9954406349484376
 40
0.9954406349484376
 40
0.9954406349484376
 40
0.9954406349484376
 10
-2.554976000000123
 20
-67.82955099999998
 30
0.0
 10
-2.613878772040489
 20
-67.77114110344638
 30
0.0
 10
-2.731684488423478
 20
-67.6543211394787
 30
0.0
 10
-2.908397091452487
 20
-67.47909540570531
 30
0.0
 10
-3.085114196877104
 20
-67.30387417857767
 30
0.0
 10
-3.202928730390108
 20
-67.18706339474538
 30
0.0
 10
-3.261836000000129
 20
-67.128658
 30
0.0
 11
-2.554976000000123
 21
-67.82955099999998
 31
0.0
 11
-2.73168500000014
 21
-67.65432199999998
 31
0.0
 11
-2.90839800000009
 21
-67.47909599999998
 31
0.0
 11
-3.085115000000087
 21
-67.303875
 31
0.0
 11
-3.261836000000129
 21
-67.128658
 31
0.0
  0
SPLINE
  5
AA18
330
1F
100
AcDbEntity
  8
0
100
AcDbSpline
210
0.0
220
0.0
230
1.0
 70
     8
 71
     3
 72
    11
 73
     7
 74
     5
 42
0.0000000001
 43
0.0000000001
 44
0.0000000001
 40
0.0
 40
0.0
 40
0.0
 40
0.0
 40
2.403284504857907
 40
4.806568086340526
 40
7.209852502971227
 40
9.613136090922713
 40
9.613136090922713
 40
9.613136090922713
 40
9.613136090922713
 10
-2.554976000000123
 20
-67.82955099999998
 30
0.0
 10
-2.342986909334347
 20
-68.60208809299035
 30
0.0
 10
-1.919008809451947
 20
-70.14716198215166
 30
0.0
 10
-1.283079258657538
 20
-72.4647832621124
 30
0.0
 10
-0.6471717948239401
 20
-74.78241028541898
 30
0.0
 10
-0.2232545739128327
 20
-76.32750085060038
 30
0.0
 10
-0.0112960000001294
 20
-77.10004599999997
 30
0.0
 11
-2.554976000000123
 21
-67.82955099999998
 31
0.0
 11
-1.919015000000115
 21
-70.14716400000001
 31
0.0
 11
-1.28308300000009
 21
-72.46478399999998
 31
0.0
 11
-0.647177000000113
 21
-74.78241199999998
 31
0.0
 11
-0.0112960000001294
 21
-77.10004599999997
 31
0.0
  0
SPLINE
  5
AA19
330
1F
100
AcDbEntity
  8
0
100
AcDbSpline
210
0.0
220
0.0
230
1.0
 70
     8
 71
     3
 72
    11
 73
     7
 74
     5
 42
0.0000000001
 43
0.0000000001
 44
0.0000000001
 40
0.0
 40
0.0
 40
0.0
 40
0.0
 40
0.3500003929955155
 40
0.6999997860235573
 40
1.050000179019058
 40
1.3999995720471
 40
1.3999995720471
 40
1.3999995720471
 40
1.3999995720471
 10
-0.0000000000001137
 20
-78.5
 30
0.0
 10
-0.0009413323729165
 20
-78.38333699999224
 30
0.0
 10
-0.0028239944290915
 20
-78.15001133328836
 30
0.0
 10
-0.0056480061474308
 20
-77.80002266671627
 30
0.0
 10
-0.0084719944291003
 20
-77.45003433328834
 30
0.0
 10
-0.0103546657062676
 20
-77.21670866665888
 30
0.0
 10
-0.0112960000001294
 20
-77.10004599999997
 30
0.0
 11
-0.0000000000001137
 21
-78.5
 31
0.0
 11
-0.0028240000000892
 21
-78.15001099999998
 31
0.0
 11
-0.0056480000001216
 21
-77.80002299999998
 31
0.0
 11
-0.0084720000000971
 21
-77.45003399999998
 31
0.0
 11
-0.0112960000001294
 21
-77.10004599999997
 31
0.0
  0
SPLINE
  5
AA1A
330
1F
100
AcDbEntity
  8
0
100
AcDbSpline
210
0.0
220
0.0
230
1.0
 70
     8
 71
     3
 72
    11
 73
     7
 74
     5
 42
0.0000000001
 43
0.0000000001
 44
0.0000000001
 40
0.0
 40
0.0
 40
0.0
 40
0.0
 40
0.248966559427162
 40
0.4979337647896108
 40
0.7469016161861753
 40
0.9958687170047024
 40
0.9958687170047024
 40
0.9958687170047024
 40
0.9958687170047024
 10
-0.6954500000001076
 20
-79.21281399999998
 30
0.0
 10
-0.6374979140634422
 20
-79.15341109197431
 30
0.0
 10
-0.5215935918353914
 20
-79.0346051218041
 30
0.0
 10
-0.3477324297808918
 20
-78.85640027982614
 30
0.0
 10
-0.1738676607220741
 20
-78.67819870489452
 30
0.0
 10
-0.0579558286663088
 20
-78.55939950860627
 30
0.0
 10
-0.0000000000001137
 20
-78.5
 30
0.0
 11
-0.6954500000001076
 21
-79.21281399999998
 31
0.0
 11
-0.5215930000001096
 21
-79.03460599999998
 31
0.0
 11
-0.3477320000001214
 21
-78.856401
 31
0.0
 11
-0.1738670000000866
 21
-78.67819899999997
 31
0.0
 11
-0.0000000000001137
 21
-78.5
 31
0.0
  0
DIMENSION
  5
AA2B
330
1F
100
AcDbEntity
  8
AM_5
100
AcDbDimension
  2
*D10
 10
288.8874529677143
 20
1.877166170259698
 30
0.0
 11
-10.78729666794267
 21
-93.24101528042056
 31
0.0
 70
    34
  1
75%%d\P
 71
     5
 42
1.297765953528139
  3
AM_JIS$2
100
AcDb2LineAngularDimension
 13
-0.0000000000002842
 23
78.49999999999998
 33
0.0
 14
0.0000000000002558
 24
-78.50000000005401
 34
0.0
 15
0.000000000000254
 25
-79.01807174784519
 35
0.0
 16
-15.94810951078583
 26
-92.60489777629075
 36
0.0
1001
ACAD
1000
DSTYLE
1002
{
1070
    79
1070
     2
1070
   371
1070
    -1
1070
   372
1070
    -1
1002
}
  0
DIMENSION
  5
AA73
330
1F
100
AcDbEntity
  8
AM_5
100
AcDbDimension
  2
*D11
 10
43.80699442689254
 20
-83.73538300000005
 30
0.0
 11
40.70699442689256
 21
-0.0000000000000165
 31
0.0
 70
    32
  1
%%c<>
 71
     5
 42
167.470766
  3
AM_JIS$0
100
AcDbAlignedDimension
 13
-35.34019100000012
 23
83.73538300000001
 33
0.0
 14
-35.34019100000012
 24
-83.73538300000001
 34
0.0
 50
90.00000000000005
100
AcDbRotatedDimension
1001
ACAD
1000
DSTYLE
1002
{
1070
    40
1040
1.0
1070
    43
1040
12.0
1070
   140
1040
3.2
1070
   147
1040
1.5
1070
   178
1070
     2
1070
   271
1070
     2
1002
}
  0
VIEWPORT
  5
110
102
{ACAD_XDICTIONARY
360
AB34
102
}
330
101
100
AcDbEntity
 67
     1
  8
0
100
AcDbViewport
 10
420.5
 20
297.0
 30
0.0
 40
948.9782706766916
 41
628.452
 68
     1
 69
     1
 12
420.5
 22
297.0
 13
0.0
 23
0.0
 14
10.0
 24
10.0
 15
10.0
 25
10.0
 16
0.0
 26
0.0
 36
1.0
 17
0.0
 27
0.0
 37
0.0
 42
50.0
 43
0.0
 44
0.0
 45
628.452
 50
0.0
 51
0.0
 72
   100
 90
    32800
  1

281
     0
 71
     1
 74
     0
110
0.0
120
0.0
130
0.0
111
1.0
121
0.0
131
0.0
112
0.0
122
1.0
132
0.0
 79
     0
146
0.0
1001
GENIUS_GENOBJ-N-SDF_13
1002
{
1000
OWNER
1000
GEN
1002
}
1001
GENIUS_GENODEF_13
1002
{
1000
HIER
1070
     0
1002
}
1002
{
1000
MANEDIT
1070
     0
1002
}
1002
{
1000
NOSEL
1070
     0
1002
}
1002
{
1000
BEHIND
1070
     0
1002
}
1002
{
1000
OTHER
1070
     0
1002
}
1002
{
1000
REACTOR
1002
}
1001
GENIUS_GENSCREG_15
1000
PF
1040
1.0
1000
DF
1040
1.0
1000
MIN
1011
-53.98913533834582
1021
-17.226
1031
0.0
1000
MAX
1011
894.9891353383458
1021
611.226
1031
0.0
1000
FLAGS
1070
     2
  0
ENDSEC
  0
SECTION
  2
OBJECTS
  0
DICTIONARY
  5
C
330
0
100
AcDbDictionary
281
     1
  3
ACAD_COLOR
350
A8C7
  3
ACAD_GROUP
350
D
  3
ACAD_LAYOUT
350
1A
  3
ACAD_MATERIAL
350
A8C6
  3
ACAD_MLINESTYLE
350
17
  3
ACAD_PLOTSETTINGS
350
19
  3
ACAD_PLOTSTYLENAME
350
E
  3
ACAD_TABLESTYLE
350
A8C8
  3
ACDBHEADERROUNDTRIPXREC
350
AB33
  3
ACDBVARIABLEDICTIONARY
350
34
  3
ACMDICTIONARY
350
43
  3
AMG
350
2B
  3
AMGSNAPSETTINGS
350
6E
  3
DWGPROPS
350
AB32
  0
DICTIONARY
  5
74
330
1F
100
AcDbDictionary
280
     1
281
     1
  3
ACAD_INDEX
360
A88B
  3
ACAD_LAYOUTSELFREF
360
A8B9
  0
DICTIONARY
  5
A8BE
330
101
100
AcDbDictionary
280
     1
281
     1
  3
ACAD_LAYOUTSELFREF
360
A8BF
  0
DICTIONARY
  5
AB34
330
110
100
AcDbDictionary
280
     1
281
     1
  3
ACAD_XREC_ROUNDTRIP
360
AB35
  0
DICTIONARY
  5
A8C7
102
{ACAD_REACTORS
330
C
102
}
330
C
100
AcDbDictionary
281
     1
  0
DICTIONARY
  5
D
102
{ACAD_REACTORS
330
C
102
}
330
C
100
AcDbDictionary
281
     1
  0
DICTIONARY
  5
1A
102
{ACAD_REACTORS
330
C
102
}
330
C
100
AcDbDictionary
281
     1
  3
Model
350
A8CA
  3
レイアウト1
350
A8CB
  0
DICTIONARY
  5
A8C6
102
{ACAD_REACTORS
330
C
102
}
330
C
100
AcDbDictionary
281
     1
  0
DICTIONARY
  5
17
102
{ACAD_REACTORS
330
C
102
}
330
C
100
AcDbDictionary
281
     1
  3
STANDARD
350
18
  0
DICTIONARY
  5
19
102
{ACAD_REACTORS
330
C
102
}
330
C
100
AcDbDictionary
281
     1
  0
ACDBDICTIONARYWDFLT
  5
E
102
{ACAD_REACTORS
330
C
102
}
330
C
100
AcDbDictionary
281
     1
  3
Normal
350
F
100
AcDbDictionaryWithDefault
340
F
  0
DICTIONARY
  5
A8C8
102
{ACAD_REACTORS
330
C
102
}
330
C
100
AcDbDictionary
281
     1
  3
Standard
350
A8C9
  0
DICTIONARY
  5
AB33
102
{ACAD_REACTORS
330
C
102
}
330
C
100
AcDbDictionary
281
     1
  0
DICTIONARY
  5
34
102
{ACAD_REACTORS
330
C
102
}
330
C
100
AcDbDictionary
281
     1
  3
CTABLESTYLE
350
AAAA
  3
DIMASSOC
350
AAAB
  3
INDEXCTL
350
35
  3
PROJECTNAME
350
AAAC
  3
SORTENTS
350
B5E
  0
DICTIONARY
  5
43
102
{ACAD_REACTORS
330
C
102
}
330
C
100
AcDbDictionary
281
     1
  3
ACMSTDDICTIONARY
350
260
  3
AMDTSECTSYM_ARROWCOLOR
350
A943
  0
DICTIONARY
  5
2B
102
{ACAD_REACTORS
330
C
102
}
330
C
100
AcDbDictionary
281
     1
  0
DICTIONARY
  5
6E
102
{ACAD_REACTORS
330
C
102
}
330
C
100
AcDbDictionary
281
     1
  0
XRECORD
  5
AB32
102
{ACAD_REACTORS
330
C
102
}
330
C
100
AcDbXrecord
280
     1
  1
DWGPROPS COOKIE
  2

  3

  4

  6

  7

  8

  9

300
AmdtFileType=82
301
=
302
=
303
=
304
=
305
=
306
=
307
=
308
=
309
=
 40
0.1709946412037037
 41
2452836.771637361
 42
2455596.432941077
  1

 90
        1
  0
DICTIONARY
  5
A88B
102
{ACAD_REACTORS
330
74
102
}
330
74
100
AcDbDictionary
281
     1
  3
*A1
350
A88C
  0
XRECORD
  5
A8B9
102
{ACAD_REACTORS
330
74
102
}
330
74
100
AcDbXrecord
280
     1
340
1F
  0
XRECORD
  5
A8BF
102
{ACAD_REACTORS
330
A8BE
102
}
330
A8BE
100
AcDbXrecord
280
     1
340
101
  0
XRECORD
  5
AB35
102
{ACAD_REACTORS
330
AB34
102
}
330
AB34
100
AcDbXrecord
280
     1
102
SHADEPLOT
 70
     0
  0
LAYOUT
  5
A8CA
102
{ACAD_XDICTIONARY
360
AB36
102
}
102
{ACAD_REACTORS
330
1A
102
}
330
1A
100
AcDbPlotSettings
  1

  2
SII LP-1010 (C2 VR)2R
  4

  6

 40
0.0
 41
0.0
 42
0.0
 43
0.0
 44
0.0
 45
0.0
 46
0.0
 47
0.0
 48
0.0
 49
0.0
140
0.0
141
0.0
142
1.0
143
1.0
 70
  1712
 72
     0
 73
     0
 74
     0
  7
sei_cad.ctb
 75
     0
147
1.0
148
0.0
149
0.0
100
AcDbLayout
  1
Model
 70
     1
 71
     0
 10
0.0
 20
0.0
 11
12.0
 21
9.0
 12
0.0
 22
0.0
 32
0.0
 14
0.0
 24
0.0
 34
0.0
 15
0.0
 25
0.0
 35
0.0
146
0.0
 13
0.0
 23
0.0
 33
0.0
 16
1.0
 26
0.0
 36
0.0
 17
0.0
 27
1.0
 37
0.0
 76
     0
330
1F
  0
LAYOUT
  5
A8CB
102
{ACAD_XDICTIONARY
360
AB38
102
}
102
{ACAD_REACTORS
330
1A
102
}
330
1A
100
AcDbPlotSettings
  1

  2
SII LP-1010 (C2 VR)2R
  4

  6

 40
0.0
 41
0.0
 42
0.0
 43
0.0
 44
0.0
 45
0.0
 46
0.0
 47
0.0
 48
0.0
 49
0.0
140
0.0
141
0.0
142
1.0
143
1.0
 70
   688
 72
     0
 73
     0
 74
     5
  7
sei_cad.ctb
 75
    16
147
1.0
148
0.0
149
0.0
100
AcDbLayout
  1
レイアウト1
 70
     0
 71
     1
 10
0.0
 20
0.0
 11
841.0
 21
594.0
 12
0.0
 22
0.0
 32
0.0
 14
1.000000000000000E+20
 24
1.000000000000000E+20
 34
1.000000000000000E+20
 15
-1.000000000000000E+20
 25
-1.000000000000000E+20
 35
-1.000000000000000E+20
146
0.0
 13
0.0
 23
0.0
 33
0.0
 16
1.0
 26
0.0
 36
0.0
 17
0.0
 27
1.0
 37
0.0
 76
     0
330
101
331
110
  0
MLINESTYLE
  5
18
102
{ACAD_REACTORS
330
17
102
}
330
17
100
AcDbMlineStyle
  2
STANDARD
 70
     0
  3

 62
   256
 51
90.0
 52
90.0
 71
     2
 49
0.5
 62
   256
  6
BYLAYER
 49
-0.5
 62
   256
  6
BYLAYER
  0
ACDBPLACEHOLDER
  5
F
102
{ACAD_REACTORS
330
E
102
}
330
E
  0
TABLESTYLE
  5
A8C9
102
{ACAD_REACTORS
330
A8C8
102
}
330
A8C8
100
AcDbTableStyle
  3
Standard
 70
     0
 71
     0
 40
1.5
 41
1.5
280
     0
281
     0
  7
STANDARD
140
4.5
170
     2
 62
     0
 63
     7
283
     0
274
    -2
284
     1
 64
     0
275
    -2
285
     1
 65
     0
276
    -2
286
     1
 66
     0
277
    -2
287
     1
 67
     0
278
    -2
288
     1
 68
     0
279
    -2
289
     1
 69
     0
  7
STANDARD
140
6.0
170
     5
 62
     0
 63
     7
283
     0
274
    -2
284
     1
 64
     0
275
    -2
285
     1
 65
     0
276
    -2
286
     1
 66
     0
277
    -2
287
     1
 67
     0
278
    -2
288
     1
 68
     0
279
    -2
289
     1
 69
     0
  7
STANDARD
140
4.5
170
     5
 62
     0
 63
     7
283
     0
274
    -2
284
     1
 64
     0
275
    -2
285
     1
 65
     0
276
    -2
286
     1
 66
     0
277
    -2
287
     1
 67
     0
278
    -2
288
     1
 68
     0
279
    -2
289
     1
 69
     0
  0
DICTIONARYVAR
  5
AAAA
102
{ACAD_REACTORS
330
34
102
}
330
34
100
DictionaryVariables
280
     0
  1
STANDARD
  0
DICTIONARYVAR
  5
AAAB
102
{ACAD_REACTORS
330
34
102
}
330
34
100
DictionaryVariables
280
     0
  1
1
  0
DICTIONARYVAR
  5
35
102
{ACAD_REACTORS
330
34
102
}
330
34
100
DictionaryVariables
280
     0
  1
1
  0
DICTIONARYVAR
  5
AAAC
102
{ACAD_REACTORS
330
34
102
}
330
34
100
DictionaryVariables
280
     0
  1

  0
DICTIONARYVAR
  5
B5E
102
{ACAD_REACTORS
330
34
102
}
330
34
100
DictionaryVariables
280
     0
  1
96
  0
DICTIONARY
  5
260
102
{ACAD_REACTORS
330
43
102
}
330
43
100
AcDbDictionary
281
     1
  0
XRECORD
  5
A943
102
{ACAD_REACTORS
330
43
102
}
330
43
100
AcDbXrecord
280
     1
 90
-1023410169
  0
LAYER_INDEX
  5
A88C
102
{ACAD_REACTORS
330
A88B
102
}
330
A88B
100
AcDbIndex
 40
2455596.432941077
100
AcDbLayerIndex
  8
0
360
A88D
 90
       40
  8
AM_0
360
A88E
 90
       60
  8
AM_7
360
A88F
 90
        1
  8
AM_5
360
A890
 90
       10
  8
DEFPOINTS
360
A891
 90
        0
  8
AM_6
360
A892
 90
        1
  8
AM_11
360
A893
 90
        5
  0
DICTIONARY
  5
AB36
330
A8CA
100
AcDbDictionary
280
     1
281
     1
  3
ACAD_XREC_ROUNDTRIP
360
AB37
  0
DICTIONARY
  5
AB38
330
A8CB
100
AcDbDictionary
280
     1
281
     1
  3
ACAD_XREC_ROUNDTRIP
360
AB39
  0
IDBUFFER
  5
A88D
330
0
100
AcDbIdBuffer
330
A9F2
330
A9F3
330
A9F4
330
A9F5
330
A9F6
330
A9F7
330
A9F8
330
A9F9
330
A9FA
330
A9FB
330
A9FC
330
A9FD
330
A9FE
330
A9FF
330
AA00
330
AA01
330
AA02
330
AA03
330
AA04
330
AA05
330
AA07
330
AA08
330
AA09
330
AA0A
330
AA0B
330
AA0C
330
AA0D
330
AA0E
330
AA0F
330
AA10
330
AA11
330
AA12
330
AA13
330
AA14
330
AA15
330
AA16
330
AA17
330
AA18
330
AA19
330
AA1A
  0
IDBUFFER
  5
A88E
330
0
100
AcDbIdBuffer
330
92AE
330
92B1
330
92B3
330
92B4
330
92B6
330
92B7
330
92B8
330
92B9
330
92BF
330
92C2
330
92C3
330
92C4
330
A1FF
330
A202
330
A205
330
A209
330
A20C
330
A20D
330
A210
330
A213
330
A21C
330
A21F
330
A222
330
A223
330
A224
330
A225
330
A30C
330
A30D
330
A30F
330
A310
330
A311
330
A312
330
A313
330
A314
330
A315
330
A316
330
A317
330
A318
330
A319
330
A31A
330
A31B
330
A31C
330
A31E
330
A31F
330
A320
330
A321
330
A322
330
A323
330
A328
330
A32A
330
A32C
330
A32D
330
A32E
330
A32F
330
A330
330
A334
330
A586
330
A58A
330
A58B
330
AA06
  0
IDBUFFER
  5
A88F
330
0
100
AcDbIdBuffer
330
92B2
  0
IDBUFFER
  5
A890
330
0
100
AcDbIdBuffer
330
A398
330
A399
330
A39A
330
A39B
330
A39C
330
A39D
330
A39E
330
A7BC
330
AA2B
330
AA73
  0
IDBUFFER
  5
A891
330
0
100
AcDbIdBuffer
  0
IDBUFFER
  5
A892
330
0
100
AcDbIdBuffer
330
E5A
  0
IDBUFFER
  5
A893
330
0
100
AcDbIdBuffer
330
92B0
330
92C0
330
A329
330
A32B
330
A50A
  0
XRECORD
  5
AB37
102
{ACAD_REACTORS
330
AB36
102
}
330
AB36
100
AcDbXrecord
280
     1
102
SHADEPLOT
 70
     0
102
SHADEPLOTRESLEVEL
 70
     2
102
SHADEPLOTCUSTOMDPI
 70
   300
  0
XRECORD
  5
AB39
102
{ACAD_REACTORS
330
AB38
102
}
330
AB38
100
AcDbXrecord
280
     1
102
SHADEPLOT
 70
     0
102
SHADEPLOTRESLEVEL
 70
     2
102
SHADEPLOTCUSTOMDPI
 70
   300
  0
ENDSEC
  0
EOF
