  0
SECTION
  2
HEADER
  9
$ACADVER
  1
AC1014
  9
$ACADMAINTVER
 70
     9
  9
$DWGCODEPAGE
  3
ANSI_932
  9
$INSBASE
 10
0.0
 20
0.0
 30
0.0
  9
$EXTMIN
 10
-103.6461373595967
 20
-118.700001
 30
-0.00000001
  9
$EXTMAX
 10
38.54217267262448
 20
52.20000000000001
 30
0.00000001
  9
$LIMMIN
 10
-130.367459980586
 20
-132.6493236232937
  9
$LIMMAX
 10
51.8117487495872
 20
65.99843103955049
  9
$ORTHOMODE
 70
     0
  9
$REGENMODE
 70
     1
  9
$FILLMODE
 70
     1
  9
$QTEXTMODE
 70
     0
  9
$MIRRTEXT
 70
     0
  9
$DRAGMODE
 70
     2
  9
$LTSCALE
 40
1.0
  9
$OSMODE
 70
    55
  9
$ATTMODE
 70
     1
  9
$TEXTSIZE
 40
2.5
  9
$TRACEWID
 40
1.0
  9
$TEXTSTYLE
  7
STANDARD
  9
$CLAYER
  8
AM_0
  9
$CELTYPE
  6
BYLAYER
  9
$CECOLOR
 62
   256
  9
$CELTSCALE
 40
1.0
  9
$DELOBJ
 70
     1
  9
$DISPSILH
 70
     0
  9
$DIMSCALE
 40
1.0
  9
$DIMASZ
 40
2.5
  9
$DIMEXO
 40
1.0
  9
$DIMDLI
 40
12.0
  9
$DIMRND
 40
0.0
  9
$DIMDLE
 40
0.0
  9
$DIMEXE
 40
1.0
  9
$DIMTP
 40
0.1
  9
$DIMTM
 40
0.1
  9
$DIMTXT
 40
3.2
  9
$DIMCEN
 40
0.0
  9
$DIMTSZ
 40
0.0
  9
$DIMTOL
 70
     0
  9
$DIMLIM
 70
     0
  9
$DIMTIH
 70
     0
  9
$DIMTOH
 70
     0
  9
$DIMSE1
 70
     0
  9
$DIMSE2
 70
     0
  9
$DIMTAD
 70
     3
  9
$DIMZIN
 70
     8
  9
$DIMBLK
  1
OPEN30
  9
$DIMASO
 70
     1
  9
$DIMSHO
 70
     1
  9
$DIMPOST
  1

  9
$DIMAPOST
  1
"
  9
$DIMALT
 70
     0
  9
$DIMALTD
 70
     2
  9
$DIMALTF
 40
0.0393701
  9
$DIMLFAC
 40
1.0
  9
$DIMTOFL
 70
     1
  9
$DIMTVP
 40
0.0
  9
$DIMTIX
 70
     0
  9
$DIMSOXD
 70
     0
  9
$DIMSAH
 70
     0
  9
$DIMBLK1
  1

  9
$DIMBLK2
  1

  9
$DIMSTYLE
  2
AM_JIS
  9
$DIMCLRD
 70
   256
  9
$DIMCLRE
 70
   256
  9
$DIMCLRT
 70
     2
  9
$DIMTFAC
 40
0.71
  9
$DIMGAP
 40
1.5
  9
$DIMJUST
 70
     0
  9
$DIMSD1
 70
     0
  9
$DIMSD2
 70
     0
  9
$DIMTOLJ
 70
     0
  9
$DIMTZIN
 70
     0
  9
$DIMALTZ
 70
     0
  9
$DIMALTTZ
 70
     0
  9
$DIMFIT
 70
     3
  9
$DIMUPT
 70
     0
  9
$DIMUNIT
 70
     2
  9
$DIMDEC
 70
     3
  9
$DIMTDEC
 70
     3
  9
$DIMALTU
 70
     2
  9
$DIMALTTD
 70
     2
  9
$DIMTXSTY
  7
ASAMI
  9
$DIMAUNIT
 70
     0
  9
$LUNITS
 70
     2
  9
$LUPREC
 70
     2
  9
$SKETCHINC
 40
1.0
  9
$FILLETRAD
 40
0.4
  9
$AUNITS
 70
     0
  9
$AUPREC
 70
     0
  9
$MENU
  1
.
  9
$ELEVATION
 40
0.0
  9
$PELEVATION
 40
0.0
  9
$THICKNESS
 40
0.0
  9
$LIMCHECK
 70
     0
  9
$BLIPMODE
 70
     0
  9
$CHAMFERA
 40
1.3
  9
$CHAMFERB
 40
1.3
  9
$CHAMFERC
 40
20.0
  9
$CHAMFERD
 40
0.0
  9
$SKPOLY
 70
     0
  9
$TDCREATE
 40
2452836.771637361
  9
$TDUPDATE
 40
2453152.367822418
  9
$TDINDWG
 40
0.3051750579
  9
$TDUSRTIMER
 40
0.3051750579
  9
$USRTIMER
 70
     1
  9
$ANGBASE
 50
0.0
  9
$ANGDIR
 70
     0
  9
$PDMODE
 70
     0
  9
$PDSIZE
 40
0.0
  9
$PLINEWID
 40
0.0
  9
$COORDS
 70
     1
  9
$SPLFRAME
 70
     0
  9
$SPLINETYPE
 70
     6
  9
$SPLINESEGS
 70
     8
  9
$ATTDIA
 70
     1
  9
$ATTREQ
 70
     1
  9
$HANDLING
 70
 12289
  9
$HANDSEED
  5
F9CE
  9
$SURFTAB1
 70
     6
  9
$SURFTAB2
 70
     6
  9
$SURFTYPE
 70
     6
  9
$SURFU
 70
     6
  9
$SURFV
 70
     6
  9
$UCSNAME
  2

  9
$UCSORG
 10
0.0
 20
0.0
 30
0.0
  9
$UCSXDIR
 10
1.0
 20
0.0
 30
0.0
  9
$UCSYDIR
 10
0.0
 20
1.0
 30
0.0
  9
$PUCSNAME
  2

  9
$PUCSORG
 10
0.0
 20
0.0
 30
0.0
  9
$PUCSXDIR
 10
1.0
 20
0.0
 30
0.0
  9
$PUCSYDIR
 10
0.0
 20
1.0
 30
0.0
  9
$USERI1
 70
     0
  9
$USERI2
 70
     0
  9
$USERI3
 70
     0
  9
$USERI4
 70
     0
  9
$USERI5
 70
     0
  9
$USERR1
 40
0.0
  9
$USERR2
 40
0.0
  9
$USERR3
 40
0.0
  9
$USERR4
 40
0.0
  9
$USERR5
 40
0.0
  9
$WORLDVIEW
 70
     1
  9
$SHADEDGE
 70
     3
  9
$SHADEDIF
 70
    70
  9
$TILEMODE
 70
     1
  9
$MAXACTVP
 70
    64
  9
$PINSBASE
 10
0.0
 20
0.0
 30
0.0
  9
$PLIMCHECK
 70
     0
  9
$PEXTMIN
 10
1.000000000000000E+20
 20
1.000000000000000E+20
 30
1.000000000000000E+20
  9
$PEXTMAX
 10
-1.000000000000000E+20
 20
-1.000000000000000E+20
 30
-1.000000000000000E+20
  9
$PLIMMIN
 10
0.0
 20
0.0
  9
$PLIMMAX
 10
841.0
 20
594.0
  9
$UNITMODE
 70
     0
  9
$VISRETAIN
 70
     1
  9
$PLINEGEN
 70
     0
  9
$PSLTSCALE
 70
     0
  9
$TREEDEPTH
 70
  3020
  9
$PICKSTYLE
 70
     0
  9
$CMLSTYLE
  2
STANDARD
  9
$CMLJUST
 70
     0
  9
$CMLSCALE
 40
20.0
  9
$PROXYGRAPHICS
 70
     1
  9
$MEASUREMENT
 70
     1
  0
ENDSEC
  0
SECTION
  2
CLASSES
  0
CLASS
  1
ACDBDICTIONARYWDFLT
  2
AcDbDictionaryWithDefault
  3
AutoCAD 2000
 90
        0
280
     0
281
     0
  0
CLASS
  1
ACDBPLACEHOLDER
  2
AcDbPlaceHolder
  3
AutoCAD 2000
 90
        0
280
     0
281
     0
  0
CLASS
  1
LAYOUT
  2
AcDbLayout
  3
AutoCAD 2000
 90
        0
280
     0
281
     0
  0
CLASS
  1
AMGSETTINGSOBJ
  2
AmgSettingsObj
  3
"AcadM|Product Description: AutoCAD Mechanical 2000|Company: Autodesk"
 90
        0
280
     0
281
     0
  0
CLASS
  1
ACME_DOCUMENT
  2
AcMeDbDoc
  3
AcMeServices
 90
        0
280
     0
281
     0
  0
CLASS
  1
ACMESCOPE
  2
AcMeScope
  3
AcMeServices
 90
        0
280
     0
281
     0
  0
CLASS
  1
ACMECOMMANDHISTORY
  2
AcMeCommandHistory
  3
AcMeServices
 90
        0
280
     0
281
     0
  0
CLASS
  1
DICTIONARYVAR
  2
AcDbDictionaryVar
  3
AutoCAD 2000
 90
        0
280
     0
281
     0
  0
CLASS
  1
ACIMSYSVARMAN
  2
AcImSysVarManager
  3
AcMeServices
 90
        0
280
     0
281
     0
  0
CLASS
  1
ACIMREALSYSVAR
  2
AcImRealSysVar
  3
AcMeServices
 90
        0
280
     0
281
     0
  0
CLASS
  1
ACIMINTSYSVAR
  2
AcImIntSysVar
  3
AcMeServices
 90
        0
280
     0
281
     0
  0
CLASS
  1
ACMEDRAWINGMAN
  2
AcMeDrawingMan
  3
AcMeServices
 90
        0
280
     0
281
     0
  0
CLASS
  1
ACMEVIEW
  2
AcMeView
  3
AcMeServices
 90
        0
280
     0
281
     0
  0
CLASS
  1
ACDBENTITYCACHE
  2
AcMeEntityCache
  3
AcMeServices
 90
        0
280
     0
281
     0
  0
CLASS
  1
GSMANAGER
  2
AcMeGSManager
  3
AcMeServices
 90
        0
280
     0
281
     0
  0
CLASS
  1
AmdtInternalReactor
  2
AmdtInternalReactor
  3
AcMeServices
 90
        0
280
     0
281
     0
  0
CLASS
  1
ACMESTATEMGR
  2
AcMeStateMgr
  3
AcMeServices
 90
        0
280
     0
281
     0
  0
CLASS
  1
ACME_DATABASE
  2
AcMeDbDatabase
  3
AcMeServices
 90
        0
280
     0
281
     0
  0
CLASS
  1
ACRFINSADJUSTERMGR
  2
AcRfInsAdjusterMgr
  3
AcMeServices
 90
        0
280
     0
281
     0
  0
CLASS
  1
ACMDATADICTIONARY
  2
AcmDataDictionary
  3
"AcmSymBB|Product Description: AutoCAD Mechanical 2000|Company: Autodesk"
 90
        0
280
     0
281
     0
  0
CLASS
  1
ACMDATAENTRYBLOCK
  2
AcmDataEntryBlock
  3
"AcmSymBB|Product Description: AutoCAD Mechanical 2000|Company: Autodesk"
 90
        0
280
     0
281
     0
  0
CLASS
  1
AMGOBJPROPCFG
  2
AmgObjPropCfg
  3
"AmgLay|Product Description: AutoCAD Mechanical 2000|Company: Autodesk"
 90
        1
280
     0
281
     0
  0
CLASS
  1
ACAMGFILTERDAT
  2
AcAmgFilterDat
  3
"AcadM|Product Description: AutoCAD Mechanical 2000|Company: Autodesk"
 90
        0
280
     0
281
     0
  0
CLASS
  1
LAYER_INDEX
  2
AcDbLayerIndex
  3
AutoCAD 2000
 90
        0
280
     0
281
     0
  0
CLASS
  1
IDBUFFER
  2
AcDbIdBuffer
  3
AutoCAD 2000
 90
        0
280
     0
281
     0
  0
CLASS
  1
ACIMSTRSYSVAR
  2
AcImStrSysVar
  3
AcMeServices
 90
        0
280
     0
281
     0
  0
CLASS
  1
ACMSTANDARDJIS
  2
AcmStandardJIS
  3
"AcmSymBB|Product Description: AutoCAD Mechanical 2000|Company: Autodesk"
 90
        0
280
     0
281
     0
  0
CLASS
  1
ACMSURFSTANDARDJIS
  2
AcmSurfTextStdJIS
  3
"AcmSymBB|Product Description: AutoCAD Mechanical 2000|Company: Autodesk"
 90
        0
280
     0
281
     0
  0
CLASS
  1
ACMFCFSTANDARDJIS
  2
AcmFCFStdJIS
  3
"AcmSymBB|Product Description: AutoCAD Mechanical 2000|Company: Autodesk"
 90
        0
280
     0
281
     0
  0
CLASS
  1
ACMWELDSTANDARDJIS
  2
AcmWeldingStdJIS
  3
"AcmSymBB|Product Description: AutoCAD Mechanical 2000|Company: Autodesk"
 90
        0
280
     0
281
     0
  0
CLASS
  1
ACMIDSTANDARDJIS
  2
AcmIdStdJIS
  3
"AcmSymBB|Product Description: AutoCAD Mechanical 2000|Company: Autodesk"
 90
        0
280
     0
281
     0
  0
CLASS
  1
ACMDATUMSTANDARDJIS
  2
AcmDatumStdJIS
  3
"AcmSymBB|Product Description: AutoCAD Mechanical 2000|Company: Autodesk"
 90
        0
280
     0
281
     0
  0
CLASS
  1
ACMBOMSTANDARDJIS
  2
AcmBOMStdJIS
  3
"AcmSymBB|Product Description: AutoCAD Mechanical 2000|Company: Autodesk"
 90
        0
280
     0
281
     0
  0
CLASS
  1
ACMSTANDARDANSI
  2
AcmStandardANSI
  3
"AcmSymBB|Product Description: AutoCAD Mechanical 2000|Company: Autodesk"
 90
        0
280
     0
281
     0
  0
CLASS
  1
ACMSURFSTANDARDANSI
  2
AcmSurfTextStdANSI
  3
"AcmSymBB|Product Description: AutoCAD Mechanical 2000|Company: Autodesk"
 90
        0
280
     0
281
     0
  0
CLASS
  1
ACMFCFSTANDARDANSI
  2
AcmFCFStdANSI
  3
"AcmSymBB|Product Description: AutoCAD Mechanical 2000|Company: Autodesk"
 90
        0
280
     0
281
     0
  0
CLASS
  1
ACMWELDSTANDARDANSI
  2
AcmWeldingStdANSI
  3
"AcmSymBB|Product Description: AutoCAD Mechanical 2000|Company: Autodesk"
 90
        0
280
     0
281
     0
  0
CLASS
  1
ACMIDSTANDARDANSI
  2
AcmIdStdANSI
  3
"AcmSymBB|Product Description: AutoCAD Mechanical 2000|Company: Autodesk"
 90
        0
280
     0
281
     0
  0
CLASS
  1
ACMDATUMSTANDARDANSI
  2
AcmDatumStdANSI
  3
"AcmSymBB|Product Description: AutoCAD Mechanical 2000|Company: Autodesk"
 90
        0
280
     0
281
     0
  0
CLASS
  1
ACMBOMSTANDARDANSI
  2
AcmBOMStdANSI
  3
"AcmSymBB|Product Description: AutoCAD Mechanical 2000|Company: Autodesk"
 90
        0
280
     0
281
     0
  0
CLASS
  1
ACMSTANDARDBSI
  2
AcmStandardBSI
  3
"AcmSymBB|Product Description: AutoCAD Mechanical 2000|Company: Autodesk"
 90
        0
280
     0
281
     0
  0
CLASS
  1
ACMSURFSTANDARDBSI
  2
AcmSurfTextStdBSI
  3
"AcmSymBB|Product Description: AutoCAD Mechanical 2000|Company: Autodesk"
 90
        0
280
     0
281
     0
  0
CLASS
  1
ACMFCFSTANDARDBSI
  2
AcmFCFStdBSI
  3
"AcmSymBB|Product Description: AutoCAD Mechanical 2000|Company: Autodesk"
 90
        0
280
     0
281
     0
  0
CLASS
  1
ACMWELDSTANDARDBSI
  2
AcmWeldingStdBSI
  3
"AcmSymBB|Product Description: AutoCAD Mechanical 2000|Company: Autodesk"
 90
        0
280
     0
281
     0
  0
CLASS
  1
ACMIDSTANDARDBSI
  2
AcmIdStdBSI
  3
"AcmSymBB|Product Description: AutoCAD Mechanical 2000|Company: Autodesk"
 90
        0
280
     0
281
     0
  0
CLASS
  1
ACMDATUMSTANDARDBSI
  2
AcmDatumStdBSI
  3
"AcmSymBB|Product Description: AutoCAD Mechanical 2000|Company: Autodesk"
 90
        0
280
     0
281
     0
  0
CLASS
  1
ACMBOMSTANDARDBSI
  2
AcmBOMStdBSI
  3
"AcmSymBB|Product Description: AutoCAD Mechanical 2000|Company: Autodesk"
 90
        0
280
     0
281
     0
  0
CLASS
  1
LONG_TRANSACTION
  2
AcDbLongTransaction
  3
AutoCAD 2000
 90
        0
280
     0
281
     0
  0
CLASS
  1
LWPOLYLINE
  2
AcDbPolyline
  3
AutoCAD 2000
 90
        0
280
     0
281
     1
  0
CLASS
  1
HATCH
  2
AcDbHatch
  3
AutoCAD 2000
 90
        0
280
     0
281
     1
  0
CLASS
  1
XRECORD
  2
AcDbXrecord
  3
AutoCAD 2000
 90
        0
280
     0
281
     0
  0
ENDSEC
  0
SECTION
  2
TABLES
  0
TABLE
  2
VPORT
  5
8
330
0
100
AcDbSymbolTable
 70
     3
  0
VPORT
  5
F9A3
330
8
100
AcDbSymbolTableRecord
100
AcDbViewportTableRecord
  2
*ACTIVE
 70
     0
 10
0.0
 20
0.0
 11
1.0
 21
1.0
 12
-15.57887232831507
 22
-30.83684275145164
 13
0.0
 23
0.0
 14
2.5
 24
2.5
 15
10.0
 25
10.0
 16
0.0
 26
0.0
 36
1.0
 17
0.0
 27
0.0
 37
0.0
 40
180.3141217915858
 41
1.56570841889117
 42
50.0
 43
0.0
 44
0.0
 50
0.0
 51
0.0
 71
     0
 72
   100
 73
     1
 74
     3
 75
     0
 76
     0
 77
     0
 78
     0
  0
ENDTAB
  0
TABLE
  2
LTYPE
  5
5
330
0
100
AcDbSymbolTable
 70
    10
  0
LTYPE
  5
14
330
5
100
AcDbSymbolTableRecord
100
AcDbLinetypeTableRecord
  2
BYBLOCK
 70
     0
  3

 72
    65
 73
     0
 40
0.0
  0
LTYPE
  5
15
330
5
100
AcDbSymbolTableRecord
100
AcDbLinetypeTableRecord
  2
BYLAYER
 70
     0
  3

 72
    65
 73
     0
 40
0.0
  0
LTYPE
  5
16
330
5
100
AcDbSymbolTableRecord
100
AcDbLinetypeTableRecord
  2
CONTINUOUS
 70
     0
  3
Solid line
 72
    65
 73
     0
 40
0.0
  0
LTYPE
  5
4B
330
5
100
AcDbSymbolTableRecord
100
AcDbLinetypeTableRecord
  2
AM_ISO02W050
 70
     0
  3
__ __ __ __ __ __ __ __ __ __ __ __ __ __ __
 72
    65
 73
     2
 40
7.5
 49
6.0
 74
     0
 49
-1.5
 74
     0
  0
LTYPE
  5
4C
330
5
100
AcDbSymbolTableRecord
100
AcDbLinetypeTableRecord
  2
AM_ISO08W050
 70
     0
  3
____ . ____ . ____ . ____ . ____ . ____ . ____
 72
    65
 73
     4
 40
18.0
 49
12.0
 74
     0
 49
-1.5
 74
     0
 49
3.0
 74
     0
 49
-1.5
 74
     0
  0
LTYPE
  5
4D
330
5
100
AcDbSymbolTableRecord
100
AcDbLinetypeTableRecord
  2
AM_ISO09W050
 70
     0
  3
_____ . . _____ . . _____ . . ____ .. ____
 72
    65
 73
     6
 40
22.5
 49
12.0
 74
     0
 49
-1.5
 74
     0
 49
3.0
 74
     0
 49
-1.5
 74
     0
 49
3.0
 74
     0
 49
-1.5
 74
     0
  0
LTYPE
  5
4E
330
5
100
AcDbSymbolTableRecord
100
AcDbLinetypeTableRecord
  2
AMCONSTR
 70
     0
  3
_______________________
 72
    65
 73
     2
 40
9999.0
 49
9999.0
 74
     0
 49
0.0
 74
     0
  0
LTYPE
  5
4F
330
5
100
AcDbSymbolTableRecord
100
AcDbLinetypeTableRecord
  2
AM_ISO02W050X2
 70
     0
  3
 _ _ _ _ _ _ _ _ _ _ _ _
 72
    65
 73
     2
 40
3.75
 49
3.0
 74
     0
 49
-0.75
 74
     0
  0
LTYPE
  5
50
330
5
100
AcDbSymbolTableRecord
100
AcDbLinetypeTableRecord
  2
AM_ISO08W050X2
 70
     0
  3
__ . __ . __ . __ . __ . __
 72
    65
 73
     4
 40
9.0
 49
6.0
 74
     0
 49
-0.75
 74
     0
 49
1.5
 74
     0
 49
-0.75
 74
     0
  0
LTYPE
  5
53
330
5
100
AcDbSymbolTableRecord
100
AcDbLinetypeTableRecord
  2
AMZIGZAG
 70
     0
  3
/\/-/\/-/\/-/\/-/\/-/\/
 72
    65
 73
     2
 40
11.00009999999999
 49
0.0001
 74
     4
 75
   135
340
52
 46
0.04
 50
0.0
 44
0.0
 45
0.0
 49
-11.0
 74
     0
  0
LTYPE
  5
166
330
5
100
AcDbSymbolTableRecord
100
AcDbLinetypeTableRecord
  2
ACJISTGL
 70
     0
  3
_ _ _ _ _
 72
    65
 73
     2
 40
3.0
 49
2.0
 74
     0
 49
-1.0
 74
     0
  0
LTYPE
  5
26A
330
5
100
AcDbSymbolTableRecord
100
AcDbLinetypeTableRecord
  2
ACJISTGB
 70
     0
  3
__ . . __ . .
 72
    65
 73
     6
 40
9.0
 49
4.0
 74
     0
 49
-1.0
 74
     0
 49
1.0
 74
     0
 49
-1.0
 74
     0
 49
1.0
 74
     0
 49
-1.0
 74
     0
  0
ENDTAB
  0
TABLE
  2
LAYER
  5
2
330
0
100
AcDbSymbolTable
 70
     8
  0
LAYER
  5
10
330
2
100
AcDbSymbolTableRecord
100
AcDbLayerTableRecord
  2
0
 70
     0
 62
     7
  6
CONTINUOUS
  0
LAYER
  5
3F9
330
2
100
AcDbSymbolTableRecord
100
AcDbLayerTableRecord
  2
AM_0
 70
     0
 62
     7
  6
CONTINUOUS
  0
LAYER
  5
BD5
330
2
100
AcDbSymbolTableRecord
100
AcDbLayerTableRecord
  2
AM_7
 70
     0
 62
     4
  6
AM_ISO08W050
  0
LAYER
  5
BD6
330
2
100
AcDbSymbolTableRecord
100
AcDbLayerTableRecord
  2
AM_5
 70
     0
 62
     3
  6
CONTINUOUS
  0
LAYER
  5
BD7
330
2
100
AcDbSymbolTableRecord
100
AcDbLayerTableRecord
  2
DEFPOINTS
 70
     0
 62
     7
  6
CONTINUOUS
  0
LAYER
  5
E59
330
2
100
AcDbSymbolTableRecord
100
AcDbLayerTableRecord
  2
AM_6
 70
     0
 62
     2
  6
CONTINUOUS
  0
LAYER
  5
1E31
330
2
100
AcDbSymbolTableRecord
100
AcDbLayerTableRecord
  2
AM_11
 70
     0
 62
     3
  6
AM_ISO09W050
  0
LAYER
  5
1E41
330
2
100
AcDbSymbolTableRecord
100
AcDbLayerTableRecord
  2
AM_3
 70
     0
 62
     6
  6
ACJISTGL
  0
ENDTAB
  0
TABLE
  2
STYLE
  5
3
330
0
100
AcDbSymbolTable
 70
     5
  0
STYLE
  5
11
330
3
100
AcDbSymbolTableRecord
100
AcDbTextStyleTableRecord
  2
STANDARD
 70
     0
 40
0.0
 41
1.0
 50
0.0
 71
     0
 42
2.5
  3
simplex.shx
  4
EXTFONT.SHX
  0
STYLE
  5
52
330
3
100
AcDbSymbolTableRecord
100
AcDbTextStyleTableRecord
  2

 70
     1
 40
0.0
 41
1.0
 50
0.0
 71
     0
 42
2.5
  3
ltypeshp.shx
  4

  0
STYLE
  5
6B
330
3
100
AcDbSymbolTableRecord
100
AcDbTextStyleTableRecord
  2
ASAMI
 70
     0
 40
0.0
 41
1.0
 50
0.0
 71
     0
 42
2.5
  3
simplex.shx
  4
EXTFONT.SHX
  0
STYLE
  5
262
330
3
100
AcDbSymbolTableRecord
100
AcDbTextStyleTableRecord
  2
ACJISTS
 70
     0
 40
1.0
 41
1.0
 50
0.0
 71
     0
 42
2.5
  3
simplex.shx
  4
bigfont.shx
  0
STYLE
  5
269
330
3
100
AcDbSymbolTableRecord
100
AcDbTextStyleTableRecord
  2
ACJISGDT
 70
     0
 40
0.0
 41
1.0
 50
0.0
 71
     0
 42
2.5
  3
amgdtans.shx
  4

  0
ENDTAB
  0
TABLE
  2
VIEW
  5
6
330
0
100
AcDbSymbolTable
 70
     0
  0
ENDTAB
  0
TABLE
  2
UCS
  5
7
330
0
100
AcDbSymbolTable
 70
     0
  0
ENDTAB
  0
TABLE
  2
APPID
  5
9
330
0
100
AcDbSymbolTable
 70
    13
  0
APPID
  5
12
330
9
100
AcDbSymbolTableRecord
100
AcDbRegAppTableRecord
  2
ACAD
 70
     0
  0
APPID
  5
30
330
9
100
AcDbSymbolTableRecord
100
AcDbRegAppTableRecord
  2
MCAD_NO_VIS
 70
     0
  0
APPID
  5
31
330
9
100
AcDbSymbolTableRecord
100
AcDbRegAppTableRecord
  2
ACAD_TEMP_GRAPHIC
 70
     0
  0
APPID
  5
2C2
330
9
100
AcDbSymbolTableRecord
100
AcDbRegAppTableRecord
  2
GENIUS_GENDTOL_13
 70
     0
  0
APPID
  5
339
330
9
100
AcDbSymbolTableRecord
100
AcDbRegAppTableRecord
  2
GENIUS_GENODEF_13
 70
     0
  0
APPID
  5
33A
330
9
100
AcDbSymbolTableRecord
100
AcDbRegAppTableRecord
  2
GENIUS_GENOBJ-N-RSBK_13
 70
     0
  0
APPID
  5
33B
330
9
100
AcDbSymbolTableRecord
100
AcDbRegAppTableRecord
  2
GENIUS_GENOBJ-N-LIB_13
 70
     0
  0
APPID
  5
33C
330
9
100
AcDbSymbolTableRecord
100
AcDbRegAppTableRecord
  2
GENIUS_GENSCALE_13
 70
     0
  0
APPID
  5
378
330
9
100
AcDbSymbolTableRecord
100
AcDbRegAppTableRecord
  2
GENIUS_GENDIMSH_14
 70
     0
  0
APPID
  5
BD8
330
9
100
AcDbSymbolTableRecord
100
AcDbRegAppTableRecord
  2
GENIUS_GENOBJ-N-CEN_13
 70
     0
  0
APPID
  5
BD9
330
9
100
AcDbSymbolTableRecord
100
AcDbRegAppTableRecord
  2
GENIUS_GENFIL_13
 70
     0
  0
APPID
  5
BDA
330
9
100
AcDbSymbolTableRecord
100
AcDbRegAppTableRecord
  2
GENIUS_GENOBJ-N-CHA_13
 70
     0
  0
APPID
  5
2BC1
330
9
100
AcDbSymbolTableRecord
100
AcDbRegAppTableRecord
  2
GENIUS_GENOBJ-N-FIL_13
 70
     0
  0
ENDTAB
  0
TABLE
  2
DIMSTYLE
  5
A
330
0
100
AcDbSymbolTable
 70
     9
  0
DIMSTYLE
105
58
102
{ACAD_REACTORS
330
F223
330
F222
330
F224
330
F2AE
330
F2EB
330
F2E8
330
F2EA
102
}
330
A
100
AcDbSymbolTableRecord
100
AcDbDimStyleTableRecord
  2
AM_JIS
 70
     0
  3

  4
"
  5
OPEN30
  6

  7

 40
1.0
 41
2.5
 42
1.0
 43
12.0
 44
1.0
 45
0.0
 46
0.0
 47
0.1
 48
0.1
140
3.2
141
0.0
142
0.0
143
0.0393701
144
1.0
145
0.0
146
0.71
147
1.5
 71
     0
 72
     0
 73
     0
 74
     0
 75
     0
 76
     0
 77
     3
 78
     8
170
     0
171
     2
172
     1
173
     0
174
     0
175
     0
176
   256
177
   256
178
     2
270
     2
271
     3
272
     3
273
     2
274
     2
340
6B
275
     0
280
     0
281
     0
282
     0
283
     0
284
     0
285
     0
286
     0
287
     3
288
     0
  0
DIMSTYLE
105
5F
330
A
100
AcDbSymbolTableRecord
100
AcDbDimStyleTableRecord
  2
AM_JIS$3
 70
     0
  3

  4
"
  5
OPEN30
  6

  7

 40
1.0
 41
2.5
 42
1.0
 43
10.0
 44
1.0
 45
0.0
 46
0.0
 47
0.1
 48
0.1
140
3.2
141
0.0
142
0.0
143
0.0393701
144
1.0
145
0.0
146
0.71
147
1.5
 71
     0
 72
     0
 73
     0
 74
     1
 75
     0
 76
     0
 77
     3
 78
     8
170
     0
171
     2
172
     0
173
     0
174
     0
175
     0
176
   256
177
   256
178
     2
270
     2
271
     2
272
     3
273
     2
274
     2
340
6B
275
     0
280
     0
281
     0
282
     0
283
     0
284
     0
285
     0
286
     0
287
     0
288
     1
  0
DIMSTYLE
105
60
330
A
100
AcDbSymbolTableRecord
100
AcDbDimStyleTableRecord
  2
AM_JIS$4
 70
     0
  3

  4
"
  5
OPEN30
  6

  7

 40
1.0
 41
2.5
 42
1.0
 43
10.0
 44
1.0
 45
0.0
 46
0.0
 47
0.1
 48
0.1
140
3.2
141
0.0
142
0.0
143
0.0393701
144
1.0
145
0.0
146
0.71
147
1.5
 71
     0
 72
     0
 73
     0
 74
     1
 75
     0
 76
     0
 77
     3
 78
     8
170
     0
171
     2
172
     0
173
     0
174
     0
175
     0
176
   256
177
   256
178
     2
270
     2
271
     2
272
     3
273
     2
274
     2
340
6B
275
     0
280
     0
281
     0
282
     0
283
     0
284
     0
285
     0
286
     0
287
     0
288
     1
  0
DIMSTYLE
105
61
330
A
100
AcDbSymbolTableRecord
100
AcDbDimStyleTableRecord
  2
AM_JIS$6
 70
     0
  3

  4
"
  5
OPEN30
  6

  7

 40
1.0
 41
2.5
 42
1.0
 43
10.0
 44
1.0
 45
0.0
 46
0.0
 47
0.1
 48
0.1
140
3.2
141
0.0
142
0.0
143
0.0393701
144
1.0
145
0.0
146
0.71
147
1.5
 71
     0
 72
     0
 73
     0
 74
     0
 75
     0
 76
     0
 77
     0
 78
     8
170
     0
171
     2
172
     1
173
     0
174
     0
175
     0
176
   256
177
   256
178
     2
270
     2
271
     2
272
     2
273
     2
274
     2
340
6B
275
     0
280
     0
281
     0
282
     0
283
     0
284
     0
285
     0
286
     0
287
     3
288
     0
  0
DIMSTYLE
105
62
330
A
100
AcDbSymbolTableRecord
100
AcDbDimStyleTableRecord
  2
AM_JIS$7
 70
     0
  3

  4
"
  5
OPEN30
  6

  7

 40
1.0
 41
2.5
 42
1.0
 43
10.0
 44
1.0
 45
0.0
 46
0.0
 47
0.1
 48
0.1
140
3.2
141
0.0
142
0.0
143
0.0393701
144
1.0
145
0.0
146
0.71
147
1.5
 71
     0
 72
     0
 73
     0
 74
     0
 75
     0
 76
     0
 77
     3
 78
     8
170
     0
171
     2
172
     1
173
     0
174
     0
175
     0
176
   256
177
   256
178
     2
270
     2
271
     2
272
     3
273
     2
274
     2
340
6B
275
     0
280
     0
281
     0
282
     0
283
     0
284
     0
285
     0
286
     0
287
     3
288
     0
  0
DIMSTYLE
105
63
330
A
100
AcDbSymbolTableRecord
100
AcDbDimStyleTableRecord
  2
AM_JIS$SF
 70
     0
  3

  4
"
  5
OPEN30
  6

  7

 40
1.0
 41
2.5
 42
1.0
 43
10.0
 44
1.0
 45
0.0
 46
0.0
 47
0.1
 48
0.1
140
3.2
141
0.0
142
0.0
143
0.0393701
144
1.0
145
0.0
146
0.71
147
1.5
 71
     0
 72
     0
 73
     0
 74
     0
 75
     1
 76
     1
 77
     3
 78
     8
170
     0
171
     2
172
     1
173
     0
174
     0
175
     0
176
   256
177
   256
178
     2
270
     2
271
     2
272
     2
273
     2
274
     2
340
6B
275
     0
280
     0
281
     0
282
     0
283
     0
284
     0
285
     0
286
     0
287
     3
288
     0
  0
DIMSTYLE
105
68
330
A
100
AcDbSymbolTableRecord
100
AcDbDimStyleTableRecord
  2
AM_JIS$SH
 70
     0
  3

  4
"
  5

  6
GENAXEH
  7
OPEN30
 40
1.0
 41
2.5
 42
1.0
 43
10.0
 44
1.0
 45
0.0
 46
0.0
 47
0.1
 48
0.1
140
3.2
141
0.0
142
0.0
143
0.0393701
144
2.0
145
0.0
146
0.71
147
1.5
 71
     0
 72
     0
 73
     0
 74
     0
 75
     1
 76
     1
 77
     3
 78
     8
170
     0
171
     2
172
     1
173
     1
174
     0
175
     0
176
   256
177
   256
178
     2
270
     2
271
     2
272
     2
273
     2
274
     2
340
6B
275
     0
280
     0
281
     0
282
     0
283
     0
284
     0
285
     0
286
     0
287
     3
288
     0
  0
DIMSTYLE
105
B34
102
{ACAD_REACTORS
330
F6C7
102
}
330
A
100
AcDbSymbolTableRecord
100
AcDbDimStyleTableRecord
  2
AM_JIS$2
 70
     0
  3

  4
"
  5
OPEN30
  6

  7

 40
1.0
 41
2.5
 42
1.0
 43
12.0
 44
1.0
 45
0.0
 46
0.0
 47
0.1
 48
0.1
140
3.2
141
0.0
142
0.0
143
0.0393701
144
1.0
145
0.0
146
0.71
147
1.5
 71
     0
 72
     0
 73
     0
 74
     0
 75
     0
 76
     0
 77
     3
 78
     8
170
     0
171
     2
172
     1
173
     0
174
     0
175
     0
176
   256
177
   256
178
     2
270
     2
271
     3
272
     3
273
     2
274
     2
340
6B
275
     0
280
     0
281
     0
282
     0
283
     0
284
     0
285
     0
286
     0
287
     3
288
     0
  0
DIMSTYLE
105
1E42
102
{ACAD_REACTORS
330
F2E9
330
F368
330
F367
330
F3B7
102
}
330
A
100
AcDbSymbolTableRecord
100
AcDbDimStyleTableRecord
  2
AM_JIS$0
 70
     0
  3

  4
"
  5
OPEN30
  6

  7

 40
2.0
 41
2.5
 42
1.0
 43
10.0
 44
1.0
 45
0.0
 46
0.0
 47
0.1
 48
0.1
140
2.5
141
0.0
142
0.0
143
0.0393701
144
1.0
145
0.0
146
0.71
147
1.0
 71
     0
 72
     0
 73
     0
 74
     0
 75
     0
 76
     0
 77
     3
 78
     8
170
     0
171
     2
172
     1
173
     0
174
     0
175
     0
176
   256
177
   256
178
     4
270
     2
271
     3
272
     3
273
     2
274
     2
340
6B
275
     0
280
     0
281
     0
282
     0
283
     0
284
     0
285
     0
286
     0
287
     3
288
     0
  0
ENDTAB
  0
TABLE
  2
BLOCK_RECORD
  5
1
330
0
100
AcDbSymbolTable
 70
    17
  0
BLOCK_RECORD
  5
1F
102
{ACAD_XDICTIONARY
360
74
102
}
330
1
100
AcDbSymbolTableRecord
100
AcDbBlockTableRecord
  2
*MODEL_SPACE
  0
BLOCK_RECORD
  5
101
102
{ACAD_XDICTIONARY
360
F9CC
102
}
330
1
100
AcDbSymbolTableRecord
100
AcDbBlockTableRecord
  2
*PAPER_SPACE
  0
BLOCK_RECORD
  5
59
330
1
100
AcDbSymbolTableRecord
100
AcDbBlockTableRecord
  2
_OPEN30
  0
BLOCK_RECORD
  5
64
330
1
100
AcDbSymbolTableRecord
100
AcDbBlockTableRecord
  2
GENAXEH
  0
BLOCK_RECORD
  5
F225
330
1
100
AcDbSymbolTableRecord
100
AcDbBlockTableRecord
  2
*D5
  0
BLOCK_RECORD
  5
F231
330
1
100
AcDbSymbolTableRecord
100
AcDbBlockTableRecord
  2
*D6
  0
BLOCK_RECORD
  5
F23D
330
1
100
AcDbSymbolTableRecord
100
AcDbBlockTableRecord
  2
*D7
  0
BLOCK_RECORD
  5
F2AF
330
1
100
AcDbSymbolTableRecord
100
AcDbBlockTableRecord
  2
*D8
  0
BLOCK_RECORD
  5
F2EC
330
1
100
AcDbSymbolTableRecord
100
AcDbBlockTableRecord
  2
*D9
  0
BLOCK_RECORD
  5
F2F8
330
1
100
AcDbSymbolTableRecord
100
AcDbBlockTableRecord
  2
*D10
  0
BLOCK_RECORD
  5
F304
330
1
100
AcDbSymbolTableRecord
100
AcDbBlockTableRecord
  2
*D11
  0
BLOCK_RECORD
  5
F310
330
1
100
AcDbSymbolTableRecord
100
AcDbBlockTableRecord
  2
*D12
  0
BLOCK_RECORD
  5
F369
330
1
100
AcDbSymbolTableRecord
100
AcDbBlockTableRecord
  2
*D13
  0
BLOCK_RECORD
  5
F375
330
1
100
AcDbSymbolTableRecord
100
AcDbBlockTableRecord
  2
*D14
  0
BLOCK_RECORD
  5
F3B8
330
1
100
AcDbSymbolTableRecord
100
AcDbBlockTableRecord
  2
*D15
  0
BLOCK_RECORD
  5
F6C8
330
1
100
AcDbSymbolTableRecord
100
AcDbBlockTableRecord
  2
*D16
  0
ENDTAB
  0
ENDSEC
  0
SECTION
  2
BLOCKS
  0
BLOCK
  5
20
330
1F
100
AcDbEntity
  8
0
100
AcDbBlockBegin
  2
*MODEL_SPACE
 70
     0
 10
0.0
 20
0.0
 30
0.0
  3
*MODEL_SPACE
  1

  0
ENDBLK
  5
21
330
1F
100
AcDbEntity
  8
0
100
AcDbBlockEnd
  0
BLOCK
  5
103
330
101
100
AcDbEntity
 67
     1
  8
0
100
AcDbBlockBegin
  2
*PAPER_SPACE
 70
     0
 10
0.0
 20
0.0
 30
0.0
  3
*PAPER_SPACE
  1

  0
ENDBLK
  5
104
330
101
100
AcDbEntity
 67
     1
  8
0
100
AcDbBlockEnd
  0
BLOCK
  5
5D
330
59
100
AcDbEntity
  8
0
100
AcDbBlockBegin
  2
_OPEN30
 70
     0
 10
0.0
 20
0.0
 30
0.0
  3
_OPEN30
  1

  0
LINE
  5
5A
330
59
100
AcDbEntity
  8
0
 62
     0
100
AcDbLine
 10
-1.0
 20
0.26794919
 30
0.0
 11
0.0
 21
0.0
 31
0.0
  0
LINE
  5
5B
330
59
100
AcDbEntity
  8
0
 62
     0
100
AcDbLine
 10
0.0
 20
0.0
 30
0.0
 11
-1.0
 21
-0.26794919
 31
0.0
  0
LINE
  5
5C
330
59
100
AcDbEntity
  8
0
 62
     0
100
AcDbLine
 10
0.0
 20
0.0
 30
0.0
 11
-1.0
 21
0.0
 31
0.0
  0
ENDBLK
  5
5E
330
59
100
AcDbEntity
  8
0
100
AcDbBlockEnd
  0
BLOCK
  5
66
330
64
100
AcDbEntity
  8
0
100
AcDbBlockBegin
  2
GENAXEH
 70
     0
 10
0.0
 20
0.0
 30
0.0
  3
GENAXEH
  1

  0
LINE
  5
65
330
64
100
AcDbEntity
  8
0
100
AcDbLine
 10
-1.0
 20
0.0
 30
0.0
 11
1.0
 21
0.0
 31
0.0
  0
ENDBLK
  5
67
330
64
100
AcDbEntity
  8
0
100
AcDbBlockEnd
  0
BLOCK
  5
F22F
330
F225
100
AcDbEntity
  8
0
100
AcDbBlockBegin
  2
*D5
 70
     1
 10
0.0
 20
0.0
 30
0.0
  3
*D5
  1

  0
LINE
  5
F7CD
330
F225
100
AcDbEntity
  8
AM_5
100
AcDbLine
 10
-48.69999999999993
 20
12.6999999999999
 30
0.0
 11
-79.94613735959678
 21
12.69999999999991
 31
0.0
  0
LINE
  5
F7CE
330
F225
100
AcDbEntity
  8
AM_5
100
AcDbLine
 10
-48.69999999999999
 20
-12.69999999999996
 30
0.0
 11
-79.94613735959678
 21
-12.69999999999995
 31
0.0
  0
LINE
  5
F7CF
330
F225
100
AcDbEntity
  8
AM_5
100
AcDbLine
 10
-78.94613735959677
 20
10.19999999999991
 30
0.0
 11
-78.94613735959677
 21
-10.19999999999995
 31
0.0
  0
INSERT
  5
F7D0
330
F225
100
AcDbEntity
  8
AM_5
100
AcDbBlockReference
  2
_OPEN30
 10
-78.94613735959677
 20
12.69999999999991
 30
0.0
 41
2.5
 42
2.5
 43
2.5
 50
90.0
  0
INSERT
  5
F7D1
330
F225
100
AcDbEntity
  8
AM_5
100
AcDbBlockReference
  2
_OPEN30
 10
-78.94613735959677
 20
-12.69999999999995
 30
0.0
 41
2.5
 42
2.5
 43
2.5
 50
270.0
  0
MTEXT
  5
F7D2
330
F225
100
AcDbEntity
  8
AM_5
 62
     2
100
AcDbMText
 10
-82.04613735959677
 20
-0.0000000000000321
 30
0.0
 40
3.2
 41
0.0
 71
     5
 72
     1
  1
%%c25.4
  7
ASAMI
 11
0.0000000000000001
 21
1.0
 31
0.0
1001
ACAD
1000
MTEXTBEGIN
1070
    73
1070
     1
1070
    44
1040
1.0
1070
    74
1070
     0
1000
MTEXTEND
  0
POINT
  5
F7D3
330
F225
100
AcDbEntity
  8
DEFPOINTS
 62
     0
100
AcDbPoint
 10
-47.69999999999993
 20
12.6999999999999
 30
0.0
  0
POINT
  5
F7D4
330
F225
100
AcDbEntity
  8
DEFPOINTS
 62
     0
100
AcDbPoint
 10
-47.69999999999998
 20
-12.69999999999996
 30
0.0
  0
POINT
  5
F7D5
330
F225
100
AcDbEntity
  8
DEFPOINTS
 62
     0
100
AcDbPoint
 10
-78.94613735959677
 20
-12.69999999999995
 30
0.0
  0
ENDBLK
  5
F230
330
F225
100
AcDbEntity
  8
0
100
AcDbBlockEnd
  0
BLOCK
  5
F23B
330
F231
100
AcDbEntity
  8
0
100
AcDbBlockBegin
  2
*D6
 70
     1
 10
0.0
 20
0.0
 30
0.0
  3
*D6
  1

  0
LINE
  5
F65B
330
F231
100
AcDbEntity
  8
AM_5
100
AcDbLine
 10
-37.0
 20
52.19999999999998
 30
0.0
 11
-99.94613735959674
 21
52.20000000000001
 31
0.0
  0
LINE
  5
F65C
330
F231
100
AcDbEntity
  8
AM_5
100
AcDbLine
 10
-37.0
 20
-52.19999999999998
 30
0.0
 11
-99.94613735959678
 21
-52.19999999999997
 31
0.0
  0
LINE
  5
F65D
330
F231
100
AcDbEntity
  8
AM_5
100
AcDbLine
 10
-98.94613735959675
 20
49.70000000000001
 30
0.0
 11
-98.94613735959678
 21
-49.69999999999997
 31
0.0
  0
INSERT
  5
F65E
330
F231
100
AcDbEntity
  8
AM_5
100
AcDbBlockReference
  2
_OPEN30
 10
-98.94613735959675
 20
52.20000000000001
 30
0.0
 41
2.5
 42
2.5
 43
2.5
 50
90.0
  0
INSERT
  5
F65F
330
F231
100
AcDbEntity
  8
AM_5
100
AcDbBlockReference
  2
_OPEN30
 10
-98.94613735959678
 20
-52.19999999999997
 30
0.0
 41
2.5
 42
2.5
 43
2.5
 50
270.0
  0
MTEXT
  5
F660
330
F231
100
AcDbEntity
  8
AM_5
 62
     2
100
AcDbMText
 10
-102.0461373595967
 20
0.0000000000000064
 30
0.0
 40
3.2
 41
0.0
 71
     5
 72
     1
  1
%%c104.4
  7
ASAMI
 11
0.0000000000000001
 21
1.0
 31
0.0
1001
ACAD
1000
MTEXTBEGIN
1070
    73
1070
     1
1070
    44
1040
1.0
1070
    74
1070
     0
1000
MTEXTEND
  0
POINT
  5
F661
330
F231
100
AcDbEntity
  8
DEFPOINTS
 62
     0
100
AcDbPoint
 10
-36.0
 20
52.19999999999998
 30
0.0
  0
POINT
  5
F662
330
F231
100
AcDbEntity
  8
DEFPOINTS
 62
     0
100
AcDbPoint
 10
-36.0
 20
-52.19999999999998
 30
0.0
  0
POINT
  5
F663
330
F231
100
AcDbEntity
  8
DEFPOINTS
 62
     0
100
AcDbPoint
 10
-98.94613735959678
 20
-52.19999999999997
 30
0.0
  0
ENDBLK
  5
F23C
330
F231
100
AcDbEntity
  8
0
100
AcDbBlockEnd
  0
BLOCK
  5
F247
330
F23D
100
AcDbEntity
  8
0
100
AcDbBlockBegin
  2
*D7
 70
     1
 10
0.0
 20
0.0
 30
0.0
  3
*D7
  1

  0
LINE
  5
F69C
330
F23D
100
AcDbEntity
  8
AM_5
100
AcDbLine
 10
-49.69999999999998
 20
4.75
 30
0.0
 11
-69.94613735959683
 21
4.750000000000005
 31
0.0
  0
LINE
  5
F69D
330
F23D
100
AcDbEntity
  8
AM_5
100
AcDbLine
 10
-49.69999999999998
 20
-4.75
 30
0.0
 11
-69.94613735959683
 21
-4.749999999999994
 31
0.0
  0
LINE
  5
F69E
330
F23D
100
AcDbEntity
  8
AM_5
100
AcDbLine
 10
-68.94613735959683
 20
2.250000000000005
 30
0.0
 11
-68.94613735959683
 21
-2.249999999999994
 31
0.0
  0
INSERT
  5
F69F
330
F23D
100
AcDbEntity
  8
AM_5
100
AcDbBlockReference
  2
_OPEN30
 10
-68.94613735959683
 20
4.750000000000005
 30
0.0
 41
2.5
 42
2.5
 43
2.5
 50
90.0
  0
INSERT
  5
F6A0
330
F23D
100
AcDbEntity
  8
AM_5
100
AcDbBlockReference
  2
_OPEN30
 10
-68.94613735959683
 20
-4.749999999999994
 30
0.0
 41
2.5
 42
2.5
 43
2.5
 50
270.0
  0
MTEXT
  5
F6A1
330
F23D
100
AcDbEntity
  8
AM_5
 62
     2
100
AcDbMText
 10
-72.04613735959682
 20
-0.0000000000000052
 30
0.0
 40
3.2
 41
0.0
 71
     5
 72
     1
  1
9.5
  7
ASAMI
 11
0.0000000000000001
 21
1.0
 31
0.0
1001
ACAD
1000
MTEXTBEGIN
1070
    73
1070
     1
1070
    44
1040
1.0
1070
    74
1070
     0
1000
MTEXTEND
  0
POINT
  5
F6A2
330
F23D
100
AcDbEntity
  8
DEFPOINTS
 62
     0
100
AcDbPoint
 10
-48.69999999999999
 20
4.75
 30
0.0
  0
POINT
  5
F6A3
330
F23D
100
AcDbEntity
  8
DEFPOINTS
 62
     0
100
AcDbPoint
 10
-48.69999999999999
 20
-4.75
 30
0.0
  0
POINT
  5
F6A4
330
F23D
100
AcDbEntity
  8
DEFPOINTS
 62
     0
100
AcDbPoint
 10
-68.94613735959683
 20
-4.749999999999994
 30
0.0
  0
ENDBLK
  5
F248
330
F23D
100
AcDbEntity
  8
0
100
AcDbBlockEnd
  0
BLOCK
  5
F2B9
330
F2AF
100
AcDbEntity
  8
0
100
AcDbBlockBegin
  2
*D8
 70
     1
 10
0.0
 20
0.0
 30
0.0
  3
*D8
  1

  0
LINE
  5
F664
330
F2AF
100
AcDbEntity
  8
AM_5
100
AcDbLine
 10
-48.69999999999999
 20
29.99999999999994
 30
0.0
 11
-89.94613735959678
 21
29.99999999999996
 31
0.0
  0
LINE
  5
F665
330
F2AF
100
AcDbEntity
  8
AM_5
100
AcDbLine
 10
-48.69999999999999
 20
-29.99999999999994
 30
0.0
 11
-89.94613735959678
 21
-29.99999999999992
 31
0.0
  0
LINE
  5
F666
330
F2AF
100
AcDbEntity
  8
AM_5
100
AcDbLine
 10
-88.94613735959678
 20
27.49999999999996
 30
0.0
 11
-88.94613735959678
 21
-27.49999999999992
 31
0.0
  0
INSERT
  5
F667
330
F2AF
100
AcDbEntity
  8
AM_5
100
AcDbBlockReference
  2
_OPEN30
 10
-88.94613735959678
 20
29.99999999999996
 30
0.0
 41
2.5
 42
2.5
 43
2.5
 50
90.0
  0
INSERT
  5
F668
330
F2AF
100
AcDbEntity
  8
AM_5
100
AcDbBlockReference
  2
_OPEN30
 10
-88.94613735959678
 20
-29.99999999999992
 30
0.0
 41
2.5
 42
2.5
 43
2.5
 50
270.0
  0
MTEXT
  5
F669
330
F2AF
100
AcDbEntity
  8
AM_5
 62
     2
100
AcDbMText
 10
-92.04613735959677
 20
-0.0000000000000013
 30
0.0
 40
3.2
 41
0.0
 71
     5
 72
     1
  1
%%c60
  7
ASAMI
 11
0.0000000000000001
 21
1.0
 31
0.0
1001
ACAD
1000
MTEXTBEGIN
1070
    73
1070
     1
1070
    44
1040
1.0
1070
    74
1070
     0
1000
MTEXTEND
  0
POINT
  5
F66A
330
F2AF
100
AcDbEntity
  8
DEFPOINTS
 62
     0
100
AcDbPoint
 10
-47.69999999999998
 20
29.99999999999994
 30
0.0
  0
POINT
  5
F66B
330
F2AF
100
AcDbEntity
  8
DEFPOINTS
 62
     0
100
AcDbPoint
 10
-47.69999999999998
 20
-29.99999999999994
 30
0.0
  0
POINT
  5
F66C
330
F2AF
100
AcDbEntity
  8
DEFPOINTS
 62
     0
100
AcDbPoint
 10
-88.94613735959678
 20
-29.99999999999992
 30
0.0
  0
ENDBLK
  5
F2BA
330
F2AF
100
AcDbEntity
  8
0
100
AcDbBlockEnd
  0
BLOCK
  5
F2F6
330
F2EC
100
AcDbEntity
  8
0
100
AcDbBlockBegin
  2
*D9
 70
     1
 10
0.0
 20
0.0
 30
0.0
  3
*D9
  1

  0
LINE
  5
F688
330
F2EC
100
AcDbEntity
  8
AM_5
100
AcDbLine
 10
-50.0
 20
-28.69999999999993
 30
0.0
 11
-50.0
 21
-67.20000100000001
 31
0.0
  0
LINE
  5
F689
330
F2EC
100
AcDbEntity
  8
AM_5
100
AcDbLine
 10
-44.00000000000011
 20
-4.750000000000028
 30
0.0
 11
-44.00000000000011
 21
-67.20000100000001
 31
0.0
  0
LINE
  5
F68A
330
F2EC
100
AcDbEntity
  8
AM_5
100
AcDbLine
 10
-52.5
 20
-66.20000100000002
 30
0.0
 11
-55.0
 21
-66.20000100000002
 31
0.0
  0
LINE
  5
F68B
330
F2EC
100
AcDbEntity
  8
AM_5
100
AcDbLine
 10
-41.50000000000011
 20
-66.20000100000002
 30
0.0
 11
-39.00000000000012
 21
-66.20000100000002
 31
0.0
  0
LINE
  5
F68C
330
F2EC
100
AcDbEntity
  8
AM_5
100
AcDbLine
 10
-50.0
 20
-66.20000100000002
 30
0.0
 11
-44.00000000000011
 21
-66.20000100000002
 31
0.0
  0
INSERT
  5
F68D
330
F2EC
100
AcDbEntity
  8
AM_5
100
AcDbBlockReference
  2
_OPEN30
 10
-50.0
 20
-66.20000100000002
 30
0.0
 41
2.5
 42
2.5
 43
2.5
  0
INSERT
  5
F68E
330
F2EC
100
AcDbEntity
  8
AM_5
100
AcDbBlockReference
  2
_OPEN30
 10
-44.00000000000011
 20
-66.20000100000002
 30
0.0
 41
2.5
 42
2.5
 43
2.5
 50
180.0
  0
MTEXT
  5
F68F
330
F2EC
100
AcDbEntity
  8
AM_5
 62
     2
100
AcDbMText
 10
-47.00000000000005
 20
-63.10000100000001
 30
0.0
 40
3.2
 41
0.0
 71
     5
 72
     1
  1
6
  7
ASAMI
1001
ACAD
1000
MTEXTBEGIN
1070
    73
1070
     1
1070
    44
1040
1.0
1070
    74
1070
     0
1000
MTEXTEND
  0
POINT
  5
F690
330
F2EC
100
AcDbEntity
  8
DEFPOINTS
 62
     0
100
AcDbPoint
 10
-50.0
 20
-27.69999999999993
 30
0.0
  0
POINT
  5
F691
330
F2EC
100
AcDbEntity
  8
DEFPOINTS
 62
     0
100
AcDbPoint
 10
-44.00000000000011
 20
-3.750000000000028
 30
0.0
  0
POINT
  5
F692
330
F2EC
100
AcDbEntity
  8
DEFPOINTS
 62
     0
100
AcDbPoint
 10
-44.00000000000011
 20
-66.20000100000002
 30
0.0
  0
ENDBLK
  5
F2F7
330
F2EC
100
AcDbEntity
  8
0
100
AcDbBlockEnd
  0
BLOCK
  5
F302
330
F2F8
100
AcDbEntity
  8
0
100
AcDbBlockBegin
  2
*D10
 70
     1
 10
0.0
 20
0.0
 30
0.0
  3
*D10
  1

  0
LINE
  5
F67F
330
F2F8
100
AcDbEntity
  8
AM_5
100
AcDbLine
 10
-50.0
 20
-28.69999999999993
 30
0.0
 11
-50.0
 21
-97.20000100000001
 31
0.0
  0
LINE
  5
F680
330
F2F8
100
AcDbEntity
  8
AM_5
100
AcDbLine
 10
-0.0000000000000001
 20
-41.0
 30
0.0
 11
-0.0000000000000035
 21
-97.20000100000001
 31
0.0
  0
LINE
  5
F681
330
F2F8
100
AcDbEntity
  8
AM_5
100
AcDbLine
 10
-47.5
 20
-96.20000100000002
 30
0.0
 11
-2.500000000000003
 21
-96.20000100000002
 31
0.0
  0
INSERT
  5
F682
330
F2F8
100
AcDbEntity
  8
AM_5
100
AcDbBlockReference
  2
_OPEN30
 10
-50.0
 20
-96.20000100000002
 30
0.0
 41
2.5
 42
2.5
 43
2.5
 50
180.0
  0
INSERT
  5
F683
330
F2F8
100
AcDbEntity
  8
AM_5
100
AcDbBlockReference
  2
_OPEN30
 10
-0.0000000000000034
 20
-96.20000100000002
 30
0.0
 41
2.5
 42
2.5
 43
2.5
  0
MTEXT
  5
F684
330
F2F8
100
AcDbEntity
  8
AM_5
 62
     2
100
AcDbMText
 10
-25.0
 20
-93.10000100000001
 30
0.0
 40
3.2
 41
0.0
 71
     5
 72
     1
  1
50
  7
ASAMI
1001
ACAD
1000
MTEXTBEGIN
1070
    73
1070
     1
1070
    44
1040
1.0
1070
    74
1070
     0
1000
MTEXTEND
  0
POINT
  5
F685
330
F2F8
100
AcDbEntity
  8
DEFPOINTS
 62
     0
100
AcDbPoint
 10
-50.0
 20
-27.69999999999993
 30
0.0
  0
POINT
  5
F686
330
F2F8
100
AcDbEntity
  8
DEFPOINTS
 62
     0
100
AcDbPoint
 10
0.0
 20
-40.0
 30
0.0
  0
POINT
  5
F687
330
F2F8
100
AcDbEntity
  8
DEFPOINTS
 62
     0
100
AcDbPoint
 10
-0.0000000000000034
 20
-96.20000100000002
 30
0.0
  0
ENDBLK
  5
F303
330
F2F8
100
AcDbEntity
  8
0
100
AcDbBlockEnd
  0
BLOCK
  5
F30E
330
F304
100
AcDbEntity
  8
0
100
AcDbBlockBegin
  2
*D11
 70
     1
 10
0.0
 20
0.0
 30
0.0
  3
*D11
  1

  0
LINE
  5
F66D
330
F304
100
AcDbEntity
  8
AM_5
100
AcDbLine
 10
-50.0
 20
-28.69999999999993
 30
0.0
 11
-50.0
 21
-87.20000100000001
 31
0.0
  0
LINE
  5
F66E
330
F304
100
AcDbEntity
  8
AM_5
100
AcDbLine
 10
-18.99999999999997
 20
-11.00000000000002
 30
0.0
 11
-18.99999999999997
 21
-87.20000100000001
 31
0.0
  0
LINE
  5
F66F
330
F304
100
AcDbEntity
  8
AM_5
100
AcDbLine
 10
-47.5
 20
-86.20000100000002
 30
0.0
 11
-21.49999999999997
 21
-86.20000100000002
 31
0.0
  0
INSERT
  5
F670
330
F304
100
AcDbEntity
  8
AM_5
100
AcDbBlockReference
  2
_OPEN30
 10
-50.0
 20
-86.20000100000002
 30
0.0
 41
2.5
 42
2.5
 43
2.5
 50
180.0
  0
INSERT
  5
F671
330
F304
100
AcDbEntity
  8
AM_5
100
AcDbBlockReference
  2
_OPEN30
 10
-18.99999999999997
 20
-86.20000100000002
 30
0.0
 41
2.5
 42
2.5
 43
2.5
  0
MTEXT
  5
F672
330
F304
100
AcDbEntity
  8
AM_5
 62
     2
100
AcDbMText
 10
-34.49999999999999
 20
-83.10000100000001
 30
0.0
 40
3.2
 41
0.0
 71
     5
 72
     1
  1
31
  7
ASAMI
1001
ACAD
1000
MTEXTBEGIN
1070
    73
1070
     1
1070
    44
1040
1.0
1070
    74
1070
     0
1000
MTEXTEND
  0
POINT
  5
F673
330
F304
100
AcDbEntity
  8
DEFPOINTS
 62
     0
100
AcDbPoint
 10
-50.0
 20
-27.69999999999993
 30
0.0
  0
POINT
  5
F674
330
F304
100
AcDbEntity
  8
DEFPOINTS
 62
     0
100
AcDbPoint
 10
-18.99999999999997
 20
-10.00000000000002
 30
0.0
  0
POINT
  5
F675
330
F304
100
AcDbEntity
  8
DEFPOINTS
 62
     0
100
AcDbPoint
 10
-18.99999999999997
 20
-86.20000100000002
 30
0.0
  0
ENDBLK
  5
F30F
330
F304
100
AcDbEntity
  8
0
100
AcDbBlockEnd
  0
BLOCK
  5
F31A
330
F310
100
AcDbEntity
  8
0
100
AcDbBlockBegin
  2
*D12
 70
     1
 10
0.0
 20
0.0
 30
0.0
  3
*D12
  1

  0
LINE
  5
F676
330
F310
100
AcDbEntity
  8
AM_5
100
AcDbLine
 10
-50.0
 20
-28.69999999999993
 30
0.0
 11
-50.0
 21
-77.20000100000001
 31
0.0
  0
LINE
  5
F677
330
F310
100
AcDbEntity
  8
AM_5
100
AcDbLine
 10
-25.0
 20
-12.9
 30
0.0
 11
-25.0
 21
-77.20000100000001
 31
0.0
  0
LINE
  5
F678
330
F310
100
AcDbEntity
  8
AM_5
100
AcDbLine
 10
-47.5
 20
-76.20000100000002
 30
0.0
 11
-27.5
 21
-76.20000100000002
 31
0.0
  0
INSERT
  5
F679
330
F310
100
AcDbEntity
  8
AM_5
100
AcDbBlockReference
  2
_OPEN30
 10
-50.0
 20
-76.20000100000002
 30
0.0
 41
2.5
 42
2.5
 43
2.5
 50
180.0
  0
INSERT
  5
F67A
330
F310
100
AcDbEntity
  8
AM_5
100
AcDbBlockReference
  2
_OPEN30
 10
-25.0
 20
-76.20000100000002
 30
0.0
 41
2.5
 42
2.5
 43
2.5
  0
MTEXT
  5
F67B
330
F310
100
AcDbEntity
  8
AM_5
 62
     2
100
AcDbMText
 10
-37.5
 20
-73.10000100000002
 30
0.0
 40
3.2
 41
0.0
 71
     5
 72
     1
  1
25
  7
ASAMI
1001
ACAD
1000
MTEXTBEGIN
1070
    73
1070
     1
1070
    44
1040
1.0
1070
    74
1070
     0
1000
MTEXTEND
  0
POINT
  5
F67C
330
F310
100
AcDbEntity
  8
DEFPOINTS
 62
     0
100
AcDbPoint
 10
-50.0
 20
-27.69999999999993
 30
0.0
  0
POINT
  5
F67D
330
F310
100
AcDbEntity
  8
DEFPOINTS
 62
     0
100
AcDbPoint
 10
-25.0
 20
-11.9
 30
0.0
  0
POINT
  5
F67E
330
F310
100
AcDbEntity
  8
DEFPOINTS
 62
     0
100
AcDbPoint
 10
-25.0
 20
-76.20000100000002
 30
0.0
  0
ENDBLK
  5
F31B
330
F310
100
AcDbEntity
  8
0
100
AcDbBlockEnd
  0
BLOCK
  5
F373
330
F369
100
AcDbEntity
  8
0
100
AcDbBlockBegin
  2
*D13
 70
     1
 10
0.0
 20
0.0
 30
0.0
  3
*D13
  1

  0
LINE
  5
F6AE
330
F369
100
AcDbEntity
  8
AM_5
100
AcDbLine
 10
-18.49999999999997
 20
6.5
 30
0.0
 11
18.54217267262447
 21
6.499999999999988
 31
0.0
  0
LINE
  5
F6AF
330
F369
100
AcDbEntity
  8
AM_5
100
AcDbLine
 10
-18.49999999999997
 20
-6.5
 30
0.0
 11
18.54217267262447
 21
-6.500000000000011
 31
0.0
  0
LINE
  5
F6B0
330
F369
100
AcDbEntity
  8
AM_5
100
AcDbLine
 10
17.54217267262447
 20
3.999999999999988
 30
0.0
 11
17.54217267262447
 21
-4.00000000000001
 31
0.0
  0
INSERT
  5
F6B1
330
F369
100
AcDbEntity
  8
AM_5
100
AcDbBlockReference
  2
_OPEN30
 10
17.54217267262447
 20
6.499999999999989
 30
0.0
 41
2.5
 42
2.5
 43
2.5
 50
90.0
  0
INSERT
  5
F6B2
330
F369
100
AcDbEntity
  8
AM_5
100
AcDbBlockReference
  2
_OPEN30
 10
17.54217267262447
 20
-6.50000000000001
 30
0.0
 41
2.5
 42
2.5
 43
2.5
 50
270.0
  0
MTEXT
  5
F6B3
330
F369
100
AcDbEntity
  8
AM_5
 62
     2
100
AcDbMText
 10
14.44217267262447
 20
-0.0000000000000078
 30
0.0
 40
3.2
 41
0.0
 71
     5
 72
     1
  1
%%c13
  7
ASAMI
 11
0.0000000000000001
 21
1.0
 31
0.0
1001
ACAD
1000
MTEXTBEGIN
1070
    73
1070
     1
1070
    44
1040
1.0
1070
    74
1070
     0
1000
MTEXTEND
  0
POINT
  5
F6B4
330
F369
100
AcDbEntity
  8
DEFPOINTS
 62
     0
100
AcDbPoint
 10
-19.49999999999997
 20
6.5
 30
0.0
  0
POINT
  5
F6B5
330
F369
100
AcDbEntity
  8
DEFPOINTS
 62
     0
100
AcDbPoint
 10
-19.49999999999997
 20
-6.5
 30
0.0
  0
POINT
  5
F6B6
330
F369
100
AcDbEntity
  8
DEFPOINTS
 62
     0
100
AcDbPoint
 10
17.54217267262447
 20
-6.50000000000001
 30
0.0
  0
ENDBLK
  5
F374
330
F369
100
AcDbEntity
  8
0
100
AcDbBlockEnd
  0
BLOCK
  5
F37F
330
F375
100
AcDbEntity
  8
0
100
AcDbBlockBegin
  2
*D14
 70
     1
 10
0.0
 20
0.0
 30
0.0
  3
*D14
  1

  0
LINE
  5
F652
330
F375
100
AcDbEntity
  8
AM_5
100
AcDbLine
 10
1.0
 20
40.0
 30
0.0
 11
38.54217267262448
 21
39.99999999999999
 31
0.0
  0
LINE
  5
F653
330
F375
100
AcDbEntity
  8
AM_5
100
AcDbLine
 10
1.0
 20
-40.0
 30
0.0
 11
38.54217267262447
 21
-40.0
 31
0.0
  0
LINE
  5
F654
330
F375
100
AcDbEntity
  8
AM_5
100
AcDbLine
 10
37.54217267262449
 20
37.49999999999999
 30
0.0
 11
37.54217267262447
 21
-37.5
 31
0.0
  0
INSERT
  5
F655
330
F375
100
AcDbEntity
  8
AM_5
100
AcDbBlockReference
  2
_OPEN30
 10
37.54217267262449
 20
39.99999999999999
 30
0.0
 41
2.5
 42
2.5
 43
2.5
 50
90.0
  0
INSERT
  5
F656
330
F375
100
AcDbEntity
  8
AM_5
100
AcDbBlockReference
  2
_OPEN30
 10
37.54217267262447
 20
-40.0
 30
0.0
 41
2.5
 42
2.5
 43
2.5
 50
270.0
  0
MTEXT
  5
F657
330
F375
100
AcDbEntity
  8
AM_5
 62
     2
100
AcDbMText
 10
34.44217267262448
 20
-0.0000000000000019
 30
0.0
 40
3.2
 41
0.0
 71
     5
 72
     1
  1
%%c80
  7
ASAMI
 11
0.0000000000000001
 21
1.0
 31
0.0
1001
ACAD
1000
MTEXTBEGIN
1070
    73
1070
     1
1070
    44
1040
1.0
1070
    74
1070
     0
1000
MTEXTEND
  0
POINT
  5
F658
330
F375
100
AcDbEntity
  8
DEFPOINTS
 62
     0
100
AcDbPoint
 10
0.0
 20
40.0
 30
0.0
  0
POINT
  5
F659
330
F375
100
AcDbEntity
  8
DEFPOINTS
 62
     0
100
AcDbPoint
 10
0.0
 20
-40.0
 30
0.0
  0
POINT
  5
F65A
330
F375
100
AcDbEntity
  8
DEFPOINTS
 62
     0
100
AcDbPoint
 10
37.54217267262447
 20
-40.0
 30
0.0
  0
ENDBLK
  5
F380
330
F375
100
AcDbEntity
  8
0
100
AcDbBlockEnd
  0
BLOCK
  5
F3C2
330
F3B8
100
AcDbEntity
  8
0
100
AcDbBlockBegin
  2
*D15
 70
     1
 10
0.0
 20
0.0
 30
0.0
  3
*D15
  1

  0
LINE
  5
F6A5
330
F3B8
100
AcDbEntity
  8
AM_5
100
AcDbLine
 10
-14.99999999999997
 20
10.00000000000005
 30
0.0
 11
28.54217267262448
 21
10.00000000000004
 31
0.0
  0
LINE
  5
F6A6
330
F3B8
100
AcDbEntity
  8
AM_5
100
AcDbLine
 10
-14.99999999999997
 20
-10.00000000000008
 30
0.0
 11
28.54217267262447
 21
-10.00000000000009
 31
0.0
  0
LINE
  5
F6A7
330
F3B8
100
AcDbEntity
  8
AM_5
100
AcDbLine
 10
27.54217267262447
 20
7.500000000000043
 30
0.0
 11
27.54217267262447
 21
-7.500000000000098
 31
0.0
  0
INSERT
  5
F6A8
330
F3B8
100
AcDbEntity
  8
AM_5
100
AcDbBlockReference
  2
_OPEN30
 10
27.54217267262448
 20
10.00000000000004
 30
0.0
 41
2.5
 42
2.5
 43
2.5
 50
90.0
  0
INSERT
  5
F6A9
330
F3B8
100
AcDbEntity
  8
AM_5
100
AcDbBlockReference
  2
_OPEN30
 10
27.54217267262447
 20
-10.00000000000009
 30
0.0
 41
2.5
 42
2.5
 43
2.5
 50
270.0
  0
MTEXT
  5
F6AA
330
F3B8
100
AcDbEntity
  8
AM_5
 62
     2
100
AcDbMText
 10
24.44217267262447
 20
-0.0000000000000226
 30
0.0
 40
3.2
 41
0.0
 71
     5
 72
     1
  1
%%c20
  7
ASAMI
 11
0.0000000000000001
 21
1.0
 31
0.0
1001
ACAD
1000
MTEXTBEGIN
1070
    73
1070
     1
1070
    44
1040
1.0
1070
    74
1070
     0
1000
MTEXTEND
  0
POINT
  5
F6AB
330
F3B8
100
AcDbEntity
  8
DEFPOINTS
 62
     0
100
AcDbPoint
 10
-15.99999999999997
 20
10.00000000000005
 30
0.0
  0
POINT
  5
F6AC
330
F3B8
100
AcDbEntity
  8
DEFPOINTS
 62
     0
100
AcDbPoint
 10
-15.99999999999997
 20
-10.00000000000008
 30
0.0
  0
POINT
  5
F6AD
330
F3B8
100
AcDbEntity
  8
DEFPOINTS
 62
     0
100
AcDbPoint
 10
27.54217267262447
 20
-10.00000000000009
 30
0.0
  0
ENDBLK
  5
F3C3
330
F3B8
100
AcDbEntity
  8
0
100
AcDbBlockEnd
  0
BLOCK
  5
F6D8
330
F6C8
100
AcDbEntity
  8
0
100
AcDbBlockBegin
  2
*D16
 70
     1
 10
0.0
 20
0.0
 30
0.0
  3
*D16
  1

  0
LINE
  5
F958
330
F6C8
100
AcDbEntity
  8
AM_5
100
AcDbLine
 10
-7.252095181973462
 20
-47.66313702561849
 30
0.0
 11
-18.15450447686446
 21
-58.77721631007053
 31
0.0
  0
LINE
  5
F959
330
F6C8
100
AcDbEntity
  8
AM_5
100
AcDbLine
 10
-0.0000000000000036
 20
-41.27024260652748
 30
0.0
 11
-0.0000000000000107
 21
-66.19502049302298
 31
0.0
  0
ARC
  5
F95A
330
F6C8
100
AcDbEntity
  8
AM_5
100
AcDbCircle
 10
-0.0000000000000036
 20
-40.27024260652747
 30
0.0
 40
24.92477788649549
100
AcDbArc
 50
231.3001150322555
 51
264.2507186469131
  0
INSERT
  5
F95B
330
F6C8
100
AcDbEntity
  8
AM_5
100
AcDbBlockReference
  2
_OPEN30
 10
-17.45422829489102
 20
-58.063344284452
 30
0.0
 41
2.5
 42
2.5
 43
2.5
 50
138.425474355712
  0
INSERT
  5
F95C
330
F6C8
100
AcDbEntity
  8
AM_5
100
AcDbBlockReference
  2
_OPEN30
 10
-0.0000000000000071
 20
-65.19502049302298
 30
0.0
 41
2.5
 42
2.5
 43
2.5
 50
357.1253593234565
  0
MTEXT
  5
F95D
330
F6C8
100
AcDbEntity
  8
AM_5
 62
     2
100
AcDbMText
 10
-8.254960411707058
 20
-60.47362248208325
 30
0.0
 40
3.2
 41
0.0
 71
     5
 72
     1
  1
45%%d
  7
ASAMI
 11
0.9257083843248187
 21
-0.3782380033665758
 31
0.0
1001
ACAD
1000
MTEXTBEGIN
1070
    73
1070
     1
1070
    44
1040
1.0
1070
    74
1070
     0
1000
MTEXTEND
  0
POINT
  5
F95E
330
F6C8
100
AcDbEntity
  8
DEFPOINTS
 62
     0
100
AcDbPoint
 10
-12.32378731355101
 20
-61.935163998988
 30
0.0
  0
POINT
  5
F95F
330
F6C8
100
AcDbEntity
  8
DEFPOINTS
 62
     0
100
AcDbPoint
 10
-6.551819000000021
 20
-46.94926499999996
 30
0.0
  0
POINT
  5
F960
330
F6C8
100
AcDbEntity
  8
DEFPOINTS
 62
     0
100
AcDbPoint
 10
0.0000000000000018
 20
40.0
 30
0.0
  0
POINT
  5
F961
330
F6C8
100
AcDbEntity
  8
DEFPOINTS
 62
     0
100
AcDbPoint
 10
-0.0000000000000018
 20
-40.0
 30
0.0
  0
POINT
  5
F962
330
F6C8
100
AcDbEntity
  8
DEFPOINTS
 62
     0
100
AcDbPoint
 10
-0.1842080000000141
 20
-40.45802700000002
 30
0.0
  0
ENDBLK
  5
F6D9
330
F6C8
100
AcDbEntity
  8
0
100
AcDbBlockEnd
  0
ENDSEC
  0
SECTION
  2
ENTITIES
  0
TEXT
  5
E5A
330
1F
100
AcDbEntity
  8
AM_6
100
AcDbText
 10
-43.33333333333333
 20
-118.700001
 30
0.0
 40
5.0
  1
FPG4080R
 72
     4
 11
-24.99999999999999
 21
-116.200001
 31
0.0
100
AcDbText
  0
LINE
  5
E30E
330
1F
100
AcDbEntity
  8
AM_0
100
AcDbLine
 10
-1.900000000000005
 20
-35.80213881848456
 30
0.0
 11
-1.900000000000005
 21
0.0
 31
0.0
  0
LINE
  5
E30F
330
1F
100
AcDbEntity
  8
AM_0
100
AcDbLine
 10
-50.0
 20
-27.69999999999993
 30
0.0
 11
-49.99999999999994
 21
-6.050000000000011
 31
0.0
  0
LINE
  5
E310
330
1F
100
AcDbEntity
  8
AM_0
100
AcDbLine
 10
-14.99999999999994
 20
-24.51012172991166
 30
0.0
 11
-14.99999999999997
 21
0.0
 31
0.0
  0
LINE
  5
E311
330
1F
100
AcDbEntity
  8
AM_3
100
AcDbLine
 10
-12.34369549577476
 20
-51.07421635762197
 30
0.0
 11
-1.900000000000005
 21
-40.44663461117179
 31
0.0
  0
LINE
  5
E312
330
1F
100
AcDbEntity
  8
AM_3
100
AcDbLine
 10
-22.79999999999998
 20
-49.19999999999999
 30
0.0
 11
-22.79999999999998
 21
-44.54999999999998
 31
0.0
  0
LINE
  5
E313
330
1F
100
AcDbEntity
  8
AM_0
100
AcDbLine
 10
-43.70858375633026
 20
-31.65270364466607
 30
0.0
 11
-40.96014915213106
 21
-47.23985084786889
 31
0.0
  0
LINE
  5
E314
330
1F
100
AcDbEntity
  8
AM_3
100
AcDbLine
 10
-27.79999999999998
 20
-50.84478317724786
 30
0.0
 11
-27.79999999999998
 21
-44.55
 31
0.0
  0
LINE
  5
E315
330
1F
100
AcDbEntity
  8
AM_0
100
AcDbLine
 10
-36.0
 20
-52.19999999999998
 30
0.0
 11
-40.96014915213106
 21
-47.23985084786889
 31
0.0
  0
LINE
  5
E316
330
1F
100
AcDbEntity
  8
AM_0
100
AcDbLine
 10
-19.79999999999998
 20
-52.19999999999998
 30
0.0
 11
-13.4500000000001
 21
-52.19999999999998
 31
0.0
  0
LINE
  5
E318
330
1F
100
AcDbEntity
  8
AM_0
100
AcDbLine
 10
-36.0
 20
-52.19999999999998
 30
0.0
 11
-28.79999999999998
 21
-52.19999999999998
 31
0.0
  0
LINE
  5
E319
330
1F
100
AcDbEntity
  8
AM_3
100
AcDbLine
 10
-21.05509554998187
 20
-50.94490445001809
 30
0.0
 11
-22.79999999999998
 21
-49.19999999999999
 31
0.0
  0
LINE
  5
E31B
330
1F
100
AcDbEntity
  8
AM_0
100
AcDbLine
 10
-47.69999999999998
 20
-29.99999999999994
 30
0.0
 11
-45.6781992623546
 21
-29.99999999999994
 31
0.0
  0
LINE
  5
E31D
330
1F
100
AcDbEntity
  8
AM_3
100
AcDbLine
 10
-1.900000000000034
 20
-38.94663461117207
 30
0.0
 11
-14.99999999999994
 21
-25.84663461117211
 31
0.0
  0
ARC
  5
E31E
330
1F
100
AcDbEntity
  8
AM_0
100
AcDbCircle
 10
-27.39999999999997
 20
-44.55
 30
0.0
 40
0.4
100
AcDbArc
 50
90.0
 51
180.0
  0
LINE
  5
E320
330
1F
100
AcDbEntity
  8
AM_3
100
AcDbLine
 10
-27.39999999999997
 20
-44.15
 30
0.0
 11
-23.19999999999998
 21
-44.14999999999998
 31
0.0
  0
LINE
  5
E321
330
1F
100
AcDbEntity
  8
AM_3
100
AcDbLine
 10
-12.34369549577476
 20
51.07421635762197
 30
0.0
 11
-1.900000000000062
 21
40.44663461117184
 31
0.0
  0
LINE
  5
E322
330
1F
100
AcDbEntity
  8
AM_0
100
AcDbLine
 10
-43.70858375633025
 20
31.65270364466608
 30
0.0
 11
-40.96014915213106
 21
47.23985084786889
 31
0.0
  0
LINE
  5
E323
330
1F
100
AcDbEntity
  8
AM_7
100
AcDbLine
 10
-54.94613635959677
 20
0.0
 30
0.0
 11
3.542171672624476
 21
0.0
 31
0.0
  0
LINE
  5
E324
330
1F
100
AcDbEntity
  8
AM_3
100
AcDbLine
 10
-1.900000000000005
 20
40.4466346111719
 30
0.0
 11
-1.899999999999977
 21
35.80213881848459
 31
0.0
  0
LINE
  5
E325
330
1F
100
AcDbEntity
  8
AM_3
100
AcDbLine
 10
-14.99999999999994
 20
25.84663461117211
 30
0.0
 11
-14.99999999999991
 21
24.51012172991164
 31
0.0
  0
LINE
  5
E326
330
1F
100
AcDbEntity
  8
AM_0
100
AcDbLine
 10
-47.69999999999993
 20
12.69999999999993
 30
0.0
 11
-47.70000000000004
 21
4.75
 31
0.0
  0
LINE
  5
E328
330
1F
100
AcDbEntity
  8
AM_0
100
AcDbLine
 10
-29.99999999999996
 20
12.9
 30
0.0
 11
-29.99999999999998
 21
0.0
 31
0.0
  0
LINE
  5
E329
330
1F
100
AcDbEntity
  8
AM_0
100
AcDbLine
 10
-50.0
 20
27.69999999999993
 30
0.0
 11
-49.99999999999993
 21
6.049999999999999
 31
0.0
  0
LINE
  5
E32A
330
1F
100
AcDbEntity
  8
AM_0
100
AcDbLine
 10
-47.69999999999998
 20
-12.69999999999996
 30
0.0
 11
-30.0
 21
-12.69999999999999
 31
0.0
  0
LINE
  5
E32B
330
1F
100
AcDbEntity
  8
AM_0
100
AcDbLine
 10
-44.00000000000011
 20
-3.75
 30
0.0
 11
-44.00000000000005
 21
0.0
 31
0.0
  0
LINE
  5
E32C
330
1F
100
AcDbEntity
  8
AM_0
100
AcDbLine
 10
-47.69999999999993
 20
-12.6999999999999
 30
0.0
 11
-47.70000000000003
 21
-4.75
 31
0.0
  0
LINE
  5
E32E
330
1F
100
AcDbEntity
  8
AM_0
100
AcDbLine
 10
-48.69999999999999
 20
-4.75
 30
0.0
 11
-45.00000000000011
 21
-4.75
 31
0.0
  0
LINE
  5
E332
330
1F
100
AcDbEntity
  8
AM_0
100
AcDbLine
 10
-48.69999999999993
 20
4.75
 30
0.0
 11
-45.00000000000011
 21
4.75
 31
0.0
  0
LINE
  5
E334
330
1F
100
AcDbEntity
  8
AM_0
100
AcDbLine
 10
-44.00000000000011
 20
3.750000000000015
 30
0.0
 11
-44.00000000000005
 21
0.0
 31
0.0
  0
LINE
  5
E335
330
1F
100
AcDbEntity
  8
AM_0
100
AcDbLine
 10
-25.0
 20
-11.9
 30
0.0
 11
-24.99999999999997
 21
0.0
 31
0.0
  0
LINE
  5
E336
330
1F
100
AcDbEntity
  8
AM_0
100
AcDbLine
 10
-18.99999999999997
 20
-10.00000000000002
 30
0.0
 11
-18.99999999999997
 21
-0.0000000000000284
 31
0.0
  0
LINE
  5
E337
330
1F
100
AcDbEntity
  8
AM_0
100
AcDbLine
 10
-19.49999999999997
 20
-6.5
 30
0.0
 11
-19.49999999999997
 21
-0.0000000000000284
 31
0.0
  0
LINE
  5
E338
330
1F
100
AcDbEntity
  8
AM_0
100
AcDbLine
 10
-15.99999999999997
 20
-10.00000000000008
 30
0.0
 11
-15.99999999999997
 21
0.0
 31
0.0
  0
LINE
  5
E339
330
1F
100
AcDbEntity
  8
AM_0
100
AcDbLine
 10
-18.99999999999997
 20
-10.00000000000002
 30
0.0
 11
-15.99999999999997
 21
-10.00000000000005
 31
0.0
  0
LINE
  5
E33A
330
1F
100
AcDbEntity
  8
AM_0
100
AcDbLine
 10
-29.99999999999997
 20
-12.9
 30
0.0
 11
-29.99999999999996
 21
0.0
 31
0.0
  0
LINE
  5
E33B
330
1F
100
AcDbEntity
  8
AM_0
100
AcDbLine
 10
-29.49999999999997
 20
-13.4
 30
0.0
 11
-26.5
 21
-13.4
 31
0.0
  0
LINE
  5
E33E
330
1F
100
AcDbEntity
  8
AM_0
100
AcDbLine
 10
-19.49999999999997
 20
-6.5
 30
0.0
 11
-18.99999999999997
 21
-7.0
 31
0.0
  0
LINE
  5
E33F
330
1F
100
AcDbEntity
  8
AM_0
100
AcDbLine
 10
-25.0
 20
-6.5
 30
0.0
 11
-19.49999999999997
 21
-6.5
 31
0.0
  0
LINE
  5
E340
330
1F
100
AcDbEntity
  8
AM_0
100
AcDbLine
 10
-15.99999999999997
 20
-10.00000000000005
 30
0.0
 11
-14.99999999999997
 21
-11.00000000000005
 31
0.0
  0
LINE
  5
E341
330
1F
100
AcDbEntity
  8
AM_0
100
AcDbLine
 10
-18.99999999999997
 20
10.00000000000002
 30
0.0
 11
-15.99999999999997
 21
10.00000000000005
 31
0.0
  0
LINE
  5
E342
330
1F
100
AcDbEntity
  8
AM_0
100
AcDbLine
 10
-19.49999999999997
 20
6.5
 30
0.0
 11
-19.49999999999997
 21
0.0000000000000284
 31
0.0
  0
LINE
  5
E343
330
1F
100
AcDbEntity
  8
AM_0
100
AcDbLine
 10
-18.99999999999997
 20
10.00000000000002
 30
0.0
 11
-18.99999999999997
 21
0.0000000000000284
 31
0.0
  0
LINE
  5
E344
330
1F
100
AcDbEntity
  8
AM_0
100
AcDbLine
 10
-25.0
 20
11.90000000000001
 30
0.0
 11
-24.99999999999997
 21
0.0
 31
0.0
  0
LINE
  5
E345
330
1F
100
AcDbEntity
  8
AM_0
100
AcDbLine
 10
-19.49999999999997
 20
6.5
 30
0.0
 11
-18.99999999999997
 21
7.0
 31
0.0
  0
LINE
  5
E346
330
1F
100
AcDbEntity
  8
AM_0
100
AcDbLine
 10
-25.0
 20
6.5
 30
0.0
 11
-19.49999999999997
 21
6.5
 31
0.0
  0
LINE
  5
E347
330
1F
100
AcDbEntity
  8
AM_0
100
AcDbLine
 10
-15.99999999999997
 20
10.00000000000008
 30
0.0
 11
-15.99999999999997
 21
0.0
 31
0.0
  0
LINE
  5
E348
330
1F
100
AcDbEntity
  8
AM_0
100
AcDbLine
 10
-15.99999999999997
 20
10.00000000000005
 30
0.0
 11
-14.99999999999997
 21
11.00000000000005
 31
0.0
  0
LINE
  5
E349
330
1F
100
AcDbEntity
  8
AM_0
100
AcDbLine
 10
-47.69999999999996
 20
12.69999999999996
 30
0.0
 11
-30.0
 21
12.69999999999999
 31
0.0
  0
LINE
  5
E34B
330
1F
100
AcDbEntity
  8
AM_0
100
AcDbLine
 10
-47.7
 20
29.99999999999994
 30
0.0
 11
-45.67819926235467
 21
29.99999999999994
 31
0.0
  0
LINE
  5
E34E
330
1F
100
AcDbEntity
  8
AM_3
100
AcDbLine
 10
-1.900000000000034
 20
38.94663461117207
 30
0.0
 11
-14.99999999999994
 21
25.84663461117211
 31
0.0
  0
LINE
  5
E34F
330
1F
100
AcDbEntity
  8
AM_0
100
AcDbLine
 10
-29.49999999999997
 20
13.4
 30
0.0
 11
-26.5
 21
13.4
 31
0.0
  0
LINE
  5
E352
330
1F
100
AcDbEntity
  8
AM_0
100
AcDbLine
 10
-19.79999999999998
 20
52.19999999999998
 30
0.0
 11
-13.4500000000001
 21
52.19999999999998
 31
0.0
  0
LINE
  5
E353
330
1F
100
AcDbEntity
  8
AM_3
100
AcDbLine
 10
-22.79999999999998
 20
49.19999999999999
 30
0.0
 11
-22.79999999999998
 21
44.54999999999998
 31
0.0
  0
LINE
  5
E354
330
1F
100
AcDbEntity
  8
AM_3
100
AcDbLine
 10
-27.79999999999998
 20
50.84478317724787
 30
0.0
 11
-27.79999999999998
 21
44.62549411640782
 31
0.0
  0
ARC
  5
E355
330
1F
100
AcDbEntity
  8
AM_0
100
AcDbCircle
 10
-27.39999999999997
 20
44.55
 30
0.0
 40
0.4
100
AcDbArc
 50
180.0
 51
270.0
  0
LINE
  5
E357
330
1F
100
AcDbEntity
  8
AM_3
100
AcDbLine
 10
-27.33356190569677
 20
44.15
 30
0.0
 11
-23.19999999999998
 21
44.14999999999998
 31
0.0
  0
LINE
  5
E359
330
1F
100
AcDbEntity
  8
AM_0
100
AcDbLine
 10
-36.0
 20
52.19999999999998
 30
0.0
 11
-28.79999999999998
 21
52.19999999999999
 31
0.0
  0
LINE
  5
E35A
330
1F
100
AcDbEntity
  8
AM_3
100
AcDbLine
 10
-21.0550955499819
 20
50.94490445001807
 30
0.0
 11
-22.79999999999998
 21
49.19999999999999
 31
0.0
  0
DIMENSION
  5
F222
330
1F
100
AcDbEntity
  8
AM_5
100
AcDbDimension
  2
*D6
 10
-98.94613735959678
 20
-52.19999999999997
 30
0.0
 11
-102.0461373595967
 21
0.0000000000000064
 31
0.0
 70
    32
  1
%%c<>
  3
AM_JIS
100
AcDbAlignedDimension
 13
-36.0
 23
52.19999999999998
 33
0.0
 14
-36.0
 24
-52.19999999999998
 34
0.0
 50
90.0
100
AcDbRotatedDimension
1001
GENIUS_GENDTOL_13
1000

1000
h7
1000

1040
0.0
  0
DIMENSION
  5
F223
330
1F
100
AcDbEntity
  8
AM_5
100
AcDbDimension
  2
*D5
 10
-78.94613735959677
 20
-12.69999999999995
 30
0.0
 11
-82.04613735959677
 21
-0.0000000000000321
 31
0.0
 70
    32
  1
%%c<>
  3
AM_JIS
100
AcDbAlignedDimension
 13
-47.69999999999993
 23
12.6999999999999
 33
0.0
 14
-47.69999999999998
 24
-12.69999999999996
 34
0.0
 50
90.0
100
AcDbRotatedDimension
1001
GENIUS_GENDTOL_13
1000

1000
h7
1000

1040
0.0
  0
DIMENSION
  5
F224
330
1F
100
AcDbEntity
  8
AM_5
100
AcDbDimension
  2
*D7
 10
-68.94613735959683
 20
-4.749999999999994
 30
0.0
 11
-68.94613735959683
 21
-0.0000000000000055
 31
0.0
 70
   160
  3
AM_JIS
100
AcDbAlignedDimension
 13
-48.69999999999999
 23
4.75
 33
0.0
 14
-48.69999999999999
 24
-4.75
 34
0.0
 50
90.0
100
AcDbRotatedDimension
  0
DIMENSION
  5
F2AE
330
1F
100
AcDbEntity
  8
AM_5
100
AcDbDimension
  2
*D8
 10
-88.94613735959678
 20
-29.99999999999992
 30
0.0
 11
-92.04613735959677
 21
-0.0000000000000013
 31
0.0
 70
    32
  1
%%c<>
  3
AM_JIS
100
AcDbAlignedDimension
 13
-47.69999999999998
 23
29.99999999999994
 33
0.0
 14
-47.69999999999998
 24
-29.99999999999994
 34
0.0
 50
90.0
100
AcDbRotatedDimension
1001
GENIUS_GENDTOL_13
1000

1000
h7
1000

1040
0.0
  0
DIMENSION
  5
F2E8
330
1F
100
AcDbEntity
  8
AM_5
100
AcDbDimension
  2
*D10
 10
-0.0000000000000034
 20
-96.20000100000002
 30
0.0
 11
-25.0
 21
-93.10000100000001
 31
0.0
 70
    32
  3
AM_JIS
100
AcDbAlignedDimension
 13
-50.0
 23
-27.69999999999993
 33
0.0
 14
0.0
 24
-40.0
 34
0.0
100
AcDbRotatedDimension
  0
DIMENSION
  5
F2E9
330
1F
100
AcDbEntity
  8
AM_5
100
AcDbDimension
  2
*D12
 10
-25.0
 20
-76.20000100000002
 30
0.0
 11
-37.5
 21
-73.10000100000002
 31
0.0
 70
    32
  1
<>
  3
AM_JIS$0
100
AcDbAlignedDimension
 13
-50.0
 23
-27.69999999999993
 33
0.0
 14
-25.0
 24
-11.9
 34
0.0
100
AcDbRotatedDimension
1001
ACAD
1000
DSTYLE
1002
{
1070
    40
1040
1.0
1070
    43
1040
12.0
1070
   140
1040
3.2
1070
   147
1040
1.5
1070
   178
1070
     2
1002
}
1001
GENIUS_GENDTOL_13
1000

1000
h7
1000

1040
0.0
  0
DIMENSION
  5
F2EA
330
1F
100
AcDbEntity
  8
AM_5
100
AcDbDimension
  2
*D11
 10
-18.99999999999997
 20
-86.20000100000002
 30
0.0
 11
-34.49999999999999
 21
-83.10000100000001
 31
0.0
 70
    32
  3
AM_JIS
100
AcDbAlignedDimension
 13
-50.0
 23
-27.69999999999993
 33
0.0
 14
-18.99999999999997
 24
-10.00000000000002
 34
0.0
100
AcDbRotatedDimension
  0
DIMENSION
  5
F2EB
330
1F
100
AcDbEntity
  8
AM_5
100
AcDbDimension
  2
*D9
 10
-44.00000000000011
 20
-66.20000100000002
 30
0.0
 11
-47.00000000000005
 21
-63.10000100000001
 31
0.0
 70
    32
  3
AM_JIS
100
AcDbAlignedDimension
 13
-50.0
 23
-27.69999999999993
 33
0.0
 14
-44.00000000000011
 24
-3.750000000000028
 34
0.0
100
AcDbRotatedDimension
  0
DIMENSION
  5
F367
330
1F
100
AcDbEntity
  8
AM_5
100
AcDbDimension
  2
*D14
 10
37.54217267262447
 20
-40.0
 30
0.0
 11
34.44217267262448
 21
-0.0000000000000019
 31
0.0
 70
    32
  1
%%c<>
  3
AM_JIS$0
100
AcDbAlignedDimension
 13
0.0
 23
40.0
 33
0.0
 14
0.0
 24
-40.0
 34
0.0
 50
90.0
100
AcDbRotatedDimension
1001
ACAD
1000
DSTYLE
1002
{
1070
    40
1040
1.0
1070
    43
1040
12.0
1070
   140
1040
3.2
1070
   147
1040
1.5
1070
   178
1070
     2
1002
}
1001
GENIUS_GENDTOL_13
1000

1000
h7
1000

1040
0.0
  0
DIMENSION
  5
F368
330
1F
100
AcDbEntity
  8
AM_5
100
AcDbDimension
  2
*D13
 10
17.54217267262447
 20
-6.50000000000001
 30
0.0
 11
14.44217267262447
 21
-0.0000000000000078
 31
0.0
 70
    32
  1
%%c<>
  3
AM_JIS$0
100
AcDbAlignedDimension
 13
-19.49999999999997
 23
6.5
 33
0.0
 14
-19.49999999999997
 24
-6.5
 34
0.0
 50
90.0
100
AcDbRotatedDimension
1001
ACAD
1000
DSTYLE
1002
{
1070
    40
1040
1.0
1070
    43
1040
12.0
1070
   140
1040
3.2
1070
   147
1040
1.5
1070
   178
1070
     2
1002
}
1001
GENIUS_GENDTOL_13
1000

1000
h7
1000

1040
0.0
  0
DIMENSION
  5
F3B7
330
1F
100
AcDbEntity
  8
AM_5
100
AcDbDimension
  2
*D15
 10
27.54217267262447
 20
-10.00000000000009
 30
0.0
 11
24.44217267262447
 21
-0.0000000000000226
 31
0.0
 70
    32
  1
%%c<>
  3
AM_JIS$0
100
AcDbAlignedDimension
 13
-15.99999999999997
 23
10.00000000000005
 33
0.0
 14
-15.99999999999997
 24
-10.00000000000008
 34
0.0
 50
90.0
100
AcDbRotatedDimension
1001
ACAD
1000
DSTYLE
1002
{
1070
    40
1040
1.0
1070
    43
1040
12.0
1070
   140
1040
3.2
1070
   147
1040
1.5
1070
   178
1070
     2
1002
}
1001
GENIUS_GENDTOL_13
1000

1000
h7
1000

1040
0.0
  0
LINE
  5
F497
330
1F
100
AcDbEntity
  8
AM_11
100
AcDbLine
 10
0.0
 20
40.0
 30
0.0
 11
0.0
 21
-40.0
 31
0.0
  0
LINE
  5
F555
330
1F
100
AcDbEntity
  8
0
100
AcDbLine
 10
-27.99093100000004
 20
50.84194899999999
 30
0.0
 11
-11.94840799999997
 21
51.08008400000006
 31
0.0
  0
LINE
  5
F556
330
1F
100
AcDbEntity
  8
0
100
AcDbLine
 10
-27.99813700000004
 20
44.82747800000004
 30
0.0
 11
-27.99093100000004
 21
50.84194899999999
 31
0.0
  0
LINE
  5
F557
330
1F
100
AcDbEntity
  8
0
100
AcDbLine
 10
-27.99813700000004
 20
44.82747800000004
 30
0.0
 11
-28.00038200000006
 21
46.46126600000002
 31
0.0
  0
LINE
  5
F558
330
1F
100
AcDbEntity
  8
0
100
AcDbLine
 10
-28.00038200000006
 20
46.46126600000002
 30
0.0
 11
-27.99434299999996
 21
50.48759200000006
 31
0.0
  0
LINE
  5
F559
330
1F
100
AcDbEntity
  8
0
100
AcDbLine
 10
-27.99434299999996
 20
50.48759200000006
 30
0.0
 11
-27.99093100000004
 21
50.84194899999999
 31
0.0
  0
LINE
  5
F55A
330
1F
100
AcDbEntity
  8
0
100
AcDbLine
 10
-24.66869599999995
 20
41.43339500000002
 30
0.0
 11
-27.99813700000004
 21
44.82747800000004
 31
0.0
  0
LINE
  5
F55B
330
1F
100
AcDbEntity
  8
0
100
AcDbLine
 10
-26.98104899999998
 20
35.55052499999999
 30
0.0
 11
-19.48553300000003
 21
44.07337200000006
 31
0.0
  0
LINE
  5
F55C
330
1F
100
AcDbEntity
  8
0
100
AcDbLine
 10
-26.43698500000005
 20
36.16915800000004
 30
0.0
 11
-28.00659299999995
 21
37.76924099999996
 31
0.0
  0
LINE
  5
F55D
330
1F
100
AcDbEntity
  8
0
100
AcDbLine
 10
-24.66869599999995
 20
41.43339500000002
 30
0.0
 11
-28.00638800000001
 21
37.94034599999998
 31
0.0
  0
LINE
  5
F55E
330
1F
100
AcDbEntity
  8
0
100
AcDbLine
 10
-28.00174600000002
 20
42.82751000000007
 30
0.0
 11
-28.00965499999995
 21
39.99803399999996
 31
0.0
  0
LINE
  5
F55F
330
1F
100
AcDbEntity
  8
0
100
AcDbLine
 10
-28.00659299999995
 20
37.76924099999996
 30
0.0
 11
-28.00638800000001
 21
37.94034599999998
 31
0.0
  0
LINE
  5
F560
330
1F
100
AcDbEntity
  8
0
100
AcDbLine
 10
-28.00174600000002
 20
42.82751000000007
 30
0.0
 11
-28.00638800000001
 21
37.94034599999998
 31
0.0
  0
LINE
  5
F561
330
1F
100
AcDbEntity
  8
0
100
AcDbLine
 10
-28.00965499999995
 20
39.99803399999996
 30
0.0
 11
-28.00659299999995
 21
37.76924099999996
 31
0.0
  0
LINE
  5
F562
330
1F
100
AcDbEntity
  8
0
100
AcDbLine
 10
-27.03190900000004
 20
43.84248999999999
 30
0.0
 11
-28.00174600000002
 21
42.82751000000007
 31
0.0
  0
ELLIPSE
  5
F563
330
1F
100
AcDbEntity
  8
0
100
AcDbEllipse
 10
-11.10612600000001
 20
56.77990900000009
 30
0.0
 11
4.912310639624999
 21
15.39751041805899
 31
0.0
210
0.0
220
0.0
230
1.0
 40
0.6041594790782402
 41
2.705903463571339
 42
2.832525728958549
  0
ELLIPSE
  5
F564
330
1F
100
AcDbEntity
  8
0
100
AcDbEllipse
 10
-11.10612600000001
 20
56.77990900000009
 30
0.0
 11
4.912310639624999
 21
15.39751041805899
 31
0.0
210
0.0
220
0.0
230
1.0
 40
0.6041594790782402
 41
2.832525728958549
 42
2.92662030172964
  0
ELLIPSE
  5
F565
330
1F
100
AcDbEntity
  8
0
100
AcDbEllipse
 10
-9.160731999999939
 20
54.79674499999998
 30
0.0
 11
10.708083557212
 21
10.50413949506399
 31
0.0
210
0.0
220
0.0
230
1.0
 40
0.22430953333333
 41
3.2682182039545
 42
4.045883524539719
  0
LINE
  5
F566
330
1F
100
AcDbEntity
  8
0
100
AcDbLine
 10
-3.692534000000023
 20
35.97952899999995
 30
0.0
 11
-13.92900900000006
 21
46.41474600000004
 31
0.0
  0
LINE
  5
F567
330
1F
100
AcDbEntity
  8
0
100
AcDbLine
 10
-25.40213099999994
 20
33.16440899999998
 30
0.0
 11
-17.73799199999996
 21
41.87899200000003
 31
0.0
  0
LINE
  5
F568
330
1F
100
AcDbEntity
  8
0
100
AcDbLine
 10
-9.806345999999962
 20
34.12952500000006
 30
0.0
 11
-17.88978899999995
 21
42.36990900000001
 31
0.0
  0
LINE
  5
F569
330
1F
100
AcDbEntity
  8
0
100
AcDbLine
 10
-10.06063500000004
 20
34.05257900000004
 30
0.0
 11
-17.73799199999996
 21
41.87899200000003
 31
0.0
  0
LINE
  5
F56A
330
1F
100
AcDbEntity
  8
0
100
AcDbLine
 10
-17.88978899999995
 20
42.36990900000001
 30
0.0
 11
-17.73799199999996
 21
41.87899200000003
 31
0.0
  0
LINE
  5
F56B
330
1F
100
AcDbEntity
  8
0
100
AcDbLine
 10
-13.92900900000006
 20
46.41474600000004
 30
0.0
 11
-13.84837300000003
 21
46.43914600000004
 31
0.0
  0
LINE
  5
F56C
330
1F
100
AcDbEntity
  8
0
100
AcDbLine
 10
-17.72477500000002
 20
25.33799599999997
 30
0.0
 11
-25.40213099999994
 21
33.16440899999998
 31
0.0
  0
LINE
  5
F56D
330
1F
100
AcDbEntity
  8
0
100
AcDbLine
 10
-26.98104899999998
 20
35.55052499999999
 30
0.0
 11
-25.40213099999994
 21
33.16440899999998
 31
0.0
  0
LINE
  5
F56E
330
1F
100
AcDbEntity
  8
0
100
AcDbLine
 10
-17.72477500000002
 20
25.33799599999997
 30
0.0
 11
-10.06063500000004
 21
34.05257900000004
 31
0.0
  0
LINE
  5
F56F
330
1F
100
AcDbEntity
  8
0
100
AcDbLine
 10
-14.50287100000002
 20
24.60602200000005
 30
0.0
 11
-17.72477500000002
 21
25.33799599999997
 31
0.0
  0
LINE
  5
F570
330
1F
100
AcDbEntity
  8
0
100
AcDbLine
 10
-11.94840799999997
 20
51.08008400000006
 30
0.0
 11
-11.18388300000003
 21
50.90639400000009
 31
0.0
  0
LINE
  5
F571
330
1F
100
AcDbEntity
  8
0
100
AcDbLine
 10
-11.94840799999997
 20
51.08008400000006
 30
0.0
 11
-8.29311999999993
 21
47.35382800000002
 31
0.0
  0
LINE
  5
F572
330
1F
100
AcDbEntity
  8
0
100
AcDbLine
 10
-11.18388300000003
 20
50.90639400000009
 30
0.0
 11
-7.475882000000069
 21
47.12640199999998
 31
0.0
  0
LINE
  5
F573
330
1F
100
AcDbEntity
  8
0
100
AcDbLine
 10
-6.997641000000044
 20
47.13350100000002
 30
0.0
 11
-8.407659999999964
 21
47.112571
 31
0.0
  0
LINE
  5
F574
330
1F
100
AcDbEntity
  8
0
100
AcDbLine
 10
-8.608614999999986
 20
47.02364799999998
 30
0.0
 11
-8.29311999999993
 21
47.35382800000002
 31
0.0
  0
LINE
  5
F575
330
1F
100
AcDbEntity
  8
0
100
AcDbLine
 10
-8.29311999999993
 20
47.35382800000002
 30
0.0
 11
-7.873627000000055
 21
47.12049799999999
 31
0.0
  0
LINE
  5
F576
330
1F
100
AcDbEntity
  8
0
100
AcDbLine
 10
-6.997641000000044
 20
47.13350100000002
 30
0.0
 11
-6.551819000000023
 21
46.94926499999996
 31
0.0
  0
LINE
  5
F577
330
1F
100
AcDbEntity
  8
0
100
AcDbLine
 10
-11.54873699999996
 20
44.09486300000003
 30
0.0
 11
-8.853938999999968
 21
46.91509300000006
 31
0.0
  0
LINE
  5
F578
330
1F
100
AcDbEntity
  8
0
100
AcDbLine
 10
-13.84837300000003
 20
46.43914600000004
 30
0.0
 11
-11.11864600000001
 21
43.65642200000002
 31
0.0
  0
LINE
  5
F579
330
1F
100
AcDbEntity
  8
0
100
AcDbLine
 10
-8.853938999999968
 20
46.91509300000006
 30
0.0
 11
-8.407659999999964
 21
47.112571
 31
0.0
  0
LINE
  5
F57A
330
1F
100
AcDbEntity
  8
0
100
AcDbLine
 10
-6.551819000000023
 20
46.94926499999996
 30
0.0
 11
-0.1842080000000123
 21
40.45802700000002
 31
0.0
  0
LINE
  5
F57B
330
1F
100
AcDbEntity
  8
0
100
AcDbLine
 10
-3.47968000000003
 20
36.04393700000002
 30
0.0
 11
-10.98642800000004
 21
43.69642999999996
 31
0.0
  0
LINE
  5
F57C
330
1F
100
AcDbEntity
  8
0
100
AcDbLine
 10
-11.11864600000001
 20
43.65642200000002
 30
0.0
 11
-10.98642800000004
 21
43.69642999999996
 31
0.0
  0
LINE
  5
F57D
330
1F
100
AcDbEntity
  8
0
100
AcDbLine
 10
-3.692534000000023
 20
35.97952899999995
 30
0.0
 11
-3.47968000000003
 21
36.04393700000002
 31
0.0
  0
ELLIPSE
  5
F57E
330
1F
100
AcDbEntity
  8
0
100
AcDbEllipse
 10
1.075742999999988
 20
44.36152800000002
 30
0.0
 11
10.708083557212
 21
10.50413949506399
 31
0.0
210
0.0
220
0.0
230
1.0
 40
0.22430953333333
 41
3.14159419794193
 42
4.045883524539719
  0
LINE
  5
F57F
330
1F
100
AcDbEntity
  8
0
100
AcDbLine
 10
-0.1870569999999816
 20
38.07994200000007
 30
0.0
 11
-6.755437000000029
 21
31.20582899999999
 31
0.0
  0
LINE
  5
F580
330
1F
100
AcDbEntity
  8
0
100
AcDbLine
 10
-12.54648999999995
 20
24.66009499999995
 30
0.0
 11
-1.25532499999997
 21
36.47682099999997
 31
0.0
  0
LINE
  5
F581
330
1F
100
AcDbEntity
  8
0
100
AcDbLine
 10
-3.47968000000003
 20
36.04393700000002
 30
0.0
 11
-7.58441700000003
 21
31.74814000000003
 31
0.0
  0
LINE
  5
F582
330
1F
100
AcDbEntity
  8
0
100
AcDbLine
 10
-0.1842080000000123
 20
40.45802700000002
 30
0.0
 11
0.0
 21
40.0
 31
0.0
  0
LINE
  5
F583
330
1F
100
AcDbEntity
  8
0
100
AcDbLine
 10
-0.0017450000000281
 20
38.54345399999999
 30
0.0
 11
-0.1870569999999816
 21
38.07994200000007
 31
0.0
  0
LINE
  5
F584
330
1F
100
AcDbEntity
  8
0
100
AcDbLine
 10
-0.0017450000000281
 20
38.54345399999999
 30
0.0
 11
0.0
 21
40.0
 31
0.0
  0
LINE
  5
F585
330
1F
100
AcDbEntity
  8
0
100
AcDbLine
 10
-7.038280999999983
 20
31.20163000000002
 30
0.0
 11
-13.88991999999996
 21
24.03107299999999
 31
0.0
  0
LINE
  5
F586
330
1F
100
AcDbEntity
  8
0
100
AcDbLine
 10
-7.661642000000028
 20
31.76568399999996
 30
0.0
 11
-14.50287100000002
 21
24.60602200000005
 31
0.0
  0
LINE
  5
F587
330
1F
100
AcDbEntity
  8
0
100
AcDbLine
 10
-8.217332999999939
 20
31.18412799999998
 30
0.0
 11
-6.755437000000029
 21
31.20582899999999
 31
0.0
  0
LINE
  5
F588
330
1F
100
AcDbEntity
  8
0
100
AcDbLine
 10
-7.389357000000018
 20
31.19641899999999
 30
0.0
 11
-8.312812000000008
 21
30.91698600000006
 31
0.0
  0
LINE
  5
F589
330
1F
100
AcDbEntity
  8
0
100
AcDbLine
 10
-7.661642000000028
 20
31.76568399999996
 30
0.0
 11
-7.58441700000003
 21
31.74814000000003
 31
0.0
  0
ELLIPSE
  5
F58A
330
1F
100
AcDbEntity
  8
0
100
AcDbEllipse
 10
1.075742999999988
 20
44.36152800000002
 30
0.0
 11
10.708083557212
 21
10.50413949506399
 31
0.0
210
0.0
220
0.0
230
1.0
 40
0.22430953333333
 41
3.047498109911159
 42
3.14159419794193
  0
LINE
  5
F58B
330
1F
100
AcDbEntity
  8
0
100
AcDbLine
 10
-9.806345999999962
 20
34.12952500000006
 30
0.0
 11
-10.06063500000004
 21
34.05257900000004
 31
0.0
  0
LINE
  5
F58C
330
1F
100
AcDbEntity
  8
0
100
AcDbLine
 10
-8.312812000000008
 20
30.91698600000006
 30
0.0
 11
-14.71365100000002
 21
24.21821299999999
 31
0.0
  0
LINE
  5
F58D
330
1F
100
AcDbEntity
  8
0
100
AcDbLine
 10
-13.88991999999996
 20
24.03107299999999
 30
0.0
 11
-14.71365100000002
 21
24.21821299999999
 31
0.0
  0
LINE
  5
F58E
330
1F
100
AcDbEntity
  8
0
100
AcDbLine
 10
-13.88991999999996
 20
24.03107299999999
 30
0.0
 11
-12.54648999999995
 21
24.66009499999995
 31
0.0
  0
LINE
  5
F58F
330
1F
100
AcDbEntity
  8
0
100
AcDbLine
 10
-14.71365100000002
 20
24.21821299999999
 30
0.0
 11
-15.26361200000008
 21
24.77885200000002
 31
0.0
  0
LINE
  5
F590
330
1F
100
AcDbEntity
  8
0
100
AcDbLine
 10
-8.312812000000008
 20
30.91698600000006
 30
0.0
 11
-8.393752000000063
 21
30.99949800000001
 31
0.0
  0
LINE
  5
F5A0
330
1F
100
AcDbEntity
  8
0
100
AcDbLine
 10
-26.98104899999998
 20
-35.55052499999999
 30
0.0
 11
-19.48553300000003
 21
-44.07337200000006
 31
0.0
  0
LINE
  5
F5A1
330
1F
100
AcDbEntity
  8
0
100
AcDbLine
 10
-26.43698500000005
 20
-36.16915800000004
 30
0.0
 11
-28.00659299999995
 21
-37.76924099999996
 31
0.0
  0
LINE
  5
F5A2
330
1F
100
AcDbEntity
  8
0
100
AcDbLine
 10
-27.03190900000004
 20
-43.84248999999999
 30
0.0
 11
-28.00174600000002
 21
-42.82751000000007
 31
0.0
  0
LINE
  5
F5A3
330
1F
100
AcDbEntity
  8
0
100
AcDbLine
 10
-28.00965499999995
 20
-39.99803399999996
 30
0.0
 11
-28.00659299999995
 21
-37.76924099999996
 31
0.0
  0
LINE
  5
F5A4
330
1F
100
AcDbEntity
  8
0
100
AcDbLine
 10
-28.00174600000002
 20
-42.82751000000007
 30
0.0
 11
-28.00638800000001
 21
-37.94034599999998
 31
0.0
  0
LINE
  5
F5A5
330
1F
100
AcDbEntity
  8
0
100
AcDbLine
 10
-28.00659299999995
 20
-37.76924099999996
 30
0.0
 11
-28.00638800000001
 21
-37.94034599999998
 31
0.0
  0
LINE
  5
F5A6
330
1F
100
AcDbEntity
  8
0
100
AcDbLine
 10
-28.00174600000002
 20
-42.82751000000007
 30
0.0
 11
-28.00965499999995
 21
-39.99803399999996
 31
0.0
  0
LINE
  5
F5A7
330
1F
100
AcDbEntity
  8
0
100
AcDbLine
 10
-24.66869599999995
 20
-41.43339500000002
 30
0.0
 11
-28.00638800000001
 21
-37.94034599999998
 31
0.0
  0
LINE
  5
F5A8
330
1F
100
AcDbEntity
  8
0
100
AcDbLine
 10
-24.66869599999995
 20
-41.43339500000002
 30
0.0
 11
-27.99813700000004
 21
-44.82747800000004
 31
0.0
  0
LINE
  5
F5A9
330
1F
100
AcDbEntity
  8
0
100
AcDbLine
 10
-27.99813700000004
 20
-44.82747800000004
 30
0.0
 11
-28.00038200000006
 21
-46.46126600000002
 31
0.0
  0
LINE
  5
F5AA
330
1F
100
AcDbEntity
  8
0
100
AcDbLine
 10
-27.99813700000004
 20
-44.82747800000004
 30
0.0
 11
-27.99093100000004
 21
-50.84194899999999
 31
0.0
  0
LINE
  5
F5AB
330
1F
100
AcDbEntity
  8
0
100
AcDbLine
 10
-27.99093100000004
 20
-50.84194899999999
 30
0.0
 11
-11.94840799999997
 21
-51.08008400000006
 31
0.0
  0
LINE
  5
F5AC
330
1F
100
AcDbEntity
  8
0
100
AcDbLine
 10
-27.99434299999996
 20
-50.48759200000006
 30
0.0
 11
-27.99093100000004
 21
-50.84194899999999
 31
0.0
  0
LINE
  5
F5AD
330
1F
100
AcDbEntity
  8
0
100
AcDbLine
 10
-28.00038200000006
 20
-46.46126600000002
 30
0.0
 11
-27.99434299999996
 21
-50.48759200000006
 31
0.0
  0
LINE
  5
F5AE
330
1F
100
AcDbEntity
  8
0
100
AcDbLine
 10
-11.18388300000003
 20
-50.90639400000009
 30
0.0
 11
-7.475882000000069
 21
-47.12640199999998
 31
0.0
  0
LINE
  5
F5AF
330
1F
100
AcDbEntity
  8
0
100
AcDbLine
 10
-11.94840799999997
 20
-51.08008400000006
 30
0.0
 11
-8.29311999999993
 21
-47.35382800000002
 31
0.0
  0
LINE
  5
F5B0
330
1F
100
AcDbEntity
  8
0
100
AcDbLine
 10
-11.94840799999997
 20
-51.08008400000006
 30
0.0
 11
-11.18388300000003
 21
-50.90639400000009
 31
0.0
  0
LINE
  5
F5B1
330
1F
100
AcDbEntity
  8
0
100
AcDbLine
 10
-6.997641000000044
 20
-47.13350100000002
 30
0.0
 11
-6.551819000000023
 21
-46.94926499999996
 31
0.0
  0
LINE
  5
F5B2
330
1F
100
AcDbEntity
  8
0
100
AcDbLine
 10
-8.29311999999993
 20
-47.35382800000002
 30
0.0
 11
-7.873627000000055
 21
-47.12049799999999
 31
0.0
  0
LINE
  5
F5B3
330
1F
100
AcDbEntity
  8
0
100
AcDbLine
 10
-6.997641000000044
 20
-47.13350100000002
 30
0.0
 11
-8.407659999999964
 21
-47.112571
 31
0.0
  0
LINE
  5
F5B4
330
1F
100
AcDbEntity
  8
0
100
AcDbLine
 10
-8.853938999999968
 20
-46.91509300000006
 30
0.0
 11
-8.407659999999964
 21
-47.112571
 31
0.0
  0
LINE
  5
F5B5
330
1F
100
AcDbEntity
  8
0
100
AcDbLine
 10
-8.608614999999986
 20
-47.02364799999998
 30
0.0
 11
-8.29311999999993
 21
-47.35382800000002
 31
0.0
  0
LINE
  5
F5B6
330
1F
100
AcDbEntity
  8
0
100
AcDbLine
 10
-11.54873699999996
 20
-44.09486300000003
 30
0.0
 11
-8.853938999999968
 21
-46.91509300000006
 31
0.0
  0
LINE
  5
F5B7
330
1F
100
AcDbEntity
  8
0
100
AcDbLine
 10
-6.551819000000023
 20
-46.94926499999996
 30
0.0
 11
-0.1842080000000123
 21
-40.45802700000002
 31
0.0
  0
LINE
  5
F5B8
330
1F
100
AcDbEntity
  8
0
100
AcDbLine
 10
-0.0017450000000281
 20
-38.54345399999999
 30
0.0
 11
0.0
 21
-40.0
 31
0.0
  0
LINE
  5
F5B9
330
1F
100
AcDbEntity
  8
0
100
AcDbLine
 10
-0.0017450000000281
 20
-38.54345399999999
 30
0.0
 11
-0.1870569999999816
 21
-38.07994200000007
 31
0.0
  0
LINE
  5
F5BA
330
1F
100
AcDbEntity
  8
0
100
AcDbLine
 10
-0.1842080000000123
 20
-40.45802700000002
 30
0.0
 11
0.0
 21
-40.0
 31
0.0
  0
LINE
  5
F5BB
330
1F
100
AcDbEntity
  8
0
100
AcDbLine
 10
-0.1870569999999816
 20
-38.07994200000007
 30
0.0
 11
-6.755437000000029
 21
-31.20582899999999
 31
0.0
  0
LINE
  5
F5BC
330
1F
100
AcDbEntity
  8
0
100
AcDbLine
 10
-17.72477500000002
 20
-25.33799599999997
 30
0.0
 11
-25.40213099999994
 21
-33.16440899999998
 31
0.0
  0
LINE
  5
F5BD
330
1F
100
AcDbEntity
  8
0
100
AcDbLine
 10
-25.40213099999994
 20
-33.16440899999998
 30
0.0
 11
-17.73799199999996
 21
-41.87899200000003
 31
0.0
  0
LINE
  5
F5BE
330
1F
100
AcDbEntity
  8
0
100
AcDbLine
 10
-26.98104899999998
 20
-35.55052499999999
 30
0.0
 11
-25.40213099999994
 21
-33.16440899999998
 31
0.0
  0
ELLIPSE
  5
F5BF
330
1F
100
AcDbEntity
  8
0
100
AcDbEllipse
 10
-9.160731999999939
 20
-54.79674499999998
 30
0.0
 11
10.708083557212
 21
-10.50413949506399
 31
0.0
210
0.0
220
0.0
230
-1.0
 40
0.22430953333333
 41
3.2682182039545
 42
4.045883524539719
  0
ELLIPSE
  5
F5C0
330
1F
100
AcDbEntity
  8
0
100
AcDbEllipse
 10
-11.10612600000001
 20
-56.77990900000009
 30
0.0
 11
4.912310639624999
 21
-15.39751041805899
 31
0.0
210
0.0
220
0.0
230
-1.0
 40
0.6041594790782402
 41
2.832525728958549
 42
2.92662030172964
  0
ELLIPSE
  5
F5C1
330
1F
100
AcDbEntity
  8
0
100
AcDbEllipse
 10
-11.10612600000001
 20
-56.77990900000009
 30
0.0
 11
4.912310639624999
 21
-15.39751041805899
 31
0.0
210
0.0
220
0.0
230
-1.0
 40
0.6041594790782402
 41
2.705903463571339
 42
2.832525728958549
  0
LINE
  5
F5C2
330
1F
100
AcDbEntity
  8
0
100
AcDbLine
 10
-10.06063500000004
 20
-34.05257900000004
 30
0.0
 11
-17.73799199999996
 21
-41.87899200000003
 31
0.0
  0
LINE
  5
F5C3
330
1F
100
AcDbEntity
  8
0
100
AcDbLine
 10
-9.806345999999962
 20
-34.12952500000006
 30
0.0
 11
-17.88978899999995
 21
-42.36990900000001
 31
0.0
  0
LINE
  5
F5C4
330
1F
100
AcDbEntity
  8
0
100
AcDbLine
 10
-17.88978899999995
 20
-42.36990900000001
 30
0.0
 11
-17.73799199999996
 21
-41.87899200000003
 31
0.0
  0
LINE
  5
F5C5
330
1F
100
AcDbEntity
  8
0
100
AcDbLine
 10
-13.84837300000003
 20
-46.43914600000004
 30
0.0
 11
-11.11864600000001
 21
-43.65642200000002
 31
0.0
  0
LINE
  5
F5C6
330
1F
100
AcDbEntity
  8
0
100
AcDbLine
 10
-3.692534000000023
 20
-35.97952899999995
 30
0.0
 11
-13.92900900000006
 21
-46.41474600000004
 31
0.0
  0
LINE
  5
F5C7
330
1F
100
AcDbEntity
  8
0
100
AcDbLine
 10
-3.47968000000003
 20
-36.04393700000002
 30
0.0
 11
-10.98642800000004
 21
-43.69642999999996
 31
0.0
  0
LINE
  5
F5C8
330
1F
100
AcDbEntity
  8
0
100
AcDbLine
 10
-11.11864600000001
 20
-43.65642200000002
 30
0.0
 11
-10.98642800000004
 21
-43.69642999999996
 31
0.0
  0
ELLIPSE
  5
F5C9
330
1F
100
AcDbEntity
  8
0
100
AcDbEllipse
 10
1.075742999999988
 20
-44.36152800000002
 30
0.0
 11
10.708083557212
 21
-10.50413949506399
 31
0.0
210
0.0
220
0.0
230
-1.0
 40
0.22430953333333
 41
3.14159419794193
 42
4.045883524539719
  0
LINE
  5
F5CA
330
1F
100
AcDbEntity
  8
0
100
AcDbLine
 10
-3.47968000000003
 20
-36.04393700000002
 30
0.0
 11
-7.58441700000003
 21
-31.74814000000003
 31
0.0
  0
LINE
  5
F5CB
330
1F
100
AcDbEntity
  8
0
100
AcDbLine
 10
-3.692534000000023
 20
-35.97952899999995
 30
0.0
 11
-3.47968000000003
 21
-36.04393700000002
 31
0.0
  0
ELLIPSE
  5
F5CC
330
1F
100
AcDbEntity
  8
0
100
AcDbEllipse
 10
1.075742999999988
 20
-44.36152800000002
 30
0.0
 11
10.708083557212
 21
-10.50413949506399
 31
0.0
210
0.0
220
0.0
230
-1.0
 40
0.22430953333333
 41
3.047498109911159
 42
3.14159419794193
  0
LINE
  5
F5CD
330
1F
100
AcDbEntity
  8
0
100
AcDbLine
 10
-17.72477500000002
 20
-25.33799599999997
 30
0.0
 11
-10.06063500000004
 21
-34.05257900000004
 31
0.0
  0
LINE
  5
F5CE
330
1F
100
AcDbEntity
  8
0
100
AcDbLine
 10
-9.806345999999962
 20
-34.12952500000006
 30
0.0
 11
-10.06063500000004
 21
-34.05257900000004
 31
0.0
  0
LINE
  5
F5CF
330
1F
100
AcDbEntity
  8
0
100
AcDbLine
 10
-7.661642000000028
 20
-31.76568399999996
 30
0.0
 11
-14.50287100000002
 21
-24.60602200000005
 31
0.0
  0
LINE
  5
F5D0
330
1F
100
AcDbEntity
  8
0
100
AcDbLine
 10
-7.038280999999983
 20
-31.20163000000002
 30
0.0
 11
-13.88991999999996
 21
-24.03107299999999
 31
0.0
  0
LINE
  5
F5D1
330
1F
100
AcDbEntity
  8
0
100
AcDbLine
 10
-12.54648999999995
 20
-24.66009499999995
 30
0.0
 11
-1.25532499999997
 21
-36.47682099999997
 31
0.0
  0
LINE
  5
F5D2
330
1F
100
AcDbEntity
  8
0
100
AcDbLine
 10
-7.661642000000028
 20
-31.76568399999996
 30
0.0
 11
-7.58441700000003
 21
-31.74814000000003
 31
0.0
  0
LINE
  5
F5D3
330
1F
100
AcDbEntity
  8
0
100
AcDbLine
 10
-7.389357000000018
 20
-31.19641899999999
 30
0.0
 11
-8.312812000000008
 21
-30.91698600000006
 31
0.0
  0
LINE
  5
F5D4
330
1F
100
AcDbEntity
  8
0
100
AcDbLine
 10
-8.217332999999939
 20
-31.18412799999998
 30
0.0
 11
-6.755437000000029
 21
-31.20582899999999
 31
0.0
  0
LINE
  5
F5D5
330
1F
100
AcDbEntity
  8
0
100
AcDbLine
 10
-8.312812000000008
 20
-30.91698600000006
 30
0.0
 11
-14.71365100000002
 21
-24.21821299999999
 31
0.0
  0
LINE
  5
F5D6
330
1F
100
AcDbEntity
  8
0
100
AcDbLine
 10
-13.88991999999996
 20
-24.03107299999999
 30
0.0
 11
-14.71365100000002
 21
-24.21821299999999
 31
0.0
  0
LINE
  5
F5D7
330
1F
100
AcDbEntity
  8
0
100
AcDbLine
 10
-14.71365100000002
 20
-24.21821299999999
 30
0.0
 11
-15.26361200000008
 21
-24.77885200000002
 31
0.0
  0
LINE
  5
F5D8
330
1F
100
AcDbEntity
  8
0
100
AcDbLine
 10
-14.50287100000002
 20
-24.60602200000005
 30
0.0
 11
-17.72477500000002
 21
-25.33799599999997
 31
0.0
  0
LINE
  5
F5D9
330
1F
100
AcDbEntity
  8
0
100
AcDbLine
 10
-13.88991999999996
 20
-24.03107299999999
 30
0.0
 11
-12.54648999999995
 21
-24.66009499999995
 31
0.0
  0
LINE
  5
F5E0
330
1F
100
AcDbEntity
  8
0
100
AcDbLine
 10
-0.6775119999999788
 20
37.56665799999996
 30
0.0
 11
-1.25532499999997
 21
36.47682099999997
 31
0.0
  0
LINE
  5
F5E1
330
1F
100
AcDbEntity
  8
0
100
AcDbLine
 10
-0.6775119999999788
 20
-37.56665799999996
 30
0.0
 11
-1.25532499999997
 21
-36.47682099999997
 31
0.0
  0
LINE
  5
F641
330
1F
100
AcDbEntity
  8
AM_0
100
AcDbLine
 10
-27.79999999999998
 20
51.2
 30
0.0
 11
-27.79999999999998
 21
50.84478317724787
 31
0.0
  0
LINE
  5
F642
330
1F
100
AcDbEntity
  8
AM_0
100
AcDbLine
 10
-21.0550955499819
 20
50.94490445001807
 30
0.0
 11
-19.79999999999998
 21
52.19999999999998
 31
0.0
  0
LINE
  5
F643
330
1F
100
AcDbEntity
  8
AM_0
100
AcDbLine
 10
-27.79999999999998
 20
44.62549411640782
 30
0.0
 11
-27.79999999999998
 21
44.55
 31
0.0
  0
LINE
  5
F644
330
1F
100
AcDbEntity
  8
AM_0
100
AcDbLine
 10
-27.39999999999997
 20
44.15
 30
0.0
 11
-27.33356190569677
 21
44.15
 31
0.0
  0
LINE
  5
F645
330
1F
100
AcDbEntity
  8
AM_0
100
AcDbLine
 10
-13.4500000000001
 20
52.19999999999998
 30
0.0
 11
-12.34369549577476
 21
51.07421635762197
 31
0.0
  0
LINE
  5
F646
330
1F
100
AcDbEntity
  8
AM_0
100
AcDbLine
 10
-1.899999999999977
 20
35.80213881848459
 30
0.0
 11
-1.900000000000005
 21
0.0
 31
0.0
  0
LINE
  5
F647
330
1F
100
AcDbEntity
  8
AM_0
100
AcDbLine
 10
-14.98863150000005
 20
24.49853250000001
 30
0.0
 11
-14.99999999999997
 21
0.0
 31
0.0
  0
LINE
  5
F648
330
1F
100
AcDbEntity
  8
AM_3
100
AcDbLine
 10
-14.99999999999994
 20
-24.51012172991166
 30
0.0
 11
-14.99999999999994
 21
-25.84663461117211
 31
0.0
  0
LINE
  5
F64A
330
1F
100
AcDbEntity
  8
AM_3
100
AcDbLine
 10
-1.900000000000005
 20
-35.80213881848456
 30
0.0
 11
-1.900000000000005
 21
-40.44663461117179
 31
0.0
  0
LINE
  5
F64B
330
1F
100
AcDbEntity
  8
AM_0
100
AcDbLine
 10
-21.05509554998187
 20
-50.94490445001809
 30
0.0
 11
-19.79999999999995
 21
-52.19999999999998
 31
0.0
  0
LINE
  5
F64C
330
1F
100
AcDbEntity
  8
AM_0
100
AcDbLine
 10
-13.4500000000001
 20
-52.19999999999998
 30
0.0
 11
-12.34369549577476
 21
-51.07421635762197
 31
0.0
  0
LINE
  5
F64D
330
1F
100
AcDbEntity
  8
AM_0
100
AcDbLine
 10
-27.79999999999998
 20
-51.19999999999999
 30
0.0
 11
-27.79999999999998
 21
-50.84478317724786
 31
0.0
  0
DIMENSION
  5
F6C7
330
1F
100
AcDbEntity
  8
AM_5
100
AcDbDimension
  2
*D16
 10
-0.1842080000000123
 20
-40.45802700000002
 30
0.0
 11
-8.254960411707058
 21
-60.47362248208325
 31
0.0
 70
    34
  1
45%%d
  3
AM_JIS$2
100
AcDb2LineAngularDimension
 13
0.0
 23
40.0
 33
0.0
 14
0.0
 24
-40.0
 34
0.0
 15
-6.551819000000023
 25
-46.94926499999996
 35
0.0
 16
-12.32378731355101
 26
-61.935163998988
 36
0.0
1001
ACAD
1000
DSTYLE
1002
{
1070
   179
1070
     3
1002
}
1001
GENIUS_GENDTOL_13
1000

1000
h7
1000

1040
0.0
  0
LINE
  5
F841
330
1F
100
AcDbEntity
  8
AM_0
100
AcDbLine
 10
-27.79999999999998
 20
51.2
 30
0.0
 11
-28.79999999999998
 21
52.19999999999999
 31
0.0
1001
GENIUS_GENFIL_13
1070
     0
1040
1.0
1040
1.0
1040
20.0
1040
0.0
1002
{
1002
}
1001
GENIUS_GENODEF_13
1002
{
1000
HIER
1070
     0
1002
}
1002
{
1000
MANEDIT
1070
     0
1002
}
1002
{
1000
NOSEL
1070
     0
1002
}
1002
{
1000
BEHIND
1070
     0
1002
}
1002
{
1000
REACTOR
1002
}
1001
GENIUS_GENOBJ-N-CHA_13
1002
{
1000
OWNER
1000
GEN
1002
}
  0
LINE
  5
F842
330
1F
100
AcDbEntity
  8
AM_0
100
AcDbLine
 10
-40.96014915213106
 20
47.23985084786889
 30
0.0
 11
-35.99999999999997
 21
52.19999999999998
 31
0.0
  0
ARC
  5
F845
330
1F
100
AcDbEntity
  8
AM_0
100
AcDbCircle
 10
-45.67819926235467
 20
31.99999999999994
 30
0.0
 40
2.0
100
AcDbArc
 50
270.0
 51
349.9999999999998
1001
GENIUS_GENODEF_13
1002
{
1000
HIER
1070
     0
1002
}
1002
{
1000
MANEDIT
1070
     0
1002
}
1002
{
1000
NOSEL
1070
     0
1002
}
1002
{
1000
BEHIND
1070
     0
1002
}
1002
{
1000
REACTOR
1002
}
1001
GENIUS_GENOBJ-N-FIL_13
1002
{
1000
OWNER
1000
GEN
1002
}
  0
LINE
  5
F848
330
1F
100
AcDbEntity
  8
AM_0
100
AcDbLine
 10
-47.7
 20
29.99999999999994
 30
0.0
 11
-50.0
 21
27.69999999999994
 31
0.0
1001
GENIUS_GENFIL_13
1070
     0
1040
2.299999999999999
1040
2.299999999999999
1040
20.0
1040
0.0
1002
{
1002
}
1001
GENIUS_GENODEF_13
1002
{
1000
HIER
1070
     0
1002
}
1002
{
1000
MANEDIT
1070
     0
1002
}
1002
{
1000
NOSEL
1070
     0
1002
}
1002
{
1000
BEHIND
1070
     0
1002
}
1002
{
1000
REACTOR
1002
}
1001
GENIUS_GENOBJ-N-CHA_13
1002
{
1000
OWNER
1000
GEN
1002
}
  0
LINE
  5
F84A
330
1F
100
AcDbEntity
  8
AM_0
100
AcDbLine
 10
-47.69999999999996
 20
12.69999999999996
 30
0.0
 11
-49.99999999999996
 21
14.99999999999996
 31
0.0
1001
GENIUS_GENFIL_13
1070
     0
1040
2.299999999999999
1040
2.299999999999999
1040
20.0
1040
0.0
1002
{
1002
}
1001
GENIUS_GENODEF_13
1002
{
1000
HIER
1070
     0
1002
}
1002
{
1000
MANEDIT
1070
     0
1002
}
1002
{
1000
NOSEL
1070
     0
1002
}
1002
{
1000
BEHIND
1070
     0
1002
}
1002
{
1000
REACTOR
1002
}
1001
GENIUS_GENOBJ-N-CHA_13
1002
{
1000
OWNER
1000
GEN
1002
}
  0
LINE
  5
F84D
330
1F
100
AcDbEntity
  8
AM_0
100
AcDbLine
 10
-48.69999999999993
 20
4.75
 30
0.0
 11
-49.99999999999993
 21
6.049999999999999
 31
0.0
1001
GENIUS_GENFIL_13
1070
     0
1040
1.3
1040
1.3
1040
20.0
1040
0.0
1002
{
1002
}
1001
GENIUS_GENODEF_13
1002
{
1000
HIER
1070
     0
1002
}
1002
{
1000
MANEDIT
1070
     0
1002
}
1002
{
1000
NOSEL
1070
     0
1002
}
1002
{
1000
BEHIND
1070
     0
1002
}
1002
{
1000
REACTOR
1002
}
1001
GENIUS_GENOBJ-N-CHA_13
1002
{
1000
OWNER
1000
GEN
1002
}
  0
ARC
  5
F850
330
1F
100
AcDbEntity
  8
AM_0
100
AcDbCircle
 10
-26.5
 20
11.9
 30
0.0
 40
1.5
100
AcDbArc
 50
0.0000000000001018
 51
90.0
1001
GENIUS_GENODEF_13
1002
{
1000
HIER
1070
     0
1002
}
1002
{
1000
MANEDIT
1070
     0
1002
}
1002
{
1000
NOSEL
1070
     0
1002
}
1002
{
1000
BEHIND
1070
     0
1002
}
1002
{
1000
REACTOR
1002
}
1001
GENIUS_GENOBJ-N-FIL_13
1002
{
1000
OWNER
1000
GEN
1002
}
  0
ARC
  5
F853
330
1F
100
AcDbEntity
  8
AM_0
100
AcDbCircle
 10
-29.49999999999997
 20
12.9
 30
0.0
 40
0.5
100
AcDbArc
 50
90.0
 51
180.0
1001
GENIUS_GENODEF_13
1002
{
1000
HIER
1070
     0
1002
}
1002
{
1000
MANEDIT
1070
     0
1002
}
1002
{
1000
NOSEL
1070
     0
1002
}
1002
{
1000
BEHIND
1070
     0
1002
}
1002
{
1000
REACTOR
1002
}
1001
GENIUS_GENOBJ-N-FIL_13
1002
{
1000
OWNER
1000
GEN
1002
}
  0
ARC
  5
F859
330
1F
100
AcDbEntity
  8
AM_0
100
AcDbCircle
 10
-45.00000000000011
 20
3.75
 30
0.0
 40
1.0
100
AcDbArc
 50
0.0000000000008651
 51
90.0
1001
GENIUS_GENODEF_13
1002
{
1000
HIER
1070
     0
1002
}
1002
{
1000
MANEDIT
1070
     0
1002
}
1002
{
1000
NOSEL
1070
     0
1002
}
1002
{
1000
BEHIND
1070
     0
1002
}
1002
{
1000
REACTOR
1002
}
1001
GENIUS_GENOBJ-N-FIL_13
1002
{
1000
OWNER
1000
GEN
1002
}
  0
ARC
  5
F85D
330
1F
100
AcDbEntity
  8
AM_3
100
AcDbCircle
 10
-23.19999999999998
 20
44.54999999999998
 30
0.0
 40
0.4
100
AcDbArc
 50
269.9999999999996
 51
0.0
1001
GENIUS_GENODEF_13
1002
{
1000
HIER
1070
     0
1002
}
1002
{
1000
MANEDIT
1070
     0
1002
}
1002
{
1000
NOSEL
1070
     0
1002
}
1002
{
1000
BEHIND
1070
     0
1002
}
1002
{
1000
REACTOR
1002
}
1001
GENIUS_GENOBJ-N-FIL_13
1002
{
1000
OWNER
1000
GEN
1002
}
  0
ARC
  5
F85E
330
1F
100
AcDbEntity
  8
AM_3
100
AcDbCircle
 10
-23.19999999999998
 20
-44.54999999999998
 30
0.0
 40
0.4
100
AcDbArc
 50
0.0
 51
90.00000000000042
1001
GENIUS_GENODEF_13
1002
{
1000
HIER
1070
     0
1002
}
1002
{
1000
MANEDIT
1070
     0
1002
}
1002
{
1000
NOSEL
1070
     0
1002
}
1002
{
1000
BEHIND
1070
     0
1002
}
1002
{
1000
REACTOR
1002
}
1001
GENIUS_GENOBJ-N-FIL_13
1002
{
1000
OWNER
1000
GEN
1002
}
  0
LINE
  5
F85F
330
1F
100
AcDbEntity
  8
AM_0
100
AcDbLine
 10
-27.79999999999998
 20
-51.2
 30
0.0
 11
-28.79999999999998
 21
-52.19999999999999
 31
0.0
1001
GENIUS_GENFIL_13
1070
     0
1040
1.0
1040
1.0
1040
20.0
1040
0.0
1002
{
1002
}
1001
GENIUS_GENODEF_13
1002
{
1000
HIER
1070
     0
1002
}
1002
{
1000
MANEDIT
1070
     0
1002
}
1002
{
1000
NOSEL
1070
     0
1002
}
1002
{
1000
BEHIND
1070
     0
1002
}
1002
{
1000
REACTOR
1002
}
1001
GENIUS_GENOBJ-N-CHA_13
1002
{
1000
OWNER
1000
GEN
1002
}
  0
ARC
  5
F860
330
1F
100
AcDbEntity
  8
AM_0
100
AcDbCircle
 10
-45.67819926235467
 20
-31.99999999999994
 30
0.0
 40
2.0
100
AcDbArc
 50
10.00000000000015
 51
90.00000000000003
1001
GENIUS_GENODEF_13
1002
{
1000
HIER
1070
     0
1002
}
1002
{
1000
MANEDIT
1070
     0
1002
}
1002
{
1000
NOSEL
1070
     0
1002
}
1002
{
1000
BEHIND
1070
     0
1002
}
1002
{
1000
REACTOR
1002
}
1001
GENIUS_GENOBJ-N-FIL_13
1002
{
1000
OWNER
1000
GEN
1002
}
  0
LINE
  5
F861
330
1F
100
AcDbEntity
  8
AM_0
100
AcDbLine
 10
-47.7
 20
-29.99999999999994
 30
0.0
 11
-50.0
 21
-27.69999999999994
 31
0.0
1001
GENIUS_GENFIL_13
1070
     0
1040
2.299999999999999
1040
2.299999999999999
1040
20.0
1040
0.0
1002
{
1002
}
1001
GENIUS_GENODEF_13
1002
{
1000
HIER
1070
     0
1002
}
1002
{
1000
MANEDIT
1070
     0
1002
}
1002
{
1000
NOSEL
1070
     0
1002
}
1002
{
1000
BEHIND
1070
     0
1002
}
1002
{
1000
REACTOR
1002
}
1001
GENIUS_GENOBJ-N-CHA_13
1002
{
1000
OWNER
1000
GEN
1002
}
  0
LINE
  5
F862
330
1F
100
AcDbEntity
  8
AM_0
100
AcDbLine
 10
-47.69999999999996
 20
-12.69999999999996
 30
0.0
 11
-49.99999999999996
 21
-14.99999999999996
 31
0.0
1001
GENIUS_GENFIL_13
1070
     0
1040
2.299999999999999
1040
2.299999999999999
1040
20.0
1040
0.0
1002
{
1002
}
1001
GENIUS_GENODEF_13
1002
{
1000
HIER
1070
     0
1002
}
1002
{
1000
MANEDIT
1070
     0
1002
}
1002
{
1000
NOSEL
1070
     0
1002
}
1002
{
1000
BEHIND
1070
     0
1002
}
1002
{
1000
REACTOR
1002
}
1001
GENIUS_GENOBJ-N-CHA_13
1002
{
1000
OWNER
1000
GEN
1002
}
  0
LINE
  5
F863
330
1F
100
AcDbEntity
  8
AM_0
100
AcDbLine
 10
-48.69999999999993
 20
-4.75
 30
0.0
 11
-49.99999999999993
 21
-6.049999999999999
 31
0.0
1001
GENIUS_GENFIL_13
1070
     0
1040
1.3
1040
1.3
1040
20.0
1040
0.0
1002
{
1002
}
1001
GENIUS_GENODEF_13
1002
{
1000
HIER
1070
     0
1002
}
1002
{
1000
MANEDIT
1070
     0
1002
}
1002
{
1000
NOSEL
1070
     0
1002
}
1002
{
1000
BEHIND
1070
     0
1002
}
1002
{
1000
REACTOR
1002
}
1001
GENIUS_GENOBJ-N-CHA_13
1002
{
1000
OWNER
1000
GEN
1002
}
  0
ARC
  5
F864
330
1F
100
AcDbEntity
  8
AM_0
100
AcDbCircle
 10
-45.00000000000011
 20
-3.75
 30
0.0
 40
1.0
100
AcDbArc
 50
270.0
 51
359.9999999999991
1001
GENIUS_GENODEF_13
1002
{
1000
HIER
1070
     0
1002
}
1002
{
1000
MANEDIT
1070
     0
1002
}
1002
{
1000
NOSEL
1070
     0
1002
}
1002
{
1000
BEHIND
1070
     0
1002
}
1002
{
1000
REACTOR
1002
}
1001
GENIUS_GENOBJ-N-FIL_13
1002
{
1000
OWNER
1000
GEN
1002
}
  0
ARC
  5
F865
330
1F
100
AcDbEntity
  8
AM_0
100
AcDbCircle
 10
-29.49999999999997
 20
-12.9
 30
0.0
 40
0.5
100
AcDbArc
 50
180.0
 51
270.0
1001
GENIUS_GENODEF_13
1002
{
1000
HIER
1070
     0
1002
}
1002
{
1000
MANEDIT
1070
     0
1002
}
1002
{
1000
NOSEL
1070
     0
1002
}
1002
{
1000
BEHIND
1070
     0
1002
}
1002
{
1000
REACTOR
1002
}
1001
GENIUS_GENOBJ-N-FIL_13
1002
{
1000
OWNER
1000
GEN
1002
}
  0
ARC
  5
F866
330
1F
100
AcDbEntity
  8
AM_0
100
AcDbCircle
 10
-26.5
 20
-11.9
 30
0.0
 40
1.5
100
AcDbArc
 50
270.0
 51
359.9999999999998
1001
GENIUS_GENODEF_13
1002
{
1000
HIER
1070
     0
1002
}
1002
{
1000
MANEDIT
1070
     0
1002
}
1002
{
1000
NOSEL
1070
     0
1002
}
1002
{
1000
BEHIND
1070
     0
1002
}
1002
{
1000
REACTOR
1002
}
1001
GENIUS_GENOBJ-N-FIL_13
1002
{
1000
OWNER
1000
GEN
1002
}
  0
VIEWPORT
  5
110
330
101
100
AcDbEntity
 67
     1
  8
0
100
AcDbViewport
 10
420.5
 20
297.0
 30
0.0
 40
948.9782706766916
 41
628.452
 68
     1
 69
     1
1001
ACAD
1000
MVIEW
1002
{
1070
    16
1010
0.0
1020
0.0
1030
0.0
1010
0.0
1020
0.0
1030
1.0
1040
0.0
1040
628.452
1040
420.5
1040
297.0
1040
50.0
1040
0.0
1040
0.0
1070
     0
1070
   100
1070
     1
1070
     1
1070
     0
1070
     0
1070
     0
1070
     0
1040
0.0
1040
0.0
1040
0.0
1040
10.0
1040
10.0
1040
10.0
1040
10.0
1070
     0
1002
{
1002
}
1002
}
  0
ENDSEC
  0
SECTION
  2
OBJECTS
  0
DICTIONARY
  5
C
330
0
100
AcDbDictionary
  3
ACAD_GROUP
350
D
  3
ACAD_LAYOUT
350
1A
  3
ACAD_MLINESTYLE
350
17
  3
ACAD_PLOTSETTINGS
350
19
  3
ACAD_PLOTSTYLENAME
350
E
  3
ACDBVARIABLEDICTIONARY
350
34
  3
ACMDICTIONARY
350
43
  3
AMG
350
2B
  3
AMGSNAPSETTINGS
350
6E
  3
DWGPROPS
350
F997
  3
ACDBHEADERROUNDTRIPXREC
350
F9A4
  0
DICTIONARY
  5
74
330
1F
100
AcDbDictionary
280
     1
  3
ACAD_INDEX
360
F999
  3
ACAD_LAYOUTSELFREF
360
F9C7
  0
DICTIONARY
  5
F9CC
330
101
100
AcDbDictionary
280
     1
  3
ACAD_LAYOUTSELFREF
360
F9CD
  0
DICTIONARY
  5
D
102
{ACAD_REACTORS
330
C
102
}
330
C
100
AcDbDictionary
  0
DICTIONARY
  5
1A
102
{ACAD_REACTORS
330
C
102
}
330
C
100
AcDbDictionary
  0
DICTIONARY
  5
17
102
{ACAD_REACTORS
330
C
102
}
330
C
100
AcDbDictionary
  3
STANDARD
350
18
  0
DICTIONARY
  5
19
102
{ACAD_REACTORS
330
C
102
}
330
C
100
AcDbDictionary
  0
ACDBDICTIONARYWDFLT
  5
E
102
{ACAD_REACTORS
330
C
102
}
330
C
100
AcDbDictionary
281
     1
  3
Normal
350
F
100
AcDbDictionaryWithDefault
340
F
  0
DICTIONARY
  5
34
102
{ACAD_REACTORS
330
C
102
}
330
C
100
AcDbDictionary
  3
INDEXCTL
350
35
  3
SORTENTS
350
B5E
  0
DICTIONARY
  5
43
102
{ACAD_REACTORS
330
C
102
}
330
C
100
AcDbDictionary
  3
ACMSTDDICTIONARY
350
260
  0
DICTIONARY
  5
2B
102
{ACAD_REACTORS
330
C
102
}
330
C
100
AcDbDictionary
  3
ACMGSETTINGS
350
2C
  0
DICTIONARY
  5
6E
102
{ACAD_REACTORS
330
C
102
}
330
C
100
AcDbDictionary
  0
XRECORD
  5
F997
102
{ACAD_REACTORS
330
C
102
}
330
C
100
AcDbXrecord
  1
DWGPROPS COOKIE
  2

  3

  4

  6

  7

  8

  9

300
AmdtFileType=82
301
=
302
=
303
=
304
=
305
=
306
=
307
=
308
=
309
=
 40
0.3051175462962963
 41
2452836.771637361
 42
2453076.500192766
  1

 90
        1
  0
DICTIONARY
  5
F9A4
102
{ACAD_REACTORS
330
C
102
}
330
C
100
AcDbDictionary
  3
TSTACKALIGN
350
F9A5
  3
TSTACKSIZE
350
F9A6
  3
HYPERLINKBASE
350
F9A7
  3
STYLESHEET
350
F9A8
  3
LAYOUTDICT
350
F9A9
  3
PLOTSETDICT
350
F9AA
  3
PLOTSTYLNAMDICT
350
F9AB
  3
LWETCUNION
350
F9AC
  3
INSUNITS
350
F9AD
  3
CEPSNTYPE
350
F9AE
  3
FINGERPRINTGUID
350
F9AF
  3
VERSIONGUID
350
F9B0
  3
PSVPSCALE
350
F9B1
  3
DIMSTYLEDATA
350
F9B2
  3
PUCSORTHOREF
350
F9B3
  3
PUCSORTHOVIEW
350
F9B4
  3
PUCSBASE
350
F9B5
  3
PUCSORGTOP
350
F9B6
  3
PUCSORGBOTTOM
350
F9B7
  3
PUCSORGLEFT
350
F9B8
  3
PUCSORGRIGHT
350
F9B9
  3
PUCSORGFRONT
350
F9BA
  3
PUCSORGBACK
350
F9BB
  3
UCSORTHOREF
350
F9BC
  3
UCSORTHOVIEW
350
F9BD
  3
UCSBASE
350
F9BE
  3
UCSORGTOP
350
F9BF
  3
UCSORGBOTTOM
350
F9C0
  3
UCSORGLEFT
350
F9C1
  3
UCSORGRIGHT
350
F9C2
  3
UCSORGFRONT
350
F9C3
  3
UCSORGBACK
350
F9C4
  0
DICTIONARY
  5
F999
102
{ACAD_REACTORS
330
74
102
}
330
74
100
AcDbDictionary
  3
*A1
350
F99A
  0
XRECORD
  5
F9C7
102
{ACAD_REACTORS
330
74
102
}
330
74
100
AcDbXrecord
340
1F
  0
XRECORD
  5
F9CD
102
{ACAD_REACTORS
330
F9CC
102
}
330
F9CC
100
AcDbXrecord
340
101
  0
MLINESTYLE
  5
18
102
{ACAD_REACTORS
330
17
102
}
330
17
100
AcDbMlineStyle
  2
STANDARD
 70
     0
  3

 62
   256
 51
90.0
 52
90.0
 71
     2
 49
0.5
 62
   256
  6
BYLAYER
 49
-0.5
 62
   256
  6
BYLAYER
  0
ACDBPLACEHOLDER
  5
F
102
{ACAD_REACTORS
330
E
102
}
330
E
100
AcDbPlaceHolder
280
     0
  0
DICTIONARYVAR
  5
35
102
{ACAD_REACTORS
330
34
102
}
330
34
100
DictionaryVariables
280
     0
  1
1
  0
DICTIONARYVAR
  5
B5E
102
{ACAD_REACTORS
330
34
102
}
330
34
100
DictionaryVariables
280
     0
  1
96
  0
DICTIONARY
  5
260
102
{ACAD_REACTORS
330
43
102
}
330
43
100
AcDbDictionary
  0
DICTIONARY
  5
2C
102
{ACAD_REACTORS
330
2B
102
}
330
2B
100
AcDbDictionary
  3
DWGSETTINGS
350
2D
  0
XRECORD
  5
F9A5
102
{ACAD_REACTORS
330
F9A4
102
}
330
F9A4
100
AcDbXrecord
 90
        1
  0
XRECORD
  5
F9A6
102
{ACAD_REACTORS
330
F9A4
102
}
330
F9A4
100
AcDbXrecord
 90
       70
  0
XRECORD
  5
F9A7
102
{ACAD_REACTORS
330
F9A4
102
}
330
F9A4
100
AcDbXrecord
  1

  0
XRECORD
  5
F9A8
102
{ACAD_REACTORS
330
F9A4
102
}
330
F9A4
100
AcDbXrecord
  1
ASAMI.ctb
  0
XRECORD
  5
F9A9
102
{ACAD_REACTORS
330
F9A4
102
}
330
F9A4
100
AcDbXrecord
340
1A
  0
XRECORD
  5
F9AA
102
{ACAD_REACTORS
330
F9A4
102
}
330
F9A4
100
AcDbXrecord
340
19
  0
XRECORD
  5
F9AB
102
{ACAD_REACTORS
330
F9A4
102
}
330
F9A4
100
AcDbXrecord
340
E
  0
XRECORD
  5
F9AC
102
{ACAD_REACTORS
330
F9A4
102
}
330
F9A4
100
AcDbXrecord
 90
    10781
  0
XRECORD
  5
F9AD
102
{ACAD_REACTORS
330
F9A4
102
}
330
F9A4
100
AcDbXrecord
 90
        4
  0
XRECORD
  5
F9AE
102
{ACAD_REACTORS
330
F9A4
102
}
330
F9A4
100
AcDbXrecord
 90
        0
  0
XRECORD
  5
F9AF
102
{ACAD_REACTORS
330
F9A4
102
}
330
F9A4
100
AcDbXrecord
  1
{AFB28963-8C59-40AE-9337-C84526B81ACE}
  0
XRECORD
  5
F9B0
102
{ACAD_REACTORS
330
F9A4
102
}
330
F9A4
100
AcDbXrecord
  1
{A54CA8F3-0E1B-4C93-8045-8C6AA5A5A291}
  0
XRECORD
  5
F9B1
102
{ACAD_REACTORS
330
F9A4
102
}
330
F9A4
100
AcDbXrecord
 40
0.0
  0
XRECORD
  5
F9B2
102
{ACAD_REACTORS
330
F9A4
102
}
330
F9A4
100
AcDbXrecord
1000
DSTYLE
1002
{
1070
    79
 70
     2
1070
   341
340
59
1070
   342
340
59
1070
   371
 70
    -1
1070
   372
 70
    -1
1002
}
  0
XRECORD
  5
F9B3
102
{ACAD_REACTORS
330
F9A4
102
}
330
F9A4
100
AcDbXrecord
340
0
  0
XRECORD
  5
F9B4
102
{ACAD_REACTORS
330
F9A4
102
}
330
F9A4
100
AcDbXrecord
 70
     0
  0
XRECORD
  5
F9B5
102
{ACAD_REACTORS
330
F9A4
102
}
330
F9A4
100
AcDbXrecord
340
0
  0
XRECORD
  5
F9B6
102
{ACAD_REACTORS
330
F9A4
102
}
330
F9A4
100
AcDbXrecord
 10
0.0
 20
0.0
 30
0.0
  0
XRECORD
  5
F9B7
102
{ACAD_REACTORS
330
F9A4
102
}
330
F9A4
100
AcDbXrecord
 10
0.0
 20
0.0
 30
0.0
  0
XRECORD
  5
F9B8
102
{ACAD_REACTORS
330
F9A4
102
}
330
F9A4
100
AcDbXrecord
 10
0.0
 20
0.0
 30
0.0
  0
XRECORD
  5
F9B9
102
{ACAD_REACTORS
330
F9A4
102
}
330
F9A4
100
AcDbXrecord
 10
0.0
 20
0.0
 30
0.0
  0
XRECORD
  5
F9BA
102
{ACAD_REACTORS
330
F9A4
102
}
330
F9A4
100
AcDbXrecord
 10
0.0
 20
0.0
 30
0.0
  0
XRECORD
  5
F9BB
102
{ACAD_REACTORS
330
F9A4
102
}
330
F9A4
100
AcDbXrecord
 10
0.0
 20
0.0
 30
0.0
  0
XRECORD
  5
F9BC
102
{ACAD_REACTORS
330
F9A4
102
}
330
F9A4
100
AcDbXrecord
340
0
  0
XRECORD
  5
F9BD
102
{ACAD_REACTORS
330
F9A4
102
}
330
F9A4
100
AcDbXrecord
 70
     0
  0
XRECORD
  5
F9BE
102
{ACAD_REACTORS
330
F9A4
102
}
330
F9A4
100
AcDbXrecord
340
0
  0
XRECORD
  5
F9BF
102
{ACAD_REACTORS
330
F9A4
102
}
330
F9A4
100
AcDbXrecord
 10
0.0
 20
0.0
 30
0.0
  0
XRECORD
  5
F9C0
102
{ACAD_REACTORS
330
F9A4
102
}
330
F9A4
100
AcDbXrecord
 10
0.0
 20
0.0
 30
0.0
  0
XRECORD
  5
F9C1
102
{ACAD_REACTORS
330
F9A4
102
}
330
F9A4
100
AcDbXrecord
 10
0.0
 20
0.0
 30
0.0
  0
XRECORD
  5
F9C2
102
{ACAD_REACTORS
330
F9A4
102
}
330
F9A4
100
AcDbXrecord
 10
0.0
 20
0.0
 30
0.0
  0
XRECORD
  5
F9C3
102
{ACAD_REACTORS
330
F9A4
102
}
330
F9A4
100
AcDbXrecord
 10
0.0
 20
0.0
 30
0.0
  0
XRECORD
  5
F9C4
102
{ACAD_REACTORS
330
F9A4
102
}
330
F9A4
100
AcDbXrecord
 10
0.0
 20
0.0
 30
0.0
  0
LAYER_INDEX
  5
F99A
102
{ACAD_REACTORS
330
F999
102
}
330
F999
100
AcDbIndex
 40
2453152.367822418
100
AcDbLayerIndex
  8
0
360
F99B
 90
      120
  8
AM_0
360
F99C
 90
       70
  8
AM_7
360
F99D
 90
        1
  8
AM_5
360
F99E
 90
       12
  8
Defpoints
360
F99F
 90
        0
  8
AM_6
360
F9A0
 90
        1
  8
AM_11
360
F9A1
 90
        1
  8
AM_3
360
F9A2
 90
       18
  0
XRECORD
  5
2D
102
{ACAD_REACTORS
330
2C
102
}
330
2C
100
AcDbXrecord
  1
VERSION
140
15.0
  1
PRODUCT
  2
AutoCAD Mechanical 2000
  0
IDBUFFER
  5
F99B
330
0
100
AcDbIdBuffer
330
F5D4
330
F5D5
330
F5D6
330
F5D7
330
F5D8
330
F5D9
330
F5E0
330
F5E1
330
F555
330
F556
330
F557
330
F558
330
F559
330
F55A
330
F55B
330
F55C
330
F55D
330
F55E
330
F55F
330
F560
330
F561
330
F562
330
F563
330
F564
330
F565
330
F566
330
F567
330
F568
330
F569
330
F56A
330
F56B
330
F56C
330
F56D
330
F56E
330
F56F
330
F570
330
F571
330
F572
330
F573
330
F574
330
F575
330
F576
330
F577
330
F578
330
F579
330
F57A
330
F57B
330
F57C
330
F57D
330
F57E
330
F57F
330
F580
330
F581
330
F582
330
F583
330
F584
330
F585
330
F586
330
F587
330
F588
330
F589
330
F58A
330
F58B
330
F58C
330
F58D
330
F58E
330
F58F
330
F590
330
F5A0
330
F5A1
330
F5A2
330
F5A3
330
F5A4
330
F5A5
330
F5A6
330
F5A7
330
F5A8
330
F5A9
330
F5AA
330
F5AB
330
F5AC
330
F5AD
330
F5AE
330
F5AF
330
F5B0
330
F5B1
330
F5B2
330
F5B3
330
F5B4
330
F5B5
330
F5B6
330
F5B7
330
F5B8
330
F5B9
330
F5BA
330
F5BB
330
F5BC
330
F5BD
330
F5BE
330
F5BF
330
F5C0
330
F5C1
330
F5C2
330
F5C3
330
F5C4
330
F5C5
330
F5C6
330
F5C7
330
F5C8
330
F5C9
330
F5CA
330
F5CB
330
F5CC
330
F5CD
330
F5CE
330
F5CF
330
F5D0
330
F5D1
330
F5D2
330
F5D3
  0
IDBUFFER
  5
F99C
330
0
100
AcDbIdBuffer
330
F646
330
F647
330
F64B
330
F64C
330
F64D
330
F841
330
F842
330
F845
330
F848
330
F84A
330
F84D
330
F850
330
F853
330
F859
330
F85F
330
F860
330
F861
330
F862
330
F863
330
F864
330
F865
330
F866
330
E30E
330
E30F
330
E310
330
E313
330
E315
330
E316
330
E318
330
E31B
330
E31E
330
E322
330
E326
330
E328
330
E329
330
E32A
330
E32B
330
E32C
330
E32E
330
E332
330
E334
330
E335
330
E336
330
E337
330
E338
330
E339
330
E33A
330
E33B
330
E33E
330
E33F
330
E340
330
E341
330
E342
330
E343
330
E344
330
E345
330
E346
330
E347
330
E348
330
E349
330
E34B
330
E34F
330
E352
330
E355
330
E359
330
F641
330
F642
330
F643
330
F644
330
F645
  0
IDBUFFER
  5
F99D
330
0
100
AcDbIdBuffer
330
E323
  0
IDBUFFER
  5
F99E
330
0
100
AcDbIdBuffer
330
F222
330
F223
330
F224
330
F2AE
330
F2E8
330
F2E9
330
F2EA
330
F2EB
330
F367
330
F368
330
F3B7
330
F6C7
  0
IDBUFFER
  5
F99F
330
0
100
AcDbIdBuffer
  0
IDBUFFER
  5
F9A0
330
0
100
AcDbIdBuffer
330
E5A
  0
IDBUFFER
  5
F9A1
330
0
100
AcDbIdBuffer
330
F497
  0
IDBUFFER
  5
F9A2
330
0
100
AcDbIdBuffer
330
F85D
330
F85E
330
E311
330
E312
330
E314
330
E319
330
E31D
330
E320
330
E321
330
E324
330
E325
330
E34E
330
E353
330
E354
330
E357
330
E35A
330
F648
330
F64A
  0
ENDSEC
  0
EOF
