  0
SECTION
  2
HEADER
  9
$ACADVER
  1
AC1014
  9
$ACADMAINTVER
 70
     9
  9
$DWGCODEPAGE
  3
ANSI_932
  9
$INSBASE
 10
0.0
 20
0.0
 30
0.0
  9
$EXTMIN
 10
-112.8942548014435
 20
-118.25000101
 30
-0.00000001
  9
$EXTMAX
 10
21.86062524488149
 20
61.75000000000005
 30
0.00000001
  9
$LIMMIN
 10
-135.0481870424082
 20
-136.8836423814747
  9
$LIMMAX
 10
47.85386366616194
 20
86.51784824381161
  9
$ORTHOMODE
 70
     0
  9
$REGENMODE
 70
     1
  9
$FILLMODE
 70
     1
  9
$QTEXTMODE
 70
     0
  9
$MIRRTEXT
 70
     0
  9
$DRAGMODE
 70
     2
  9
$LTSCALE
 40
1.0
  9
$OSMODE
 70
    55
  9
$ATTMODE
 70
     1
  9
$TEXTSIZE
 40
2.5
  9
$TRACEWID
 40
1.0
  9
$TEXTSTYLE
  7
STANDARD
  9
$CLAYER
  8
AM_0
  9
$CELTYPE
  6
BYLAYER
  9
$CECOLOR
 62
   256
  9
$CELTSCALE
 40
1.0
  9
$DELOBJ
 70
     1
  9
$DISPSILH
 70
     0
  9
$DIMSCALE
 40
1.0
  9
$DIMASZ
 40
2.5
  9
$DIMEXO
 40
1.0
  9
$DIMDLI
 40
12.0
  9
$DIMRND
 40
0.0
  9
$DIMDLE
 40
0.0
  9
$DIMEXE
 40
1.0
  9
$DIMTP
 40
0.1
  9
$DIMTM
 40
0.1
  9
$DIMTXT
 40
3.2
  9
$DIMCEN
 40
0.0
  9
$DIMTSZ
 40
0.0
  9
$DIMTOL
 70
     0
  9
$DIMLIM
 70
     0
  9
$DIMTIH
 70
     0
  9
$DIMTOH
 70
     0
  9
$DIMSE1
 70
     0
  9
$DIMSE2
 70
     0
  9
$DIMTAD
 70
     3
  9
$DIMZIN
 70
     8
  9
$DIMBLK
  1
OPEN30
  9
$DIMASO
 70
     1
  9
$DIMSHO
 70
     1
  9
$DIMPOST
  1

  9
$DIMAPOST
  1
"
  9
$DIMALT
 70
     0
  9
$DIMALTD
 70
     2
  9
$DIMALTF
 40
0.0393701
  9
$DIMLFAC
 40
1.0
  9
$DIMTOFL
 70
     1
  9
$DIMTVP
 40
0.0
  9
$DIMTIX
 70
     0
  9
$DIMSOXD
 70
     0
  9
$DIMSAH
 70
     0
  9
$DIMBLK1
  1

  9
$DIMBLK2
  1

  9
$DIMSTYLE
  2
AM_JIS
  9
$DIMCLRD
 70
   256
  9
$DIMCLRE
 70
   256
  9
$DIMCLRT
 70
     2
  9
$DIMTFAC
 40
0.71
  9
$DIMGAP
 40
1.5
  9
$DIMJUST
 70
     0
  9
$DIMSD1
 70
     0
  9
$DIMSD2
 70
     0
  9
$DIMTOLJ
 70
     0
  9
$DIMTZIN
 70
     0
  9
$DIMALTZ
 70
     0
  9
$DIMALTTZ
 70
     0
  9
$DIMFIT
 70
     3
  9
$DIMUPT
 70
     0
  9
$DIMUNIT
 70
     2
  9
$DIMDEC
 70
     3
  9
$DIMTDEC
 70
     3
  9
$DIMALTU
 70
     2
  9
$DIMALTTD
 70
     2
  9
$DIMTXSTY
  7
ASAMI
  9
$DIMAUNIT
 70
     0
  9
$LUNITS
 70
     2
  9
$LUPREC
 70
     2
  9
$SKETCHINC
 40
1.0
  9
$FILLETRAD
 40
2.0
  9
$AUNITS
 70
     0
  9
$AUPREC
 70
     0
  9
$MENU
  1
.
  9
$ELEVATION
 40
0.0
  9
$PELEVATION
 40
0.0
  9
$THICKNESS
 40
0.0
  9
$LIMCHECK
 70
     0
  9
$BLIPMODE
 70
     0
  9
$CHAMFERA
 40
1.3
  9
$CHAMFERB
 40
1.3
  9
$CHAMFERC
 40
20.0
  9
$CHAMFERD
 40
0.0
  9
$SKPOLY
 70
     0
  9
$TDCREATE
 40
2452836.771637361
  9
$TDUPDATE
 40
2453152.367909409
  9
$TDINDWG
 40
0.3497280093
  9
$TDUSRTIMER
 40
0.3497280093
  9
$USRTIMER
 70
     1
  9
$ANGBASE
 50
0.0
  9
$ANGDIR
 70
     0
  9
$PDMODE
 70
     0
  9
$PDSIZE
 40
0.0
  9
$PLINEWID
 40
0.0
  9
$COORDS
 70
     1
  9
$SPLFRAME
 70
     0
  9
$SPLINETYPE
 70
     6
  9
$SPLINESEGS
 70
     8
  9
$ATTDIA
 70
     1
  9
$ATTREQ
 70
     1
  9
$HANDLING
 70
 12289
  9
$HANDSEED
  5
11082
  9
$SURFTAB1
 70
     6
  9
$SURFTAB2
 70
     6
  9
$SURFTYPE
 70
     6
  9
$SURFU
 70
     6
  9
$SURFV
 70
     6
  9
$UCSNAME
  2

  9
$UCSORG
 10
0.0
 20
0.0
 30
0.0
  9
$UCSXDIR
 10
1.0
 20
0.0
 30
0.0
  9
$UCSYDIR
 10
0.0
 20
1.0
 30
0.0
  9
$PUCSNAME
  2

  9
$PUCSORG
 10
0.0
 20
0.0
 30
0.0
  9
$PUCSXDIR
 10
1.0
 20
0.0
 30
0.0
  9
$PUCSYDIR
 10
0.0
 20
1.0
 30
0.0
  9
$USERI1
 70
     0
  9
$USERI2
 70
     0
  9
$USERI3
 70
     0
  9
$USERI4
 70
     0
  9
$USERI5
 70
     0
  9
$USERR1
 40
0.0
  9
$USERR2
 40
0.0
  9
$USERR3
 40
0.0
  9
$USERR4
 40
0.0
  9
$USERR5
 40
0.0
  9
$WORLDVIEW
 70
     1
  9
$SHADEDGE
 70
     3
  9
$SHADEDIF
 70
    70
  9
$TILEMODE
 70
     1
  9
$MAXACTVP
 70
    64
  9
$PINSBASE
 10
0.0
 20
0.0
 30
0.0
  9
$PLIMCHECK
 70
     0
  9
$PEXTMIN
 10
1.000000000000000E+20
 20
1.000000000000000E+20
 30
1.000000000000000E+20
  9
$PEXTMAX
 10
-1.000000000000000E+20
 20
-1.000000000000000E+20
 30
-1.000000000000000E+20
  9
$PLIMMIN
 10
0.0
 20
0.0
  9
$PLIMMAX
 10
841.0
 20
594.0
  9
$UNITMODE
 70
     0
  9
$VISRETAIN
 70
     1
  9
$PLINEGEN
 70
     0
  9
$PSLTSCALE
 70
     0
  9
$TREEDEPTH
 70
  3020
  9
$PICKSTYLE
 70
     0
  9
$CMLSTYLE
  2
STANDARD
  9
$CMLJUST
 70
     0
  9
$CMLSCALE
 40
20.0
  9
$PROXYGRAPHICS
 70
     1
  9
$MEASUREMENT
 70
     1
  0
ENDSEC
  0
SECTION
  2
CLASSES
  0
CLASS
  1
ACDBDICTIONARYWDFLT
  2
AcDbDictionaryWithDefault
  3
AutoCAD 2000
 90
        0
280
     0
281
     0
  0
CLASS
  1
ACDBPLACEHOLDER
  2
AcDbPlaceHolder
  3
AutoCAD 2000
 90
        0
280
     0
281
     0
  0
CLASS
  1
LAYOUT
  2
AcDbLayout
  3
AutoCAD 2000
 90
        0
280
     0
281
     0
  0
CLASS
  1
AMGSETTINGSOBJ
  2
AmgSettingsObj
  3
"AcadM|Product Description: AutoCAD Mechanical 2000|Company: Autodesk"
 90
        0
280
     0
281
     0
  0
CLASS
  1
ACME_DOCUMENT
  2
AcMeDbDoc
  3
AcMeServices
 90
        0
280
     0
281
     0
  0
CLASS
  1
ACMESCOPE
  2
AcMeScope
  3
AcMeServices
 90
        0
280
     0
281
     0
  0
CLASS
  1
ACMECOMMANDHISTORY
  2
AcMeCommandHistory
  3
AcMeServices
 90
        0
280
     0
281
     0
  0
CLASS
  1
DICTIONARYVAR
  2
AcDbDictionaryVar
  3
AutoCAD 2000
 90
        0
280
     0
281
     0
  0
CLASS
  1
ACIMSYSVARMAN
  2
AcImSysVarManager
  3
AcMeServices
 90
        0
280
     0
281
     0
  0
CLASS
  1
ACIMREALSYSVAR
  2
AcImRealSysVar
  3
AcMeServices
 90
        0
280
     0
281
     0
  0
CLASS
  1
ACIMINTSYSVAR
  2
AcImIntSysVar
  3
AcMeServices
 90
        0
280
     0
281
     0
  0
CLASS
  1
ACMEDRAWINGMAN
  2
AcMeDrawingMan
  3
AcMeServices
 90
        0
280
     0
281
     0
  0
CLASS
  1
ACMEVIEW
  2
AcMeView
  3
AcMeServices
 90
        0
280
     0
281
     0
  0
CLASS
  1
ACDBENTITYCACHE
  2
AcMeEntityCache
  3
AcMeServices
 90
        0
280
     0
281
     0
  0
CLASS
  1
GSMANAGER
  2
AcMeGSManager
  3
AcMeServices
 90
        0
280
     0
281
     0
  0
CLASS
  1
AmdtInternalReactor
  2
AmdtInternalReactor
  3
AcMeServices
 90
        0
280
     0
281
     0
  0
CLASS
  1
ACMESTATEMGR
  2
AcMeStateMgr
  3
AcMeServices
 90
        0
280
     0
281
     0
  0
CLASS
  1
ACME_DATABASE
  2
AcMeDbDatabase
  3
AcMeServices
 90
        0
280
     0
281
     0
  0
CLASS
  1
ACRFINSADJUSTERMGR
  2
AcRfInsAdjusterMgr
  3
AcMeServices
 90
        0
280
     0
281
     0
  0
CLASS
  1
ACMDATADICTIONARY
  2
AcmDataDictionary
  3
"AcmSymBB|Product Description: AutoCAD Mechanical 2000|Company: Autodesk"
 90
        0
280
     0
281
     0
  0
CLASS
  1
ACMDATAENTRYBLOCK
  2
AcmDataEntryBlock
  3
"AcmSymBB|Product Description: AutoCAD Mechanical 2000|Company: Autodesk"
 90
        0
280
     0
281
     0
  0
CLASS
  1
AMGOBJPROPCFG
  2
AmgObjPropCfg
  3
"AmgLay|Product Description: AutoCAD Mechanical 2000|Company: Autodesk"
 90
        1
280
     0
281
     0
  0
CLASS
  1
ACAMGFILTERDAT
  2
AcAmgFilterDat
  3
"AcadM|Product Description: AutoCAD Mechanical 2000|Company: Autodesk"
 90
        0
280
     0
281
     0
  0
CLASS
  1
LAYER_INDEX
  2
AcDbLayerIndex
  3
AutoCAD 2000
 90
        0
280
     0
281
     0
  0
CLASS
  1
IDBUFFER
  2
AcDbIdBuffer
  3
AutoCAD 2000
 90
        0
280
     0
281
     0
  0
CLASS
  1
ACIMSTRSYSVAR
  2
AcImStrSysVar
  3
AcMeServices
 90
        0
280
     0
281
     0
  0
CLASS
  1
ACMSTANDARDJIS
  2
AcmStandardJIS
  3
"AcmSymBB|Product Description: AutoCAD Mechanical 2000|Company: Autodesk"
 90
        0
280
     0
281
     0
  0
CLASS
  1
ACMSURFSTANDARDJIS
  2
AcmSurfTextStdJIS
  3
"AcmSymBB|Product Description: AutoCAD Mechanical 2000|Company: Autodesk"
 90
        0
280
     0
281
     0
  0
CLASS
  1
ACMFCFSTANDARDJIS
  2
AcmFCFStdJIS
  3
"AcmSymBB|Product Description: AutoCAD Mechanical 2000|Company: Autodesk"
 90
        0
280
     0
281
     0
  0
CLASS
  1
ACMWELDSTANDARDJIS
  2
AcmWeldingStdJIS
  3
"AcmSymBB|Product Description: AutoCAD Mechanical 2000|Company: Autodesk"
 90
        0
280
     0
281
     0
  0
CLASS
  1
ACMIDSTANDARDJIS
  2
AcmIdStdJIS
  3
"AcmSymBB|Product Description: AutoCAD Mechanical 2000|Company: Autodesk"
 90
        0
280
     0
281
     0
  0
CLASS
  1
ACMDATUMSTANDARDJIS
  2
AcmDatumStdJIS
  3
"AcmSymBB|Product Description: AutoCAD Mechanical 2000|Company: Autodesk"
 90
        0
280
     0
281
     0
  0
CLASS
  1
ACMBOMSTANDARDJIS
  2
AcmBOMStdJIS
  3
"AcmSymBB|Product Description: AutoCAD Mechanical 2000|Company: Autodesk"
 90
        0
280
     0
281
     0
  0
CLASS
  1
ACMSTANDARDANSI
  2
AcmStandardANSI
  3
"AcmSymBB|Product Description: AutoCAD Mechanical 2000|Company: Autodesk"
 90
        0
280
     0
281
     0
  0
CLASS
  1
ACMSURFSTANDARDANSI
  2
AcmSurfTextStdANSI
  3
"AcmSymBB|Product Description: AutoCAD Mechanical 2000|Company: Autodesk"
 90
        0
280
     0
281
     0
  0
CLASS
  1
ACMFCFSTANDARDANSI
  2
AcmFCFStdANSI
  3
"AcmSymBB|Product Description: AutoCAD Mechanical 2000|Company: Autodesk"
 90
        0
280
     0
281
     0
  0
CLASS
  1
ACMWELDSTANDARDANSI
  2
AcmWeldingStdANSI
  3
"AcmSymBB|Product Description: AutoCAD Mechanical 2000|Company: Autodesk"
 90
        0
280
     0
281
     0
  0
CLASS
  1
ACMIDSTANDARDANSI
  2
AcmIdStdANSI
  3
"AcmSymBB|Product Description: AutoCAD Mechanical 2000|Company: Autodesk"
 90
        0
280
     0
281
     0
  0
CLASS
  1
ACMDATUMSTANDARDANSI
  2
AcmDatumStdANSI
  3
"AcmSymBB|Product Description: AutoCAD Mechanical 2000|Company: Autodesk"
 90
        0
280
     0
281
     0
  0
CLASS
  1
ACMBOMSTANDARDANSI
  2
AcmBOMStdANSI
  3
"AcmSymBB|Product Description: AutoCAD Mechanical 2000|Company: Autodesk"
 90
        0
280
     0
281
     0
  0
CLASS
  1
ACMSTANDARDBSI
  2
AcmStandardBSI
  3
"AcmSymBB|Product Description: AutoCAD Mechanical 2000|Company: Autodesk"
 90
        0
280
     0
281
     0
  0
CLASS
  1
ACMSURFSTANDARDBSI
  2
AcmSurfTextStdBSI
  3
"AcmSymBB|Product Description: AutoCAD Mechanical 2000|Company: Autodesk"
 90
        0
280
     0
281
     0
  0
CLASS
  1
ACMFCFSTANDARDBSI
  2
AcmFCFStdBSI
  3
"AcmSymBB|Product Description: AutoCAD Mechanical 2000|Company: Autodesk"
 90
        0
280
     0
281
     0
  0
CLASS
  1
ACMWELDSTANDARDBSI
  2
AcmWeldingStdBSI
  3
"AcmSymBB|Product Description: AutoCAD Mechanical 2000|Company: Autodesk"
 90
        0
280
     0
281
     0
  0
CLASS
  1
ACMIDSTANDARDBSI
  2
AcmIdStdBSI
  3
"AcmSymBB|Product Description: AutoCAD Mechanical 2000|Company: Autodesk"
 90
        0
280
     0
281
     0
  0
CLASS
  1
ACMDATUMSTANDARDBSI
  2
AcmDatumStdBSI
  3
"AcmSymBB|Product Description: AutoCAD Mechanical 2000|Company: Autodesk"
 90
        0
280
     0
281
     0
  0
CLASS
  1
ACMBOMSTANDARDBSI
  2
AcmBOMStdBSI
  3
"AcmSymBB|Product Description: AutoCAD Mechanical 2000|Company: Autodesk"
 90
        0
280
     0
281
     0
  0
CLASS
  1
LONG_TRANSACTION
  2
AcDbLongTransaction
  3
AutoCAD 2000
 90
        0
280
     0
281
     0
  0
CLASS
  1
LWPOLYLINE
  2
AcDbPolyline
  3
AutoCAD 2000
 90
        0
280
     0
281
     1
  0
CLASS
  1
HATCH
  2
AcDbHatch
  3
AutoCAD 2000
 90
        0
280
     0
281
     1
  0
CLASS
  1
XRECORD
  2
AcDbXrecord
  3
AutoCAD 2000
 90
        0
280
     0
281
     0
  0
ENDSEC
  0
SECTION
  2
TABLES
  0
TABLE
  2
VPORT
  5
8
330
0
100
AcDbSymbolTable
 70
     3
  0
VPORT
  5
11057
330
8
100
AcDbSymbolTableRecord
100
AcDbViewportTableRecord
  2
*ACTIVE
 70
     0
 10
0.0
 20
0.0
 11
1.0
 21
1.0
 12
-44.49479747727036
 22
-27.5305186514596
 13
0.0
 23
0.0
 14
2.5
 24
2.5
 15
10.0
 25
10.0
 16
0.0
 26
0.0
 36
1.0
 17
0.0
 27
0.0
 37
0.0
 40
182.5699602443456
 41
1.56570841889117
 42
50.0
 43
0.0
 44
0.0
 50
0.0
 51
0.0
 71
     0
 72
   100
 73
     1
 74
     3
 75
     0
 76
     0
 77
     0
 78
     0
  0
ENDTAB
  0
TABLE
  2
LTYPE
  5
5
330
0
100
AcDbSymbolTable
 70
    10
  0
LTYPE
  5
14
330
5
100
AcDbSymbolTableRecord
100
AcDbLinetypeTableRecord
  2
BYBLOCK
 70
     0
  3

 72
    65
 73
     0
 40
0.0
  0
LTYPE
  5
15
330
5
100
AcDbSymbolTableRecord
100
AcDbLinetypeTableRecord
  2
BYLAYER
 70
     0
  3

 72
    65
 73
     0
 40
0.0
  0
LTYPE
  5
16
330
5
100
AcDbSymbolTableRecord
100
AcDbLinetypeTableRecord
  2
CONTINUOUS
 70
     0
  3
Solid line
 72
    65
 73
     0
 40
0.0
  0
LTYPE
  5
4B
330
5
100
AcDbSymbolTableRecord
100
AcDbLinetypeTableRecord
  2
AM_ISO02W050
 70
     0
  3
__ __ __ __ __ __ __ __ __ __ __ __ __ __ __
 72
    65
 73
     2
 40
7.5
 49
6.0
 74
     0
 49
-1.5
 74
     0
  0
LTYPE
  5
4C
330
5
100
AcDbSymbolTableRecord
100
AcDbLinetypeTableRecord
  2
AM_ISO08W050
 70
     0
  3
____ . ____ . ____ . ____ . ____ . ____ . ____
 72
    65
 73
     4
 40
18.0
 49
12.0
 74
     0
 49
-1.5
 74
     0
 49
3.0
 74
     0
 49
-1.5
 74
     0
  0
LTYPE
  5
4D
330
5
100
AcDbSymbolTableRecord
100
AcDbLinetypeTableRecord
  2
AM_ISO09W050
 70
     0
  3
_____ . . _____ . . _____ . . ____ .. ____
 72
    65
 73
     6
 40
22.5
 49
12.0
 74
     0
 49
-1.5
 74
     0
 49
3.0
 74
     0
 49
-1.5
 74
     0
 49
3.0
 74
     0
 49
-1.5
 74
     0
  0
LTYPE
  5
4E
330
5
100
AcDbSymbolTableRecord
100
AcDbLinetypeTableRecord
  2
AMCONSTR
 70
     0
  3
_______________________
 72
    65
 73
     2
 40
9999.0
 49
9999.0
 74
     0
 49
0.0
 74
     0
  0
LTYPE
  5
4F
330
5
100
AcDbSymbolTableRecord
100
AcDbLinetypeTableRecord
  2
AM_ISO02W050X2
 70
     0
  3
 _ _ _ _ _ _ _ _ _ _ _ _
 72
    65
 73
     2
 40
3.75
 49
3.0
 74
     0
 49
-0.75
 74
     0
  0
LTYPE
  5
50
330
5
100
AcDbSymbolTableRecord
100
AcDbLinetypeTableRecord
  2
AM_ISO08W050X2
 70
     0
  3
__ . __ . __ . __ . __ . __
 72
    65
 73
     4
 40
9.0
 49
6.0
 74
     0
 49
-0.75
 74
     0
 49
1.5
 74
     0
 49
-0.75
 74
     0
  0
LTYPE
  5
53
330
5
100
AcDbSymbolTableRecord
100
AcDbLinetypeTableRecord
  2
AMZIGZAG
 70
     0
  3
/\/-/\/-/\/-/\/-/\/-/\/
 72
    65
 73
     2
 40
11.00009999999999
 49
0.0001
 74
     4
 75
   135
340
52
 46
0.04
 50
0.0
 44
0.0
 45
0.0
 49
-11.0
 74
     0
  0
LTYPE
  5
166
330
5
100
AcDbSymbolTableRecord
100
AcDbLinetypeTableRecord
  2
ACJISTGL
 70
     0
  3
_ _ _ _ _
 72
    65
 73
     2
 40
3.0
 49
2.0
 74
     0
 49
-1.0
 74
     0
  0
LTYPE
  5
26A
330
5
100
AcDbSymbolTableRecord
100
AcDbLinetypeTableRecord
  2
ACJISTGB
 70
     0
  3
__ . . __ . .
 72
    65
 73
     6
 40
9.0
 49
4.0
 74
     0
 49
-1.0
 74
     0
 49
1.0
 74
     0
 49
-1.0
 74
     0
 49
1.0
 74
     0
 49
-1.0
 74
     0
  0
ENDTAB
  0
TABLE
  2
LAYER
  5
2
330
0
100
AcDbSymbolTable
 70
     8
  0
LAYER
  5
10
330
2
100
AcDbSymbolTableRecord
100
AcDbLayerTableRecord
  2
0
 70
     0
 62
     7
  6
CONTINUOUS
  0
LAYER
  5
3F9
330
2
100
AcDbSymbolTableRecord
100
AcDbLayerTableRecord
  2
AM_0
 70
     0
 62
     7
  6
CONTINUOUS
  0
LAYER
  5
BD5
330
2
100
AcDbSymbolTableRecord
100
AcDbLayerTableRecord
  2
AM_7
 70
     0
 62
     4
  6
AM_ISO08W050
  0
LAYER
  5
BD6
330
2
100
AcDbSymbolTableRecord
100
AcDbLayerTableRecord
  2
AM_5
 70
     0
 62
     3
  6
CONTINUOUS
  0
LAYER
  5
BD7
330
2
100
AcDbSymbolTableRecord
100
AcDbLayerTableRecord
  2
DEFPOINTS
 70
     0
 62
     7
  6
CONTINUOUS
  0
LAYER
  5
E59
330
2
100
AcDbSymbolTableRecord
100
AcDbLayerTableRecord
  2
AM_6
 70
     0
 62
     2
  6
CONTINUOUS
  0
LAYER
  5
1E31
330
2
100
AcDbSymbolTableRecord
100
AcDbLayerTableRecord
  2
AM_11
 70
     0
 62
     3
  6
AM_ISO09W050
  0
LAYER
  5
1E41
330
2
100
AcDbSymbolTableRecord
100
AcDbLayerTableRecord
  2
AM_3
 70
     0
 62
     6
  6
ACJISTGL
  0
ENDTAB
  0
TABLE
  2
STYLE
  5
3
330
0
100
AcDbSymbolTable
 70
     5
  0
STYLE
  5
11
330
3
100
AcDbSymbolTableRecord
100
AcDbTextStyleTableRecord
  2
STANDARD
 70
     0
 40
0.0
 41
1.0
 50
0.0
 71
     0
 42
2.5
  3
simplex.shx
  4
EXTFONT.SHX
  0
STYLE
  5
52
330
3
100
AcDbSymbolTableRecord
100
AcDbTextStyleTableRecord
  2

 70
     1
 40
0.0
 41
1.0
 50
0.0
 71
     0
 42
2.5
  3
ltypeshp.shx
  4

  0
STYLE
  5
6B
330
3
100
AcDbSymbolTableRecord
100
AcDbTextStyleTableRecord
  2
ASAMI
 70
     0
 40
0.0
 41
1.0
 50
0.0
 71
     0
 42
2.5
  3
simplex.shx
  4
EXTFONT.SHX
  0
STYLE
  5
262
330
3
100
AcDbSymbolTableRecord
100
AcDbTextStyleTableRecord
  2
ACJISTS
 70
     0
 40
1.0
 41
1.0
 50
0.0
 71
     0
 42
2.5
  3
simplex.shx
  4
bigfont.shx
  0
STYLE
  5
269
330
3
100
AcDbSymbolTableRecord
100
AcDbTextStyleTableRecord
  2
ACJISGDT
 70
     0
 40
0.0
 41
1.0
 50
0.0
 71
     0
 42
2.5
  3
amgdtans.shx
  4

  0
ENDTAB
  0
TABLE
  2
VIEW
  5
6
330
0
100
AcDbSymbolTable
 70
     0
  0
ENDTAB
  0
TABLE
  2
UCS
  5
7
330
0
100
AcDbSymbolTable
 70
     0
  0
ENDTAB
  0
TABLE
  2
APPID
  5
9
330
0
100
AcDbSymbolTable
 70
    13
  0
APPID
  5
12
330
9
100
AcDbSymbolTableRecord
100
AcDbRegAppTableRecord
  2
ACAD
 70
     0
  0
APPID
  5
30
330
9
100
AcDbSymbolTableRecord
100
AcDbRegAppTableRecord
  2
MCAD_NO_VIS
 70
     0
  0
APPID
  5
31
330
9
100
AcDbSymbolTableRecord
100
AcDbRegAppTableRecord
  2
ACAD_TEMP_GRAPHIC
 70
     0
  0
APPID
  5
2C2
330
9
100
AcDbSymbolTableRecord
100
AcDbRegAppTableRecord
  2
GENIUS_GENDTOL_13
 70
     0
  0
APPID
  5
339
330
9
100
AcDbSymbolTableRecord
100
AcDbRegAppTableRecord
  2
GENIUS_GENODEF_13
 70
     0
  0
APPID
  5
33A
330
9
100
AcDbSymbolTableRecord
100
AcDbRegAppTableRecord
  2
GENIUS_GENOBJ-N-RSBK_13
 70
     0
  0
APPID
  5
33B
330
9
100
AcDbSymbolTableRecord
100
AcDbRegAppTableRecord
  2
GENIUS_GENOBJ-N-LIB_13
 70
     0
  0
APPID
  5
33C
330
9
100
AcDbSymbolTableRecord
100
AcDbRegAppTableRecord
  2
GENIUS_GENSCALE_13
 70
     0
  0
APPID
  5
378
330
9
100
AcDbSymbolTableRecord
100
AcDbRegAppTableRecord
  2
GENIUS_GENDIMSH_14
 70
     0
  0
APPID
  5
BD8
330
9
100
AcDbSymbolTableRecord
100
AcDbRegAppTableRecord
  2
GENIUS_GENOBJ-N-CEN_13
 70
     0
  0
APPID
  5
BD9
330
9
100
AcDbSymbolTableRecord
100
AcDbRegAppTableRecord
  2
GENIUS_GENFIL_13
 70
     0
  0
APPID
  5
BDA
330
9
100
AcDbSymbolTableRecord
100
AcDbRegAppTableRecord
  2
GENIUS_GENOBJ-N-CHA_13
 70
     0
  0
APPID
  5
2BC1
330
9
100
AcDbSymbolTableRecord
100
AcDbRegAppTableRecord
  2
GENIUS_GENOBJ-N-FIL_13
 70
     0
  0
ENDTAB
  0
TABLE
  2
DIMSTYLE
  5
A
330
0
100
AcDbSymbolTable
 70
     9
  0
DIMSTYLE
105
58
102
{ACAD_REACTORS
330
109FC
330
109FD
330
109FE
330
109FB
330
10A6E
330
10A6F
102
}
330
A
100
AcDbSymbolTableRecord
100
AcDbDimStyleTableRecord
  2
AM_JIS
 70
     0
  3

  4
"
  5
OPEN30
  6

  7

 40
1.0
 41
2.5
 42
1.0
 43
12.0
 44
1.0
 45
0.0
 46
0.0
 47
0.1
 48
0.1
140
3.2
141
0.0
142
0.0
143
0.0393701
144
1.0
145
0.0
146
0.71
147
1.5
 71
     0
 72
     0
 73
     0
 74
     0
 75
     0
 76
     0
 77
     3
 78
     8
170
     0
171
     2
172
     1
173
     0
174
     0
175
     0
176
   256
177
   256
178
     2
270
     2
271
     3
272
     3
273
     2
274
     2
340
6B
275
     0
280
     0
281
     0
282
     0
283
     0
284
     0
285
     0
286
     0
287
     3
288
     0
  0
DIMSTYLE
105
5F
330
A
100
AcDbSymbolTableRecord
100
AcDbDimStyleTableRecord
  2
AM_JIS$3
 70
     0
  3

  4
"
  5
OPEN30
  6

  7

 40
1.0
 41
2.5
 42
1.0
 43
10.0
 44
1.0
 45
0.0
 46
0.0
 47
0.1
 48
0.1
140
3.2
141
0.0
142
0.0
143
0.0393701
144
1.0
145
0.0
146
0.71
147
1.5
 71
     0
 72
     0
 73
     0
 74
     1
 75
     0
 76
     0
 77
     3
 78
     8
170
     0
171
     2
172
     0
173
     0
174
     0
175
     0
176
   256
177
   256
178
     2
270
     2
271
     2
272
     3
273
     2
274
     2
340
6B
275
     0
280
     0
281
     0
282
     0
283
     0
284
     0
285
     0
286
     0
287
     0
288
     1
  0
DIMSTYLE
105
60
330
A
100
AcDbSymbolTableRecord
100
AcDbDimStyleTableRecord
  2
AM_JIS$4
 70
     0
  3

  4
"
  5
OPEN30
  6

  7

 40
1.0
 41
2.5
 42
1.0
 43
10.0
 44
1.0
 45
0.0
 46
0.0
 47
0.1
 48
0.1
140
3.2
141
0.0
142
0.0
143
0.0393701
144
1.0
145
0.0
146
0.71
147
1.5
 71
     0
 72
     0
 73
     0
 74
     1
 75
     0
 76
     0
 77
     3
 78
     8
170
     0
171
     2
172
     0
173
     0
174
     0
175
     0
176
   256
177
   256
178
     2
270
     2
271
     2
272
     3
273
     2
274
     2
340
6B
275
     0
280
     0
281
     0
282
     0
283
     0
284
     0
285
     0
286
     0
287
     0
288
     1
  0
DIMSTYLE
105
61
330
A
100
AcDbSymbolTableRecord
100
AcDbDimStyleTableRecord
  2
AM_JIS$6
 70
     0
  3

  4
"
  5
OPEN30
  6

  7

 40
1.0
 41
2.5
 42
1.0
 43
10.0
 44
1.0
 45
0.0
 46
0.0
 47
0.1
 48
0.1
140
3.2
141
0.0
142
0.0
143
0.0393701
144
1.0
145
0.0
146
0.71
147
1.5
 71
     0
 72
     0
 73
     0
 74
     0
 75
     0
 76
     0
 77
     0
 78
     8
170
     0
171
     2
172
     1
173
     0
174
     0
175
     0
176
   256
177
   256
178
     2
270
     2
271
     2
272
     2
273
     2
274
     2
340
6B
275
     0
280
     0
281
     0
282
     0
283
     0
284
     0
285
     0
286
     0
287
     3
288
     0
  0
DIMSTYLE
105
62
330
A
100
AcDbSymbolTableRecord
100
AcDbDimStyleTableRecord
  2
AM_JIS$7
 70
     0
  3

  4
"
  5
OPEN30
  6

  7

 40
1.0
 41
2.5
 42
1.0
 43
10.0
 44
1.0
 45
0.0
 46
0.0
 47
0.1
 48
0.1
140
3.2
141
0.0
142
0.0
143
0.0393701
144
1.0
145
0.0
146
0.71
147
1.5
 71
     0
 72
     0
 73
     0
 74
     0
 75
     0
 76
     0
 77
     3
 78
     8
170
     0
171
     2
172
     1
173
     0
174
     0
175
     0
176
   256
177
   256
178
     2
270
     2
271
     2
272
     3
273
     2
274
     2
340
6B
275
     0
280
     0
281
     0
282
     0
283
     0
284
     0
285
     0
286
     0
287
     3
288
     0
  0
DIMSTYLE
105
63
330
A
100
AcDbSymbolTableRecord
100
AcDbDimStyleTableRecord
  2
AM_JIS$SF
 70
     0
  3

  4
"
  5
OPEN30
  6

  7

 40
1.0
 41
2.5
 42
1.0
 43
10.0
 44
1.0
 45
0.0
 46
0.0
 47
0.1
 48
0.1
140
3.2
141
0.0
142
0.0
143
0.0393701
144
1.0
145
0.0
146
0.71
147
1.5
 71
     0
 72
     0
 73
     0
 74
     0
 75
     1
 76
     1
 77
     3
 78
     8
170
     0
171
     2
172
     1
173
     0
174
     0
175
     0
176
   256
177
   256
178
     2
270
     2
271
     2
272
     2
273
     2
274
     2
340
6B
275
     0
280
     0
281
     0
282
     0
283
     0
284
     0
285
     0
286
     0
287
     3
288
     0
  0
DIMSTYLE
105
68
330
A
100
AcDbSymbolTableRecord
100
AcDbDimStyleTableRecord
  2
AM_JIS$SH
 70
     0
  3

  4
"
  5

  6
GENAXEH
  7
OPEN30
 40
1.0
 41
2.5
 42
1.0
 43
10.0
 44
1.0
 45
0.0
 46
0.0
 47
0.1
 48
0.1
140
3.2
141
0.0
142
0.0
143
0.0393701
144
2.0
145
0.0
146
0.71
147
1.5
 71
     0
 72
     0
 73
     0
 74
     0
 75
     1
 76
     1
 77
     3
 78
     8
170
     0
171
     2
172
     1
173
     1
174
     0
175
     0
176
   256
177
   256
178
     2
270
     2
271
     2
272
     2
273
     2
274
     2
340
6B
275
     0
280
     0
281
     0
282
     0
283
     0
284
     0
285
     0
286
     0
287
     3
288
     0
  0
DIMSTYLE
105
B34
102
{ACAD_REACTORS
330
10D55
102
}
330
A
100
AcDbSymbolTableRecord
100
AcDbDimStyleTableRecord
  2
AM_JIS$2
 70
     0
  3

  4
"
  5
OPEN30
  6

  7

 40
1.0
 41
2.5
 42
1.0
 43
12.0
 44
1.0
 45
0.0
 46
0.0
 47
0.1
 48
0.1
140
3.2
141
0.0
142
0.0
143
0.0393701
144
1.0
145
0.0
146
0.71
147
1.5
 71
     0
 72
     0
 73
     0
 74
     0
 75
     0
 76
     0
 77
     3
 78
     8
170
     0
171
     2
172
     1
173
     0
174
     0
175
     0
176
   256
177
   256
178
     2
270
     2
271
     3
272
     3
273
     2
274
     2
340
6B
275
     0
280
     0
281
     0
282
     0
283
     0
284
     0
285
     0
286
     0
287
     3
288
     0
  0
DIMSTYLE
105
1E42
102
{ACAD_REACTORS
330
10A70
330
10B46
102
}
330
A
100
AcDbSymbolTableRecord
100
AcDbDimStyleTableRecord
  2
AM_JIS$0
 70
     0
  3

  4
"
  5
OPEN30
  6

  7

 40
2.0
 41
2.5
 42
1.0
 43
10.0
 44
1.0
 45
0.0
 46
0.0
 47
0.1
 48
0.1
140
2.5
141
0.0
142
0.0
143
0.0393701
144
1.0
145
0.0
146
0.71
147
1.0
 71
     0
 72
     0
 73
     0
 74
     0
 75
     0
 76
     0
 77
     3
 78
     8
170
     0
171
     2
172
     1
173
     0
174
     0
175
     0
176
   256
177
   256
178
     4
270
     2
271
     3
272
     3
273
     2
274
     2
340
6B
275
     0
280
     0
281
     0
282
     0
283
     0
284
     0
285
     0
286
     0
287
     3
288
     0
  0
ENDTAB
  0
TABLE
  2
BLOCK_RECORD
  5
1
330
0
100
AcDbSymbolTable
 70
    14
  0
BLOCK_RECORD
  5
1F
102
{ACAD_XDICTIONARY
360
74
102
}
330
1
100
AcDbSymbolTableRecord
100
AcDbBlockTableRecord
  2
*MODEL_SPACE
  0
BLOCK_RECORD
  5
101
102
{ACAD_XDICTIONARY
360
11080
102
}
330
1
100
AcDbSymbolTableRecord
100
AcDbBlockTableRecord
  2
*PAPER_SPACE
  0
BLOCK_RECORD
  5
59
330
1
100
AcDbSymbolTableRecord
100
AcDbBlockTableRecord
  2
_OPEN30
  0
BLOCK_RECORD
  5
64
330
1
100
AcDbSymbolTableRecord
100
AcDbBlockTableRecord
  2
GENAXEH
  0
BLOCK_RECORD
  5
109FF
330
1
100
AcDbSymbolTableRecord
100
AcDbBlockTableRecord
  2
*D5
  0
BLOCK_RECORD
  5
10A0B
330
1
100
AcDbSymbolTableRecord
100
AcDbBlockTableRecord
  2
*D6
  0
BLOCK_RECORD
  5
10A17
330
1
100
AcDbSymbolTableRecord
100
AcDbBlockTableRecord
  2
*D7
  0
BLOCK_RECORD
  5
10A23
330
1
100
AcDbSymbolTableRecord
100
AcDbBlockTableRecord
  2
*D8
  0
BLOCK_RECORD
  5
10A72
330
1
100
AcDbSymbolTableRecord
100
AcDbBlockTableRecord
  2
*D9
  0
BLOCK_RECORD
  5
10A7E
330
1
100
AcDbSymbolTableRecord
100
AcDbBlockTableRecord
  2
*D10
  0
BLOCK_RECORD
  5
10A96
330
1
100
AcDbSymbolTableRecord
100
AcDbBlockTableRecord
  2
*D11
  0
BLOCK_RECORD
  5
10B47
330
1
100
AcDbSymbolTableRecord
100
AcDbBlockTableRecord
  2
*D12
  0
BLOCK_RECORD
  5
10D56
330
1
100
AcDbSymbolTableRecord
100
AcDbBlockTableRecord
  2
*D13
  0
ENDTAB
  0
ENDSEC
  0
SECTION
  2
BLOCKS
  0
BLOCK
  5
20
330
1F
100
AcDbEntity
  8
0
100
AcDbBlockBegin
  2
*MODEL_SPACE
 70
     0
 10
0.0
 20
0.0
 30
0.0
  3
*MODEL_SPACE
  1

  0
ENDBLK
  5
21
330
1F
100
AcDbEntity
  8
0
100
AcDbBlockEnd
  0
BLOCK
  5
103
330
101
100
AcDbEntity
 67
     1
  8
0
100
AcDbBlockBegin
  2
*PAPER_SPACE
 70
     0
 10
0.0
 20
0.0
 30
0.0
  3
*PAPER_SPACE
  1

  0
ENDBLK
  5
104
330
101
100
AcDbEntity
 67
     1
  8
0
100
AcDbBlockEnd
  0
BLOCK
  5
5D
330
59
100
AcDbEntity
  8
0
100
AcDbBlockBegin
  2
_OPEN30
 70
     0
 10
0.0
 20
0.0
 30
0.0
  3
_OPEN30
  1

  0
LINE
  5
5A
330
59
100
AcDbEntity
  8
0
 62
     0
100
AcDbLine
 10
-1.0
 20
0.26794919
 30
0.0
 11
0.0
 21
0.0
 31
0.0
  0
LINE
  5
5B
330
59
100
AcDbEntity
  8
0
 62
     0
100
AcDbLine
 10
0.0
 20
0.0
 30
0.0
 11
-1.0
 21
-0.26794919
 31
0.0
  0
LINE
  5
5C
330
59
100
AcDbEntity
  8
0
 62
     0
100
AcDbLine
 10
0.0
 20
0.0
 30
0.0
 11
-1.0
 21
0.0
 31
0.0
  0
ENDBLK
  5
5E
330
59
100
AcDbEntity
  8
0
100
AcDbBlockEnd
  0
BLOCK
  5
66
330
64
100
AcDbEntity
  8
0
100
AcDbBlockBegin
  2
GENAXEH
 70
     0
 10
0.0
 20
0.0
 30
0.0
  3
GENAXEH
  1

  0
LINE
  5
65
330
64
100
AcDbEntity
  8
0
100
AcDbLine
 10
-1.0
 20
0.0
 30
0.0
 11
1.0
 21
0.0
 31
0.0
  0
ENDBLK
  5
67
330
64
100
AcDbEntity
  8
0
100
AcDbBlockEnd
  0
BLOCK
  5
10A09
330
109FF
100
AcDbEntity
  8
0
100
AcDbBlockBegin
  2
*D5
 70
     1
 10
0.0
 20
0.0
 30
0.0
  3
*D5
  1

  0
LINE
  5
10D16
330
109FF
100
AcDbEntity
  8
AM_5
100
AcDbLine
 10
-36.17157287525378
 20
61.75000000000003
 30
0.0
 11
-109.1942548014434
 21
61.75000000000005
 31
0.0
  0
LINE
  5
10D17
330
109FF
100
AcDbEntity
  8
AM_5
100
AcDbLine
 10
-36.17157287525378
 20
-61.75000000000003
 30
0.0
 11
-109.1942548014434
 21
-61.75
 31
0.0
  0
LINE
  5
10D18
330
109FF
100
AcDbEntity
  8
AM_5
100
AcDbLine
 10
-108.1942548014434
 20
59.25000000000005
 30
0.0
 11
-108.1942548014434
 21
-59.25
 31
0.0
  0
INSERT
  5
10D19
330
109FF
100
AcDbEntity
  8
AM_5
100
AcDbBlockReference
  2
_OPEN30
 10
-108.1942548014434
 20
61.75000000000005
 30
0.0
 41
2.5
 42
2.5
 43
2.5
 50
90.0
  0
INSERT
  5
10D1A
330
109FF
100
AcDbEntity
  8
AM_5
100
AcDbBlockReference
  2
_OPEN30
 10
-108.1942548014434
 20
-61.75
 30
0.0
 41
2.5
 42
2.5
 43
2.5
 50
270.0
  0
MTEXT
  5
10D1B
330
109FF
100
AcDbEntity
  8
AM_5
 62
     2
100
AcDbMText
 10
-111.2942548014434
 20
0.000000000000007
 30
0.0
 40
3.2
 41
0.0
 71
     5
 72
     1
  1
%%c123.5
  7
ASAMI
 11
0.0000000000000001
 21
1.0
 31
0.0
1001
ACAD
1000
MTEXTBEGIN
1070
    73
1070
     1
1070
    44
1040
1.0
1070
    74
1070
     0
1000
MTEXTEND
  0
POINT
  5
10D1C
330
109FF
100
AcDbEntity
  8
DEFPOINTS
 62
     0
100
AcDbPoint
 10
-35.17157287525378
 20
61.75000000000003
 30
0.0
  0
POINT
  5
10D1D
330
109FF
100
AcDbEntity
  8
DEFPOINTS
 62
     0
100
AcDbPoint
 10
-35.17157287525378
 20
-61.75000000000003
 30
0.0
  0
POINT
  5
10D1E
330
109FF
100
AcDbEntity
  8
DEFPOINTS
 62
     0
100
AcDbPoint
 10
-108.1942548014434
 20
-61.75
 30
0.0
  0
ENDBLK
  5
10A0A
330
109FF
100
AcDbEntity
  8
0
100
AcDbBlockEnd
  0
BLOCK
  5
10A15
330
10A0B
100
AcDbEntity
  8
0
100
AcDbBlockBegin
  2
*D6
 70
     1
 10
0.0
 20
0.0
 30
0.0
  3
*D6
  1

  0
LINE
  5
10D2A
330
10A0B
100
AcDbEntity
  8
AM_5
100
AcDbLine
 10
-58.19999999999987
 20
15.87500000000005
 30
0.0
 11
-89.19425480144349
 21
15.87500000000006
 31
0.0
  0
LINE
  5
10D2B
330
10A0B
100
AcDbEntity
  8
AM_5
100
AcDbLine
 10
-58.19999999999987
 20
-15.87500000000005
 30
0.0
 11
-89.19425480144349
 21
-15.87500000000004
 31
0.0
  0
LINE
  5
10D2C
330
10A0B
100
AcDbEntity
  8
AM_5
100
AcDbLine
 10
-88.19425480144349
 20
13.37500000000006
 30
0.0
 11
-88.19425480144349
 21
-13.37500000000004
 31
0.0
  0
INSERT
  5
10D2D
330
10A0B
100
AcDbEntity
  8
AM_5
100
AcDbBlockReference
  2
_OPEN30
 10
-88.19425480144349
 20
15.87500000000006
 30
0.0
 41
2.5
 42
2.5
 43
2.5
 50
90.0
  0
INSERT
  5
10D2E
330
10A0B
100
AcDbEntity
  8
AM_5
100
AcDbBlockReference
  2
_OPEN30
 10
-88.19425480144349
 20
-15.87500000000004
 30
0.0
 41
2.5
 42
2.5
 43
2.5
 50
270.0
  0
MTEXT
  5
10D2F
330
10A0B
100
AcDbEntity
  8
AM_5
 62
     2
100
AcDbMText
 10
-91.29425480144348
 20
-0.0000000000000049
 30
0.0
 40
3.2
 41
0.0
 71
     5
 72
     1
  1
%%c31.75
  7
ASAMI
 11
0.0000000000000001
 21
1.0
 31
0.0
1001
ACAD
1000
MTEXTBEGIN
1070
    73
1070
     1
1070
    44
1040
1.0
1070
    74
1070
     0
1000
MTEXTEND
  0
POINT
  5
10D30
330
10A0B
100
AcDbEntity
  8
DEFPOINTS
 62
     0
100
AcDbPoint
 10
-57.19999999999988
 20
15.87500000000005
 30
0.0
  0
POINT
  5
10D31
330
10A0B
100
AcDbEntity
  8
DEFPOINTS
 62
     0
100
AcDbPoint
 10
-57.19999999999988
 20
-15.87500000000005
 30
0.0
  0
POINT
  5
10D32
330
10A0B
100
AcDbEntity
  8
DEFPOINTS
 62
     0
100
AcDbPoint
 10
-88.19425480144349
 20
-15.87500000000004
 30
0.0
  0
ENDBLK
  5
10A16
330
10A0B
100
AcDbEntity
  8
0
100
AcDbBlockEnd
  0
BLOCK
  5
10A21
330
10A17
100
AcDbEntity
  8
0
100
AcDbBlockBegin
  2
*D7
 70
     1
 10
0.0
 20
0.0
 30
0.0
  3
*D7
  1

  0
LINE
  5
10D1F
330
10A17
100
AcDbEntity
  8
AM_5
100
AcDbLine
 10
-59.69999999999981
 20
6.349999999999994
 30
0.0
 11
-79.19425480144349
 21
6.349999999999999
 31
0.0
  0
LINE
  5
10D20
330
10A17
100
AcDbEntity
  8
AM_5
100
AcDbLine
 10
-59.69999999999981
 20
-6.349999999999994
 30
0.0
 11
-79.19425480144349
 21
-6.349999999999988
 31
0.0
  0
LINE
  5
10D21
330
10A17
100
AcDbEntity
  8
AM_5
100
AcDbLine
 10
-78.19425480144349
 20
8.849999999999999
 30
0.0
 11
-78.19425480144349
 21
11.35
 31
0.0
  0
LINE
  5
10D22
330
10A17
100
AcDbEntity
  8
AM_5
100
AcDbLine
 10
-78.19425480144349
 20
-8.849999999999988
 30
0.0
 11
-78.19425480144349
 21
-11.34999999999998
 31
0.0
  0
LINE
  5
10D23
330
10A17
100
AcDbEntity
  8
AM_5
100
AcDbLine
 10
-78.19425480144349
 20
6.349999999999999
 30
0.0
 11
-78.19425480144349
 21
-6.349999999999988
 31
0.0
  0
INSERT
  5
10D24
330
10A17
100
AcDbEntity
  8
AM_5
100
AcDbBlockReference
  2
_OPEN30
 10
-78.19425480144349
 20
6.349999999999999
 30
0.0
 41
2.5
 42
2.5
 43
2.5
 50
270.0
  0
INSERT
  5
10D25
330
10A17
100
AcDbEntity
  8
AM_5
100
AcDbBlockReference
  2
_OPEN30
 10
-78.19425480144349
 20
-6.349999999999988
 30
0.0
 41
2.5
 42
2.5
 43
2.5
 50
90.0
  0
MTEXT
  5
10D26
330
10A17
100
AcDbEntity
  8
AM_5
 62
     2
100
AcDbMText
 10
-81.29425480144348
 20
-0.0000000000000423
 30
0.0
 40
3.2
 41
0.0
 71
     5
 72
     1
  1
12.7
  7
ASAMI
 11
0.0000000000000001
 21
1.0
 31
0.0
1001
ACAD
1000
MTEXTBEGIN
1070
    73
1070
     1
1070
    44
1040
1.0
1070
    74
1070
     0
1000
MTEXTEND
  0
POINT
  5
10D27
330
10A17
100
AcDbEntity
  8
DEFPOINTS
 62
     0
100
AcDbPoint
 10
-58.69999999999982
 20
6.349999999999994
 30
0.0
  0
POINT
  5
10D28
330
10A17
100
AcDbEntity
  8
DEFPOINTS
 62
     0
100
AcDbPoint
 10
-58.69999999999982
 20
-6.349999999999994
 30
0.0
  0
POINT
  5
10D29
330
10A17
100
AcDbEntity
  8
DEFPOINTS
 62
     0
100
AcDbPoint
 10
-78.19425480144349
 20
-6.349999999999988
 30
0.0
  0
ENDBLK
  5
10A22
330
10A17
100
AcDbEntity
  8
0
100
AcDbBlockEnd
  0
BLOCK
  5
10A2D
330
10A23
100
AcDbEntity
  8
0
100
AcDbBlockBegin
  2
*D8
 70
     1
 10
0.0
 20
0.0
 30
0.0
  3
*D8
  1

  0
LINE
  5
10D33
330
10A23
100
AcDbEntity
  8
AM_5
100
AcDbLine
 10
-58.70000000000004
 20
34.99999999999997
 30
0.0
 11
-99.19425480144347
 21
34.99999999999998
 31
0.0
  0
LINE
  5
10D34
330
10A23
100
AcDbEntity
  8
AM_5
100
AcDbLine
 10
-58.70000000000004
 20
-34.99999999999997
 30
0.0
 11
-99.19425480144349
 21
-34.99999999999996
 31
0.0
  0
LINE
  5
10D35
330
10A23
100
AcDbEntity
  8
AM_5
100
AcDbLine
 10
-98.19425480144346
 20
32.49999999999998
 30
0.0
 11
-98.19425480144349
 21
-32.49999999999996
 31
0.0
  0
INSERT
  5
10D36
330
10A23
100
AcDbEntity
  8
AM_5
100
AcDbBlockReference
  2
_OPEN30
 10
-98.19425480144346
 20
34.99999999999998
 30
0.0
 41
2.5
 42
2.5
 43
2.5
 50
90.0
  0
INSERT
  5
10D37
330
10A23
100
AcDbEntity
  8
AM_5
100
AcDbBlockReference
  2
_OPEN30
 10
-98.19425480144349
 20
-34.99999999999996
 30
0.0
 41
2.5
 42
2.5
 43
2.5
 50
270.0
  0
MTEXT
  5
10D38
330
10A23
100
AcDbEntity
  8
AM_5
 62
     2
100
AcDbMText
 10
-101.2942548014434
 20
-0.0000000000000078
 30
0.0
 40
3.2
 41
0.0
 71
     5
 72
     1
  1
%%c70
  7
ASAMI
 11
0.0000000000000001
 21
1.0
 31
0.0
1001
ACAD
1000
MTEXTBEGIN
1070
    73
1070
     1
1070
    44
1040
1.0
1070
    74
1070
     0
1000
MTEXTEND
  0
POINT
  5
10D39
330
10A23
100
AcDbEntity
  8
DEFPOINTS
 62
     0
100
AcDbPoint
 10
-57.70000000000004
 20
34.99999999999997
 30
0.0
  0
POINT
  5
10D3A
330
10A23
100
AcDbEntity
  8
DEFPOINTS
 62
     0
100
AcDbPoint
 10
-57.70000000000004
 20
-34.99999999999997
 30
0.0
  0
POINT
  5
10D3B
330
10A23
100
AcDbEntity
  8
DEFPOINTS
 62
     0
100
AcDbPoint
 10
-98.19425480144349
 20
-34.99999999999996
 30
0.0
  0
ENDBLK
  5
10A2E
330
10A23
100
AcDbEntity
  8
0
100
AcDbBlockEnd
  0
BLOCK
  5
10A7C
330
10A72
100
AcDbEntity
  8
0
100
AcDbBlockBegin
  2
*D9
 70
     1
 10
0.0
 20
0.0
 30
0.0
  3
*D9
  1

  0
LINE
  5
10D0D
330
10A72
100
AcDbEntity
  8
AM_5
100
AcDbLine
 10
-60.00000000000006
 20
-33.69999999999996
 30
0.0
 11
-60.00000000000007
 21
-96.75000101000003
 31
0.0
  0
LINE
  5
10D0E
330
10A72
100
AcDbEntity
  8
AM_5
100
AcDbLine
 10
0.0000000000000852
 20
-50.99999999999997
 30
0.0
 11
0.0000000000000824
 21
-96.75000101000003
 31
0.0
  0
LINE
  5
10D0F
330
10A72
100
AcDbEntity
  8
AM_5
100
AcDbLine
 10
-57.50000000000007
 20
-95.75000101000004
 30
0.0
 11
-2.499999999999917
 21
-95.75000101000004
 31
0.0
  0
INSERT
  5
10D10
330
10A72
100
AcDbEntity
  8
AM_5
100
AcDbBlockReference
  2
_OPEN30
 10
-60.00000000000007
 20
-95.75000101000004
 30
0.0
 41
2.5
 42
2.5
 43
2.5
 50
180.0
  0
INSERT
  5
10D11
330
10A72
100
AcDbEntity
  8
AM_5
100
AcDbBlockReference
  2
_OPEN30
 10
0.0000000000000825
 20
-95.75000101000004
 30
0.0
 41
2.5
 42
2.5
 43
2.5
  0
MTEXT
  5
10D12
330
10A72
100
AcDbEntity
  8
AM_5
 62
     2
100
AcDbMText
 10
-29.99999999999999
 20
-92.65000101000003
 30
0.0
 40
3.2
 41
0.0
 71
     5
 72
     1
  1
60
  7
ASAMI
1001
ACAD
1000
MTEXTBEGIN
1070
    73
1070
     1
1070
    44
1040
1.0
1070
    74
1070
     0
1000
MTEXTEND
  0
POINT
  5
10D13
330
10A72
100
AcDbEntity
  8
DEFPOINTS
 62
     0
100
AcDbPoint
 10
-60.00000000000006
 20
-32.69999999999996
 30
0.0
  0
POINT
  5
10D14
330
10A72
100
AcDbEntity
  8
DEFPOINTS
 62
     0
100
AcDbPoint
 10
0.0000000000000853
 20
-49.99999999999997
 30
0.0
  0
POINT
  5
10D15
330
10A72
100
AcDbEntity
  8
DEFPOINTS
 62
     0
100
AcDbPoint
 10
0.0000000000000825
 20
-95.75000101000004
 30
0.0
  0
ENDBLK
  5
10A7D
330
10A72
100
AcDbEntity
  8
0
100
AcDbBlockEnd
  0
BLOCK
  5
10A88
330
10A7E
100
AcDbEntity
  8
0
100
AcDbBlockBegin
  2
*D10
 70
     1
 10
0.0
 20
0.0
 30
0.0
  3
*D10
  1

  0
LINE
  5
10CFB
330
10A7E
100
AcDbEntity
  8
AM_5
100
AcDbLine
 10
-60.00000000000006
 20
-33.69999999999996
 30
0.0
 11
-60.00000000000006
 21
-86.75000101000003
 31
0.0
  0
LINE
  5
10CFC
330
10A7E
100
AcDbEntity
  8
AM_5
100
AcDbLine
 10
-27.99999999999994
 20
-22.32872029505819
 30
0.0
 11
-27.99999999999994
 21
-86.75000101000003
 31
0.0
  0
LINE
  5
10CFD
330
10A7E
100
AcDbEntity
  8
AM_5
100
AcDbLine
 10
-57.50000000000006
 20
-85.75000101000004
 30
0.0
 11
-30.49999999999994
 21
-85.75000101000004
 31
0.0
  0
INSERT
  5
10CFE
330
10A7E
100
AcDbEntity
  8
AM_5
100
AcDbBlockReference
  2
_OPEN30
 10
-60.00000000000006
 20
-85.75000101000004
 30
0.0
 41
2.5
 42
2.5
 43
2.5
 50
180.0
  0
INSERT
  5
10CFF
330
10A7E
100
AcDbEntity
  8
AM_5
100
AcDbBlockReference
  2
_OPEN30
 10
-27.99999999999994
 20
-85.75000101000004
 30
0.0
 41
2.5
 42
2.5
 43
2.5
  0
MTEXT
  5
10D00
330
10A7E
100
AcDbEntity
  8
AM_5
 62
     2
100
AcDbMText
 10
-44.0
 20
-82.65000101000003
 30
0.0
 40
3.2
 41
0.0
 71
     5
 72
     1
  1
32
  7
ASAMI
1001
ACAD
1000
MTEXTBEGIN
1070
    73
1070
     1
1070
    44
1040
1.0
1070
    74
1070
     0
1000
MTEXTEND
  0
POINT
  5
10D01
330
10A7E
100
AcDbEntity
  8
DEFPOINTS
 62
     0
100
AcDbPoint
 10
-60.00000000000006
 20
-32.69999999999996
 30
0.0
  0
POINT
  5
10D02
330
10A7E
100
AcDbEntity
  8
DEFPOINTS
 62
     0
100
AcDbPoint
 10
-27.99999999999994
 20
-21.32872029505819
 30
0.0
  0
POINT
  5
10D03
330
10A7E
100
AcDbEntity
  8
DEFPOINTS
 62
     0
100
AcDbPoint
 10
-27.99999999999994
 20
-85.75000101000004
 30
0.0
  0
ENDBLK
  5
10A89
330
10A7E
100
AcDbEntity
  8
0
100
AcDbBlockEnd
  0
BLOCK
  5
10AA2
330
10A96
100
AcDbEntity
  8
0
100
AcDbBlockBegin
  2
*D11
 70
     1
 10
0.0
 20
0.0
 30
0.0
  3
*D11
  1

  0
LINE
  5
10D04
330
10A96
100
AcDbEntity
  8
AM_5
100
AcDbLine
 10
-60.00000000000006
 20
-33.69999999999996
 30
0.0
 11
-60.00000000000006
 21
-76.75000101000003
 31
0.0
  0
LINE
  5
10D05
330
10A96
100
AcDbEntity
  8
AM_5
100
AcDbLine
 10
-51.99999999999997
 20
-6.350000000000022
 30
0.0
 11
-51.99999999999998
 21
-76.75000101000003
 31
0.0
  0
LINE
  5
10D06
330
10A96
100
AcDbEntity
  8
AM_5
100
AcDbLine
 10
-57.50000000000006
 20
-75.75000101000004
 30
0.0
 11
-54.49999999999998
 21
-75.75000101000004
 31
0.0
  0
INSERT
  5
10D07
330
10A96
100
AcDbEntity
  8
AM_5
100
AcDbBlockReference
  2
_OPEN30
 10
-60.00000000000006
 20
-75.75000101000004
 30
0.0
 41
2.5
 42
2.5
 43
2.5
 50
180.0
  0
INSERT
  5
10D08
330
10A96
100
AcDbEntity
  8
AM_5
100
AcDbBlockReference
  2
_OPEN30
 10
-51.99999999999998
 20
-75.75000101000004
 30
0.0
 41
2.5
 42
2.5
 43
2.5
  0
MTEXT
  5
10D09
330
10A96
100
AcDbEntity
  8
AM_5
 62
     2
100
AcDbMText
 10
-56.00000000000001
 20
-72.65000101000004
 30
0.0
 40
3.2
 41
0.0
 71
     5
 72
     1
  1
8
  7
ASAMI
1001
ACAD
1000
MTEXTBEGIN
1070
    73
1070
     1
1070
    44
1040
1.0
1070
    74
1070
     0
1000
MTEXTEND
  0
POINT
  5
10D0A
330
10A96
100
AcDbEntity
  8
DEFPOINTS
 62
     0
100
AcDbPoint
 10
-60.00000000000006
 20
-32.69999999999996
 30
0.0
  0
POINT
  5
10D0B
330
10A96
100
AcDbEntity
  8
DEFPOINTS
 62
     0
100
AcDbPoint
 10
-51.99999999999997
 20
-5.350000000000022
 30
0.0
  0
POINT
  5
10D0C
330
10A96
100
AcDbEntity
  8
DEFPOINTS
 62
     0
100
AcDbPoint
 10
-51.99999999999998
 20
-75.75000101000004
 30
0.0
  0
ENDBLK
  5
10AA3
330
10A96
100
AcDbEntity
  8
0
100
AcDbBlockEnd
  0
BLOCK
  5
10B51
330
10B47
100
AcDbEntity
  8
0
100
AcDbBlockBegin
  2
*D12
 70
     1
 10
0.0
 20
0.0
 30
0.0
  3
*D12
  1

  0
LINE
  5
10D3C
330
10B47
100
AcDbEntity
  8
AM_5
100
AcDbLine
 10
0.9999999999999431
 20
50.0
 30
0.0
 11
21.86062524488149
 21
50.0
 31
0.0
  0
LINE
  5
10D3D
330
10B47
100
AcDbEntity
  8
AM_5
100
AcDbLine
 10
1.000000000000085
 20
-49.99999999999997
 30
0.0
 11
21.86062524488147
 21
-49.99999999999998
 31
0.0
  0
LINE
  5
10D3E
330
10B47
100
AcDbEntity
  8
AM_5
100
AcDbLine
 10
20.86062524488149
 20
47.49999999999999
 30
0.0
 11
20.86062524488147
 21
-47.49999999999998
 31
0.0
  0
INSERT
  5
10D3F
330
10B47
100
AcDbEntity
  8
AM_5
100
AcDbBlockReference
  2
_OPEN30
 10
20.86062524488149
 20
50.0
 30
0.0
 41
2.5
 42
2.5
 43
2.5
 50
90.0
  0
INSERT
  5
10D40
330
10B47
100
AcDbEntity
  8
AM_5
100
AcDbBlockReference
  2
_OPEN30
 10
20.86062524488147
 20
-49.99999999999998
 30
0.0
 41
2.5
 42
2.5
 43
2.5
 50
270.0
  0
MTEXT
  5
10D41
330
10B47
100
AcDbEntity
  8
AM_5
 62
     2
100
AcDbMText
 10
17.76062524488148
 20
0.0000000000000133
 30
0.0
 40
3.2
 41
0.0
 71
     5
 72
     1
  1
%%c100
  7
ASAMI
 11
0.0000000000000001
 21
1.0
 31
0.0
1001
ACAD
1000
MTEXTBEGIN
1070
    73
1070
     1
1070
    44
1040
1.0
1070
    74
1070
     0
1000
MTEXTEND
  0
POINT
  5
10D42
330
10B47
100
AcDbEntity
  8
DEFPOINTS
 62
     0
100
AcDbPoint
 10
-0.0000000000000568
 20
50.0
 30
0.0
  0
POINT
  5
10D43
330
10B47
100
AcDbEntity
  8
DEFPOINTS
 62
     0
100
AcDbPoint
 10
0.0000000000000853
 20
-49.99999999999997
 30
0.0
  0
POINT
  5
10D44
330
10B47
100
AcDbEntity
  8
DEFPOINTS
 62
     0
100
AcDbPoint
 10
20.86062524488147
 20
-49.99999999999998
 30
0.0
  0
ENDBLK
  5
10B52
330
10B47
100
AcDbEntity
  8
0
100
AcDbBlockEnd
  0
BLOCK
  5
10D66
330
10D56
100
AcDbEntity
  8
0
100
AcDbBlockBegin
  2
*D13
 70
     1
 10
0.0
 20
0.0
 30
0.0
  3
*D13
  1

  0
LINE
  5
1100C
330
10D56
100
AcDbEntity
  8
AM_5
100
AcDbLine
 10
-7.252095181973345
 20
-57.66313702561848
 30
0.0
 11
-21.23392393821451
 21
-71.91642261922725
 31
0.0
  0
LINE
  5
1100D
330
10D56
100
AcDbEntity
  8
AM_5
100
AcDbLine
 10
0.0000000000000817
 20
-51.27024260652748
 30
0.0
 11
0.0000000000001315
 21
-80.59245616286411
 31
0.0
  0
ARC
  5
1100E
330
10D56
100
AcDbEntity
  8
AM_5
100
AcDbCircle
 10
0.0000000000000817
 20
-50.27024260652748
 30
0.0
 40
29.32221355633663
100
AcDbArc
 50
230.4373293339554
 51
265.1135043452133
  0
INSERT
  5
1100F
330
10D56
100
AcDbEntity
  8
AM_5
100
AcDbBlockReference
  2
_OPEN30
 10
-20.53364775624107
 20
-71.20255059360871
 30
0.0
 41
2.5
 42
2.5
 43
2.5
 50
137.994081506562
  0
INSERT
  5
11010
330
10D56
100
AcDbEntity
  8
AM_5
100
AcDbBlockReference
  2
_OPEN30
 10
0.000000000000135
 20
-79.59245616286411
 30
0.0
 41
2.5
 42
2.5
 43
2.5
 50
357.5567521726067
  0
MTEXT
  5
11011
330
10D56
100
AcDbEntity
  8
AM_5
 62
     2
100
AcDbMText
 10
-9.918237699400652
 20
-74.54436555118423
 30
0.0
 40
3.2
 41
0.0
 71
     5
 72
     1
  1
45%%d
  7
ASAMI
 11
0.9257083843248187
 21
-0.3782380033665758
 31
0.0
1001
ACAD
1000
MTEXTBEGIN
1070
    73
1070
     1
1070
    44
1040
1.0
1070
    74
1070
     0
1000
MTEXTEND
  0
POINT
  5
11012
330
10D56
100
AcDbEntity
  8
DEFPOINTS
 62
     0
100
AcDbPoint
 10
-14.49805190146152
 20
-75.75746879742431
 30
0.0
  0
POINT
  5
11013
330
10D56
100
AcDbEntity
  8
DEFPOINTS
 62
     0
100
AcDbPoint
 10
-6.551818999999905
 20
-56.94926499999994
 30
0.0
  0
POINT
  5
11014
330
10D56
100
AcDbEntity
  8
DEFPOINTS
 62
     0
100
AcDbPoint
 10
-0.0000000000000568
 20
50.0
 30
0.0
  0
POINT
  5
11015
330
10D56
100
AcDbEntity
  8
DEFPOINTS
 62
     0
100
AcDbPoint
 10
0.0000000000000853
 20
-49.99999999999997
 30
0.0
  0
POINT
  5
11016
330
10D56
100
AcDbEntity
  8
DEFPOINTS
 62
     0
100
AcDbPoint
 10
-0.1842079999998951
 20
-50.45802699999999
 30
0.0
  0
ENDBLK
  5
10D67
330
10D56
100
AcDbEntity
  8
0
100
AcDbBlockEnd
  0
ENDSEC
  0
SECTION
  2
ENTITIES
  0
TEXT
  5
E5A
330
1F
100
AcDbEntity
  8
AM_6
100
AcDbText
 10
-47.85714285714283
 20
-118.25000101
 30
0.0
 40
5.0
  1
FPG4100R
 72
     4
 11
-29.99999999999997
 21
-115.75000101
 31
0.0
100
AcDbText
  0
LINE
  5
F831
330
1F
100
AcDbEntity
  8
AM_0
100
AcDbLine
 10
-29.29999999999995
 20
-15.62500000000002
 30
0.0
 11
-27.99999999999994
 21
-16.92500000000004
 31
0.0
  0
LINE
  5
F832
330
1F
100
AcDbEntity
  8
AM_3
100
AcDbLine
 10
-1.90000000000009
 20
-48.44575424152342
 30
0.0
 11
-1.90000000000009
 21
-45.80213881848436
 31
0.0
  0
LINE
  5
F833
330
1F
100
AcDbEntity
  8
AM_0
100
AcDbLine
 10
-27.99999999999994
 20
-21.32872029505819
 30
0.0
 11
-27.99999999999982
 21
0.0
 31
0.0
  0
LINE
  5
F834
330
1F
100
AcDbEntity
  8
AM_0
100
AcDbLine
 10
-60.00000000000006
 20
-32.69999999999996
 30
0.0
 11
-59.99999999999983
 21
-7.650000000000005
 31
0.0
  0
LINE
  5
F836
330
1F
100
AcDbEntity
  8
AM_0
100
AcDbLine
 10
-36.58578643762692
 20
-61.16421356237314
 30
0.0
 11
-47.27055645701915
 21
-50.47944354298081
 31
0.0
  0
LINE
  5
F837
330
1F
100
AcDbEntity
  8
AM_0
100
AcDbLine
 10
-47.27055645701915
 20
-50.47944354298081
 30
0.0
 11
-49.56287563449524
 21
-37.47905546699922
 31
0.0
  0
LINE
  5
F838
330
1F
100
AcDbEntity
  8
AM_0
100
AcDbLine
 10
-57.70000000000004
 20
-34.99999999999997
 30
0.0
 11
-52.51729889353185
 21
-35.0
 31
0.0
  0
LINE
  5
F83B
330
1F
100
AcDbEntity
  8
AM_3
100
AcDbLine
 10
-1.900000000000034
 20
-48.4457542415235
 30
0.0
 11
-15.51075444544511
 21
-34.83499979607845
 31
0.0
  0
LINE
  5
F83C
330
1F
100
AcDbEntity
  8
AM_3
100
AcDbLine
 10
-12.8288325002394
 20
-61.06701499032093
 30
0.0
 11
-1.900000000000147
 21
-49.9457542415235
 31
0.0
  0
LINE
  5
F83D
330
1F
100
AcDbEntity
  8
AM_3
100
AcDbLine
 10
-27.80000000000006
 20
-60.75
 30
0.0
 11
-27.79999999999984
 21
-54.62549411640782
 31
0.0
  0
LINE
  5
F83E
330
1F
100
AcDbEntity
  8
AM_3
100
AcDbLine
 10
-20.59831510710748
 20
-60.95168489289257
 30
0.0
 11
-22.80000000000001
 21
-58.75
 31
0.0
  0
LINE
  5
F83F
330
1F
100
AcDbEntity
  8
AM_0
100
AcDbLine
 10
-35.17157287525381
 20
-61.75000000000004
 30
0.0
 11
-28.80000000000006
 21
-61.75
 31
0.0
  0
LINE
  5
F841
330
1F
100
AcDbEntity
  8
AM_3
100
AcDbLine
 10
-27.89339679643251
 20
-60.84339679643246
 30
0.0
 11
-27.80000000000006
 21
-60.75
 31
0.0
  0
LINE
  5
F842
330
1F
100
AcDbEntity
  8
AM_0
100
AcDbLine
 10
-19.80000000000006
 20
-61.75
 30
0.0
 11
-13.50000000000011
 21
-61.75
 31
0.0
  0
LINE
  5
F843
330
1F
100
AcDbEntity
  8
AM_3
100
AcDbLine
 10
-27.18641873035292
 20
-54.0
 30
0.0
 11
-23.19999999999993
 21
-54.0
 31
0.0
  0
ARC
  5
F844
330
1F
100
AcDbEntity
  8
AM_0
100
AcDbCircle
 10
-27.39999999999986
 20
-54.40000000000001
 30
0.0
 40
0.4
100
AcDbArc
 50
90.0
 51
179.9999999999983
  0
LINE
  5
F846
330
1F
100
AcDbEntity
  8
AM_3
100
AcDbLine
 10
-22.80000000000001
 20
-58.75
 30
0.0
 11
-22.79999999999995
 21
-54.40000000000001
 31
0.0
  0
LINE
  5
F847
330
1F
100
AcDbEntity
  8
AM_3
100
AcDbLine
 10
-1.900000000000147
 20
-49.9457542415235
 30
0.0
 11
-1.90000000000009
 21
-48.44575424152342
 31
0.0
  0
LINE
  5
F848
330
1F
100
AcDbEntity
  8
AM_0
100
AcDbLine
 10
-17.8957542415236
 20
-32.44999999999996
 30
0.0
 11
-17.8957542415236
 21
-29.44999999999996
 31
0.0
  0
LINE
  5
F849
330
1F
100
AcDbEntity
  8
AM_0
100
AcDbLine
 10
-27.33891854213339
 20
-22.11656649746797
 30
0.0
 11
-17.62210606385684
 21
-23.82990270387284
 31
0.0
  0
LINE
  5
F84C
330
1F
100
AcDbEntity
  8
AM_0
100
AcDbLine
 10
-17.8957542415236
 20
-29.44999999999996
 30
0.0
 11
-16.79575424152358
 21
-29.44999999999996
 31
0.0
  0
LINE
  5
F84D
330
1F
100
AcDbEntity
  8
AM_0
100
AcDbLine
 10
-16.79575424152358
 20
-29.44999999999996
 30
0.0
 11
-16.79575424152466
 21
0.0
 31
0.0
  0
LINE
  5
F84E
330
1F
100
AcDbEntity
  8
AM_0
100
AcDbLine
 10
-46.74093667926882
 20
-15.625
 30
0.0
 11
-29.29999999999995
 21
-15.62500000000002
 31
0.0
  0
LINE
  5
F84F
330
1F
100
AcDbEntity
  8
AM_0
100
AcDbLine
 10
-36.58578643762694
 20
61.16421356237314
 30
0.0
 11
-47.27055645701915
 21
50.47944354298081
 31
0.0
  0
LINE
  5
F850
330
1F
100
AcDbEntity
  8
AM_0
100
AcDbLine
 10
-46.74093667926882
 20
15.625
 30
0.0
 11
-29.29999999999995
 21
15.62500000000002
 31
0.0
  0
LINE
  5
F851
330
1F
100
AcDbEntity
  8
AM_7
100
AcDbLine
 10
-64.1942538014435
 20
0.0
 30
0.0
 11
6.860624244881478
 21
0.0
 31
0.0
  0
LINE
  5
F852
330
1F
100
AcDbEntity
  8
AM_0
100
AcDbLine
 10
-47.27055645701915
 20
50.47944354298081
 30
0.0
 11
-49.56287563449528
 21
37.4790554669992
 31
0.0
  0
LINE
  5
F853
330
1F
100
AcDbEntity
  8
AM_0
100
AcDbLine
 10
-46.74093667926882
 20
15.62500000000002
 30
0.0
 11
-46.74093667926863
 21
0.0
 31
0.0
  0
LINE
  5
F854
330
1F
100
AcDbEntity
  8
AM_0
100
AcDbLine
 10
-53.89999999999992
 20
15.87500000000005
 30
0.0
 11
-53.89999999999981
 21
6.350000000000017
 31
0.0
  0
LINE
  5
F855
330
1F
100
AcDbEntity
  8
AM_0
100
AcDbLine
 10
-57.19999999999988
 20
15.87500000000005
 30
0.0
 11
-57.19999999999977
 21
6.350000000000002
 31
0.0
  0
LINE
  5
F856
330
1F
100
AcDbEntity
  8
AM_0
100
AcDbLine
 10
-60.00000000000005
 20
32.69999999999997
 30
0.0
 11
-59.99999999999983
 21
7.649999999999988
 31
0.0
  0
LINE
  5
F857
330
1F
100
AcDbEntity
  8
AM_0
100
AcDbLine
 10
-51.99999999999994
 20
-5.350000000000022
 30
0.0
 11
-51.99999999999994
 21
0.0
 31
0.0
  0
LINE
  5
F858
330
1F
100
AcDbEntity
  8
AM_0
100
AcDbLine
 10
-53.89999999999992
 20
-15.87500000000003
 30
0.0
 11
-46.74093667926882
 21
-15.625
 31
0.0
  0
LINE
  5
F859
330
1F
100
AcDbEntity
  8
AM_0
100
AcDbLine
 10
-57.19999999999988
 20
-15.87500000000003
 30
0.0
 11
-53.89999999999992
 21
-15.87500000000003
 31
0.0
  0
LINE
  5
F85A
330
1F
100
AcDbEntity
  8
AM_0
100
AcDbLine
 10
-57.19999999999988
 20
-15.87500000000005
 30
0.0
 11
-57.19999999999976
 21
-6.350000000000002
 31
0.0
  0
LINE
  5
F85B
330
1F
100
AcDbEntity
  8
AM_0
100
AcDbLine
 10
-53.89999999999992
 20
-15.87500000000005
 30
0.0
 11
-53.8999999999998
 21
-6.350000000000019
 31
0.0
  0
LINE
  5
F85C
330
1F
100
AcDbEntity
  8
AM_0
100
AcDbLine
 10
-46.74093667926882
 20
-15.62500000000002
 30
0.0
 11
-46.74093667926863
 21
0.0
 31
0.0
  0
LINE
  5
F85D
330
1F
100
AcDbEntity
  8
AM_0
100
AcDbLine
 10
-58.69999999999982
 20
-6.349999999999994
 30
0.0
 11
-52.99999999999994
 21
-6.350000000000022
 31
0.0
  0
LINE
  5
F860
330
1F
100
AcDbEntity
  8
AM_0
100
AcDbLine
 10
-51.99999999999994
 20
5.350000000000021
 30
0.0
 11
-51.99999999999994
 21
0.0
 31
0.0
  0
LINE
  5
F861
330
1F
100
AcDbEntity
  8
AM_0
100
AcDbLine
 10
-58.69999999999982
 20
6.349999999999995
 30
0.0
 11
-52.99999999999995
 21
6.350000000000021
 31
0.0
  0
LINE
  5
F864
330
1F
100
AcDbEntity
  8
AM_0
100
AcDbLine
 10
-53.89999999999992
 20
15.87500000000003
 30
0.0
 11
-46.74093667926882
 21
15.625
 31
0.0
  0
LINE
  5
F866
330
1F
100
AcDbEntity
  8
AM_0
100
AcDbLine
 10
-57.1999999999999
 20
15.87500000000002
 30
0.0
 11
-53.89999999999992
 21
15.87500000000003
 31
0.0
  0
LINE
  5
F868
330
1F
100
AcDbEntity
  8
AM_0
100
AcDbLine
 10
-57.70000000000007
 20
34.99999999999998
 30
0.0
 11
-52.5172988935319
 21
34.99999999999998
 31
0.0
  0
LINE
  5
F86A
330
1F
100
AcDbEntity
  8
AM_3
100
AcDbLine
 10
-1.90000000000009
 20
48.44575424152342
 30
0.0
 11
-1.900000000000062
 21
45.8021388184845
 31
0.0
  0
LINE
  5
F86B
330
1F
100
AcDbEntity
  8
AM_3
100
AcDbLine
 10
-1.900000000000034
 20
48.4457542415235
 30
0.0
 11
-15.51075444544511
 21
34.83499979607843
 31
0.0
  0
LINE
  5
F86C
330
1F
100
AcDbEntity
  8
AM_0
100
AcDbLine
 10
-29.29999999999995
 20
15.62500000000002
 30
0.0
 11
-29.29999999999984
 21
0.0
 31
0.0
  0
LINE
  5
F86D
330
1F
100
AcDbEntity
  8
AM_0
100
AcDbLine
 10
-27.99999999999988
 20
21.32872029505821
 30
0.0
 11
-27.99999999999982
 21
0.0
 31
0.0
  0
LINE
  5
F86E
330
1F
100
AcDbEntity
  8
AM_0
100
AcDbLine
 10
-29.29999999999995
 20
-15.62500000000002
 30
0.0
 11
-29.29999999999984
 21
0.0
 31
0.0
  0
LINE
  5
F86F
330
1F
100
AcDbEntity
  8
AM_0
100
AcDbLine
 10
-16.79575424152358
 20
29.44999999999996
 30
0.0
 11
-16.79575424152466
 21
0.0
 31
0.0
  0
LINE
  5
F870
330
1F
100
AcDbEntity
  8
AM_0
100
AcDbLine
 10
-27.33891854213343
 20
22.11656649746798
 30
0.0
 11
-17.62210606385682
 21
23.82990270387284
 31
0.0
  0
LINE
  5
F871
330
1F
100
AcDbEntity
  8
AM_0
100
AcDbLine
 10
-29.29999999999995
 20
15.62500000000002
 30
0.0
 11
-27.99999999999994
 21
16.92500000000004
 31
0.0
  0
LINE
  5
F874
330
1F
100
AcDbEntity
  8
AM_0
100
AcDbLine
 10
-17.8957542415236
 20
29.44999999999996
 30
0.0
 11
-16.79575424152358
 21
29.44999999999996
 31
0.0
  0
LINE
  5
F875
330
1F
100
AcDbEntity
  8
AM_0
100
AcDbLine
 10
-17.8957542415236
 20
32.44999999999996
 30
0.0
 11
-17.8957542415236
 21
29.44999999999996
 31
0.0
  0
LINE
  5
F876
330
1F
100
AcDbEntity
  8
AM_3
100
AcDbLine
 10
-12.8288325002394
 20
61.06701499032093
 30
0.0
 11
-1.900000000000147
 21
49.9457542415235
 31
0.0
  0
LINE
  5
F877
330
1F
100
AcDbEntity
  8
AM_3
100
AcDbLine
 10
-22.80000000000001
 20
58.75
 30
0.0
 11
-22.79999999999995
 21
54.40000000000001
 31
0.0
  0
LINE
  5
F878
330
1F
100
AcDbEntity
  8
AM_3
100
AcDbLine
 10
-27.80000000000006
 20
60.75
 30
0.0
 11
-27.79999999999984
 21
54.62549411640762
 31
0.0
  0
LINE
  5
F879
330
1F
100
AcDbEntity
  8
AM_3
100
AcDbLine
 10
-27.18641873035312
 20
54.0
 30
0.0
 11
-23.19999999999995
 21
54.0
 31
0.0
  0
ARC
  5
F87A
330
1F
100
AcDbEntity
  8
AM_0
100
AcDbCircle
 10
-27.39999999999986
 20
54.40000000000001
 30
0.0
 40
0.4
100
AcDbArc
 50
180.0000000000016
 51
270.0
  0
LINE
  5
F87C
330
1F
100
AcDbEntity
  8
AM_0
100
AcDbLine
 10
-35.17157287525382
 20
61.75000000000005
 30
0.0
 11
-28.80000000000006
 21
61.75
 31
0.0
  0
LINE
  5
F87E
330
1F
100
AcDbEntity
  8
AM_3
100
AcDbLine
 10
-27.89339679643251
 20
60.84339679643244
 30
0.0
 11
-27.80000000000006
 21
60.75
 31
0.0
  0
LINE
  5
F87F
330
1F
100
AcDbEntity
  8
AM_0
100
AcDbLine
 10
-19.80000000000006
 20
61.75
 30
0.0
 11
-13.50000000000011
 21
61.75
 31
0.0
  0
LINE
  5
F880
330
1F
100
AcDbEntity
  8
AM_3
100
AcDbLine
 10
-20.5983151071075
 20
60.95168489289256
 30
0.0
 11
-22.80000000000001
 21
58.75
 31
0.0
  0
LINE
  5
F881
330
1F
100
AcDbEntity
  8
AM_3
100
AcDbLine
 10
-1.900000000000147
 20
49.9457542415235
 30
0.0
 11
-1.90000000000009
 21
48.44575424152342
 31
0.0
  0
LINE
  5
FD04
330
1F
100
AcDbEntity
  8
AM_0
100
AcDbLine
 10
-16.79575424152375
 20
24.81471045688502
 30
0.0
 11
-16.79575424152375
 21
24.81471045688506
 31
0.0
  0
DIMENSION
  5
109FB
330
1F
100
AcDbEntity
  8
AM_5
100
AcDbDimension
  2
*D8
 10
-98.19425480144349
 20
-34.99999999999996
 30
0.0
 11
-101.2942548014434
 21
-0.0000000000000078
 31
0.0
 70
    32
  1
%%c<>
  3
AM_JIS
100
AcDbAlignedDimension
 13
-57.70000000000004
 23
34.99999999999997
 33
0.0
 14
-57.70000000000004
 24
-34.99999999999997
 34
0.0
 50
90.0
100
AcDbRotatedDimension
1001
GENIUS_GENDTOL_13
1000

1000
h7
1000

1040
0.0
  0
DIMENSION
  5
109FC
330
1F
100
AcDbEntity
  8
AM_5
100
AcDbDimension
  2
*D5
 10
-108.1942548014434
 20
-61.75
 30
0.0
 11
-111.2942548014434
 21
0.000000000000007
 31
0.0
 70
    32
  1
%%c<>
  3
AM_JIS
100
AcDbAlignedDimension
 13
-35.17157287525378
 23
61.75000000000003
 33
0.0
 14
-35.17157287525378
 24
-61.75000000000003
 34
0.0
 50
90.0
100
AcDbRotatedDimension
1001
GENIUS_GENDTOL_13
1000

1000
h7
1000

1040
0.0
  0
DIMENSION
  5
109FD
330
1F
100
AcDbEntity
  8
AM_5
100
AcDbDimension
  2
*D6
 10
-88.19425480144349
 20
-15.87500000000004
 30
0.0
 11
-91.29425480144348
 21
-0.0000000000000049
 31
0.0
 70
    32
  1
%%c<>
  3
AM_JIS
100
AcDbAlignedDimension
 13
-57.19999999999988
 23
15.87500000000005
 33
0.0
 14
-57.19999999999988
 24
-15.87500000000005
 34
0.0
 50
90.0
100
AcDbRotatedDimension
1001
GENIUS_GENDTOL_13
1000

1000
h7
1000

1040
0.0
  0
DIMENSION
  5
109FE
330
1F
100
AcDbEntity
  8
AM_5
100
AcDbDimension
  2
*D7
 10
-78.19425480144349
 20
-6.349999999999988
 30
0.0
 11
-78.19425480144349
 21
-0.0000000000000426
 31
0.0
 70
   160
  3
AM_JIS
100
AcDbAlignedDimension
 13
-58.69999999999982
 23
6.349999999999994
 33
0.0
 14
-58.69999999999982
 24
-6.349999999999994
 34
0.0
 50
90.0
100
AcDbRotatedDimension
  0
DIMENSION
  5
10A6E
330
1F
100
AcDbEntity
  8
AM_5
100
AcDbDimension
  2
*D9
 10
0.0000000000000825
 20
-95.75000101000004
 30
0.0
 11
-29.99999999999999
 21
-92.65000101000003
 31
0.0
 70
    32
  3
AM_JIS
100
AcDbAlignedDimension
 13
-60.00000000000006
 23
-32.69999999999996
 33
0.0
 14
0.0000000000000853
 24
-49.99999999999997
 34
0.0
100
AcDbRotatedDimension
  0
DIMENSION
  5
10A6F
330
1F
100
AcDbEntity
  8
AM_5
100
AcDbDimension
  2
*D11
 10
-51.99999999999998
 20
-75.75000101000004
 30
0.0
 11
-56.00000000000001
 21
-72.65000101000004
 31
0.0
 70
    32
  3
AM_JIS
100
AcDbAlignedDimension
 13
-60.00000000000006
 23
-32.69999999999996
 33
0.0
 14
-51.99999999999997
 24
-5.350000000000022
 34
0.0
100
AcDbRotatedDimension
  0
DIMENSION
  5
10A70
330
1F
100
AcDbEntity
  8
AM_5
100
AcDbDimension
  2
*D10
 10
-27.99999999999994
 20
-85.75000101000004
 30
0.0
 11
-44.0
 21
-82.65000101000003
 31
0.0
 70
    32
  1
<>
  3
AM_JIS$0
100
AcDbAlignedDimension
 13
-60.00000000000006
 23
-32.69999999999996
 33
0.0
 14
-27.99999999999994
 24
-21.32872029505819
 34
0.0
100
AcDbRotatedDimension
1001
ACAD
1000
DSTYLE
1002
{
1070
    40
1040
1.0
1070
    43
1040
12.0
1070
   140
1040
3.2
1070
   147
1040
1.5
1070
   178
1070
     2
1002
}
1001
GENIUS_GENDTOL_13
1000

1000
h7
1000

1040
0.0
  0
DIMENSION
  5
10B46
330
1F
100
AcDbEntity
  8
AM_5
100
AcDbDimension
  2
*D12
 10
20.86062524488147
 20
-49.99999999999998
 30
0.0
 11
17.76062524488148
 21
0.0000000000000133
 31
0.0
 70
    32
  1
%%c<>
  3
AM_JIS$0
100
AcDbAlignedDimension
 13
-0.0000000000000568
 23
50.0
 33
0.0
 14
0.0000000000000853
 24
-49.99999999999997
 34
0.0
 50
90.0
100
AcDbRotatedDimension
1001
ACAD
1000
DSTYLE
1002
{
1070
    40
1040
1.0
1070
    43
1040
12.0
1070
   140
1040
3.2
1070
   147
1040
1.5
1070
   178
1070
     2
1002
}
1001
GENIUS_GENDTOL_13
1000

1000
h7
1000

1040
0.0
  0
LINE
  5
10BDC
330
1F
100
AcDbEntity
  8
0
100
AcDbLine
 10
-27.9909310000001
 20
60.84194899999999
 30
0.0
 11
-11.94840800000003
 21
61.08008400000006
 31
0.0
  0
LINE
  5
10BDD
330
1F
100
AcDbEntity
  8
0
100
AcDbLine
 10
-27.9981370000001
 20
54.82747800000004
 30
0.0
 11
-27.9909310000001
 21
60.84194899999999
 31
0.0
  0
LINE
  5
10BDE
330
1F
100
AcDbEntity
  8
0
100
AcDbLine
 10
-28.00038200000011
 20
56.46126600000002
 30
0.0
 11
-27.99434300000001
 21
60.48759200000006
 31
0.0
  0
LINE
  5
10BDF
330
1F
100
AcDbEntity
  8
0
100
AcDbLine
 10
-27.99434300000001
 20
60.48759200000006
 30
0.0
 11
-27.9909310000001
 21
60.84194899999999
 31
0.0
  0
LINE
  5
10BE0
330
1F
100
AcDbEntity
  8
0
100
AcDbLine
 10
-27.9981370000001
 20
54.82747800000004
 30
0.0
 11
-28.00038200000011
 21
56.46126600000002
 31
0.0
  0
LINE
  5
10BE1
330
1F
100
AcDbEntity
  8
0
100
AcDbLine
 10
-24.66869600000001
 20
51.43339500000002
 30
0.0
 11
-27.9981370000001
 21
54.82747800000004
 31
0.0
  0
LINE
  5
10BE2
330
1F
100
AcDbEntity
  8
0
100
AcDbLine
 10
-27.03190900000009
 20
53.84249
 30
0.0
 11
-28.00174600000008
 21
52.82751000000008
 31
0.0
  0
LINE
  5
10BE3
330
1F
100
AcDbEntity
  8
0
100
AcDbLine
 10
-26.4369850000001
 20
46.16915800000003
 30
0.0
 11
-28.00659300000001
 21
47.76924099999996
 31
0.0
  0
LINE
  5
10BE4
330
1F
100
AcDbEntity
  8
0
100
AcDbLine
 10
-26.98104900000004
 20
45.55052499999999
 30
0.0
 11
-19.48553300000009
 21
54.07337200000006
 31
0.0
  0
LINE
  5
10BE5
330
1F
100
AcDbEntity
  8
0
100
AcDbLine
 10
-24.66869600000001
 20
51.43339500000002
 30
0.0
 11
-28.00638800000007
 21
47.94034599999998
 31
0.0
  0
LINE
  5
10BE6
330
1F
100
AcDbEntity
  8
0
100
AcDbLine
 10
-28.00174600000008
 20
52.82751000000008
 30
0.0
 11
-28.00965500000001
 21
49.99803399999996
 31
0.0
  0
LINE
  5
10BE7
330
1F
100
AcDbEntity
  8
0
100
AcDbLine
 10
-28.00659300000001
 20
47.76924099999996
 30
0.0
 11
-28.00638800000007
 21
47.94034599999998
 31
0.0
  0
LINE
  5
10BE8
330
1F
100
AcDbEntity
  8
0
100
AcDbLine
 10
-28.00174600000008
 20
52.82751000000008
 30
0.0
 11
-28.00638800000007
 21
47.94034599999998
 31
0.0
  0
LINE
  5
10BE9
330
1F
100
AcDbEntity
  8
0
100
AcDbLine
 10
-28.00965500000001
 20
49.99803399999996
 30
0.0
 11
-28.00659300000001
 21
47.76924099999996
 31
0.0
  0
LINE
  5
10BEA
330
1F
100
AcDbEntity
  8
0
100
AcDbLine
 10
-17.72477500000007
 20
35.33799599999997
 30
0.0
 11
-25.40213099999999
 21
43.16440899999998
 31
0.0
  0
LINE
  5
10BEB
330
1F
100
AcDbEntity
  8
0
100
AcDbLine
 10
-25.40213099999999
 20
43.16440899999998
 30
0.0
 11
-17.73799200000001
 21
51.87899200000003
 31
0.0
  0
LINE
  5
10BEC
330
1F
100
AcDbEntity
  8
0
100
AcDbLine
 10
-26.98104900000004
 20
45.55052499999999
 30
0.0
 11
-25.40213099999999
 21
43.16440899999998
 31
0.0
  0
ELLIPSE
  5
10BED
330
1F
100
AcDbEntity
  8
0
100
AcDbEllipse
 10
-11.10612600000007
 20
66.77990900000009
 30
0.0
 11
4.912310639624999
 21
15.39751041805899
 31
0.0
210
0.0
220
0.0
230
1.0
 40
0.6041594790782402
 41
2.705903463571339
 42
2.832525728958549
  0
ELLIPSE
  5
10BEE
330
1F
100
AcDbEntity
  8
0
100
AcDbEllipse
 10
-11.10612600000007
 20
66.77990900000009
 30
0.0
 11
4.912310639624999
 21
15.39751041805899
 31
0.0
210
0.0
220
0.0
230
1.0
 40
0.6041594790782402
 41
2.832525728958549
 42
2.92662030172964
  0
ELLIPSE
  5
10BEF
330
1F
100
AcDbEntity
  8
0
100
AcDbEllipse
 10
-9.160731999999995
 20
64.79674499999998
 30
0.0
 11
10.708083557212
 21
10.50413949506399
 31
0.0
210
0.0
220
0.0
230
1.0
 40
0.22430953333333
 41
3.2682182039545
 42
4.045883524539719
  0
LINE
  5
10BF0
330
1F
100
AcDbEntity
  8
0
100
AcDbLine
 10
-3.69253400000008
 20
45.97952899999995
 30
0.0
 11
-13.92900900000012
 21
56.41474600000004
 31
0.0
  0
LINE
  5
10BF1
330
1F
100
AcDbEntity
  8
0
100
AcDbLine
 10
-13.84837300000009
 20
56.43914600000005
 30
0.0
 11
-11.11864600000006
 21
53.65642200000002
 31
0.0
  0
LINE
  5
10BF2
330
1F
100
AcDbEntity
  8
0
100
AcDbLine
 10
-9.806346000000019
 20
44.12952500000005
 30
0.0
 11
-17.889789
 21
52.36990900000001
 31
0.0
  0
LINE
  5
10BF3
330
1F
100
AcDbEntity
  8
0
100
AcDbLine
 10
-10.0606350000001
 20
44.05257900000004
 30
0.0
 11
-17.73799200000001
 21
51.87899200000003
 31
0.0
  0
LINE
  5
10BF4
330
1F
100
AcDbEntity
  8
0
100
AcDbLine
 10
-17.889789
 20
52.36990900000001
 30
0.0
 11
-17.73799200000001
 21
51.87899200000003
 31
0.0
  0
LINE
  5
10BF5
330
1F
100
AcDbEntity
  8
0
100
AcDbLine
 10
-13.92900900000012
 20
56.41474600000004
 30
0.0
 11
-13.84837300000009
 21
56.43914600000005
 31
0.0
  0
LINE
  5
10BF6
330
1F
100
AcDbEntity
  8
0
100
AcDbLine
 10
-17.72477500000007
 20
35.33799599999997
 30
0.0
 11
-10.0606350000001
 21
44.05257900000004
 31
0.0
  0
LINE
  5
10BF7
330
1F
100
AcDbEntity
  8
0
100
AcDbLine
 10
-14.50287100000008
 20
34.60602200000005
 30
0.0
 11
-17.72477500000007
 21
35.33799599999997
 31
0.0
  0
LINE
  5
10BF8
330
1F
100
AcDbEntity
  8
0
100
AcDbLine
 10
-3.479680000000087
 20
46.04393700000002
 30
0.0
 11
-10.9864280000001
 21
53.69642999999996
 31
0.0
  0
LINE
  5
10BF9
330
1F
100
AcDbEntity
  8
0
100
AcDbLine
 10
-11.54873700000001
 20
54.09486300000003
 30
0.0
 11
-8.853939000000025
 21
56.91509300000006
 31
0.0
  0
LINE
  5
10BFA
330
1F
100
AcDbEntity
  8
0
100
AcDbLine
 10
-11.11864600000006
 20
53.65642200000002
 30
0.0
 11
-10.9864280000001
 21
53.69642999999996
 31
0.0
  0
ELLIPSE
  5
10BFB
330
1F
100
AcDbEntity
  8
0
100
AcDbEllipse
 10
1.075742999999931
 20
54.36152800000002
 30
0.0
 11
10.708083557212
 21
10.50413949506399
 31
0.0
210
0.0
220
0.0
230
1.0
 40
0.22430953333333
 41
3.14159419794193
 42
4.045883524539719
  0
ELLIPSE
  5
10BFC
330
1F
100
AcDbEntity
  8
0
100
AcDbEllipse
 10
1.075742999999931
 20
54.36152800000002
 30
0.0
 11
10.708083557212
 21
10.50413949506399
 31
0.0
210
0.0
220
0.0
230
1.0
 40
0.22430953333333
 41
3.047498109911159
 42
3.14159419794193
  0
LINE
  5
10BFD
330
1F
100
AcDbEntity
  8
0
100
AcDbLine
 10
-9.806346000000019
 20
44.12952500000005
 30
0.0
 11
-10.0606350000001
 21
44.05257900000004
 31
0.0
  0
LINE
  5
10BFE
330
1F
100
AcDbEntity
  8
0
100
AcDbLine
 10
-12.54649
 20
34.66009499999995
 30
0.0
 11
-1.255325000000027
 21
46.47682099999997
 31
0.0
  0
LINE
  5
10BFF
330
1F
100
AcDbEntity
  8
0
100
AcDbLine
 10
-0.1870570000000384
 20
48.07994200000007
 30
0.0
 11
-6.755437000000085
 21
41.20582899999999
 31
0.0
  0
LINE
  5
10C00
330
1F
100
AcDbEntity
  8
0
100
AcDbLine
 10
-3.479680000000087
 20
46.04393700000002
 30
0.0
 11
-7.584417000000087
 21
41.74814000000004
 31
0.0
  0
LINE
  5
10C01
330
1F
100
AcDbEntity
  8
0
100
AcDbLine
 10
-3.69253400000008
 20
45.97952899999995
 30
0.0
 11
-3.479680000000087
 21
46.04393700000002
 31
0.0
  0
LINE
  5
10C02
330
1F
100
AcDbEntity
  8
0
100
AcDbLine
 10
-7.03828100000004
 20
41.20163000000002
 30
0.0
 11
-13.88992000000001
 21
34.03107299999999
 31
0.0
  0
LINE
  5
10C03
330
1F
100
AcDbEntity
  8
0
100
AcDbLine
 10
-7.661642000000085
 20
41.76568399999996
 30
0.0
 11
-14.50287100000008
 21
34.60602200000005
 31
0.0
  0
LINE
  5
10C04
330
1F
100
AcDbEntity
  8
0
100
AcDbLine
 10
-8.217332999999996
 20
41.18412799999998
 30
0.0
 11
-6.755437000000085
 21
41.20582899999999
 31
0.0
  0
LINE
  5
10C05
330
1F
100
AcDbEntity
  8
0
100
AcDbLine
 10
-7.389357000000075
 20
41.19641899999999
 30
0.0
 11
-8.312812000000064
 21
40.91698600000007
 31
0.0
  0
LINE
  5
10C06
330
1F
100
AcDbEntity
  8
0
100
AcDbLine
 10
-7.661642000000085
 20
41.76568399999996
 30
0.0
 11
-7.584417000000087
 21
41.74814000000004
 31
0.0
  0
LINE
  5
10C07
330
1F
100
AcDbEntity
  8
0
100
AcDbLine
 10
-8.312812000000064
 20
40.91698600000007
 30
0.0
 11
-14.71365100000008
 21
34.21821299999999
 31
0.0
  0
LINE
  5
10C08
330
1F
100
AcDbEntity
  8
0
100
AcDbLine
 10
-8.312812000000064
 20
40.91698600000007
 30
0.0
 11
-8.39375200000012
 21
40.99949800000001
 31
0.0
  0
LINE
  5
10C09
330
1F
100
AcDbEntity
  8
0
100
AcDbLine
 10
-13.88992000000001
 20
34.03107299999999
 30
0.0
 11
-14.71365100000008
 21
34.21821299999999
 31
0.0
  0
LINE
  5
10C0A
330
1F
100
AcDbEntity
  8
0
100
AcDbLine
 10
-14.71365100000008
 20
34.21821299999999
 30
0.0
 11
-15.26361200000013
 21
34.77885200000002
 31
0.0
  0
LINE
  5
10C0B
330
1F
100
AcDbEntity
  8
0
100
AcDbLine
 10
-13.88992000000001
 20
34.03107299999999
 30
0.0
 11
-12.54649
 21
34.66009499999995
 31
0.0
  0
LINE
  5
10C0C
330
1F
100
AcDbEntity
  8
0
100
AcDbLine
 10
-6.997641000000101
 20
57.13350100000003
 30
0.0
 11
-8.407660000000021
 21
57.112571
 31
0.0
  0
LINE
  5
10C0D
330
1F
100
AcDbEntity
  8
0
100
AcDbLine
 10
-8.608615000000042
 20
57.02364799999998
 30
0.0
 11
-8.293119999999987
 21
57.35382800000002
 31
0.0
  0
LINE
  5
10C0E
330
1F
100
AcDbEntity
  8
0
100
AcDbLine
 10
-8.293119999999987
 20
57.35382800000002
 30
0.0
 11
-7.873627000000112
 21
57.12049799999999
 31
0.0
  0
LINE
  5
10C0F
330
1F
100
AcDbEntity
  8
0
100
AcDbLine
 10
-6.997641000000101
 20
57.13350100000003
 30
0.0
 11
-6.551819000000079
 21
56.94926499999997
 31
0.0
  0
LINE
  5
10C10
330
1F
100
AcDbEntity
  8
0
100
AcDbLine
 10
-8.853939000000025
 20
56.91509300000006
 30
0.0
 11
-8.407660000000021
 21
57.112571
 31
0.0
  0
LINE
  5
10C11
330
1F
100
AcDbEntity
  8
0
100
AcDbLine
 10
-11.94840800000003
 20
61.08008400000006
 30
0.0
 11
-8.293119999999987
 21
57.35382800000002
 31
0.0
  0
LINE
  5
10C12
330
1F
100
AcDbEntity
  8
0
100
AcDbLine
 10
-11.18388300000009
 20
60.90639400000009
 30
0.0
 11
-7.475882000000126
 21
57.12640199999999
 31
0.0
  0
LINE
  5
10C13
330
1F
100
AcDbEntity
  8
0
100
AcDbLine
 10
-11.94840800000003
 20
61.08008400000006
 30
0.0
 11
-11.18388300000009
 21
60.90639400000009
 31
0.0
  0
LINE
  5
10C14
330
1F
100
AcDbEntity
  8
0
100
AcDbLine
 10
-6.551819000000079
 20
56.94926499999997
 30
0.0
 11
-0.1842080000000692
 21
50.45802700000002
 31
0.0
  0
LINE
  5
10C16
330
1F
100
AcDbEntity
  8
0
100
AcDbLine
 10
-0.6775120000000357
 20
47.56665799999995
 30
0.0
 11
-1.255325000000027
 21
46.47682099999997
 31
0.0
  0
LINE
  5
10C17
330
1F
100
AcDbEntity
  8
0
100
AcDbLine
 10
-0.1842080000000692
 20
50.45802700000002
 30
0.0
 11
-0.0000000000000568
 21
50.0
 31
0.0
  0
LINE
  5
10C18
330
1F
100
AcDbEntity
  8
0
100
AcDbLine
 10
-0.0017450000000849
 20
48.54345399999999
 30
0.0
 11
-0.1870570000000384
 21
48.07994200000007
 31
0.0
  0
LINE
  5
10C19
330
1F
100
AcDbEntity
  8
0
100
AcDbLine
 10
-0.0017450000000849
 20
48.54345399999999
 30
0.0
 11
-0.0000000000000568
 21
50.0
 31
0.0
  0
LINE
  5
10C1A
330
1F
100
AcDbEntity
  8
AM_11
100
AcDbLine
 10
-0.0000000000000568
 20
50.0
 30
0.0
 11
0.0000000000000853
 21
-49.99999999999997
 31
0.0
  0
LINE
  5
10C45
330
1F
100
AcDbEntity
  8
0
100
AcDbLine
 10
-27.99813699999992
 20
-54.82747800000007
 30
0.0
 11
-27.9909309999999
 21
-60.84194900000003
 31
0.0
  0
LINE
  5
10C46
330
1F
100
AcDbEntity
  8
0
100
AcDbLine
 10
-27.9909309999999
 20
-60.84194900000003
 30
0.0
 11
-11.94840799999983
 21
-61.08008400000006
 31
0.0
  0
LINE
  5
10C47
330
1F
100
AcDbEntity
  8
0
100
AcDbLine
 10
-28.00038199999994
 20
-56.46126600000005
 30
0.0
 11
-27.99434299999981
 21
-60.48759200000009
 31
0.0
  0
LINE
  5
10C48
330
1F
100
AcDbEntity
  8
0
100
AcDbLine
 10
-27.99813699999992
 20
-54.82747800000007
 30
0.0
 11
-28.00038199999994
 21
-56.46126600000005
 31
0.0
  0
LINE
  5
10C49
330
1F
100
AcDbEntity
  8
0
100
AcDbLine
 10
-24.66869599999984
 20
-51.43339500000005
 30
0.0
 11
-27.99813699999992
 21
-54.82747800000007
 31
0.0
  0
LINE
  5
10C4A
330
1F
100
AcDbEntity
  8
0
100
AcDbLine
 10
-28.00174599999991
 20
-52.8275100000001
 30
0.0
 11
-28.00638799999993
 21
-47.940346
 31
0.0
  0
LINE
  5
10C4B
330
1F
100
AcDbEntity
  8
0
100
AcDbLine
 10
-28.00174599999991
 20
-52.8275100000001
 30
0.0
 11
-28.00965499999986
 21
-49.99803399999999
 31
0.0
  0
LINE
  5
10C4C
330
1F
100
AcDbEntity
  8
0
100
AcDbLine
 10
-27.03190899999992
 20
-53.84249000000003
 30
0.0
 11
-28.00174599999991
 21
-52.8275100000001
 31
0.0
  0
LINE
  5
10C4D
330
1F
100
AcDbEntity
  8
0
100
AcDbLine
 10
-25.40213099999985
 20
-43.164409
 30
0.0
 11
-17.73799199999984
 21
-51.87899200000003
 31
0.0
  0
LINE
  5
10C4E
330
1F
100
AcDbEntity
  8
0
100
AcDbLine
 10
-17.72477499999996
 20
-35.33799599999999
 30
0.0
 11
-25.40213099999985
 21
-43.164409
 31
0.0
  0
LINE
  5
10C4F
330
1F
100
AcDbEntity
  8
0
100
AcDbLine
 10
-26.98104899999989
 20
-45.55052500000002
 30
0.0
 11
-19.48553299999991
 21
-54.07337200000009
 31
0.0
  0
LINE
  5
10C50
330
1F
100
AcDbEntity
  8
0
100
AcDbLine
 10
-26.43698499999996
 20
-46.16915800000007
 30
0.0
 11
-28.00659299999987
 21
-47.76924099999999
 31
0.0
  0
LINE
  5
10C51
330
1F
100
AcDbEntity
  8
0
100
AcDbLine
 10
-26.98104899999989
 20
-45.55052500000002
 30
0.0
 11
-25.40213099999985
 21
-43.164409
 31
0.0
  0
LINE
  5
10C52
330
1F
100
AcDbEntity
  8
0
100
AcDbLine
 10
-28.00965499999986
 20
-49.99803399999999
 30
0.0
 11
-28.00659299999987
 21
-47.76924099999999
 31
0.0
  0
LINE
  5
10C53
330
1F
100
AcDbEntity
  8
0
100
AcDbLine
 10
-28.00659299999987
 20
-47.76924099999999
 30
0.0
 11
-28.00638799999993
 21
-47.940346
 31
0.0
  0
LINE
  5
10C54
330
1F
100
AcDbEntity
  8
0
100
AcDbLine
 10
-24.66869599999984
 20
-51.43339500000005
 30
0.0
 11
-28.00638799999993
 21
-47.940346
 31
0.0
  0
ELLIPSE
  5
10C55
330
1F
100
AcDbEntity
  8
0
100
AcDbEllipse
 10
-9.160731999999796
 20
-64.79674499999996
 30
0.0
 11
10.70808355721203
 21
-10.50413949506396
 31
0.0
210
0.0
220
0.0
230
-1.0
 40
0.22430953333333
 41
3.2682182039545
 42
4.045883524539719
  0
ELLIPSE
  5
10C56
330
1F
100
AcDbEntity
  8
0
100
AcDbEllipse
 10
-11.10612599999987
 20
-66.77990900000009
 30
0.0
 11
4.912310639625045
 21
-15.39751041805897
 31
0.0
210
0.0
220
0.0
230
-0.9999999999999998
 40
0.6041594790782402
 41
2.832525728958549
 42
2.92662030172964
  0
ELLIPSE
  5
10C57
330
1F
100
AcDbEntity
  8
0
100
AcDbEllipse
 10
-11.10612599999987
 20
-66.77990900000009
 30
0.0
 11
4.912310639625045
 21
-15.39751041805897
 31
0.0
210
0.0
220
0.0
230
-0.9999999999999998
 40
0.6041594790782402
 41
2.705903463571339
 42
2.832525728958549
  0
LINE
  5
10C58
330
1F
100
AcDbEntity
  8
0
100
AcDbLine
 10
-10.06063499999996
 20
-44.05257900000004
 30
0.0
 11
-17.73799199999984
 21
-51.87899200000003
 31
0.0
  0
LINE
  5
10C59
330
1F
100
AcDbEntity
  8
0
100
AcDbLine
 10
-9.806345999999876
 20
-44.12952500000005
 30
0.0
 11
-17.88978899999983
 21
-52.36990900000001
 31
0.0
  0
LINE
  5
10C5A
330
1F
100
AcDbEntity
  8
0
100
AcDbLine
 10
-3.692533999999938
 20
-45.97952899999993
 30
0.0
 11
-13.92900899999995
 21
-56.41474600000004
 31
0.0
  0
LINE
  5
10C5B
330
1F
100
AcDbEntity
  8
0
100
AcDbLine
 10
-13.84837299999992
 20
-56.43914600000005
 30
0.0
 11
-11.11864599999989
 21
-53.65642200000002
 31
0.0
  0
LINE
  5
10C5C
330
1F
100
AcDbEntity
  8
0
100
AcDbLine
 10
-13.92900899999995
 20
-56.41474600000004
 30
0.0
 11
-13.84837299999992
 21
-56.43914600000005
 31
0.0
  0
LINE
  5
10C5D
330
1F
100
AcDbEntity
  8
0
100
AcDbLine
 10
-17.88978899999983
 20
-52.36990900000001
 30
0.0
 11
-17.73799199999984
 21
-51.87899200000003
 31
0.0
  0
ELLIPSE
  5
10C5E
330
1F
100
AcDbEntity
  8
0
100
AcDbEllipse
 10
1.075743000000102
 20
-54.36152799999996
 30
0.0
 11
10.70808355721203
 21
-10.50413949506396
 31
0.0
210
0.0
220
0.0
230
-1.0
 40
0.22430953333333
 41
3.047498109911159
 42
3.14159419794193
  0
ELLIPSE
  5
10C5F
330
1F
100
AcDbEntity
  8
0
100
AcDbEllipse
 10
1.075743000000102
 20
-54.36152799999996
 30
0.0
 11
10.70808355721203
 21
-10.50413949506396
 31
0.0
210
0.0
220
0.0
230
-1.0
 40
0.22430953333333
 41
3.14159419794193
 42
4.045883524539719
  0
LINE
  5
10C60
330
1F
100
AcDbEntity
  8
0
100
AcDbLine
 10
-17.72477499999996
 20
-35.33799599999999
 30
0.0
 11
-10.06063499999996
 21
-44.05257900000004
 31
0.0
  0
LINE
  5
10C61
330
1F
100
AcDbEntity
  8
0
100
AcDbLine
 10
-9.806345999999876
 20
-44.12952500000005
 30
0.0
 11
-10.06063499999996
 21
-44.05257900000004
 31
0.0
  0
LINE
  5
10C62
330
1F
100
AcDbEntity
  8
0
100
AcDbLine
 10
-14.50287099999997
 20
-34.60602200000005
 30
0.0
 11
-17.72477499999996
 21
-35.33799599999999
 31
0.0
  0
LINE
  5
10C63
330
1F
100
AcDbEntity
  8
0
100
AcDbLine
 10
-8.312811999999922
 20
-40.91698600000003
 30
0.0
 11
-14.71365099999997
 21
-34.21821299999999
 31
0.0
  0
LINE
  5
10C64
330
1F
100
AcDbEntity
  8
0
100
AcDbLine
 10
-7.661641999999943
 20
-41.76568399999993
 30
0.0
 11
-14.50287099999997
 21
-34.60602200000005
 31
0.0
  0
LINE
  5
10C65
330
1F
100
AcDbEntity
  8
0
100
AcDbLine
 10
-7.038280999999898
 20
-41.20162999999999
 30
0.0
 11
-13.8899199999999
 21
-34.03107299999999
 31
0.0
  0
LINE
  5
10C66
330
1F
100
AcDbEntity
  8
0
100
AcDbLine
 10
-12.54648999999989
 20
-34.66009499999995
 30
0.0
 11
-1.255324999999885
 21
-46.47682099999994
 31
0.0
  0
LINE
  5
10C67
330
1F
100
AcDbEntity
  8
0
100
AcDbLine
 10
-13.8899199999999
 20
-34.03107299999999
 30
0.0
 11
-12.54648999999989
 21
-34.66009499999995
 31
0.0
  0
LINE
  5
10C68
330
1F
100
AcDbEntity
  8
0
100
AcDbLine
 10
-14.71365099999997
 20
-34.21821299999999
 30
0.0
 11
-15.26361200000002
 21
-34.77885200000002
 31
0.0
  0
LINE
  5
10C69
330
1F
100
AcDbEntity
  8
0
100
AcDbLine
 10
-13.8899199999999
 20
-34.03107299999999
 30
0.0
 11
-14.71365099999997
 21
-34.21821299999999
 31
0.0
  0
LINE
  5
10C6A
330
1F
100
AcDbEntity
  8
0
100
AcDbLine
 10
-0.1870569999998963
 20
-48.07994200000004
 30
0.0
 11
-6.755436999999943
 21
-41.20582899999996
 31
0.0
  0
LINE
  5
10C6B
330
1F
100
AcDbEntity
  8
0
100
AcDbLine
 10
-7.661641999999943
 20
-41.76568399999993
 30
0.0
 11
-7.584416999999945
 21
-41.74814
 31
0.0
  0
LINE
  5
10C6C
330
1F
100
AcDbEntity
  8
0
100
AcDbLine
 10
-7.389356999999932
 20
-41.19641899999996
 30
0.0
 11
-8.312811999999922
 21
-40.91698600000003
 31
0.0
  0
LINE
  5
10C6D
330
1F
100
AcDbEntity
  8
0
100
AcDbLine
 10
-8.217332999999854
 20
-41.18412799999996
 30
0.0
 11
-6.755436999999943
 21
-41.20582899999996
 31
0.0
  0
LINE
  5
10C6E
330
1F
100
AcDbEntity
  8
0
100
AcDbLine
 10
-3.479679999999945
 20
-46.043937
 30
0.0
 11
-7.584416999999945
 21
-41.74814
 31
0.0
  0
LINE
  5
10C6F
330
1F
100
AcDbEntity
  8
0
100
AcDbLine
 10
-8.312811999999922
 20
-40.91698600000003
 30
0.0
 11
-8.393751999999977
 21
-40.99949799999999
 31
0.0
  0
LINE
  5
10C70
330
1F
100
AcDbEntity
  8
0
100
AcDbLine
 10
-3.479679999999945
 20
-46.043937
 30
0.0
 11
-10.98642799999993
 21
-53.69642999999996
 31
0.0
  0
LINE
  5
10C71
330
1F
100
AcDbEntity
  8
0
100
AcDbLine
 10
-3.692533999999938
 20
-45.97952899999993
 30
0.0
 11
-3.479679999999945
 21
-46.043937
 31
0.0
  0
LINE
  5
10C72
330
1F
100
AcDbEntity
  8
0
100
AcDbLine
 10
-11.18388299999989
 20
-60.90639400000009
 30
0.0
 11
-7.475881999999955
 21
-57.12640199999995
 31
0.0
  0
LINE
  5
10C73
330
1F
100
AcDbEntity
  8
0
100
AcDbLine
 10
-11.94840799999983
 20
-61.08008400000006
 30
0.0
 11
-8.293119999999817
 21
-57.353828
 31
0.0
  0
LINE
  5
10C74
330
1F
100
AcDbEntity
  8
0
100
AcDbLine
 10
-8.853938999999854
 20
-56.91509300000004
 30
0.0
 11
-8.40765999999985
 21
-57.11257099999997
 31
0.0
  0
LINE
  5
10C75
330
1F
100
AcDbEntity
  8
0
100
AcDbLine
 10
-8.608614999999872
 20
-57.02364799999995
 30
0.0
 11
-8.293119999999817
 21
-57.353828
 31
0.0
  0
LINE
  5
10C76
330
1F
100
AcDbEntity
  8
0
100
AcDbLine
 10
-6.99764099999993
 20
-57.13350099999999
 30
0.0
 11
-6.551818999999909
 21
-56.94926499999994
 31
0.0
  0
LINE
  5
10C77
330
1F
100
AcDbEntity
  8
0
100
AcDbLine
 10
-8.293119999999817
 20
-57.353828
 30
0.0
 11
-7.873626999999942
 21
-57.12049799999997
 31
0.0
  0
LINE
  5
10C78
330
1F
100
AcDbEntity
  8
0
100
AcDbLine
 10
-6.99764099999993
 20
-57.13350099999999
 30
0.0
 11
-8.40765999999985
 21
-57.11257099999997
 31
0.0
  0
LINE
  5
10C79
330
1F
100
AcDbEntity
  8
0
100
AcDbLine
 10
-11.54873699999984
 20
-54.09486300000003
 30
0.0
 11
-8.853938999999854
 21
-56.91509300000004
 31
0.0
  0
LINE
  5
10C7A
330
1F
100
AcDbEntity
  8
0
100
AcDbLine
 10
-11.11864599999989
 20
-53.65642200000002
 30
0.0
 11
-10.98642799999993
 21
-53.69642999999996
 31
0.0
  0
LINE
  5
10C7B
330
1F
100
AcDbEntity
  8
0
100
AcDbLine
 10
-11.94840799999983
 20
-61.08008400000006
 30
0.0
 11
-11.18388299999989
 21
-60.90639400000009
 31
0.0
  0
LINE
  5
10C7C
330
1F
100
AcDbEntity
  8
0
100
AcDbLine
 10
-6.551818999999909
 20
-56.94926499999994
 30
0.0
 11
-0.1842079999998987
 21
-50.45802699999999
 31
0.0
  0
LINE
  5
10C7D
330
1F
100
AcDbEntity
  8
0
100
AcDbLine
 10
-0.6775119999998936
 20
-47.56665799999993
 30
0.0
 11
-1.255324999999885
 21
-46.47682099999994
 31
0.0
  0
LINE
  5
10C7E
330
1F
100
AcDbEntity
  8
0
100
AcDbLine
 10
-0.0017449999999428
 20
-48.54345399999997
 30
0.0
 11
0.0000000000000853
 21
-49.99999999999997
 31
0.0
  0
LINE
  5
10C7F
330
1F
100
AcDbEntity
  8
0
100
AcDbLine
 10
-0.0017449999999428
 20
-48.54345399999997
 30
0.0
 11
-0.1870569999998963
 21
-48.07994200000004
 31
0.0
  0
LINE
  5
10C80
330
1F
100
AcDbEntity
  8
0
100
AcDbLine
 10
-0.1842079999998987
 20
-50.45802699999999
 30
0.0
 11
0.0000000000000853
 21
-49.99999999999997
 31
0.0
  0
LINE
  5
10CEA
330
1F
100
AcDbEntity
  8
AM_0
100
AcDbLine
 10
-28.80000000000006
 20
61.75
 30
0.0
 11
-27.89339679643251
 21
60.84339679643244
 31
0.0
  0
LINE
  5
10CEB
330
1F
100
AcDbEntity
  8
AM_0
100
AcDbLine
 10
-20.5983151071075
 20
60.95168489289256
 30
0.0
 11
-19.80000000000006
 21
61.75
 31
0.0
  0
LINE
  5
10CEC
330
1F
100
AcDbEntity
  8
AM_0
100
AcDbLine
 10
-13.50000000000011
 20
61.75
 30
0.0
 11
-12.81718784345292
 21
61.06718784345281
 31
0.0
  0
LINE
  5
10CED
330
1F
100
AcDbEntity
  8
AM_0
100
AcDbLine
 10
-17.8957542415236
 20
32.44999999999996
 30
0.0
 11
-15.51075444544511
 21
34.83499979607843
 31
0.0
  0
LINE
  5
10CEE
330
1F
100
AcDbEntity
  8
AM_0
100
AcDbLine
 10
-1.900000000000062
 20
45.80213881848457
 30
0.0
 11
-1.900000000000034
 21
0.0
 31
0.0
  0
LINE
  5
10CEF
330
1F
100
AcDbEntity
  8
AM_0
100
AcDbLine
 10
-1.900000000000034
 20
0.0
 30
0.0
 11
-1.90000000000009
 21
-45.80213881848436
 31
0.0
  0
LINE
  5
10CF0
330
1F
100
AcDbEntity
  8
AM_0
100
AcDbLine
 10
-17.8957542415236
 20
-32.44999999999996
 30
0.0
 11
-15.51075444544511
 21
-34.83499979607846
 31
0.0
  0
LINE
  5
10CF2
330
1F
100
AcDbEntity
  8
AM_0
100
AcDbLine
 10
-20.59831510710748
 20
-60.95168489289257
 30
0.0
 11
-19.80000000000006
 21
-61.75
 31
0.0
  0
LINE
  5
10CF3
330
1F
100
AcDbEntity
  8
AM_0
100
AcDbLine
 10
-13.50000000000011
 20
-61.75
 30
0.0
 11
-12.8288325002394
 21
-61.06701499032093
 31
0.0
  0
LINE
  5
10CF4
330
1F
100
AcDbEntity
  8
AM_0
100
AcDbLine
 10
-27.79999999999984
 20
-54.62549411640782
 30
0.0
 11
-27.79999999999984
 21
-54.40000000000001
 31
0.0
  0
LINE
  5
10CF5
330
1F
100
AcDbEntity
  8
AM_0
100
AcDbLine
 10
-27.39999999999986
 20
-54.00000000000001
 30
0.0
 11
-27.18641873035292
 21
-54.0
 31
0.0
  0
LINE
  5
10CF6
330
1F
100
AcDbEntity
  8
AM_0
100
AcDbLine
 10
-28.80000000000006
 20
-61.75
 30
0.0
 11
-27.89339679643251
 21
-60.84339679643246
 31
0.0
  0
LINE
  5
10CF7
330
1F
100
AcDbEntity
  8
AM_0
100
AcDbLine
 10
-27.79999999999984
 20
54.40000000000001
 30
0.0
 11
-27.79999999999984
 21
54.62549411640762
 31
0.0
  0
LINE
  5
10CF8
330
1F
100
AcDbEntity
  8
AM_0
100
AcDbLine
 10
-27.39999999999986
 20
54.0
 30
0.0
 11
-27.18641873035312
 21
54.0
 31
0.0
  0
DIMENSION
  5
10D55
330
1F
100
AcDbEntity
  8
AM_5
100
AcDbDimension
  2
*D13
 10
-0.1842079999998987
 20
-50.45802699999999
 30
0.0
 11
-11.09077550983703
 21
-77.41406154259116
 31
0.0
 70
   162
  1
45%%d
  3
AM_JIS$2
100
AcDb2LineAngularDimension
 13
-0.0000000000000568
 23
50.0
 33
0.0
 14
0.0000000000000853
 24
-49.99999999999997
 34
0.0
 15
-6.551818999999909
 25
-56.94926499999994
 35
0.0
 16
-14.49805190146152
 26
-75.75746879742431
 36
0.0
1001
ACAD
1000
DSTYLE
1002
{
1070
   179
1070
     3
1002
}
1001
GENIUS_GENDTOL_13
1000

1000
h7
1000

1040
0.0
  0
ARC
  5
10F19
330
1F
100
AcDbEntity
  8
AM_0
100
AcDbCircle
 10
-35.17157287525384
 20
59.75000000000004
 30
0.0
 40
2.0
100
AcDbArc
 50
89.99999999999948
 51
135.0000000000003
1001
GENIUS_GENODEF_13
1002
{
1000
HIER
1070
     0
1002
}
1002
{
1000
MANEDIT
1070
     0
1002
}
1002
{
1000
NOSEL
1070
     0
1002
}
1002
{
1000
BEHIND
1070
     0
1002
}
1002
{
1000
REACTOR
1002
}
1001
GENIUS_GENOBJ-N-FIL_13
1002
{
1000
OWNER
1000
GEN
1002
}
  0
ARC
  5
10F1C
330
1F
100
AcDbEntity
  8
AM_0
100
AcDbCircle
 10
-52.51729889353191
 20
37.99999999999998
 30
0.0
 40
3.0
100
AcDbArc
 50
270.0000000000001
 51
350.0000000000002
1001
GENIUS_GENODEF_13
1002
{
1000
HIER
1070
     0
1002
}
1002
{
1000
MANEDIT
1070
     0
1002
}
1002
{
1000
NOSEL
1070
     0
1002
}
1002
{
1000
BEHIND
1070
     0
1002
}
1002
{
1000
REACTOR
1002
}
1001
GENIUS_GENOBJ-N-FIL_13
1002
{
1000
OWNER
1000
GEN
1002
}
  0
LINE
  5
10F1F
330
1F
100
AcDbEntity
  8
AM_0
100
AcDbLine
 10
-57.70000000000007
 20
34.99999999999998
 30
0.0
 11
-60.00000000000005
 21
32.69999999999997
 31
0.0
1001
GENIUS_GENFIL_13
1070
     0
1040
2.299999999999999
1040
2.299999999999999
1040
20.0
1040
0.0
1002
{
1002
}
1001
GENIUS_GENODEF_13
1002
{
1000
HIER
1070
     0
1002
}
1002
{
1000
MANEDIT
1070
     0
1002
}
1002
{
1000
NOSEL
1070
     0
1002
}
1002
{
1000
BEHIND
1070
     0
1002
}
1002
{
1000
REACTOR
1002
}
1001
GENIUS_GENOBJ-N-CHA_13
1002
{
1000
OWNER
1000
GEN
1002
}
  0
LINE
  5
10F22
330
1F
100
AcDbEntity
  8
AM_0
100
AcDbLine
 10
-59.99999999999992
 20
18.67500000000002
 30
0.0
 11
-57.1999999999999
 21
15.87500000000002
 31
0.0
1001
GENIUS_GENFIL_13
1070
     0
1040
2.799999999999999
1040
2.799999999999999
1040
20.0
1040
0.0
1002
{
1002
}
1001
GENIUS_GENODEF_13
1002
{
1000
HIER
1070
     0
1002
}
1002
{
1000
MANEDIT
1070
     0
1002
}
1002
{
1000
NOSEL
1070
     0
1002
}
1002
{
1000
BEHIND
1070
     0
1002
}
1002
{
1000
REACTOR
1002
}
1001
GENIUS_GENOBJ-N-CHA_13
1002
{
1000
OWNER
1000
GEN
1002
}
  0
LINE
  5
10F25
330
1F
100
AcDbEntity
  8
AM_0
100
AcDbLine
 10
-58.69999999999982
 20
6.349999999999995
 30
0.0
 11
-59.99999999999983
 21
7.649999999999988
 31
0.0
1001
GENIUS_GENFIL_13
1070
     0
1040
1.3
1040
1.3
1040
20.0
1040
0.0
1002
{
1002
}
1001
GENIUS_GENODEF_13
1002
{
1000
HIER
1070
     0
1002
}
1002
{
1000
MANEDIT
1070
     0
1002
}
1002
{
1000
NOSEL
1070
     0
1002
}
1002
{
1000
BEHIND
1070
     0
1002
}
1002
{
1000
REACTOR
1002
}
1001
GENIUS_GENOBJ-N-CHA_13
1002
{
1000
OWNER
1000
GEN
1002
}
  0
ARC
  5
10F2C
330
1F
100
AcDbEntity
  8
AM_0
100
AcDbCircle
 10
-52.99999999999994
 20
5.350000000000021
 30
0.0
 40
1.0
100
AcDbArc
 50
0.0
 51
90.00000000000026
1001
GENIUS_GENODEF_13
1002
{
1000
HIER
1070
     0
1002
}
1002
{
1000
MANEDIT
1070
     0
1002
}
1002
{
1000
NOSEL
1070
     0
1002
}
1002
{
1000
BEHIND
1070
     0
1002
}
1002
{
1000
REACTOR
1002
}
1001
GENIUS_GENOBJ-N-FIL_13
1002
{
1000
OWNER
1000
GEN
1002
}
  0
ARC
  5
10F2F
330
1F
100
AcDbEntity
  8
AM_0
100
AcDbCircle
 10
-27.19999999999988
 20
21.32872029505822
 30
0.0
 40
0.8
100
AcDbArc
 50
100.0
 51
180.0000000000001
1001
GENIUS_GENODEF_13
1002
{
1000
HIER
1070
     0
1002
}
1002
{
1000
MANEDIT
1070
     0
1002
}
1002
{
1000
NOSEL
1070
     0
1002
}
1002
{
1000
BEHIND
1070
     0
1002
}
1002
{
1000
REACTOR
1002
}
1001
GENIUS_GENOBJ-N-FIL_13
1002
{
1000
OWNER
1000
GEN
1002
}
  0
ARC
  5
10F32
330
1F
100
AcDbEntity
  8
AM_0
100
AcDbCircle
 10
-17.79575424152375
 20
24.81471045688506
 30
0.0
 40
1.0
100
AcDbArc
 50
280.0000000000001
 51
0.0
1001
GENIUS_GENODEF_13
1002
{
1000
HIER
1070
     0
1002
}
1002
{
1000
MANEDIT
1070
     0
1002
}
1002
{
1000
NOSEL
1070
     0
1002
}
1002
{
1000
BEHIND
1070
     0
1002
}
1002
{
1000
REACTOR
1002
}
1001
GENIUS_GENOBJ-N-FIL_13
1002
{
1000
OWNER
1000
GEN
1002
}
  0
ARC
  5
10F41
330
1F
100
AcDbEntity
  8
AM_3
100
AcDbCircle
 10
-23.19999999999995
 20
54.4
 30
0.0
 40
0.4
100
AcDbArc
 50
270.0
 51
0.0000000000007506
1001
GENIUS_GENODEF_13
1002
{
1000
HIER
1070
     0
1002
}
1002
{
1000
MANEDIT
1070
     0
1002
}
1002
{
1000
NOSEL
1070
     0
1002
}
1002
{
1000
BEHIND
1070
     0
1002
}
1002
{
1000
REACTOR
1002
}
1001
GENIUS_GENOBJ-N-FIL_13
1002
{
1000
OWNER
1000
GEN
1002
}
  0
ARC
  5
10F43
330
1F
100
AcDbEntity
  8
AM_3
100
AcDbCircle
 10
-23.19999999999995
 20
-54.4
 30
0.0
 40
0.4
100
AcDbArc
 50
359.9999999999992
 51
90.00000000000003
1001
GENIUS_GENODEF_13
1002
{
1000
HIER
1070
     0
1002
}
1002
{
1000
MANEDIT
1070
     0
1002
}
1002
{
1000
NOSEL
1070
     0
1002
}
1002
{
1000
BEHIND
1070
     0
1002
}
1002
{
1000
REACTOR
1002
}
1001
GENIUS_GENOBJ-N-FIL_13
1002
{
1000
OWNER
1000
GEN
1002
}
  0
ARC
  5
10F45
330
1F
100
AcDbEntity
  8
AM_0
100
AcDbCircle
 10
-52.51729889353191
 20
-37.99999999999998
 30
0.0
 40
3.0
100
AcDbArc
 50
9.999999999999797
 51
89.99999999999985
1001
GENIUS_GENODEF_13
1002
{
1000
HIER
1070
     0
1002
}
1002
{
1000
MANEDIT
1070
     0
1002
}
1002
{
1000
NOSEL
1070
     0
1002
}
1002
{
1000
BEHIND
1070
     0
1002
}
1002
{
1000
REACTOR
1002
}
1001
GENIUS_GENOBJ-N-FIL_13
1002
{
1000
OWNER
1000
GEN
1002
}
  0
LINE
  5
10F46
330
1F
100
AcDbEntity
  8
AM_0
100
AcDbLine
 10
-57.70000000000007
 20
-34.99999999999998
 30
0.0
 11
-60.00000000000005
 21
-32.69999999999997
 31
0.0
1001
GENIUS_GENFIL_13
1070
     0
1040
2.299999999999999
1040
2.299999999999999
1040
20.0
1040
0.0
1002
{
1002
}
1001
GENIUS_GENODEF_13
1002
{
1000
HIER
1070
     0
1002
}
1002
{
1000
MANEDIT
1070
     0
1002
}
1002
{
1000
NOSEL
1070
     0
1002
}
1002
{
1000
BEHIND
1070
     0
1002
}
1002
{
1000
REACTOR
1002
}
1001
GENIUS_GENOBJ-N-CHA_13
1002
{
1000
OWNER
1000
GEN
1002
}
  0
LINE
  5
10F47
330
1F
100
AcDbEntity
  8
AM_0
100
AcDbLine
 10
-59.99999999999992
 20
-18.67500000000002
 30
0.0
 11
-57.1999999999999
 21
-15.87500000000002
 31
0.0
1001
GENIUS_GENFIL_13
1070
     0
1040
2.799999999999999
1040
2.799999999999999
1040
20.0
1040
0.0
1002
{
1002
}
1001
GENIUS_GENODEF_13
1002
{
1000
HIER
1070
     0
1002
}
1002
{
1000
MANEDIT
1070
     0
1002
}
1002
{
1000
NOSEL
1070
     0
1002
}
1002
{
1000
BEHIND
1070
     0
1002
}
1002
{
1000
REACTOR
1002
}
1001
GENIUS_GENOBJ-N-CHA_13
1002
{
1000
OWNER
1000
GEN
1002
}
  0
LINE
  5
10F48
330
1F
100
AcDbEntity
  8
AM_0
100
AcDbLine
 10
-58.69999999999982
 20
-6.349999999999995
 30
0.0
 11
-59.99999999999983
 21
-7.649999999999988
 31
0.0
1001
GENIUS_GENFIL_13
1070
     0
1040
1.3
1040
1.3
1040
20.0
1040
0.0
1002
{
1002
}
1001
GENIUS_GENODEF_13
1002
{
1000
HIER
1070
     0
1002
}
1002
{
1000
MANEDIT
1070
     0
1002
}
1002
{
1000
NOSEL
1070
     0
1002
}
1002
{
1000
BEHIND
1070
     0
1002
}
1002
{
1000
REACTOR
1002
}
1001
GENIUS_GENOBJ-N-CHA_13
1002
{
1000
OWNER
1000
GEN
1002
}
  0
ARC
  5
10F49
330
1F
100
AcDbEntity
  8
AM_0
100
AcDbCircle
 10
-52.99999999999994
 20
-5.350000000000021
 30
0.0
 40
1.0
100
AcDbArc
 50
269.9999999999997
 51
0.0
1001
GENIUS_GENODEF_13
1002
{
1000
HIER
1070
     0
1002
}
1002
{
1000
MANEDIT
1070
     0
1002
}
1002
{
1000
NOSEL
1070
     0
1002
}
1002
{
1000
BEHIND
1070
     0
1002
}
1002
{
1000
REACTOR
1002
}
1001
GENIUS_GENOBJ-N-FIL_13
1002
{
1000
OWNER
1000
GEN
1002
}
  0
ARC
  5
10F4A
330
1F
100
AcDbEntity
  8
AM_0
100
AcDbCircle
 10
-27.19999999999988
 20
-21.32872029505822
 30
0.0
 40
0.8
100
AcDbArc
 50
179.9999999999998
 51
259.9999999999998
1001
GENIUS_GENODEF_13
1002
{
1000
HIER
1070
     0
1002
}
1002
{
1000
MANEDIT
1070
     0
1002
}
1002
{
1000
NOSEL
1070
     0
1002
}
1002
{
1000
BEHIND
1070
     0
1002
}
1002
{
1000
REACTOR
1002
}
1001
GENIUS_GENOBJ-N-FIL_13
1002
{
1000
OWNER
1000
GEN
1002
}
  0
ARC
  5
10F4B
330
1F
100
AcDbEntity
  8
AM_0
100
AcDbCircle
 10
-17.79575424152375
 20
-24.81471045688506
 30
0.0
 40
1.0
100
AcDbArc
 50
0.0
 51
79.99999999999992
1001
GENIUS_GENODEF_13
1002
{
1000
HIER
1070
     0
1002
}
1002
{
1000
MANEDIT
1070
     0
1002
}
1002
{
1000
NOSEL
1070
     0
1002
}
1002
{
1000
BEHIND
1070
     0
1002
}
1002
{
1000
REACTOR
1002
}
1001
GENIUS_GENOBJ-N-FIL_13
1002
{
1000
OWNER
1000
GEN
1002
}
  0
LINE
  5
10F4C
330
1F
100
AcDbEntity
  8
AM_0
100
AcDbLine
 10
-16.79575424152375
 20
-24.81471045688502
 30
0.0
 11
-16.79575424152375
 21
-24.81471045688506
 31
0.0
  0
ARC
  5
10F50
330
1F
100
AcDbEntity
  8
AM_0
100
AcDbCircle
 10
-35.17157287525382
 20
-59.75000000000004
 30
0.0
 40
2.0
100
AcDbArc
 50
224.9999999999998
 51
270.0000000000002
1001
GENIUS_GENODEF_13
1002
{
1000
HIER
1070
     0
1002
}
1002
{
1000
MANEDIT
1070
     0
1002
}
1002
{
1000
NOSEL
1070
     0
1002
}
1002
{
1000
BEHIND
1070
     0
1002
}
1002
{
1000
REACTOR
1002
}
1001
GENIUS_GENOBJ-N-FIL_13
1002
{
1000
OWNER
1000
GEN
1002
}
  0
VIEWPORT
  5
110
330
101
100
AcDbEntity
 67
     1
  8
0
100
AcDbViewport
 10
420.5
 20
297.0
 30
0.0
 40
948.9782706766916
 41
628.452
 68
     1
 69
     1
1001
ACAD
1000
MVIEW
1002
{
1070
    16
1010
0.0
1020
0.0
1030
0.0
1010
0.0
1020
0.0
1030
1.0
1040
0.0
1040
628.452
1040
420.5
1040
297.0
1040
50.0
1040
0.0
1040
0.0
1070
     0
1070
   100
1070
     1
1070
     1
1070
     0
1070
     0
1070
     0
1070
     0
1040
0.0
1040
0.0
1040
0.0
1040
10.0
1040
10.0
1040
10.0
1040
10.0
1070
     0
1002
{
1002
}
1002
}
  0
ENDSEC
  0
SECTION
  2
OBJECTS
  0
DICTIONARY
  5
C
330
0
100
AcDbDictionary
  3
ACAD_GROUP
350
D
  3
ACAD_LAYOUT
350
1A
  3
ACAD_MLINESTYLE
350
17
  3
ACAD_PLOTSETTINGS
350
19
  3
ACAD_PLOTSTYLENAME
350
E
  3
ACDBVARIABLEDICTIONARY
350
34
  3
ACMDICTIONARY
350
43
  3
AMG
350
2B
  3
AMGSNAPSETTINGS
350
6E
  3
DWGPROPS
350
1104B
  3
ACDBHEADERROUNDTRIPXREC
350
11058
  0
DICTIONARY
  5
74
330
1F
100
AcDbDictionary
280
     1
  3
ACAD_INDEX
360
1104D
  3
ACAD_LAYOUTSELFREF
360
1107B
  0
DICTIONARY
  5
11080
330
101
100
AcDbDictionary
280
     1
  3
ACAD_LAYOUTSELFREF
360
11081
  0
DICTIONARY
  5
D
102
{ACAD_REACTORS
330
C
102
}
330
C
100
AcDbDictionary
  0
DICTIONARY
  5
1A
102
{ACAD_REACTORS
330
C
102
}
330
C
100
AcDbDictionary
  0
DICTIONARY
  5
17
102
{ACAD_REACTORS
330
C
102
}
330
C
100
AcDbDictionary
  3
STANDARD
350
18
  0
DICTIONARY
  5
19
102
{ACAD_REACTORS
330
C
102
}
330
C
100
AcDbDictionary
  0
ACDBDICTIONARYWDFLT
  5
E
102
{ACAD_REACTORS
330
C
102
}
330
C
100
AcDbDictionary
281
     1
  3
Normal
350
F
100
AcDbDictionaryWithDefault
340
F
  0
DICTIONARY
  5
34
102
{ACAD_REACTORS
330
C
102
}
330
C
100
AcDbDictionary
  3
INDEXCTL
350
35
  3
SORTENTS
350
B5E
  0
DICTIONARY
  5
43
102
{ACAD_REACTORS
330
C
102
}
330
C
100
AcDbDictionary
  3
ACMSTDDICTIONARY
350
260
  0
DICTIONARY
  5
2B
102
{ACAD_REACTORS
330
C
102
}
330
C
100
AcDbDictionary
  3
ACMGSETTINGS
350
2C
  0
DICTIONARY
  5
6E
102
{ACAD_REACTORS
330
C
102
}
330
C
100
AcDbDictionary
  0
XRECORD
  5
1104B
102
{ACAD_REACTORS
330
C
102
}
330
C
100
AcDbXrecord
  1
DWGPROPS COOKIE
  2

  3

  4

  6

  7

  8

  9

300
AmdtFileType=82
301
=
302
=
303
=
304
=
305
=
306
=
307
=
308
=
309
=
 40
0.3496706828703704
 41
2452836.771637361
 42
2453076.499978113
  1

 90
        1
  0
DICTIONARY
  5
11058
102
{ACAD_REACTORS
330
C
102
}
330
C
100
AcDbDictionary
  3
TSTACKALIGN
350
11059
  3
TSTACKSIZE
350
1105A
  3
HYPERLINKBASE
350
1105B
  3
STYLESHEET
350
1105C
  3
LAYOUTDICT
350
1105D
  3
PLOTSETDICT
350
1105E
  3
PLOTSTYLNAMDICT
350
1105F
  3
LWETCUNION
350
11060
  3
INSUNITS
350
11061
  3
CEPSNTYPE
350
11062
  3
FINGERPRINTGUID
350
11063
  3
VERSIONGUID
350
11064
  3
PSVPSCALE
350
11065
  3
DIMSTYLEDATA
350
11066
  3
PUCSORTHOREF
350
11067
  3
PUCSORTHOVIEW
350
11068
  3
PUCSBASE
350
11069
  3
PUCSORGTOP
350
1106A
  3
PUCSORGBOTTOM
350
1106B
  3
PUCSORGLEFT
350
1106C
  3
PUCSORGRIGHT
350
1106D
  3
PUCSORGFRONT
350
1106E
  3
PUCSORGBACK
350
1106F
  3
UCSORTHOREF
350
11070
  3
UCSORTHOVIEW
350
11071
  3
UCSBASE
350
11072
  3
UCSORGTOP
350
11073
  3
UCSORGBOTTOM
350
11074
  3
UCSORGLEFT
350
11075
  3
UCSORGRIGHT
350
11076
  3
UCSORGFRONT
350
11077
  3
UCSORGBACK
350
11078
  0
DICTIONARY
  5
1104D
102
{ACAD_REACTORS
330
74
102
}
330
74
100
AcDbDictionary
  3
*A1
350
1104E
  0
XRECORD
  5
1107B
102
{ACAD_REACTORS
330
74
102
}
330
74
100
AcDbXrecord
340
1F
  0
XRECORD
  5
11081
102
{ACAD_REACTORS
330
11080
102
}
330
11080
100
AcDbXrecord
340
101
  0
MLINESTYLE
  5
18
102
{ACAD_REACTORS
330
17
102
}
330
17
100
AcDbMlineStyle
  2
STANDARD
 70
     0
  3

 62
   256
 51
90.0
 52
90.0
 71
     2
 49
0.5
 62
   256
  6
BYLAYER
 49
-0.5
 62
   256
  6
BYLAYER
  0
ACDBPLACEHOLDER
  5
F
102
{ACAD_REACTORS
330
E
102
}
330
E
100
AcDbPlaceHolder
280
     0
  0
DICTIONARYVAR
  5
35
102
{ACAD_REACTORS
330
34
102
}
330
34
100
DictionaryVariables
280
     0
  1
1
  0
DICTIONARYVAR
  5
B5E
102
{ACAD_REACTORS
330
34
102
}
330
34
100
DictionaryVariables
280
     0
  1
96
  0
DICTIONARY
  5
260
102
{ACAD_REACTORS
330
43
102
}
330
43
100
AcDbDictionary
  0
DICTIONARY
  5
2C
102
{ACAD_REACTORS
330
2B
102
}
330
2B
100
AcDbDictionary
  3
DWGSETTINGS
350
2D
  0
XRECORD
  5
11059
102
{ACAD_REACTORS
330
11058
102
}
330
11058
100
AcDbXrecord
 90
        1
  0
XRECORD
  5
1105A
102
{ACAD_REACTORS
330
11058
102
}
330
11058
100
AcDbXrecord
 90
       70
  0
XRECORD
  5
1105B
102
{ACAD_REACTORS
330
11058
102
}
330
11058
100
AcDbXrecord
  1

  0
XRECORD
  5
1105C
102
{ACAD_REACTORS
330
11058
102
}
330
11058
100
AcDbXrecord
  1
ASAMI.ctb
  0
XRECORD
  5
1105D
102
{ACAD_REACTORS
330
11058
102
}
330
11058
100
AcDbXrecord
340
1A
  0
XRECORD
  5
1105E
102
{ACAD_REACTORS
330
11058
102
}
330
11058
100
AcDbXrecord
340
19
  0
XRECORD
  5
1105F
102
{ACAD_REACTORS
330
11058
102
}
330
11058
100
AcDbXrecord
340
E
  0
XRECORD
  5
11060
102
{ACAD_REACTORS
330
11058
102
}
330
11058
100
AcDbXrecord
 90
    10781
  0
XRECORD
  5
11061
102
{ACAD_REACTORS
330
11058
102
}
330
11058
100
AcDbXrecord
 90
        4
  0
XRECORD
  5
11062
102
{ACAD_REACTORS
330
11058
102
}
330
11058
100
AcDbXrecord
 90
        0
  0
XRECORD
  5
11063
102
{ACAD_REACTORS
330
11058
102
}
330
11058
100
AcDbXrecord
  1
{AFB28963-8C59-40AE-9337-C84526B81ACE}
  0
XRECORD
  5
11064
102
{ACAD_REACTORS
330
11058
102
}
330
11058
100
AcDbXrecord
  1
{E01B53CE-3042-417F-816B-3628DBE632EC}
  0
XRECORD
  5
11065
102
{ACAD_REACTORS
330
11058
102
}
330
11058
100
AcDbXrecord
 40
0.0
  0
XRECORD
  5
11066
102
{ACAD_REACTORS
330
11058
102
}
330
11058
100
AcDbXrecord
1000
DSTYLE
1002
{
1070
    79
 70
     2
1070
   341
340
59
1070
   342
340
59
1070
   371
 70
    -1
1070
   372
 70
    -1
1002
}
  0
XRECORD
  5
11067
102
{ACAD_REACTORS
330
11058
102
}
330
11058
100
AcDbXrecord
340
0
  0
XRECORD
  5
11068
102
{ACAD_REACTORS
330
11058
102
}
330
11058
100
AcDbXrecord
 70
     0
  0
XRECORD
  5
11069
102
{ACAD_REACTORS
330
11058
102
}
330
11058
100
AcDbXrecord
340
0
  0
XRECORD
  5
1106A
102
{ACAD_REACTORS
330
11058
102
}
330
11058
100
AcDbXrecord
 10
0.0
 20
0.0
 30
0.0
  0
XRECORD
  5
1106B
102
{ACAD_REACTORS
330
11058
102
}
330
11058
100
AcDbXrecord
 10
0.0
 20
0.0
 30
0.0
  0
XRECORD
  5
1106C
102
{ACAD_REACTORS
330
11058
102
}
330
11058
100
AcDbXrecord
 10
0.0
 20
0.0
 30
0.0
  0
XRECORD
  5
1106D
102
{ACAD_REACTORS
330
11058
102
}
330
11058
100
AcDbXrecord
 10
0.0
 20
0.0
 30
0.0
  0
XRECORD
  5
1106E
102
{ACAD_REACTORS
330
11058
102
}
330
11058
100
AcDbXrecord
 10
0.0
 20
0.0
 30
0.0
  0
XRECORD
  5
1106F
102
{ACAD_REACTORS
330
11058
102
}
330
11058
100
AcDbXrecord
 10
0.0
 20
0.0
 30
0.0
  0
XRECORD
  5
11070
102
{ACAD_REACTORS
330
11058
102
}
330
11058
100
AcDbXrecord
340
0
  0
XRECORD
  5
11071
102
{ACAD_REACTORS
330
11058
102
}
330
11058
100
AcDbXrecord
 70
     0
  0
XRECORD
  5
11072
102
{ACAD_REACTORS
330
11058
102
}
330
11058
100
AcDbXrecord
340
0
  0
XRECORD
  5
11073
102
{ACAD_REACTORS
330
11058
102
}
330
11058
100
AcDbXrecord
 10
0.0
 20
0.0
 30
0.0
  0
XRECORD
  5
11074
102
{ACAD_REACTORS
330
11058
102
}
330
11058
100
AcDbXrecord
 10
0.0
 20
0.0
 30
0.0
  0
XRECORD
  5
11075
102
{ACAD_REACTORS
330
11058
102
}
330
11058
100
AcDbXrecord
 10
0.0
 20
0.0
 30
0.0
  0
XRECORD
  5
11076
102
{ACAD_REACTORS
330
11058
102
}
330
11058
100
AcDbXrecord
 10
0.0
 20
0.0
 30
0.0
  0
XRECORD
  5
11077
102
{ACAD_REACTORS
330
11058
102
}
330
11058
100
AcDbXrecord
 10
0.0
 20
0.0
 30
0.0
  0
XRECORD
  5
11078
102
{ACAD_REACTORS
330
11058
102
}
330
11058
100
AcDbXrecord
 10
0.0
 20
0.0
 30
0.0
  0
LAYER_INDEX
  5
1104E
102
{ACAD_REACTORS
330
1104D
102
}
330
1104D
100
AcDbIndex
 40
2453152.367909409
100
AcDbLayerIndex
  8
0
360
1104F
 90
      121
  8
AM_0
360
11050
 90
       76
  8
AM_7
360
11051
 90
        1
  8
AM_5
360
11052
 90
        9
  8
Defpoints
360
11053
 90
        0
  8
AM_6
360
11054
 90
        1
  8
AM_11
360
11055
 90
        1
  8
AM_3
360
11056
 90
       20
  0
XRECORD
  5
2D
102
{ACAD_REACTORS
330
2C
102
}
330
2C
100
AcDbXrecord
  1
VERSION
140
15.0
  1
PRODUCT
  2
AutoCAD Mechanical 2000
  0
IDBUFFER
  5
1104F
330
0
100
AcDbIdBuffer
330
10C78
330
10C79
330
10C7A
330
10C7B
330
10C7C
330
10C7D
330
10C7E
330
10C7F
330
10C80
330
10BDC
330
10BDD
330
10BDE
330
10BDF
330
10BE0
330
10BE1
330
10BE2
330
10BE3
330
10BE4
330
10BE5
330
10BE6
330
10BE7
330
10BE8
330
10BE9
330
10BEA
330
10BEB
330
10BEC
330
10BED
330
10BEE
330
10BEF
330
10BF0
330
10BF1
330
10BF2
330
10BF3
330
10BF4
330
10BF5
330
10BF6
330
10BF7
330
10BF8
330
10BF9
330
10BFA
330
10BFB
330
10BFC
330
10BFD
330
10BFE
330
10BFF
330
10C00
330
10C01
330
10C02
330
10C03
330
10C04
330
10C05
330
10C06
330
10C07
330
10C08
330
10C09
330
10C0A
330
10C0B
330
10C0C
330
10C0D
330
10C0E
330
10C0F
330
10C10
330
10C11
330
10C12
330
10C13
330
10C14
330
10C16
330
10C17
330
10C18
330
10C19
330
10C45
330
10C46
330
10C47
330
10C48
330
10C49
330
10C4A
330
10C4B
330
10C4C
330
10C4D
330
10C4E
330
10C4F
330
10C50
330
10C51
330
10C52
330
10C53
330
10C54
330
10C55
330
10C56
330
10C57
330
10C58
330
10C59
330
10C5A
330
10C5B
330
10C5C
330
10C5D
330
10C5E
330
10C5F
330
10C60
330
10C61
330
10C62
330
10C63
330
10C64
330
10C65
330
10C66
330
10C67
330
10C68
330
10C69
330
10C6A
330
10C6B
330
10C6C
330
10C6D
330
10C6E
330
10C6F
330
10C70
330
10C71
330
10C72
330
10C73
330
10C74
330
10C75
330
10C76
330
10C77
  0
IDBUFFER
  5
11050
330
0
100
AcDbIdBuffer
330
10CED
330
10CEE
330
10CEF
330
10CF0
330
10CF2
330
10CF3
330
10CF4
330
10CF5
330
10CF6
330
10CF7
330
10CF8
330
10F19
330
10F1C
330
10F1F
330
10F22
330
10F25
330
10F2C
330
10F2F
330
10F32
330
10F45
330
10F46
330
10F47
330
10F48
330
10F49
330
10F4A
330
10F4B
330
10F4C
330
10F50
330
F831
330
F833
330
F834
330
F836
330
F837
330
F838
330
F83F
330
F842
330
F844
330
F848
330
F849
330
F84C
330
F84D
330
F84E
330
F84F
330
F850
330
F852
330
F853
330
F854
330
F855
330
F856
330
F857
330
F858
330
F859
330
F85A
330
F85B
330
F85C
330
F85D
330
F860
330
F861
330
F864
330
F866
330
F868
330
F86C
330
F86D
330
F86E
330
F86F
330
F870
330
F871
330
F874
330
F875
330
F87A
330
F87C
330
F87F
330
FD04
330
10CEA
330
10CEB
330
10CEC
  0
IDBUFFER
  5
11051
330
0
100
AcDbIdBuffer
330
F851
  0
IDBUFFER
  5
11052
330
0
100
AcDbIdBuffer
330
109FB
330
109FC
330
109FD
330
109FE
330
10A6E
330
10A6F
330
10A70
330
10B46
330
10D55
  0
IDBUFFER
  5
11053
330
0
100
AcDbIdBuffer
  0
IDBUFFER
  5
11054
330
0
100
AcDbIdBuffer
330
E5A
  0
IDBUFFER
  5
11055
330
0
100
AcDbIdBuffer
330
10C1A
  0
IDBUFFER
  5
11056
330
0
100
AcDbIdBuffer
330
F880
330
F881
330
10F41
330
10F43
330
F832
330
F83B
330
F83C
330
F83D
330
F83E
330
F841
330
F843
330
F846
330
F847
330
F86A
330
F86B
330
F876
330
F877
330
F878
330
F879
330
F87E
  0
ENDSEC
  0
EOF
