  0
SECTION
  2
HEADER
  9
$ACADVER
  1
AC1014
  9
$ACADMAINTVER
 70
     9
  9
$DWGCODEPAGE
  3
ANSI_932
  9
$INSBASE
 10
0.0
 20
0.0
 30
0.0
  9
$EXTMIN
 10
-126.9009544713347
 20
-202.5800850000002
 30
-0.00000001
  9
$EXTMAX
 10
22.17978912546641
 20
136.080084
 30
0.00000001
  9
$LIMMIN
 10
-156.0889636521699
 20
-221.8804740205447
  9
$LIMMAX
 10
81.44442041636329
 20
180.7497629167686
  9
$ORTHOMODE
 70
     0
  9
$REGENMODE
 70
     1
  9
$FILLMODE
 70
     1
  9
$QTEXTMODE
 70
     0
  9
$MIRRTEXT
 70
     0
  9
$DRAGMODE
 70
     2
  9
$LTSCALE
 40
1.0
  9
$OSMODE
 70
    55
  9
$ATTMODE
 70
     1
  9
$TEXTSIZE
 40
2.5
  9
$TRACEWID
 40
1.0
  9
$TEXTSTYLE
  7
STANDARD
  9
$CLAYER
  8
AM_0
  9
$CELTYPE
  6
BYLAYER
  9
$CECOLOR
 62
   256
  9
$CELTSCALE
 40
1.0
  9
$DELOBJ
 70
     1
  9
$DISPSILH
 70
     0
  9
$DIMSCALE
 40
1.0
  9
$DIMASZ
 40
2.5
  9
$DIMEXO
 40
1.0
  9
$DIMDLI
 40
12.0
  9
$DIMRND
 40
0.0
  9
$DIMDLE
 40
0.0
  9
$DIMEXE
 40
1.0
  9
$DIMTP
 40
0.1
  9
$DIMTM
 40
0.1
  9
$DIMTXT
 40
3.2
  9
$DIMCEN
 40
0.0
  9
$DIMTSZ
 40
0.0
  9
$DIMTOL
 70
     0
  9
$DIMLIM
 70
     0
  9
$DIMTIH
 70
     0
  9
$DIMTOH
 70
     0
  9
$DIMSE1
 70
     0
  9
$DIMSE2
 70
     0
  9
$DIMTAD
 70
     3
  9
$DIMZIN
 70
     8
  9
$DIMBLK
  1
OPEN30
  9
$DIMASO
 70
     1
  9
$DIMSHO
 70
     1
  9
$DIMPOST
  1

  9
$DIMAPOST
  1
"
  9
$DIMALT
 70
     0
  9
$DIMALTD
 70
     2
  9
$DIMALTF
 40
0.0393701
  9
$DIMLFAC
 40
1.0
  9
$DIMTOFL
 70
     1
  9
$DIMTVP
 40
0.0
  9
$DIMTIX
 70
     0
  9
$DIMSOXD
 70
     0
  9
$DIMSAH
 70
     0
  9
$DIMBLK1
  1

  9
$DIMBLK2
  1

  9
$DIMSTYLE
  2
AM_JIS
  9
$DIMCLRD
 70
   256
  9
$DIMCLRE
 70
   256
  9
$DIMCLRT
 70
     2
  9
$DIMTFAC
 40
0.71
  9
$DIMGAP
 40
1.5
  9
$DIMJUST
 70
     0
  9
$DIMSD1
 70
     0
  9
$DIMSD2
 70
     0
  9
$DIMTOLJ
 70
     0
  9
$DIMTZIN
 70
     0
  9
$DIMALTZ
 70
     0
  9
$DIMALTTZ
 70
     0
  9
$DIMFIT
 70
     3
  9
$DIMUPT
 70
     0
  9
$DIMUNIT
 70
     2
  9
$DIMDEC
 70
     3
  9
$DIMTDEC
 70
     3
  9
$DIMALTU
 70
     2
  9
$DIMALTTD
 70
     2
  9
$DIMTXSTY
  7
ASAMI
  9
$DIMAUNIT
 70
     0
  9
$LUNITS
 70
     2
  9
$LUPREC
 70
     2
  9
$SKETCHINC
 40
1.0
  9
$FILLETRAD
 40
3.0
  9
$AUNITS
 70
     0
  9
$AUPREC
 70
     0
  9
$MENU
  1
.
  9
$ELEVATION
 40
0.0
  9
$PELEVATION
 40
0.0
  9
$THICKNESS
 40
0.0
  9
$LIMCHECK
 70
     0
  9
$BLIPMODE
 70
     0
  9
$CHAMFERA
 40
1.9
  9
$CHAMFERB
 40
1.9
  9
$CHAMFERC
 40
20.0
  9
$CHAMFERD
 40
0.0
  9
$SKPOLY
 70
     0
  9
$TDCREATE
 40
2452836.771637361
  9
$TDUPDATE
 40
2453152.368260613
  9
$TDINDWG
 40
0.3003946181
  9
$TDUSRTIMER
 40
0.3003946181
  9
$USRTIMER
 70
     1
  9
$ANGBASE
 50
0.0
  9
$ANGDIR
 70
     0
  9
$PDMODE
 70
     0
  9
$PDSIZE
 40
0.0
  9
$PLINEWID
 40
0.0
  9
$COORDS
 70
     1
  9
$SPLFRAME
 70
     0
  9
$SPLINETYPE
 70
     6
  9
$SPLINESEGS
 70
     8
  9
$ATTDIA
 70
     1
  9
$ATTREQ
 70
     1
  9
$HANDLING
 70
 12289
  9
$HANDSEED
  5
16D57
  9
$SURFTAB1
 70
     6
  9
$SURFTAB2
 70
     6
  9
$SURFTYPE
 70
     6
  9
$SURFU
 70
     6
  9
$SURFV
 70
     6
  9
$UCSNAME
  2

  9
$UCSORG
 10
0.0
 20
0.0
 30
0.0
  9
$UCSXDIR
 10
1.0
 20
0.0
 30
0.0
  9
$UCSYDIR
 10
0.0
 20
1.0
 30
0.0
  9
$PUCSNAME
  2

  9
$PUCSORG
 10
0.0
 20
0.0
 30
0.0
  9
$PUCSXDIR
 10
1.0
 20
0.0
 30
0.0
  9
$PUCSYDIR
 10
0.0
 20
1.0
 30
0.0
  9
$USERI1
 70
     0
  9
$USERI2
 70
     0
  9
$USERI3
 70
     0
  9
$USERI4
 70
     0
  9
$USERI5
 70
     0
  9
$USERR1
 40
0.0
  9
$USERR2
 40
0.0
  9
$USERR3
 40
0.0
  9
$USERR4
 40
0.0
  9
$USERR5
 40
0.0
  9
$WORLDVIEW
 70
     1
  9
$SHADEDGE
 70
     3
  9
$SHADEDIF
 70
    70
  9
$TILEMODE
 70
     1
  9
$MAXACTVP
 70
    64
  9
$PINSBASE
 10
0.0
 20
0.0
 30
0.0
  9
$PLIMCHECK
 70
     0
  9
$PEXTMIN
 10
1.000000000000000E+20
 20
1.000000000000000E+20
 30
1.000000000000000E+20
  9
$PEXTMAX
 10
-1.000000000000000E+20
 20
-1.000000000000000E+20
 30
-1.000000000000000E+20
  9
$PLIMMIN
 10
0.0
 20
0.0
  9
$PLIMMAX
 10
841.0
 20
594.0
  9
$UNITMODE
 70
     0
  9
$VISRETAIN
 70
     1
  9
$PLINEGEN
 70
     0
  9
$PSLTSCALE
 70
     0
  9
$TREEDEPTH
 70
  3020
  9
$PICKSTYLE
 70
     0
  9
$CMLSTYLE
  2
STANDARD
  9
$CMLJUST
 70
     0
  9
$CMLSCALE
 40
20.0
  9
$PROXYGRAPHICS
 70
     1
  9
$MEASUREMENT
 70
     1
  0
ENDSEC
  0
SECTION
  2
CLASSES
  0
CLASS
  1
ACDBDICTIONARYWDFLT
  2
AcDbDictionaryWithDefault
  3
AutoCAD 2000
 90
        0
280
     0
281
     0
  0
CLASS
  1
ACDBPLACEHOLDER
  2
AcDbPlaceHolder
  3
AutoCAD 2000
 90
        0
280
     0
281
     0
  0
CLASS
  1
LAYOUT
  2
AcDbLayout
  3
AutoCAD 2000
 90
        0
280
     0
281
     0
  0
CLASS
  1
AMGSETTINGSOBJ
  2
AmgSettingsObj
  3
"AcadM|Product Description: AutoCAD Mechanical 2000|Company: Autodesk"
 90
        0
280
     0
281
     0
  0
CLASS
  1
ACME_DOCUMENT
  2
AcMeDbDoc
  3
AcMeServices
 90
        0
280
     0
281
     0
  0
CLASS
  1
ACMESCOPE
  2
AcMeScope
  3
AcMeServices
 90
        0
280
     0
281
     0
  0
CLASS
  1
ACMECOMMANDHISTORY
  2
AcMeCommandHistory
  3
AcMeServices
 90
        0
280
     0
281
     0
  0
CLASS
  1
DICTIONARYVAR
  2
AcDbDictionaryVar
  3
AutoCAD 2000
 90
        0
280
     0
281
     0
  0
CLASS
  1
ACIMSYSVARMAN
  2
AcImSysVarManager
  3
AcMeServices
 90
        0
280
     0
281
     0
  0
CLASS
  1
ACIMREALSYSVAR
  2
AcImRealSysVar
  3
AcMeServices
 90
        0
280
     0
281
     0
  0
CLASS
  1
ACIMINTSYSVAR
  2
AcImIntSysVar
  3
AcMeServices
 90
        0
280
     0
281
     0
  0
CLASS
  1
ACMEDRAWINGMAN
  2
AcMeDrawingMan
  3
AcMeServices
 90
        0
280
     0
281
     0
  0
CLASS
  1
ACMEVIEW
  2
AcMeView
  3
AcMeServices
 90
        0
280
     0
281
     0
  0
CLASS
  1
ACDBENTITYCACHE
  2
AcMeEntityCache
  3
AcMeServices
 90
        0
280
     0
281
     0
  0
CLASS
  1
GSMANAGER
  2
AcMeGSManager
  3
AcMeServices
 90
        0
280
     0
281
     0
  0
CLASS
  1
AmdtInternalReactor
  2
AmdtInternalReactor
  3
AcMeServices
 90
        0
280
     0
281
     0
  0
CLASS
  1
ACMESTATEMGR
  2
AcMeStateMgr
  3
AcMeServices
 90
        0
280
     0
281
     0
  0
CLASS
  1
ACME_DATABASE
  2
AcMeDbDatabase
  3
AcMeServices
 90
        0
280
     0
281
     0
  0
CLASS
  1
ACRFINSADJUSTERMGR
  2
AcRfInsAdjusterMgr
  3
AcMeServices
 90
        0
280
     0
281
     0
  0
CLASS
  1
ACMDATADICTIONARY
  2
AcmDataDictionary
  3
"AcmSymBB|Product Description: AutoCAD Mechanical 2000|Company: Autodesk"
 90
        0
280
     0
281
     0
  0
CLASS
  1
ACMDATAENTRYBLOCK
  2
AcmDataEntryBlock
  3
"AcmSymBB|Product Description: AutoCAD Mechanical 2000|Company: Autodesk"
 90
        0
280
     0
281
     0
  0
CLASS
  1
AMGOBJPROPCFG
  2
AmgObjPropCfg
  3
"AmgLay|Product Description: AutoCAD Mechanical 2000|Company: Autodesk"
 90
        1
280
     0
281
     0
  0
CLASS
  1
ACAMGFILTERDAT
  2
AcAmgFilterDat
  3
"AcadM|Product Description: AutoCAD Mechanical 2000|Company: Autodesk"
 90
        0
280
     0
281
     0
  0
CLASS
  1
LAYER_INDEX
  2
AcDbLayerIndex
  3
AutoCAD 2000
 90
        0
280
     0
281
     0
  0
CLASS
  1
IDBUFFER
  2
AcDbIdBuffer
  3
AutoCAD 2000
 90
        0
280
     0
281
     0
  0
CLASS
  1
ACIMSTRSYSVAR
  2
AcImStrSysVar
  3
AcMeServices
 90
        0
280
     0
281
     0
  0
CLASS
  1
ACMSTANDARDJIS
  2
AcmStandardJIS
  3
"AcmSymBB|Product Description: AutoCAD Mechanical 2000|Company: Autodesk"
 90
        0
280
     0
281
     0
  0
CLASS
  1
ACMSURFSTANDARDJIS
  2
AcmSurfTextStdJIS
  3
"AcmSymBB|Product Description: AutoCAD Mechanical 2000|Company: Autodesk"
 90
        0
280
     0
281
     0
  0
CLASS
  1
ACMFCFSTANDARDJIS
  2
AcmFCFStdJIS
  3
"AcmSymBB|Product Description: AutoCAD Mechanical 2000|Company: Autodesk"
 90
        0
280
     0
281
     0
  0
CLASS
  1
ACMWELDSTANDARDJIS
  2
AcmWeldingStdJIS
  3
"AcmSymBB|Product Description: AutoCAD Mechanical 2000|Company: Autodesk"
 90
        0
280
     0
281
     0
  0
CLASS
  1
ACMIDSTANDARDJIS
  2
AcmIdStdJIS
  3
"AcmSymBB|Product Description: AutoCAD Mechanical 2000|Company: Autodesk"
 90
        0
280
     0
281
     0
  0
CLASS
  1
ACMDATUMSTANDARDJIS
  2
AcmDatumStdJIS
  3
"AcmSymBB|Product Description: AutoCAD Mechanical 2000|Company: Autodesk"
 90
        0
280
     0
281
     0
  0
CLASS
  1
ACMBOMSTANDARDJIS
  2
AcmBOMStdJIS
  3
"AcmSymBB|Product Description: AutoCAD Mechanical 2000|Company: Autodesk"
 90
        0
280
     0
281
     0
  0
CLASS
  1
ACMSTANDARDANSI
  2
AcmStandardANSI
  3
"AcmSymBB|Product Description: AutoCAD Mechanical 2000|Company: Autodesk"
 90
        0
280
     0
281
     0
  0
CLASS
  1
ACMSURFSTANDARDANSI
  2
AcmSurfTextStdANSI
  3
"AcmSymBB|Product Description: AutoCAD Mechanical 2000|Company: Autodesk"
 90
        0
280
     0
281
     0
  0
CLASS
  1
ACMFCFSTANDARDANSI
  2
AcmFCFStdANSI
  3
"AcmSymBB|Product Description: AutoCAD Mechanical 2000|Company: Autodesk"
 90
        0
280
     0
281
     0
  0
CLASS
  1
ACMWELDSTANDARDANSI
  2
AcmWeldingStdANSI
  3
"AcmSymBB|Product Description: AutoCAD Mechanical 2000|Company: Autodesk"
 90
        0
280
     0
281
     0
  0
CLASS
  1
ACMIDSTANDARDANSI
  2
AcmIdStdANSI
  3
"AcmSymBB|Product Description: AutoCAD Mechanical 2000|Company: Autodesk"
 90
        0
280
     0
281
     0
  0
CLASS
  1
ACMDATUMSTANDARDANSI
  2
AcmDatumStdANSI
  3
"AcmSymBB|Product Description: AutoCAD Mechanical 2000|Company: Autodesk"
 90
        0
280
     0
281
     0
  0
CLASS
  1
ACMBOMSTANDARDANSI
  2
AcmBOMStdANSI
  3
"AcmSymBB|Product Description: AutoCAD Mechanical 2000|Company: Autodesk"
 90
        0
280
     0
281
     0
  0
CLASS
  1
ACMSTANDARDBSI
  2
AcmStandardBSI
  3
"AcmSymBB|Product Description: AutoCAD Mechanical 2000|Company: Autodesk"
 90
        0
280
     0
281
     0
  0
CLASS
  1
ACMSURFSTANDARDBSI
  2
AcmSurfTextStdBSI
  3
"AcmSymBB|Product Description: AutoCAD Mechanical 2000|Company: Autodesk"
 90
        0
280
     0
281
     0
  0
CLASS
  1
ACMFCFSTANDARDBSI
  2
AcmFCFStdBSI
  3
"AcmSymBB|Product Description: AutoCAD Mechanical 2000|Company: Autodesk"
 90
        0
280
     0
281
     0
  0
CLASS
  1
ACMWELDSTANDARDBSI
  2
AcmWeldingStdBSI
  3
"AcmSymBB|Product Description: AutoCAD Mechanical 2000|Company: Autodesk"
 90
        0
280
     0
281
     0
  0
CLASS
  1
ACMIDSTANDARDBSI
  2
AcmIdStdBSI
  3
"AcmSymBB|Product Description: AutoCAD Mechanical 2000|Company: Autodesk"
 90
        0
280
     0
281
     0
  0
CLASS
  1
ACMDATUMSTANDARDBSI
  2
AcmDatumStdBSI
  3
"AcmSymBB|Product Description: AutoCAD Mechanical 2000|Company: Autodesk"
 90
        0
280
     0
281
     0
  0
CLASS
  1
ACMBOMSTANDARDBSI
  2
AcmBOMStdBSI
  3
"AcmSymBB|Product Description: AutoCAD Mechanical 2000|Company: Autodesk"
 90
        0
280
     0
281
     0
  0
CLASS
  1
LONG_TRANSACTION
  2
AcDbLongTransaction
  3
AutoCAD 2000
 90
        0
280
     0
281
     0
  0
CLASS
  1
LWPOLYLINE
  2
AcDbPolyline
  3
AutoCAD 2000
 90
        0
280
     0
281
     1
  0
CLASS
  1
HATCH
  2
AcDbHatch
  3
AutoCAD 2000
 90
        0
280
     0
281
     1
  0
CLASS
  1
XRECORD
  2
AcDbXrecord
  3
AutoCAD 2000
 90
        0
280
     0
281
     0
  0
ENDSEC
  0
SECTION
  2
TABLES
  0
TABLE
  2
VPORT
  5
8
330
0
100
AcDbSymbolTable
 70
     3
  0
VPORT
  5
16D2C
330
8
100
AcDbSymbolTableRecord
100
AcDbViewportTableRecord
  2
*ACTIVE
 70
     0
 10
0.0
 20
0.0
 11
1.0
 21
1.0
 12
2.817063903400764
 22
-33.77468022418279
 13
0.0
 23
0.0
 14
2.5
 24
2.5
 15
10.0
 25
10.0
 16
0.0
 26
0.0
 36
1.0
 17
0.0
 27
0.0
 37
0.0
 40
350.2273373127223
 41
1.56570841889117
 42
50.0
 43
0.0
 44
0.0
 50
0.0
 51
0.0
 71
     0
 72
   100
 73
     1
 74
     3
 75
     0
 76
     0
 77
     0
 78
     0
  0
ENDTAB
  0
TABLE
  2
LTYPE
  5
5
330
0
100
AcDbSymbolTable
 70
    10
  0
LTYPE
  5
14
330
5
100
AcDbSymbolTableRecord
100
AcDbLinetypeTableRecord
  2
BYBLOCK
 70
     0
  3

 72
    65
 73
     0
 40
0.0
  0
LTYPE
  5
15
330
5
100
AcDbSymbolTableRecord
100
AcDbLinetypeTableRecord
  2
BYLAYER
 70
     0
  3

 72
    65
 73
     0
 40
0.0
  0
LTYPE
  5
16
330
5
100
AcDbSymbolTableRecord
100
AcDbLinetypeTableRecord
  2
CONTINUOUS
 70
     0
  3
Solid line
 72
    65
 73
     0
 40
0.0
  0
LTYPE
  5
4B
330
5
100
AcDbSymbolTableRecord
100
AcDbLinetypeTableRecord
  2
AM_ISO02W050
 70
     0
  3
__ __ __ __ __ __ __ __ __ __ __ __ __ __ __
 72
    65
 73
     2
 40
7.5
 49
6.0
 74
     0
 49
-1.5
 74
     0
  0
LTYPE
  5
4C
330
5
100
AcDbSymbolTableRecord
100
AcDbLinetypeTableRecord
  2
AM_ISO08W050
 70
     0
  3
____ . ____ . ____ . ____ . ____ . ____ . ____
 72
    65
 73
     4
 40
18.0
 49
12.0
 74
     0
 49
-1.5
 74
     0
 49
3.0
 74
     0
 49
-1.5
 74
     0
  0
LTYPE
  5
4D
330
5
100
AcDbSymbolTableRecord
100
AcDbLinetypeTableRecord
  2
AM_ISO09W050
 70
     0
  3
_____ . . _____ . . _____ . . ____ .. ____
 72
    65
 73
     6
 40
22.5
 49
12.0
 74
     0
 49
-1.5
 74
     0
 49
3.0
 74
     0
 49
-1.5
 74
     0
 49
3.0
 74
     0
 49
-1.5
 74
     0
  0
LTYPE
  5
4E
330
5
100
AcDbSymbolTableRecord
100
AcDbLinetypeTableRecord
  2
AMCONSTR
 70
     0
  3
_______________________
 72
    65
 73
     2
 40
9999.0
 49
9999.0
 74
     0
 49
0.0
 74
     0
  0
LTYPE
  5
4F
330
5
100
AcDbSymbolTableRecord
100
AcDbLinetypeTableRecord
  2
AM_ISO02W050X2
 70
     0
  3
 _ _ _ _ _ _ _ _ _ _ _ _
 72
    65
 73
     2
 40
3.75
 49
3.0
 74
     0
 49
-0.75
 74
     0
  0
LTYPE
  5
50
330
5
100
AcDbSymbolTableRecord
100
AcDbLinetypeTableRecord
  2
AM_ISO08W050X2
 70
     0
  3
__ . __ . __ . __ . __ . __
 72
    65
 73
     4
 40
9.0
 49
6.0
 74
     0
 49
-0.75
 74
     0
 49
1.5
 74
     0
 49
-0.75
 74
     0
  0
LTYPE
  5
53
330
5
100
AcDbSymbolTableRecord
100
AcDbLinetypeTableRecord
  2
AMZIGZAG
 70
     0
  3
/\/-/\/-/\/-/\/-/\/-/\/
 72
    65
 73
     2
 40
11.00009999999999
 49
0.0001
 74
     4
 75
   135
340
52
 46
0.04
 50
0.0
 44
0.0
 45
0.0
 49
-11.0
 74
     0
  0
LTYPE
  5
166
330
5
100
AcDbSymbolTableRecord
100
AcDbLinetypeTableRecord
  2
ACJISTGL
 70
     0
  3
_ _ _ _ _
 72
    65
 73
     2
 40
3.0
 49
2.0
 74
     0
 49
-1.0
 74
     0
  0
LTYPE
  5
26A
330
5
100
AcDbSymbolTableRecord
100
AcDbLinetypeTableRecord
  2
ACJISTGB
 70
     0
  3
__ . . __ . .
 72
    65
 73
     6
 40
9.0
 49
4.0
 74
     0
 49
-1.0
 74
     0
 49
1.0
 74
     0
 49
-1.0
 74
     0
 49
1.0
 74
     0
 49
-1.0
 74
     0
  0
ENDTAB
  0
TABLE
  2
LAYER
  5
2
330
0
100
AcDbSymbolTable
 70
     8
  0
LAYER
  5
10
330
2
100
AcDbSymbolTableRecord
100
AcDbLayerTableRecord
  2
0
 70
     0
 62
     7
  6
CONTINUOUS
  0
LAYER
  5
3F9
330
2
100
AcDbSymbolTableRecord
100
AcDbLayerTableRecord
  2
AM_0
 70
     0
 62
     7
  6
CONTINUOUS
  0
LAYER
  5
BD5
330
2
100
AcDbSymbolTableRecord
100
AcDbLayerTableRecord
  2
AM_7
 70
     0
 62
     4
  6
AM_ISO08W050
  0
LAYER
  5
BD6
330
2
100
AcDbSymbolTableRecord
100
AcDbLayerTableRecord
  2
AM_5
 70
     0
 62
     3
  6
CONTINUOUS
  0
LAYER
  5
BD7
330
2
100
AcDbSymbolTableRecord
100
AcDbLayerTableRecord
  2
DEFPOINTS
 70
     0
 62
     7
  6
CONTINUOUS
  0
LAYER
  5
E59
330
2
100
AcDbSymbolTableRecord
100
AcDbLayerTableRecord
  2
AM_6
 70
     0
 62
     2
  6
CONTINUOUS
  0
LAYER
  5
1E31
330
2
100
AcDbSymbolTableRecord
100
AcDbLayerTableRecord
  2
AM_11
 70
     0
 62
     3
  6
AM_ISO09W050
  0
LAYER
  5
1E41
330
2
100
AcDbSymbolTableRecord
100
AcDbLayerTableRecord
  2
AM_3
 70
     0
 62
     6
  6
ACJISTGL
  0
ENDTAB
  0
TABLE
  2
STYLE
  5
3
330
0
100
AcDbSymbolTable
 70
     5
  0
STYLE
  5
11
330
3
100
AcDbSymbolTableRecord
100
AcDbTextStyleTableRecord
  2
STANDARD
 70
     0
 40
0.0
 41
1.0
 50
0.0
 71
     0
 42
2.5
  3
simplex.shx
  4
EXTFONT.SHX
  0
STYLE
  5
52
330
3
100
AcDbSymbolTableRecord
100
AcDbTextStyleTableRecord
  2

 70
     1
 40
0.0
 41
1.0
 50
0.0
 71
     0
 42
2.5
  3
ltypeshp.shx
  4

  0
STYLE
  5
6B
330
3
100
AcDbSymbolTableRecord
100
AcDbTextStyleTableRecord
  2
ASAMI
 70
     0
 40
0.0
 41
1.0
 50
0.0
 71
     0
 42
2.5
  3
simplex.shx
  4
EXTFONT.SHX
  0
STYLE
  5
262
330
3
100
AcDbSymbolTableRecord
100
AcDbTextStyleTableRecord
  2
ACJISTS
 70
     0
 40
1.0
 41
1.0
 50
0.0
 71
     0
 42
2.5
  3
simplex.shx
  4
bigfont.shx
  0
STYLE
  5
269
330
3
100
AcDbSymbolTableRecord
100
AcDbTextStyleTableRecord
  2
ACJISGDT
 70
     0
 40
0.0
 41
1.0
 50
0.0
 71
     0
 42
2.5
  3
amgdtans.shx
  4

  0
ENDTAB
  0
TABLE
  2
VIEW
  5
6
330
0
100
AcDbSymbolTable
 70
     0
  0
ENDTAB
  0
TABLE
  2
UCS
  5
7
330
0
100
AcDbSymbolTable
 70
     0
  0
ENDTAB
  0
TABLE
  2
APPID
  5
9
330
0
100
AcDbSymbolTable
 70
    13
  0
APPID
  5
12
330
9
100
AcDbSymbolTableRecord
100
AcDbRegAppTableRecord
  2
ACAD
 70
     0
  0
APPID
  5
30
330
9
100
AcDbSymbolTableRecord
100
AcDbRegAppTableRecord
  2
MCAD_NO_VIS
 70
     0
  0
APPID
  5
31
330
9
100
AcDbSymbolTableRecord
100
AcDbRegAppTableRecord
  2
ACAD_TEMP_GRAPHIC
 70
     0
  0
APPID
  5
2C2
330
9
100
AcDbSymbolTableRecord
100
AcDbRegAppTableRecord
  2
GENIUS_GENDTOL_13
 70
     0
  0
APPID
  5
339
330
9
100
AcDbSymbolTableRecord
100
AcDbRegAppTableRecord
  2
GENIUS_GENODEF_13
 70
     0
  0
APPID
  5
33A
330
9
100
AcDbSymbolTableRecord
100
AcDbRegAppTableRecord
  2
GENIUS_GENOBJ-N-RSBK_13
 70
     0
  0
APPID
  5
33B
330
9
100
AcDbSymbolTableRecord
100
AcDbRegAppTableRecord
  2
GENIUS_GENOBJ-N-LIB_13
 70
     0
  0
APPID
  5
33C
330
9
100
AcDbSymbolTableRecord
100
AcDbRegAppTableRecord
  2
GENIUS_GENSCALE_13
 70
     0
  0
APPID
  5
378
330
9
100
AcDbSymbolTableRecord
100
AcDbRegAppTableRecord
  2
GENIUS_GENDIMSH_14
 70
     0
  0
APPID
  5
BD8
330
9
100
AcDbSymbolTableRecord
100
AcDbRegAppTableRecord
  2
GENIUS_GENOBJ-N-CEN_13
 70
     0
  0
APPID
  5
BD9
330
9
100
AcDbSymbolTableRecord
100
AcDbRegAppTableRecord
  2
GENIUS_GENFIL_13
 70
     0
  0
APPID
  5
BDA
330
9
100
AcDbSymbolTableRecord
100
AcDbRegAppTableRecord
  2
GENIUS_GENOBJ-N-CHA_13
 70
     0
  0
APPID
  5
2BC1
330
9
100
AcDbSymbolTableRecord
100
AcDbRegAppTableRecord
  2
GENIUS_GENOBJ-N-FIL_13
 70
     0
  0
ENDTAB
  0
TABLE
  2
DIMSTYLE
  5
A
330
0
100
AcDbSymbolTable
 70
    10
  0
DIMSTYLE
105
58
102
{ACAD_REACTORS
330
1666B
330
1666C
330
1666E
330
1666D
330
1671E
330
16720
102
}
330
A
100
AcDbSymbolTableRecord
100
AcDbDimStyleTableRecord
  2
AM_JIS
 70
     0
  3

  4
"
  5
OPEN30
  6

  7

 40
1.0
 41
2.5
 42
1.0
 43
12.0
 44
1.0
 45
0.0
 46
0.0
 47
0.1
 48
0.1
140
3.2
141
0.0
142
0.0
143
0.0393701
144
1.0
145
0.0
146
0.71
147
1.5
 71
     0
 72
     0
 73
     0
 74
     0
 75
     0
 76
     0
 77
     3
 78
     8
170
     0
171
     2
172
     1
173
     0
174
     0
175
     0
176
   256
177
   256
178
     2
270
     2
271
     3
272
     3
273
     2
274
     2
340
6B
275
     0
280
     0
281
     0
282
     0
283
     0
284
     0
285
     0
286
     0
287
     3
288
     0
  0
DIMSTYLE
105
5F
330
A
100
AcDbSymbolTableRecord
100
AcDbDimStyleTableRecord
  2
AM_JIS$3
 70
     0
  3

  4
"
  5
OPEN30
  6

  7

 40
1.0
 41
2.5
 42
1.0
 43
10.0
 44
1.0
 45
0.0
 46
0.0
 47
0.1
 48
0.1
140
3.2
141
0.0
142
0.0
143
0.0393701
144
1.0
145
0.0
146
0.71
147
1.5
 71
     0
 72
     0
 73
     0
 74
     1
 75
     0
 76
     0
 77
     3
 78
     8
170
     0
171
     2
172
     0
173
     0
174
     0
175
     0
176
   256
177
   256
178
     2
270
     2
271
     2
272
     3
273
     2
274
     2
340
6B
275
     0
280
     0
281
     0
282
     0
283
     0
284
     0
285
     0
286
     0
287
     0
288
     1
  0
DIMSTYLE
105
60
330
A
100
AcDbSymbolTableRecord
100
AcDbDimStyleTableRecord
  2
AM_JIS$4
 70
     0
  3

  4
"
  5
OPEN30
  6

  7

 40
1.0
 41
2.5
 42
1.0
 43
10.0
 44
1.0
 45
0.0
 46
0.0
 47
0.1
 48
0.1
140
3.2
141
0.0
142
0.0
143
0.0393701
144
1.0
145
0.0
146
0.71
147
1.5
 71
     0
 72
     0
 73
     0
 74
     1
 75
     0
 76
     0
 77
     3
 78
     8
170
     0
171
     2
172
     0
173
     0
174
     0
175
     0
176
   256
177
   256
178
     2
270
     2
271
     2
272
     3
273
     2
274
     2
340
6B
275
     0
280
     0
281
     0
282
     0
283
     0
284
     0
285
     0
286
     0
287
     0
288
     1
  0
DIMSTYLE
105
61
330
A
100
AcDbSymbolTableRecord
100
AcDbDimStyleTableRecord
  2
AM_JIS$6
 70
     0
  3

  4
"
  5
OPEN30
  6

  7

 40
1.0
 41
2.5
 42
1.0
 43
10.0
 44
1.0
 45
0.0
 46
0.0
 47
0.1
 48
0.1
140
3.2
141
0.0
142
0.0
143
0.0393701
144
1.0
145
0.0
146
0.71
147
1.5
 71
     0
 72
     0
 73
     0
 74
     0
 75
     0
 76
     0
 77
     0
 78
     8
170
     0
171
     2
172
     1
173
     0
174
     0
175
     0
176
   256
177
   256
178
     2
270
     2
271
     2
272
     2
273
     2
274
     2
340
6B
275
     0
280
     0
281
     0
282
     0
283
     0
284
     0
285
     0
286
     0
287
     3
288
     0
  0
DIMSTYLE
105
62
330
A
100
AcDbSymbolTableRecord
100
AcDbDimStyleTableRecord
  2
AM_JIS$7
 70
     0
  3

  4
"
  5
OPEN30
  6

  7

 40
1.0
 41
2.5
 42
1.0
 43
10.0
 44
1.0
 45
0.0
 46
0.0
 47
0.1
 48
0.1
140
3.2
141
0.0
142
0.0
143
0.0393701
144
1.0
145
0.0
146
0.71
147
1.5
 71
     0
 72
     0
 73
     0
 74
     0
 75
     0
 76
     0
 77
     3
 78
     8
170
     0
171
     2
172
     1
173
     0
174
     0
175
     0
176
   256
177
   256
178
     2
270
     2
271
     2
272
     3
273
     2
274
     2
340
6B
275
     0
280
     0
281
     0
282
     0
283
     0
284
     0
285
     0
286
     0
287
     3
288
     0
  0
DIMSTYLE
105
63
330
A
100
AcDbSymbolTableRecord
100
AcDbDimStyleTableRecord
  2
AM_JIS$SF
 70
     0
  3

  4
"
  5
OPEN30
  6

  7

 40
1.0
 41
2.5
 42
1.0
 43
10.0
 44
1.0
 45
0.0
 46
0.0
 47
0.1
 48
0.1
140
3.2
141
0.0
142
0.0
143
0.0393701
144
1.0
145
0.0
146
0.71
147
1.5
 71
     0
 72
     0
 73
     0
 74
     0
 75
     1
 76
     1
 77
     3
 78
     8
170
     0
171
     2
172
     1
173
     0
174
     0
175
     0
176
   256
177
   256
178
     2
270
     2
271
     2
272
     2
273
     2
274
     2
340
6B
275
     0
280
     0
281
     0
282
     0
283
     0
284
     0
285
     0
286
     0
287
     3
288
     0
  0
DIMSTYLE
105
68
330
A
100
AcDbSymbolTableRecord
100
AcDbDimStyleTableRecord
  2
AM_JIS$SH
 70
     0
  3

  4
"
  5

  6
GENAXEH
  7
OPEN30
 40
1.0
 41
2.5
 42
1.0
 43
10.0
 44
1.0
 45
0.0
 46
0.0
 47
0.1
 48
0.1
140
3.2
141
0.0
142
0.0
143
0.0393701
144
2.0
145
0.0
146
0.71
147
1.5
 71
     0
 72
     0
 73
     0
 74
     0
 75
     1
 76
     1
 77
     3
 78
     8
170
     0
171
     2
172
     1
173
     1
174
     0
175
     0
176
   256
177
   256
178
     2
270
     2
271
     2
272
     2
273
     2
274
     2
340
6B
275
     0
280
     0
281
     0
282
     0
283
     0
284
     0
285
     0
286
     0
287
     3
288
     0
  0
DIMSTYLE
105
B34
102
{ACAD_REACTORS
330
16AC7
102
}
330
A
100
AcDbSymbolTableRecord
100
AcDbDimStyleTableRecord
  2
AM_JIS$2
 70
     0
  3

  4
"
  5
OPEN30
  6

  7

 40
1.0
 41
2.5
 42
1.0
 43
12.0
 44
1.0
 45
0.0
 46
0.0
 47
0.1
 48
0.1
140
3.2
141
0.0
142
0.0
143
0.0393701
144
1.0
145
0.0
146
0.71
147
1.5
 71
     0
 72
     0
 73
     0
 74
     0
 75
     0
 76
     0
 77
     3
 78
     8
170
     0
171
     2
172
     1
173
     0
174
     0
175
     0
176
   256
177
   256
178
     2
270
     2
271
     3
272
     3
273
     2
274
     2
340
6B
275
     0
280
     0
281
     0
282
     0
283
     0
284
     0
285
     0
286
     0
287
     3
288
     0
  0
DIMSTYLE
105
1E42
102
{ACAD_REACTORS
330
1671F
330
1671D
330
167AC
102
}
330
A
100
AcDbSymbolTableRecord
100
AcDbDimStyleTableRecord
  2
AM_JIS$0
 70
     0
  3

  4
"
  5
OPEN30
  6

  7

 40
2.0
 41
2.5
 42
1.0
 43
10.0
 44
1.0
 45
0.0
 46
0.0
 47
0.1
 48
0.1
140
2.5
141
0.0
142
0.0
143
0.0393701
144
1.0
145
0.0
146
0.71
147
1.0
 71
     0
 72
     0
 73
     0
 74
     0
 75
     0
 76
     0
 77
     3
 78
     8
170
     0
171
     2
172
     1
173
     0
174
     0
175
     0
176
   256
177
   256
178
     4
270
     2
271
     3
272
     3
273
     2
274
     2
340
6B
275
     0
280
     0
281
     0
282
     0
283
     0
284
     0
285
     0
286
     0
287
     3
288
     0
  0
DIMSTYLE
105
16BEA
330
A
100
AcDbSymbolTableRecord
100
AcDbDimStyleTableRecord
  2
ISO-25
 70
     0
  3

  4

  5

  6

  7

 40
1.0
 41
2.5
 42
0.625
 43
3.75
 44
1.25
 45
0.0
 46
0.0
 47
0.0
 48
0.0
140
2.5
141
2.5
142
0.0
143
0.03937007874016
144
1.0
145
0.0
146
1.0
147
0.625
 71
     0
 72
     0
 73
     0
 74
     0
 75
     0
 76
     0
 77
     1
 78
     8
170
     0
171
     3
172
     1
173
     0
174
     0
175
     0
176
     0
177
     0
178
     0
270
     2
271
     2
272
     2
273
     2
274
     3
340
11
275
     0
280
     0
281
     0
282
     0
283
     0
284
     8
285
     0
286
     0
287
     3
288
     0
  0
ENDTAB
  0
TABLE
  2
BLOCK_RECORD
  5
1
330
0
100
AcDbSymbolTable
 70
    15
  0
BLOCK_RECORD
  5
1F
102
{ACAD_XDICTIONARY
360
74
102
}
330
1
100
AcDbSymbolTableRecord
100
AcDbBlockTableRecord
  2
*MODEL_SPACE
  0
BLOCK_RECORD
  5
101
102
{ACAD_XDICTIONARY
360
16D55
102
}
330
1
100
AcDbSymbolTableRecord
100
AcDbBlockTableRecord
  2
*PAPER_SPACE
  0
BLOCK_RECORD
  5
59
330
1
100
AcDbSymbolTableRecord
100
AcDbBlockTableRecord
  2
_OPEN30
  0
BLOCK_RECORD
  5
64
330
1
100
AcDbSymbolTableRecord
100
AcDbBlockTableRecord
  2
GENAXEH
  0
BLOCK_RECORD
  5
1666F
330
1
100
AcDbSymbolTableRecord
100
AcDbBlockTableRecord
  2
*D5
  0
BLOCK_RECORD
  5
1667B
330
1
100
AcDbSymbolTableRecord
100
AcDbBlockTableRecord
  2
*D6
  0
BLOCK_RECORD
  5
16687
330
1
100
AcDbSymbolTableRecord
100
AcDbBlockTableRecord
  2
*D7
  0
BLOCK_RECORD
  5
16693
330
1
100
AcDbSymbolTableRecord
100
AcDbBlockTableRecord
  2
*D8
  0
BLOCK_RECORD
  5
16721
330
1
100
AcDbSymbolTableRecord
100
AcDbBlockTableRecord
  2
*D9
  0
BLOCK_RECORD
  5
1672D
330
1
100
AcDbSymbolTableRecord
100
AcDbBlockTableRecord
  2
*D10
  0
BLOCK_RECORD
  5
16739
330
1
100
AcDbSymbolTableRecord
100
AcDbBlockTableRecord
  2
*D11
  0
BLOCK_RECORD
  5
16745
330
1
100
AcDbSymbolTableRecord
100
AcDbBlockTableRecord
  2
*D12
  0
BLOCK_RECORD
  5
167AD
330
1
100
AcDbSymbolTableRecord
100
AcDbBlockTableRecord
  2
*D13
  0
BLOCK_RECORD
  5
16AC8
330
1
100
AcDbSymbolTableRecord
100
AcDbBlockTableRecord
  2
*D14
  0
ENDTAB
  0
ENDSEC
  0
SECTION
  2
BLOCKS
  0
BLOCK
  5
20
330
1F
100
AcDbEntity
  8
0
100
AcDbBlockBegin
  2
*MODEL_SPACE
 70
     0
 10
0.0
 20
0.0
 30
0.0
  3
*MODEL_SPACE
  1

  0
ENDBLK
  5
21
330
1F
100
AcDbEntity
  8
0
100
AcDbBlockEnd
  0
BLOCK
  5
103
330
101
100
AcDbEntity
 67
     1
  8
0
100
AcDbBlockBegin
  2
*PAPER_SPACE
 70
     0
 10
0.0
 20
0.0
 30
0.0
  3
*PAPER_SPACE
  1

  0
ENDBLK
  5
104
330
101
100
AcDbEntity
 67
     1
  8
0
100
AcDbBlockEnd
  0
BLOCK
  5
5D
330
59
100
AcDbEntity
  8
0
100
AcDbBlockBegin
  2
_OPEN30
 70
     0
 10
0.0
 20
0.0
 30
0.0
  3
_OPEN30
  1

  0
LINE
  5
5A
330
59
100
AcDbEntity
  8
0
 62
     0
100
AcDbLine
 10
-1.0
 20
0.26794919
 30
0.0
 11
0.0
 21
0.0
 31
0.0
  0
LINE
  5
5B
330
59
100
AcDbEntity
  8
0
 62
     0
100
AcDbLine
 10
0.0
 20
0.0
 30
0.0
 11
-1.0
 21
-0.26794919
 31
0.0
  0
LINE
  5
5C
330
59
100
AcDbEntity
  8
0
 62
     0
100
AcDbLine
 10
0.0
 20
0.0
 30
0.0
 11
-1.0
 21
0.0
 31
0.0
  0
ENDBLK
  5
5E
330
59
100
AcDbEntity
  8
0
100
AcDbBlockEnd
  0
BLOCK
  5
66
330
64
100
AcDbEntity
  8
0
100
AcDbBlockBegin
  2
GENAXEH
 70
     0
 10
0.0
 20
0.0
 30
0.0
  3
GENAXEH
  1

  0
LINE
  5
65
330
64
100
AcDbEntity
  8
0
100
AcDbLine
 10
-1.0
 20
0.0
 30
0.0
 11
1.0
 21
0.0
 31
0.0
  0
ENDBLK
  5
67
330
64
100
AcDbEntity
  8
0
100
AcDbBlockEnd
  0
BLOCK
  5
16679
330
1666F
100
AcDbEntity
  8
0
100
AcDbBlockBegin
  2
*D5
 70
     1
 10
0.0
 20
0.0
 30
0.0
  3
*D5
  1

  0
LINE
  5
16A66
330
1666F
100
AcDbEntity
  8
AM_5
100
AcDbLine
 10
-36.17157287525407
 20
135.3
 30
0.0
 11
-123.2009544713347
 21
135.3
 31
0.0
  0
LINE
  5
16A67
330
1666F
100
AcDbEntity
  8
AM_5
100
AcDbLine
 10
-36.17157287525407
 20
-135.3
 30
0.0
 11
-123.2009544713347
 21
-135.2999999999999
 31
0.0
  0
LINE
  5
16A68
330
1666F
100
AcDbEntity
  8
AM_5
100
AcDbLine
 10
-122.2009544713347
 20
132.8
 30
0.0
 11
-122.2009544713347
 21
-132.7999999999999
 31
0.0
  0
INSERT
  5
16A69
330
1666F
100
AcDbEntity
  8
AM_5
100
AcDbBlockReference
  2
_OPEN30
 10
-122.2009544713347
 20
135.3
 30
0.0
 41
2.5
 42
2.5
 43
2.5
 50
90.0
  0
INSERT
  5
16A6A
330
1666F
100
AcDbEntity
  8
AM_5
100
AcDbBlockReference
  2
_OPEN30
 10
-122.2009544713347
 20
-135.2999999999999
 30
0.0
 41
2.5
 42
2.5
 43
2.5
 50
270.0
  0
MTEXT
  5
16A6B
330
1666F
100
AcDbEntity
  8
AM_5
 62
     2
100
AcDbMText
 10
-125.3009544713347
 20
0.0000000000000079
 30
0.0
 40
3.2
 41
0.0
 71
     5
 72
     1
  1
%%c270.6
  7
ASAMI
 11
0.0000000000000001
 21
1.0
 31
0.0
1001
ACAD
1000
MTEXTBEGIN
1070
    73
1070
     1
1070
    44
1040
1.0
1070
    74
1070
     0
1000
MTEXTEND
  0
POINT
  5
16A6C
330
1666F
100
AcDbEntity
  8
DEFPOINTS
 62
     0
100
AcDbPoint
 10
-35.17157287525407
 20
135.3
 30
0.0
  0
POINT
  5
16A6D
330
1666F
100
AcDbEntity
  8
DEFPOINTS
 62
     0
100
AcDbPoint
 10
-35.17157287525407
 20
-135.3
 30
0.0
  0
POINT
  5
16A6E
330
1666F
100
AcDbEntity
  8
DEFPOINTS
 62
     0
100
AcDbPoint
 10
-122.2009544713347
 20
-135.2999999999999
 30
0.0
  0
ENDBLK
  5
1667A
330
1666F
100
AcDbEntity
  8
0
100
AcDbBlockEnd
  0
BLOCK
  5
16685
330
1667B
100
AcDbEntity
  8
0
100
AcDbBlockBegin
  2
*D6
 70
     1
 10
0.0
 20
0.0
 30
0.0
  3
*D6
  1

  0
LINE
  5
16A5D
330
1667B
100
AcDbEntity
  8
AM_5
100
AcDbLine
 10
-71.00000000000005
 20
65.0
 30
0.0
 11
-113.2009544713347
 21
65.00000000000001
 31
0.0
  0
LINE
  5
16A5E
330
1667B
100
AcDbEntity
  8
AM_5
100
AcDbLine
 10
-70.99999999999994
 20
-65.00000000000011
 30
0.0
 11
-113.2009544713348
 21
-65.0000000000001
 31
0.0
  0
LINE
  5
16A5F
330
1667B
100
AcDbEntity
  8
AM_5
100
AcDbLine
 10
-112.2009544713347
 20
62.50000000000001
 30
0.0
 11
-112.2009544713348
 21
-62.5000000000001
 31
0.0
  0
INSERT
  5
16A60
330
1667B
100
AcDbEntity
  8
AM_5
100
AcDbBlockReference
  2
_OPEN30
 10
-112.2009544713347
 20
65.00000000000001
 30
0.0
 41
2.5
 42
2.5
 43
2.5
 50
90.0
  0
INSERT
  5
16A61
330
1667B
100
AcDbEntity
  8
AM_5
100
AcDbBlockReference
  2
_OPEN30
 10
-112.2009544713348
 20
-65.0000000000001
 30
0.0
 41
2.5
 42
2.5
 43
2.5
 50
270.0
  0
MTEXT
  5
16A62
330
1667B
100
AcDbEntity
  8
AM_5
 62
     2
100
AcDbMText
 10
-115.3009544713347
 20
-0.0000000000000638
 30
0.0
 40
3.2
 41
0.0
 71
     5
 72
     1
  1
%%c130
  7
ASAMI
 11
0.0000000000000001
 21
1.0
 31
0.0
1001
ACAD
1000
MTEXTBEGIN
1070
    73
1070
     1
1070
    44
1040
1.0
1070
    74
1070
     0
1000
MTEXTEND
  0
POINT
  5
16A63
330
1667B
100
AcDbEntity
  8
DEFPOINTS
 62
     0
100
AcDbPoint
 10
-70.00000000000006
 20
65.0
 30
0.0
  0
POINT
  5
16A64
330
1667B
100
AcDbEntity
  8
DEFPOINTS
 62
     0
100
AcDbPoint
 10
-69.99999999999994
 20
-65.00000000000011
 30
0.0
  0
POINT
  5
16A65
330
1667B
100
AcDbEntity
  8
DEFPOINTS
 62
     0
100
AcDbPoint
 10
-112.2009544713348
 20
-65.0000000000001
 30
0.0
  0
ENDBLK
  5
16686
330
1667B
100
AcDbEntity
  8
0
100
AcDbBlockEnd
  0
BLOCK
  5
16691
330
16687
100
AcDbEntity
  8
0
100
AcDbBlockBegin
  2
*D7
 70
     1
 10
0.0
 20
0.0
 30
0.0
  3
*D7
  1

  0
LINE
  5
16A4B
330
16687
100
AcDbEntity
  8
AM_5
100
AcDbLine
 10
-69.09999999999974
 20
12.70000000000001
 30
0.0
 11
-93.2009544713348
 21
12.70000000000002
 31
0.0
  0
LINE
  5
16A4C
330
16687
100
AcDbEntity
  8
AM_5
100
AcDbLine
 10
-69.09999999999974
 20
-12.70000000000001
 30
0.0
 11
-93.2009544713348
 21
-12.70000000000001
 31
0.0
  0
LINE
  5
16A4D
330
16687
100
AcDbEntity
  8
AM_5
100
AcDbLine
 10
-92.20095447133479
 20
10.20000000000002
 30
0.0
 11
-92.20095447133479
 21
-10.20000000000001
 31
0.0
  0
INSERT
  5
16A4E
330
16687
100
AcDbEntity
  8
AM_5
100
AcDbBlockReference
  2
_OPEN30
 10
-92.20095447133479
 20
12.70000000000002
 30
0.0
 41
2.5
 42
2.5
 43
2.5
 50
90.0
  0
INSERT
  5
16A4F
330
16687
100
AcDbEntity
  8
AM_5
100
AcDbBlockReference
  2
_OPEN30
 10
-92.20095447133479
 20
-12.70000000000001
 30
0.0
 41
2.5
 42
2.5
 43
2.5
 50
270.0
  0
MTEXT
  5
16A50
330
16687
100
AcDbEntity
  8
AM_5
 62
     2
100
AcDbMText
 10
-95.30095447133479
 20
-0.0000000000000423
 30
0.0
 40
3.2
 41
0.0
 71
     5
 72
     1
  1
25.4
  7
ASAMI
 11
0.0000000000000001
 21
1.0
 31
0.0
1001
ACAD
1000
MTEXTBEGIN
1070
    73
1070
     1
1070
    44
1040
1.0
1070
    74
1070
     0
1000
MTEXTEND
  0
POINT
  5
16A51
330
16687
100
AcDbEntity
  8
DEFPOINTS
 62
     0
100
AcDbPoint
 10
-68.09999999999973
 20
12.70000000000001
 30
0.0
  0
POINT
  5
16A52
330
16687
100
AcDbEntity
  8
DEFPOINTS
 62
     0
100
AcDbPoint
 10
-68.09999999999973
 20
-12.70000000000001
 30
0.0
  0
POINT
  5
16A53
330
16687
100
AcDbEntity
  8
DEFPOINTS
 62
     0
100
AcDbPoint
 10
-92.20095447133479
 20
-12.70000000000001
 30
0.0
  0
ENDBLK
  5
16692
330
16687
100
AcDbEntity
  8
0
100
AcDbBlockEnd
  0
BLOCK
  5
1669D
330
16693
100
AcDbEntity
  8
0
100
AcDbBlockBegin
  2
*D8
 70
     1
 10
0.0
 20
0.0
 30
0.0
  3
*D8
  1

  0
LINE
  5
16AA9
330
16693
100
AcDbEntity
  8
AM_5
100
AcDbLine
 10
-68.09999999999985
 20
23.81250000000008
 30
0.0
 11
-103.2009544713347
 21
23.81250000000009
 31
0.0
  0
LINE
  5
16AAA
330
16693
100
AcDbEntity
  8
AM_5
100
AcDbLine
 10
-68.09999999999985
 20
-23.81250000000007
 30
0.0
 11
-103.2009544713347
 21
-23.81250000000006
 31
0.0
  0
LINE
  5
16AAB
330
16693
100
AcDbEntity
  8
AM_5
100
AcDbLine
 10
-102.2009544713347
 20
21.31250000000009
 30
0.0
 11
-102.2009544713347
 21
-21.31250000000006
 31
0.0
  0
INSERT
  5
16AAC
330
16693
100
AcDbEntity
  8
AM_5
100
AcDbBlockReference
  2
_OPEN30
 10
-102.2009544713347
 20
23.81250000000009
 30
0.0
 41
2.5
 42
2.5
 43
2.5
 50
90.0
  0
INSERT
  5
16AAD
330
16693
100
AcDbEntity
  8
AM_5
100
AcDbBlockReference
  2
_OPEN30
 10
-102.2009544713347
 20
-23.81250000000006
 30
0.0
 41
2.5
 42
2.5
 43
2.5
 50
270.0
  0
MTEXT
  5
16AAE
330
16693
100
AcDbEntity
  8
AM_5
 62
     2
100
AcDbMText
 10
-105.3009544713347
 20
0.0000000000000031
 30
0.0
 40
3.2
 41
0.0
 71
     5
 72
     1
  1
%%c47.625
  7
ASAMI
 11
0.0000000000000001
 21
1.0
 31
0.0
1001
ACAD
1000
MTEXTBEGIN
1070
    73
1070
     1
1070
    44
1040
1.0
1070
    74
1070
     0
1000
MTEXTEND
  0
POINT
  5
16AAF
330
16693
100
AcDbEntity
  8
DEFPOINTS
 62
     0
100
AcDbPoint
 10
-67.09999999999985
 20
23.81250000000008
 30
0.0
  0
POINT
  5
16AB0
330
16693
100
AcDbEntity
  8
DEFPOINTS
 62
     0
100
AcDbPoint
 10
-67.09999999999985
 20
-23.81250000000007
 30
0.0
  0
POINT
  5
16AB1
330
16693
100
AcDbEntity
  8
DEFPOINTS
 62
     0
100
AcDbPoint
 10
-102.2009544713347
 20
-23.81250000000006
 30
0.0
  0
ENDBLK
  5
1669E
330
16693
100
AcDbEntity
  8
0
100
AcDbBlockEnd
  0
BLOCK
  5
1672B
330
16721
100
AcDbEntity
  8
0
100
AcDbBlockBegin
  2
*D9
 70
     1
 10
0.0
 20
0.0
 30
0.0
  3
*D9
  1

  0
LINE
  5
16A30
330
16721
100
AcDbEntity
  8
AM_5
100
AcDbLine
 10
-70.00000000000006
 20
-66.0
 30
0.0
 11
-70.00000000000006
 21
-171.080085
 31
0.0
  0
LINE
  5
16A31
330
16721
100
AcDbEntity
  8
AM_5
100
AcDbLine
 10
-30.00000000000017
 20
-75.14359353944829
 30
0.0
 11
-30.00000000000017
 21
-171.080085
 31
0.0
  0
LINE
  5
16A32
330
16721
100
AcDbEntity
  8
AM_5
100
AcDbLine
 10
-67.50000000000006
 20
-170.080085
 30
0.0
 11
-32.50000000000017
 21
-170.080085
 31
0.0
  0
INSERT
  5
16A33
330
16721
100
AcDbEntity
  8
AM_5
100
AcDbBlockReference
  2
_OPEN30
 10
-70.00000000000006
 20
-170.080085
 30
0.0
 41
2.5
 42
2.5
 43
2.5
 50
180.0
  0
INSERT
  5
16A34
330
16721
100
AcDbEntity
  8
AM_5
100
AcDbBlockReference
  2
_OPEN30
 10
-30.00000000000017
 20
-170.080085
 30
0.0
 41
2.5
 42
2.5
 43
2.5
  0
MTEXT
  5
16A35
330
16721
100
AcDbEntity
  8
AM_5
 62
     2
100
AcDbMText
 10
-50.00000000000011
 20
-166.980085
 30
0.0
 40
3.2
 41
0.0
 71
     5
 72
     1
  1
40
  7
ASAMI
1001
ACAD
1000
MTEXTBEGIN
1070
    73
1070
     1
1070
    44
1040
1.0
1070
    74
1070
     0
1000
MTEXTEND
  0
POINT
  5
16A36
330
16721
100
AcDbEntity
  8
DEFPOINTS
 62
     0
100
AcDbPoint
 10
-70.00000000000006
 20
-65.0
 30
0.0
  0
POINT
  5
16A37
330
16721
100
AcDbEntity
  8
DEFPOINTS
 62
     0
100
AcDbPoint
 10
-30.00000000000017
 20
-74.14359353944829
 30
0.0
  0
POINT
  5
16A38
330
16721
100
AcDbEntity
  8
DEFPOINTS
 62
     0
100
AcDbPoint
 10
-30.00000000000017
 20
-170.080085
 30
0.0
  0
ENDBLK
  5
1672C
330
16721
100
AcDbEntity
  8
0
100
AcDbBlockEnd
  0
BLOCK
  5
16737
330
1672D
100
AcDbEntity
  8
0
100
AcDbBlockBegin
  2
*D10
 70
     1
 10
0.0
 20
0.0
 30
0.0
  3
*D10
  1

  0
LINE
  5
16A39
330
1672D
100
AcDbEntity
  8
AM_5
100
AcDbLine
 10
-70.00000000000006
 20
-66.0
 30
0.0
 11
-70.00000000000007
 21
-181.080085
 31
0.0
  0
LINE
  5
16A3A
330
1672D
100
AcDbEntity
  8
AM_5
100
AcDbLine
 10
-0.0000000000000001
 20
-126.0
 30
0.0
 11
-0.0000000000000034
 21
-181.080085
 31
0.0
  0
LINE
  5
16A3B
330
1672D
100
AcDbEntity
  8
AM_5
100
AcDbLine
 10
-67.50000000000006
 20
-180.080085
 30
0.0
 11
-2.500000000000003
 21
-180.080085
 31
0.0
  0
INSERT
  5
16A3C
330
1672D
100
AcDbEntity
  8
AM_5
100
AcDbBlockReference
  2
_OPEN30
 10
-70.00000000000006
 20
-180.080085
 30
0.0
 41
2.5
 42
2.5
 43
2.5
 50
180.0
  0
INSERT
  5
16A3D
330
1672D
100
AcDbEntity
  8
AM_5
100
AcDbBlockReference
  2
_OPEN30
 10
-0.0000000000000034
 20
-180.080085
 30
0.0
 41
2.5
 42
2.5
 43
2.5
  0
MTEXT
  5
16A3E
330
1672D
100
AcDbEntity
  8
AM_5
 62
     2
100
AcDbMText
 10
-35.00000000000003
 20
-176.980085
 30
0.0
 40
3.2
 41
0.0
 71
     5
 72
     1
  1
70
  7
ASAMI
1001
ACAD
1000
MTEXTBEGIN
1070
    73
1070
     1
1070
    44
1040
1.0
1070
    74
1070
     0
1000
MTEXTEND
  0
POINT
  5
16A3F
330
1672D
100
AcDbEntity
  8
DEFPOINTS
 62
     0
100
AcDbPoint
 10
-70.00000000000006
 20
-65.0
 30
0.0
  0
POINT
  5
16A40
330
1672D
100
AcDbEntity
  8
DEFPOINTS
 62
     0
100
AcDbPoint
 10
0.0
 20
-125.0
 30
0.0
  0
POINT
  5
16A41
330
1672D
100
AcDbEntity
  8
DEFPOINTS
 62
     0
100
AcDbPoint
 10
-0.0000000000000034
 20
-180.080085
 30
0.0
  0
ENDBLK
  5
16738
330
1672D
100
AcDbEntity
  8
0
100
AcDbBlockEnd
  0
BLOCK
  5
16743
330
16739
100
AcDbEntity
  8
0
100
AcDbBlockBegin
  2
*D11
 70
     1
 10
0.0
 20
0.0
 30
0.0
  3
*D11
  1

  0
LINE
  5
16A27
330
16739
100
AcDbEntity
  8
AM_5
100
AcDbLine
 10
-70.00000000000006
 20
-66.0
 30
0.0
 11
-70.00000000000006
 21
-151.080085
 31
0.0
  0
LINE
  5
16A28
330
16739
100
AcDbEntity
  8
AM_5
100
AcDbLine
 10
-56.49999999999995
 20
-13.69999999999996
 30
0.0
 11
-56.49999999999995
 21
-151.080085
 31
0.0
  0
LINE
  5
16A29
330
16739
100
AcDbEntity
  8
AM_5
100
AcDbLine
 10
-67.50000000000006
 20
-150.080085
 30
0.0
 11
-58.99999999999995
 21
-150.080085
 31
0.0
  0
INSERT
  5
16A2A
330
16739
100
AcDbEntity
  8
AM_5
100
AcDbBlockReference
  2
_OPEN30
 10
-70.00000000000006
 20
-150.080085
 30
0.0
 41
2.5
 42
2.5
 43
2.5
 50
180.0
  0
INSERT
  5
16A2B
330
16739
100
AcDbEntity
  8
AM_5
100
AcDbBlockReference
  2
_OPEN30
 10
-56.49999999999995
 20
-150.080085
 30
0.0
 41
2.5
 42
2.5
 43
2.5
  0
MTEXT
  5
16A2C
330
16739
100
AcDbEntity
  8
AM_5
 62
     2
100
AcDbMText
 10
-63.25
 20
-146.980085
 30
0.0
 40
3.2
 41
0.0
 71
     5
 72
     1
  1
13.5
  7
ASAMI
1001
ACAD
1000
MTEXTBEGIN
1070
    73
1070
     1
1070
    44
1040
1.0
1070
    74
1070
     0
1000
MTEXTEND
  0
POINT
  5
16A2D
330
16739
100
AcDbEntity
  8
DEFPOINTS
 62
     0
100
AcDbPoint
 10
-70.00000000000006
 20
-65.0
 30
0.0
  0
POINT
  5
16A2E
330
16739
100
AcDbEntity
  8
DEFPOINTS
 62
     0
100
AcDbPoint
 10
-56.49999999999995
 20
-12.69999999999996
 30
0.0
  0
POINT
  5
16A2F
330
16739
100
AcDbEntity
  8
DEFPOINTS
 62
     0
100
AcDbPoint
 10
-56.49999999999995
 20
-150.080085
 30
0.0
  0
ENDBLK
  5
16744
330
16739
100
AcDbEntity
  8
0
100
AcDbBlockEnd
  0
BLOCK
  5
1674F
330
16745
100
AcDbEntity
  8
0
100
AcDbBlockBegin
  2
*D12
 70
     1
 10
0.0
 20
0.0
 30
0.0
  3
*D12
  1

  0
LINE
  5
16A42
330
16745
100
AcDbEntity
  8
AM_5
100
AcDbLine
 10
-70.00000000000006
 20
-66.0
 30
0.0
 11
-70.00000000000006
 21
-161.080085
 31
0.0
  0
LINE
  5
16A43
330
16745
100
AcDbEntity
  8
AM_5
100
AcDbLine
 10
-37.99999999999994
 20
-64.80000000000001
 30
0.0
 11
-37.99999999999995
 21
-161.080085
 31
0.0
  0
LINE
  5
16A44
330
16745
100
AcDbEntity
  8
AM_5
100
AcDbLine
 10
-67.50000000000006
 20
-160.080085
 30
0.0
 11
-40.49999999999995
 21
-160.080085
 31
0.0
  0
INSERT
  5
16A45
330
16745
100
AcDbEntity
  8
AM_5
100
AcDbBlockReference
  2
_OPEN30
 10
-70.00000000000006
 20
-160.080085
 30
0.0
 41
2.5
 42
2.5
 43
2.5
 50
180.0
  0
INSERT
  5
16A46
330
16745
100
AcDbEntity
  8
AM_5
100
AcDbBlockReference
  2
_OPEN30
 10
-37.99999999999995
 20
-160.080085
 30
0.0
 41
2.5
 42
2.5
 43
2.5
  0
MTEXT
  5
16A47
330
16745
100
AcDbEntity
  8
AM_5
 62
     2
100
AcDbMText
 10
-54.0
 20
-156.980085
 30
0.0
 40
3.2
 41
0.0
 71
     5
 72
     1
  1
32
  7
ASAMI
1001
ACAD
1000
MTEXTBEGIN
1070
    73
1070
     1
1070
    44
1040
1.0
1070
    74
1070
     0
1000
MTEXTEND
  0
POINT
  5
16A48
330
16745
100
AcDbEntity
  8
DEFPOINTS
 62
     0
100
AcDbPoint
 10
-70.00000000000006
 20
-65.0
 30
0.0
  0
POINT
  5
16A49
330
16745
100
AcDbEntity
  8
DEFPOINTS
 62
     0
100
AcDbPoint
 10
-37.99999999999994
 20
-63.80000000000001
 30
0.0
  0
POINT
  5
16A4A
330
16745
100
AcDbEntity
  8
DEFPOINTS
 62
     0
100
AcDbPoint
 10
-37.99999999999995
 20
-160.080085
 30
0.0
  0
ENDBLK
  5
16750
330
16745
100
AcDbEntity
  8
0
100
AcDbBlockEnd
  0
BLOCK
  5
167B7
330
167AD
100
AcDbEntity
  8
0
100
AcDbBlockBegin
  2
*D13
 70
     1
 10
0.0
 20
0.0
 30
0.0
  3
*D13
  1

  0
LINE
  5
16A6F
330
167AD
100
AcDbEntity
  8
AM_5
100
AcDbLine
 10
1.0
 20
125.0
 30
0.0
 11
22.17978912546641
 21
125.0
 31
0.0
  0
LINE
  5
16A70
330
167AD
100
AcDbEntity
  8
AM_5
100
AcDbLine
 10
1.0
 20
-125.0
 30
0.0
 11
22.17978912546635
 21
-125.0
 31
0.0
  0
LINE
  5
16A71
330
167AD
100
AcDbEntity
  8
AM_5
100
AcDbLine
 10
21.17978912546641
 20
122.5
 30
0.0
 11
21.17978912546635
 21
-122.5
 31
0.0
  0
INSERT
  5
16A72
330
167AD
100
AcDbEntity
  8
AM_5
100
AcDbBlockReference
  2
_OPEN30
 10
21.17978912546641
 20
125.0
 30
0.0
 41
2.5
 42
2.5
 43
2.5
 50
90.0
  0
INSERT
  5
16A73
330
167AD
100
AcDbEntity
  8
AM_5
100
AcDbBlockReference
  2
_OPEN30
 10
21.17978912546635
 20
-125.0
 30
0.0
 41
2.5
 42
2.5
 43
2.5
 50
270.0
  0
MTEXT
  5
16A74
330
167AD
100
AcDbEntity
  8
AM_5
 62
     2
100
AcDbMText
 10
18.07978912546638
 20
-0.0000000000000009
 30
0.0
 40
3.2
 41
0.0
 71
     5
 72
     1
  1
%%c250
  7
ASAMI
 11
0.0000000000000001
 21
1.0
 31
0.0
1001
ACAD
1000
MTEXTBEGIN
1070
    73
1070
     1
1070
    44
1040
1.0
1070
    74
1070
     0
1000
MTEXTEND
  0
POINT
  5
16A75
330
167AD
100
AcDbEntity
  8
DEFPOINTS
 62
     0
100
AcDbPoint
 10
0.0
 20
125.0
 30
0.0
  0
POINT
  5
16A76
330
167AD
100
AcDbEntity
  8
DEFPOINTS
 62
     0
100
AcDbPoint
 10
0.0
 20
-125.0
 30
0.0
  0
POINT
  5
16A77
330
167AD
100
AcDbEntity
  8
DEFPOINTS
 62
     0
100
AcDbPoint
 10
21.17978912546635
 20
-125.0
 30
0.0
  0
ENDBLK
  5
167B8
330
167AD
100
AcDbEntity
  8
0
100
AcDbBlockEnd
  0
BLOCK
  5
16AD8
330
16AC8
100
AcDbEntity
  8
0
100
AcDbBlockBegin
  2
*D14
 70
     1
 10
0.0
 20
0.0
 30
0.0
  3
*D14
  1

  0
LINE
  5
16CFB
330
16AC8
100
AcDbEntity
  8
AM_5
100
AcDbLine
 10
-7.252095181973459
 20
-132.6631370256185
 30
0.0
 11
-24.54739152432696
 21
-150.2942210913293
 31
0.0
  0
LINE
  5
16CFC
330
16AC8
100
AcDbEntity
  8
AM_5
100
AcDbLine
 10
-0.0000000000000071
 20
-126.2702426065274
 30
0.0
 11
-0.0000000000000071
 21
-160.3241144305703
 31
0.0
  0
ARC
  5
16CFD
330
16AC8
100
AcDbEntity
  8
AM_5
100
AcDbCircle
 10
-0.0000000000000071
 20
-125.2702426065274
 30
0.0
 40
34.05387182404287
100
AcDbArc
 50
229.7580391077494
 51
265.7927945714192
  0
INSERT
  5
16CFE
330
16AC8
100
AcDbEntity
  8
AM_5
100
AcDbBlockReference
  2
_OPEN30
 10
-23.84711534235353
 20
-149.5803490657108
 30
0.0
 41
2.5
 42
2.5
 43
2.5
 50
137.654436393459
  0
INSERT
  5
16CFF
330
16AC8
100
AcDbEntity
  8
AM_5
100
AcDbBlockReference
  2
_OPEN30
 10
-0.0000000000000071
 20
-159.3241144305703
 30
0.0
 41
2.5
 42
2.5
 43
2.5
 50
357.8963972857096
  0
MTEXT
  5
16D00
330
16AC8
100
AcDbEntity
  8
AM_5
 62
     2
100
AcDbMText
 10
-11.70793067519089
 20
-153.9245012813597
 30
0.0
 40
3.2
 41
0.0
 71
     5
 72
     1
  1
45%%d
  7
ASAMI
 11
0.9257083843248187
 21
-0.3782380033665758
 31
0.0
1001
ACAD
1000
MTEXTBEGIN
1070
    73
1070
     1
1070
    44
1040
1.0
1070
    74
1070
     0
1000
MTEXTEND
  0
POINT
  5
16D01
330
16AC8
100
AcDbEntity
  8
DEFPOINTS
 62
     0
100
AcDbPoint
 10
-16.8375692442906
 20
-154.8702839604185
 30
0.0
  0
POINT
  5
16D02
330
16AC8
100
AcDbEntity
  8
DEFPOINTS
 62
     0
100
AcDbPoint
 10
-6.551819000000023
 20
-131.9492649999999
 30
0.0
  0
POINT
  5
16D03
330
16AC8
100
AcDbEntity
  8
DEFPOINTS
 62
     0
100
AcDbPoint
 10
0.0
 20
125.0
 30
0.0
  0
POINT
  5
16D04
330
16AC8
100
AcDbEntity
  8
DEFPOINTS
 62
     0
100
AcDbPoint
 10
0.0
 20
-125.0
 30
0.0
  0
POINT
  5
16D05
330
16AC8
100
AcDbEntity
  8
DEFPOINTS
 62
     0
100
AcDbPoint
 10
-0.1842080000000123
 20
-125.458027
 30
0.0
  0
ENDBLK
  5
16AD9
330
16AC8
100
AcDbEntity
  8
0
100
AcDbBlockEnd
  0
ENDSEC
  0
SECTION
  2
ENTITIES
  0
TEXT
  5
E5A
330
1F
100
AcDbEntity
  8
AM_6
100
AcDbText
 10
-53.33333333333335
 20
-202.580085
 30
0.0
 40
5.0
  1
FPG4250R
 72
     4
 11
-35.00000000000002
 21
-200.080085
 31
0.0
100
AcDbText
  0
LINE
  5
14807
330
1F
100
AcDbEntity
  8
AM_0
100
AcDbLine
 10
-31.99999999999983
 20
-23.49749999999999
 30
0.0
 11
-31.99999999999971
 21
0.0
 31
0.0
  0
LINE
  5
14808
330
1F
100
AcDbEntity
  8
AM_0
100
AcDbLine
 10
-22.00000000000017
 20
88.00027035540512
 30
0.0
 11
-21.99999999999994
 21
-88.00027035540557
 31
0.0
  0
LINE
  5
14809
330
1F
100
AcDbEntity
  8
AM_0
100
AcDbLine
 10
-70.00000000000006
 20
-65.00000000000003
 30
0.0
 11
-69.99999999999971
 21
-14.60000000000002
 31
0.0
  0
LINE
  5
1480A
330
1F
100
AcDbEntity
  8
AM_0
100
AcDbLine
 10
-30.00000000000023
 20
-74.14359353944829
 30
0.0
 11
-29.99999999999971
 21
0.0
 31
0.0
  0
LINE
  5
1480B
330
1F
100
AcDbEntity
  8
AM_7
100
AcDbLine
 10
-75.8528378797003
 20
-50.80000000000001
 30
0.0
 11
-24.83202670510644
 21
-50.80000000000001
 31
0.0
  0
LINE
  5
1480C
330
1F
100
AcDbEntity
  8
AM_11
100
AcDbLine
 10
-68.60000000000008
 20
-59.80000000000003
 30
0.0
 11
-38.49999999999994
 21
-59.79999999999998
 31
0.0
  0
LINE
  5
1480D
330
1F
100
AcDbEntity
  8
AM_0
100
AcDbLine
 10
-54.22614972482501
 20
-117.0738502751751
 30
0.0
 11
-36.58578643762718
 21
-134.7142135623731
 31
0.0
  0
LINE
  5
1480E
330
1F
100
AcDbEntity
  8
AM_0
100
AcDbLine
 10
-58.49999999999983
 20
-23.81249999999996
 30
0.0
 11
-49.47958021588267
 21
-23.49750000000002
 31
0.0
  0
LINE
  5
1480F
330
1F
100
AcDbEntity
  8
AM_11
100
AcDbLine
 10
-68.60000000000019
 20
-41.80000000000001
 30
0.0
 11
-38.49999999999994
 21
-41.80000000000001
 31
0.0
  0
LINE
  5
14810
330
1F
100
AcDbEntity
  8
AM_0
100
AcDbLine
 10
-68.60000000000019
 20
-87.99999999999988
 30
0.0
 11
-68.60000000000008
 21
-66.39999999999997
 31
0.0
  0
LINE
  5
14811
330
1F
100
AcDbEntity
  8
AM_0
100
AcDbLine
 10
-54.22614972482501
 20
-117.0738502751751
 30
0.0
 11
-58.56287563449512
 21
-92.47905546699909
 31
0.0
  0
LINE
  5
14813
330
1F
100
AcDbEntity
  8
AM_0
100
AcDbLine
 10
-66.60000000000019
 20
-89.99999999999989
 30
0.0
 11
-61.51729889353174
 21
-89.99999999999991
 31
0.0
  0
LINE
  5
14815
330
1F
100
AcDbEntity
  8
AM_11
100
AcDbLine
 10
-68.60000000000008
 20
-59.8000000000001
 30
0.0
 11
-68.59999999999996
 21
-41.80000000000018
 31
0.0
  0
LINE
  5
14816
330
1F
100
AcDbEntity
  8
AM_0
100
AcDbLine
 10
-69.99999999999994
 20
-65.00000000000011
 30
0.0
 11
-68.60000000000008
 21
-66.39999999999997
 31
0.0
  0
LINE
  5
14817
330
1F
100
AcDbEntity
  8
AM_11
100
AcDbLine
 10
-70.00000000000006
 20
-61.20000000000001
 30
0.0
 11
-68.60000000000008
 21
-59.80000000000001
 31
0.0
  0
LINE
  5
14818
330
1F
100
AcDbEntity
  8
AM_11
100
AcDbLine
 10
-70.00000000000006
 20
-40.4
 30
0.0
 11
-68.60000000000008
 21
-41.80000000000001
 31
0.0
  0
LINE
  5
14819
330
1F
100
AcDbEntity
  8
AM_0
100
AcDbLine
 10
-58.49999999999994
 20
-23.81249999999999
 30
0.0
 11
-58.49999999999974
 21
-12.69999999999997
 31
0.0
  0
LINE
  5
1481A
330
1F
100
AcDbEntity
  8
AM_0
100
AcDbLine
 10
-67.09999999999985
 20
-23.81249999999999
 30
0.0
 11
-67.09999999999967
 21
-12.70000000000001
 31
0.0
  0
LINE
  5
1481B
330
1F
100
AcDbEntity
  8
AM_0
100
AcDbLine
 10
-67.09999999999974
 20
-23.81249999999996
 30
0.0
 11
-58.49999999999983
 21
-23.81249999999996
 31
0.0
  0
LINE
  5
1481D
330
1F
100
AcDbEntity
  8
AM_3
100
AcDbLine
 10
-22.69999999999999
 20
-132.3
 30
0.0
 11
-22.7000000000001
 21
-129.15
 31
0.0
  0
LINE
  5
1481E
330
1F
100
AcDbEntity
  8
AM_3
100
AcDbLine
 10
-13.25000000000005
 20
-135.3
 30
0.0
 11
-1.900000000000147
 21
-123.7501560897661
 31
0.0
  0
LINE
  5
1481F
330
1F
100
AcDbEntity
  8
AM_3
100
AcDbLine
 10
-27.70000000000021
 20
-134.3
 30
0.0
 11
-27.70000000000021
 21
-129.5235525892868
 31
0.0
  0
LINE
  5
14820
330
1F
100
AcDbEntity
  8
AM_3
100
AcDbLine
 10
-19.69999999999998
 20
-135.3
 30
0.0
 11
-13.25000000000005
 21
-135.3
 31
0.0
  0
LINE
  5
14821
330
1F
100
AcDbEntity
  8
AM_0
100
AcDbLine
 10
-35.17157287525407
 20
-135.3
 30
0.0
 11
-28.70000000000021
 21
-135.3
 31
0.0
  0
LINE
  5
14823
330
1F
100
AcDbEntity
  8
AM_3
100
AcDbLine
 10
-27.99568075853892
 20
-134.5956807585387
 30
0.0
 11
-27.70000000000021
 21
-134.3
 31
0.0
  0
LINE
  5
14825
330
1F
100
AcDbEntity
  8
AM_0
100
AcDbLine
 10
-21.99999999999994
 20
-88.0
 30
0.0
 11
-30.00000000000017
 21
-74.14359353944829
 31
0.0
  0
LINE
  5
14826
330
1F
100
AcDbEntity
  8
AM_3
100
AcDbLine
 10
-1.900000000000147
 20
-122.2501560897661
 30
0.0
 11
-22.00000000000017
 21
-102.1501560897661
 31
0.0
  0
LINE
  5
14827
330
1F
100
AcDbEntity
  8
AM_3
100
AcDbLine
 10
-27.12028534646009
 20
-128.75
 30
0.0
 11
-23.10000000000008
 21
-128.7500000000001
 31
0.0
  0
LINE
  5
1482A
330
1F
100
AcDbEntity
  8
AM_3
100
AcDbLine
 10
-1.900000000000147
 20
-123.7501560897661
 30
0.0
 11
-1.900000000000147
 21
-122.2501560897661
 31
0.0
  0
LINE
  5
1482B
330
1F
100
AcDbEntity
  8
AM_0
100
AcDbLine
 10
-22.0
 20
-92.5
 30
0.0
 11
-21.99999999999994
 21
-88.00027035540557
 31
0.0
  0
LINE
  5
1482C
330
1F
100
AcDbEntity
  8
AM_0
100
AcDbLine
 10
-20.90000000000014
 20
-92.50000000000003
 30
0.0
 11
-20.90000000000014
 21
-97.5
 31
0.0
  0
LINE
  5
1482D
330
1F
100
AcDbEntity
  8
AM_0
100
AcDbLine
 10
-22.00000000000017
 20
-102.1501560897661
 30
0.0
 11
-22.00000000000017
 21
-97.5
 31
0.0
  0
LINE
  5
1482E
330
1F
100
AcDbEntity
  8
AM_0
100
AcDbLine
 10
-22.00000000000005
 20
-97.5
 30
0.0
 11
-20.90000000000003
 21
-97.50000000000003
 31
0.0
  0
LINE
  5
14830
330
1F
100
AcDbEntity
  8
AM_11
100
AcDbLine
 10
-37.99999999999994
 20
-63.80000000000004
 30
0.0
 11
-38.00000000000006
 21
-37.80000000000001
 31
0.0
  0
LINE
  5
14831
330
1F
100
AcDbEntity
  8
AM_11
100
AcDbLine
 10
-31.00000000000017
 20
-63.79999999999984
 30
0.0
 11
-30.99999999999994
 21
-37.79999999999986
 31
0.0
  0
LINE
  5
14832
330
1F
100
AcDbEntity
  8
AM_11
100
AcDbLine
 10
-38.50000000000005
 20
-59.79999999999993
 30
0.0
 11
-38.49999999999994
 21
-41.80000000000004
 31
0.0
  0
LINE
  5
14833
330
1F
100
AcDbEntity
  8
AM_11
100
AcDbLine
 10
-38.00000000000017
 20
-63.80000000000001
 30
0.0
 11
-31.00000000000005
 21
-63.80000000000004
 31
0.0
  0
LINE
  5
14834
330
1F
100
AcDbEntity
  8
AM_11
100
AcDbLine
 10
-38.49999999999994
 20
-59.79999999999998
 30
0.0
 11
-38.00000000000006
 21
-60.29999999999998
 31
0.0
  0
LINE
  5
14835
330
1F
100
AcDbEntity
  8
AM_11
100
AcDbLine
 10
-31.00000000000005
 20
-63.80000000000004
 30
0.0
 11
-30.00000000000017
 21
-64.80000000000003
 31
0.0
  0
LINE
  5
14836
330
1F
100
AcDbEntity
  8
AM_11
100
AcDbLine
 10
-38.00000000000006
 20
-37.80000000000001
 30
0.0
 11
-31.00000000000005
 21
-37.80000000000001
 31
0.0
  0
LINE
  5
14837
330
1F
100
AcDbEntity
  8
AM_11
100
AcDbLine
 10
-38.49999999999994
 20
-41.80000000000004
 30
0.0
 11
-38.00000000000006
 21
-41.30000000000004
 31
0.0
  0
LINE
  5
14838
330
1F
100
AcDbEntity
  8
AM_11
100
AcDbLine
 10
-31.00000000000005
 20
-37.79999999999998
 30
0.0
 11
-30.00000000000017
 21
-36.79999999999998
 31
0.0
  0
LINE
  5
14839
330
1F
100
AcDbEntity
  8
AM_0
100
AcDbLine
 10
-49.47958021588267
 20
-23.49750000000002
 30
0.0
 11
-31.99999999999983
 21
-23.49749999999999
 31
0.0
  0
LINE
  5
1483A
330
1F
100
AcDbEntity
  8
AM_0
100
AcDbLine
 10
-49.47958021588267
 20
-23.49750000000002
 30
0.0
 11
-49.47958021588224
 21
0.0
 31
0.0
  0
LINE
  5
1483B
330
1F
100
AcDbEntity
  8
AM_0
100
AcDbLine
 10
-31.99999999999983
 20
-23.49749999999999
 30
0.0
 11
-29.99999999999994
 21
-25.49749999999999
 31
0.0
  0
LINE
  5
1483C
330
1F
100
AcDbEntity
  8
AM_11
100
AcDbLine
 10
-68.60000000000019
 20
41.80000000000001
 30
0.0
 11
-38.49999999999994
 21
41.80000000000001
 31
0.0
  0
LINE
  5
1483D
330
1F
100
AcDbEntity
  8
AM_11
100
AcDbLine
 10
-68.60000000000008
 20
59.80000000000003
 30
0.0
 11
-38.49999999999994
 21
59.79999999999998
 31
0.0
  0
LINE
  5
1483E
330
1F
100
AcDbEntity
  8
AM_7
100
AcDbLine
 10
-75.8528378797003
 20
50.80000000000001
 30
0.0
 11
-24.83202670510644
 21
50.80000000000001
 31
0.0
  0
LINE
  5
1483F
330
1F
100
AcDbEntity
  8
AM_0
100
AcDbLine
 10
-54.22614972482501
 20
117.0738502751751
 30
0.0
 11
-36.58578643762725
 21
134.714213562373
 31
0.0
  0
LINE
  5
14840
330
1F
100
AcDbEntity
  8
AM_0
100
AcDbLine
 10
-58.49999999999983
 20
23.81249999999997
 30
0.0
 11
-49.47958021588267
 21
23.49750000000003
 31
0.0
  0
LINE
  5
14841
330
1F
100
AcDbEntity
  8
AM_7
100
AcDbLine
 10
-78.2009534713348
 20
0.0
 30
0.0
 11
7.179788125466359
 21
0.0
 31
0.0
  0
LINE
  5
14842
330
1F
100
AcDbEntity
  8
AM_0
100
AcDbLine
 10
-54.22614972482501
 20
117.0738502751751
 30
0.0
 11
-58.56287563449507
 21
92.47905546699911
 31
0.0
  0
LINE
  5
14843
330
1F
100
AcDbEntity
  8
AM_11
100
AcDbLine
 10
-70.00000000000006
 20
40.4
 30
0.0
 11
-68.60000000000008
 21
41.80000000000001
 31
0.0
  0
LINE
  5
14844
330
1F
100
AcDbEntity
  8
AM_0
100
AcDbLine
 10
-70.00000000000006
 20
65.00000000000003
 30
0.0
 11
-69.9999999999997
 21
14.60000000000003
 31
0.0
  0
LINE
  5
14845
330
1F
100
AcDbEntity
  8
AM_0
100
AcDbLine
 10
-56.49999999999983
 20
12.69999999999996
 30
0.0
 11
-56.49999999999983
 21
0.0
 31
0.0
  0
LINE
  5
14846
330
1F
100
AcDbEntity
  8
AM_0
100
AcDbLine
 10
-56.49999999999983
 20
-12.69999999999996
 30
0.0
 11
-56.49999999999983
 21
0.0
 31
0.0
  0
LINE
  5
14847
330
1F
100
AcDbEntity
  8
AM_0
100
AcDbLine
 10
-68.09999999999973
 20
-12.70000000000001
 30
0.0
 11
-56.49999999999995
 21
-12.69999999999996
 31
0.0
  0
LINE
  5
1484A
330
1F
100
AcDbEntity
  8
AM_0
100
AcDbLine
 10
-58.49999999999994
 20
23.8125
 30
0.0
 11
-58.49999999999974
 21
12.69999999999997
 31
0.0
  0
LINE
  5
1484B
330
1F
100
AcDbEntity
  8
AM_0
100
AcDbLine
 10
-67.09999999999985
 20
23.8125
 30
0.0
 11
-67.09999999999965
 21
12.70000000000001
 31
0.0
  0
LINE
  5
1484C
330
1F
100
AcDbEntity
  8
AM_0
100
AcDbLine
 10
-68.09999999999968
 20
12.70000000000002
 30
0.0
 11
-56.49999999999995
 21
12.69999999999996
 31
0.0
  0
LINE
  5
1484E
330
1F
100
AcDbEntity
  8
AM_0
100
AcDbLine
 10
-67.09999999999976
 20
23.81249999999997
 30
0.0
 11
-58.49999999999983
 21
23.81249999999997
 31
0.0
  0
LINE
  5
1484F
330
1F
100
AcDbEntity
  8
AM_0
100
AcDbLine
 10
-68.60000000000019
 20
87.99999999999988
 30
0.0
 11
-68.60000000000008
 21
66.39999999999997
 31
0.0
  0
LINE
  5
14850
330
1F
100
AcDbEntity
  8
AM_11
100
AcDbLine
 10
-68.60000000000008
 20
59.8000000000001
 30
0.0
 11
-68.59999999999996
 21
41.80000000000018
 31
0.0
  0
LINE
  5
14851
330
1F
100
AcDbEntity
  8
AM_0
100
AcDbLine
 10
-70.00000000000006
 20
61.20000000000001
 30
0.0
 11
-68.60000000000008
 21
59.80000000000001
 31
0.0
  0
LINE
  5
14852
330
1F
100
AcDbEntity
  8
AM_0
100
AcDbLine
 10
-69.99999999999994
 20
65.00000000000011
 30
0.0
 11
-68.60000000000008
 21
66.39999999999997
 31
0.0
  0
LINE
  5
14854
330
1F
100
AcDbEntity
  8
AM_0
100
AcDbLine
 10
-66.60000000000021
 20
89.99999999999991
 30
0.0
 11
-61.51729889353168
 21
89.99999999999991
 31
0.0
  0
LINE
  5
14856
330
1F
100
AcDbEntity
  8
AM_0
100
AcDbLine
 10
-22.00000000000017
 20
102.1501560897661
 30
0.0
 11
-22.00000000000017
 21
97.5
 31
0.0
  0
LINE
  5
14857
330
1F
100
AcDbEntity
  8
AM_11
100
AcDbLine
 10
-31.00000000000017
 20
63.79999999999984
 30
0.0
 11
-30.99999999999994
 21
37.79999999999986
 31
0.0
  0
LINE
  5
14858
330
1F
100
AcDbEntity
  8
AM_11
100
AcDbLine
 10
-37.99999999999994
 20
63.80000000000004
 30
0.0
 11
-38.00000000000006
 21
37.80000000000001
 31
0.0
  0
LINE
  5
14859
330
1F
100
AcDbEntity
  8
AM_0
100
AcDbLine
 10
-30.00000000000023
 20
74.1435935394488
 30
0.0
 11
-29.99999999999971
 21
0.0
 31
0.0
  0
LINE
  5
1485A
330
1F
100
AcDbEntity
  8
AM_0
100
AcDbLine
 10
-31.99999999999983
 20
23.4975
 30
0.0
 11
-31.99999999999971
 21
0.0
 31
0.0
  0
LINE
  5
1485B
330
1F
100
AcDbEntity
  8
AM_0
100
AcDbLine
 10
-49.47958021588267
 20
23.49750000000003
 30
0.0
 11
-31.99999999999983
 21
23.4975
 31
0.0
  0
LINE
  5
1485C
330
1F
100
AcDbEntity
  8
AM_0
100
AcDbLine
 10
-49.47958021588267
 20
23.49750000000003
 30
0.0
 11
-49.47958021588224
 21
0.0
 31
0.0
  0
LINE
  5
1485D
330
1F
100
AcDbEntity
  8
AM_0
100
AcDbLine
 10
-31.99999999999983
 20
23.4975
 30
0.0
 11
-29.99999999999994
 21
25.4975
 31
0.0
  0
LINE
  5
1485E
330
1F
100
AcDbEntity
  8
AM_11
100
AcDbLine
 10
-38.00000000000006
 20
37.80000000000001
 30
0.0
 11
-31.00000000000005
 21
37.80000000000001
 31
0.0
  0
LINE
  5
1485F
330
1F
100
AcDbEntity
  8
AM_11
100
AcDbLine
 10
-31.00000000000005
 20
37.79999999999998
 30
0.0
 11
-30.00000000000017
 21
36.79999999999998
 31
0.0
  0
LINE
  5
14860
330
1F
100
AcDbEntity
  8
AM_11
100
AcDbLine
 10
-38.50000000000005
 20
59.79999999999993
 30
0.0
 11
-38.49999999999994
 21
41.80000000000004
 31
0.0
  0
LINE
  5
14861
330
1F
100
AcDbEntity
  8
AM_11
100
AcDbLine
 10
-38.49999999999994
 20
41.80000000000004
 30
0.0
 11
-38.00000000000006
 21
41.30000000000004
 31
0.0
  0
LINE
  5
14862
330
1F
100
AcDbEntity
  8
AM_11
100
AcDbLine
 10
-38.00000000000017
 20
63.80000000000001
 30
0.0
 11
-31.00000000000005
 21
63.80000000000004
 31
0.0
  0
LINE
  5
14863
330
1F
100
AcDbEntity
  8
AM_11
100
AcDbLine
 10
-38.49999999999994
 20
59.79999999999998
 30
0.0
 11
-38.00000000000006
 21
60.29999999999998
 31
0.0
  0
LINE
  5
14864
330
1F
100
AcDbEntity
  8
AM_11
100
AcDbLine
 10
-31.00000000000005
 20
63.80000000000004
 30
0.0
 11
-30.00000000000017
 21
64.80000000000003
 31
0.0
  0
LINE
  5
14865
330
1F
100
AcDbEntity
  8
AM_0
100
AcDbLine
 10
-22.00000000000017
 20
88.0
 30
0.0
 11
-30.00000000000039
 21
74.14359353944835
 31
0.0
  0
LINE
  5
14866
330
1F
100
AcDbEntity
  8
AM_0
100
AcDbLine
 10
-21.99999999999994
 20
92.5
 30
0.0
 11
-22.00000000000017
 21
88.00027035540512
 31
0.0
  0
LINE
  5
14868
330
1F
100
AcDbEntity
  8
AM_0
100
AcDbLine
 10
-20.90000000000014
 20
92.50000000000003
 30
0.0
 11
-20.90000000000014
 21
97.5
 31
0.0
  0
LINE
  5
14869
330
1F
100
AcDbEntity
  8
AM_0
100
AcDbLine
 10
-22.00000000000005
 20
97.5
 30
0.0
 11
-20.90000000000003
 21
97.50000000000003
 31
0.0
  0
LINE
  5
1486A
330
1F
100
AcDbEntity
  8
AM_3
100
AcDbLine
 10
-13.25000000000005
 20
135.3
 30
0.0
 11
-1.900000000000147
 21
123.7501560897661
 31
0.0
  0
LINE
  5
1486B
330
1F
100
AcDbEntity
  8
AM_3
100
AcDbLine
 10
-1.900000000000147
 20
122.2501560897661
 30
0.0
 11
-14.82174764683952
 21
109.3284084429267
 31
0.0
  0
LINE
  5
1486C
330
1F
100
AcDbEntity
  8
AM_3
100
AcDbLine
 10
-1.900000000000147
 20
123.7501560897661
 30
0.0
 11
-1.900000000000147
 21
122.2501560897661
 31
0.0
  0
LINE
  5
1486D
330
1F
100
AcDbEntity
  8
AM_3
100
AcDbLine
 10
-19.69999999999988
 20
135.3
 30
0.0
 11
-13.25000000000005
 21
135.3
 31
0.0
  0
LINE
  5
1486E
330
1F
100
AcDbEntity
  8
AM_0
100
AcDbLine
 10
-35.17157287525414
 20
135.3
 30
0.0
 11
-28.70000000000021
 21
135.3
 31
0.0
  0
LINE
  5
14871
330
1F
100
AcDbEntity
  8
AM_3
100
AcDbLine
 10
-27.99568075853892
 20
134.5956807585387
 30
0.0
 11
-27.70000000000021
 21
134.3
 31
0.0
  0
LINE
  5
14872
330
1F
100
AcDbEntity
  8
AM_3
100
AcDbLine
 10
-27.12028534646009
 20
128.75
 30
0.0
 11
-23.10000000000008
 21
128.7500000000001
 31
0.0
  0
LINE
  5
14874
330
1F
100
AcDbEntity
  8
AM_3
100
AcDbLine
 10
-27.70000000000021
 20
134.3
 30
0.0
 11
-27.70000000000021
 21
129.5235525892868
 31
0.0
  0
LINE
  5
14876
330
1F
100
AcDbEntity
  8
AM_3
100
AcDbLine
 10
-22.69999999999999
 20
132.3
 30
0.0
 11
-22.7000000000001
 21
129.15
 31
0.0
  0
LINE
  5
14877
330
1F
100
AcDbEntity
  8
AM_0
100
AcDbLine
 10
-68.09999999999973
 20
12.70000000000001
 30
0.0
 11
-68.09999999999973
 21
-12.70000000000001
 31
0.0
  0
LINE
  5
14D59
330
1F
100
AcDbEntity
  8
AM_3
100
AcDbLine
 10
-1.900000000000147
 20
-120.8021388184844
 30
0.0
 11
-1.900000000000147
 21
-123.7501560897661
 31
0.0
  0
LINE
  5
16285
330
1F
100
AcDbEntity
  8
AM_0
100
AcDbLine
 10
-21.99999999999994
 20
92.5
 30
0.0
 11
-20.89999999999992
 21
92.50000000000003
 31
0.0
  0
LINE
  5
16292
330
1F
100
AcDbEntity
  8
AM_0
100
AcDbLine
 10
-21.99999999999994
 20
-92.5
 30
0.0
 11
-20.89999999999992
 21
-92.50000000000003
 31
0.0
  0
DIMENSION
  5
1666B
330
1F
100
AcDbEntity
  8
AM_5
100
AcDbDimension
  2
*D5
 10
-122.2009544713347
 20
-135.2999999999999
 30
0.0
 11
-125.3009544713347
 21
0.0000000000000079
 31
0.0
 70
    32
  1
%%c<>
  3
AM_JIS
100
AcDbAlignedDimension
 13
-35.17157287525407
 23
135.3
 33
0.0
 14
-35.17157287525407
 24
-135.3
 34
0.0
 50
90.0
100
AcDbRotatedDimension
1001
GENIUS_GENDTOL_13
1000

1000
h7
1000

1040
0.0
  0
DIMENSION
  5
1666C
330
1F
100
AcDbEntity
  8
AM_5
100
AcDbDimension
  2
*D6
 10
-112.2009544713348
 20
-65.0000000000001
 30
0.0
 11
-115.3009544713347
 21
-0.0000000000000638
 31
0.0
 70
    32
  1
%%c<>
  3
AM_JIS
100
AcDbAlignedDimension
 13
-70.00000000000006
 23
65.0
 33
0.0
 14
-69.99999999999994
 24
-65.00000000000011
 34
0.0
 50
90.0
100
AcDbRotatedDimension
1001
GENIUS_GENDTOL_13
1000

1000
h7
1000

1040
0.0
  0
DIMENSION
  5
1666D
330
1F
100
AcDbEntity
  8
AM_5
100
AcDbDimension
  2
*D8
 10
-102.2009544713347
 20
-23.81250000000006
 30
0.0
 11
-105.3009544713347
 21
0.0000000000000031
 31
0.0
 70
    32
  1
%%c<>
  3
AM_JIS
100
AcDbAlignedDimension
 13
-67.09999999999985
 23
23.81250000000008
 33
0.0
 14
-67.09999999999985
 24
-23.81250000000007
 34
0.0
 50
90.0
100
AcDbRotatedDimension
1001
GENIUS_GENDTOL_13
1000

1000
h7
1000

1040
0.0
  0
DIMENSION
  5
1666E
330
1F
100
AcDbEntity
  8
AM_5
100
AcDbDimension
  2
*D7
 10
-92.20095447133479
 20
-12.70000000000001
 30
0.0
 11
-92.20095447133479
 21
-0.0000000000000426
 31
0.0
 70
   160
  3
AM_JIS
100
AcDbAlignedDimension
 13
-68.09999999999973
 23
12.70000000000001
 33
0.0
 14
-68.09999999999973
 24
-12.70000000000001
 34
0.0
 50
90.0
100
AcDbRotatedDimension
  0
DIMENSION
  5
1671D
330
1F
100
AcDbEntity
  8
AM_5
100
AcDbDimension
  2
*D12
 10
-37.99999999999995
 20
-160.080085
 30
0.0
 11
-54.0
 21
-156.980085
 31
0.0
 70
    32
  1
<>
  3
AM_JIS$0
100
AcDbAlignedDimension
 13
-70.00000000000006
 23
-65.0
 33
0.0
 14
-37.99999999999994
 24
-63.80000000000001
 34
0.0
100
AcDbRotatedDimension
1001
ACAD
1000
DSTYLE
1002
{
1070
    40
1040
1.0
1070
    43
1040
12.0
1070
   140
1040
3.2
1070
   147
1040
1.5
1070
   178
1070
     2
1002
}
1001
GENIUS_GENDTOL_13
1000

1000
h7
1000

1040
0.0
  0
DIMENSION
  5
1671E
330
1F
100
AcDbEntity
  8
AM_5
100
AcDbDimension
  2
*D10
 10
-0.0000000000000034
 20
-180.080085
 30
0.0
 11
-35.00000000000003
 21
-176.980085
 31
0.0
 70
    32
  3
AM_JIS
100
AcDbAlignedDimension
 13
-70.00000000000006
 23
-65.0
 33
0.0
 14
0.0
 24
-125.0
 34
0.0
100
AcDbRotatedDimension
  0
DIMENSION
  5
1671F
330
1F
100
AcDbEntity
  8
AM_5
100
AcDbDimension
  2
*D9
 10
-30.00000000000017
 20
-170.080085
 30
0.0
 11
-50.00000000000011
 21
-166.980085
 31
0.0
 70
    32
  1
<>
  3
AM_JIS$0
100
AcDbAlignedDimension
 13
-70.00000000000006
 23
-65.0
 33
0.0
 14
-30.00000000000017
 24
-74.14359353944829
 34
0.0
100
AcDbRotatedDimension
1001
ACAD
1000
DSTYLE
1002
{
1070
    40
1040
1.0
1070
    43
1040
12.0
1070
   140
1040
3.2
1070
   147
1040
1.5
1070
   178
1070
     2
1002
}
1001
GENIUS_GENDTOL_13
1000

1000
h7
1000

1040
0.0
  0
DIMENSION
  5
16720
330
1F
100
AcDbEntity
  8
AM_5
100
AcDbDimension
  2
*D11
 10
-56.49999999999995
 20
-150.080085
 30
0.0
 11
-63.25
 21
-146.980085
 31
0.0
 70
    32
  3
AM_JIS
100
AcDbAlignedDimension
 13
-70.00000000000006
 23
-65.0
 33
0.0
 14
-56.49999999999995
 24
-12.69999999999996
 34
0.0
100
AcDbRotatedDimension
  0
DIMENSION
  5
167AC
330
1F
100
AcDbEntity
  8
AM_5
100
AcDbDimension
  2
*D13
 10
21.17978912546635
 20
-125.0
 30
0.0
 11
18.07978912546638
 21
-0.0000000000000009
 31
0.0
 70
    32
  1
%%c<>
  3
AM_JIS$0
100
AcDbAlignedDimension
 13
0.0
 23
125.0
 33
0.0
 14
0.0
 24
-125.0
 34
0.0
 50
90.0
100
AcDbRotatedDimension
1001
ACAD
1000
DSTYLE
1002
{
1070
    40
1040
1.0
1070
    43
1040
12.0
1070
   140
1040
3.2
1070
   147
1040
1.5
1070
   178
1070
     2
1002
}
1001
GENIUS_GENDTOL_13
1000

1000
h7
1000

1040
0.0
  0
LINE
  5
168C0
330
1F
100
AcDbEntity
  8
0
100
AcDbLine
 10
-27.99093100000004
 20
135.8419489999999
 30
0.0
 11
-11.94840799999997
 21
136.080084
 31
0.0
  0
LINE
  5
168C1
330
1F
100
AcDbEntity
  8
0
100
AcDbLine
 10
-27.99813700000004
 20
129.827478
 30
0.0
 11
-27.99093100000004
 21
135.8419489999999
 31
0.0
  0
LINE
  5
168C2
330
1F
100
AcDbEntity
  8
0
100
AcDbLine
 10
-27.99434299999996
 20
135.487592
 30
0.0
 11
-27.99093100000004
 21
135.8419489999999
 31
0.0
  0
LINE
  5
168C3
330
1F
100
AcDbEntity
  8
0
100
AcDbLine
 10
-27.99813700000004
 20
129.827478
 30
0.0
 11
-28.00038200000006
 21
131.461266
 31
0.0
  0
LINE
  5
168C4
330
1F
100
AcDbEntity
  8
0
100
AcDbLine
 10
-24.66869599999995
 20
126.433395
 30
0.0
 11
-27.99813700000004
 21
129.827478
 31
0.0
  0
LINE
  5
168C5
330
1F
100
AcDbEntity
  8
0
100
AcDbLine
 10
-28.00038200000006
 20
131.461266
 30
0.0
 11
-27.99434299999996
 21
135.487592
 31
0.0
  0
LINE
  5
168C6
330
1F
100
AcDbEntity
  8
0
100
AcDbLine
 10
-28.00174600000002
 20
127.82751
 30
0.0
 11
-28.00638800000001
 21
122.9403459999999
 31
0.0
  0
LINE
  5
168C7
330
1F
100
AcDbEntity
  8
0
100
AcDbLine
 10
-27.03190900000004
 20
128.84249
 30
0.0
 11
-28.00174600000002
 21
127.82751
 31
0.0
  0
LINE
  5
168C8
330
1F
100
AcDbEntity
  8
0
100
AcDbLine
 10
-28.00174600000002
 20
127.82751
 30
0.0
 11
-28.00965499999995
 21
124.9980339999999
 31
0.0
  0
LINE
  5
168C9
330
1F
100
AcDbEntity
  8
0
100
AcDbLine
 10
-26.98104899999998
 20
120.5505249999999
 30
0.0
 11
-19.48553300000003
 21
129.073372
 31
0.0
  0
LINE
  5
168CA
330
1F
100
AcDbEntity
  8
0
100
AcDbLine
 10
-28.00965499999995
 20
124.9980339999999
 30
0.0
 11
-28.00659299999995
 21
122.7692409999999
 31
0.0
  0
LINE
  5
168CB
330
1F
100
AcDbEntity
  8
0
100
AcDbLine
 10
-24.66869599999995
 20
126.433395
 30
0.0
 11
-28.00638800000001
 21
122.9403459999999
 31
0.0
  0
LINE
  5
168CC
330
1F
100
AcDbEntity
  8
0
100
AcDbLine
 10
-26.43698500000005
 20
121.169158
 30
0.0
 11
-28.00659299999995
 21
122.7692409999999
 31
0.0
  0
LINE
  5
168CD
330
1F
100
AcDbEntity
  8
0
100
AcDbLine
 10
-26.98104899999998
 20
120.5505249999999
 30
0.0
 11
-25.40213099999994
 21
118.1644089999999
 31
0.0
  0
LINE
  5
168CE
330
1F
100
AcDbEntity
  8
0
100
AcDbLine
 10
-17.72477500000002
 20
110.3379959999999
 30
0.0
 11
-25.40213099999994
 21
118.1644089999999
 31
0.0
  0
LINE
  5
168CF
330
1F
100
AcDbEntity
  8
0
100
AcDbLine
 10
-25.40213099999994
 20
118.1644089999999
 30
0.0
 11
-17.73799199999996
 21
126.878992
 31
0.0
  0
ELLIPSE
  5
168D0
330
1F
100
AcDbEntity
  8
0
100
AcDbEllipse
 10
-9.160731999999939
 20
139.7967449999999
 30
0.0
 11
10.708083557212
 21
10.50413949506399
 31
0.0
210
0.0
220
0.0
230
1.0
 40
0.22430953333333
 41
3.2682182039545
 42
4.045883524539719
  0
ELLIPSE
  5
168D1
330
1F
100
AcDbEntity
  8
0
100
AcDbEllipse
 10
-11.10612600000001
 20
141.779909
 30
0.0
 11
4.912310639624999
 21
15.39751041805899
 31
0.0
210
0.0
220
0.0
230
1.0
 40
0.6041594790782402
 41
2.832525728958549
 42
2.92662030172964
  0
ELLIPSE
  5
168D2
330
1F
100
AcDbEntity
  8
0
100
AcDbEllipse
 10
-11.10612600000001
 20
141.779909
 30
0.0
 11
4.912310639624999
 21
15.39751041805899
 31
0.0
210
0.0
220
0.0
230
1.0
 40
0.6041594790782402
 41
2.705903463571339
 42
2.832525728958549
  0
LINE
  5
168D3
330
1F
100
AcDbEntity
  8
0
100
AcDbLine
 10
-10.06063500000004
 20
119.052579
 30
0.0
 11
-17.73799199999996
 21
126.878992
 31
0.0
  0
LINE
  5
168D4
330
1F
100
AcDbEntity
  8
0
100
AcDbLine
 10
-9.806345999999962
 20
119.129525
 30
0.0
 11
-17.88978899999995
 21
127.369909
 31
0.0
  0
LINE
  5
168D5
330
1F
100
AcDbEntity
  8
0
100
AcDbLine
 10
-17.88978899999995
 20
127.369909
 30
0.0
 11
-17.73799199999996
 21
126.878992
 31
0.0
  0
LINE
  5
168D6
330
1F
100
AcDbEntity
  8
0
100
AcDbLine
 10
-3.692534000000023
 20
120.9795289999999
 30
0.0
 11
-13.92900900000006
 21
131.414746
 31
0.0
  0
LINE
  5
168D7
330
1F
100
AcDbEntity
  8
0
100
AcDbLine
 10
-13.84837300000003
 20
131.439146
 30
0.0
 11
-11.11864600000001
 21
128.656422
 31
0.0
  0
LINE
  5
168D8
330
1F
100
AcDbEntity
  8
0
100
AcDbLine
 10
-13.92900900000006
 20
131.414746
 30
0.0
 11
-13.84837300000003
 21
131.439146
 31
0.0
  0
LINE
  5
168D9
330
1F
100
AcDbEntity
  8
0
100
AcDbLine
 10
-6.551819000000023
 20
131.9492649999999
 30
0.0
 11
-0.1842080000000123
 21
125.458027
 31
0.0
  0
LINE
  5
168DA
330
1F
100
AcDbEntity
  8
0
100
AcDbLine
 10
-11.18388300000003
 20
135.906394
 30
0.0
 11
-7.475882000000069
 21
132.1264019999999
 31
0.0
  0
LINE
  5
168DB
330
1F
100
AcDbEntity
  8
0
100
AcDbLine
 10
-11.94840799999997
 20
136.080084
 30
0.0
 11
-8.29311999999993
 21
132.353828
 31
0.0
  0
LINE
  5
168DC
330
1F
100
AcDbEntity
  8
0
100
AcDbLine
 10
-6.997641000000044
 20
132.133501
 30
0.0
 11
-8.407659999999964
 21
132.112571
 31
0.0
  0
LINE
  5
168DD
330
1F
100
AcDbEntity
  8
0
100
AcDbLine
 10
-8.29311999999993
 20
132.353828
 30
0.0
 11
-7.873627000000055
 21
132.120498
 31
0.0
  0
LINE
  5
168DE
330
1F
100
AcDbEntity
  8
0
100
AcDbLine
 10
-8.853938999999968
 20
131.915093
 30
0.0
 11
-8.407659999999964
 21
132.112571
 31
0.0
  0
LINE
  5
168DF
330
1F
100
AcDbEntity
  8
0
100
AcDbLine
 10
-8.608614999999986
 20
132.0236479999999
 30
0.0
 11
-8.29311999999993
 21
132.353828
 31
0.0
  0
LINE
  5
168E0
330
1F
100
AcDbEntity
  8
0
100
AcDbLine
 10
-6.997641000000044
 20
132.133501
 30
0.0
 11
-6.551819000000023
 21
131.9492649999999
 31
0.0
  0
LINE
  5
168E1
330
1F
100
AcDbEntity
  8
0
100
AcDbLine
 10
-11.54873699999996
 20
129.094863
 30
0.0
 11
-8.853938999999968
 21
131.915093
 31
0.0
  0
LINE
  5
168E2
330
1F
100
AcDbEntity
  8
0
100
AcDbLine
 10
-11.94840799999997
 20
136.080084
 30
0.0
 11
-11.18388300000003
 21
135.906394
 31
0.0
  0
LINE
  5
168E3
330
1F
100
AcDbEntity
  8
0
100
AcDbLine
 10
-3.47968000000003
 20
121.043937
 30
0.0
 11
-10.98642800000004
 21
128.6964299999999
 31
0.0
  0
LINE
  5
168E4
330
1F
100
AcDbEntity
  8
0
100
AcDbLine
 10
-11.11864600000001
 20
128.656422
 30
0.0
 11
-10.98642800000004
 21
128.6964299999999
 31
0.0
  0
LINE
  5
168E6
330
1F
100
AcDbEntity
  8
0
100
AcDbLine
 10
-0.0017450000000281
 20
123.5434539999999
 30
0.0
 11
0.0
 21
125.0
 31
0.0
  0
LINE
  5
168E7
330
1F
100
AcDbEntity
  8
0
100
AcDbLine
 10
-0.0017450000000281
 20
123.5434539999999
 30
0.0
 11
-0.1870569999999816
 21
123.079942
 31
0.0
  0
LINE
  5
168E8
330
1F
100
AcDbEntity
  8
0
100
AcDbLine
 10
-0.1842080000000123
 20
125.458027
 30
0.0
 11
0.0
 21
125.0
 31
0.0
  0
LINE
  5
168E9
330
1F
100
AcDbEntity
  8
AM_11
100
AcDbLine
 10
0.0
 20
125.0
 30
0.0
 11
0.0
 21
-125.0
 31
0.0
  0
LINE
  5
168EA
330
1F
100
AcDbEntity
  8
0
100
AcDbLine
 10
-0.1870569999999816
 20
123.079942
 30
0.0
 11
-6.755437000000029
 21
116.205829
 31
0.0
  0
LINE
  5
168EB
330
1F
100
AcDbEntity
  8
0
100
AcDbLine
 10
-0.6775119999999788
 20
122.5666579999999
 30
0.0
 11
-1.25532499999997
 21
121.4768209999999
 31
0.0
  0
LINE
  5
168EC
330
1F
100
AcDbEntity
  8
0
100
AcDbLine
 10
-3.692534000000023
 20
120.9795289999999
 30
0.0
 11
-3.47968000000003
 21
121.043937
 31
0.0
  0
LINE
  5
168ED
330
1F
100
AcDbEntity
  8
0
100
AcDbLine
 10
-12.54648999999995
 20
109.6600949999999
 30
0.0
 11
-1.25532499999997
 21
121.4768209999999
 31
0.0
  0
ELLIPSE
  5
168EE
330
1F
100
AcDbEntity
  8
0
100
AcDbEllipse
 10
1.075742999999988
 20
129.361528
 30
0.0
 11
10.708083557212
 21
10.50413949506399
 31
0.0
210
0.0
220
0.0
230
1.0
 40
0.22430953333333
 41
3.14159419794193
 42
4.045883524539719
  0
LINE
  5
168EF
330
1F
100
AcDbEntity
  8
0
100
AcDbLine
 10
-3.47968000000003
 20
121.043937
 30
0.0
 11
-7.58441700000003
 21
116.74814
 31
0.0
  0
ELLIPSE
  5
168F0
330
1F
100
AcDbEntity
  8
0
100
AcDbEllipse
 10
1.075742999999988
 20
129.361528
 30
0.0
 11
10.708083557212
 21
10.50413949506399
 31
0.0
210
0.0
220
0.0
230
1.0
 40
0.22430953333333
 41
3.047498109911159
 42
3.14159419794193
  0
LINE
  5
168F1
330
1F
100
AcDbEntity
  8
0
100
AcDbLine
 10
-17.72477500000002
 20
110.3379959999999
 30
0.0
 11
-10.06063500000004
 21
119.052579
 31
0.0
  0
LINE
  5
168F2
330
1F
100
AcDbEntity
  8
0
100
AcDbLine
 10
-9.806345999999962
 20
119.129525
 30
0.0
 11
-10.06063500000004
 21
119.052579
 31
0.0
  0
LINE
  5
168F3
330
1F
100
AcDbEntity
  8
0
100
AcDbLine
 10
-8.217332999999939
 20
116.1841279999999
 30
0.0
 11
-6.755437000000029
 21
116.205829
 31
0.0
  0
LINE
  5
168F4
330
1F
100
AcDbEntity
  8
0
100
AcDbLine
 10
-7.661642000000028
 20
116.7656839999999
 30
0.0
 11
-7.58441700000003
 21
116.74814
 31
0.0
  0
LINE
  5
168F5
330
1F
100
AcDbEntity
  8
0
100
AcDbLine
 10
-7.389357000000018
 20
116.1964189999999
 30
0.0
 11
-8.312812000000008
 21
115.916986
 31
0.0
  0
LINE
  5
168F6
330
1F
100
AcDbEntity
  8
0
100
AcDbLine
 10
-7.661642000000028
 20
116.7656839999999
 30
0.0
 11
-14.50287100000002
 21
109.606022
 31
0.0
  0
LINE
  5
168F7
330
1F
100
AcDbEntity
  8
0
100
AcDbLine
 10
-7.038280999999983
 20
116.20163
 30
0.0
 11
-13.88991999999996
 21
109.0310729999999
 31
0.0
  0
LINE
  5
168F8
330
1F
100
AcDbEntity
  8
0
100
AcDbLine
 10
-8.312812000000008
 20
115.916986
 30
0.0
 11
-14.71365100000002
 21
109.2182129999999
 31
0.0
  0
LINE
  5
168F9
330
1F
100
AcDbEntity
  8
0
100
AcDbLine
 10
-13.88991999999996
 20
109.0310729999999
 30
0.0
 11
-12.54648999999995
 21
109.6600949999999
 31
0.0
  0
LINE
  5
168FA
330
1F
100
AcDbEntity
  8
0
100
AcDbLine
 10
-13.88991999999996
 20
109.0310729999999
 30
0.0
 11
-14.71365100000002
 21
109.2182129999999
 31
0.0
  0
LINE
  5
168FB
330
1F
100
AcDbEntity
  8
0
100
AcDbLine
 10
-14.71365100000002
 20
109.2182129999999
 30
0.0
 11
-15.26361200000008
 21
109.778852
 31
0.0
  0
LINE
  5
168FC
330
1F
100
AcDbEntity
  8
0
100
AcDbLine
 10
-14.50287100000002
 20
109.606022
 30
0.0
 11
-17.72477500000002
 21
110.3379959999999
 31
0.0
  0
LINE
  5
1693D
330
1F
100
AcDbEntity
  8
0
100
AcDbLine
 10
-28.00659299999995
 20
122.7692409999999
 30
0.0
 11
-28.00638800000001
 21
122.9403459999999
 31
0.0
  0
LINE
  5
1693E
330
1F
100
AcDbEntity
  8
0
100
AcDbLine
 10
-27.99813700000004
 20
-129.827478
 30
0.0
 11
-27.99093100000004
 21
-135.8419489999999
 31
0.0
  0
LINE
  5
1693F
330
1F
100
AcDbEntity
  8
0
100
AcDbLine
 10
-27.99093100000004
 20
-135.8419489999999
 30
0.0
 11
-11.94840799999997
 21
-136.080084
 31
0.0
  0
LINE
  5
16940
330
1F
100
AcDbEntity
  8
0
100
AcDbLine
 10
-27.99434299999996
 20
-135.487592
 30
0.0
 11
-27.99093100000004
 21
-135.8419489999999
 31
0.0
  0
LINE
  5
16941
330
1F
100
AcDbEntity
  8
0
100
AcDbLine
 10
-28.00038200000006
 20
-131.461266
 30
0.0
 11
-27.99434299999996
 21
-135.487592
 31
0.0
  0
LINE
  5
16942
330
1F
100
AcDbEntity
  8
0
100
AcDbLine
 10
-24.66869599999995
 20
-126.433395
 30
0.0
 11
-27.99813700000004
 21
-129.827478
 31
0.0
  0
LINE
  5
16943
330
1F
100
AcDbEntity
  8
0
100
AcDbLine
 10
-27.99813700000004
 20
-129.827478
 30
0.0
 11
-28.00038200000006
 21
-131.461266
 31
0.0
  0
LINE
  5
16944
330
1F
100
AcDbEntity
  8
0
100
AcDbLine
 10
-28.00174600000002
 20
-127.82751
 30
0.0
 11
-28.00638800000001
 21
-122.9403459999999
 31
0.0
  0
LINE
  5
16945
330
1F
100
AcDbEntity
  8
0
100
AcDbLine
 10
-28.00174600000002
 20
-127.82751
 30
0.0
 11
-28.00965499999995
 21
-124.9980339999999
 31
0.0
  0
LINE
  5
16946
330
1F
100
AcDbEntity
  8
0
100
AcDbLine
 10
-27.03190900000004
 20
-128.84249
 30
0.0
 11
-28.00174600000002
 21
-127.82751
 31
0.0
  0
LINE
  5
16947
330
1F
100
AcDbEntity
  8
0
100
AcDbLine
 10
-17.72477500000002
 20
-110.3379959999999
 30
0.0
 11
-25.40213099999994
 21
-118.1644089999999
 31
0.0
  0
LINE
  5
16948
330
1F
100
AcDbEntity
  8
0
100
AcDbLine
 10
-25.40213099999994
 20
-118.1644089999999
 30
0.0
 11
-17.73799199999996
 21
-126.878992
 31
0.0
  0
LINE
  5
16949
330
1F
100
AcDbEntity
  8
0
100
AcDbLine
 10
-26.98104899999998
 20
-120.5505249999999
 30
0.0
 11
-19.48553300000003
 21
-129.073372
 31
0.0
  0
LINE
  5
1694A
330
1F
100
AcDbEntity
  8
0
100
AcDbLine
 10
-24.66869599999995
 20
-126.433395
 30
0.0
 11
-28.00638800000001
 21
-122.9403459999999
 31
0.0
  0
LINE
  5
1694B
330
1F
100
AcDbEntity
  8
0
100
AcDbLine
 10
-28.00965499999995
 20
-124.9980339999999
 30
0.0
 11
-28.00659299999995
 21
-122.7692409999999
 31
0.0
  0
LINE
  5
1694C
330
1F
100
AcDbEntity
  8
0
100
AcDbLine
 10
-26.98104899999998
 20
-120.5505249999999
 30
0.0
 11
-25.40213099999994
 21
-118.1644089999999
 31
0.0
  0
LINE
  5
1694D
330
1F
100
AcDbEntity
  8
0
100
AcDbLine
 10
-28.00659299999995
 20
-122.7692409999999
 30
0.0
 11
-28.00638800000001
 21
-122.9403459999999
 31
0.0
  0
LINE
  5
1694E
330
1F
100
AcDbEntity
  8
0
100
AcDbLine
 10
-26.43698500000005
 20
-121.169158
 30
0.0
 11
-28.00659299999995
 21
-122.7692409999999
 31
0.0
  0
LINE
  5
1694F
330
1F
100
AcDbEntity
  8
0
100
AcDbLine
 10
-17.72477500000002
 20
-110.3379959999999
 30
0.0
 11
-10.06063500000004
 21
-119.052579
 31
0.0
  0
LINE
  5
16950
330
1F
100
AcDbEntity
  8
0
100
AcDbLine
 10
-9.806345999999962
 20
-119.129525
 30
0.0
 11
-17.88978899999995
 21
-127.369909
 31
0.0
  0
LINE
  5
16951
330
1F
100
AcDbEntity
  8
0
100
AcDbLine
 10
-10.06063500000004
 20
-119.052579
 30
0.0
 11
-17.73799199999996
 21
-126.878992
 31
0.0
  0
LINE
  5
16952
330
1F
100
AcDbEntity
  8
0
100
AcDbLine
 10
-14.50287100000002
 20
-109.606022
 30
0.0
 11
-17.72477500000002
 21
-110.3379959999999
 31
0.0
  0
LINE
  5
16953
330
1F
100
AcDbEntity
  8
0
100
AcDbLine
 10
-14.71365100000002
 20
-109.2182129999999
 30
0.0
 11
-15.26361200000008
 21
-109.778852
 31
0.0
  0
LINE
  5
16954
330
1F
100
AcDbEntity
  8
0
100
AcDbLine
 10
-7.661642000000028
 20
-116.7656839999999
 30
0.0
 11
-14.50287100000002
 21
-109.606022
 31
0.0
  0
LINE
  5
16955
330
1F
100
AcDbEntity
  8
0
100
AcDbLine
 10
-8.312812000000008
 20
-115.916986
 30
0.0
 11
-14.71365100000002
 21
-109.2182129999999
 31
0.0
  0
LINE
  5
16956
330
1F
100
AcDbEntity
  8
0
100
AcDbLine
 10
-7.038280999999983
 20
-116.20163
 30
0.0
 11
-13.88991999999996
 21
-109.0310729999999
 31
0.0
  0
LINE
  5
16957
330
1F
100
AcDbEntity
  8
0
100
AcDbLine
 10
-13.88991999999996
 20
-109.0310729999999
 30
0.0
 11
-12.54648999999995
 21
-109.6600949999999
 31
0.0
  0
LINE
  5
16958
330
1F
100
AcDbEntity
  8
0
100
AcDbLine
 10
-13.88991999999996
 20
-109.0310729999999
 30
0.0
 11
-14.71365100000002
 21
-109.2182129999999
 31
0.0
  0
LINE
  5
16959
330
1F
100
AcDbEntity
  8
0
100
AcDbLine
 10
-12.54648999999995
 20
-109.6600949999999
 30
0.0
 11
-1.25532499999997
 21
-121.4768209999999
 31
0.0
  0
LINE
  5
1695A
330
1F
100
AcDbEntity
  8
0
100
AcDbLine
 10
-7.389357000000018
 20
-116.1964189999999
 30
0.0
 11
-8.312812000000008
 21
-115.916986
 31
0.0
  0
LINE
  5
1695B
330
1F
100
AcDbEntity
  8
0
100
AcDbLine
 10
-7.661642000000028
 20
-116.7656839999999
 30
0.0
 11
-7.58441700000003
 21
-116.74814
 31
0.0
  0
LINE
  5
1695C
330
1F
100
AcDbEntity
  8
0
100
AcDbLine
 10
-8.217332999999939
 20
-116.1841279999999
 30
0.0
 11
-6.755437000000029
 21
-116.205829
 31
0.0
  0
LINE
  5
1695D
330
1F
100
AcDbEntity
  8
0
100
AcDbLine
 10
-3.47968000000003
 20
-121.043937
 30
0.0
 11
-7.58441700000003
 21
-116.74814
 31
0.0
  0
LINE
  5
1695E
330
1F
100
AcDbEntity
  8
0
100
AcDbLine
 10
-0.1870569999999816
 20
-123.079942
 30
0.0
 11
-6.755437000000029
 21
-116.205829
 31
0.0
  0
LINE
  5
1695F
330
1F
100
AcDbEntity
  8
0
100
AcDbLine
 10
-3.47968000000003
 20
-121.043937
 30
0.0
 11
-10.98642800000004
 21
-128.6964299999999
 31
0.0
  0
LINE
  5
16960
330
1F
100
AcDbEntity
  8
0
100
AcDbLine
 10
-3.692534000000023
 20
-120.9795289999999
 30
0.0
 11
-13.92900900000006
 21
-131.414746
 31
0.0
  0
LINE
  5
16961
330
1F
100
AcDbEntity
  8
0
100
AcDbLine
 10
-3.692534000000023
 20
-120.9795289999999
 30
0.0
 11
-3.47968000000003
 21
-121.043937
 31
0.0
  0
ELLIPSE
  5
16962
330
1F
100
AcDbEntity
  8
0
100
AcDbEllipse
 10
1.075742999999988
 20
-129.361528
 30
0.0
 11
10.708083557212
 21
-10.50413949506399
 31
0.0
210
0.0
220
0.0
230
-1.0
 40
0.22430953333333
 41
3.047498109911159
 42
3.14159419794193
  0
ELLIPSE
  5
16963
330
1F
100
AcDbEntity
  8
0
100
AcDbEllipse
 10
1.075742999999988
 20
-129.361528
 30
0.0
 11
10.708083557212
 21
-10.50413949506399
 31
0.0
210
0.0
220
0.0
230
-1.0
 40
0.22430953333333
 41
3.14159419794193
 42
4.045883524539719
  0
LINE
  5
16964
330
1F
100
AcDbEntity
  8
0
100
AcDbLine
 10
-9.806345999999962
 20
-119.129525
 30
0.0
 11
-10.06063500000004
 21
-119.052579
 31
0.0
  0
ELLIPSE
  5
16965
330
1F
100
AcDbEntity
  8
0
100
AcDbEllipse
 10
-11.10612600000001
 20
-141.779909
 30
0.0
 11
4.912310639624999
 21
-15.39751041805899
 31
0.0
210
0.0
220
0.0
230
-1.0
 40
0.6041594790782402
 41
2.705903463571339
 42
2.832525728958549
  0
ELLIPSE
  5
16966
330
1F
100
AcDbEntity
  8
0
100
AcDbEllipse
 10
-11.10612600000001
 20
-141.779909
 30
0.0
 11
4.912310639624999
 21
-15.39751041805899
 31
0.0
210
0.0
220
0.0
230
-1.0
 40
0.6041594790782402
 41
2.832525728958549
 42
2.92662030172964
  0
ELLIPSE
  5
16967
330
1F
100
AcDbEntity
  8
0
100
AcDbEllipse
 10
-9.160731999999939
 20
-139.7967449999999
 30
0.0
 11
10.708083557212
 21
-10.50413949506399
 31
0.0
210
0.0
220
0.0
230
-1.0
 40
0.22430953333333
 41
3.2682182039545
 42
4.045883524539719
  0
LINE
  5
16968
330
1F
100
AcDbEntity
  8
0
100
AcDbLine
 10
-17.88978899999995
 20
-127.369909
 30
0.0
 11
-17.73799199999996
 21
-126.878992
 31
0.0
  0
LINE
  5
16969
330
1F
100
AcDbEntity
  8
0
100
AcDbLine
 10
-13.84837300000003
 20
-131.439146
 30
0.0
 11
-11.11864600000001
 21
-128.656422
 31
0.0
  0
LINE
  5
1696A
330
1F
100
AcDbEntity
  8
0
100
AcDbLine
 10
-13.92900900000006
 20
-131.414746
 30
0.0
 11
-13.84837300000003
 21
-131.439146
 31
0.0
  0
LINE
  5
1696B
330
1F
100
AcDbEntity
  8
0
100
AcDbLine
 10
-11.94840799999997
 20
-136.080084
 30
0.0
 11
-8.29311999999993
 21
-132.353828
 31
0.0
  0
LINE
  5
1696C
330
1F
100
AcDbEntity
  8
0
100
AcDbLine
 10
-11.18388300000003
 20
-135.906394
 30
0.0
 11
-7.475882000000069
 21
-132.1264019999999
 31
0.0
  0
LINE
  5
1696D
330
1F
100
AcDbEntity
  8
0
100
AcDbLine
 10
-8.608614999999986
 20
-132.0236479999999
 30
0.0
 11
-8.29311999999993
 21
-132.353828
 31
0.0
  0
LINE
  5
1696E
330
1F
100
AcDbEntity
  8
0
100
AcDbLine
 10
-6.997641000000044
 20
-132.133501
 30
0.0
 11
-8.407659999999964
 21
-132.112571
 31
0.0
  0
LINE
  5
1696F
330
1F
100
AcDbEntity
  8
0
100
AcDbLine
 10
-11.54873699999996
 20
-129.094863
 30
0.0
 11
-8.853938999999968
 21
-131.915093
 31
0.0
  0
LINE
  5
16970
330
1F
100
AcDbEntity
  8
0
100
AcDbLine
 10
-8.853938999999968
 20
-131.915093
 30
0.0
 11
-8.407659999999964
 21
-132.112571
 31
0.0
  0
LINE
  5
16971
330
1F
100
AcDbEntity
  8
0
100
AcDbLine
 10
-6.997641000000044
 20
-132.133501
 30
0.0
 11
-6.551819000000023
 21
-131.9492649999999
 31
0.0
  0
LINE
  5
16972
330
1F
100
AcDbEntity
  8
0
100
AcDbLine
 10
-8.29311999999993
 20
-132.353828
 30
0.0
 11
-7.873627000000055
 21
-132.120498
 31
0.0
  0
LINE
  5
16973
330
1F
100
AcDbEntity
  8
0
100
AcDbLine
 10
-11.11864600000001
 20
-128.656422
 30
0.0
 11
-10.98642800000004
 21
-128.6964299999999
 31
0.0
  0
LINE
  5
16974
330
1F
100
AcDbEntity
  8
0
100
AcDbLine
 10
-11.94840799999997
 20
-136.080084
 30
0.0
 11
-11.18388300000003
 21
-135.906394
 31
0.0
  0
LINE
  5
16975
330
1F
100
AcDbEntity
  8
0
100
AcDbLine
 10
-6.551819000000023
 20
-131.9492649999999
 30
0.0
 11
-0.1842080000000123
 21
-125.458027
 31
0.0
  0
LINE
  5
16977
330
1F
100
AcDbEntity
  8
0
100
AcDbLine
 10
-0.0017450000000281
 20
-123.5434539999999
 30
0.0
 11
0.0
 21
-125.0
 31
0.0
  0
LINE
  5
16978
330
1F
100
AcDbEntity
  8
0
100
AcDbLine
 10
-0.0017450000000281
 20
-123.5434539999999
 30
0.0
 11
-0.1870569999999816
 21
-123.079942
 31
0.0
  0
LINE
  5
16979
330
1F
100
AcDbEntity
  8
0
100
AcDbLine
 10
-0.1842080000000123
 20
-125.458027
 30
0.0
 11
0.0
 21
-125.0
 31
0.0
  0
LINE
  5
1697A
330
1F
100
AcDbEntity
  8
0
100
AcDbLine
 10
-0.6775119999999788
 20
-122.5666579999999
 30
0.0
 11
-1.25532499999997
 21
-121.4768209999999
 31
0.0
  0
LINE
  5
169EB
330
1F
100
AcDbEntity
  8
AM_0
100
AcDbLine
 10
-27.99568075853892
 20
-134.5956807585387
 30
0.0
 11
-28.70000000000021
 21
-135.3
 31
0.0
  0
LINE
  5
169EC
330
1F
100
AcDbEntity
  8
AM_0
100
AcDbLine
 10
-27.70000000000021
 20
-129.1499999999999
 30
0.0
 11
-27.70000000000021
 21
-129.5235525892868
 31
0.0
  0
LINE
  5
169ED
330
1F
100
AcDbEntity
  8
AM_0
100
AcDbLine
 10
-27.30000000000023
 20
-128.75
 30
0.0
 11
-27.12028534646009
 21
-128.75
 31
0.0
  0
LINE
  5
169EE
330
1F
100
AcDbEntity
  8
AM_0
100
AcDbLine
 10
-1.900000000000147
 20
-120.8021388184844
 30
0.0
 11
-1.900000000000147
 21
120.8021388184844
 31
0.0
  0
LINE
  5
169EF
330
1F
100
AcDbEntity
  8
AM_3
100
AcDbLine
 10
-1.900000000000147
 20
122.2501560897661
 30
0.0
 11
-1.900000000000147
 21
120.8021388184844
 31
0.0
  0
LINE
  5
169F0
330
1F
100
AcDbEntity
  8
AM_0
100
AcDbLine
 10
-14.82174764683952
 20
109.3284084429267
 30
0.0
 11
-22.00000000000017
 21
102.1501560897661
 31
0.0
  0
LINE
  5
169F1
330
1F
100
AcDbEntity
  8
AM_0
100
AcDbLine
 10
-20.89999999999992
 20
92.50000000000003
 30
0.0
 11
-20.89999999999992
 21
-92.50000000000003
 31
0.0
  0
LINE
  5
169F2
330
1F
100
AcDbEntity
  8
AM_0
100
AcDbLine
 10
-27.99568075853892
 20
134.5956807585387
 30
0.0
 11
-28.70000000000016
 21
135.3
 31
0.0
  0
LINE
  5
169F3
330
1F
100
AcDbEntity
  8
AM_0
100
AcDbLine
 10
-27.70000000000021
 20
129.5235525892868
 30
0.0
 11
-27.70000000000021
 21
129.15
 31
0.0
  0
LINE
  5
169F4
330
1F
100
AcDbEntity
  8
AM_0
100
AcDbLine
 10
-27.30000000000021
 20
128.75
 30
0.0
 11
-27.12028534646009
 21
128.75
 31
0.0
  0
DIMENSION
  5
16AC7
330
1F
100
AcDbEntity
  8
AM_5
100
AcDbDimension
  2
*D14
 10
-0.1842080000000123
 20
-125.458027
 30
0.0
 11
-11.70793067519089
 21
-153.9245012813597
 31
0.0
 70
    34
  1
45%%d
  3
AM_JIS$2
100
AcDb2LineAngularDimension
 13
0.0
 23
125.0
 33
0.0
 14
0.0
 24
-125.0
 34
0.0
 15
-6.551819000000023
 25
-131.9492649999999
 35
0.0
 16
-16.8375692442906
 26
-154.8702839604185
 36
0.0
1001
ACAD
1000
DSTYLE
1002
{
1070
   179
1070
     3
1002
}
1001
GENIUS_GENDTOL_13
1000

1000
h7
1000

1040
0.0
  0
LINE
  5
16BF9
330
1F
100
AcDbEntity
  8
0
100
AcDbLine
 10
-68.99999999999995
 20
45.74199999999999
 30
0.0
 11
-31.0000000000001
 21
45.74200000000002
 31
0.0
  0
LINE
  5
16BFA
330
1F
100
AcDbEntity
  8
0
100
AcDbLine
 10
-68.99999999999984
 20
55.85799999999998
 30
0.0
 11
-31.00000000000013
 21
55.85799999999997
 31
0.0
  0
LINE
  5
16BFB
330
1F
100
AcDbEntity
  8
0
100
AcDbLine
 10
-69.99999999999996
 20
44.79999999999998
 30
0.0
 11
-30.00000000000003
 21
44.80000000000001
 31
0.0
  0
LINE
  5
16BFC
330
1F
100
AcDbEntity
  8
0
100
AcDbLine
 10
-69.99999999999996
 20
56.80000000000001
 30
0.0
 11
-30.0000000000001
 21
56.80000000000002
 31
0.0
  0
LINE
  5
16BFD
330
1F
100
AcDbEntity
  8
0
100
AcDbLine
 10
-68.99999999999995
 20
55.85800000000009
 30
0.0
 11
-69.00000000000007
 21
45.74199999999996
 31
0.0
  0
LINE
  5
16BFE
330
1F
100
AcDbEntity
  8
0
100
AcDbLine
 10
-68.99999999999995
 20
45.74200000000002
 30
0.0
 11
-69.99999999999996
 21
44.80000000000001
 31
0.0
  0
LINE
  5
16BFF
330
1F
100
AcDbEntity
  8
0
100
AcDbLine
 10
-68.99999999999995
 20
55.858
 30
0.0
 11
-69.99999999999996
 21
56.80000000000001
 31
0.0
  0
LINE
  5
16C00
330
1F
100
AcDbEntity
  8
0
100
AcDbLine
 10
-31.0000000000001
 20
55.858
 30
0.0
 11
-31.0000000000001
 21
45.74200000000002
 31
0.0
  0
LINE
  5
16C01
330
1F
100
AcDbEntity
  8
0
100
AcDbLine
 10
-31.0000000000001
 20
45.74200000000002
 30
0.0
 11
-30.0000000000001
 21
44.80000000000001
 31
0.0
  0
LINE
  5
16C02
330
1F
100
AcDbEntity
  8
0
100
AcDbLine
 10
-31.0000000000001
 20
55.858
 30
0.0
 11
-30.0000000000001
 21
56.80000000000001
 31
0.0
  0
LINE
  5
16C03
330
1F
100
AcDbEntity
  8
0
100
AcDbLine
 10
-68.99999999999984
 20
-55.85799999999998
 30
0.0
 11
-31.00000000000013
 21
-55.85799999999997
 31
0.0
  0
LINE
  5
16C04
330
1F
100
AcDbEntity
  8
0
100
AcDbLine
 10
-69.99999999999996
 20
-56.80000000000001
 30
0.0
 11
-30.0000000000001
 21
-56.80000000000002
 31
0.0
  0
LINE
  5
16C05
330
1F
100
AcDbEntity
  8
0
100
AcDbLine
 10
-68.99999999999995
 20
-55.85800000000009
 30
0.0
 11
-69.00000000000007
 21
-45.74199999999996
 31
0.0
  0
LINE
  5
16C06
330
1F
100
AcDbEntity
  8
0
100
AcDbLine
 10
-68.99999999999995
 20
-45.74200000000002
 30
0.0
 11
-69.99999999999996
 21
-44.80000000000001
 31
0.0
  0
LINE
  5
16C07
330
1F
100
AcDbEntity
  8
0
100
AcDbLine
 10
-68.99999999999995
 20
-55.858
 30
0.0
 11
-69.99999999999996
 21
-56.80000000000001
 31
0.0
  0
LINE
  5
16C08
330
1F
100
AcDbEntity
  8
0
100
AcDbLine
 10
-68.99999999999995
 20
-45.74199999999999
 30
0.0
 11
-31.0000000000001
 21
-45.74200000000002
 31
0.0
  0
LINE
  5
16C09
330
1F
100
AcDbEntity
  8
0
100
AcDbLine
 10
-69.99999999999996
 20
-44.79999999999998
 30
0.0
 11
-30.00000000000003
 21
-44.80000000000001
 31
0.0
  0
LINE
  5
16C0A
330
1F
100
AcDbEntity
  8
0
100
AcDbLine
 10
-31.0000000000001
 20
-55.858
 30
0.0
 11
-31.0000000000001
 21
-45.74200000000002
 31
0.0
  0
LINE
  5
16C0B
330
1F
100
AcDbEntity
  8
0
100
AcDbLine
 10
-31.0000000000001
 20
-45.74200000000002
 30
0.0
 11
-30.0000000000001
 21
-44.80000000000001
 31
0.0
  0
LINE
  5
16C0C
330
1F
100
AcDbEntity
  8
0
100
AcDbLine
 10
-31.0000000000001
 20
-55.858
 30
0.0
 11
-30.0000000000001
 21
-56.80000000000001
 31
0.0
  0
LINE
  5
16C22
330
1F
100
AcDbEntity
  8
AM_3
100
AcDbLine
 10
-19.69999999999988
 20
135.3
 30
0.0
 11
-22.69999999999999
 21
132.3
 31
0.0
1001
GENIUS_GENFIL_13
1070
     0
1040
3.0
1040
3.0
1040
20.0
1040
0.0
1002
{
1002
}
1001
GENIUS_GENODEF_13
1002
{
1000
HIER
1070
     0
1002
}
1002
{
1000
MANEDIT
1070
     0
1002
}
1002
{
1000
NOSEL
1070
     0
1002
}
1002
{
1000
BEHIND
1070
     0
1002
}
1002
{
1000
REACTOR
1002
}
1001
GENIUS_GENOBJ-N-CHA_13
1002
{
1000
OWNER
1000
GEN
1002
}
  0
ARC
  5
16C25
330
1F
100
AcDbEntity
  8
AM_0
100
AcDbCircle
 10
-27.30000000000021
 20
129.15
 30
0.0
 40
0.4
100
AcDbArc
 50
180.0
 51
270.0
1001
GENIUS_GENODEF_13
1002
{
1000
HIER
1070
     0
1002
}
1002
{
1000
MANEDIT
1070
     0
1002
}
1002
{
1000
NOSEL
1070
     0
1002
}
1002
{
1000
BEHIND
1070
     0
1002
}
1002
{
1000
REACTOR
1002
}
1001
GENIUS_GENOBJ-N-FIL_13
1002
{
1000
OWNER
1000
GEN
1002
}
  0
ARC
  5
16C28
330
1F
100
AcDbEntity
  8
AM_3
100
AcDbCircle
 10
-23.1000000000001
 20
129.1500000000001
 30
0.0
 40
0.4
100
AcDbArc
 50
270.0000000000016
 51
359.9999999999979
1001
GENIUS_GENODEF_13
1002
{
1000
HIER
1070
     0
1002
}
1002
{
1000
MANEDIT
1070
     0
1002
}
1002
{
1000
NOSEL
1070
     0
1002
}
1002
{
1000
BEHIND
1070
     0
1002
}
1002
{
1000
REACTOR
1002
}
1001
GENIUS_GENOBJ-N-FIL_13
1002
{
1000
OWNER
1000
GEN
1002
}
  0
ARC
  5
16C2B
330
1F
100
AcDbEntity
  8
AM_0
100
AcDbCircle
 10
-35.17157287525414
 20
133.3
 30
0.0
 40
2.0
100
AcDbArc
 50
90.0
 51
135.0000000000003
1001
GENIUS_GENODEF_13
1002
{
1000
HIER
1070
     0
1002
}
1002
{
1000
MANEDIT
1070
     0
1002
}
1002
{
1000
NOSEL
1070
     0
1002
}
1002
{
1000
BEHIND
1070
     0
1002
}
1002
{
1000
REACTOR
1002
}
1001
GENIUS_GENOBJ-N-FIL_13
1002
{
1000
OWNER
1000
GEN
1002
}
  0
ARC
  5
16C2E
330
1F
100
AcDbEntity
  8
AM_0
100
AcDbCircle
 10
-61.5172988935317
 20
92.99999999999991
 30
0.0
 40
3.0
100
AcDbArc
 50
270.0000000000002
 51
349.9999999999997
1001
GENIUS_GENODEF_13
1002
{
1000
HIER
1070
     0
1002
}
1002
{
1000
MANEDIT
1070
     0
1002
}
1002
{
1000
NOSEL
1070
     0
1002
}
1002
{
1000
BEHIND
1070
     0
1002
}
1002
{
1000
REACTOR
1002
}
1001
GENIUS_GENOBJ-N-FIL_13
1002
{
1000
OWNER
1000
GEN
1002
}
  0
LINE
  5
16C31
330
1F
100
AcDbEntity
  8
AM_0
100
AcDbLine
 10
-68.60000000000019
 20
87.99999999999988
 30
0.0
 11
-66.60000000000021
 21
89.99999999999991
 31
0.0
1001
GENIUS_GENFIL_13
1070
     0
1040
2.0
1040
2.0
1040
20.0
1040
0.0
1002
{
1002
}
1001
GENIUS_GENODEF_13
1002
{
1000
HIER
1070
     0
1002
}
1002
{
1000
MANEDIT
1070
     0
1002
}
1002
{
1000
NOSEL
1070
     0
1002
}
1002
{
1000
BEHIND
1070
     0
1002
}
1002
{
1000
REACTOR
1002
}
1001
GENIUS_GENOBJ-N-CHA_13
1002
{
1000
OWNER
1000
GEN
1002
}
  0
LINE
  5
16C34
330
1F
100
AcDbEntity
  8
AM_0
100
AcDbLine
 10
-69.99999999999978
 20
26.71249999999997
 30
0.0
 11
-67.09999999999976
 21
23.81249999999997
 31
0.0
1001
GENIUS_GENFIL_13
1070
     0
1040
2.9
1040
2.9
1040
20.0
1040
0.0
1002
{
1002
}
1001
GENIUS_GENODEF_13
1002
{
1000
HIER
1070
     0
1002
}
1002
{
1000
MANEDIT
1070
     0
1002
}
1002
{
1000
NOSEL
1070
     0
1002
}
1002
{
1000
BEHIND
1070
     0
1002
}
1002
{
1000
REACTOR
1002
}
1001
GENIUS_GENOBJ-N-CHA_13
1002
{
1000
OWNER
1000
GEN
1002
}
  0
LINE
  5
16C37
330
1F
100
AcDbEntity
  8
AM_0
100
AcDbLine
 10
-68.09999999999968
 20
12.70000000000002
 30
0.0
 11
-69.9999999999997
 21
14.60000000000003
 31
0.0
1001
GENIUS_GENFIL_13
1070
     0
1040
1.9
1040
1.9
1040
20.0
1040
0.0
1002
{
1002
}
1001
GENIUS_GENODEF_13
1002
{
1000
HIER
1070
     0
1002
}
1002
{
1000
MANEDIT
1070
     0
1002
}
1002
{
1000
NOSEL
1070
     0
1002
}
1002
{
1000
BEHIND
1070
     0
1002
}
1002
{
1000
REACTOR
1002
}
1001
GENIUS_GENOBJ-N-CHA_13
1002
{
1000
OWNER
1000
GEN
1002
}
  0
LINE
  5
16C39
330
1F
100
AcDbEntity
  8
AM_0
100
AcDbLine
 10
-69.99999999999978
 20
-26.71249999999997
 30
0.0
 11
-67.09999999999976
 21
-23.81249999999997
 31
0.0
1001
GENIUS_GENFIL_13
1070
     0
1040
2.9
1040
2.9
1040
20.0
1040
0.0
1002
{
1002
}
1001
GENIUS_GENODEF_13
1002
{
1000
HIER
1070
     0
1002
}
1002
{
1000
MANEDIT
1070
     0
1002
}
1002
{
1000
NOSEL
1070
     0
1002
}
1002
{
1000
BEHIND
1070
     0
1002
}
1002
{
1000
REACTOR
1002
}
1001
GENIUS_GENOBJ-N-CHA_13
1002
{
1000
OWNER
1000
GEN
1002
}
  0
LINE
  5
16C3A
330
1F
100
AcDbEntity
  8
AM_0
100
AcDbLine
 10
-68.09999999999968
 20
-12.70000000000002
 30
0.0
 11
-69.9999999999997
 21
-14.60000000000003
 31
0.0
1001
GENIUS_GENFIL_13
1070
     0
1040
1.9
1040
1.9
1040
20.0
1040
0.0
1002
{
1002
}
1001
GENIUS_GENODEF_13
1002
{
1000
HIER
1070
     0
1002
}
1002
{
1000
MANEDIT
1070
     0
1002
}
1002
{
1000
NOSEL
1070
     0
1002
}
1002
{
1000
BEHIND
1070
     0
1002
}
1002
{
1000
REACTOR
1002
}
1001
GENIUS_GENOBJ-N-CHA_13
1002
{
1000
OWNER
1000
GEN
1002
}
  0
LINE
  5
16C3B
330
1F
100
AcDbEntity
  8
AM_0
100
AcDbLine
 10
-68.60000000000019
 20
-87.99999999999988
 30
0.0
 11
-66.60000000000021
 21
-89.99999999999991
 31
0.0
1001
GENIUS_GENFIL_13
1070
     0
1040
2.0
1040
2.0
1040
20.0
1040
0.0
1002
{
1002
}
1001
GENIUS_GENODEF_13
1002
{
1000
HIER
1070
     0
1002
}
1002
{
1000
MANEDIT
1070
     0
1002
}
1002
{
1000
NOSEL
1070
     0
1002
}
1002
{
1000
BEHIND
1070
     0
1002
}
1002
{
1000
REACTOR
1002
}
1001
GENIUS_GENOBJ-N-CHA_13
1002
{
1000
OWNER
1000
GEN
1002
}
  0
ARC
  5
16C3C
330
1F
100
AcDbEntity
  8
AM_0
100
AcDbCircle
 10
-61.5172988935317
 20
-92.99999999999991
 30
0.0
 40
3.0
100
AcDbArc
 50
10.0000000000003
 51
89.99999999999969
1001
GENIUS_GENODEF_13
1002
{
1000
HIER
1070
     0
1002
}
1002
{
1000
MANEDIT
1070
     0
1002
}
1002
{
1000
NOSEL
1070
     0
1002
}
1002
{
1000
BEHIND
1070
     0
1002
}
1002
{
1000
REACTOR
1002
}
1001
GENIUS_GENOBJ-N-FIL_13
1002
{
1000
OWNER
1000
GEN
1002
}
  0
ARC
  5
16C3D
330
1F
100
AcDbEntity
  8
AM_0
100
AcDbCircle
 10
-35.17157287525414
 20
-133.3
 30
0.0
 40
2.0
100
AcDbArc
 50
224.9999999999996
 51
270.0
1001
GENIUS_GENODEF_13
1002
{
1000
HIER
1070
     0
1002
}
1002
{
1000
MANEDIT
1070
     0
1002
}
1002
{
1000
NOSEL
1070
     0
1002
}
1002
{
1000
BEHIND
1070
     0
1002
}
1002
{
1000
REACTOR
1002
}
1001
GENIUS_GENOBJ-N-FIL_13
1002
{
1000
OWNER
1000
GEN
1002
}
  0
ARC
  5
16C3E
330
1F
100
AcDbEntity
  8
AM_0
100
AcDbCircle
 10
-27.30000000000021
 20
-129.15
 30
0.0
 40
0.4
100
AcDbArc
 50
90.00000000000003
 51
180.0
1001
GENIUS_GENODEF_13
1002
{
1000
HIER
1070
     0
1002
}
1002
{
1000
MANEDIT
1070
     0
1002
}
1002
{
1000
NOSEL
1070
     0
1002
}
1002
{
1000
BEHIND
1070
     0
1002
}
1002
{
1000
REACTOR
1002
}
1001
GENIUS_GENOBJ-N-FIL_13
1002
{
1000
OWNER
1000
GEN
1002
}
  0
ARC
  5
16C3F
330
1F
100
AcDbEntity
  8
AM_3
100
AcDbCircle
 10
-23.1000000000001
 20
-129.1500000000001
 30
0.0
 40
0.4
100
AcDbArc
 50
0.0000000000020496
 51
89.99999999999838
1001
GENIUS_GENODEF_13
1002
{
1000
HIER
1070
     0
1002
}
1002
{
1000
MANEDIT
1070
     0
1002
}
1002
{
1000
NOSEL
1070
     0
1002
}
1002
{
1000
BEHIND
1070
     0
1002
}
1002
{
1000
REACTOR
1002
}
1001
GENIUS_GENOBJ-N-FIL_13
1002
{
1000
OWNER
1000
GEN
1002
}
  0
LINE
  5
16C40
330
1F
100
AcDbEntity
  8
AM_3
100
AcDbLine
 10
-19.69999999999988
 20
-135.3
 30
0.0
 11
-22.69999999999999
 21
-132.3
 31
0.0
1001
GENIUS_GENFIL_13
1070
     0
1040
3.0
1040
3.0
1040
20.0
1040
0.0
1002
{
1002
}
1001
GENIUS_GENODEF_13
1002
{
1000
HIER
1070
     0
1002
}
1002
{
1000
MANEDIT
1070
     0
1002
}
1002
{
1000
NOSEL
1070
     0
1002
}
1002
{
1000
BEHIND
1070
     0
1002
}
1002
{
1000
REACTOR
1002
}
1001
GENIUS_GENOBJ-N-CHA_13
1002
{
1000
OWNER
1000
GEN
1002
}
  0
VIEWPORT
  5
110
330
101
100
AcDbEntity
 67
     1
  8
0
100
AcDbViewport
 10
420.5
 20
297.0
 30
0.0
 40
948.9782706766916
 41
628.452
 68
     1
 69
     1
1001
ACAD
1000
MVIEW
1002
{
1070
    16
1010
0.0
1020
0.0
1030
0.0
1010
0.0
1020
0.0
1030
1.0
1040
0.0
1040
628.452
1040
420.5
1040
297.0
1040
50.0
1040
0.0
1040
0.0
1070
     0
1070
   100
1070
     1
1070
     1
1070
     0
1070
     0
1070
     0
1070
     0
1040
0.0
1040
0.0
1040
0.0
1040
10.0
1040
10.0
1040
10.0
1040
10.0
1070
     0
1002
{
1002
}
1002
}
  0
ENDSEC
  0
SECTION
  2
OBJECTS
  0
DICTIONARY
  5
C
330
0
100
AcDbDictionary
  3
ACAD_GROUP
350
D
  3
ACAD_LAYOUT
350
1A
  3
ACAD_MLINESTYLE
350
17
  3
ACAD_PLOTSETTINGS
350
19
  3
ACAD_PLOTSTYLENAME
350
E
  3
ACDBVARIABLEDICTIONARY
350
34
  3
ACMDICTIONARY
350
43
  3
AMG
350
2B
  3
AMGSNAPSETTINGS
350
6E
  3
DWGPROPS
350
16D20
  3
ACDBHEADERROUNDTRIPXREC
350
16D2D
  0
DICTIONARY
  5
74
330
1F
100
AcDbDictionary
280
     1
  3
ACAD_INDEX
360
16D22
  3
ACAD_LAYOUTSELFREF
360
16D50
  0
DICTIONARY
  5
16D55
330
101
100
AcDbDictionary
280
     1
  3
ACAD_LAYOUTSELFREF
360
16D56
  0
DICTIONARY
  5
D
102
{ACAD_REACTORS
330
C
102
}
330
C
100
AcDbDictionary
  0
DICTIONARY
  5
1A
102
{ACAD_REACTORS
330
C
102
}
330
C
100
AcDbDictionary
  0
DICTIONARY
  5
17
102
{ACAD_REACTORS
330
C
102
}
330
C
100
AcDbDictionary
  3
STANDARD
350
18
  0
DICTIONARY
  5
19
102
{ACAD_REACTORS
330
C
102
}
330
C
100
AcDbDictionary
  0
ACDBDICTIONARYWDFLT
  5
E
102
{ACAD_REACTORS
330
C
102
}
330
C
100
AcDbDictionary
281
     1
  3
Normal
350
F
100
AcDbDictionaryWithDefault
340
F
  0
DICTIONARY
  5
34
102
{ACAD_REACTORS
330
C
102
}
330
C
100
AcDbDictionary
  3
INDEXCTL
350
35
  3
SORTENTS
350
B5E
  0
DICTIONARY
  5
43
102
{ACAD_REACTORS
330
C
102
}
330
C
100
AcDbDictionary
  3
ACMSTDDICTIONARY
350
260
  0
DICTIONARY
  5
2B
102
{ACAD_REACTORS
330
C
102
}
330
C
100
AcDbDictionary
  3
ACMGSETTINGS
350
2C
  0
DICTIONARY
  5
6E
102
{ACAD_REACTORS
330
C
102
}
330
C
100
AcDbDictionary
  0
XRECORD
  5
16D20
102
{ACAD_REACTORS
330
C
102
}
330
C
100
AcDbXrecord
  1
DWGPROPS COOKIE
  2

  3

  4

  6

  7

  8

  9

300
AmdtFileType=82
301
=
302
=
303
=
304
=
305
=
306
=
307
=
308
=
309
=
 40
0.3003365625
 41
2452836.771637361
 42
2453076.49906213
  1

 90
        1
  0
DICTIONARY
  5
16D2D
102
{ACAD_REACTORS
330
C
102
}
330
C
100
AcDbDictionary
  3
TSTACKALIGN
350
16D2E
  3
TSTACKSIZE
350
16D2F
  3
HYPERLINKBASE
350
16D30
  3
STYLESHEET
350
16D31
  3
LAYOUTDICT
350
16D32
  3
PLOTSETDICT
350
16D33
  3
PLOTSTYLNAMDICT
350
16D34
  3
LWETCUNION
350
16D35
  3
INSUNITS
350
16D36
  3
CEPSNTYPE
350
16D37
  3
FINGERPRINTGUID
350
16D38
  3
VERSIONGUID
350
16D39
  3
PSVPSCALE
350
16D3A
  3
DIMSTYLEDATA
350
16D3B
  3
PUCSORTHOREF
350
16D3C
  3
PUCSORTHOVIEW
350
16D3D
  3
PUCSBASE
350
16D3E
  3
PUCSORGTOP
350
16D3F
  3
PUCSORGBOTTOM
350
16D40
  3
PUCSORGLEFT
350
16D41
  3
PUCSORGRIGHT
350
16D42
  3
PUCSORGFRONT
350
16D43
  3
PUCSORGBACK
350
16D44
  3
UCSORTHOREF
350
16D45
  3
UCSORTHOVIEW
350
16D46
  3
UCSBASE
350
16D47
  3
UCSORGTOP
350
16D48
  3
UCSORGBOTTOM
350
16D49
  3
UCSORGLEFT
350
16D4A
  3
UCSORGRIGHT
350
16D4B
  3
UCSORGFRONT
350
16D4C
  3
UCSORGBACK
350
16D4D
  0
DICTIONARY
  5
16D22
102
{ACAD_REACTORS
330
74
102
}
330
74
100
AcDbDictionary
  3
*A1
350
16D23
  0
XRECORD
  5
16D50
102
{ACAD_REACTORS
330
74
102
}
330
74
100
AcDbXrecord
340
1F
  0
XRECORD
  5
16D56
102
{ACAD_REACTORS
330
16D55
102
}
330
16D55
100
AcDbXrecord
340
101
  0
MLINESTYLE
  5
18
102
{ACAD_REACTORS
330
17
102
}
330
17
100
AcDbMlineStyle
  2
STANDARD
 70
     0
  3

 62
   256
 51
90.0
 52
90.0
 71
     2
 49
0.5
 62
   256
  6
BYLAYER
 49
-0.5
 62
   256
  6
BYLAYER
  0
ACDBPLACEHOLDER
  5
F
102
{ACAD_REACTORS
330
E
102
}
330
E
100
AcDbPlaceHolder
280
     0
  0
DICTIONARYVAR
  5
35
102
{ACAD_REACTORS
330
34
102
}
330
34
100
DictionaryVariables
280
     0
  1
1
  0
DICTIONARYVAR
  5
B5E
102
{ACAD_REACTORS
330
34
102
}
330
34
100
DictionaryVariables
280
     0
  1
96
  0
DICTIONARY
  5
260
102
{ACAD_REACTORS
330
43
102
}
330
43
100
AcDbDictionary
  0
DICTIONARY
  5
2C
102
{ACAD_REACTORS
330
2B
102
}
330
2B
100
AcDbDictionary
  3
DWGSETTINGS
350
2D
  0
XRECORD
  5
16D2E
102
{ACAD_REACTORS
330
16D2D
102
}
330
16D2D
100
AcDbXrecord
 90
        1
  0
XRECORD
  5
16D2F
102
{ACAD_REACTORS
330
16D2D
102
}
330
16D2D
100
AcDbXrecord
 90
       70
  0
XRECORD
  5
16D30
102
{ACAD_REACTORS
330
16D2D
102
}
330
16D2D
100
AcDbXrecord
  1

  0
XRECORD
  5
16D31
102
{ACAD_REACTORS
330
16D2D
102
}
330
16D2D
100
AcDbXrecord
  1
ASAMI.ctb
  0
XRECORD
  5
16D32
102
{ACAD_REACTORS
330
16D2D
102
}
330
16D2D
100
AcDbXrecord
340
1A
  0
XRECORD
  5
16D33
102
{ACAD_REACTORS
330
16D2D
102
}
330
16D2D
100
AcDbXrecord
340
19
  0
XRECORD
  5
16D34
102
{ACAD_REACTORS
330
16D2D
102
}
330
16D2D
100
AcDbXrecord
340
E
  0
XRECORD
  5
16D35
102
{ACAD_REACTORS
330
16D2D
102
}
330
16D2D
100
AcDbXrecord
 90
    10781
  0
XRECORD
  5
16D36
102
{ACAD_REACTORS
330
16D2D
102
}
330
16D2D
100
AcDbXrecord
 90
        4
  0
XRECORD
  5
16D37
102
{ACAD_REACTORS
330
16D2D
102
}
330
16D2D
100
AcDbXrecord
 90
        0
  0
XRECORD
  5
16D38
102
{ACAD_REACTORS
330
16D2D
102
}
330
16D2D
100
AcDbXrecord
  1
{AFB28963-8C59-40AE-9337-C84526B81ACE}
  0
XRECORD
  5
16D39
102
{ACAD_REACTORS
330
16D2D
102
}
330
16D2D
100
AcDbXrecord
  1
{303451C7-5A17-462C-9E68-A2F4CE0AA778}
  0
XRECORD
  5
16D3A
102
{ACAD_REACTORS
330
16D2D
102
}
330
16D2D
100
AcDbXrecord
 40
0.0
  0
XRECORD
  5
16D3B
102
{ACAD_REACTORS
330
16D2D
102
}
330
16D2D
100
AcDbXrecord
1000
DSTYLE
1002
{
1070
    79
 70
     2
1070
   341
340
59
1070
   342
340
59
1070
   371
 70
    -1
1070
   372
 70
    -1
1002
}
  0
XRECORD
  5
16D3C
102
{ACAD_REACTORS
330
16D2D
102
}
330
16D2D
100
AcDbXrecord
340
0
  0
XRECORD
  5
16D3D
102
{ACAD_REACTORS
330
16D2D
102
}
330
16D2D
100
AcDbXrecord
 70
     0
  0
XRECORD
  5
16D3E
102
{ACAD_REACTORS
330
16D2D
102
}
330
16D2D
100
AcDbXrecord
340
0
  0
XRECORD
  5
16D3F
102
{ACAD_REACTORS
330
16D2D
102
}
330
16D2D
100
AcDbXrecord
 10
0.0
 20
0.0
 30
0.0
  0
XRECORD
  5
16D40
102
{ACAD_REACTORS
330
16D2D
102
}
330
16D2D
100
AcDbXrecord
 10
0.0
 20
0.0
 30
0.0
  0
XRECORD
  5
16D41
102
{ACAD_REACTORS
330
16D2D
102
}
330
16D2D
100
AcDbXrecord
 10
0.0
 20
0.0
 30
0.0
  0
XRECORD
  5
16D42
102
{ACAD_REACTORS
330
16D2D
102
}
330
16D2D
100
AcDbXrecord
 10
0.0
 20
0.0
 30
0.0
  0
XRECORD
  5
16D43
102
{ACAD_REACTORS
330
16D2D
102
}
330
16D2D
100
AcDbXrecord
 10
0.0
 20
0.0
 30
0.0
  0
XRECORD
  5
16D44
102
{ACAD_REACTORS
330
16D2D
102
}
330
16D2D
100
AcDbXrecord
 10
0.0
 20
0.0
 30
0.0
  0
XRECORD
  5
16D45
102
{ACAD_REACTORS
330
16D2D
102
}
330
16D2D
100
AcDbXrecord
340
0
  0
XRECORD
  5
16D46
102
{ACAD_REACTORS
330
16D2D
102
}
330
16D2D
100
AcDbXrecord
 70
     0
  0
XRECORD
  5
16D47
102
{ACAD_REACTORS
330
16D2D
102
}
330
16D2D
100
AcDbXrecord
340
0
  0
XRECORD
  5
16D48
102
{ACAD_REACTORS
330
16D2D
102
}
330
16D2D
100
AcDbXrecord
 10
0.0
 20
0.0
 30
0.0
  0
XRECORD
  5
16D49
102
{ACAD_REACTORS
330
16D2D
102
}
330
16D2D
100
AcDbXrecord
 10
0.0
 20
0.0
 30
0.0
  0
XRECORD
  5
16D4A
102
{ACAD_REACTORS
330
16D2D
102
}
330
16D2D
100
AcDbXrecord
 10
0.0
 20
0.0
 30
0.0
  0
XRECORD
  5
16D4B
102
{ACAD_REACTORS
330
16D2D
102
}
330
16D2D
100
AcDbXrecord
 10
0.0
 20
0.0
 30
0.0
  0
XRECORD
  5
16D4C
102
{ACAD_REACTORS
330
16D2D
102
}
330
16D2D
100
AcDbXrecord
 10
0.0
 20
0.0
 30
0.0
  0
XRECORD
  5
16D4D
102
{ACAD_REACTORS
330
16D2D
102
}
330
16D2D
100
AcDbXrecord
 10
0.0
 20
0.0
 30
0.0
  0
LAYER_INDEX
  5
16D23
102
{ACAD_REACTORS
330
16D22
102
}
330
16D22
100
AcDbIndex
 40
2453152.368260613
100
AcDbLayerIndex
  8
0
360
16D24
 90
      140
  8
AM_0
360
16D25
 90
       72
  8
AM_7
360
16D26
 90
        3
  8
AM_5
360
16D27
 90
       10
  8
Defpoints
360
16D28
 90
        0
  8
AM_6
360
16D29
 90
        1
  8
AM_11
360
16D2A
 90
       28
  8
AM_3
360
16D2B
 90
       22
  0
XRECORD
  5
2D
102
{ACAD_REACTORS
330
2C
102
}
330
2C
100
AcDbXrecord
  1
VERSION
140
15.0
  1
PRODUCT
  2
AutoCAD Mechanical 2000
  0
IDBUFFER
  5
16D24
330
0
100
AcDbIdBuffer
330
16972
330
16973
330
16974
330
16975
330
16977
330
16978
330
16979
330
1697A
330
16BF9
330
16BFA
330
16BFB
330
16BFC
330
16BFD
330
16BFE
330
16BFF
330
16C00
330
16C01
330
16C02
330
16C03
330
16C04
330
16C05
330
16C06
330
16C07
330
16C08
330
16C09
330
16C0A
330
16C0B
330
16C0C
330
168C0
330
168C1
330
168C2
330
168C3
330
168C4
330
168C5
330
168C6
330
168C7
330
168C8
330
168C9
330
168CA
330
168CB
330
168CC
330
168CD
330
168CE
330
168CF
330
168D0
330
168D1
330
168D2
330
168D3
330
168D4
330
168D5
330
168D6
330
168D7
330
168D8
330
168D9
330
168DA
330
168DB
330
168DC
330
168DD
330
168DE
330
168DF
330
168E0
330
168E1
330
168E2
330
168E3
330
168E4
330
168E6
330
168E7
330
168E8
330
168EA
330
168EB
330
168EC
330
168ED
330
168EE
330
168EF
330
168F0
330
168F1
330
168F2
330
168F3
330
168F4
330
168F5
330
168F6
330
168F7
330
168F8
330
168F9
330
168FA
330
168FB
330
168FC
330
1693D
330
1693E
330
1693F
330
16940
330
16941
330
16942
330
16943
330
16944
330
16945
330
16946
330
16947
330
16948
330
16949
330
1694A
330
1694B
330
1694C
330
1694D
330
1694E
330
1694F
330
16950
330
16951
330
16952
330
16953
330
16954
330
16955
330
16956
330
16957
330
16958
330
16959
330
1695A
330
1695B
330
1695C
330
1695D
330
1695E
330
1695F
330
16960
330
16961
330
16962
330
16963
330
16964
330
16965
330
16966
330
16967
330
16968
330
16969
330
1696A
330
1696B
330
1696C
330
1696D
330
1696E
330
1696F
330
16970
330
16971
  0
IDBUFFER
  5
16D25
330
0
100
AcDbIdBuffer
330
14877
330
16285
330
16292
330
169EB
330
169EC
330
169ED
330
169EE
330
169F0
330
169F1
330
169F2
330
169F3
330
169F4
330
16C25
330
16C2B
330
16C2E
330
16C31
330
16C34
330
16C37
330
16C39
330
16C3A
330
16C3B
330
16C3C
330
16C3D
330
16C3E
330
14807
330
14808
330
14809
330
1480A
330
1480D
330
1480E
330
14810
330
14811
330
14813
330
14816
330
14819
330
1481A
330
1481B
330
14821
330
14825
330
1482B
330
1482C
330
1482D
330
1482E
330
14839
330
1483A
330
1483B
330
1483F
330
14840
330
14842
330
14844
330
14845
330
14846
330
14847
330
1484A
330
1484B
330
1484C
330
1484E
330
1484F
330
14851
330
14852
330
14854
330
14856
330
14859
330
1485A
330
1485B
330
1485C
330
1485D
330
14865
330
14866
330
14868
330
14869
330
1486E
  0
IDBUFFER
  5
16D26
330
0
100
AcDbIdBuffer
330
1480B
330
1483E
330
14841
  0
IDBUFFER
  5
16D27
330
0
100
AcDbIdBuffer
330
1666B
330
1666C
330
1666D
330
1666E
330
1671D
330
1671E
330
1671F
330
16720
330
167AC
330
16AC7
  0
IDBUFFER
  5
16D28
330
0
100
AcDbIdBuffer
  0
IDBUFFER
  5
16D29
330
0
100
AcDbIdBuffer
330
E5A
  0
IDBUFFER
  5
16D2A
330
0
100
AcDbIdBuffer
330
14843
330
14850
330
14857
330
14858
330
1485E
330
1485F
330
14860
330
14861
330
14862
330
14863
330
14864
330
168E9
330
1480C
330
1480F
330
14815
330
14817
330
14818
330
14830
330
14831
330
14832
330
14833
330
14834
330
14835
330
14836
330
14837
330
14838
330
1483C
330
1483D
  0
IDBUFFER
  5
16D2B
330
0
100
AcDbIdBuffer
330
14D59
330
169EF
330
16C22
330
16C28
330
16C3F
330
16C40
330
1481D
330
1481E
330
1481F
330
14820
330
14823
330
14826
330
14827
330
1482A
330
1486A
330
1486B
330
1486C
330
1486D
330
14871
330
14872
330
14874
330
14876
  0
ENDSEC
  0
EOF
