  0
SECTION
  2
HEADER
  9
$ACADVER
  1
AC1014
  9
$ACADMAINTVER
 70
     9
  9
$DWGCODEPAGE
  3
ANSI_932
  9
$INSBASE
 10
0.0
 20
0.0
 30
0.0
  9
$EXTMIN
 10
-124.5528388796999
 20
-235.0800850000001
 30
-0.00000001
  9
$EXTMAX
 10
22.50012974726659
 20
168.580084
 30
0.00000001
  9
$LIMMIN
 10
-208.7658008168227
 20
-298.7640581483624
  9
$LIMMAX
 10
112.7792349154738
 20
208.0188032256842
  9
$ORTHOMODE
 70
     0
  9
$REGENMODE
 70
     1
  9
$FILLMODE
 70
     1
  9
$QTEXTMODE
 70
     0
  9
$MIRRTEXT
 70
     0
  9
$DRAGMODE
 70
     2
  9
$LTSCALE
 40
1.0
  9
$OSMODE
 70
    55
  9
$ATTMODE
 70
     1
  9
$TEXTSIZE
 40
2.5
  9
$TRACEWID
 40
1.0
  9
$TEXTSTYLE
  7
STANDARD
  9
$CLAYER
  8
AM_0
  9
$CELTYPE
  6
BYLAYER
  9
$CECOLOR
 62
   256
  9
$CELTSCALE
 40
1.0
  9
$DELOBJ
 70
     1
  9
$DISPSILH
 70
     0
  9
$DIMSCALE
 40
1.0
  9
$DIMASZ
 40
2.5
  9
$DIMEXO
 40
1.0
  9
$DIMDLI
 40
12.0
  9
$DIMRND
 40
0.0
  9
$DIMDLE
 40
0.0
  9
$DIMEXE
 40
1.0
  9
$DIMTP
 40
0.1
  9
$DIMTM
 40
0.1
  9
$DIMTXT
 40
3.2
  9
$DIMCEN
 40
0.0
  9
$DIMTSZ
 40
0.0
  9
$DIMTOL
 70
     0
  9
$DIMLIM
 70
     0
  9
$DIMTIH
 70
     0
  9
$DIMTOH
 70
     0
  9
$DIMSE1
 70
     0
  9
$DIMSE2
 70
     0
  9
$DIMTAD
 70
     3
  9
$DIMZIN
 70
     8
  9
$DIMBLK
  1
OPEN30
  9
$DIMASO
 70
     1
  9
$DIMSHO
 70
     1
  9
$DIMPOST
  1

  9
$DIMAPOST
  1
"
  9
$DIMALT
 70
     0
  9
$DIMALTD
 70
     2
  9
$DIMALTF
 40
0.0393701
  9
$DIMLFAC
 40
1.0
  9
$DIMTOFL
 70
     1
  9
$DIMTVP
 40
0.0
  9
$DIMTIX
 70
     0
  9
$DIMSOXD
 70
     0
  9
$DIMSAH
 70
     0
  9
$DIMBLK1
  1

  9
$DIMBLK2
  1

  9
$DIMSTYLE
  2
AM_JIS
  9
$DIMCLRD
 70
   256
  9
$DIMCLRE
 70
   256
  9
$DIMCLRT
 70
     2
  9
$DIMTFAC
 40
0.71
  9
$DIMGAP
 40
1.5
  9
$DIMJUST
 70
     0
  9
$DIMSD1
 70
     0
  9
$DIMSD2
 70
     0
  9
$DIMTOLJ
 70
     0
  9
$DIMTZIN
 70
     0
  9
$DIMALTZ
 70
     0
  9
$DIMALTTZ
 70
     0
  9
$DIMFIT
 70
     3
  9
$DIMUPT
 70
     0
  9
$DIMUNIT
 70
     2
  9
$DIMDEC
 70
     3
  9
$DIMTDEC
 70
     3
  9
$DIMALTU
 70
     2
  9
$DIMALTTD
 70
     2
  9
$DIMTXSTY
  7
ASAMI
  9
$DIMAUNIT
 70
     0
  9
$LUNITS
 70
     2
  9
$LUPREC
 70
     2
  9
$SKETCHINC
 40
1.0
  9
$FILLETRAD
 40
1.0
  9
$AUNITS
 70
     0
  9
$AUPREC
 70
     0
  9
$MENU
  1
.
  9
$ELEVATION
 40
0.0
  9
$PELEVATION
 40
0.0
  9
$THICKNESS
 40
0.0
  9
$LIMCHECK
 70
     0
  9
$BLIPMODE
 70
     0
  9
$CHAMFERA
 40
1.9
  9
$CHAMFERB
 40
1.9
  9
$CHAMFERC
 40
20.0
  9
$CHAMFERD
 40
0.0
  9
$SKPOLY
 70
     0
  9
$TDCREATE
 40
2452836.771637361
  9
$TDUPDATE
 40
2453152.368347963
  9
$TDINDWG
 40
0.3154414236
  9
$TDUSRTIMER
 40
0.3154414236
  9
$USRTIMER
 70
     1
  9
$ANGBASE
 50
0.0
  9
$ANGDIR
 70
     0
  9
$PDMODE
 70
     0
  9
$PDSIZE
 40
0.0
  9
$PLINEWID
 40
0.0
  9
$COORDS
 70
     1
  9
$SPLFRAME
 70
     0
  9
$SPLINETYPE
 70
     6
  9
$SPLINESEGS
 70
     8
  9
$ATTDIA
 70
     1
  9
$ATTREQ
 70
     1
  9
$HANDLING
 70
 12289
  9
$HANDSEED
  5
18232
  9
$SURFTAB1
 70
     6
  9
$SURFTAB2
 70
     6
  9
$SURFTYPE
 70
     6
  9
$SURFU
 70
     6
  9
$SURFV
 70
     6
  9
$UCSNAME
  2

  9
$UCSORG
 10
0.0
 20
0.0
 30
0.0
  9
$UCSXDIR
 10
1.0
 20
0.0
 30
0.0
  9
$UCSYDIR
 10
0.0
 20
1.0
 30
0.0
  9
$PUCSNAME
  2

  9
$PUCSORG
 10
0.0
 20
0.0
 30
0.0
  9
$PUCSXDIR
 10
1.0
 20
0.0
 30
0.0
  9
$PUCSYDIR
 10
0.0
 20
1.0
 30
0.0
  9
$USERI1
 70
     0
  9
$USERI2
 70
     0
  9
$USERI3
 70
     0
  9
$USERI4
 70
     0
  9
$USERI5
 70
     0
  9
$USERR1
 40
0.0
  9
$USERR2
 40
0.0
  9
$USERR3
 40
0.0
  9
$USERR4
 40
0.0
  9
$USERR5
 40
0.0
  9
$WORLDVIEW
 70
     1
  9
$SHADEDGE
 70
     3
  9
$SHADEDIF
 70
    70
  9
$TILEMODE
 70
     1
  9
$MAXACTVP
 70
    64
  9
$PINSBASE
 10
0.0
 20
0.0
 30
0.0
  9
$PLIMCHECK
 70
     0
  9
$PEXTMIN
 10
1.000000000000000E+20
 20
1.000000000000000E+20
 30
1.000000000000000E+20
  9
$PEXTMAX
 10
-1.000000000000000E+20
 20
-1.000000000000000E+20
 30
-1.000000000000000E+20
  9
$PLIMMIN
 10
0.0
 20
0.0
  9
$PLIMMAX
 10
841.0
 20
594.0
  9
$UNITMODE
 70
     0
  9
$VISRETAIN
 70
     1
  9
$PLINEGEN
 70
     0
  9
$PSLTSCALE
 70
     0
  9
$TREEDEPTH
 70
  3020
  9
$PICKSTYLE
 70
     0
  9
$CMLSTYLE
  2
STANDARD
  9
$CMLJUST
 70
     0
  9
$CMLSCALE
 40
20.0
  9
$PROXYGRAPHICS
 70
     1
  9
$MEASUREMENT
 70
     1
  0
ENDSEC
  0
SECTION
  2
CLASSES
  0
CLASS
  1
ACDBDICTIONARYWDFLT
  2
AcDbDictionaryWithDefault
  3
AutoCAD 2000
 90
        0
280
     0
281
     0
  0
CLASS
  1
ACDBPLACEHOLDER
  2
AcDbPlaceHolder
  3
AutoCAD 2000
 90
        0
280
     0
281
     0
  0
CLASS
  1
LAYOUT
  2
AcDbLayout
  3
AutoCAD 2000
 90
        0
280
     0
281
     0
  0
CLASS
  1
AMGSETTINGSOBJ
  2
AmgSettingsObj
  3
"AcadM|Product Description: AutoCAD Mechanical 2000|Company: Autodesk"
 90
        0
280
     0
281
     0
  0
CLASS
  1
ACME_DOCUMENT
  2
AcMeDbDoc
  3
AcMeServices
 90
        0
280
     0
281
     0
  0
CLASS
  1
ACMESCOPE
  2
AcMeScope
  3
AcMeServices
 90
        0
280
     0
281
     0
  0
CLASS
  1
ACMECOMMANDHISTORY
  2
AcMeCommandHistory
  3
AcMeServices
 90
        0
280
     0
281
     0
  0
CLASS
  1
DICTIONARYVAR
  2
AcDbDictionaryVar
  3
AutoCAD 2000
 90
        0
280
     0
281
     0
  0
CLASS
  1
ACIMSYSVARMAN
  2
AcImSysVarManager
  3
AcMeServices
 90
        0
280
     0
281
     0
  0
CLASS
  1
ACIMREALSYSVAR
  2
AcImRealSysVar
  3
AcMeServices
 90
        0
280
     0
281
     0
  0
CLASS
  1
ACIMINTSYSVAR
  2
AcImIntSysVar
  3
AcMeServices
 90
        0
280
     0
281
     0
  0
CLASS
  1
ACMEDRAWINGMAN
  2
AcMeDrawingMan
  3
AcMeServices
 90
        0
280
     0
281
     0
  0
CLASS
  1
ACMEVIEW
  2
AcMeView
  3
AcMeServices
 90
        0
280
     0
281
     0
  0
CLASS
  1
ACDBENTITYCACHE
  2
AcMeEntityCache
  3
AcMeServices
 90
        0
280
     0
281
     0
  0
CLASS
  1
GSMANAGER
  2
AcMeGSManager
  3
AcMeServices
 90
        0
280
     0
281
     0
  0
CLASS
  1
AmdtInternalReactor
  2
AmdtInternalReactor
  3
AcMeServices
 90
        0
280
     0
281
     0
  0
CLASS
  1
ACMESTATEMGR
  2
AcMeStateMgr
  3
AcMeServices
 90
        0
280
     0
281
     0
  0
CLASS
  1
ACME_DATABASE
  2
AcMeDbDatabase
  3
AcMeServices
 90
        0
280
     0
281
     0
  0
CLASS
  1
ACRFINSADJUSTERMGR
  2
AcRfInsAdjusterMgr
  3
AcMeServices
 90
        0
280
     0
281
     0
  0
CLASS
  1
ACMDATADICTIONARY
  2
AcmDataDictionary
  3
"AcmSymBB|Product Description: AutoCAD Mechanical 2000|Company: Autodesk"
 90
        0
280
     0
281
     0
  0
CLASS
  1
ACMDATAENTRYBLOCK
  2
AcmDataEntryBlock
  3
"AcmSymBB|Product Description: AutoCAD Mechanical 2000|Company: Autodesk"
 90
        0
280
     0
281
     0
  0
CLASS
  1
AMGOBJPROPCFG
  2
AmgObjPropCfg
  3
"AmgLay|Product Description: AutoCAD Mechanical 2000|Company: Autodesk"
 90
        1
280
     0
281
     0
  0
CLASS
  1
ACAMGFILTERDAT
  2
AcAmgFilterDat
  3
"AcadM|Product Description: AutoCAD Mechanical 2000|Company: Autodesk"
 90
        0
280
     0
281
     0
  0
CLASS
  1
LAYER_INDEX
  2
AcDbLayerIndex
  3
AutoCAD 2000
 90
        0
280
     0
281
     0
  0
CLASS
  1
IDBUFFER
  2
AcDbIdBuffer
  3
AutoCAD 2000
 90
        0
280
     0
281
     0
  0
CLASS
  1
ACIMSTRSYSVAR
  2
AcImStrSysVar
  3
AcMeServices
 90
        0
280
     0
281
     0
  0
CLASS
  1
ACMSTANDARDJIS
  2
AcmStandardJIS
  3
"AcmSymBB|Product Description: AutoCAD Mechanical 2000|Company: Autodesk"
 90
        0
280
     0
281
     0
  0
CLASS
  1
ACMSURFSTANDARDJIS
  2
AcmSurfTextStdJIS
  3
"AcmSymBB|Product Description: AutoCAD Mechanical 2000|Company: Autodesk"
 90
        0
280
     0
281
     0
  0
CLASS
  1
ACMFCFSTANDARDJIS
  2
AcmFCFStdJIS
  3
"AcmSymBB|Product Description: AutoCAD Mechanical 2000|Company: Autodesk"
 90
        0
280
     0
281
     0
  0
CLASS
  1
ACMWELDSTANDARDJIS
  2
AcmWeldingStdJIS
  3
"AcmSymBB|Product Description: AutoCAD Mechanical 2000|Company: Autodesk"
 90
        0
280
     0
281
     0
  0
CLASS
  1
ACMIDSTANDARDJIS
  2
AcmIdStdJIS
  3
"AcmSymBB|Product Description: AutoCAD Mechanical 2000|Company: Autodesk"
 90
        0
280
     0
281
     0
  0
CLASS
  1
ACMDATUMSTANDARDJIS
  2
AcmDatumStdJIS
  3
"AcmSymBB|Product Description: AutoCAD Mechanical 2000|Company: Autodesk"
 90
        0
280
     0
281
     0
  0
CLASS
  1
ACMBOMSTANDARDJIS
  2
AcmBOMStdJIS
  3
"AcmSymBB|Product Description: AutoCAD Mechanical 2000|Company: Autodesk"
 90
        0
280
     0
281
     0
  0
CLASS
  1
ACMSTANDARDANSI
  2
AcmStandardANSI
  3
"AcmSymBB|Product Description: AutoCAD Mechanical 2000|Company: Autodesk"
 90
        0
280
     0
281
     0
  0
CLASS
  1
ACMSURFSTANDARDANSI
  2
AcmSurfTextStdANSI
  3
"AcmSymBB|Product Description: AutoCAD Mechanical 2000|Company: Autodesk"
 90
        0
280
     0
281
     0
  0
CLASS
  1
ACMFCFSTANDARDANSI
  2
AcmFCFStdANSI
  3
"AcmSymBB|Product Description: AutoCAD Mechanical 2000|Company: Autodesk"
 90
        0
280
     0
281
     0
  0
CLASS
  1
ACMWELDSTANDARDANSI
  2
AcmWeldingStdANSI
  3
"AcmSymBB|Product Description: AutoCAD Mechanical 2000|Company: Autodesk"
 90
        0
280
     0
281
     0
  0
CLASS
  1
ACMIDSTANDARDANSI
  2
AcmIdStdANSI
  3
"AcmSymBB|Product Description: AutoCAD Mechanical 2000|Company: Autodesk"
 90
        0
280
     0
281
     0
  0
CLASS
  1
ACMDATUMSTANDARDANSI
  2
AcmDatumStdANSI
  3
"AcmSymBB|Product Description: AutoCAD Mechanical 2000|Company: Autodesk"
 90
        0
280
     0
281
     0
  0
CLASS
  1
ACMBOMSTANDARDANSI
  2
AcmBOMStdANSI
  3
"AcmSymBB|Product Description: AutoCAD Mechanical 2000|Company: Autodesk"
 90
        0
280
     0
281
     0
  0
CLASS
  1
ACMSTANDARDBSI
  2
AcmStandardBSI
  3
"AcmSymBB|Product Description: AutoCAD Mechanical 2000|Company: Autodesk"
 90
        0
280
     0
281
     0
  0
CLASS
  1
ACMSURFSTANDARDBSI
  2
AcmSurfTextStdBSI
  3
"AcmSymBB|Product Description: AutoCAD Mechanical 2000|Company: Autodesk"
 90
        0
280
     0
281
     0
  0
CLASS
  1
ACMFCFSTANDARDBSI
  2
AcmFCFStdBSI
  3
"AcmSymBB|Product Description: AutoCAD Mechanical 2000|Company: Autodesk"
 90
        0
280
     0
281
     0
  0
CLASS
  1
ACMWELDSTANDARDBSI
  2
AcmWeldingStdBSI
  3
"AcmSymBB|Product Description: AutoCAD Mechanical 2000|Company: Autodesk"
 90
        0
280
     0
281
     0
  0
CLASS
  1
ACMIDSTANDARDBSI
  2
AcmIdStdBSI
  3
"AcmSymBB|Product Description: AutoCAD Mechanical 2000|Company: Autodesk"
 90
        0
280
     0
281
     0
  0
CLASS
  1
ACMDATUMSTANDARDBSI
  2
AcmDatumStdBSI
  3
"AcmSymBB|Product Description: AutoCAD Mechanical 2000|Company: Autodesk"
 90
        0
280
     0
281
     0
  0
CLASS
  1
ACMBOMSTANDARDBSI
  2
AcmBOMStdBSI
  3
"AcmSymBB|Product Description: AutoCAD Mechanical 2000|Company: Autodesk"
 90
        0
280
     0
281
     0
  0
CLASS
  1
LONG_TRANSACTION
  2
AcDbLongTransaction
  3
AutoCAD 2000
 90
        0
280
     0
281
     0
  0
CLASS
  1
LWPOLYLINE
  2
AcDbPolyline
  3
AutoCAD 2000
 90
        0
280
     0
281
     1
  0
CLASS
  1
HATCH
  2
AcDbHatch
  3
AutoCAD 2000
 90
        0
280
     0
281
     1
  0
CLASS
  1
XRECORD
  2
AcDbXrecord
  3
AutoCAD 2000
 90
        0
280
     0
281
     0
  0
ENDSEC
  0
SECTION
  2
TABLES
  0
TABLE
  2
VPORT
  5
8
330
0
100
AcDbSymbolTable
 70
     3
  0
VPORT
  5
18207
330
8
100
AcDbSymbolTableRecord
100
AcDbViewportTableRecord
  2
*ACTIVE
 70
     0
 10
0.0
 20
0.0
 11
1.0
 21
1.0
 12
33.00857987101915
 22
-38.0246351430612
 13
0.0
 23
0.0
 14
2.5
 24
2.5
 15
10.0
 25
10.0
 16
0.0
 26
0.0
 36
1.0
 17
0.0
 27
0.0
 37
0.0
 40
438.5610516834911
 41
1.56570841889117
 42
50.0
 43
0.0
 44
0.0
 50
0.0
 51
0.0
 71
     0
 72
   100
 73
     1
 74
     3
 75
     0
 76
     0
 77
     0
 78
     0
  0
ENDTAB
  0
TABLE
  2
LTYPE
  5
5
330
0
100
AcDbSymbolTable
 70
    10
  0
LTYPE
  5
14
330
5
100
AcDbSymbolTableRecord
100
AcDbLinetypeTableRecord
  2
BYBLOCK
 70
     0
  3

 72
    65
 73
     0
 40
0.0
  0
LTYPE
  5
15
330
5
100
AcDbSymbolTableRecord
100
AcDbLinetypeTableRecord
  2
BYLAYER
 70
     0
  3

 72
    65
 73
     0
 40
0.0
  0
LTYPE
  5
16
330
5
100
AcDbSymbolTableRecord
100
AcDbLinetypeTableRecord
  2
CONTINUOUS
 70
     0
  3
Solid line
 72
    65
 73
     0
 40
0.0
  0
LTYPE
  5
4B
330
5
100
AcDbSymbolTableRecord
100
AcDbLinetypeTableRecord
  2
AM_ISO02W050
 70
     0
  3
__ __ __ __ __ __ __ __ __ __ __ __ __ __ __
 72
    65
 73
     2
 40
7.5
 49
6.0
 74
     0
 49
-1.5
 74
     0
  0
LTYPE
  5
4C
330
5
100
AcDbSymbolTableRecord
100
AcDbLinetypeTableRecord
  2
AM_ISO08W050
 70
     0
  3
____ . ____ . ____ . ____ . ____ . ____ . ____
 72
    65
 73
     4
 40
18.0
 49
12.0
 74
     0
 49
-1.5
 74
     0
 49
3.0
 74
     0
 49
-1.5
 74
     0
  0
LTYPE
  5
4D
330
5
100
AcDbSymbolTableRecord
100
AcDbLinetypeTableRecord
  2
AM_ISO09W050
 70
     0
  3
_____ . . _____ . . _____ . . ____ .. ____
 72
    65
 73
     6
 40
22.5
 49
12.0
 74
     0
 49
-1.5
 74
     0
 49
3.0
 74
     0
 49
-1.5
 74
     0
 49
3.0
 74
     0
 49
-1.5
 74
     0
  0
LTYPE
  5
4E
330
5
100
AcDbSymbolTableRecord
100
AcDbLinetypeTableRecord
  2
AMCONSTR
 70
     0
  3
_______________________
 72
    65
 73
     2
 40
9999.0
 49
9999.0
 74
     0
 49
0.0
 74
     0
  0
LTYPE
  5
4F
330
5
100
AcDbSymbolTableRecord
100
AcDbLinetypeTableRecord
  2
AM_ISO02W050X2
 70
     0
  3
 _ _ _ _ _ _ _ _ _ _ _ _
 72
    65
 73
     2
 40
3.75
 49
3.0
 74
     0
 49
-0.75
 74
     0
  0
LTYPE
  5
50
330
5
100
AcDbSymbolTableRecord
100
AcDbLinetypeTableRecord
  2
AM_ISO08W050X2
 70
     0
  3
__ . __ . __ . __ . __ . __
 72
    65
 73
     4
 40
9.0
 49
6.0
 74
     0
 49
-0.75
 74
     0
 49
1.5
 74
     0
 49
-0.75
 74
     0
  0
LTYPE
  5
53
330
5
100
AcDbSymbolTableRecord
100
AcDbLinetypeTableRecord
  2
AMZIGZAG
 70
     0
  3
/\/-/\/-/\/-/\/-/\/-/\/
 72
    65
 73
     2
 40
11.00009999999999
 49
0.0001
 74
     4
 75
   135
340
52
 46
0.04
 50
0.0
 44
0.0
 45
0.0
 49
-11.0
 74
     0
  0
LTYPE
  5
166
330
5
100
AcDbSymbolTableRecord
100
AcDbLinetypeTableRecord
  2
ACJISTGL
 70
     0
  3
_ _ _ _ _
 72
    65
 73
     2
 40
3.0
 49
2.0
 74
     0
 49
-1.0
 74
     0
  0
LTYPE
  5
26A
330
5
100
AcDbSymbolTableRecord
100
AcDbLinetypeTableRecord
  2
ACJISTGB
 70
     0
  3
__ . . __ . .
 72
    65
 73
     6
 40
9.0
 49
4.0
 74
     0
 49
-1.0
 74
     0
 49
1.0
 74
     0
 49
-1.0
 74
     0
 49
1.0
 74
     0
 49
-1.0
 74
     0
  0
ENDTAB
  0
TABLE
  2
LAYER
  5
2
330
0
100
AcDbSymbolTable
 70
     8
  0
LAYER
  5
10
330
2
100
AcDbSymbolTableRecord
100
AcDbLayerTableRecord
  2
0
 70
     0
 62
     7
  6
CONTINUOUS
  0
LAYER
  5
3F9
330
2
100
AcDbSymbolTableRecord
100
AcDbLayerTableRecord
  2
AM_0
 70
     0
 62
     7
  6
CONTINUOUS
  0
LAYER
  5
BD5
330
2
100
AcDbSymbolTableRecord
100
AcDbLayerTableRecord
  2
AM_7
 70
     0
 62
     4
  6
AM_ISO08W050
  0
LAYER
  5
BD6
330
2
100
AcDbSymbolTableRecord
100
AcDbLayerTableRecord
  2
AM_5
 70
     0
 62
     3
  6
CONTINUOUS
  0
LAYER
  5
BD7
330
2
100
AcDbSymbolTableRecord
100
AcDbLayerTableRecord
  2
DEFPOINTS
 70
     0
 62
     7
  6
CONTINUOUS
  0
LAYER
  5
E59
330
2
100
AcDbSymbolTableRecord
100
AcDbLayerTableRecord
  2
AM_6
 70
     0
 62
     2
  6
CONTINUOUS
  0
LAYER
  5
1E31
330
2
100
AcDbSymbolTableRecord
100
AcDbLayerTableRecord
  2
AM_11
 70
     0
 62
     3
  6
AM_ISO09W050
  0
LAYER
  5
1E41
330
2
100
AcDbSymbolTableRecord
100
AcDbLayerTableRecord
  2
AM_3
 70
     0
 62
     6
  6
ACJISTGL
  0
ENDTAB
  0
TABLE
  2
STYLE
  5
3
330
0
100
AcDbSymbolTable
 70
     5
  0
STYLE
  5
11
330
3
100
AcDbSymbolTableRecord
100
AcDbTextStyleTableRecord
  2
STANDARD
 70
     0
 40
0.0
 41
1.0
 50
0.0
 71
     0
 42
2.5
  3
simplex.shx
  4
EXTFONT.SHX
  0
STYLE
  5
52
330
3
100
AcDbSymbolTableRecord
100
AcDbTextStyleTableRecord
  2

 70
     1
 40
0.0
 41
1.0
 50
0.0
 71
     0
 42
2.5
  3
ltypeshp.shx
  4

  0
STYLE
  5
6B
330
3
100
AcDbSymbolTableRecord
100
AcDbTextStyleTableRecord
  2
ASAMI
 70
     0
 40
0.0
 41
1.0
 50
0.0
 71
     0
 42
2.5
  3
simplex.shx
  4
EXTFONT.SHX
  0
STYLE
  5
262
330
3
100
AcDbSymbolTableRecord
100
AcDbTextStyleTableRecord
  2
ACJISTS
 70
     0
 40
1.0
 41
1.0
 50
0.0
 71
     0
 42
2.5
  3
simplex.shx
  4
bigfont.shx
  0
STYLE
  5
269
330
3
100
AcDbSymbolTableRecord
100
AcDbTextStyleTableRecord
  2
ACJISGDT
 70
     0
 40
0.0
 41
1.0
 50
0.0
 71
     0
 42
2.5
  3
amgdtans.shx
  4

  0
ENDTAB
  0
TABLE
  2
VIEW
  5
6
330
0
100
AcDbSymbolTable
 70
     0
  0
ENDTAB
  0
TABLE
  2
UCS
  5
7
330
0
100
AcDbSymbolTable
 70
     0
  0
ENDTAB
  0
TABLE
  2
APPID
  5
9
330
0
100
AcDbSymbolTable
 70
    13
  0
APPID
  5
12
330
9
100
AcDbSymbolTableRecord
100
AcDbRegAppTableRecord
  2
ACAD
 70
     0
  0
APPID
  5
30
330
9
100
AcDbSymbolTableRecord
100
AcDbRegAppTableRecord
  2
MCAD_NO_VIS
 70
     0
  0
APPID
  5
31
330
9
100
AcDbSymbolTableRecord
100
AcDbRegAppTableRecord
  2
ACAD_TEMP_GRAPHIC
 70
     0
  0
APPID
  5
2C2
330
9
100
AcDbSymbolTableRecord
100
AcDbRegAppTableRecord
  2
GENIUS_GENDTOL_13
 70
     0
  0
APPID
  5
339
330
9
100
AcDbSymbolTableRecord
100
AcDbRegAppTableRecord
  2
GENIUS_GENODEF_13
 70
     0
  0
APPID
  5
33A
330
9
100
AcDbSymbolTableRecord
100
AcDbRegAppTableRecord
  2
GENIUS_GENOBJ-N-RSBK_13
 70
     0
  0
APPID
  5
33B
330
9
100
AcDbSymbolTableRecord
100
AcDbRegAppTableRecord
  2
GENIUS_GENOBJ-N-LIB_13
 70
     0
  0
APPID
  5
33C
330
9
100
AcDbSymbolTableRecord
100
AcDbRegAppTableRecord
  2
GENIUS_GENSCALE_13
 70
     0
  0
APPID
  5
378
330
9
100
AcDbSymbolTableRecord
100
AcDbRegAppTableRecord
  2
GENIUS_GENDIMSH_14
 70
     0
  0
APPID
  5
BD8
330
9
100
AcDbSymbolTableRecord
100
AcDbRegAppTableRecord
  2
GENIUS_GENOBJ-N-CEN_13
 70
     0
  0
APPID
  5
BD9
330
9
100
AcDbSymbolTableRecord
100
AcDbRegAppTableRecord
  2
GENIUS_GENFIL_13
 70
     0
  0
APPID
  5
BDA
330
9
100
AcDbSymbolTableRecord
100
AcDbRegAppTableRecord
  2
GENIUS_GENOBJ-N-CHA_13
 70
     0
  0
APPID
  5
2BC1
330
9
100
AcDbSymbolTableRecord
100
AcDbRegAppTableRecord
  2
GENIUS_GENOBJ-N-FIL_13
 70
     0
  0
ENDTAB
  0
TABLE
  2
DIMSTYLE
  5
A
330
0
100
AcDbSymbolTable
 70
     9
  0
DIMSTYLE
105
58
102
{ACAD_REACTORS
330
17C79
330
17C7C
330
17C7B
330
17C7A
330
17D35
330
17D37
102
}
330
A
100
AcDbSymbolTableRecord
100
AcDbDimStyleTableRecord
  2
AM_JIS
 70
     0
  3

  4
"
  5
OPEN30
  6

  7

 40
1.0
 41
2.5
 42
1.0
 43
12.0
 44
1.0
 45
0.0
 46
0.0
 47
0.1
 48
0.1
140
3.2
141
0.0
142
0.0
143
0.0393701
144
1.0
145
0.0
146
0.71
147
1.5
 71
     0
 72
     0
 73
     0
 74
     0
 75
     0
 76
     0
 77
     3
 78
     8
170
     0
171
     2
172
     1
173
     0
174
     0
175
     0
176
   256
177
   256
178
     2
270
     2
271
     3
272
     3
273
     2
274
     2
340
6B
275
     0
280
     0
281
     0
282
     0
283
     0
284
     0
285
     0
286
     0
287
     3
288
     0
  0
DIMSTYLE
105
5F
330
A
100
AcDbSymbolTableRecord
100
AcDbDimStyleTableRecord
  2
AM_JIS$3
 70
     0
  3

  4
"
  5
OPEN30
  6

  7

 40
1.0
 41
2.5
 42
1.0
 43
10.0
 44
1.0
 45
0.0
 46
0.0
 47
0.1
 48
0.1
140
3.2
141
0.0
142
0.0
143
0.0393701
144
1.0
145
0.0
146
0.71
147
1.5
 71
     0
 72
     0
 73
     0
 74
     1
 75
     0
 76
     0
 77
     3
 78
     8
170
     0
171
     2
172
     0
173
     0
174
     0
175
     0
176
   256
177
   256
178
     2
270
     2
271
     2
272
     3
273
     2
274
     2
340
6B
275
     0
280
     0
281
     0
282
     0
283
     0
284
     0
285
     0
286
     0
287
     0
288
     1
  0
DIMSTYLE
105
60
330
A
100
AcDbSymbolTableRecord
100
AcDbDimStyleTableRecord
  2
AM_JIS$4
 70
     0
  3

  4
"
  5
OPEN30
  6

  7

 40
1.0
 41
2.5
 42
1.0
 43
10.0
 44
1.0
 45
0.0
 46
0.0
 47
0.1
 48
0.1
140
3.2
141
0.0
142
0.0
143
0.0393701
144
1.0
145
0.0
146
0.71
147
1.5
 71
     0
 72
     0
 73
     0
 74
     1
 75
     0
 76
     0
 77
     3
 78
     8
170
     0
171
     2
172
     0
173
     0
174
     0
175
     0
176
   256
177
   256
178
     2
270
     2
271
     2
272
     3
273
     2
274
     2
340
6B
275
     0
280
     0
281
     0
282
     0
283
     0
284
     0
285
     0
286
     0
287
     0
288
     1
  0
DIMSTYLE
105
61
330
A
100
AcDbSymbolTableRecord
100
AcDbDimStyleTableRecord
  2
AM_JIS$6
 70
     0
  3

  4
"
  5
OPEN30
  6

  7

 40
1.0
 41
2.5
 42
1.0
 43
10.0
 44
1.0
 45
0.0
 46
0.0
 47
0.1
 48
0.1
140
3.2
141
0.0
142
0.0
143
0.0393701
144
1.0
145
0.0
146
0.71
147
1.5
 71
     0
 72
     0
 73
     0
 74
     0
 75
     0
 76
     0
 77
     0
 78
     8
170
     0
171
     2
172
     1
173
     0
174
     0
175
     0
176
   256
177
   256
178
     2
270
     2
271
     2
272
     2
273
     2
274
     2
340
6B
275
     0
280
     0
281
     0
282
     0
283
     0
284
     0
285
     0
286
     0
287
     3
288
     0
  0
DIMSTYLE
105
62
330
A
100
AcDbSymbolTableRecord
100
AcDbDimStyleTableRecord
  2
AM_JIS$7
 70
     0
  3

  4
"
  5
OPEN30
  6

  7

 40
1.0
 41
2.5
 42
1.0
 43
10.0
 44
1.0
 45
0.0
 46
0.0
 47
0.1
 48
0.1
140
3.2
141
0.0
142
0.0
143
0.0393701
144
1.0
145
0.0
146
0.71
147
1.5
 71
     0
 72
     0
 73
     0
 74
     0
 75
     0
 76
     0
 77
     3
 78
     8
170
     0
171
     2
172
     1
173
     0
174
     0
175
     0
176
   256
177
   256
178
     2
270
     2
271
     2
272
     3
273
     2
274
     2
340
6B
275
     0
280
     0
281
     0
282
     0
283
     0
284
     0
285
     0
286
     0
287
     3
288
     0
  0
DIMSTYLE
105
63
330
A
100
AcDbSymbolTableRecord
100
AcDbDimStyleTableRecord
  2
AM_JIS$SF
 70
     0
  3

  4
"
  5
OPEN30
  6

  7

 40
1.0
 41
2.5
 42
1.0
 43
10.0
 44
1.0
 45
0.0
 46
0.0
 47
0.1
 48
0.1
140
3.2
141
0.0
142
0.0
143
0.0393701
144
1.0
145
0.0
146
0.71
147
1.5
 71
     0
 72
     0
 73
     0
 74
     0
 75
     1
 76
     1
 77
     3
 78
     8
170
     0
171
     2
172
     1
173
     0
174
     0
175
     0
176
   256
177
   256
178
     2
270
     2
271
     2
272
     2
273
     2
274
     2
340
6B
275
     0
280
     0
281
     0
282
     0
283
     0
284
     0
285
     0
286
     0
287
     3
288
     0
  0
DIMSTYLE
105
68
330
A
100
AcDbSymbolTableRecord
100
AcDbDimStyleTableRecord
  2
AM_JIS$SH
 70
     0
  3

  4
"
  5

  6
GENAXEH
  7
OPEN30
 40
1.0
 41
2.5
 42
1.0
 43
10.0
 44
1.0
 45
0.0
 46
0.0
 47
0.1
 48
0.1
140
3.2
141
0.0
142
0.0
143
0.0393701
144
2.0
145
0.0
146
0.71
147
1.5
 71
     0
 72
     0
 73
     0
 74
     0
 75
     1
 76
     1
 77
     3
 78
     8
170
     0
171
     2
172
     1
173
     1
174
     0
175
     0
176
   256
177
   256
178
     2
270
     2
271
     2
272
     2
273
     2
274
     2
340
6B
275
     0
280
     0
281
     0
282
     0
283
     0
284
     0
285
     0
286
     0
287
     3
288
     0
  0
DIMSTYLE
105
B34
102
{ACAD_REACTORS
330
17FF5
102
}
330
A
100
AcDbSymbolTableRecord
100
AcDbDimStyleTableRecord
  2
AM_JIS$2
 70
     0
  3

  4
"
  5
OPEN30
  6

  7

 40
1.0
 41
2.5
 42
1.0
 43
12.0
 44
1.0
 45
0.0
 46
0.0
 47
0.1
 48
0.1
140
3.2
141
0.0
142
0.0
143
0.0393701
144
1.0
145
0.0
146
0.71
147
1.5
 71
     0
 72
     0
 73
     0
 74
     0
 75
     0
 76
     0
 77
     3
 78
     8
170
     0
171
     2
172
     1
173
     0
174
     0
175
     0
176
   256
177
   256
178
     2
270
     2
271
     3
272
     3
273
     2
274
     2
340
6B
275
     0
280
     0
281
     0
282
     0
283
     0
284
     0
285
     0
286
     0
287
     3
288
     0
  0
DIMSTYLE
105
1E42
102
{ACAD_REACTORS
330
17D36
330
17D34
330
17DC2
102
}
330
A
100
AcDbSymbolTableRecord
100
AcDbDimStyleTableRecord
  2
AM_JIS$0
 70
     0
  3

  4
"
  5
OPEN30
  6

  7

 40
2.0
 41
2.5
 42
1.0
 43
10.0
 44
1.0
 45
0.0
 46
0.0
 47
0.1
 48
0.1
140
2.5
141
0.0
142
0.0
143
0.0393701
144
1.0
145
0.0
146
0.71
147
1.0
 71
     0
 72
     0
 73
     0
 74
     0
 75
     0
 76
     0
 77
     3
 78
     8
170
     0
171
     2
172
     1
173
     0
174
     0
175
     0
176
   256
177
   256
178
     4
270
     2
271
     3
272
     3
273
     2
274
     2
340
6B
275
     0
280
     0
281
     0
282
     0
283
     0
284
     0
285
     0
286
     0
287
     3
288
     0
  0
ENDTAB
  0
TABLE
  2
BLOCK_RECORD
  5
1
330
0
100
AcDbSymbolTable
 70
    15
  0
BLOCK_RECORD
  5
1F
102
{ACAD_XDICTIONARY
360
74
102
}
330
1
100
AcDbSymbolTableRecord
100
AcDbBlockTableRecord
  2
*MODEL_SPACE
  0
BLOCK_RECORD
  5
101
102
{ACAD_XDICTIONARY
360
18230
102
}
330
1
100
AcDbSymbolTableRecord
100
AcDbBlockTableRecord
  2
*PAPER_SPACE
  0
BLOCK_RECORD
  5
59
330
1
100
AcDbSymbolTableRecord
100
AcDbBlockTableRecord
  2
_OPEN30
  0
BLOCK_RECORD
  5
64
330
1
100
AcDbSymbolTableRecord
100
AcDbBlockTableRecord
  2
GENAXEH
  0
BLOCK_RECORD
  5
17C7D
330
1
100
AcDbSymbolTableRecord
100
AcDbBlockTableRecord
  2
*D5
  0
BLOCK_RECORD
  5
17C89
330
1
100
AcDbSymbolTableRecord
100
AcDbBlockTableRecord
  2
*D6
  0
BLOCK_RECORD
  5
17C95
330
1
100
AcDbSymbolTableRecord
100
AcDbBlockTableRecord
  2
*D7
  0
BLOCK_RECORD
  5
17CA1
330
1
100
AcDbSymbolTableRecord
100
AcDbBlockTableRecord
  2
*D8
  0
BLOCK_RECORD
  5
17D38
330
1
100
AcDbSymbolTableRecord
100
AcDbBlockTableRecord
  2
*D9
  0
BLOCK_RECORD
  5
17D44
330
1
100
AcDbSymbolTableRecord
100
AcDbBlockTableRecord
  2
*D10
  0
BLOCK_RECORD
  5
17D50
330
1
100
AcDbSymbolTableRecord
100
AcDbBlockTableRecord
  2
*D11
  0
BLOCK_RECORD
  5
17D5C
330
1
100
AcDbSymbolTableRecord
100
AcDbBlockTableRecord
  2
*D12
  0
BLOCK_RECORD
  5
17DC3
330
1
100
AcDbSymbolTableRecord
100
AcDbBlockTableRecord
  2
*D13
  0
BLOCK_RECORD
  5
17FF6
330
1
100
AcDbSymbolTableRecord
100
AcDbBlockTableRecord
  2
*D14
  0
ENDTAB
  0
ENDSEC
  0
SECTION
  2
BLOCKS
  0
BLOCK
  5
20
330
1F
100
AcDbEntity
  8
0
100
AcDbBlockBegin
  2
*MODEL_SPACE
 70
     0
 10
0.0
 20
0.0
 30
0.0
  3
*MODEL_SPACE
  1

  0
ENDBLK
  5
21
330
1F
100
AcDbEntity
  8
0
100
AcDbBlockEnd
  0
BLOCK
  5
103
330
101
100
AcDbEntity
 67
     1
  8
0
100
AcDbBlockBegin
  2
*PAPER_SPACE
 70
     0
 10
0.0
 20
0.0
 30
0.0
  3
*PAPER_SPACE
  1

  0
ENDBLK
  5
104
330
101
100
AcDbEntity
 67
     1
  8
0
100
AcDbBlockEnd
  0
BLOCK
  5
5D
330
59
100
AcDbEntity
  8
0
100
AcDbBlockBegin
  2
_OPEN30
 70
     0
 10
0.0
 20
0.0
 30
0.0
  3
_OPEN30
  1

  0
LINE
  5
5A
330
59
100
AcDbEntity
  8
0
 62
     0
100
AcDbLine
 10
-1.0
 20
0.26794919
 30
0.0
 11
0.0
 21
0.0
 31
0.0
  0
LINE
  5
5B
330
59
100
AcDbEntity
  8
0
 62
     0
100
AcDbLine
 10
0.0
 20
0.0
 30
0.0
 11
-1.0
 21
-0.26794919
 31
0.0
  0
LINE
  5
5C
330
59
100
AcDbEntity
  8
0
 62
     0
100
AcDbLine
 10
0.0
 20
0.0
 30
0.0
 11
-1.0
 21
0.0
 31
0.0
  0
ENDBLK
  5
5E
330
59
100
AcDbEntity
  8
0
100
AcDbBlockEnd
  0
BLOCK
  5
66
330
64
100
AcDbEntity
  8
0
100
AcDbBlockBegin
  2
GENAXEH
 70
     0
 10
0.0
 20
0.0
 30
0.0
  3
GENAXEH
  1

  0
LINE
  5
65
330
64
100
AcDbEntity
  8
0
100
AcDbLine
 10
-1.0
 20
0.0
 30
0.0
 11
1.0
 21
0.0
 31
0.0
  0
ENDBLK
  5
67
330
64
100
AcDbEntity
  8
0
100
AcDbBlockEnd
  0
BLOCK
  5
17C87
330
17C7D
100
AcDbEntity
  8
0
100
AcDbBlockBegin
  2
*D5
 70
     1
 10
0.0
 20
0.0
 30
0.0
  3
*D5
  1

  0
LINE
  5
17F9E
330
17C7D
100
AcDbEntity
  8
AM_5
100
AcDbLine
 10
-36.17157287525373
 20
167.5999999999999
 30
0.0
 11
-120.8528388796998
 21
167.5999999999999
 31
0.0
  0
LINE
  5
17F9F
330
17C7D
100
AcDbEntity
  8
AM_5
100
AcDbLine
 10
-36.17157287525373
 20
-167.5999999999999
 30
0.0
 11
-120.8528388796999
 21
-167.5999999999999
 31
0.0
  0
LINE
  5
17FA0
330
17C7D
100
AcDbEntity
  8
AM_5
100
AcDbLine
 10
-119.8528388796998
 20
165.0999999999999
 30
0.0
 11
-119.8528388796999
 21
-165.0999999999999
 31
0.0
  0
INSERT
  5
17FA1
330
17C7D
100
AcDbEntity
  8
AM_5
100
AcDbBlockReference
  2
_OPEN30
 10
-119.8528388796998
 20
167.5999999999999
 30
0.0
 41
2.5
 42
2.5
 43
2.5
 50
90.0
  0
INSERT
  5
17FA2
330
17C7D
100
AcDbEntity
  8
AM_5
100
AcDbBlockReference
  2
_OPEN30
 10
-119.8528388796999
 20
-167.5999999999999
 30
0.0
 41
2.5
 42
2.5
 43
2.5
 50
270.0
  0
MTEXT
  5
17FA3
330
17C7D
100
AcDbEntity
  8
AM_5
 62
     2
100
AcDbMText
 10
-122.9528388796999
 20
0.0000000000000077
 30
0.0
 40
3.2
 41
0.0
 71
     5
 72
     1
  1
%%c335.2
  7
ASAMI
 11
0.0000000000000001
 21
1.0
 31
0.0
1001
ACAD
1000
MTEXTBEGIN
1070
    73
1070
     1
1070
    44
1040
1.0
1070
    74
1070
     0
1000
MTEXTEND
  0
POINT
  5
17FA4
330
17C7D
100
AcDbEntity
  8
DEFPOINTS
 62
     0
100
AcDbPoint
 10
-35.17157287525373
 20
167.5999999999999
 30
0.0
  0
POINT
  5
17FA5
330
17C7D
100
AcDbEntity
  8
DEFPOINTS
 62
     0
100
AcDbPoint
 10
-35.17157287525373
 20
-167.5999999999999
 30
0.0
  0
POINT
  5
17FA6
330
17C7D
100
AcDbEntity
  8
DEFPOINTS
 62
     0
100
AcDbPoint
 10
-119.8528388796999
 20
-167.5999999999999
 30
0.0
  0
ENDBLK
  5
17C88
330
17C7D
100
AcDbEntity
  8
0
100
AcDbBlockEnd
  0
BLOCK
  5
17C93
330
17C89
100
AcDbEntity
  8
0
100
AcDbBlockBegin
  2
*D6
 70
     1
 10
0.0
 20
0.0
 30
0.0
  3
*D6
  1

  0
LINE
  5
17FB0
330
17C89
100
AcDbEntity
  8
AM_5
100
AcDbLine
 10
-68.60000000000008
 20
120.0
 30
0.0
 11
-110.8528388796998
 21
120.0
 31
0.0
  0
LINE
  5
17FB1
330
17C89
100
AcDbEntity
  8
AM_5
100
AcDbLine
 10
-68.60000000000008
 20
-120.0
 30
0.0
 11
-110.8528388796999
 21
-119.9999999999999
 31
0.0
  0
LINE
  5
17FB2
330
17C89
100
AcDbEntity
  8
AM_5
100
AcDbLine
 10
-109.8528388796998
 20
117.5
 30
0.0
 11
-109.8528388796999
 21
-117.4999999999999
 31
0.0
  0
INSERT
  5
17FB3
330
17C89
100
AcDbEntity
  8
AM_5
100
AcDbBlockReference
  2
_OPEN30
 10
-109.8528388796998
 20
120.0
 30
0.0
 41
2.5
 42
2.5
 43
2.5
 50
90.0
  0
INSERT
  5
17FB4
330
17C89
100
AcDbEntity
  8
AM_5
100
AcDbBlockReference
  2
_OPEN30
 10
-109.8528388796999
 20
-119.9999999999999
 30
0.0
 41
2.5
 42
2.5
 43
2.5
 50
270.0
  0
MTEXT
  5
17FB5
330
17C89
100
AcDbEntity
  8
AM_5
 62
     2
100
AcDbMText
 10
-112.9528388796999
 20
-0.0000000000000071
 30
0.0
 40
3.2
 41
0.0
 71
     5
 72
     1
  1
%%c240
  7
ASAMI
 11
0.0000000000000001
 21
1.0
 31
0.0
1001
ACAD
1000
MTEXTBEGIN
1070
    73
1070
     1
1070
    44
1040
1.0
1070
    74
1070
     0
1000
MTEXTEND
  0
POINT
  5
17FB6
330
17C89
100
AcDbEntity
  8
DEFPOINTS
 62
     0
100
AcDbPoint
 10
-67.60000000000008
 20
120.0
 30
0.0
  0
POINT
  5
17FB7
330
17C89
100
AcDbEntity
  8
DEFPOINTS
 62
     0
100
AcDbPoint
 10
-67.60000000000008
 20
-120.0
 30
0.0
  0
POINT
  5
17FB8
330
17C89
100
AcDbEntity
  8
DEFPOINTS
 62
     0
100
AcDbPoint
 10
-109.8528388796999
 20
-119.9999999999999
 30
0.0
  0
ENDBLK
  5
17C94
330
17C89
100
AcDbEntity
  8
0
100
AcDbBlockEnd
  0
BLOCK
  5
17C9F
330
17C95
100
AcDbEntity
  8
0
100
AcDbBlockBegin
  2
*D7
 70
     1
 10
0.0
 20
0.0
 30
0.0
  3
*D7
  1

  0
LINE
  5
17FD4
330
17C95
100
AcDbEntity
  8
AM_5
100
AcDbLine
 10
-68.09999999999985
 20
23.81250000000021
 30
0.0
 11
-100.8528388796999
 21
23.81250000000022
 31
0.0
  0
LINE
  5
17FD5
330
17C95
100
AcDbEntity
  8
AM_5
100
AcDbLine
 10
-68.09999999999985
 20
-23.81250000000021
 30
0.0
 11
-100.8528388796999
 21
-23.8125000000002
 31
0.0
  0
LINE
  5
17FD6
330
17C95
100
AcDbEntity
  8
AM_5
100
AcDbLine
 10
-99.85283887969996
 20
21.31250000000022
 30
0.0
 11
-99.85283887969996
 21
-21.3125000000002
 31
0.0
  0
INSERT
  5
17FD7
330
17C95
100
AcDbEntity
  8
AM_5
100
AcDbBlockReference
  2
_OPEN30
 10
-99.85283887969996
 20
23.81250000000022
 30
0.0
 41
2.5
 42
2.5
 43
2.5
 50
90.0
  0
INSERT
  5
17FD8
330
17C95
100
AcDbEntity
  8
AM_5
100
AcDbBlockReference
  2
_OPEN30
 10
-99.85283887969996
 20
-23.8125000000002
 30
0.0
 41
2.5
 42
2.5
 43
2.5
 50
270.0
  0
MTEXT
  5
17FD9
330
17C95
100
AcDbEntity
  8
AM_5
 62
     2
100
AcDbMText
 10
-102.9528388796999
 20
-0.0000000000000042
 30
0.0
 40
3.2
 41
0.0
 71
     5
 72
     1
  1
%%c47.625
  7
ASAMI
 11
0.0000000000000001
 21
1.0
 31
0.0
1001
ACAD
1000
MTEXTBEGIN
1070
    73
1070
     1
1070
    44
1040
1.0
1070
    74
1070
     0
1000
MTEXTEND
  0
POINT
  5
17FDA
330
17C95
100
AcDbEntity
  8
DEFPOINTS
 62
     0
100
AcDbPoint
 10
-67.09999999999985
 20
23.81250000000021
 30
0.0
  0
POINT
  5
17FDB
330
17C95
100
AcDbEntity
  8
DEFPOINTS
 62
     0
100
AcDbPoint
 10
-67.09999999999985
 20
-23.81250000000021
 30
0.0
  0
POINT
  5
17FDC
330
17C95
100
AcDbEntity
  8
DEFPOINTS
 62
     0
100
AcDbPoint
 10
-99.85283887969996
 20
-23.8125000000002
 30
0.0
  0
ENDBLK
  5
17CA0
330
17C95
100
AcDbEntity
  8
0
100
AcDbBlockEnd
  0
BLOCK
  5
17CAB
330
17CA1
100
AcDbEntity
  8
0
100
AcDbBlockBegin
  2
*D8
 70
     1
 10
0.0
 20
0.0
 30
0.0
  3
*D8
  1

  0
LINE
  5
17FDD
330
17CA1
100
AcDbEntity
  8
AM_5
100
AcDbLine
 10
-69.09999999999962
 20
12.69999999999998
 30
0.0
 11
-90.85283887969996
 21
12.69999999999999
 31
0.0
  0
LINE
  5
17FDE
330
17CA1
100
AcDbEntity
  8
AM_5
100
AcDbLine
 10
-69.09999999999962
 20
-12.69999999999998
 30
0.0
 11
-90.85283887969996
 21
-12.69999999999998
 31
0.0
  0
LINE
  5
17FDF
330
17CA1
100
AcDbEntity
  8
AM_5
100
AcDbLine
 10
-89.85283887969996
 20
10.19999999999999
 30
0.0
 11
-89.85283887969996
 21
-10.19999999999998
 31
0.0
  0
INSERT
  5
17FE0
330
17CA1
100
AcDbEntity
  8
AM_5
100
AcDbBlockReference
  2
_OPEN30
 10
-89.85283887969996
 20
12.69999999999999
 30
0.0
 41
2.5
 42
2.5
 43
2.5
 50
90.0
  0
INSERT
  5
17FE1
330
17CA1
100
AcDbEntity
  8
AM_5
100
AcDbBlockReference
  2
_OPEN30
 10
-89.85283887969996
 20
-12.69999999999998
 30
0.0
 41
2.5
 42
2.5
 43
2.5
 50
270.0
  0
MTEXT
  5
17FE2
330
17CA1
100
AcDbEntity
  8
AM_5
 62
     2
100
AcDbMText
 10
-92.95283887969995
 20
-0.0000000000000423
 30
0.0
 40
3.2
 41
0.0
 71
     5
 72
     1
  1
25.4
  7
ASAMI
 11
0.0000000000000001
 21
1.0
 31
0.0
1001
ACAD
1000
MTEXTBEGIN
1070
    73
1070
     1
1070
    44
1040
1.0
1070
    74
1070
     0
1000
MTEXTEND
  0
POINT
  5
17FE3
330
17CA1
100
AcDbEntity
  8
DEFPOINTS
 62
     0
100
AcDbPoint
 10
-68.09999999999963
 20
12.69999999999998
 30
0.0
  0
POINT
  5
17FE4
330
17CA1
100
AcDbEntity
  8
DEFPOINTS
 62
     0
100
AcDbPoint
 10
-68.09999999999963
 20
-12.69999999999998
 30
0.0
  0
POINT
  5
17FE5
330
17CA1
100
AcDbEntity
  8
DEFPOINTS
 62
     0
100
AcDbPoint
 10
-89.85283887969996
 20
-12.69999999999998
 30
0.0
  0
ENDBLK
  5
17CAC
330
17CA1
100
AcDbEntity
  8
0
100
AcDbBlockEnd
  0
BLOCK
  5
17D42
330
17D38
100
AcDbEntity
  8
0
100
AcDbBlockBegin
  2
*D9
 70
     1
 10
0.0
 20
0.0
 30
0.0
  3
*D9
  1

  0
LINE
  5
17FB9
330
17D38
100
AcDbEntity
  8
AM_5
100
AcDbLine
 10
-70.00000000000006
 20
-118.5999999999999
 30
0.0
 11
-70.00000000000006
 21
-193.580085
 31
0.0
  0
LINE
  5
17FBA
330
17D38
100
AcDbEntity
  8
AM_5
100
AcDbLine
 10
-37.99999999999971
 20
-105.9
 30
0.0
 11
-37.99999999999972
 21
-193.580085
 31
0.0
  0
LINE
  5
17FBB
330
17D38
100
AcDbEntity
  8
AM_5
100
AcDbLine
 10
-67.50000000000006
 20
-192.580085
 30
0.0
 11
-40.49999999999972
 21
-192.580085
 31
0.0
  0
INSERT
  5
17FBC
330
17D38
100
AcDbEntity
  8
AM_5
100
AcDbBlockReference
  2
_OPEN30
 10
-70.00000000000006
 20
-192.580085
 30
0.0
 41
2.5
 42
2.5
 43
2.5
 50
180.0
  0
INSERT
  5
17FBD
330
17D38
100
AcDbEntity
  8
AM_5
100
AcDbBlockReference
  2
_OPEN30
 10
-37.99999999999972
 20
-192.580085
 30
0.0
 41
2.5
 42
2.5
 43
2.5
  0
MTEXT
  5
17FBE
330
17D38
100
AcDbEntity
  8
AM_5
 62
     2
100
AcDbMText
 10
-53.99999999999988
 20
-189.480085
 30
0.0
 40
3.2
 41
0.0
 71
     5
 72
     1
  1
32
  7
ASAMI
1001
ACAD
1000
MTEXTBEGIN
1070
    73
1070
     1
1070
    44
1040
1.0
1070
    74
1070
     0
1000
MTEXTEND
  0
POINT
  5
17FBF
330
17D38
100
AcDbEntity
  8
DEFPOINTS
 62
     0
100
AcDbPoint
 10
-70.00000000000006
 20
-117.5999999999999
 30
0.0
  0
POINT
  5
17FC0
330
17D38
100
AcDbEntity
  8
DEFPOINTS
 62
     0
100
AcDbPoint
 10
-37.99999999999971
 20
-104.9
 30
0.0
  0
POINT
  5
17FC1
330
17D38
100
AcDbEntity
  8
DEFPOINTS
 62
     0
100
AcDbPoint
 10
-37.99999999999972
 20
-192.580085
 30
0.0
  0
ENDBLK
  5
17D43
330
17D38
100
AcDbEntity
  8
0
100
AcDbBlockEnd
  0
BLOCK
  5
17D4E
330
17D44
100
AcDbEntity
  8
0
100
AcDbBlockBegin
  2
*D10
 70
     1
 10
0.0
 20
0.0
 30
0.0
  3
*D10
  1

  0
LINE
  5
17FC2
330
17D44
100
AcDbEntity
  8
AM_5
100
AcDbLine
 10
-70.00000000000006
 20
-118.5999999999999
 30
0.0
 11
-70.00000000000006
 21
-213.580085
 31
0.0
  0
LINE
  5
17FC3
330
17D44
100
AcDbEntity
  8
AM_5
100
AcDbLine
 10
-0.0000000000000001
 20
-158.4999999999999
 30
0.0
 11
-0.0000000000000034
 21
-213.580085
 31
0.0
  0
LINE
  5
17FC4
330
17D44
100
AcDbEntity
  8
AM_5
100
AcDbLine
 10
-67.50000000000006
 20
-212.580085
 30
0.0
 11
-2.500000000000003
 21
-212.580085
 31
0.0
  0
INSERT
  5
17FC5
330
17D44
100
AcDbEntity
  8
AM_5
100
AcDbBlockReference
  2
_OPEN30
 10
-70.00000000000006
 20
-212.580085
 30
0.0
 41
2.5
 42
2.5
 43
2.5
 50
180.0
  0
INSERT
  5
17FC6
330
17D44
100
AcDbEntity
  8
AM_5
100
AcDbBlockReference
  2
_OPEN30
 10
-0.0000000000000034
 20
-212.580085
 30
0.0
 41
2.5
 42
2.5
 43
2.5
  0
MTEXT
  5
17FC7
330
17D44
100
AcDbEntity
  8
AM_5
 62
     2
100
AcDbMText
 10
-35.00000000000003
 20
-209.480085
 30
0.0
 40
3.2
 41
0.0
 71
     5
 72
     1
  1
70
  7
ASAMI
1001
ACAD
1000
MTEXTBEGIN
1070
    73
1070
     1
1070
    44
1040
1.0
1070
    74
1070
     0
1000
MTEXTEND
  0
POINT
  5
17FC8
330
17D44
100
AcDbEntity
  8
DEFPOINTS
 62
     0
100
AcDbPoint
 10
-70.00000000000006
 20
-117.5999999999999
 30
0.0
  0
POINT
  5
17FC9
330
17D44
100
AcDbEntity
  8
DEFPOINTS
 62
     0
100
AcDbPoint
 10
0.0
 20
-157.5
 30
0.0
  0
POINT
  5
17FCA
330
17D44
100
AcDbEntity
  8
DEFPOINTS
 62
     0
100
AcDbPoint
 10
-0.0000000000000034
 20
-212.580085
 30
0.0
  0
ENDBLK
  5
17D4F
330
17D44
100
AcDbEntity
  8
0
100
AcDbBlockEnd
  0
BLOCK
  5
17D5A
330
17D50
100
AcDbEntity
  8
0
100
AcDbBlockBegin
  2
*D11
 70
     1
 10
0.0
 20
0.0
 30
0.0
  3
*D11
  1

  0
LINE
  5
17FCB
330
17D50
100
AcDbEntity
  8
AM_5
100
AcDbLine
 10
-70.00000000000006
 20
-118.5999999999999
 30
0.0
 11
-70.00000000000006
 21
-203.580085
 31
0.0
  0
LINE
  5
17FCC
330
17D50
100
AcDbEntity
  8
AM_5
100
AcDbLine
 10
-30.00000000000034
 20
-107.1435935394482
 30
0.0
 11
-30.00000000000035
 21
-203.580085
 31
0.0
  0
LINE
  5
17FCD
330
17D50
100
AcDbEntity
  8
AM_5
100
AcDbLine
 10
-67.50000000000006
 20
-202.580085
 30
0.0
 11
-32.50000000000035
 21
-202.580085
 31
0.0
  0
INSERT
  5
17FCE
330
17D50
100
AcDbEntity
  8
AM_5
100
AcDbBlockReference
  2
_OPEN30
 10
-70.00000000000006
 20
-202.580085
 30
0.0
 41
2.5
 42
2.5
 43
2.5
 50
180.0
  0
INSERT
  5
17FCF
330
17D50
100
AcDbEntity
  8
AM_5
100
AcDbBlockReference
  2
_OPEN30
 10
-30.00000000000035
 20
-202.580085
 30
0.0
 41
2.5
 42
2.5
 43
2.5
  0
MTEXT
  5
17FD0
330
17D50
100
AcDbEntity
  8
AM_5
 62
     2
100
AcDbMText
 10
-50.0000000000002
 20
-199.480085
 30
0.0
 40
3.2
 41
0.0
 71
     5
 72
     1
  1
40
  7
ASAMI
1001
ACAD
1000
MTEXTBEGIN
1070
    73
1070
     1
1070
    44
1040
1.0
1070
    74
1070
     0
1000
MTEXTEND
  0
POINT
  5
17FD1
330
17D50
100
AcDbEntity
  8
DEFPOINTS
 62
     0
100
AcDbPoint
 10
-70.00000000000006
 20
-117.5999999999999
 30
0.0
  0
POINT
  5
17FD2
330
17D50
100
AcDbEntity
  8
DEFPOINTS
 62
     0
100
AcDbPoint
 10
-30.00000000000034
 20
-106.1435935394482
 30
0.0
  0
POINT
  5
17FD3
330
17D50
100
AcDbEntity
  8
DEFPOINTS
 62
     0
100
AcDbPoint
 10
-30.00000000000035
 20
-202.580085
 30
0.0
  0
ENDBLK
  5
17D5B
330
17D50
100
AcDbEntity
  8
0
100
AcDbBlockEnd
  0
BLOCK
  5
17D66
330
17D5C
100
AcDbEntity
  8
0
100
AcDbBlockBegin
  2
*D12
 70
     1
 10
0.0
 20
0.0
 30
0.0
  3
*D12
  1

  0
LINE
  5
17F95
330
17D5C
100
AcDbEntity
  8
AM_5
100
AcDbLine
 10
-70.00000000000006
 20
-118.5999999999999
 30
0.0
 11
-70.00000000000006
 21
-183.580085
 31
0.0
  0
LINE
  5
17F96
330
17D5C
100
AcDbEntity
  8
AM_5
100
AcDbLine
 10
-56.49999999999971
 20
-12.7
 30
0.0
 11
-56.49999999999972
 21
-183.580085
 31
0.0
  0
LINE
  5
17F97
330
17D5C
100
AcDbEntity
  8
AM_5
100
AcDbLine
 10
-67.50000000000006
 20
-182.580085
 30
0.0
 11
-58.99999999999972
 21
-182.580085
 31
0.0
  0
INSERT
  5
17F98
330
17D5C
100
AcDbEntity
  8
AM_5
100
AcDbBlockReference
  2
_OPEN30
 10
-70.00000000000006
 20
-182.580085
 30
0.0
 41
2.5
 42
2.5
 43
2.5
 50
180.0
  0
INSERT
  5
17F99
330
17D5C
100
AcDbEntity
  8
AM_5
100
AcDbBlockReference
  2
_OPEN30
 10
-56.49999999999972
 20
-182.580085
 30
0.0
 41
2.5
 42
2.5
 43
2.5
  0
MTEXT
  5
17F9A
330
17D5C
100
AcDbEntity
  8
AM_5
 62
     2
100
AcDbMText
 10
-63.24999999999988
 20
-179.480085
 30
0.0
 40
3.2
 41
0.0
 71
     5
 72
     1
  1
13.5
  7
ASAMI
1001
ACAD
1000
MTEXTBEGIN
1070
    73
1070
     1
1070
    44
1040
1.0
1070
    74
1070
     0
1000
MTEXTEND
  0
POINT
  5
17F9B
330
17D5C
100
AcDbEntity
  8
DEFPOINTS
 62
     0
100
AcDbPoint
 10
-70.00000000000006
 20
-117.5999999999999
 30
0.0
  0
POINT
  5
17F9C
330
17D5C
100
AcDbEntity
  8
DEFPOINTS
 62
     0
100
AcDbPoint
 10
-56.49999999999971
 20
-11.7
 30
0.0
  0
POINT
  5
17F9D
330
17D5C
100
AcDbEntity
  8
DEFPOINTS
 62
     0
100
AcDbPoint
 10
-56.49999999999972
 20
-182.580085
 30
0.0
  0
ENDBLK
  5
17D67
330
17D5C
100
AcDbEntity
  8
0
100
AcDbBlockEnd
  0
BLOCK
  5
17DCD
330
17DC3
100
AcDbEntity
  8
0
100
AcDbBlockBegin
  2
*D13
 70
     1
 10
0.0
 20
0.0
 30
0.0
  3
*D13
  1

  0
LINE
  5
17FA7
330
17DC3
100
AcDbEntity
  8
AM_5
100
AcDbLine
 10
1.0
 20
157.5
 30
0.0
 11
22.50012974726659
 21
157.5
 31
0.0
  0
LINE
  5
17FA8
330
17DC3
100
AcDbEntity
  8
AM_5
100
AcDbLine
 10
1.0
 20
-157.5
 30
0.0
 11
22.50012974726652
 21
-157.5
 31
0.0
  0
LINE
  5
17FA9
330
17DC3
100
AcDbEntity
  8
AM_5
100
AcDbLine
 10
21.5001297472666
 20
155.0
 30
0.0
 11
21.50012974726652
 21
-155.0
 31
0.0
  0
INSERT
  5
17FAA
330
17DC3
100
AcDbEntity
  8
AM_5
100
AcDbBlockReference
  2
_OPEN30
 10
21.5001297472666
 20
157.5
 30
0.0
 41
2.5
 42
2.5
 43
2.5
 50
90.0
  0
INSERT
  5
17FAB
330
17DC3
100
AcDbEntity
  8
AM_5
100
AcDbBlockReference
  2
_OPEN30
 10
21.50012974726652
 20
-157.5
 30
0.0
 41
2.5
 42
2.5
 43
2.5
 50
270.0
  0
MTEXT
  5
17FAC
330
17DC3
100
AcDbEntity
  8
AM_5
 62
     2
100
AcDbMText
 10
18.40012974726656
 20
-0.0000000000000009
 30
0.0
 40
3.2
 41
0.0
 71
     5
 72
     1
  1
%%c315
  7
ASAMI
 11
0.0000000000000001
 21
1.0
 31
0.0
1001
ACAD
1000
MTEXTBEGIN
1070
    73
1070
     1
1070
    44
1040
1.0
1070
    74
1070
     0
1000
MTEXTEND
  0
POINT
  5
17FAD
330
17DC3
100
AcDbEntity
  8
DEFPOINTS
 62
     0
100
AcDbPoint
 10
0.0
 20
157.5
 30
0.0
  0
POINT
  5
17FAE
330
17DC3
100
AcDbEntity
  8
DEFPOINTS
 62
     0
100
AcDbPoint
 10
0.0
 20
-157.5
 30
0.0
  0
POINT
  5
17FAF
330
17DC3
100
AcDbEntity
  8
DEFPOINTS
 62
     0
100
AcDbPoint
 10
21.50012974726652
 20
-157.5
 30
0.0
  0
ENDBLK
  5
17DCE
330
17DC3
100
AcDbEntity
  8
0
100
AcDbBlockEnd
  0
BLOCK
  5
18006
330
17FF6
100
AcDbEntity
  8
0
100
AcDbBlockBegin
  2
*D14
 70
     1
 10
0.0
 20
0.0
 30
0.0
  3
*D14
  1

  0
LINE
  5
181D6
330
17FF6
100
AcDbEntity
  8
AM_5
100
AcDbLine
 10
-7.252095181973459
 20
-165.1631370256185
 30
0.0
 11
-27.47734401859676
 21
-185.781058536173
 31
0.0
  0
LINE
  5
181D7
330
17FF6
100
AcDbEntity
  8
AM_5
100
AcDbLine
 10
0.0
 20
-158.7702426065274
 30
0.0
 11
-0.0000000000000142
 21
-197.0081100735649
 31
0.0
  0
ARC
  5
181D8
330
17FF6
100
AcDbEntity
  8
AM_5
100
AcDbCircle
 10
0.0
 20
-157.7702426065274
 30
0.0
 40
38.2378674670375
100
AcDbArc
 50
229.2975115805441
 51
266.2533220986245
  0
INSERT
  5
181D9
330
17FF6
100
AcDbEntity
  8
AM_5
100
AcDbBlockReference
  2
_OPEN30
 10
-26.77706783662333
 20
-185.0671865105545
 30
0.0
 41
2.5
 42
2.5
 43
2.5
 50
137.4241726298564
  0
INSERT
  5
181DA
330
17FF6
100
AcDbEntity
  8
AM_5
100
AcDbBlockReference
  2
_OPEN30
 10
-0.0000000000000142
 20
-196.0081100735649
 30
0.0
 41
2.5
 42
2.5
 43
2.5
 50
358.1266610493122
  0
MTEXT
  5
181DB
330
17FF6
100
AcDbEntity
  8
AM_5
 62
     2
100
AcDbMText
 10
-13.29047683329165
 20
-190.2976611280583
 30
0.0
 40
3.2
 41
0.0
 71
     5
 72
     1
  1
45%%d
  7
ASAMI
 11
0.9257083843248183
 21
-0.3782380033665766
 31
0.0
1001
ACAD
1000
MTEXTBEGIN
1070
    73
1070
     1
1070
    44
1040
1.0
1070
    74
1070
     0
1000
MTEXTEND
  0
POINT
  5
181DC
330
17FF6
100
AcDbEntity
  8
DEFPOINTS
 62
     0
100
AcDbPoint
 10
-18.90630071543554
 20
-191.0070640803725
 30
0.0
  0
POINT
  5
181DD
330
17FF6
100
AcDbEntity
  8
DEFPOINTS
 62
     0
100
AcDbPoint
 10
-6.551819000000023
 20
-164.4492649999999
 30
0.0
  0
POINT
  5
181DE
330
17FF6
100
AcDbEntity
  8
DEFPOINTS
 62
     0
100
AcDbPoint
 10
-0.0000000000000071
 20
157.5
 30
0.0
  0
POINT
  5
181DF
330
17FF6
100
AcDbEntity
  8
DEFPOINTS
 62
     0
100
AcDbPoint
 10
0.0000000000000071
 20
-157.5
 30
0.0
  0
POINT
  5
181E0
330
17FF6
100
AcDbEntity
  8
DEFPOINTS
 62
     0
100
AcDbPoint
 10
-0.1842080000000123
 20
-157.958027
 30
0.0
  0
ENDBLK
  5
18007
330
17FF6
100
AcDbEntity
  8
0
100
AcDbBlockEnd
  0
ENDSEC
  0
SECTION
  2
ENTITIES
  0
TEXT
  5
E5A
330
1F
100
AcDbEntity
  8
AM_6
100
AcDbText
 10
-52.85714285714288
 20
-235.080085
 30
0.0
 40
5.0
  1
FPG4315R
 72
     4
 11
-35.00000000000002
 21
-232.580085
 31
0.0
100
AcDbText
  0
LINE
  5
16CCD
330
1F
100
AcDbEntity
  8
AM_0
100
AcDbLine
 10
-21.99999999999994
 20
120.0
 30
0.0
 11
-21.99999999999994
 21
-120.0
 31
0.0
  0
LINE
  5
16CCE
330
1F
100
AcDbEntity
  8
AM_0
100
AcDbLine
 10
-20.89999999999992
 20
-125.0
 30
0.0
 11
-20.89999999999992
 21
125.0
 31
0.0
  0
LINE
  5
16CCF
330
1F
100
AcDbEntity
  8
AM_3
100
AcDbLine
 10
-1.89999999999992
 20
-153.3021388184846
 30
0.0
 11
-1.89999999999992
 21
-154.5010364594145
 31
0.0
  0
LINE
  5
16CD0
330
1F
100
AcDbEntity
  8
AM_11
100
AcDbLine
 10
-30.99999999999971
 20
-37.79999999999998
 30
0.0
 11
-29.99999999999983
 21
-36.79999999999998
 31
0.0
  0
LINE
  5
16CD1
330
1F
100
AcDbEntity
  8
AM_0
100
AcDbLine
 10
-30.00000000000034
 20
-106.1435935394482
 30
0.0
 11
-29.9999999999996
 21
0.0
 31
0.0
  0
LINE
  5
16CD2
330
1F
100
AcDbEntity
  8
AM_0
100
AcDbLine
 10
-70.00000000000006
 20
-117.5999999999999
 30
0.0
 11
-69.9999999999996
 21
-14.59999999999999
 31
0.0
  0
LINE
  5
16CD3
330
1F
100
AcDbEntity
  8
AM_0
100
AcDbLine
 10
-54.94785352044335
 20
-148.6521464795567
 30
0.0
 11
-59.56287563449524
 21
-122.4790554669992
 31
0.0
  0
LINE
  5
16CD4
330
1F
100
AcDbEntity
  8
AM_0
100
AcDbLine
 10
-21.99999999999994
 20
-134.4010364594145
 30
0.0
 11
-21.99999999999994
 21
-130.0
 31
0.0
  0
LINE
  5
16CD6
330
1F
100
AcDbEntity
  8
AM_3
100
AcDbLine
 10
-1.89999999999992
 20
-154.5010364594145
 30
0.0
 11
-14.68853048429218
 21
-141.7125059751222
 31
0.0
  0
LINE
  5
16CE2
330
1F
100
AcDbEntity
  8
AM_3
100
AcDbLine
 10
-1.89999999999992
 20
-156.0010364594145
 30
0.0
 11
-1.89999999999992
 21
-154.5010364594145
 31
0.0
  0
LINE
  5
16CE3
330
1F
100
AcDbEntity
  8
AM_11
100
AcDbLine
 10
-37.99999999999971
 20
-37.80000000000001
 30
0.0
 11
-30.99999999999971
 21
-37.80000000000001
 31
0.0
  0
LINE
  5
16CE4
330
1F
100
AcDbEntity
  8
AM_11
100
AcDbLine
 10
-37.99999999999982
 20
-63.80000000000001
 30
0.0
 11
-30.99999999999971
 21
-63.80000000000004
 31
0.0
  0
LINE
  5
16CE5
330
1F
100
AcDbEntity
  8
AM_11
100
AcDbLine
 10
-37.99999999999994
 20
-72.89999999999998
 30
0.0
 11
-31.00000000000017
 21
-72.9
 31
0.0
  0
LINE
  5
16CE6
330
1F
100
AcDbEntity
  8
AM_0
100
AcDbLine
 10
-68.99999999999995
 20
-83.84199999999998
 30
0.0
 11
-31.00000000000051
 21
-83.84200000000001
 31
0.0
  0
LINE
  5
16CE7
330
1F
100
AcDbEntity
  8
AM_0
100
AcDbLine
 10
-68.99999999999983
 20
-93.95799999999997
 30
0.0
 11
-31.00000000000051
 21
-93.95799999999997
 31
0.0
  0
LINE
  5
16CE8
330
1F
100
AcDbEntity
  8
AM_0
100
AcDbLine
 10
-69.99999999999994
 20
-82.89999999999997
 30
0.0
 11
-30.00000000000028
 21
-82.9
 31
0.0
  0
LINE
  5
16CE9
330
1F
100
AcDbEntity
  8
AM_0
100
AcDbLine
 10
-69.99999999999994
 20
-94.9
 30
0.0
 11
-30.00000000000039
 21
-94.9
 31
0.0
  0
LINE
  5
16CEA
330
1F
100
AcDbEntity
  8
AM_11
100
AcDbLine
 10
-37.99999999999982
 20
-104.8999999999999
 30
0.0
 11
-31.00000000000005
 21
-104.9
 31
0.0
  0
LINE
  5
16CEB
330
1F
100
AcDbEntity
  8
AM_7
100
AcDbLine
 10
-75.85283787969996
 20
-88.9
 30
0.0
 11
-24.8320267051061
 21
-88.9
 31
0.0
  0
LINE
  5
16CEC
330
1F
100
AcDbEntity
  8
AM_7
100
AcDbLine
 10
-75.85283787969996
 20
-50.80000000000001
 30
0.0
 11
-24.8320267051061
 21
-50.80000000000001
 31
0.0
  0
LINE
  5
16CED
330
1F
100
AcDbEntity
  8
AM_0
100
AcDbLine
 10
-68.99999999999995
 20
-93.95800000000008
 30
0.0
 11
-69.00000000000005
 21
-83.84199999999996
 31
0.0
  0
LINE
  5
16CEE
330
1F
100
AcDbEntity
  8
AM_11
100
AcDbLine
 10
-37.99999999999971
 20
-104.9
 30
0.0
 11
-37.99999999999982
 21
-72.9
 31
0.0
  0
LINE
  5
16CEF
330
1F
100
AcDbEntity
  8
AM_11
100
AcDbLine
 10
-68.59999999999974
 20
-99.90000000000001
 30
0.0
 11
-38.49999999999971
 21
-99.89999999999998
 31
0.0
  0
LINE
  5
16CF2
330
1F
100
AcDbEntity
  8
AM_0
100
AcDbLine
 10
-67.60000000000008
 20
-120.0
 30
0.0
 11
-62.51729889353185
 21
-120.0
 31
0.0
  0
LINE
  5
16CF3
330
1F
100
AcDbEntity
  8
AM_0
100
AcDbLine
 10
-68.99999999999995
 20
-93.95799999999999
 30
0.0
 11
-69.99999999999994
 21
-94.9
 31
0.0
  0
LINE
  5
16CF4
330
1F
100
AcDbEntity
  8
AM_11
100
AcDbLine
 10
-69.99999999999971
 20
-101.3
 30
0.0
 11
-68.59999999999974
 21
-99.90000000000001
 31
0.0
  0
LINE
  5
16CF5
330
1F
100
AcDbEntity
  8
AM_11
100
AcDbLine
 10
-68.59999999999974
 20
-99.90000000000001
 30
0.0
 11
-68.59999999999974
 21
-95.96158954829901
 31
0.0
  0
LINE
  5
16CF6
330
1F
100
AcDbEntity
  8
AM_11
100
AcDbLine
 10
-38.4999999999996
 20
-99.90000000000001
 30
0.0
 11
-38.4999999999996
 21
-95.96158954829901
 31
0.0
  0
LINE
  5
16CF7
330
1F
100
AcDbEntity
  8
AM_11
100
AcDbLine
 10
-38.4999999999996
 20
-99.90000000000001
 30
0.0
 11
-37.99999999999971
 21
-100.4
 31
0.0
  0
LINE
  5
16CF8
330
1F
100
AcDbEntity
  8
AM_11
100
AcDbLine
 10
-68.59999999999985
 20
-41.80000000000001
 30
0.0
 11
-38.4999999999996
 21
-41.80000000000001
 31
0.0
  0
LINE
  5
16CF9
330
1F
100
AcDbEntity
  8
AM_11
100
AcDbLine
 10
-68.59999999999974
 20
-59.80000000000003
 30
0.0
 11
-38.4999999999996
 21
-59.79999999999998
 31
0.0
  0
LINE
  5
16CFA
330
1F
100
AcDbEntity
  8
AM_11
100
AcDbLine
 10
-68.59999999999974
 20
-77.89999999999995
 30
0.0
 11
-38.49999999999971
 21
-77.89999999999998
 31
0.0
  0
LINE
  5
16CFB
330
1F
100
AcDbEntity
  8
AM_11
100
AcDbLine
 10
-69.99999999999971
 20
-76.5
 30
0.0
 11
-68.59999999999974
 21
-77.9
 31
0.0
  0
LINE
  5
16CFC
330
1F
100
AcDbEntity
  8
AM_0
100
AcDbLine
 10
-68.99999999999995
 20
-83.84200000000001
 30
0.0
 11
-69.99999999999994
 21
-82.9
 31
0.0
  0
LINE
  5
16CFD
330
1F
100
AcDbEntity
  8
AM_11
100
AcDbLine
 10
-68.59999999999974
 20
-81.9431411282918
 30
0.0
 11
-68.59999999999974
 21
-77.89999999999998
 31
0.0
  0
LINE
  5
16CFE
330
1F
100
AcDbEntity
  8
AM_11
100
AcDbLine
 10
-69.99999999999971
 20
-40.4
 30
0.0
 11
-68.59999999999974
 21
-41.80000000000001
 31
0.0
  0
LINE
  5
16CFF
330
1F
100
AcDbEntity
  8
AM_11
100
AcDbLine
 10
-69.99999999999971
 20
-61.20000000000001
 30
0.0
 11
-68.59999999999974
 21
-59.80000000000001
 31
0.0
  0
LINE
  5
16D00
330
1F
100
AcDbEntity
  8
AM_11
100
AcDbLine
 10
-68.59999999999974
 20
-59.8000000000001
 30
0.0
 11
-68.59999999999963
 21
-41.80000000000018
 31
0.0
  0
LINE
  5
16D01
330
1F
100
AcDbEntity
  8
AM_11
100
AcDbLine
 10
-37.9999999999996
 20
-63.80000000000004
 30
0.0
 11
-37.99999999999971
 21
-37.80000000000001
 31
0.0
  0
LINE
  5
16D02
330
1F
100
AcDbEntity
  8
AM_11
100
AcDbLine
 10
-38.4999999999996
 20
-77.9
 30
0.0
 11
-37.99999999999971
 21
-77.40000000000001
 31
0.0
  0
LINE
  5
16D03
330
1F
100
AcDbEntity
  8
AM_11
100
AcDbLine
 10
-38.4999999999996
 20
-81.9431411282918
 30
0.0
 11
-38.4999999999996
 21
-77.89999999999998
 31
0.0
  0
LINE
  5
16D04
330
1F
100
AcDbEntity
  8
AM_11
100
AcDbLine
 10
-38.49999999999971
 20
-59.79999999999993
 30
0.0
 11
-38.4999999999996
 21
-41.80000000000004
 31
0.0
  0
LINE
  5
16D05
330
1F
100
AcDbEntity
  8
AM_11
100
AcDbLine
 10
-38.4999999999996
 20
-59.79999999999998
 30
0.0
 11
-37.99999999999971
 21
-60.29999999999998
 31
0.0
  0
LINE
  5
16D06
330
1F
100
AcDbEntity
  8
AM_11
100
AcDbLine
 10
-38.4999999999996
 20
-41.80000000000004
 30
0.0
 11
-37.99999999999971
 21
-41.30000000000004
 31
0.0
  0
LINE
  5
16D07
330
1F
100
AcDbEntity
  8
AM_0
100
AcDbLine
 10
-31.00000000000051
 20
-93.95799999999999
 30
0.0
 11
-31.00000000000051
 21
-83.84200000000001
 31
0.0
  0
LINE
  5
16D08
330
1F
100
AcDbEntity
  8
AM_0
100
AcDbLine
 10
-21.99999999999988
 20
-119.9999999999999
 30
0.0
 11
-30.00000000000034
 21
-106.1435935394481
 31
0.0
  0
LINE
  5
16D09
330
1F
100
AcDbEntity
  8
AM_0
100
AcDbLine
 10
-22.00000000000005
 20
-125.0
 30
0.0
 11
-21.99999999999994
 21
-120.0
 31
0.0
  0
LINE
  5
16D0A
330
1F
100
AcDbEntity
  8
AM_0
100
AcDbLine
 10
-22.00000000000005
 20
-125.0
 30
0.0
 11
-20.89999999999992
 21
-125.0
 31
0.0
  0
LINE
  5
16D0B
330
1F
100
AcDbEntity
  8
AM_0
100
AcDbLine
 10
-22.00000000000005
 20
-130.0
 30
0.0
 11
-20.89999999999992
 21
-130.0
 31
0.0
  0
LINE
  5
16D0C
330
1F
100
AcDbEntity
  8
AM_0
100
AcDbLine
 10
-20.90000000000003
 20
-125.0
 30
0.0
 11
-20.89999999999992
 21
-130.0
 31
0.0
  0
LINE
  5
16D0D
330
1F
100
AcDbEntity
  8
AM_11
100
AcDbLine
 10
-31.00000000000005
 20
-104.9
 30
0.0
 11
-31.00000000000005
 21
-96.89411061252542
 31
0.0
  0
LINE
  5
16D0E
330
1F
100
AcDbEntity
  8
AM_11
100
AcDbLine
 10
-30.99999999999994
 20
-104.9
 30
0.0
 11
-30.00000000000005
 21
-105.9
 31
0.0
  0
LINE
  5
16D0F
330
1F
100
AcDbEntity
  8
AM_0
100
AcDbLine
 10
-31.00000000000051
 20
-93.95799999999999
 30
0.0
 11
-30.00000000000051
 21
-94.9
 31
0.0
  0
LINE
  5
16D10
330
1F
100
AcDbEntity
  8
AM_11
100
AcDbLine
 10
-30.99999999999983
 20
-63.79999999999984
 30
0.0
 11
-30.9999999999996
 21
-37.79999999999986
 31
0.0
  0
LINE
  5
16D11
330
1F
100
AcDbEntity
  8
AM_11
100
AcDbLine
 10
-31.00000000000005
 20
-80.33116080144793
 30
0.0
 11
-31.00000000000005
 21
-72.90000000000003
 31
0.0
  0
LINE
  5
16D12
330
1F
100
AcDbEntity
  8
AM_0
100
AcDbLine
 10
-31.00000000000051
 20
-83.84200000000001
 30
0.0
 11
-30.00000000000051
 21
-82.9
 31
0.0
  0
LINE
  5
16D13
330
1F
100
AcDbEntity
  8
AM_11
100
AcDbLine
 10
-30.99999999999971
 20
-63.80000000000004
 30
0.0
 11
-29.99999999999983
 21
-64.80000000000003
 31
0.0
  0
LINE
  5
16D14
330
1F
100
AcDbEntity
  8
AM_11
100
AcDbLine
 10
-30.99999999999994
 20
-72.89999999999998
 30
0.0
 11
-30.00000000000005
 21
-71.89999999999997
 31
0.0
  0
LINE
  5
16D15
330
1F
100
AcDbEntity
  8
AM_7
100
AcDbLine
 10
-75.56997091066938
 20
0.0
 30
0.0
 11
7.500128747266501
 21
0.0
 31
0.0
  0
LINE
  5
16D16
330
1F
100
AcDbEntity
  8
AM_3
100
AcDbLine
 10
-13.2000000000001
 20
167.6
 30
0.0
 11
-1.900000000000034
 21
156.1010364594146
 31
0.0
  0
LINE
  5
16D17
330
1F
100
AcDbEntity
  8
AM_0
100
AcDbLine
 10
-36.58578643762686
 20
167.014213562373
 30
0.0
 11
-54.94785352044323
 21
148.6521464795568
 31
0.0
  0
LINE
  5
16D18
330
1F
100
AcDbEntity
  8
AM_11
100
AcDbLine
 10
-38.49999999999971
 20
59.79999999999993
 30
0.0
 11
-38.4999999999996
 21
41.80000000000004
 31
0.0
  0
LINE
  5
16D19
330
1F
100
AcDbEntity
  8
AM_11
100
AcDbLine
 10
-68.59999999999974
 20
59.8000000000001
 30
0.0
 11
-68.59999999999963
 21
41.80000000000018
 31
0.0
  0
LINE
  5
16D1A
330
1F
100
AcDbEntity
  8
AM_11
100
AcDbLine
 10
-37.9999999999996
 20
63.80000000000004
 30
0.0
 11
-37.99999999999971
 21
37.80000000000001
 31
0.0
  0
LINE
  5
16D1B
330
1F
100
AcDbEntity
  8
AM_11
100
AcDbLine
 10
-30.99999999999983
 20
63.79999999999984
 30
0.0
 11
-30.9999999999996
 21
37.79999999999986
 31
0.0
  0
LINE
  5
16D1C
330
1F
100
AcDbEntity
  8
AM_0
100
AcDbLine
 10
-70.00000000000004
 20
117.5999999999999
 30
0.0
 11
-69.99999999999961
 21
14.59999999999999
 31
0.0
  0
LINE
  5
16D1D
330
1F
100
AcDbEntity
  8
AM_0
100
AcDbLine
 10
-30.00000000000034
 20
106.1435935394483
 30
0.0
 11
-29.9999999999996
 21
0.0
 31
0.0
  0
LINE
  5
16D1E
330
1F
100
AcDbEntity
  8
AM_11
100
AcDbLine
 10
-37.99999999999971
 20
37.80000000000001
 30
0.0
 11
-30.99999999999971
 21
37.80000000000001
 31
0.0
  0
LINE
  5
16D1F
330
1F
100
AcDbEntity
  8
AM_0
100
AcDbLine
 10
-49.47958021588061
 20
23.49749999999998
 30
0.0
 11
-31.99999999999971
 21
23.49749999999998
 31
0.0
  0
LINE
  5
16D20
330
1F
100
AcDbEntity
  8
AM_7
100
AcDbLine
 10
-75.85283787969996
 20
50.80000000000001
 30
0.0
 11
-24.8320267051061
 21
50.80000000000001
 31
0.0
  0
LINE
  5
16D21
330
1F
100
AcDbEntity
  8
AM_0
100
AcDbLine
 10
-49.47958021588061
 20
-23.49749999999998
 30
0.0
 11
-31.99999999999971
 21
-23.49749999999998
 31
0.0
  0
LINE
  5
16D22
330
1F
100
AcDbEntity
  8
AM_0
100
AcDbLine
 10
-56.49999999999972
 20
11.7
 30
0.0
 11
-56.49999999999948
 21
0.0
 31
0.0
  0
LINE
  5
16D23
330
1F
100
AcDbEntity
  8
AM_0
100
AcDbLine
 10
-68.09999999999963
 20
-12.69999999999998
 30
0.0
 11
-57.49999999999971
 21
-12.69999999999998
 31
0.0
  0
LINE
  5
16D24
330
1F
100
AcDbEntity
  8
AM_0
100
AcDbLine
 10
-67.09999999999951
 20
-23.81249999999998
 30
0.0
 11
-58.4999999999996
 21
-23.81249999999998
 31
0.0
  0
LINE
  5
16D27
330
1F
100
AcDbEntity
  8
AM_0
100
AcDbLine
 10
-67.09999999999985
 20
-23.81250000000012
 30
0.0
 11
-67.09999999999962
 21
-12.69999999999998
 31
0.0
  0
LINE
  5
16D28
330
1F
100
AcDbEntity
  8
AM_0
100
AcDbLine
 10
-58.4999999999996
 20
-23.81249999999998
 30
0.0
 11
-49.47958021588061
 21
-23.49749999999998
 31
0.0
  0
LINE
  5
16D29
330
1F
100
AcDbEntity
  8
AM_0
100
AcDbLine
 10
-58.4999999999996
 20
-23.81249999999998
 30
0.0
 11
-58.49999999999959
 21
-12.69999999999999
 31
0.0
  0
LINE
  5
16D2A
330
1F
100
AcDbEntity
  8
AM_0
100
AcDbLine
 10
-49.47958021588061
 20
-23.49749999999998
 30
0.0
 11
-49.47958021588061
 21
0.0
 31
0.0
  0
LINE
  5
16D2B
330
1F
100
AcDbEntity
  8
AM_0
100
AcDbLine
 10
-56.49999999999971
 20
-11.70000000000001
 30
0.0
 11
-56.49999999999948
 21
0.0
 31
0.0
  0
LINE
  5
16D2D
330
1F
100
AcDbEntity
  8
AM_11
100
AcDbLine
 10
-68.59999999999985
 20
41.80000000000001
 30
0.0
 11
-38.4999999999996
 21
41.80000000000001
 31
0.0
  0
LINE
  5
16D2E
330
1F
100
AcDbEntity
  8
AM_0
100
AcDbLine
 10
-68.09999999999959
 20
12.69999999999998
 30
0.0
 11
-57.49999999999972
 21
12.69999999999998
 31
0.0
  0
LINE
  5
16D2F
330
1F
100
AcDbEntity
  8
AM_0
100
AcDbLine
 10
-67.09999999999964
 20
23.81249999999999
 30
0.0
 11
-58.4999999999996
 21
23.81249999999998
 31
0.0
  0
LINE
  5
16D32
330
1F
100
AcDbEntity
  8
AM_0
100
AcDbLine
 10
-67.09999999999985
 20
23.81250000000012
 30
0.0
 11
-67.09999999999962
 21
12.69999999999999
 31
0.0
  0
LINE
  5
16D33
330
1F
100
AcDbEntity
  8
AM_11
100
AcDbLine
 10
-69.99999999999971
 20
40.4
 30
0.0
 11
-68.59999999999974
 21
41.80000000000001
 31
0.0
  0
LINE
  5
16D34
330
1F
100
AcDbEntity
  8
AM_0
100
AcDbLine
 10
-58.4999999999996
 20
23.81249999999998
 30
0.0
 11
-58.49999999999959
 21
12.69999999999998
 31
0.0
  0
LINE
  5
16D35
330
1F
100
AcDbEntity
  8
AM_0
100
AcDbLine
 10
-49.47958021588061
 20
23.49749999999998
 30
0.0
 11
-49.47958021588061
 21
0.0
 31
0.0
  0
LINE
  5
16D37
330
1F
100
AcDbEntity
  8
AM_0
100
AcDbLine
 10
-58.4999999999996
 20
23.81249999999998
 30
0.0
 11
-49.47958021588061
 21
23.49749999999998
 31
0.0
  0
LINE
  5
16D38
330
1F
100
AcDbEntity
  8
AM_11
100
AcDbLine
 10
-38.4999999999996
 20
41.80000000000004
 30
0.0
 11
-37.99999999999971
 21
41.30000000000004
 31
0.0
  0
LINE
  5
16D39
330
1F
100
AcDbEntity
  8
AM_0
100
AcDbLine
 10
-31.99999999999971
 20
23.49749999999998
 30
0.0
 11
-31.9999999999996
 21
0.0
 31
0.0
  0
LINE
  5
16D3A
330
1F
100
AcDbEntity
  8
AM_0
100
AcDbLine
 10
-31.99999999999971
 20
-23.49749999999998
 30
0.0
 11
-31.9999999999996
 21
0.0
 31
0.0
  0
LINE
  5
16D3B
330
1F
100
AcDbEntity
  8
AM_0
100
AcDbLine
 10
-31.99999999999971
 20
-23.49749999999998
 30
0.0
 11
-29.99999999999971
 21
-25.49749999999999
 31
0.0
  0
LINE
  5
16D3C
330
1F
100
AcDbEntity
  8
AM_0
100
AcDbLine
 10
-31.99999999999971
 20
23.49749999999998
 30
0.0
 11
-29.99999999999971
 21
25.49749999999999
 31
0.0
  0
LINE
  5
16D3D
330
1F
100
AcDbEntity
  8
AM_11
100
AcDbLine
 10
-30.99999999999971
 20
37.79999999999998
 30
0.0
 11
-29.99999999999983
 21
36.79999999999998
 31
0.0
  0
LINE
  5
16D3E
330
1F
100
AcDbEntity
  8
AM_11
100
AcDbLine
 10
-37.99999999999982
 20
104.8999999999999
 30
0.0
 11
-31.00000000000005
 21
104.9
 31
0.0
  0
LINE
  5
16D3F
330
1F
100
AcDbEntity
  8
AM_11
100
AcDbLine
 10
-37.99999999999994
 20
72.89999999999998
 30
0.0
 11
-31.00000000000017
 21
72.9
 31
0.0
  0
LINE
  5
16D40
330
1F
100
AcDbEntity
  8
AM_0
100
AcDbLine
 10
-69.99999999999994
 20
94.89999999999998
 30
0.0
 11
-30.00000000000039
 21
94.89999999999998
 31
0.0
  0
LINE
  5
16D41
330
1F
100
AcDbEntity
  8
AM_0
100
AcDbLine
 10
-69.99999999999994
 20
82.89999999999997
 30
0.0
 11
-30.00000000000028
 21
82.9
 31
0.0
  0
LINE
  5
16D42
330
1F
100
AcDbEntity
  8
AM_0
100
AcDbLine
 10
-68.99999999999983
 20
93.95799999999997
 30
0.0
 11
-31.00000000000051
 21
93.95799999999997
 31
0.0
  0
LINE
  5
16D43
330
1F
100
AcDbEntity
  8
AM_0
100
AcDbLine
 10
-68.99999999999995
 20
83.84199999999998
 30
0.0
 11
-31.00000000000051
 21
83.84200000000001
 31
0.0
  0
LINE
  5
16D44
330
1F
100
AcDbEntity
  8
AM_11
100
AcDbLine
 10
-37.99999999999982
 20
63.80000000000001
 30
0.0
 11
-30.99999999999971
 21
63.80000000000004
 31
0.0
  0
LINE
  5
16D45
330
1F
100
AcDbEntity
  8
AM_7
100
AcDbLine
 10
-75.85283787969996
 20
88.89999999999998
 30
0.0
 11
-24.8320267051061
 21
88.89999999999998
 31
0.0
  0
LINE
  5
16D46
330
1F
100
AcDbEntity
  8
AM_11
100
AcDbLine
 10
-68.59999999999974
 20
99.89999999999998
 30
0.0
 11
-38.49999999999971
 21
99.89999999999998
 31
0.0
  0
LINE
  5
16D47
330
1F
100
AcDbEntity
  8
AM_11
100
AcDbLine
 10
-68.59999999999974
 20
77.89999999999995
 30
0.0
 11
-38.49999999999971
 21
77.89999999999998
 31
0.0
  0
LINE
  5
16D48
330
1F
100
AcDbEntity
  8
AM_11
100
AcDbLine
 10
-68.59999999999974
 20
59.80000000000003
 30
0.0
 11
-38.4999999999996
 21
59.79999999999998
 31
0.0
  0
LINE
  5
16D49
330
1F
100
AcDbEntity
  8
AM_0
100
AcDbLine
 10
-68.99999999999995
 20
83.84200000000001
 30
0.0
 11
-69.99999999999994
 21
82.9
 31
0.0
  0
LINE
  5
16D4A
330
1F
100
AcDbEntity
  8
AM_11
100
AcDbLine
 10
-69.99999999999971
 20
76.5
 30
0.0
 11
-68.59999999999974
 21
77.9
 31
0.0
  0
LINE
  5
16D4B
330
1F
100
AcDbEntity
  8
AM_11
100
AcDbLine
 10
-69.99999999999971
 20
61.20000000000001
 30
0.0
 11
-68.59999999999974
 21
59.80000000000001
 31
0.0
  0
LINE
  5
16D4C
330
1F
100
AcDbEntity
  8
AM_11
100
AcDbLine
 10
-68.59999999999974
 20
81.9431411282918
 30
0.0
 11
-68.59999999999974
 21
77.89999999999998
 31
0.0
  0
LINE
  5
16D4D
330
1F
100
AcDbEntity
  8
AM_11
100
AcDbLine
 10
-69.99999999999971
 20
101.3
 30
0.0
 11
-68.59999999999974
 21
99.89999999999998
 31
0.0
  0
LINE
  5
16D4E
330
1F
100
AcDbEntity
  8
AM_0
100
AcDbLine
 10
-68.99999999999995
 20
93.95799999999997
 30
0.0
 11
-69.99999999999994
 21
94.89999999999998
 31
0.0
  0
LINE
  5
16D4F
330
1F
100
AcDbEntity
  8
AM_0
100
AcDbLine
 10
-68.99999999999995
 20
93.95800000000008
 30
0.0
 11
-69.00000000000005
 21
83.84199999999996
 31
0.0
  0
LINE
  5
16D50
330
1F
100
AcDbEntity
  8
AM_11
100
AcDbLine
 10
-68.59999999999974
 20
99.89999999999998
 30
0.0
 11
-68.59999999999974
 21
95.96158954829901
 31
0.0
  0
LINE
  5
16D51
330
1F
100
AcDbEntity
  8
AM_11
100
AcDbLine
 10
-37.99999999999971
 20
104.8999999999999
 30
0.0
 11
-37.99999999999982
 21
72.9
 31
0.0
  0
LINE
  5
16D52
330
1F
100
AcDbEntity
  8
AM_11
100
AcDbLine
 10
-38.4999999999996
 20
59.79999999999998
 30
0.0
 11
-37.99999999999971
 21
60.29999999999998
 31
0.0
  0
LINE
  5
16D53
330
1F
100
AcDbEntity
  8
AM_11
100
AcDbLine
 10
-38.4999999999996
 20
77.9
 30
0.0
 11
-37.99999999999971
 21
77.40000000000001
 31
0.0
  0
LINE
  5
16D54
330
1F
100
AcDbEntity
  8
AM_11
100
AcDbLine
 10
-38.4999999999996
 20
81.9431411282918
 30
0.0
 11
-38.4999999999996
 21
77.89999999999998
 31
0.0
  0
LINE
  5
16D55
330
1F
100
AcDbEntity
  8
AM_11
100
AcDbLine
 10
-38.4999999999996
 20
99.89999999999998
 30
0.0
 11
-37.99999999999971
 21
100.3999999999999
 31
0.0
  0
LINE
  5
16D56
330
1F
100
AcDbEntity
  8
AM_11
100
AcDbLine
 10
-38.4999999999996
 20
99.89999999999998
 30
0.0
 11
-38.4999999999996
 21
95.96158954829901
 31
0.0
  0
LINE
  5
16D57
330
1F
100
AcDbEntity
  8
AM_0
100
AcDbLine
 10
-54.94785352044329
 20
148.6521464795567
 30
0.0
 11
-59.56287563449518
 21
122.4790554669992
 31
0.0
  0
LINE
  5
16D5A
330
1F
100
AcDbEntity
  8
AM_0
100
AcDbLine
 10
-67.60000000000005
 20
120.0
 30
0.0
 11
-62.51729889353182
 21
120.0
 31
0.0
  0
LINE
  5
16D5B
330
1F
100
AcDbEntity
  8
AM_0
100
AcDbLine
 10
-21.99999999999988
 20
120.0
 30
0.0
 11
-30.00000000000034
 21
106.1435935394481
 31
0.0
  0
LINE
  5
16D5C
330
1F
100
AcDbEntity
  8
AM_0
100
AcDbLine
 10
-31.00000000000051
 20
83.84200000000001
 30
0.0
 11
-30.00000000000051
 21
82.9
 31
0.0
  0
LINE
  5
16D5D
330
1F
100
AcDbEntity
  8
AM_11
100
AcDbLine
 10
-30.99999999999971
 20
63.80000000000004
 30
0.0
 11
-29.99999999999983
 21
64.80000000000003
 31
0.0
  0
LINE
  5
16D5E
330
1F
100
AcDbEntity
  8
AM_11
100
AcDbLine
 10
-30.99999999999994
 20
72.89999999999998
 30
0.0
 11
-30.00000000000005
 21
71.89999999999997
 31
0.0
  0
LINE
  5
16D5F
330
1F
100
AcDbEntity
  8
AM_11
100
AcDbLine
 10
-31.00000000000005
 20
80.33116080144793
 30
0.0
 11
-31.00000000000005
 21
72.90000000000003
 31
0.0
  0
LINE
  5
16D60
330
1F
100
AcDbEntity
  8
AM_0
100
AcDbLine
 10
-31.00000000000051
 20
93.95799999999997
 30
0.0
 11
-30.00000000000051
 21
94.89999999999998
 31
0.0
  0
LINE
  5
16D61
330
1F
100
AcDbEntity
  8
AM_0
100
AcDbLine
 10
-31.00000000000051
 20
93.95799999999997
 30
0.0
 11
-31.00000000000051
 21
83.84200000000001
 31
0.0
  0
LINE
  5
16D62
330
1F
100
AcDbEntity
  8
AM_11
100
AcDbLine
 10
-30.99999999999994
 20
104.9
 30
0.0
 11
-30.00000000000005
 21
105.9
 31
0.0
  0
LINE
  5
16D63
330
1F
100
AcDbEntity
  8
AM_11
100
AcDbLine
 10
-31.00000000000005
 20
104.9
 30
0.0
 11
-31.00000000000005
 21
96.89411061252542
 31
0.0
  0
LINE
  5
16D64
330
1F
100
AcDbEntity
  8
AM_3
100
AcDbLine
 10
-1.900000000000034
 20
154.6010364594146
 30
0.0
 11
-14.7479046961572
 21
141.7531317632574
 31
0.0
  0
LINE
  5
16D65
330
1F
100
AcDbEntity
  8
AM_0
100
AcDbLine
 10
-22.00000000000005
 20
134.5010364594146
 30
0.0
 11
-22.00000000000005
 21
130.0
 31
0.0
  0
LINE
  5
16D66
330
1F
100
AcDbEntity
  8
AM_0
100
AcDbLine
 10
-22.00000000000005
 20
130.0
 30
0.0
 11
-20.89999999999992
 21
130.0
 31
0.0
  0
LINE
  5
16D67
330
1F
100
AcDbEntity
  8
AM_0
100
AcDbLine
 10
-22.00000000000005
 20
125.0
 30
0.0
 11
-20.89999999999992
 21
125.0
 31
0.0
  0
LINE
  5
16D68
330
1F
100
AcDbEntity
  8
AM_0
100
AcDbLine
 10
-22.00000000000017
 20
125.0
 30
0.0
 11
-21.99999999999994
 21
120.0
 31
0.0
  0
LINE
  5
16D69
330
1F
100
AcDbEntity
  8
AM_0
100
AcDbLine
 10
-20.90000000000003
 20
125.0
 30
0.0
 11
-20.89999999999992
 21
130.0
 31
0.0
  0
LINE
  5
16D6A
330
1F
100
AcDbEntity
  8
AM_3
100
AcDbLine
 10
-1.900000000000034
 20
156.1010364594146
 30
0.0
 11
-1.900000000000034
 21
154.6010364594146
 31
0.0
  0
LINE
  5
16D6C
330
1F
100
AcDbEntity
  8
AM_3
100
AcDbLine
 10
-27.16806150953726
 20
161.1999999999999
 30
0.0
 11
-23.09999999999998
 21
161.1999999999999
 31
0.0
  0
LINE
  5
16D6F
330
1F
100
AcDbEntity
  8
AM_3
100
AcDbLine
 10
-27.99598028499554
 20
166.8959802849954
 30
0.0
 11
-27.7000000000001
 21
166.6
 31
0.0
  0
LINE
  5
16D71
330
1F
100
AcDbEntity
  8
AM_3
100
AcDbLine
 10
-27.7000000000001
 20
166.6
 30
0.0
 11
-27.69999999999976
 21
162.0235525892864
 31
0.0
  0
LINE
  5
16D74
330
1F
100
AcDbEntity
  8
AM_3
100
AcDbLine
 10
-22.69999999999998
 20
164.5999999999999
 30
0.0
 11
-22.69999999999999
 21
161.5999999999999
 31
0.0
  0
LINE
  5
16F6D
330
1F
100
AcDbEntity
  8
AM_0
100
AcDbLine
 10
-35.17157287525378
 20
167.5999999999999
 30
0.0
 11
-28.7000000000001
 21
167.6
 31
0.0
  0
LINE
  5
16F71
330
1F
100
AcDbEntity
  8
AM_3
100
AcDbLine
 10
-19.69999999999998
 20
167.5999999999999
 30
0.0
 11
-13.2000000000001
 21
167.6
 31
0.0
  0
LINE
  5
16F86
330
1F
100
AcDbEntity
  8
AM_0
100
AcDbLine
 10
-35.17157287525373
 20
-167.5999999999999
 30
0.0
 11
-28.7000000000001
 21
-167.6
 31
0.0
  0
LINE
  5
16F89
330
1F
100
AcDbEntity
  8
AM_3
100
AcDbLine
 10
-26.89213237966566
 20
-161.1999999999999
 30
0.0
 11
-23.09999999999996
 21
-161.1999999999999
 31
0.0
  0
LINE
  5
16F8A
330
1F
100
AcDbEntity
  8
AM_3
100
AcDbLine
 10
-27.7000000000001
 20
-166.6
 30
0.0
 11
-27.69999999999976
 21
-162.0235525892863
 31
0.0
  0
LINE
  5
16F8B
330
1F
100
AcDbEntity
  8
AM_3
100
AcDbLine
 10
-27.99598028499554
 20
-166.8959802849954
 30
0.0
 11
-27.7000000000001
 21
-166.6
 31
0.0
  0
LINE
  5
16F8D
330
1F
100
AcDbEntity
  8
AM_3
100
AcDbLine
 10
-22.69999999999999
 20
-164.6
 30
0.0
 11
-22.69999999999999
 21
-161.5999999999999
 31
0.0
  0
LINE
  5
16F8F
330
1F
100
AcDbEntity
  8
AM_3
100
AcDbLine
 10
-19.69999999999998
 20
-167.6
 30
0.0
 11
-13.2000000000001
 21
-167.6
 31
0.0
  0
LINE
  5
16F90
330
1F
100
AcDbEntity
  8
AM_0
100
AcDbLine
 10
-36.58578643762683
 20
-167.014213562373
 30
0.0
 11
-54.94785352044323
 21
-148.6521464795568
 31
0.0
  0
LINE
  5
16F91
330
1F
100
AcDbEntity
  8
AM_3
100
AcDbLine
 10
-13.2000000000001
 20
-167.6
 30
0.0
 11
-1.900000000000034
 21
-156.1010364594146
 31
0.0
  0
LINE
  5
16F92
330
1F
100
AcDbEntity
  8
AM_3
100
AcDbLine
 10
-1.900000000000034
 20
-156.1010364594146
 30
0.0
 11
-1.900000000000034
 21
-154.6010364594146
 31
0.0
  0
DIMENSION
  5
17C79
330
1F
100
AcDbEntity
  8
AM_5
100
AcDbDimension
  2
*D5
 10
-119.8528388796999
 20
-167.5999999999999
 30
0.0
 11
-122.9528388796999
 21
0.0000000000000077
 31
0.0
 70
    32
  1
%%c<>
  3
AM_JIS
100
AcDbAlignedDimension
 13
-35.17157287525373
 23
167.5999999999999
 33
0.0
 14
-35.17157287525373
 24
-167.5999999999999
 34
0.0
 50
90.0
100
AcDbRotatedDimension
1001
GENIUS_GENDTOL_13
1000

1000
h7
1000

1040
0.0
  0
DIMENSION
  5
17C7A
330
1F
100
AcDbEntity
  8
AM_5
100
AcDbDimension
  2
*D8
 10
-89.85283887969996
 20
-12.69999999999998
 30
0.0
 11
-89.85283887969996
 21
-0.0000000000000426
 31
0.0
 70
   160
  3
AM_JIS
100
AcDbAlignedDimension
 13
-68.09999999999963
 23
12.69999999999998
 33
0.0
 14
-68.09999999999963
 24
-12.69999999999998
 34
0.0
 50
90.0
100
AcDbRotatedDimension
  0
DIMENSION
  5
17C7B
330
1F
100
AcDbEntity
  8
AM_5
100
AcDbDimension
  2
*D7
 10
-99.85283887969996
 20
-23.8125000000002
 30
0.0
 11
-102.9528388796999
 21
-0.0000000000000042
 31
0.0
 70
    32
  1
%%c<>
  3
AM_JIS
100
AcDbAlignedDimension
 13
-67.09999999999985
 23
23.81250000000021
 33
0.0
 14
-67.09999999999985
 24
-23.81250000000021
 34
0.0
 50
90.0
100
AcDbRotatedDimension
1001
GENIUS_GENDTOL_13
1000

1000
h7
1000

1040
0.0
  0
DIMENSION
  5
17C7C
330
1F
100
AcDbEntity
  8
AM_5
100
AcDbDimension
  2
*D6
 10
-109.8528388796999
 20
-119.9999999999999
 30
0.0
 11
-112.9528388796999
 21
-0.0000000000000071
 31
0.0
 70
    32
  1
%%c<>
  3
AM_JIS
100
AcDbAlignedDimension
 13
-67.60000000000008
 23
120.0
 33
0.0
 14
-67.60000000000008
 24
-120.0
 34
0.0
 50
90.0
100
AcDbRotatedDimension
1001
GENIUS_GENDTOL_13
1000

1000
h7
1000

1040
0.0
  0
DIMENSION
  5
17D34
330
1F
100
AcDbEntity
  8
AM_5
100
AcDbDimension
  2
*D11
 10
-30.00000000000035
 20
-202.580085
 30
0.0
 11
-50.0000000000002
 21
-199.480085
 31
0.0
 70
    32
  1
<>
  3
AM_JIS$0
100
AcDbAlignedDimension
 13
-70.00000000000006
 23
-117.5999999999999
 33
0.0
 14
-30.00000000000034
 24
-106.1435935394482
 34
0.0
100
AcDbRotatedDimension
1001
ACAD
1000
DSTYLE
1002
{
1070
    40
1040
1.0
1070
    43
1040
12.0
1070
   140
1040
3.2
1070
   147
1040
1.5
1070
   178
1070
     2
1002
}
1001
GENIUS_GENDTOL_13
1000

1000
h7
1000

1040
0.0
  0
DIMENSION
  5
17D35
330
1F
100
AcDbEntity
  8
AM_5
100
AcDbDimension
  2
*D10
 10
-0.0000000000000034
 20
-212.580085
 30
0.0
 11
-35.00000000000003
 21
-209.480085
 31
0.0
 70
    32
  3
AM_JIS
100
AcDbAlignedDimension
 13
-70.00000000000006
 23
-117.5999999999999
 33
0.0
 14
0.0
 24
-157.5
 34
0.0
100
AcDbRotatedDimension
  0
DIMENSION
  5
17D36
330
1F
100
AcDbEntity
  8
AM_5
100
AcDbDimension
  2
*D9
 10
-37.99999999999972
 20
-192.580085
 30
0.0
 11
-53.99999999999988
 21
-189.480085
 31
0.0
 70
    32
  1
<>
  3
AM_JIS$0
100
AcDbAlignedDimension
 13
-70.00000000000006
 23
-117.5999999999999
 33
0.0
 14
-37.99999999999971
 24
-104.9
 34
0.0
100
AcDbRotatedDimension
1001
ACAD
1000
DSTYLE
1002
{
1070
    40
1040
1.0
1070
    43
1040
12.0
1070
   140
1040
3.2
1070
   147
1040
1.5
1070
   178
1070
     2
1002
}
1001
GENIUS_GENDTOL_13
1000

1000
h7
1000

1040
0.0
  0
DIMENSION
  5
17D37
330
1F
100
AcDbEntity
  8
AM_5
100
AcDbDimension
  2
*D12
 10
-56.49999999999972
 20
-182.580085
 30
0.0
 11
-63.24999999999988
 21
-179.480085
 31
0.0
 70
    32
  3
AM_JIS
100
AcDbAlignedDimension
 13
-70.00000000000006
 23
-117.5999999999999
 33
0.0
 14
-56.49999999999971
 24
-11.7
 34
0.0
100
AcDbRotatedDimension
  0
DIMENSION
  5
17DC2
330
1F
100
AcDbEntity
  8
AM_5
100
AcDbDimension
  2
*D13
 10
21.50012974726652
 20
-157.5
 30
0.0
 11
18.40012974726656
 21
-0.0000000000000009
 31
0.0
 70
    32
  1
%%c<>
  3
AM_JIS$0
100
AcDbAlignedDimension
 13
0.0
 23
157.5
 33
0.0
 14
0.0
 24
-157.5
 34
0.0
 50
90.0
100
AcDbRotatedDimension
1001
ACAD
1000
DSTYLE
1002
{
1070
    40
1040
1.0
1070
    43
1040
12.0
1070
   140
1040
3.2
1070
   147
1040
1.5
1070
   178
1070
     2
1002
}
1001
GENIUS_GENDTOL_13
1000

1000
h7
1000

1040
0.0
  0
LINE
  5
17EBA
330
1F
100
AcDbEntity
  8
0
100
AcDbLine
 10
-27.99093100000004
 20
168.341949
 30
0.0
 11
-11.94840799999997
 21
168.580084
 31
0.0
  0
LINE
  5
17EBB
330
1F
100
AcDbEntity
  8
0
100
AcDbLine
 10
-27.99813700000004
 20
162.327478
 30
0.0
 11
-27.99093100000004
 21
168.341949
 31
0.0
  0
LINE
  5
17EBC
330
1F
100
AcDbEntity
  8
0
100
AcDbLine
 10
-27.99434299999996
 20
167.987592
 30
0.0
 11
-27.99093100000004
 21
168.341949
 31
0.0
  0
LINE
  5
17EBD
330
1F
100
AcDbEntity
  8
0
100
AcDbLine
 10
-24.66869599999995
 20
158.933395
 30
0.0
 11
-27.99813700000004
 21
162.327478
 31
0.0
  0
LINE
  5
17EBE
330
1F
100
AcDbEntity
  8
0
100
AcDbLine
 10
-28.00038200000006
 20
163.961266
 30
0.0
 11
-27.99434299999996
 21
167.987592
 31
0.0
  0
LINE
  5
17EBF
330
1F
100
AcDbEntity
  8
0
100
AcDbLine
 10
-27.99813700000004
 20
162.327478
 30
0.0
 11
-28.00038200000006
 21
163.961266
 31
0.0
  0
LINE
  5
17EC0
330
1F
100
AcDbEntity
  8
0
100
AcDbLine
 10
-28.00174600000002
 20
160.32751
 30
0.0
 11
-28.00965499999995
 21
157.4980339999999
 31
0.0
  0
LINE
  5
17EC1
330
1F
100
AcDbEntity
  8
0
100
AcDbLine
 10
-27.03190900000004
 20
161.34249
 30
0.0
 11
-28.00174600000002
 21
160.32751
 31
0.0
  0
LINE
  5
17EC2
330
1F
100
AcDbEntity
  8
0
100
AcDbLine
 10
-28.00174600000002
 20
160.32751
 30
0.0
 11
-28.00638800000001
 21
155.4403459999999
 31
0.0
  0
LINE
  5
17EC3
330
1F
100
AcDbEntity
  8
0
100
AcDbLine
 10
-25.40213099999994
 20
150.6644089999999
 30
0.0
 11
-17.73799199999996
 21
159.378992
 31
0.0
  0
LINE
  5
17EC4
330
1F
100
AcDbEntity
  8
0
100
AcDbLine
 10
-26.98104899999998
 20
153.050525
 30
0.0
 11
-25.40213099999994
 21
150.6644089999999
 31
0.0
  0
LINE
  5
17EC5
330
1F
100
AcDbEntity
  8
0
100
AcDbLine
 10
-17.72477500000002
 20
142.8379959999999
 30
0.0
 11
-25.40213099999994
 21
150.6644089999999
 31
0.0
  0
LINE
  5
17EC6
330
1F
100
AcDbEntity
  8
0
100
AcDbLine
 10
-24.66869599999995
 20
158.933395
 30
0.0
 11
-28.00638800000001
 21
155.4403459999999
 31
0.0
  0
LINE
  5
17EC7
330
1F
100
AcDbEntity
  8
0
100
AcDbLine
 10
-26.98104899999998
 20
153.050525
 30
0.0
 11
-19.48553300000003
 21
161.573372
 31
0.0
  0
LINE
  5
17EC8
330
1F
100
AcDbEntity
  8
0
100
AcDbLine
 10
-28.00659299999995
 20
155.2692409999999
 30
0.0
 11
-28.00638800000001
 21
155.4403459999999
 31
0.0
  0
LINE
  5
17EC9
330
1F
100
AcDbEntity
  8
0
100
AcDbLine
 10
-26.43698500000005
 20
153.669158
 30
0.0
 11
-28.00659299999995
 21
155.2692409999999
 31
0.0
  0
LINE
  5
17ECA
330
1F
100
AcDbEntity
  8
0
100
AcDbLine
 10
-28.00965499999995
 20
157.4980339999999
 30
0.0
 11
-28.00659299999995
 21
155.2692409999999
 31
0.0
  0
ELLIPSE
  5
17ECB
330
1F
100
AcDbEntity
  8
0
100
AcDbEllipse
 10
-11.10612600000001
 20
174.279909
 30
0.0
 11
4.912310639624999
 21
15.39751041805899
 31
0.0
210
0.0
220
0.0
230
1.0
 40
0.6041594790782402
 41
2.705903463571339
 42
2.832525728958549
  0
ELLIPSE
  5
17ECC
330
1F
100
AcDbEntity
  8
0
100
AcDbEllipse
 10
-11.10612600000001
 20
174.279909
 30
0.0
 11
4.912310639624999
 21
15.39751041805899
 31
0.0
210
0.0
220
0.0
230
1.0
 40
0.6041594790782402
 41
2.832525728958549
 42
2.92662030172964
  0
ELLIPSE
  5
17ECD
330
1F
100
AcDbEntity
  8
0
100
AcDbEllipse
 10
-9.160731999999939
 20
172.2967449999999
 30
0.0
 11
10.708083557212
 21
10.50413949506399
 31
0.0
210
0.0
220
0.0
230
1.0
 40
0.22430953333333
 41
3.2682182039545
 42
4.045883524539719
  0
LINE
  5
17ECE
330
1F
100
AcDbEntity
  8
0
100
AcDbLine
 10
-9.806345999999962
 20
151.629525
 30
0.0
 11
-17.88978899999995
 21
159.869909
 31
0.0
  0
LINE
  5
17ECF
330
1F
100
AcDbEntity
  8
0
100
AcDbLine
 10
-10.06063500000004
 20
151.552579
 30
0.0
 11
-17.73799199999996
 21
159.378992
 31
0.0
  0
LINE
  5
17ED0
330
1F
100
AcDbEntity
  8
0
100
AcDbLine
 10
-17.88978899999995
 20
159.869909
 30
0.0
 11
-17.73799199999996
 21
159.378992
 31
0.0
  0
LINE
  5
17ED1
330
1F
100
AcDbEntity
  8
0
100
AcDbLine
 10
-3.692534000000023
 20
153.4795289999999
 30
0.0
 11
-13.92900900000006
 21
163.914746
 31
0.0
  0
LINE
  5
17ED2
330
1F
100
AcDbEntity
  8
0
100
AcDbLine
 10
-13.92900900000006
 20
163.914746
 30
0.0
 11
-13.84837300000003
 21
163.939146
 31
0.0
  0
LINE
  5
17ED3
330
1F
100
AcDbEntity
  8
0
100
AcDbLine
 10
-13.84837300000003
 20
163.939146
 30
0.0
 11
-11.11864600000001
 21
161.156422
 31
0.0
  0
LINE
  5
17ED4
330
1F
100
AcDbEntity
  8
0
100
AcDbLine
 10
-13.88991999999996
 20
141.5310729999999
 30
0.0
 11
-14.71365100000002
 21
141.718213
 31
0.0
  0
LINE
  5
17ED5
330
1F
100
AcDbEntity
  8
0
100
AcDbLine
 10
-8.312812000000008
 20
148.416986
 30
0.0
 11
-14.71365100000002
 21
141.718213
 31
0.0
  0
LINE
  5
17ED6
330
1F
100
AcDbEntity
  8
0
100
AcDbLine
 10
-7.038280999999983
 20
148.70163
 30
0.0
 11
-13.88991999999996
 21
141.5310729999999
 31
0.0
  0
LINE
  5
17ED7
330
1F
100
AcDbEntity
  8
0
100
AcDbLine
 10
-13.88991999999996
 20
141.5310729999999
 30
0.0
 11
-12.54648999999995
 21
142.1600949999999
 31
0.0
  0
LINE
  5
17ED8
330
1F
100
AcDbEntity
  8
0
100
AcDbLine
 10
-14.50287100000002
 20
142.106022
 30
0.0
 11
-17.72477500000002
 21
142.8379959999999
 31
0.0
  0
LINE
  5
17ED9
330
1F
100
AcDbEntity
  8
0
100
AcDbLine
 10
-14.71365100000002
 20
141.718213
 30
0.0
 11
-15.26361200000008
 21
142.278852
 31
0.0
  0
LINE
  5
17EDA
330
1F
100
AcDbEntity
  8
0
100
AcDbLine
 10
-17.72477500000002
 20
142.8379959999999
 30
0.0
 11
-10.06063500000004
 21
151.552579
 31
0.0
  0
LINE
  5
17EDB
330
1F
100
AcDbEntity
  8
0
100
AcDbLine
 10
-7.661642000000028
 20
149.2656839999999
 30
0.0
 11
-14.50287100000002
 21
142.106022
 31
0.0
  0
LINE
  5
17EDC
330
1F
100
AcDbEntity
  8
0
100
AcDbLine
 10
-12.54648999999995
 20
142.1600949999999
 30
0.0
 11
-1.25532499999997
 21
153.9768209999999
 31
0.0
  0
LINE
  5
17EDD
330
1F
100
AcDbEntity
  8
0
100
AcDbLine
 10
-7.389357000000018
 20
148.6964189999999
 30
0.0
 11
-8.312812000000008
 21
148.416986
 31
0.0
  0
LINE
  5
17EDE
330
1F
100
AcDbEntity
  8
0
100
AcDbLine
 10
-7.661642000000028
 20
149.2656839999999
 30
0.0
 11
-7.58441700000003
 21
149.24814
 31
0.0
  0
LINE
  5
17EDF
330
1F
100
AcDbEntity
  8
0
100
AcDbLine
 10
-8.217332999999939
 20
148.6841279999999
 30
0.0
 11
-6.755437000000029
 21
148.705829
 31
0.0
  0
LINE
  5
17EE0
330
1F
100
AcDbEntity
  8
0
100
AcDbLine
 10
-3.47968000000003
 20
153.543937
 30
0.0
 11
-7.58441700000003
 21
149.24814
 31
0.0
  0
ELLIPSE
  5
17EE1
330
1F
100
AcDbEntity
  8
0
100
AcDbEllipse
 10
1.075742999999988
 20
161.861528
 30
0.0
 11
10.708083557212
 21
10.50413949506399
 31
0.0
210
0.0
220
0.0
230
1.0
 40
0.22430953333333
 41
3.047498109911159
 42
3.14159419794193
  0
ELLIPSE
  5
17EE2
330
1F
100
AcDbEntity
  8
0
100
AcDbEllipse
 10
1.075742999999988
 20
161.861528
 30
0.0
 11
10.708083557212
 21
10.50413949506399
 31
0.0
210
0.0
220
0.0
230
1.0
 40
0.22430953333333
 41
3.14159419794193
 42
4.045883524539719
  0
LINE
  5
17EE3
330
1F
100
AcDbEntity
  8
0
100
AcDbLine
 10
-9.806345999999962
 20
151.629525
 30
0.0
 11
-10.06063500000004
 21
151.552579
 31
0.0
  0
LINE
  5
17EE4
330
1F
100
AcDbEntity
  8
0
100
AcDbLine
 10
-3.47968000000003
 20
153.543937
 30
0.0
 11
-10.98642800000004
 21
161.1964299999999
 31
0.0
  0
LINE
  5
17EE5
330
1F
100
AcDbEntity
  8
0
100
AcDbLine
 10
-3.692534000000023
 20
153.4795289999999
 30
0.0
 11
-3.47968000000003
 21
153.543937
 31
0.0
  0
LINE
  5
17EE6
330
1F
100
AcDbEntity
  8
0
100
AcDbLine
 10
-0.1870569999999816
 20
155.579942
 30
0.0
 11
-6.755437000000029
 21
148.705829
 31
0.0
  0
LINE
  5
17EE7
330
1F
100
AcDbEntity
  8
0
100
AcDbLine
 10
-0.6775119999999788
 20
155.0666579999999
 30
0.0
 11
-1.25532499999997
 21
153.9768209999999
 31
0.0
  0
LINE
  5
17EE8
330
1F
100
AcDbEntity
  8
0
100
AcDbLine
 10
-0.0017450000000281
 20
156.0434539999999
 30
0.0
 11
-0.1870569999999816
 21
155.579942
 31
0.0
  0
LINE
  5
17EE9
330
1F
100
AcDbEntity
  8
AM_11
100
AcDbLine
 10
0.0
 20
157.5
 30
0.0
 11
0.0
 21
-157.5
 31
0.0
  0
LINE
  5
17EEA
330
1F
100
AcDbEntity
  8
0
100
AcDbLine
 10
-6.551819000000023
 20
164.4492649999999
 30
0.0
 11
-0.1842080000000123
 21
157.958027
 31
0.0
  0
LINE
  5
17EEB
330
1F
100
AcDbEntity
  8
0
100
AcDbLine
 10
-0.1842080000000123
 20
157.958027
 30
0.0
 11
0.0
 21
157.5
 31
0.0
  0
LINE
  5
17EEC
330
1F
100
AcDbEntity
  8
0
100
AcDbLine
 10
-0.0017450000000281
 20
156.0434539999999
 30
0.0
 11
0.0
 21
157.5
 31
0.0
  0
LINE
  5
17EED
330
1F
100
AcDbEntity
  8
0
100
AcDbLine
 10
-11.94840799999997
 20
168.580084
 30
0.0
 11
-8.29311999999993
 21
164.853828
 31
0.0
  0
LINE
  5
17EEE
330
1F
100
AcDbEntity
  8
0
100
AcDbLine
 10
-11.18388300000003
 20
168.4063940000001
 30
0.0
 11
-7.475882000000069
 21
164.6264019999999
 31
0.0
  0
LINE
  5
17EEF
330
1F
100
AcDbEntity
  8
0
100
AcDbLine
 10
-11.94840799999997
 20
168.580084
 30
0.0
 11
-11.18388300000003
 21
168.4063940000001
 31
0.0
  0
LINE
  5
17EF0
330
1F
100
AcDbEntity
  8
0
100
AcDbLine
 10
-6.997641000000044
 20
164.633501
 30
0.0
 11
-6.551819000000023
 21
164.4492649999999
 31
0.0
  0
LINE
  5
17EF1
330
1F
100
AcDbEntity
  8
0
100
AcDbLine
 10
-8.608614999999986
 20
164.5236479999999
 30
0.0
 11
-8.29311999999993
 21
164.853828
 31
0.0
  0
LINE
  5
17EF2
330
1F
100
AcDbEntity
  8
0
100
AcDbLine
 10
-8.853938999999968
 20
164.415093
 30
0.0
 11
-8.407659999999964
 21
164.6125709999999
 31
0.0
  0
LINE
  5
17EF3
330
1F
100
AcDbEntity
  8
0
100
AcDbLine
 10
-11.54873699999996
 20
161.594863
 30
0.0
 11
-8.853938999999968
 21
164.415093
 31
0.0
  0
LINE
  5
17EF4
330
1F
100
AcDbEntity
  8
0
100
AcDbLine
 10
-8.29311999999993
 20
164.853828
 30
0.0
 11
-7.873627000000055
 21
164.620498
 31
0.0
  0
LINE
  5
17EF5
330
1F
100
AcDbEntity
  8
0
100
AcDbLine
 10
-6.997641000000044
 20
164.633501
 30
0.0
 11
-8.407659999999964
 21
164.6125709999999
 31
0.0
  0
LINE
  5
17EF6
330
1F
100
AcDbEntity
  8
0
100
AcDbLine
 10
-11.11864600000001
 20
161.156422
 30
0.0
 11
-10.98642800000004
 21
161.1964299999999
 31
0.0
  0
LINE
  5
17F0D
330
1F
100
AcDbEntity
  8
0
100
AcDbLine
 10
-27.99093100000004
 20
-168.341949
 30
0.0
 11
-11.94840799999997
 21
-168.580084
 31
0.0
  0
LINE
  5
17F0E
330
1F
100
AcDbEntity
  8
0
100
AcDbLine
 10
-27.99434299999996
 20
-167.987592
 30
0.0
 11
-27.99093100000004
 21
-168.341949
 31
0.0
  0
LINE
  5
17F0F
330
1F
100
AcDbEntity
  8
0
100
AcDbLine
 10
-27.99813700000004
 20
-162.327478
 30
0.0
 11
-27.99093100000004
 21
-168.341949
 31
0.0
  0
LINE
  5
17F10
330
1F
100
AcDbEntity
  8
0
100
AcDbLine
 10
-24.66869599999995
 20
-158.933395
 30
0.0
 11
-27.99813700000004
 21
-162.327478
 31
0.0
  0
LINE
  5
17F11
330
1F
100
AcDbEntity
  8
0
100
AcDbLine
 10
-27.03190900000004
 20
-161.34249
 30
0.0
 11
-28.00174600000002
 21
-160.32751
 31
0.0
  0
LINE
  5
17F12
330
1F
100
AcDbEntity
  8
0
100
AcDbLine
 10
-27.99813700000004
 20
-162.327478
 30
0.0
 11
-28.00038200000006
 21
-163.961266
 31
0.0
  0
LINE
  5
17F13
330
1F
100
AcDbEntity
  8
0
100
AcDbLine
 10
-28.00038200000006
 20
-163.961266
 30
0.0
 11
-27.99434299999996
 21
-167.987592
 31
0.0
  0
LINE
  5
17F14
330
1F
100
AcDbEntity
  8
0
100
AcDbLine
 10
-28.00965499999995
 20
-157.4980339999999
 30
0.0
 11
-28.00659299999995
 21
-155.2692409999999
 31
0.0
  0
LINE
  5
17F15
330
1F
100
AcDbEntity
  8
0
100
AcDbLine
 10
-24.66869599999995
 20
-158.933395
 30
0.0
 11
-28.00638800000001
 21
-155.4403459999999
 31
0.0
  0
LINE
  5
17F16
330
1F
100
AcDbEntity
  8
0
100
AcDbLine
 10
-28.00174600000002
 20
-160.32751
 30
0.0
 11
-28.00638800000001
 21
-155.4403459999999
 31
0.0
  0
LINE
  5
17F17
330
1F
100
AcDbEntity
  8
0
100
AcDbLine
 10
-26.43698500000005
 20
-153.669158
 30
0.0
 11
-28.00659299999995
 21
-155.2692409999999
 31
0.0
  0
LINE
  5
17F18
330
1F
100
AcDbEntity
  8
0
100
AcDbLine
 10
-28.00659299999995
 20
-155.2692409999999
 30
0.0
 11
-28.00638800000001
 21
-155.4403459999999
 31
0.0
  0
LINE
  5
17F19
330
1F
100
AcDbEntity
  8
0
100
AcDbLine
 10
-28.00174600000002
 20
-160.32751
 30
0.0
 11
-28.00965499999995
 21
-157.4980339999999
 31
0.0
  0
LINE
  5
17F1A
330
1F
100
AcDbEntity
  8
0
100
AcDbLine
 10
-17.72477500000002
 20
-142.8379959999999
 30
0.0
 11
-25.40213099999994
 21
-150.6644089999999
 31
0.0
  0
LINE
  5
17F1B
330
1F
100
AcDbEntity
  8
0
100
AcDbLine
 10
-26.98104899999998
 20
-153.050525
 30
0.0
 11
-19.48553300000003
 21
-161.573372
 31
0.0
  0
LINE
  5
17F1C
330
1F
100
AcDbEntity
  8
0
100
AcDbLine
 10
-25.40213099999994
 20
-150.6644089999999
 30
0.0
 11
-17.73799199999996
 21
-159.378992
 31
0.0
  0
LINE
  5
17F1D
330
1F
100
AcDbEntity
  8
0
100
AcDbLine
 10
-26.98104899999998
 20
-153.050525
 30
0.0
 11
-25.40213099999994
 21
-150.6644089999999
 31
0.0
  0
LINE
  5
17F1E
330
1F
100
AcDbEntity
  8
0
100
AcDbLine
 10
-17.72477500000002
 20
-142.8379959999999
 30
0.0
 11
-10.06063500000004
 21
-151.552579
 31
0.0
  0
LINE
  5
17F1F
330
1F
100
AcDbEntity
  8
0
100
AcDbLine
 10
-14.50287100000002
 20
-142.106022
 30
0.0
 11
-17.72477500000002
 21
-142.8379959999999
 31
0.0
  0
LINE
  5
17F20
330
1F
100
AcDbEntity
  8
0
100
AcDbLine
 10
-13.88991999999996
 20
-141.5310729999999
 30
0.0
 11
-14.71365100000002
 21
-141.718213
 31
0.0
  0
LINE
  5
17F21
330
1F
100
AcDbEntity
  8
0
100
AcDbLine
 10
-14.71365100000002
 20
-141.718213
 30
0.0
 11
-15.26361200000008
 21
-142.278852
 31
0.0
  0
LINE
  5
17F22
330
1F
100
AcDbEntity
  8
0
100
AcDbLine
 10
-13.88991999999996
 20
-141.5310729999999
 30
0.0
 11
-12.54648999999995
 21
-142.1600949999999
 31
0.0
  0
LINE
  5
17F23
330
1F
100
AcDbEntity
  8
0
100
AcDbLine
 10
-12.54648999999995
 20
-142.1600949999999
 30
0.0
 11
-1.25532499999997
 21
-153.9768209999999
 31
0.0
  0
LINE
  5
17F24
330
1F
100
AcDbEntity
  8
0
100
AcDbLine
 10
-7.038280999999983
 20
-148.70163
 30
0.0
 11
-13.88991999999996
 21
-141.5310729999999
 31
0.0
  0
LINE
  5
17F25
330
1F
100
AcDbEntity
  8
0
100
AcDbLine
 10
-8.312812000000008
 20
-148.416986
 30
0.0
 11
-14.71365100000002
 21
-141.718213
 31
0.0
  0
LINE
  5
17F26
330
1F
100
AcDbEntity
  8
0
100
AcDbLine
 10
-7.661642000000028
 20
-149.2656839999999
 30
0.0
 11
-14.50287100000002
 21
-142.106022
 31
0.0
  0
LINE
  5
17F27
330
1F
100
AcDbEntity
  8
0
100
AcDbLine
 10
-8.217332999999939
 20
-148.6841279999999
 30
0.0
 11
-6.755437000000029
 21
-148.705829
 31
0.0
  0
LINE
  5
17F28
330
1F
100
AcDbEntity
  8
0
100
AcDbLine
 10
-7.661642000000028
 20
-149.2656839999999
 30
0.0
 11
-7.58441700000003
 21
-149.24814
 31
0.0
  0
LINE
  5
17F29
330
1F
100
AcDbEntity
  8
0
100
AcDbLine
 10
-7.389357000000018
 20
-148.6964189999999
 30
0.0
 11
-8.312812000000008
 21
-148.416986
 31
0.0
  0
LINE
  5
17F2A
330
1F
100
AcDbEntity
  8
0
100
AcDbLine
 10
-3.47968000000003
 20
-153.543937
 30
0.0
 11
-7.58441700000003
 21
-149.24814
 31
0.0
  0
LINE
  5
17F2B
330
1F
100
AcDbEntity
  8
0
100
AcDbLine
 10
-0.1870569999999816
 20
-155.579942
 30
0.0
 11
-6.755437000000029
 21
-148.705829
 31
0.0
  0
ELLIPSE
  5
17F2C
330
1F
100
AcDbEntity
  8
0
100
AcDbEllipse
 10
1.075742999999988
 20
-161.861528
 30
0.0
 11
10.708083557212
 21
-10.50413949506399
 31
0.0
210
0.0
220
0.0
230
-1.0
 40
0.22430953333333
 41
3.14159419794193
 42
4.045883524539719
  0
ELLIPSE
  5
17F2D
330
1F
100
AcDbEntity
  8
0
100
AcDbEllipse
 10
1.075742999999988
 20
-161.861528
 30
0.0
 11
10.708083557212
 21
-10.50413949506399
 31
0.0
210
0.0
220
0.0
230
-1.0
 40
0.22430953333333
 41
3.047498109911159
 42
3.14159419794193
  0
LINE
  5
17F2E
330
1F
100
AcDbEntity
  8
0
100
AcDbLine
 10
-10.06063500000004
 20
-151.552579
 30
0.0
 11
-17.73799199999996
 21
-159.378992
 31
0.0
  0
LINE
  5
17F2F
330
1F
100
AcDbEntity
  8
0
100
AcDbLine
 10
-9.806345999999962
 20
-151.629525
 30
0.0
 11
-17.88978899999995
 21
-159.869909
 31
0.0
  0
LINE
  5
17F30
330
1F
100
AcDbEntity
  8
0
100
AcDbLine
 10
-9.806345999999962
 20
-151.629525
 30
0.0
 11
-10.06063500000004
 21
-151.552579
 31
0.0
  0
LINE
  5
17F31
330
1F
100
AcDbEntity
  8
0
100
AcDbLine
 10
-3.47968000000003
 20
-153.543937
 30
0.0
 11
-10.98642800000004
 21
-161.1964299999999
 31
0.0
  0
LINE
  5
17F32
330
1F
100
AcDbEntity
  8
0
100
AcDbLine
 10
-3.692534000000023
 20
-153.4795289999999
 30
0.0
 11
-13.92900900000006
 21
-163.914746
 31
0.0
  0
LINE
  5
17F33
330
1F
100
AcDbEntity
  8
0
100
AcDbLine
 10
-3.692534000000023
 20
-153.4795289999999
 30
0.0
 11
-3.47968000000003
 21
-153.543937
 31
0.0
  0
LINE
  5
17F34
330
1F
100
AcDbEntity
  8
0
100
AcDbLine
 10
-0.6775119999999788
 20
-155.0666579999999
 30
0.0
 11
-1.25532499999997
 21
-153.9768209999999
 31
0.0
  0
LINE
  5
17F35
330
1F
100
AcDbEntity
  8
0
100
AcDbLine
 10
-0.0017450000000281
 20
-156.0434539999999
 30
0.0
 11
0.0
 21
-157.5
 31
0.0
  0
LINE
  5
17F36
330
1F
100
AcDbEntity
  8
0
100
AcDbLine
 10
-0.0017450000000281
 20
-156.0434539999999
 30
0.0
 11
-0.1870569999999816
 21
-155.579942
 31
0.0
  0
LINE
  5
17F37
330
1F
100
AcDbEntity
  8
0
100
AcDbLine
 10
-0.1842080000000123
 20
-157.958027
 30
0.0
 11
0.0
 21
-157.5
 31
0.0
  0
LINE
  5
17F38
330
1F
100
AcDbEntity
  8
0
100
AcDbLine
 10
-6.551819000000023
 20
-164.4492649999999
 30
0.0
 11
-0.1842080000000123
 21
-157.958027
 31
0.0
  0
LINE
  5
17F39
330
1F
100
AcDbEntity
  8
0
100
AcDbLine
 10
-11.18388300000003
 20
-168.4063940000001
 30
0.0
 11
-7.475882000000069
 21
-164.6264019999999
 31
0.0
  0
LINE
  5
17F3A
330
1F
100
AcDbEntity
  8
0
100
AcDbLine
 10
-11.94840799999997
 20
-168.580084
 30
0.0
 11
-8.29311999999993
 21
-164.853828
 31
0.0
  0
LINE
  5
17F3B
330
1F
100
AcDbEntity
  8
0
100
AcDbLine
 10
-11.94840799999997
 20
-168.580084
 30
0.0
 11
-11.18388300000003
 21
-168.4063940000001
 31
0.0
  0
LINE
  5
17F3C
330
1F
100
AcDbEntity
  8
0
100
AcDbLine
 10
-6.997641000000044
 20
-164.633501
 30
0.0
 11
-8.407659999999964
 21
-164.6125709999999
 31
0.0
  0
LINE
  5
17F3D
330
1F
100
AcDbEntity
  8
0
100
AcDbLine
 10
-8.29311999999993
 20
-164.853828
 30
0.0
 11
-7.873627000000055
 21
-164.620498
 31
0.0
  0
LINE
  5
17F3E
330
1F
100
AcDbEntity
  8
0
100
AcDbLine
 10
-8.853938999999968
 20
-164.415093
 30
0.0
 11
-8.407659999999964
 21
-164.6125709999999
 31
0.0
  0
LINE
  5
17F3F
330
1F
100
AcDbEntity
  8
0
100
AcDbLine
 10
-8.608614999999986
 20
-164.5236479999999
 30
0.0
 11
-8.29311999999993
 21
-164.853828
 31
0.0
  0
LINE
  5
17F40
330
1F
100
AcDbEntity
  8
0
100
AcDbLine
 10
-6.997641000000044
 20
-164.633501
 30
0.0
 11
-6.551819000000023
 21
-164.4492649999999
 31
0.0
  0
LINE
  5
17F41
330
1F
100
AcDbEntity
  8
0
100
AcDbLine
 10
-11.54873699999996
 20
-161.594863
 30
0.0
 11
-8.853938999999968
 21
-164.415093
 31
0.0
  0
LINE
  5
17F42
330
1F
100
AcDbEntity
  8
0
100
AcDbLine
 10
-11.11864600000001
 20
-161.156422
 30
0.0
 11
-10.98642800000004
 21
-161.1964299999999
 31
0.0
  0
LINE
  5
17F43
330
1F
100
AcDbEntity
  8
0
100
AcDbLine
 10
-13.84837300000003
 20
-163.939146
 30
0.0
 11
-11.11864600000001
 21
-161.156422
 31
0.0
  0
ELLIPSE
  5
17F44
330
1F
100
AcDbEntity
  8
0
100
AcDbEllipse
 10
-9.160731999999939
 20
-172.2967449999999
 30
0.0
 11
10.708083557212
 21
-10.50413949506399
 31
0.0
210
0.0
220
0.0
230
-1.0
 40
0.22430953333333
 41
3.2682182039545
 42
4.045883524539719
  0
ELLIPSE
  5
17F45
330
1F
100
AcDbEntity
  8
0
100
AcDbEllipse
 10
-11.10612600000001
 20
-174.279909
 30
0.0
 11
4.912310639624999
 21
-15.39751041805899
 31
0.0
210
0.0
220
0.0
230
-1.0
 40
0.6041594790782402
 41
2.832525728958549
 42
2.92662030172964
  0
ELLIPSE
  5
17F46
330
1F
100
AcDbEntity
  8
0
100
AcDbEllipse
 10
-11.10612600000001
 20
-174.279909
 30
0.0
 11
4.912310639624999
 21
-15.39751041805899
 31
0.0
210
0.0
220
0.0
230
-1.0
 40
0.6041594790782402
 41
2.705903463571339
 42
2.832525728958549
  0
LINE
  5
17F47
330
1F
100
AcDbEntity
  8
0
100
AcDbLine
 10
-17.88978899999995
 20
-159.869909
 30
0.0
 11
-17.73799199999996
 21
-159.378992
 31
0.0
  0
LINE
  5
17F88
330
1F
100
AcDbEntity
  8
AM_0
100
AcDbLine
 10
-14.68853048429218
 20
-141.7125059751222
 30
0.0
 11
-21.99999999999994
 21
-134.4010364594145
 31
0.0
  0
LINE
  5
17F89
330
1F
100
AcDbEntity
  8
AM_0
100
AcDbLine
 10
-1.89999999999992
 20
-153.3021388184846
 30
0.0
 11
-1.900000000000034
 21
153.3021388184845
 31
0.0
  0
LINE
  5
17F8B
330
1F
100
AcDbEntity
  8
AM_3
100
AcDbLine
 10
-1.900000000000034
 20
154.6010364594146
 30
0.0
 11
-1.900000000000034
 21
153.3021388184845
 31
0.0
  0
LINE
  5
17F8C
330
1F
100
AcDbEntity
  8
AM_0
100
AcDbLine
 10
-14.7479046961572
 20
141.7531317632574
 30
0.0
 11
-22.00000000000005
 21
134.5010364594146
 31
0.0
  0
LINE
  5
17F8D
330
1F
100
AcDbEntity
  8
AM_0
100
AcDbLine
 10
-27.29999999999978
 20
-161.1999999999999
 30
0.0
 11
-26.89213237966566
 21
-161.1999999999999
 31
0.0
  0
LINE
  5
17F8E
330
1F
100
AcDbEntity
  8
AM_0
100
AcDbLine
 10
-27.6999999999997
 20
-161.5999999999998
 30
0.0
 11
-27.69999999999976
 21
-162.0235525892864
 31
0.0
  0
LINE
  5
17F8F
330
1F
100
AcDbEntity
  8
AM_0
100
AcDbLine
 10
-27.99598028499554
 20
-166.8959802849954
 30
0.0
 11
-28.7000000000001
 21
-167.6
 31
0.0
  0
LINE
  5
17F90
330
1F
100
AcDbEntity
  8
AM_0
100
AcDbLine
 10
-27.99598028499554
 20
166.8959802849954
 30
0.0
 11
-28.7000000000001
 21
167.6
 31
0.0
  0
LINE
  5
17F91
330
1F
100
AcDbEntity
  8
AM_0
100
AcDbLine
 10
-27.69999999999976
 20
162.0235525892864
 30
0.0
 11
-27.69999999999976
 21
161.5999999999999
 31
0.0
  0
LINE
  5
17F92
330
1F
100
AcDbEntity
  8
AM_0
100
AcDbLine
 10
-27.29999999999976
 20
161.1999999999999
 30
0.0
 11
-27.16806150953726
 21
161.1999999999999
 31
0.0
  0
DIMENSION
  5
17FF5
330
1F
100
AcDbEntity
  8
AM_5
100
AcDbDimension
  2
*D14
 10
-0.1842080000000123
 20
-157.958027
 30
0.0
 11
-13.29047683329165
 21
-190.2976611280583
 31
0.0
 70
    34
  1
45%%d
  3
AM_JIS$2
100
AcDb2LineAngularDimension
 13
0.0
 23
157.5
 33
0.0
 14
0.0
 24
-157.5
 34
0.0
 15
-6.551819000000023
 25
-164.4492649999999
 35
0.0
 16
-18.90630071543554
 26
-191.0070640803725
 36
0.0
1001
ACAD
1000
DSTYLE
1002
{
1070
   179
1070
     3
1002
}
1001
GENIUS_GENDTOL_13
1000

1000
h7
1000

1040
0.0
  0
ARC
  5
180FA
330
1F
100
AcDbEntity
  8
AM_0
100
AcDbCircle
 10
-27.29999999999976
 20
161.5999999999999
 30
0.0
 40
0.4
100
AcDbArc
 50
180.0
 51
270.0
1001
GENIUS_GENODEF_13
1002
{
1000
HIER
1070
     0
1002
}
1002
{
1000
MANEDIT
1070
     0
1002
}
1002
{
1000
NOSEL
1070
     0
1002
}
1002
{
1000
BEHIND
1070
     0
1002
}
1002
{
1000
REACTOR
1002
}
1001
GENIUS_GENOBJ-N-FIL_13
1002
{
1000
OWNER
1000
GEN
1002
}
  0
ARC
  5
180FD
330
1F
100
AcDbEntity
  8
AM_3
100
AcDbCircle
 10
-23.09999999999998
 20
161.5999999999999
 30
0.0
 40
0.4
100
AcDbArc
 50
270.0
 51
0.0
1001
GENIUS_GENODEF_13
1002
{
1000
HIER
1070
     0
1002
}
1002
{
1000
MANEDIT
1070
     0
1002
}
1002
{
1000
NOSEL
1070
     0
1002
}
1002
{
1000
BEHIND
1070
     0
1002
}
1002
{
1000
REACTOR
1002
}
1001
GENIUS_GENOBJ-N-FIL_13
1002
{
1000
OWNER
1000
GEN
1002
}
  0
LINE
  5
18100
330
1F
100
AcDbEntity
  8
AM_3
100
AcDbLine
 10
-19.69999999999998
 20
167.5999999999999
 30
0.0
 11
-22.69999999999998
 21
164.5999999999999
 31
0.0
1001
GENIUS_GENFIL_13
1070
     0
1040
3.0
1040
3.0
1040
20.0
1040
0.0
1002
{
1002
}
1001
GENIUS_GENODEF_13
1002
{
1000
HIER
1070
     0
1002
}
1002
{
1000
MANEDIT
1070
     0
1002
}
1002
{
1000
NOSEL
1070
     0
1002
}
1002
{
1000
BEHIND
1070
     0
1002
}
1002
{
1000
REACTOR
1002
}
1001
GENIUS_GENOBJ-N-CHA_13
1002
{
1000
OWNER
1000
GEN
1002
}
  0
ARC
  5
18103
330
1F
100
AcDbEntity
  8
AM_0
100
AcDbCircle
 10
-35.17157287525376
 20
165.5999999999999
 30
0.0
 40
2.0
100
AcDbArc
 50
90.00000000000049
 51
134.9999999999997
1001
GENIUS_GENODEF_13
1002
{
1000
HIER
1070
     0
1002
}
1002
{
1000
MANEDIT
1070
     0
1002
}
1002
{
1000
NOSEL
1070
     0
1002
}
1002
{
1000
BEHIND
1070
     0
1002
}
1002
{
1000
REACTOR
1002
}
1001
GENIUS_GENOBJ-N-FIL_13
1002
{
1000
OWNER
1000
GEN
1002
}
  0
ARC
  5
18106
330
1F
100
AcDbEntity
  8
AM_0
100
AcDbCircle
 10
-62.51729889353182
 20
123.0
 30
0.0
 40
3.0
100
AcDbArc
 50
270.0
 51
350.0000000000005
1001
GENIUS_GENODEF_13
1002
{
1000
HIER
1070
     0
1002
}
1002
{
1000
MANEDIT
1070
     0
1002
}
1002
{
1000
NOSEL
1070
     0
1002
}
1002
{
1000
BEHIND
1070
     0
1002
}
1002
{
1000
REACTOR
1002
}
1001
GENIUS_GENOBJ-N-FIL_13
1002
{
1000
OWNER
1000
GEN
1002
}
  0
LINE
  5
18109
330
1F
100
AcDbEntity
  8
AM_0
100
AcDbLine
 10
-67.60000000000005
 20
120.0
 30
0.0
 11
-70.00000000000004
 21
117.5999999999999
 31
0.0
1001
GENIUS_GENFIL_13
1070
     0
1040
2.399999999999999
1040
2.399999999999999
1040
20.0
1040
0.0
1002
{
1002
}
1001
GENIUS_GENODEF_13
1002
{
1000
HIER
1070
     0
1002
}
1002
{
1000
MANEDIT
1070
     0
1002
}
1002
{
1000
NOSEL
1070
     0
1002
}
1002
{
1000
BEHIND
1070
     0
1002
}
1002
{
1000
REACTOR
1002
}
1001
GENIUS_GENOBJ-N-CHA_13
1002
{
1000
OWNER
1000
GEN
1002
}
  0
LINE
  5
1810C
330
1F
100
AcDbEntity
  8
AM_0
100
AcDbLine
 10
-67.09999999999964
 20
23.81249999999999
 30
0.0
 11
-69.99999999999966
 21
26.71249999999998
 31
0.0
1001
GENIUS_GENFIL_13
1070
     0
1040
2.9
1040
2.9
1040
20.0
1040
0.0
1002
{
1002
}
1001
GENIUS_GENODEF_13
1002
{
1000
HIER
1070
     0
1002
}
1002
{
1000
MANEDIT
1070
     0
1002
}
1002
{
1000
NOSEL
1070
     0
1002
}
1002
{
1000
BEHIND
1070
     0
1002
}
1002
{
1000
REACTOR
1002
}
1001
GENIUS_GENOBJ-N-CHA_13
1002
{
1000
OWNER
1000
GEN
1002
}
  0
LINE
  5
1810F
330
1F
100
AcDbEntity
  8
AM_0
100
AcDbLine
 10
-68.09999999999959
 20
12.69999999999998
 30
0.0
 11
-69.99999999999961
 21
14.59999999999999
 31
0.0
1001
GENIUS_GENFIL_13
1070
     0
1040
1.9
1040
1.9
1040
20.0
1040
0.0
1002
{
1002
}
1001
GENIUS_GENODEF_13
1002
{
1000
HIER
1070
     0
1002
}
1002
{
1000
MANEDIT
1070
     0
1002
}
1002
{
1000
NOSEL
1070
     0
1002
}
1002
{
1000
BEHIND
1070
     0
1002
}
1002
{
1000
REACTOR
1002
}
1001
GENIUS_GENOBJ-N-CHA_13
1002
{
1000
OWNER
1000
GEN
1002
}
  0
ARC
  5
18112
330
1F
100
AcDbEntity
  8
AM_0
100
AcDbCircle
 10
-57.49999999999972
 20
11.69999999999998
 30
0.0
 40
1.0
100
AcDbArc
 50
0.0000000000011196
 51
90.0
1001
GENIUS_GENODEF_13
1002
{
1000
HIER
1070
     0
1002
}
1002
{
1000
MANEDIT
1070
     0
1002
}
1002
{
1000
NOSEL
1070
     0
1002
}
1002
{
1000
BEHIND
1070
     0
1002
}
1002
{
1000
REACTOR
1002
}
1001
GENIUS_GENOBJ-N-FIL_13
1002
{
1000
OWNER
1000
GEN
1002
}
  0
LINE
  5
18114
330
1F
100
AcDbEntity
  8
AM_3
100
AcDbLine
 10
-19.69999999999998
 20
-167.5999999999999
 30
0.0
 11
-22.69999999999998
 21
-164.5999999999999
 31
0.0
1001
GENIUS_GENFIL_13
1070
     0
1040
3.0
1040
3.0
1040
20.0
1040
0.0
1002
{
1002
}
1001
GENIUS_GENODEF_13
1002
{
1000
HIER
1070
     0
1002
}
1002
{
1000
MANEDIT
1070
     0
1002
}
1002
{
1000
NOSEL
1070
     0
1002
}
1002
{
1000
BEHIND
1070
     0
1002
}
1002
{
1000
REACTOR
1002
}
1001
GENIUS_GENOBJ-N-CHA_13
1002
{
1000
OWNER
1000
GEN
1002
}
  0
ARC
  5
18115
330
1F
100
AcDbEntity
  8
AM_0
100
AcDbCircle
 10
-27.29999999999976
 20
-161.5999999999999
 30
0.0
 40
0.4
100
AcDbArc
 50
90.00000000000003
 51
180.0
1001
GENIUS_GENODEF_13
1002
{
1000
HIER
1070
     0
1002
}
1002
{
1000
MANEDIT
1070
     0
1002
}
1002
{
1000
NOSEL
1070
     0
1002
}
1002
{
1000
BEHIND
1070
     0
1002
}
1002
{
1000
REACTOR
1002
}
1001
GENIUS_GENOBJ-N-FIL_13
1002
{
1000
OWNER
1000
GEN
1002
}
  0
ARC
  5
18116
330
1F
100
AcDbEntity
  8
AM_3
100
AcDbCircle
 10
-23.09999999999998
 20
-161.5999999999999
 30
0.0
 40
0.4
100
AcDbArc
 50
0.0
 51
90.00000000000003
1001
GENIUS_GENODEF_13
1002
{
1000
HIER
1070
     0
1002
}
1002
{
1000
MANEDIT
1070
     0
1002
}
1002
{
1000
NOSEL
1070
     0
1002
}
1002
{
1000
BEHIND
1070
     0
1002
}
1002
{
1000
REACTOR
1002
}
1001
GENIUS_GENOBJ-N-FIL_13
1002
{
1000
OWNER
1000
GEN
1002
}
  0
ARC
  5
18117
330
1F
100
AcDbEntity
  8
AM_0
100
AcDbCircle
 10
-35.17157287525376
 20
-165.5999999999999
 30
0.0
 40
2.0
100
AcDbArc
 50
225.0000000000002
 51
269.9999999999994
1001
GENIUS_GENODEF_13
1002
{
1000
HIER
1070
     0
1002
}
1002
{
1000
MANEDIT
1070
     0
1002
}
1002
{
1000
NOSEL
1070
     0
1002
}
1002
{
1000
BEHIND
1070
     0
1002
}
1002
{
1000
REACTOR
1002
}
1001
GENIUS_GENOBJ-N-FIL_13
1002
{
1000
OWNER
1000
GEN
1002
}
  0
ARC
  5
18118
330
1F
100
AcDbEntity
  8
AM_0
100
AcDbCircle
 10
-62.51729889353182
 20
-123.0
 30
0.0
 40
3.0
100
AcDbArc
 50
9.999999999999493
 51
90.00000000000003
1001
GENIUS_GENODEF_13
1002
{
1000
HIER
1070
     0
1002
}
1002
{
1000
MANEDIT
1070
     0
1002
}
1002
{
1000
NOSEL
1070
     0
1002
}
1002
{
1000
BEHIND
1070
     0
1002
}
1002
{
1000
REACTOR
1002
}
1001
GENIUS_GENOBJ-N-FIL_13
1002
{
1000
OWNER
1000
GEN
1002
}
  0
LINE
  5
18119
330
1F
100
AcDbEntity
  8
AM_0
100
AcDbLine
 10
-67.60000000000005
 20
-120.0
 30
0.0
 11
-70.00000000000004
 21
-117.5999999999999
 31
0.0
1001
GENIUS_GENFIL_13
1070
     0
1040
2.399999999999999
1040
2.399999999999999
1040
20.0
1040
0.0
1002
{
1002
}
1001
GENIUS_GENODEF_13
1002
{
1000
HIER
1070
     0
1002
}
1002
{
1000
MANEDIT
1070
     0
1002
}
1002
{
1000
NOSEL
1070
     0
1002
}
1002
{
1000
BEHIND
1070
     0
1002
}
1002
{
1000
REACTOR
1002
}
1001
GENIUS_GENOBJ-N-CHA_13
1002
{
1000
OWNER
1000
GEN
1002
}
  0
LINE
  5
1811A
330
1F
100
AcDbEntity
  8
AM_0
100
AcDbLine
 10
-67.09999999999964
 20
-23.81249999999999
 30
0.0
 11
-69.99999999999966
 21
-26.71249999999998
 31
0.0
1001
GENIUS_GENFIL_13
1070
     0
1040
2.9
1040
2.9
1040
20.0
1040
0.0
1002
{
1002
}
1001
GENIUS_GENODEF_13
1002
{
1000
HIER
1070
     0
1002
}
1002
{
1000
MANEDIT
1070
     0
1002
}
1002
{
1000
NOSEL
1070
     0
1002
}
1002
{
1000
BEHIND
1070
     0
1002
}
1002
{
1000
REACTOR
1002
}
1001
GENIUS_GENOBJ-N-CHA_13
1002
{
1000
OWNER
1000
GEN
1002
}
  0
LINE
  5
1811B
330
1F
100
AcDbEntity
  8
AM_0
100
AcDbLine
 10
-68.09999999999959
 20
-12.69999999999998
 30
0.0
 11
-69.99999999999961
 21
-14.59999999999999
 31
0.0
1001
GENIUS_GENFIL_13
1070
     0
1040
1.9
1040
1.9
1040
20.0
1040
0.0
1002
{
1002
}
1001
GENIUS_GENODEF_13
1002
{
1000
HIER
1070
     0
1002
}
1002
{
1000
MANEDIT
1070
     0
1002
}
1002
{
1000
NOSEL
1070
     0
1002
}
1002
{
1000
BEHIND
1070
     0
1002
}
1002
{
1000
REACTOR
1002
}
1001
GENIUS_GENOBJ-N-CHA_13
1002
{
1000
OWNER
1000
GEN
1002
}
  0
ARC
  5
1811C
330
1F
100
AcDbEntity
  8
AM_0
100
AcDbCircle
 10
-57.49999999999972
 20
-11.69999999999998
 30
0.0
 40
1.0
100
AcDbArc
 50
270.0
 51
359.9999999999988
1001
GENIUS_GENODEF_13
1002
{
1000
HIER
1070
     0
1002
}
1002
{
1000
MANEDIT
1070
     0
1002
}
1002
{
1000
NOSEL
1070
     0
1002
}
1002
{
1000
BEHIND
1070
     0
1002
}
1002
{
1000
REACTOR
1002
}
1001
GENIUS_GENOBJ-N-FIL_13
1002
{
1000
OWNER
1000
GEN
1002
}
  0
VIEWPORT
  5
110
330
101
100
AcDbEntity
 67
     1
  8
0
100
AcDbViewport
 10
420.5
 20
297.0
 30
0.0
 40
948.9782706766916
 41
628.452
 68
     1
 69
     1
1001
ACAD
1000
MVIEW
1002
{
1070
    16
1010
0.0
1020
0.0
1030
0.0
1010
0.0
1020
0.0
1030
1.0
1040
0.0
1040
628.452
1040
420.5
1040
297.0
1040
50.0
1040
0.0
1040
0.0
1070
     0
1070
   100
1070
     1
1070
     1
1070
     0
1070
     0
1070
     0
1070
     0
1040
0.0
1040
0.0
1040
0.0
1040
10.0
1040
10.0
1040
10.0
1040
10.0
1070
     0
1002
{
1002
}
1002
}
  0
ENDSEC
  0
SECTION
  2
OBJECTS
  0
DICTIONARY
  5
C
330
0
100
AcDbDictionary
  3
ACAD_GROUP
350
D
  3
ACAD_LAYOUT
350
1A
  3
ACAD_MLINESTYLE
350
17
  3
ACAD_PLOTSETTINGS
350
19
  3
ACAD_PLOTSTYLENAME
350
E
  3
ACDBVARIABLEDICTIONARY
350
34
  3
ACMDICTIONARY
350
43
  3
AMG
350
2B
  3
AMGSNAPSETTINGS
350
6E
  3
DWGPROPS
350
181FB
  3
ACDBHEADERROUNDTRIPXREC
350
18208
  0
DICTIONARY
  5
74
330
1F
100
AcDbDictionary
280
     1
  3
ACAD_INDEX
360
181FD
  3
ACAD_LAYOUTSELFREF
360
1822B
  0
DICTIONARY
  5
18230
330
101
100
AcDbDictionary
280
     1
  3
ACAD_LAYOUTSELFREF
360
18231
  0
DICTIONARY
  5
D
102
{ACAD_REACTORS
330
C
102
}
330
C
100
AcDbDictionary
  0
DICTIONARY
  5
1A
102
{ACAD_REACTORS
330
C
102
}
330
C
100
AcDbDictionary
  0
DICTIONARY
  5
17
102
{ACAD_REACTORS
330
C
102
}
330
C
100
AcDbDictionary
  3
STANDARD
350
18
  0
DICTIONARY
  5
19
102
{ACAD_REACTORS
330
C
102
}
330
C
100
AcDbDictionary
  0
ACDBDICTIONARYWDFLT
  5
E
102
{ACAD_REACTORS
330
C
102
}
330
C
100
AcDbDictionary
281
     1
  3
Normal
350
F
100
AcDbDictionaryWithDefault
340
F
  0
DICTIONARY
  5
34
102
{ACAD_REACTORS
330
C
102
}
330
C
100
AcDbDictionary
  3
INDEXCTL
350
35
  3
SORTENTS
350
B5E
  0
DICTIONARY
  5
43
102
{ACAD_REACTORS
330
C
102
}
330
C
100
AcDbDictionary
  3
ACMSTDDICTIONARY
350
260
  0
DICTIONARY
  5
2B
102
{ACAD_REACTORS
330
C
102
}
330
C
100
AcDbDictionary
  3
ACMGSETTINGS
350
2C
  0
DICTIONARY
  5
6E
102
{ACAD_REACTORS
330
C
102
}
330
C
100
AcDbDictionary
  0
XRECORD
  5
181FB
102
{ACAD_REACTORS
330
C
102
}
330
C
100
AcDbXrecord
  1
DWGPROPS COOKIE
  2

  3

  4

  6

  7

  8

  9

300
AmdtFileType=82
301
=
302
=
303
=
304
=
305
=
306
=
307
=
308
=
309
=
 40
0.3153835532407407
 41
2452836.771637361
 42
2453076.498882002
  1

 90
        1
  0
DICTIONARY
  5
18208
102
{ACAD_REACTORS
330
C
102
}
330
C
100
AcDbDictionary
  3
TSTACKALIGN
350
18209
  3
TSTACKSIZE
350
1820A
  3
HYPERLINKBASE
350
1820B
  3
STYLESHEET
350
1820C
  3
LAYOUTDICT
350
1820D
  3
PLOTSETDICT
350
1820E
  3
PLOTSTYLNAMDICT
350
1820F
  3
LWETCUNION
350
18210
  3
INSUNITS
350
18211
  3
CEPSNTYPE
350
18212
  3
FINGERPRINTGUID
350
18213
  3
VERSIONGUID
350
18214
  3
PSVPSCALE
350
18215
  3
DIMSTYLEDATA
350
18216
  3
PUCSORTHOREF
350
18217
  3
PUCSORTHOVIEW
350
18218
  3
PUCSBASE
350
18219
  3
PUCSORGTOP
350
1821A
  3
PUCSORGBOTTOM
350
1821B
  3
PUCSORGLEFT
350
1821C
  3
PUCSORGRIGHT
350
1821D
  3
PUCSORGFRONT
350
1821E
  3
PUCSORGBACK
350
1821F
  3
UCSORTHOREF
350
18220
  3
UCSORTHOVIEW
350
18221
  3
UCSBASE
350
18222
  3
UCSORGTOP
350
18223
  3
UCSORGBOTTOM
350
18224
  3
UCSORGLEFT
350
18225
  3
UCSORGRIGHT
350
18226
  3
UCSORGFRONT
350
18227
  3
UCSORGBACK
350
18228
  0
DICTIONARY
  5
181FD
102
{ACAD_REACTORS
330
74
102
}
330
74
100
AcDbDictionary
  3
*A1
350
181FE
  0
XRECORD
  5
1822B
102
{ACAD_REACTORS
330
74
102
}
330
74
100
AcDbXrecord
340
1F
  0
XRECORD
  5
18231
102
{ACAD_REACTORS
330
18230
102
}
330
18230
100
AcDbXrecord
340
101
  0
MLINESTYLE
  5
18
102
{ACAD_REACTORS
330
17
102
}
330
17
100
AcDbMlineStyle
  2
STANDARD
 70
     0
  3

 62
   256
 51
90.0
 52
90.0
 71
     2
 49
0.5
 62
   256
  6
BYLAYER
 49
-0.5
 62
   256
  6
BYLAYER
  0
ACDBPLACEHOLDER
  5
F
102
{ACAD_REACTORS
330
E
102
}
330
E
100
AcDbPlaceHolder
280
     0
  0
DICTIONARYVAR
  5
35
102
{ACAD_REACTORS
330
34
102
}
330
34
100
DictionaryVariables
280
     0
  1
1
  0
DICTIONARYVAR
  5
B5E
102
{ACAD_REACTORS
330
34
102
}
330
34
100
DictionaryVariables
280
     0
  1
96
  0
DICTIONARY
  5
260
102
{ACAD_REACTORS
330
43
102
}
330
43
100
AcDbDictionary
  0
DICTIONARY
  5
2C
102
{ACAD_REACTORS
330
2B
102
}
330
2B
100
AcDbDictionary
  3
DWGSETTINGS
350
2D
  0
XRECORD
  5
18209
102
{ACAD_REACTORS
330
18208
102
}
330
18208
100
AcDbXrecord
 90
        1
  0
XRECORD
  5
1820A
102
{ACAD_REACTORS
330
18208
102
}
330
18208
100
AcDbXrecord
 90
       70
  0
XRECORD
  5
1820B
102
{ACAD_REACTORS
330
18208
102
}
330
18208
100
AcDbXrecord
  1

  0
XRECORD
  5
1820C
102
{ACAD_REACTORS
330
18208
102
}
330
18208
100
AcDbXrecord
  1
ASAMI.ctb
  0
XRECORD
  5
1820D
102
{ACAD_REACTORS
330
18208
102
}
330
18208
100
AcDbXrecord
340
1A
  0
XRECORD
  5
1820E
102
{ACAD_REACTORS
330
18208
102
}
330
18208
100
AcDbXrecord
340
19
  0
XRECORD
  5
1820F
102
{ACAD_REACTORS
330
18208
102
}
330
18208
100
AcDbXrecord
340
E
  0
XRECORD
  5
18210
102
{ACAD_REACTORS
330
18208
102
}
330
18208
100
AcDbXrecord
 90
    10781
  0
XRECORD
  5
18211
102
{ACAD_REACTORS
330
18208
102
}
330
18208
100
AcDbXrecord
 90
        4
  0
XRECORD
  5
18212
102
{ACAD_REACTORS
330
18208
102
}
330
18208
100
AcDbXrecord
 90
        0
  0
XRECORD
  5
18213
102
{ACAD_REACTORS
330
18208
102
}
330
18208
100
AcDbXrecord
  1
{AFB28963-8C59-40AE-9337-C84526B81ACE}
  0
XRECORD
  5
18214
102
{ACAD_REACTORS
330
18208
102
}
330
18208
100
AcDbXrecord
  1
{582D32A9-B2FD-4C25-A466-56A110BB82A4}
  0
XRECORD
  5
18215
102
{ACAD_REACTORS
330
18208
102
}
330
18208
100
AcDbXrecord
 40
0.0
  0
XRECORD
  5
18216
102
{ACAD_REACTORS
330
18208
102
}
330
18208
100
AcDbXrecord
1000
DSTYLE
1002
{
1070
    79
 70
     2
1070
   341
340
59
1070
   342
340
59
1070
   371
 70
    -1
1070
   372
 70
    -1
1002
}
  0
XRECORD
  5
18217
102
{ACAD_REACTORS
330
18208
102
}
330
18208
100
AcDbXrecord
340
0
  0
XRECORD
  5
18218
102
{ACAD_REACTORS
330
18208
102
}
330
18208
100
AcDbXrecord
 70
     0
  0
XRECORD
  5
18219
102
{ACAD_REACTORS
330
18208
102
}
330
18208
100
AcDbXrecord
340
0
  0
XRECORD
  5
1821A
102
{ACAD_REACTORS
330
18208
102
}
330
18208
100
AcDbXrecord
 10
0.0
 20
0.0
 30
0.0
  0
XRECORD
  5
1821B
102
{ACAD_REACTORS
330
18208
102
}
330
18208
100
AcDbXrecord
 10
0.0
 20
0.0
 30
0.0
  0
XRECORD
  5
1821C
102
{ACAD_REACTORS
330
18208
102
}
330
18208
100
AcDbXrecord
 10
0.0
 20
0.0
 30
0.0
  0
XRECORD
  5
1821D
102
{ACAD_REACTORS
330
18208
102
}
330
18208
100
AcDbXrecord
 10
0.0
 20
0.0
 30
0.0
  0
XRECORD
  5
1821E
102
{ACAD_REACTORS
330
18208
102
}
330
18208
100
AcDbXrecord
 10
0.0
 20
0.0
 30
0.0
  0
XRECORD
  5
1821F
102
{ACAD_REACTORS
330
18208
102
}
330
18208
100
AcDbXrecord
 10
0.0
 20
0.0
 30
0.0
  0
XRECORD
  5
18220
102
{ACAD_REACTORS
330
18208
102
}
330
18208
100
AcDbXrecord
340
0
  0
XRECORD
  5
18221
102
{ACAD_REACTORS
330
18208
102
}
330
18208
100
AcDbXrecord
 70
     0
  0
XRECORD
  5
18222
102
{ACAD_REACTORS
330
18208
102
}
330
18208
100
AcDbXrecord
340
0
  0
XRECORD
  5
18223
102
{ACAD_REACTORS
330
18208
102
}
330
18208
100
AcDbXrecord
 10
0.0
 20
0.0
 30
0.0
  0
XRECORD
  5
18224
102
{ACAD_REACTORS
330
18208
102
}
330
18208
100
AcDbXrecord
 10
0.0
 20
0.0
 30
0.0
  0
XRECORD
  5
18225
102
{ACAD_REACTORS
330
18208
102
}
330
18208
100
AcDbXrecord
 10
0.0
 20
0.0
 30
0.0
  0
XRECORD
  5
18226
102
{ACAD_REACTORS
330
18208
102
}
330
18208
100
AcDbXrecord
 10
0.0
 20
0.0
 30
0.0
  0
XRECORD
  5
18227
102
{ACAD_REACTORS
330
18208
102
}
330
18208
100
AcDbXrecord
 10
0.0
 20
0.0
 30
0.0
  0
XRECORD
  5
18228
102
{ACAD_REACTORS
330
18208
102
}
330
18208
100
AcDbXrecord
 10
0.0
 20
0.0
 30
0.0
  0
LAYER_INDEX
  5
181FE
102
{ACAD_REACTORS
330
181FD
102
}
330
181FD
100
AcDbIndex
 40
2453152.368347963
100
AcDbLayerIndex
  8
0
360
181FF
 90
      119
  8
AM_0
360
18200
 90
       89
  8
AM_7
360
18201
 90
        5
  8
AM_5
360
18202
 90
       10
  8
Defpoints
360
18203
 90
        0
  8
AM_6
360
18204
 90
        1
  8
AM_11
360
18205
 90
       63
  8
AM_3
360
18206
 90
       23
  0
XRECORD
  5
2D
102
{ACAD_REACTORS
330
2C
102
}
330
2C
100
AcDbXrecord
  1
VERSION
140
15.0
  1
PRODUCT
  2
AutoCAD Mechanical 2000
  0
IDBUFFER
  5
181FF
330
0
100
AcDbIdBuffer
330
17F41
330
17F42
330
17F43
330
17F44
330
17F45
330
17F46
330
17F47
330
17EBA
330
17EBB
330
17EBC
330
17EBD
330
17EBE
330
17EBF
330
17EC0
330
17EC1
330
17EC2
330
17EC3
330
17EC4
330
17EC5
330
17EC6
330
17EC7
330
17EC8
330
17EC9
330
17ECA
330
17ECB
330
17ECC
330
17ECD
330
17ECE
330
17ECF
330
17ED0
330
17ED1
330
17ED2
330
17ED3
330
17ED4
330
17ED5
330
17ED6
330
17ED7
330
17ED8
330
17ED9
330
17EDA
330
17EDB
330
17EDC
330
17EDD
330
17EDE
330
17EDF
330
17EE0
330
17EE1
330
17EE2
330
17EE3
330
17EE4
330
17EE5
330
17EE6
330
17EE7
330
17EE8
330
17EEA
330
17EEB
330
17EEC
330
17EED
330
17EEE
330
17EEF
330
17EF0
330
17EF1
330
17EF2
330
17EF3
330
17EF4
330
17EF5
330
17EF6
330
17F0D
330
17F0E
330
17F0F
330
17F10
330
17F11
330
17F12
330
17F13
330
17F14
330
17F15
330
17F16
330
17F17
330
17F18
330
17F19
330
17F1A
330
17F1B
330
17F1C
330
17F1D
330
17F1E
330
17F1F
330
17F20
330
17F21
330
17F22
330
17F23
330
17F24
330
17F25
330
17F26
330
17F27
330
17F28
330
17F29
330
17F2A
330
17F2B
330
17F2C
330
17F2D
330
17F2E
330
17F2F
330
17F30
330
17F31
330
17F32
330
17F33
330
17F34
330
17F35
330
17F36
330
17F37
330
17F38
330
17F39
330
17F3A
330
17F3B
330
17F3C
330
17F3D
330
17F3E
330
17F3F
330
17F40
  0
IDBUFFER
  5
18200
330
0
100
AcDbIdBuffer
330
16D43
330
16D49
330
16D4E
330
16D4F
330
16D57
330
16D5A
330
16D5B
330
16D5C
330
16D60
330
16D61
330
16D65
330
16D66
330
16D67
330
16D68
330
16D69
330
16F6D
330
16F86
330
16F90
330
17F88
330
17F89
330
17F8C
330
17F8D
330
17F8E
330
17F8F
330
17F90
330
17F91
330
17F92
330
180FA
330
18103
330
18106
330
18109
330
1810C
330
1810F
330
18112
330
18115
330
18117
330
18118
330
18119
330
1811A
330
1811B
330
1811C
330
16CCD
330
16CCE
330
16CD1
330
16CD2
330
16CD3
330
16CD4
330
16CE6
330
16CE7
330
16CE8
330
16CE9
330
16CED
330
16CF2
330
16CF3
330
16CFC
330
16D07
330
16D08
330
16D09
330
16D0A
330
16D0B
330
16D0C
330
16D0F
330
16D12
330
16D17
330
16D1C
330
16D1D
330
16D1F
330
16D21
330
16D22
330
16D23
330
16D24
330
16D27
330
16D28
330
16D29
330
16D2A
330
16D2B
330
16D2E
330
16D2F
330
16D32
330
16D34
330
16D35
330
16D37
330
16D39
330
16D3A
330
16D3B
330
16D3C
330
16D40
330
16D41
330
16D42
  0
IDBUFFER
  5
18201
330
0
100
AcDbIdBuffer
330
16CEB
330
16CEC
330
16D15
330
16D20
330
16D45
  0
IDBUFFER
  5
18202
330
0
100
AcDbIdBuffer
330
17C79
330
17C7A
330
17C7B
330
17C7C
330
17D34
330
17D35
330
17D36
330
17D37
330
17DC2
330
17FF5
  0
IDBUFFER
  5
18203
330
0
100
AcDbIdBuffer
  0
IDBUFFER
  5
18204
330
0
100
AcDbIdBuffer
330
E5A
  0
IDBUFFER
  5
18205
330
0
100
AcDbIdBuffer
330
16D4C
330
16D4D
330
16D50
330
16D51
330
16D52
330
16D53
330
16D54
330
16D55
330
16D56
330
16D5D
330
16D5E
330
16D5F
330
16D62
330
16D63
330
17EE9
330
16CD0
330
16CE3
330
16CE4
330
16CE5
330
16CEA
330
16CEE
330
16CEF
330
16CF4
330
16CF5
330
16CF6
330
16CF7
330
16CF8
330
16CF9
330
16CFA
330
16CFB
330
16CFD
330
16CFE
330
16CFF
330
16D00
330
16D01
330
16D02
330
16D03
330
16D04
330
16D05
330
16D06
330
16D0D
330
16D0E
330
16D10
330
16D11
330
16D13
330
16D14
330
16D18
330
16D19
330
16D1A
330
16D1B
330
16D1E
330
16D2D
330
16D33
330
16D38
330
16D3D
330
16D3E
330
16D3F
330
16D44
330
16D46
330
16D47
330
16D48
330
16D4A
330
16D4B
  0
IDBUFFER
  5
18206
330
0
100
AcDbIdBuffer
330
16F91
330
16F92
330
17F8B
330
180FD
330
18100
330
18114
330
18116
330
16CCF
330
16CD6
330
16CE2
330
16D16
330
16D64
330
16D6A
330
16D6C
330
16D6F
330
16D71
330
16D74
330
16F71
330
16F89
330
16F8A
330
16F8B
330
16F8D
330
16F8F
  0
ENDSEC
  0
EOF
