  0
SECTION
  2
HEADER
  9
$ACADVER
  1
AC1018
  9
$ACADMAINTVER
 70
    39
  9
$DWGCODEPAGE
  3
ANSI_936
  9
$CUSTOMPROPERTYTAG
  1
AmdtFileType
  9
$CUSTOMPROPERTY
  1
84
  9
$INSBASE
 10
0.0
 20
0.0
 30
0.0
  9
$EXTMIN
 10
-134.9176022239062
 20
-119.6715238458303
 30
-0.0015258207003583
  9
$EXTMAX
 10
227.9828291600402
 20
212.2619599851952
 30
0.0000000349246037
  9
$LIMMIN
 10
0.0
 20
0.0
  9
$LIMMAX
 10
420.0
 20
297.0
  9
$ORTHOMODE
 70
     1
  9
$REGENMODE
 70
     1
  9
$FILLMODE
 70
     1
  9
$QTEXTMODE
 70
     0
  9
$MIRRTEXT
 70
     1
  9
$LTSCALE
 40
1.0
  9
$ATTMODE
 70
     1
  9
$TEXTSIZE
 40
3.799999999999999
  9
$TRACEWID
 40
1.0
  9
$TEXTSTYLE
  7
ACISOTS
  9
$CLAYER
  8
AM_0
  9
$CELTYPE
  6
ByLayer
  9
$CECOLOR
 62
   256
  9
$CELTSCALE
 40
1.0
  9
$DISPSILH
 70
     0
  9
$DIMSCALE
 40
1.0
  9
$DIMASZ
 40
2.5
  9
$DIMEXO
 40
0.0
  9
$DIMDLI
 40
10.0
  9
$DIMRND
 40
0.0
  9
$DIMDLE
 40
0.0
  9
$DIMEXE
 40
1.0
  9
$DIMTP
 40
0.1
  9
$DIMTM
 40
0.1000000001
  9
$DIMTXT
 40
3.799999999999999
  9
$DIMCEN
 40
0.0
  9
$DIMTSZ
 40
0.0
  9
$DIMTOL
 70
     0
  9
$DIMLIM
 70
     0
  9
$DIMTIH
 70
     0
  9
$DIMTOH
 70
     0
  9
$DIMSE1
 70
     0
  9
$DIMSE2
 70
     0
  9
$DIMTAD
 70
     3
  9
$DIMZIN
 70
     1
  9
$DIMBLK
  1
Open30
  9
$DIMASO
 70
     1
  9
$DIMSHO
 70
     1
  9
$DIMPOST
  1

  9
$DIMAPOST
  1
"
  9
$DIMALT
 70
     0
  9
$DIMALTD
 70
     2
  9
$DIMALTF
 40
0.0393701
  9
$DIMLFAC
 40
1.0
  9
$DIMTOFL
 70
     1
  9
$DIMTVP
 40
0.0
  9
$DIMTIX
 70
     0
  9
$DIMSOXD
 70
     0
  9
$DIMSAH
 70
     0
  9
$DIMBLK1
  1

  9
$DIMBLK2
  1

  9
$DIMSTYLE
  2
AM_JIS
  9
$DIMCLRD
 70
   256
  9
$DIMCLRE
 70
   256
  9
$DIMCLRT
 70
     2
  9
$DIMTFAC
 40
0.71
  9
$DIMGAP
 40
1.5
  9
$DIMJUST
 70
     0
  9
$DIMSD1
 70
     0
  9
$DIMSD2
 70
     0
  9
$DIMTOLJ
 70
     0
  9
$DIMTZIN
 70
     8
  9
$DIMALTZ
 70
     0
  9
$DIMALTTZ
 70
     0
  9
$DIMUPT
 70
     0
  9
$DIMDEC
 70
     0
  9
$DIMTDEC
 70
     2
  9
$DIMALTU
 70
     2
  9
$DIMALTTD
 70
     2
  9
$DIMTXSTY
  7
STANDARD
  9
$DIMAUNIT
 70
     1
  9
$DIMADEC
 70
     1
  9
$DIMALTRND
 40
0.0
  9
$DIMAZIN
 70
     0
  9
$DIMDSEP
 70
    46
  9
$DIMATFIT
 70
     3
  9
$DIMFRAC
 70
     0
  9
$DIMLDRBLK
  1
Open30
  9
$DIMLUNIT
 70
     2
  9
$DIMLWD
 70
    -1
  9
$DIMLWE
 70
    -1
  9
$DIMTMOVE
 70
     0
  9
$LUNITS
 70
     2
  9
$LUPREC
 70
     2
  9
$SKETCHINC
 40
1.0
  9
$FILLETRAD
 40
3.0
  9
$AUNITS
 70
     0
  9
$AUPREC
 70
     0
  9
$MENU
  1
.
  9
$ELEVATION
 40
0.0
  9
$PELEVATION
 40
0.0
  9
$THICKNESS
 40
0.0
  9
$LIMCHECK
 70
     0
  9
$CHAMFERA
 40
2.0
  9
$CHAMFERB
 40
2.0
  9
$CHAMFERC
 40
20.0
  9
$CHAMFERD
 40
0.0
  9
$SKPOLY
 70
     0
  9
$TDCREATE
 40
2455413.706588172
  9
$TDUCREATE
 40
2455413.373254838
  9
$TDUPDATE
 40
2455544.637415359
  9
$TDUUPDATE
 40
2455544.304082025
  9
$TDINDWG
 40
0.3682429282
  9
$TDUSRTIMER
 40
0.3682429282
  9
$USRTIMER
 70
     1
  9
$ANGBASE
 50
0.0
  9
$ANGDIR
 70
     0
  9
$PDMODE
 70
     0
  9
$PDSIZE
 40
0.0
  9
$PLINEWID
 40
0.0
  9
$SPLFRAME
 70
     0
  9
$SPLINETYPE
 70
     6
  9
$SPLINESEGS
 70
     8
  9
$HANDSEED
  5
258F
  9
$SURFTAB1
 70
     6
  9
$SURFTAB2
 70
     6
  9
$SURFTYPE
 70
     6
  9
$SURFU
 70
     6
  9
$SURFV
 70
     6
  9
$UCSBASE
  2

  9
$UCSNAME
  2

  9
$UCSORG
 10
0.0
 20
0.0
 30
0.0
  9
$UCSXDIR
 10
1.0
 20
0.0
 30
0.0
  9
$UCSYDIR
 10
0.0
 20
1.0
 30
0.0
  9
$UCSORTHOREF
  2

  9
$UCSORTHOVIEW
 70
     0
  9
$UCSORGTOP
 10
0.0
 20
0.0
 30
0.0
  9
$UCSORGBOTTOM
 10
0.0
 20
0.0
 30
0.0
  9
$UCSORGLEFT
 10
0.0
 20
0.0
 30
0.0
  9
$UCSORGRIGHT
 10
0.0
 20
0.0
 30
0.0
  9
$UCSORGFRONT
 10
0.0
 20
0.0
 30
0.0
  9
$UCSORGBACK
 10
0.0
 20
0.0
 30
0.0
  9
$PUCSBASE
  2

  9
$PUCSNAME
  2

  9
$PUCSORG
 10
0.0
 20
0.0
 30
0.0
  9
$PUCSXDIR
 10
1.0
 20
0.0
 30
0.0
  9
$PUCSYDIR
 10
0.0
 20
1.0
 30
0.0
  9
$PUCSORTHOREF
  2

  9
$PUCSORTHOVIEW
 70
     0
  9
$PUCSORGTOP
 10
0.0
 20
0.0
 30
0.0
  9
$PUCSORGBOTTOM
 10
0.0
 20
0.0
 30
0.0
  9
$PUCSORGLEFT
 10
0.0
 20
0.0
 30
0.0
  9
$PUCSORGRIGHT
 10
0.0
 20
0.0
 30
0.0
  9
$PUCSORGFRONT
 10
0.0
 20
0.0
 30
0.0
  9
$PUCSORGBACK
 10
0.0
 20
0.0
 30
0.0
  9
$USERI1
 70
     0
  9
$USERI2
 70
     0
  9
$USERI3
 70
     0
  9
$USERI4
 70
     0
  9
$USERI5
 70
     0
  9
$USERR1
 40
0.0
  9
$USERR2
 40
0.0
  9
$USERR3
 40
0.0
  9
$USERR4
 40
0.0
  9
$USERR5
 40
0.0
  9
$WORLDVIEW
 70
     1
  9
$SHADEDGE
 70
     3
  9
$SHADEDIF
 70
    70
  9
$TILEMODE
 70
     1
  9
$MAXACTVP
 70
    64
  9
$PINSBASE
 10
0.0
 20
0.0
 30
0.0
  9
$PLIMCHECK
 70
     0
  9
$PEXTMIN
 10
1.000000000000000E+20
 20
1.000000000000000E+20
 30
1.000000000000000E+20
  9
$PEXTMAX
 10
-1.000000000000000E+20
 20
-1.000000000000000E+20
 30
-1.000000000000000E+20
  9
$PLIMMIN
 10
0.0
 20
0.0
  9
$PLIMMAX
 10
420.0
 20
297.0
  9
$UNITMODE
 70
     0
  9
$VISRETAIN
 70
     1
  9
$PLINEGEN
 70
     0
  9
$PSLTSCALE
 70
     1
  9
$TREEDEPTH
 70
  3020
  9
$CMLSTYLE
  2
Standard
  9
$CMLJUST
 70
     0
  9
$CMLSCALE
 40
20.0
  9
$PROXYGRAPHICS
 70
     1
  9
$MEASUREMENT
 70
     1
  9
$CELWEIGHT
370
    -1
  9
$ENDCAPS
280
     0
  9
$JOINSTYLE
280
     0
  9
$LWDISPLAY
290
     1
  9
$INSUNITS
 70
     4
  9
$HYPERLINKBASE
  1

  9
$STYLESHEET
  1

  9
$XEDIT
290
     1
  9
$CEPSNTYPE
380
     0
  9
$PSTYLEMODE
290
     1
  9
$FINGERPRINTGUID
  2
{4EF443E9-F763-4CB6-8927-D1E34FDC1C5A}
  9
$VERSIONGUID
  2
{F76B24B0-FDBA-42D3-96F9-849CF6CC64F1}
  9
$EXTNAMES
290
     1
  9
$PSVPSCALE
 40
0.0
  9
$OLESTARTUP
290
     0
  9
$SORTENTS
280
   127
  9
$INDEXCTL
280
     0
  9
$HIDETEXT
280
     0
  9
$XCLIPFRAME
290
     0
  9
$HALOGAP
280
     0
  9
$OBSCOLOR
 70
   257
  9
$OBSLTYPE
280
     0
  9
$INTERSECTIONDISPLAY
280
     0
  9
$INTERSECTIONCOLOR
 70
   257
  9
$DIMASSOC
280
     2
  9
$PROJECTNAME
  1

  0
ENDSEC
  0
SECTION
  2
CLASSES
  0
CLASS
  1
ACDBDICTIONARYWDFLT
  2
AcDbDictionaryWithDefault
  3
ObjectDBX Classes
 90
        0
 91
        1
280
     0
281
     0
  0
CLASS
  1
ACME_DOCUMENT
  2
AcMeDbDoc
  3
AcMeServices
 90
        0
 91
        2
280
     0
281
     0
  0
CLASS
  1
AMGSETTINGSOBJ
  2
AmgSettingsObj
  3
"AcadM|Product Description: AutoCAD Mechanical 2000|Company: Autodesk"
 90
        0
 91
        2
280
     0
281
     0
  0
CLASS
  1
ACMESCOPE
  2
AcMeScope
  3
AcMeServices
 90
        0
 91
        1
280
     0
281
     0
  0
CLASS
  1
ACMECOMMANDHISTORY
  2
AcMeCommandHistory
  3
AcMeServices
 90
        0
 91
        1
280
     0
281
     0
  0
CLASS
  1
ACIMSYSVARMAN
  2
AcImSysVarManager
  3
AcMeServices
 90
        0
 91
        5
280
     0
281
     0
  0
CLASS
  1
ACIMREALSYSVAR
  2
AcImRealSysVar
  3
AcMeServices
 90
        0
 91
        1
280
     0
281
     0
  0
CLASS
  1
ACIMINTSYSVAR
  2
AcImIntSysVar
  3
AcMeServices
 90
        0
 91
       26
280
     0
281
     0
  0
CLASS
  1
ACMEDRAWINGMAN
  2
AcMeDrawingMan
  3
AcMeServices
 90
        0
 91
        1
280
     0
281
     0
  0
CLASS
  1
ACMEVIEW
  2
AcMeView
  3
AcMeServices
 90
        0
 91
        1
280
     0
281
     0
  0
CLASS
  1
ACDBENTITYCACHE
  2
AcMeEntityCache
  3
AcMeServices
 90
        0
 91
        1
280
     0
281
     0
  0
CLASS
  1
GSMANAGER
  2
AcMeGSManager
  3
AcMeServices
 90
        0
 91
        1
280
     0
281
     0
  0
CLASS
  1
AMDTINTERNALREACTOR
  2
AmdtInternalReactor
  3
AcMeServices
 90
        0
 91
        2
280
     0
281
     0
  0
CLASS
  1
ACMESTATEMGR
  2
AcMeStateMgr
  3
AcMeServices
 90
        0
 91
        1
280
     0
281
     0
  0
CLASS
  1
ACGREFMASTER
  2
AcGrefMaster
  3
AcAttribServices
 90
        0
 91
        1
280
     0
281
     0
  0
CLASS
  1
ACME_DATABASE
  2
AcMeDbDatabase
  3
AcMeServices
 90
        0
 91
        4
280
     0
281
     0
  0
CLASS
  1
ACRFINSADJUSTERMGR
  2
AcRfInsAdjusterMgr
  3
AcMeServices
 90
        0
 91
        1
280
     0
281
     0
  0
CLASS
  1
ACGREFACADMASTER
  2
AcGrefacadMaster
  3
AcGrefServices
 90
        0
 91
        1
280
     0
281
     0
  0
CLASS
  1
AMIMASTER
  2
AmiMaster
  3
AmiServices
 90
        0
 91
        1
280
     0
281
     0
  0
CLASS
  1
ACMDATADICTIONARY
  2
AcmDataDictionary
  3
"AcmSymBB|Product Description: AutoCAD Mechanical 2004 DX|Company: Autodesk"
 90
        0
 91
        1
280
     0
281
     0
  0
CLASS
  1
ACMDATAENTRYBLOCK
  2
AcmDataEntryBlock
  3
"AcmSymBB|Product Description: AutoCAD Mechanical 2004 DX|Company: Autodesk"
 90
        0
 91
        0
280
     0
281
     0
  0
CLASS
  1
ACIMSTRSYSVAR
  2
AcImStrSysVar
  3
AcMeServices
 90
        0
 91
        5
280
     0
281
     0
  0
CLASS
  1
ACMSTANDARDISO
  2
AcmStandardISO
  3
"Amdt_StdImp|Product Description: AutoCAD Mechanical 2004 DX|Company: Autodesk"
 90
        0
 91
        1
280
     0
281
     0
  0
CLASS
  1
AMGOBJPROPCFG
  2
AmgObjPropCfg
  3
"AmgLay|Product Description: AutoCAD Mechanical 2000|Company: Autodesk"
 90
        1
 91
        1
280
     0
281
     0
  0
CLASS
  1
AMDTEDGESTANDARDISO
  2
AmdtEdgeStdISO
  3
"Amdt_StdImp|Product Description: AutoCAD Mechanical 2004 DX|Company: Autodesk"
 90
        0
 91
        0
280
     0
281
     0
  0
CLASS
  1
ACMSURFSTANDARDISO
  2
AcmSurfTextStdISO
  3
"Amdt_StdImp|Product Description: AutoCAD Mechanical 2004 DX|Company: Autodesk"
 90
        0
 91
        1
280
     0
281
     0
  0
CLASS
  1
ACMFCFSTANDARDISO
  2
AcmFCFStdISO
  3
"Amdt_StdImp|Product Description: AutoCAD Mechanical 2004 DX|Company: Autodesk"
 90
        0
 91
        1
280
     0
281
     0
  0
CLASS
  1
ACMWELDSTANDARDISO
  2
AcmWeldingStdISO
  3
"Amdt_StdImp|Product Description: AutoCAD Mechanical 2004 DX|Company: Autodesk"
 90
        0
 91
        1
280
     0
281
     0
  0
CLASS
  1
ACMIDSTANDARDISO
  2
AcmIdStdISO
  3
"Amdt_StdImp|Product Description: AutoCAD Mechanical 2004 DX|Company: Autodesk"
 90
        0
 91
        1
280
     0
281
     0
  0
CLASS
  1
ACMDATUMSTANDARDISO
  2
AcmDatumStdISO
  3
"Amdt_StdImp|Product Description: AutoCAD Mechanical 2004 DX|Company: Autodesk"
 90
        0
 91
        1
280
     0
281
     0
  0
CLASS
  1
ACMBOMSTANDARDISO
  2
AcmBOMStdISO
  3
"Amdt_StdImp|Product Description: AutoCAD Mechanical 2004 DX|Company: Autodesk"
 90
        0
 91
        1
280
     0
281
     0
  0
CLASS
  1
ACMDETAILSTANDARDISO
  2
AmdtDetailSymStdISO
  3
"Amdt_StdImp|Product Description: AutoCAD Mechanical 2004 DX|Company: Autodesk"
 90
        0
 91
        1
280
     0
281
     0
  0
CLASS
  1
ACMSECTIONSTANDARDISO
  2
AmdtSectionSymStdISO
  3
"Amdt_StdImp|Product Description: AutoCAD Mechanical 2004 DX|Company: Autodesk"
 90
        0
 91
        1
280
     0
281
     0
  0
CLASS
  1
ACMCENTERLINESTANDARDISO
  2
AmdtCenterLineStdISO
  3
"Amdt_StdImp|Product Description: AutoCAD Mechanical 2004 DX|Company: Autodesk"
 90
        0
 91
        1
280
     0
281
     0
  0
CLASS
  1
ACMNOTESTANDARDISO
  2
AmdtNoteStdISO
  3
"Amdt_StdImp|Product Description: AutoCAD Mechanical 2004 DX|Company: Autodesk"
 90
        0
 91
        1
280
     0
281
     0
  0
CLASS
  1
ACAMGLAYSTD
  2
AcAmgLayStd
  3
"AcAmgLayStd|Product Description: AutoCAD Mechanical 2000|Company: Autodesk"
 90
        0
 91
        2
280
     0
281
     0
  0
CLASS
  1
ACAMGDIMSTD
  2
AcAmgDimStd
  3
"AcAmgDimStd|Product Description: AutoCAD Mechanical 2000|Company: Autodesk"
 90
        0
 91
        2
280
     0
281
     0
  0
CLASS
  1
ACAMGHOLECHARTSTDISO
  2
AcAmgHoleChartStdISO
  3
ACMSYMBB_MODULE_NAME
 90
        0
 91
        1
280
     0
281
     0
  0
CLASS
  1
ACAMGTITLESTD
  2
AcAmgTitleStd
  3
"TITLEAPP"
 90
        0
 91
        2
280
     0
281
     0
  0
CLASS
  1
LAYER_INDEX
  2
AcDbLayerIndex
  3
ObjectDBX Classes
 90
        0
 91
        0
280
     0
281
     0
  0
CLASS
  1
IDBUFFER
  2
AcDbIdBuffer
  3
ObjectDBX Classes
 90
        0
 91
        0
280
     0
281
     0
  0
CLASS
  1
DICTIONARYVAR
  2
AcDbDictionaryVar
  3
ObjectDBX Classes
 90
        0
 91
        3
280
     0
281
     0
  0
CLASS
  1
AM_DRAWING_MGR
  2
AcDmDwgMgr
  3
AcMechDwgViewMgmt
 90
        0
 91
        1
280
     0
281
     0
  0
CLASS
  1
AM_DWG_DOCUMENT
  2
AcDmDwgDocument
  3
AcMechDwgViewMgmt
 90
        0
 91
        1
280
     0
281
     0
  0
CLASS
  1
AM_DWG_SHEET
  2
AcDmSheet
  3
AcMechDwgViewMgmt
 90
        0
 91
        2
280
     0
281
     0
  0
CLASS
  1
AM_VIEWDIMPARMAP
  2
AcDmViewDimParMap
  3
AcMechDwgViewMgmt
 90
        0
 91
        2
280
     0
281
     0
  0
CLASS
  1
AM_DWGMGR_NAME
  2
AcDmDwgMgrName
  3
AcMechDwgViewMgmt
 90
        0
 91
        1
280
     0
281
     0
  0
CLASS
  1
AMDTMENUSTATEMGR
  2
AmdtMenuStateMgr
  3
McadcomServices
 90
        0
 91
        1
280
     0
281
     0
  0
CLASS
  1
AMDTMCOMMENUSTATE
  2
AmdtMcomMenuState
  3
McadcomServices
 90
        0
 91
        1
280
     0
281
     0
  0
CLASS
  1
MAPIAMMOUDLE
  2
MApiAmModule
  3
MApiAmServices
 90
        0
 91
        1
280
     0
281
     0
  0
CLASS
  1
AMDTADMENUSTATE
  2
AmdtAdMenuState
  3
DesignerServices
 90
        0
 91
        1
280
     0
281
     0
  0
CLASS
  1
ADAPPL
  2
AcAdAppl
  3
DesignerServices
 90
        0
 91
        1
280
     0
281
     0
  0
CLASS
  1
DEPMGR
  2
AcAdDepMgr
  3
DesignerServices
 90
        0
 91
        1
280
     0
281
     0
  0
CLASS
  1
PARAMMGR
  2
AcAdParamMgr
  3
DesignerServices
 90
        0
 91
        1
280
     0
281
     0
  0
CLASS
  1
PARAMSCOPE
  2
AcAdParamScope
  3
DesignerServices
 90
        0
 91
        1
280
     0
281
     0
  0
CLASS
  1
NAMEDAPPL
  2
AcAdNamedAppl
  3
DesignerServices
 90
        0
 91
        1
280
     0
281
     0
  0
CLASS
  1
AMDTDMMENUSTATE
  2
AmdtDmMenuState
  3
AcMechDwgViewMgmt
 90
        0
 91
        1
280
     0
281
     0
  0
CLASS
  1
AMDTAMMENUSTATE
  2
AmdtAmMenuState
  3
DesignerAssemblies
 90
        0
 91
        1
280
     0
281
     0
  0
CLASS
  1
ACAMPROJECT
  2
AcAmProject
  3
DesignerAssemblies
 90
        0
 91
        1
280
     0
281
     0
  0
CLASS
  1
ACAMGRCOMPDEF
  2
AcAmGrCompDef
  3
DesignerAssemblies
 90
        0
 91
        1
280
     0
281
     0
  0
CLASS
  1
ACCMCONTEXT
  2
AcCmContext
  3
DesignerAssemblies
 90
        0
 91
        1
280
     0
281
     0
  0
CLASS
  1
ACAMCOMPDEF
  2
AcAmCompDef
  3
DesignerAssemblies
 90
        0
 91
        1
280
     0
281
     0
  0
CLASS
  1
ACAMCOMPDEFMGR
  2
AcAmCompDefMgr
  3
DesignerAssemblies
 90
        0
 91
        1
280
     0
281
     0
  0
CLASS
  1
AMCONTEXTMGR
  2
AcAmContextMgr
  3
DesignerAssemblies
 90
        0
 91
        1
280
     0
281
     0
  0
CLASS
  1
ACAMCONTEXTMODELER
  2
AcAmContextModeler
  3
DesignerAssemblies
 90
        0
 91
        1
280
     0
281
     0
  0
CLASS
  1
ACMTHREADLINESTANDARDISO
  2
AmdtThreadLineStdISO
  3
"Amdt_StdImp|Product Description: AutoCAD Mechanical 2004 DX|Company: Autodesk"
 90
        0
 91
        1
280
     0
281
     0
  0
CLASS
  1
CATALOGSTATE
  2
AcAmCatalogState
  3
DesignerAssemblies
 90
        0
 91
        1
280
     0
281
     0
  0
CLASS
  1
ACAMGRCOMPDEFSET
  2
AcAmGrCompDefSet
  3
DesignerAssemblies
 90
        0
 91
        1
280
     0
281
     0
  0
CLASS
  1
AMDTBROWSERDBTAB
  2
AmdtBrowserDbTab
  3
McadcomServices
 90
        0
 91
        1
280
     0
281
     0
  0
CLASS
  1
CBROWSERAPPOBJECT
  2
CBrowserAppObject
  3
McadcomServices
 90
        0
 91
        3
280
     0
281
     0
  0
CLASS
  1
DM_PLACEHOLDER
  2
AcDmSelsetPlaceholder
  3
AcMechDwgViewMgmt
 90
        0
 91
        1
280
     0
281
     0
  0
CLASS
  1
TABLESTYLE
  2
AcDbTableStyle
  3
ObjectDBX Classes
 90
     2047
 91
        1
280
     0
281
     0
  0
CLASS
  1
VAACXREFPANELOBJECT
  2
VaAcXREFPanelObject
  3
VAAC_ADDIN
 90
        0
 91
        0
280
     0
281
     0
  0
CLASS
  1
VAACIMAGEINVENTORY
  2
VaAcImageInventory
  3
VAAC_ADDIN
 90
        0
 91
        0
280
     0
281
     0
  0
CLASS
  1
AMDTNOTETEMPLATEDB
  2
AmdtNoteTemplateDB
  3
AMDT_STDIMP_MODULE_NAME
 90
        0
 91
       10
280
     0
281
     0
  0
CLASS
  1
ACMBOM
  2
AcmBom
  3
"AcmSymBB|Product Description: AutoCAD Mechanical 2004 DX|Company: Autodesk"
 90
        0
 91
        0
280
     0
281
     0
  0
CLASS
  1
AMDTFORMULAUPDATEDISPATCHER
  2
AmdtFormulaUpdateDispatcher
  3
AcMeServices
 90
        0
 91
        0
280
     0
281
     0
  0
CLASS
  1
ACMPARTLIST
  2
AcmPartList
  3
"AcmSymBB|Product Description: AutoCAD Mechanical 2004 DX|Company: Autodesk"
 90
     1023
 91
        0
280
     0
281
     1
  0
CLASS
  1
ACAMGFILTERDAT
  2
AcAmgFilterDat
  3
"AcadM|Product Description: AutoCAD Mechanical 2000|Company: Autodesk"
 90
        0
 91
        0
280
     0
281
     0
  0
CLASS
  1
ACMSTANDARDJIS
  2
AcmStandardJIS
  3
"Amdt_StdImp|Product Description: AutoCAD Mechanical 2004 DX|Company: Autodesk"
 90
        0
 91
        0
280
     0
281
     0
  0
CLASS
  1
ACMSURFSTANDARDJIS
  2
AcmSurfTextStdJIS
  3
"Amdt_StdImp|Product Description: AutoCAD Mechanical 2004 DX|Company: Autodesk"
 90
        0
 91
        0
280
     0
281
     0
  0
CLASS
  1
ACMFCFSTANDARDJIS98
  2
AcmFCFStdJIS98
  3
"Amdt_StdImp|Product Description: AutoCAD Mechanical 2004 DX|Company: Autodesk"
 90
        0
 91
        0
280
     0
281
     0
  0
CLASS
  1
ACMWELDSTANDARDJIS
  2
AcmWeldingStdJIS
  3
"Amdt_StdImp|Product Description: AutoCAD Mechanical 2004 DX|Company: Autodesk"
 90
        0
 91
        0
280
     0
281
     0
  0
CLASS
  1
ACMIDSTANDARDJIS
  2
AcmIdStdJIS
  3
"Amdt_StdImp|Product Description: AutoCAD Mechanical 2004 DX|Company: Autodesk"
 90
        0
 91
        0
280
     0
281
     0
  0
CLASS
  1
ACMDATUMSTANDARDJIS
  2
AcmDatumStdJIS
  3
"Amdt_StdImp|Product Description: AutoCAD Mechanical 2004 DX|Company: Autodesk"
 90
        0
 91
        0
280
     0
281
     0
  0
CLASS
  1
ACMBOMSTANDARDJIS
  2
AcmBOMStdJIS
  3
"Amdt_StdImp|Product Description: AutoCAD Mechanical 2004 DX|Company: Autodesk"
 90
        0
 91
        0
280
     0
281
     0
  0
CLASS
  1
ACMDETAILSTANDARDJIS
  2
AmdtDetailSymStdJIS
  3
"Amdt_StdImp|Product Description: AutoCAD Mechanical 2004 DX|Company: Autodesk"
 90
        0
 91
        0
280
     0
281
     0
  0
CLASS
  1
ACMSECTIONSTANDARDJIS
  2
AmdtSectionSymStdJIS
  3
"Amdt_StdImp|Product Description: AutoCAD Mechanical 2004 DX|Company: Autodesk"
 90
        0
 91
        0
280
     0
281
     0
  0
CLASS
  1
ACMCENTERLINESTANDARDJIS
  2
AmdtCenterLineStdJIS
  3
"Amdt_StdImp|Product Description: AutoCAD Mechanical 2004 DX|Company: Autodesk"
 90
        0
 91
        0
280
     0
281
     0
  0
CLASS
  1
ACMTHREADLINESTANDARDJIS
  2
AmdtThreadLineStdJIS
  3
"Amdt_StdImp|Product Description: AutoCAD Mechanical 2004 DX|Company: Autodesk"
 90
        0
 91
        0
280
     0
281
     0
  0
CLASS
  1
ACMNOTESTANDARDJIS
  2
AmdtNoteStdJIS
  3
"Amdt_StdImp|Product Description: AutoCAD Mechanical 2004 DX|Company: Autodesk"
 90
        0
 91
        0
280
     0
281
     0
  0
CLASS
  1
ACAMGHOLECHARTSTDJIS
  2
AcAmgHoleChartStdJIS
  3
ACMSYMBB_MODULE_NAME
 90
        0
 91
        0
280
     0
281
     0
  0
CLASS
  1
SORTENTSTABLE
  2
AcDbSortentsTable
  3
ObjectDBX Classes
 90
        0
 91
        1
280
     0
281
     0
  0
CLASS
  1
DIMASSOC
  2
AcDbDimAssoc
  3
"AcDbDimAssoc|Product Desc:     AcDim ARX App For Dimension|Company:          Autodesk, Inc.|WEB Address:      www.autodesk.com"
 90
        0
 91
       13
280
     0
281
     0
  0
CLASS
  1
ACRFATTGENMGR
  2
AcRfAttGeneralMgr
  3
AcAttribServices
 90
        0
 91
        3
280
     0
281
     0
  0
CLASS
  1
AMDTEDGESTANDARDISO13715
  2
AmdtEdgeStdISO13715
  3
"Amdt_StdImp|Product Description: AutoCAD Mechanical 2004 DX|Company: Autodesk"
 90
        0
 91
        1
280
     0
281
     0
  0
CLASS
  1
ACMSTANDARDANSI
  2
AcmStandardANSI
  3
"Amdt_StdImp|Product Description: AutoCAD Mechanical 2004 DX|Company: Autodesk"
 90
        0
 91
        1
280
     0
281
     0
  0
CLASS
  1
ACMSURFSTANDARDANSI
  2
AcmSurfTextStdANSI
  3
"Amdt_StdImp|Product Description: AutoCAD Mechanical 2004 DX|Company: Autodesk"
 90
        0
 91
        1
280
     0
281
     0
  0
CLASS
  1
ACMFCFSTANDARDANSI
  2
AcmFCFStdANSI
  3
"Amdt_StdImp|Product Description: AutoCAD Mechanical 2004 DX|Company: Autodesk"
 90
        0
 91
        1
280
     0
281
     0
  0
CLASS
  1
ACMWELDSTANDARDANSI
  2
AcmWeldingStdANSI
  3
"Amdt_StdImp|Product Description: AutoCAD Mechanical 2004 DX|Company: Autodesk"
 90
        0
 91
        1
280
     0
281
     0
  0
CLASS
  1
ACMIDSTANDARDANSI
  2
AcmIdStdANSI
  3
"Amdt_StdImp|Product Description: AutoCAD Mechanical 2004 DX|Company: Autodesk"
 90
        0
 91
        1
280
     0
281
     0
  0
CLASS
  1
ACMDATUMSTANDARDANSI
  2
AcmDatumStdANSI
  3
"Amdt_StdImp|Product Description: AutoCAD Mechanical 2004 DX|Company: Autodesk"
 90
        0
 91
        1
280
     0
281
     0
  0
CLASS
  1
ACMBOMSTANDARDANSI
  2
AcmBOMStdANSI
  3
"Amdt_StdImp|Product Description: AutoCAD Mechanical 2004 DX|Company: Autodesk"
 90
        0
 91
        1
280
     0
281
     0
  0
CLASS
  1
ACMDETAILSTANDARDANSI
  2
AmdtDetailSymStdANSI
  3
"Amdt_StdImp|Product Description: AutoCAD Mechanical 2004 DX|Company: Autodesk"
 90
        0
 91
        1
280
     0
281
     0
  0
CLASS
  1
ACMSECTIONSTANDARDANSI
  2
AmdtSectionSymStdANSI
  3
"Amdt_StdImp|Product Description: AutoCAD Mechanical 2004 DX|Company: Autodesk"
 90
        0
 91
        1
280
     0
281
     0
  0
CLASS
  1
ACMCENTERLINESTANDARDANSI
  2
AmdtCenterLineStdANSI
  3
"Amdt_StdImp|Product Description: AutoCAD Mechanical 2004 DX|Company: Autodesk"
 90
        0
 91
        1
280
     0
281
     0
  0
CLASS
  1
ACMTHREADLINESTANDARDANSI
  2
AmdtThreadLineStdANSI
  3
"Amdt_StdImp|Product Description: AutoCAD Mechanical 2004 DX|Company: Autodesk"
 90
        0
 91
        1
280
     0
281
     0
  0
CLASS
  1
ACMNOTESTANDARDANSI
  2
AmdtNoteStdANSI
  3
"Amdt_StdImp|Product Description: AutoCAD Mechanical 2004 DX|Company: Autodesk"
 90
        0
 91
        1
280
     0
281
     0
  0
CLASS
  1
ACAMGHOLECHARTSTDANSI
  2
AcAmgHoleChartStdANSI
  3
ACMSYMBB_MODULE_NAME
 90
        0
 91
        1
280
     0
281
     0
  0
ENDSEC
  0
SECTION
  2
TABLES
  0
TABLE
  2
VPORT
  5
8
330
0
100
AcDbSymbolTable
 70
   246
  0
VPORT
  5
258E
330
8
100
AcDbSymbolTableRecord
100
AcDbViewportTableRecord
  2
*Active
 70
     0
 10
0.0
 20
0.0
 11
1.0
 21
1.0
 12
-24.53093106139525
 22
-14.8042057105261
 13
0.0
 23
0.0
 14
2.5
 24
2.5
 15
10.0
 25
10.0
 16
0.0
 26
0.0
 36
1.0
 17
0.0
 27
0.0
 37
0.0
 40
235.14244677575
 41
1.212005108556832
 42
50.0
 43
0.0
 44
0.0
 50
0.0
 51
0.0
 71
     0
 72
  2000
 73
     1
 74
     3
 75
     0
 76
     0
 77
     0
 78
     0
281
     0
 65
     1
110
0.0
120
0.0
130
0.0
111
1.0
121
0.0
131
0.0
112
0.0
122
1.0
132
0.0
 79
     0
146
0.0
  0
ENDTAB
  0
TABLE
  2
LTYPE
  5
5
330
0
100
AcDbSymbolTable
 70
    22
  0
LTYPE
  5
14
330
5
100
AcDbSymbolTableRecord
100
AcDbLinetypeTableRecord
  2
ByBlock
 70
     0
  3

 72
    65
 73
     0
 40
0.0
  0
LTYPE
  5
15
330
5
100
AcDbSymbolTableRecord
100
AcDbLinetypeTableRecord
  2
ByLayer
 70
     0
  3

 72
    65
 73
     0
 40
0.0
  0
LTYPE
  5
16
330
5
100
AcDbSymbolTableRecord
100
AcDbLinetypeTableRecord
  2
Continuous
 70
     0
  3
Solid line
 72
    65
 73
     0
 40
0.0
  0
LTYPE
  5
64
330
5
100
AcDbSymbolTableRecord
100
AcDbLinetypeTableRecord
  2
AM_ISO02W050
 70
     0
  3
__ __ __ __ __ __ __ __ __ __ __ __ __ __ __
 72
    65
 73
     2
 40
7.5
 49
6.0
 74
     0
 49
-1.5
 74
     0
  0
LTYPE
  5
65
330
5
100
AcDbSymbolTableRecord
100
AcDbLinetypeTableRecord
  2
AM_ISO08W050
 70
     0
  3
____ . ____ . ____ . ____ . ____ . ____ . ____
 72
    65
 73
     4
 40
18.0
 49
12.0
 74
     0
 49
-1.5
 74
     0
 49
3.0
 74
     0
 49
-1.5
 74
     0
  0
LTYPE
  5
66
330
5
100
AcDbSymbolTableRecord
100
AcDbLinetypeTableRecord
  2
AM_ISO09W050
 70
     0
  3
_____ . . _____ . . _____ . . ____ .. ____
 72
    65
 73
     6
 40
22.5
 49
12.0
 74
     0
 49
-1.5
 74
     0
 49
3.0
 74
     0
 49
-1.5
 74
     0
 49
3.0
 74
     0
 49
-1.5
 74
     0
  0
LTYPE
  5
67
330
5
100
AcDbSymbolTableRecord
100
AcDbLinetypeTableRecord
  2
Amconstr
 70
     0
  3
_______________________
 72
    65
 73
     2
 40
9999.0
 49
9999.0
 74
     0
 49
0.0
 74
     0
  0
LTYPE
  5
68
330
5
100
AcDbSymbolTableRecord
100
AcDbLinetypeTableRecord
  2
AM_ISO08W050x2
 70
     0
  3
__ . __ . __ . __ . __ . __
 72
    65
 73
     4
 40
9.0
 49
6.0
 74
     0
 49
-0.75
 74
     0
 49
1.5
 74
     0
 49
-0.75
 74
     0
  0
LTYPE
  5
69
330
5
100
AcDbSymbolTableRecord
100
AcDbLinetypeTableRecord
  2
AM_ISO02W050x2
 70
     0
  3
 _ _ _ _ _ _ _ _ _ _ _ _
 72
    65
 73
     2
 40
3.75
 49
3.0
 74
     0
 49
-0.75
 74
     0
  0
LTYPE
  5
6C
330
5
100
AcDbSymbolTableRecord
100
AcDbLinetypeTableRecord
  2
Amzigzag
 70
     0
  3
/\/-/\/-/\/-/\/-/\/-/\/
 72
    65
 73
     2
 40
11.0001
 49
0.0001
 74
     4
 75
   135
340
6B
 46
0.04
 50
0.0
 44
0.0
 45
0.0
 49
-11.0
 74
     0
  0
LTYPE
  5
7A
330
5
100
AcDbSymbolTableRecord
100
AcDbLinetypeTableRecord
  2
ACISOWELD
 70
     0
  3
_ _ _ _ _
 72
    65
 73
     2
 40
2.0
 49
2.0
 74
     0
 49
-1.0
 74
     0
  0
LTYPE
  5
7B
330
5
100
AcDbSymbolTableRecord
100
AcDbLinetypeTableRecord
  2
ACISOTGB
 70
     0
  3
__ . . __ . .
 72
    65
 73
     6
 40
9.0
 49
4.0
 74
     0
 49
-1.0
 74
     0
 49
1.0
 74
     0
 49
-1.0
 74
     0
 49
1.0
 74
     0
 49
-1.0
 74
     0
  0
LTYPE
  5
7C
330
5
100
AcDbSymbolTableRecord
100
AcDbLinetypeTableRecord
  2
ACISOTGL
 70
     0
  3
_ _ _ _ _
 72
    65
 73
     2
 40
3.0
 49
2.0
 74
     0
 49
-1.0
 74
     0
  0
LTYPE
  5
7E
330
5
100
AcDbSymbolTableRecord
100
AcDbLinetypeTableRecord
  2
CENTER
 70
     0
  3
__ . __
 72
    65
 73
     4
 40
7.0
 49
4.0
 74
     0
 49
-1.0
 74
     0
 49
1.0
 74
     0
 49
-1.0
 74
     0
  0
LTYPE
  5
D8
330
5
100
AcDbSymbolTableRecord
100
AcDbLinetypeTableRecord
  2
HIDDEN
 70
     0
  3
Hidden __ __ __ __ __ __ __ __ __ __ __ __ __ _
 72
    65
 73
     2
 40
9.524999999999998
 49
6.349999999999999
 74
     0
 49
-3.174999999999999
 74
     0
  0
LTYPE
  5
D9
330
5
100
AcDbSymbolTableRecord
100
AcDbLinetypeTableRecord
  2
PHANTOM2
 70
     0
  3
Phantom (.5x) ___ _ _ ___ _ _ ___ _ _ ___ _ _
 72
    65
 73
     6
 40
31.75
 49
15.875
 74
     0
 49
-3.174999999999999
 74
     0
 49
3.174999999999999
 74
     0
 49
-3.174999999999999
 74
     0
 49
3.174999999999999
 74
     0
 49
-3.174999999999999
 74
     0
  0
LTYPE
  5
20C
330
5
100
AcDbSymbolTableRecord
100
AcDbLinetypeTableRecord
  2
ACJISWELD
 70
     0
  3
_ _ _ _ _
 72
    65
 73
     2
 40
2.0
 49
2.0
 74
     0
 49
-1.0
 74
     0
  0
LTYPE
  5
20D
330
5
100
AcDbSymbolTableRecord
100
AcDbLinetypeTableRecord
  2
ACJISTGB
 70
     0
  3
__ . . __ . .
 72
    65
 73
     6
 40
9.0
 49
4.0
 74
     0
 49
-1.0
 74
     0
 49
1.0
 74
     0
 49
-1.0
 74
     0
 49
1.0
 74
     0
 49
-1.0
 74
     0
  0
LTYPE
  5
20E
330
5
100
AcDbSymbolTableRecord
100
AcDbLinetypeTableRecord
  2
ACJISTGL
 70
     0
  3
_ _ _ _ _
 72
    65
 73
     2
 40
3.0
 49
2.0
 74
     0
 49
-1.0
 74
     0
  0
LTYPE
  5
19A5
330
5
100
AcDbSymbolTableRecord
100
AcDbLinetypeTableRecord
  2
CENTER2
 70
     0
  3
Center (.5x) ___ _ ___ _ ___ _ ___ _ ___ _ ___
 72
    65
 73
     4
 40
1.125
 49
0.75
 74
     0
 49
-0.125
 74
     0
 49
0.125
 74
     0
 49
-0.125
 74
     0
  0
LTYPE
  5
19A6
330
5
100
AcDbSymbolTableRecord
100
AcDbLinetypeTableRecord
  2
HIDDEN2
 70
     0
  3
Hidden (.5x) _ _ _ _ _ _ _ _ _ _ _ _ _ _ _ _ _
 72
    65
 73
     2
 40
0.1875
 49
0.125
 74
     0
 49
-0.0625
 74
     0
  0
LTYPE
  5
19A7
330
5
100
AcDbSymbolTableRecord
100
AcDbLinetypeTableRecord
  2
Amzigzag2
 70
     0
  3
/\/-/\/-/\/-/\/-/\/-/\/
 72
    65
 73
     2
 40
0.4401
 49
0.0001
 74
     4
 75
   135
340
6B
 46
0.0016
 50
0.0
 44
0.0
 45
0.0
 49
-0.4400000000000001
 74
     0
  0
LTYPE
  5
19A8
330
5
100
AcDbSymbolTableRecord
100
AcDbLinetypeTableRecord
  2
ACANSTGB
 70
     0
  3
__ . . __ . .
 72
    65
 73
     6
 40
0.35433070866
 49
0.15748031496
 74
     0
 49
-0.03937007874
 74
     0
 49
0.03937007874
 74
     0
 49
-0.03937007874
 74
     0
 49
0.03937007874
 74
     0
 49
-0.03937007874
 74
     0
  0
LTYPE
  5
19A9
330
5
100
AcDbSymbolTableRecord
100
AcDbLinetypeTableRecord
  2
ACANSTGL
 70
     0
  3
_ _ _ _ _
 72
    65
 73
     2
 40
0.11811023622
 49
0.07874015748
 74
     0
 49
-0.03937007874
 74
     0
  0
ENDTAB
  0
TABLE
  2
LAYER
  5
2
102
{ACAD_XDICTIONARY
360
34B
102
}
330
0
100
AcDbSymbolTable
 70
    10
  0
LAYER
  5
10
330
2
100
AcDbSymbolTableRecord
100
AcDbLayerTableRecord
  2
0
 70
     0
 62
     7
  6
Continuous
370
    -3
390
F
  0
LAYER
  5
34A
330
2
100
AcDbSymbolTableRecord
100
AcDbLayerTableRecord
  2
AM_0
 70
     0
 62
     7
  6
Continuous
370
    30
390
F
  0
LAYER
  5
69B
330
2
100
AcDbSymbolTableRecord
100
AcDbLayerTableRecord
  2
AM_CL
 70
     0
 62
    96
  6
Amconstr
370
    30
390
F
  0
LAYER
  5
72C
330
2
100
AcDbSymbolTableRecord
100
AcDbLayerTableRecord
  2
AM_7
 70
     0
 62
     4
  6
AM_ISO08W050
370
    13
390
F
  0
LAYER
  5
733
330
2
100
AcDbSymbolTableRecord
100
AcDbLayerTableRecord
  2
AM_5
 70
     0
 62
     3
  6
Continuous
370
    13
390
F
  0
LAYER
  5
78B
330
2
100
AcDbSymbolTableRecord
100
AcDbLayerTableRecord
  2
Defpoints
 70
     0
 62
     7
  6
Continuous
290
     0
370
    -3
390
F
  0
LAYER
  5
91E
330
2
100
AcDbSymbolTableRecord
100
AcDbLayerTableRecord
  2
AM_11
 70
     0
 62
     3
  6
AM_ISO09W050
370
    13
390
F
  0
LAYER
  5
9EB
330
2
100
AcDbSymbolTableRecord
100
AcDbLayerTableRecord
  2
AM_6
 70
     0
 62
     2
  6
Continuous
370
    30
390
F
  0
LAYER
  5
19AA
330
2
100
AcDbSymbolTableRecord
100
AcDbLayerTableRecord
  2
1
 70
     0
 62
     7
  6
Continuous
370
    -3
390
F
  0
LAYER
  5
1BF7
330
2
100
AcDbSymbolTableRecord
100
AcDbLayerTableRecord
  2
AM_3
 70
     0
 62
     6
  6
AM_ISO02W050
370
    25
390
F
  0
ENDTAB
  0
TABLE
  2
STYLE
  5
3
330
0
100
AcDbSymbolTable
 70
    11
  0
STYLE
  5
11
330
3
100
AcDbSymbolTableRecord
100
AcDbTextStyleTableRecord
  2
STANDARD
 70
     0
 40
0.0
 41
1.0
 50
0.0
 71
     0
 42
3.799999999999999
  3
ISOCP.SHX
  4
EXTFONT.SHX
  0
STYLE
  5
6B
330
3
100
AcDbSymbolTableRecord
100
AcDbTextStyleTableRecord
  2

 70
     1
 40
0.0
 41
1.0
 50
0.0
 71
     0
 42
2.5
  3
ltypeshp.shx
  4

  0
STYLE
  5
6D
330
3
100
AcDbSymbolTableRecord
100
AcDbTextStyleTableRecord
  2
ACISOTS
 70
     0
 40
0.0
 41
1.0
 50
0.0
 71
     0
 42
3.799999999999999
  3
isocp.shx
  4
extfont.shx
  0
STYLE
  5
79
330
3
100
AcDbSymbolTableRecord
100
AcDbTextStyleTableRecord
  2
ACISOGDT
 70
     0
 40
0.0
 41
1.0
 50
0.0
 71
     0
 42
2.5
  3
amgdt.shx
  4
extfont.shx
  0
STYLE
  5
1F8
330
3
100
AcDbSymbolTableRecord
100
AcDbTextStyleTableRecord
  2
USER1
 70
     0
 40
0.0
 41
1.0
 50
0.0
 71
     0
 42
1.0
  3
TXT.SHX
  4

  0
STYLE
  5
1F9
330
3
100
AcDbSymbolTableRecord
100
AcDbTextStyleTableRecord
  2
USER2
 70
     0
 40
0.0
 41
1.0
 50
0.0
 71
     0
 42
1.0
  3
SIMPLEX.SHX
  4

  0
STYLE
  5
1FA
330
3
100
AcDbSymbolTableRecord
100
AcDbTextStyleTableRecord
  2
USER3
 70
     0
 40
0.0
 41
1.0
 50
0.0
 71
     0
 42
1.0
  3
ITALIC.SHX
  4

  0
STYLE
  5
1FF
330
3
100
AcDbSymbolTableRecord
100
AcDbTextStyleTableRecord
  2
ACJISTS
 70
     0
 40
1.0
 41
1.0
 50
0.0
 71
     0
 42
1.0
  3
isocp.shx
  4
extfont.shx
  0
STYLE
  5
20B
330
3
100
AcDbSymbolTableRecord
100
AcDbTextStyleTableRecord
  2
ACJISGDT
 70
     0
 40
0.0
 41
1.0
 50
0.0
 71
     0
 42
1.0
  3
amgdt.shx
  4

  0
STYLE
  5
19AB
330
3
100
AcDbSymbolTableRecord
100
AcDbTextStyleTableRecord
  2
ACANSTS
 70
     0
 40
1.0
 41
1.0
 50
0.0
 71
     0
 42
2.5
  3
romans.shx
  4
gbcbig.shx
  0
STYLE
  5
19AC
330
3
100
AcDbSymbolTableRecord
100
AcDbTextStyleTableRecord
  2
ACANSGDT
 70
     0
 40
0.0
 41
1.0
 50
0.0
 71
     0
 42
2.5
  3
amgdtans.shx
  4

  0
ENDTAB
  0
TABLE
  2
VIEW
  5
6
330
0
100
AcDbSymbolTable
 70
     0
  0
ENDTAB
  0
TABLE
  2
UCS
  5
7
330
0
100
AcDbSymbolTable
 70
     0
  0
ENDTAB
  0
TABLE
  2
APPID
  5
9
330
0
100
AcDbSymbolTable
 70
    18
  0
APPID
  5
12
330
9
100
AcDbSymbolTableRecord
100
AcDbRegAppTableRecord
  2
ACAD
 70
     0
  0
APPID
  5
46
330
9
100
AcDbSymbolTableRecord
100
AcDbRegAppTableRecord
  2
MCAD_NO_VIS
 70
     0
  0
APPID
  5
47
330
9
100
AcDbSymbolTableRecord
100
AcDbRegAppTableRecord
  2
ACAD_TEMP_GRAPHIC
 70
     0
  0
APPID
  5
58
330
9
100
AcDbSymbolTableRecord
100
AcDbRegAppTableRecord
  2
ACATTRIBSERVICES
 70
     0
  0
APPID
  5
EE
330
9
100
AcDbSymbolTableRecord
100
AcDbRegAppTableRecord
  2
AD_DRAW
 70
     0
  0
APPID
  5
10C
330
9
100
AcDbSymbolTableRecord
100
AcDbRegAppTableRecord
  2
DESIGNERASSEMBLIES
 70
     0
  0
APPID
  5
111
330
9
100
AcDbSymbolTableRecord
100
AcDbRegAppTableRecord
  2
ACADM_DIM_EDIT
 70
     0
  0
APPID
  5
112
330
9
100
AcDbSymbolTableRecord
100
AcDbRegAppTableRecord
  2
AMDT_DM_ADJ
 70
     0
  0
APPID
  5
243
330
9
100
AcDbSymbolTableRecord
100
AcDbRegAppTableRecord
  2
ACAD_DSTYLE_DIMTEXT_FILL
 70
     0
  0
APPID
  5
3AC
330
9
100
AcDbSymbolTableRecord
100
AcDbRegAppTableRecord
  2
ACAD_PSEXT
 70
     0
  0
APPID
  5
634
330
9
100
AcDbSymbolTableRecord
100
AcDbRegAppTableRecord
  2
GENIUS_GENODEF_13
 70
     0
  0
APPID
  5
635
330
9
100
AcDbSymbolTableRecord
100
AcDbRegAppTableRecord
  2
GENIUS_GENOBJ-N-FIL_13
 70
     0
  0
APPID
  5
72E
330
9
100
AcDbSymbolTableRecord
100
AcDbRegAppTableRecord
  2
GENIUS_GENOBJ-N-CEN_13
 70
     0
  0
APPID
  5
72F
330
9
100
AcDbSymbolTableRecord
100
AcDbRegAppTableRecord
  2
GENIUS_GENCEN_19
 70
     0
  0
APPID
  5
1FC8
330
9
100
AcDbSymbolTableRecord
100
AcDbRegAppTableRecord
  2
GENIUS_GENDTOL_13
 70
     0
  0
APPID
  5
1FE5
330
9
100
AcDbSymbolTableRecord
100
AcDbRegAppTableRecord
  2
ACAD_DIMASSOC_DIMLFAC
 70
     0
  0
APPID
  5
1FE6
330
9
100
AcDbSymbolTableRecord
100
AcDbRegAppTableRecord
  2
ACAD_DIMASSOC_CALC_DIMLFAC
 70
     0
  0
APPID
  5
1FE7
330
9
100
AcDbSymbolTableRecord
100
AcDbRegAppTableRecord
  2
ACAD_DIMASSOC_OVERRIDDEN_DIMLFAC
 70
     0
  0
ENDTAB
  0
TABLE
  2
DIMSTYLE
  5
A
330
0
100
AcDbSymbolTable
 70
    24
100
AcDbDimStyleTable
 71
     2
340
216
340
81
  0
DIMSTYLE
105
27
330
A
100
AcDbSymbolTableRecord
100
AcDbDimStyleTableRecord
  2
ISO-25
 70
     0
 41
2.5
 42
0.625
 43
3.75
 44
1.25
 73
     0
 74
     0
 77
     1
 78
     8
140
2.5
141
2.5
143
0.03937007874016
147
0.625
171
     3
172
     1
271
     2
272
     2
274
     3
278
    44
283
     0
284
     8
340
11
  0
DIMSTYLE
105
81
330
A
100
AcDbSymbolTableRecord
100
AcDbDimStyleTableRecord
  2
AM_ISO
 70
     0
  4
"
 41
2.5
 42
1.0
 43
10.0
 44
1.0
 47
0.1
 48
0.1
 73
     0
 74
     0
 77
     1
 78
     8
 79
     2
140
3.5
141
0.0
143
0.0393701
146
0.71
147
1.5
172
     1
176
   256
177
   256
178
     2
271
     2
272
     3
274
     4
283
     0
284
     8
340
11
371
    -1
372
    -1
  0
DIMSTYLE
105
82
330
A
100
AcDbSymbolTableRecord
100
AcDbDimStyleTableRecord
  2
AM_ISO$3
 70
     0
  4
"
 41
2.5
 42
1.0
 43
10.0
 44
1.0
 47
0.1
 48
0.1
 73
     0
 77
     1
 78
     8
 79
     2
140
3.5
141
0.0
143
0.0393701
146
0.71
147
1.5
176
   256
177
   256
178
     2
271
     2
272
     3
274
     4
283
     0
284
     8
288
     1
289
     0
340
11
371
    -1
372
    -1
  0
DIMSTYLE
105
83
330
A
100
AcDbSymbolTableRecord
100
AcDbDimStyleTableRecord
  2
AM_ISO$4
 70
     0
  4
"
 41
2.5
 42
1.0
 43
10.0
 44
1.0
 47
0.1
 48
0.1
 73
     0
 77
     1
 78
     8
 79
     2
140
3.5
141
0.0
143
0.0393701
146
0.71
147
1.5
176
   256
177
   256
178
     2
271
     2
272
     3
274
     4
283
     0
284
     8
288
     1
289
     0
340
11
371
    -1
372
    -1
  0
DIMSTYLE
105
84
330
A
100
AcDbSymbolTableRecord
100
AcDbDimStyleTableRecord
  2
AM_ISO$6
 70
     0
  4
"
 41
2.5
 42
1.0
 43
10.0
 44
1.0
 47
0.1
 48
0.1
 73
     0
 74
     0
 78
     8
 79
     2
140
3.5
141
0.0
143
0.0393701
146
0.71
147
1.5
172
     1
176
   256
177
   256
178
     2
271
     2
272
     3
274
     4
283
     0
284
     8
340
11
371
    -1
372
    -1
  0
DIMSTYLE
105
85
330
A
100
AcDbSymbolTableRecord
100
AcDbDimStyleTableRecord
  2
AM_ISO$7
 70
     0
  4
"
 41
2.5
 42
1.0
 43
10.0
 44
1.0
 47
0.1
 48
0.1
 73
     0
 74
     0
 77
     1
 78
     8
 79
     2
140
5.0
141
0.0
143
0.0393701
146
0.71
147
1.5
172
     1
176
   256
177
   256
178
     2
271
     2
272
     3
274
     4
283
     0
284
     8
340
11
371
    -1
372
    -1
  0
DIMSTYLE
105
86
330
A
100
AcDbSymbolTableRecord
100
AcDbDimStyleTableRecord
  2
AM_ISO$SF
 70
     0
  4
"
 41
2.5
 42
1.0
 43
10.0
 44
1.0
 47
0.1
 48
0.1
 73
     0
 74
     0
 75
     1
 76
     1
 77
     1
 78
     8
 79
     2
140
3.5
141
0.0
143
0.0393701
146
0.71
147
1.5
172
     1
176
   256
177
   256
178
     2
271
     2
272
     3
274
     4
283
     0
284
     8
340
11
371
    -1
372
    -1
  0
DIMSTYLE
105
8B
330
A
100
AcDbSymbolTableRecord
100
AcDbDimStyleTableRecord
  2
AM_ISO$SH
 70
     0
  4
"
 41
2.5
 42
1.0
 43
10.0
 44
1.0
 47
0.1
 48
0.1
 73
     0
 74
     0
 75
     1
 76
     1
 77
     1
 78
     8
 79
     2
140
3.5
141
0.0
143
0.0393701
144
2.0
146
0.71
147
1.5
172
     1
173
     1
176
   256
177
   256
178
     2
271
     2
272
     3
274
     4
283
     0
284
     8
340
11
343
87
371
    -1
372
    -1
  0
DIMSTYLE
105
216
330
A
100
AcDbSymbolTableRecord
100
AcDbDimStyleTableRecord
  2
AM_JIS
 70
     0
  4
"
 41
2.5
 42
0.0
 43
10.0
 44
1.0
 47
0.1
 48
0.1000000001
 73
     0
 74
     0
 77
     3
 78
     1
140
3.799999999999999
141
0.0
143
0.0393701
146
0.71
147
1.5
172
     1
176
   256
177
   256
178
     2
179
     1
271
     2
272
     2
275
     1
283
     0
284
     8
340
11
341
217
342
217
371
    -1
372
    -1
  0
DIMSTYLE
105
21D
330
A
100
AcDbSymbolTableRecord
100
AcDbDimStyleTableRecord
  2
AM_JIS$3
 70
     0
  4
"
 41
2.5
 42
0.0
 43
10.0
 44
1.0
 47
0.1
 48
0.1000000001
 73
     0
 77
     3
 78
     1
140
3.799999999999999
141
0.0
143
0.0393701
146
0.71
147
1.5
176
   256
177
   256
178
     2
179
     1
271
     2
272
     2
275
     1
283
     0
284
     8
288
     1
289
     0
340
11
341
217
342
217
371
    -1
372
    -1
  0
DIMSTYLE
105
21E
330
A
100
AcDbSymbolTableRecord
100
AcDbDimStyleTableRecord
  2
AM_JIS$4
 70
     0
  4
"
 41
2.5
 42
0.0
 43
10.0
 44
1.0
 47
0.1
 48
0.1000000001
 73
     0
 77
     3
 78
     1
140
3.799999999999999
141
0.0
143
0.0393701
146
0.71
147
1.5
176
   256
177
   256
178
     2
179
     1
271
     2
272
     2
275
     1
283
     0
284
     8
288
     1
289
     0
340
11
341
217
342
217
371
    -1
372
    -1
  0
DIMSTYLE
105
21F
330
A
100
AcDbSymbolTableRecord
100
AcDbDimStyleTableRecord
  2
AM_JIS$6
 70
     0
  4
"
 41
2.5
 42
0.0
 43
10.0
 44
1.0
 47
0.1
 48
0.1000000001
 73
     0
 74
     0
 78
     1
140
3.799999999999999
141
0.0
143
0.0393701
146
0.71
147
1.5
172
     1
176
   256
177
   256
178
     2
179
     1
271
     2
272
     2
275
     1
283
     0
284
     8
340
11
341
217
342
217
371
    -1
372
    -1
  0
DIMSTYLE
105
220
330
A
100
AcDbSymbolTableRecord
100
AcDbDimStyleTableRecord
  2
AM_JIS$7
 70
     0
  4
"
 41
2.5
 42
0.0
 43
10.0
 44
1.0
 47
0.1
 48
0.1000000001
 73
     0
 74
     0
 77
     3
 78
     1
140
5.0
141
0.0
143
0.0393701
146
0.71
147
1.5
172
     1
176
   256
177
   256
178
     2
179
     1
271
     2
272
     2
275
     1
283
     0
284
     8
340
11
341
217
342
217
371
    -1
372
    -1
  0
DIMSTYLE
105
221
330
A
100
AcDbSymbolTableRecord
100
AcDbDimStyleTableRecord
  2
AM_JIS$SF
 70
     0
  4
"
 41
2.5
 42
1.0
 43
10.0
 44
1.0
 47
0.1
 48
0.1
 73
     0
 74
     0
 75
     1
 76
     1
 77
     3
 78
     8
 79
     2
140
3.5
141
0.0
143
0.0393701
146
0.71
147
1.5
172
     1
176
   256
177
   256
178
     2
271
     2
272
     3
274
     4
283
     0
284
     8
340
11
341
217
342
217
343
217
344
217
371
    -1
372
    -1
  0
DIMSTYLE
105
222
330
A
100
AcDbSymbolTableRecord
100
AcDbDimStyleTableRecord
  2
AM_JIS$SH
 70
     0
  4
"
 41
2.5
 42
1.0
 43
10.0
 44
1.0
 47
0.1
 48
0.1
 73
     0
 74
     0
 75
     1
 76
     1
 77
     3
 78
     8
 79
     2
140
3.5
141
0.0
143
0.0393701
144
2.0
146
0.71
147
1.5
172
     1
173
     1
176
   256
177
   256
178
     2
271
     2
272
     3
274
     4
283
     0
284
     8
340
11
341
217
342
217
343
87
344
217
371
    -1
372
    -1
  0
DIMSTYLE
105
632
330
A
100
AcDbSymbolTableRecord
100
AcDbDimStyleTableRecord
  2
AM_JIS$2
 70
     0
  4
"
 41
2.5
 42
0.1
 43
8.0
 44
1.0
 47
0.1
 48
0.1
 73
     0
 74
     0
 77
     3
 78
     1
 79
     2
140
3.399999999999999
141
0.0
143
0.0393701
146
0.71
147
0.9999999999999996
172
     1
176
     3
177
     3
178
     2
179
     1
271
     2
272
     2
275
     1
283
     0
284
     1
340
11
341
217
342
217
371
    -1
372
    -1
  0
DIMSTYLE
105
633
102
{ACAD_REACTORS
330
234B
330
2378
330
23C0
330
2406
330
2441
330
2486
330
24C3
330
24ED
102
}
330
A
100
AcDbSymbolTableRecord
100
AcDbDimStyleTableRecord
  2
AM_JIS$0
 70
     0
  4
"
 41
2.5
 42
0.1
 43
8.0
 44
0.5
 47
0.1
 48
0.1
 73
     0
 74
     0
 77
     3
 78
     1
 79
     2
140
3.399999999999999
141
0.0
143
0.0393701
146
0.71
147
0.9999999999999996
172
     1
176
     3
177
     3
178
     2
179
     1
271
     2
272
     2
275
     1
283
     0
284
     1
340
11
341
217
342
217
371
    -1
372
    -1
  0
DIMSTYLE
105
19AD
330
A
100
AcDbSymbolTableRecord
100
AcDbDimStyleTableRecord
  2
STANDARD
 70
     0
340
11
  0
DIMSTYLE
105
19AE
330
A
100
AcDbSymbolTableRecord
100
AcDbDimStyleTableRecord
  2
AM_ANSI
 70
     0
  4
mm
 41
0.1
 42
0.05
 43
0.5
 44
0.1
 47
0.1
 48
0.1
 78
     7
 79
     2
140
0.12
141
0.0
146
0.71
147
0.06
176
   256
177
   256
178
     2
274
     4
284
     7
340
11
371
    -1
372
    -1
  0
DIMSTYLE
105
19AF
330
A
100
AcDbSymbolTableRecord
100
AcDbDimStyleTableRecord
  2
AM_ANSI$3
 70
     0
  4
mm
 41
0.1
 42
0.05
 43
0.5
 44
0.1
 47
0.1
 48
0.1
 78
     7
 79
     2
140
0.12
141
0.0
146
0.71
147
0.06
176
   256
177
   256
178
     2
274
     4
284
     7
288
     1
289
     0
340
11
371
    -1
372
    -1
  0
DIMSTYLE
105
19B0
330
A
100
AcDbSymbolTableRecord
100
AcDbDimStyleTableRecord
  2
AM_ANSI$4
 70
     0
  4
mm
 41
0.1
 42
0.05
 43
0.5
 44
0.1
 47
0.1
 48
0.1
 78
     7
 79
     2
140
0.12
141
0.0
146
0.71
147
0.06
176
   256
177
   256
178
     2
274
     4
284
     7
288
     1
289
     0
340
11
371
    -1
372
    -1
  0
DIMSTYLE
105
19B1
330
A
100
AcDbSymbolTableRecord
100
AcDbDimStyleTableRecord
  2
AM_ANSI$7
 70
     0
  4
mm
 41
0.1
 42
0.05
 43
0.5
 44
0.1
 47
0.1
 48
0.1
 78
     7
 79
     2
140
0.24
141
0.0
146
0.71
147
0.06
176
   256
177
   256
178
     2
274
     4
284
     7
340
11
371
    -1
372
    -1
  0
DIMSTYLE
105
19B2
330
A
100
AcDbSymbolTableRecord
100
AcDbDimStyleTableRecord
  2
AM_ANSI$SF
 70
     0
  4
mm
 41
0.1
 42
0.05
 43
0.5
 44
0.1
 47
0.1
 48
0.1
 75
     1
 76
     1
 78
     7
 79
     2
140
0.12
141
0.0
146
0.71
147
0.06
176
   256
177
   256
178
     2
274
     4
284
     7
340
11
371
    -1
372
    -1
  0
DIMSTYLE
105
19B3
330
A
100
AcDbSymbolTableRecord
100
AcDbDimStyleTableRecord
  2
AM_ANSI$SH
 70
     0
  4
mm
 41
0.1
 42
0.05
 43
0.5
 44
0.1
 47
0.1
 48
0.1
 75
     1
 76
     1
 78
     7
 79
     2
140
0.12
141
0.0
146
0.71
147
0.06
173
     1
176
   256
177
   256
178
     2
274
     4
284
     7
340
11
343
87
371
    -1
372
    -1
  0
ENDTAB
  0
TABLE
  2
BLOCK_RECORD
  5
1
330
0
100
AcDbSymbolTable
 70
    25
  0
BLOCK_RECORD
  5
1F
102
{ACAD_XDICTIONARY
360
8F
102
}
330
1
100
AcDbSymbolTableRecord
100
AcDbBlockTableRecord
  2
*Model_Space
340
22
  0
BLOCK_RECORD
  5
1B
330
1
100
AcDbSymbolTableRecord
100
AcDbBlockTableRecord
  2
*Paper_Space
340
1E
  0
BLOCK_RECORD
  5
23
330
1
100
AcDbSymbolTableRecord
100
AcDbBlockTableRecord
  2
*Paper_Space0
340
26
  0
BLOCK_RECORD
  5
87
330
1
100
AcDbSymbolTableRecord
100
AcDbBlockTableRecord
  2
GENAXEH
340
0
  0
BLOCK_RECORD
  5
217
330
1
100
AcDbSymbolTableRecord
100
AcDbBlockTableRecord
  2
_Open30
340
0
102
{BLKREFS
331
223E
331
223F
331
2247
331
2248
331
2250
331
2251
331
2262
331
2263
331
226B
331
226C
331
2283
331
2284
331
228E
331
228F
331
232A
331
232B
331
2364
331
2365
331
23E2
331
23E3
331
23F1
331
23F2
331
2471
331
2472
331
24D3
331
24D4
331
24FD
331
24FE
331
257B
331
257C
331
2587
331
2588
102
}
  0
BLOCK_RECORD
  5
9EE
330
1
100
AcDbSymbolTableRecord
100
AcDbBlockTableRecord
  2
ta
340
0
310
2800000020000000200000000100080000000000000400000000000000000000000000000000000000000000000080000080000000808000800000008000800080800000C0C0C000C0DCC000F0CAA6000020400000206000002080000020A0000020C0000020E00000400000004020000040400000406000004080000040A0
310
000040C0000040E00000600000006020000060400000606000006080000060A0000060C0000060E00000800000008020000080400000806000008080000080A0000080C0000080E00000A0000000A0200000A0400000A0600000A0800000A0A00000A0C00000A0E00000C0000000C0200000C0400000C0600000C0800000C0
310
A00000C0C00000C0E00000E0000000E0200000E0400000E0600000E0800000E0A00000E0C00000E0E00040000000400020004000400040006000400080004000A0004000C0004000E00040200000402020004020400040206000402080004020A0004020C0004020E000404000004040200040404000404060004040800040
310
40A0004040C0004040E00040600000406020004060400040606000406080004060A0004060C0004060E00040800000408020004080400040806000408080004080A0004080C0004080E00040A0000040A0200040A0400040A0600040A0800040A0A00040A0C00040A0E00040C0000040C0200040C0400040C0600040C08000
310
40C0A00040C0C00040C0E00040E0000040E0200040E0400040E0600040E0800040E0A00040E0C00040E0E00080000000800020008000400080006000800080008000A0008000C0008000E00080200000802020008020400080206000802080008020A0008020C0008020E00080400000804020008040400080406000804080
310
008040A0008040C0008040E00080600000806020008060400080606000806080008060A0008060C0008060E00080800000808020008080400080806000808080008080A0008080C0008080E00080A0000080A0200080A0400080A0600080A0800080A0A00080A0C00080A0E00080C0000080C0200080C0400080C0600080C0
310
800080C0A00080C0C00080C0E00080E0000080E0200080E0400080E0600080E0800080E0A00080E0C00080E0E000C0000000C0002000C0004000C0006000C0008000C000A000C000C000C000E000C0200000C0202000C0204000C0206000C0208000C020A000C020C000C020E000C0400000C0402000C0404000C0406000C0
310
408000C040A000C040C000C040E000C0600000C0602000C0604000C0606000C0608000C060A000C060C000C060E000C0800000C0802000C0804000C0806000C0808000C080A000C080C000C080E000C0A00000C0A02000C0A04000C0A06000C0A08000C0A0A000C0A0C000C0A0E000C0C00000C0C02000C0C04000C0C06000
310
C0C08000C0C0A000F0FBFF00A4A0A000808080000000FF0000FF000000FFFF00FF000000FF00FF00FFFF0000FFFFFF0000000000000000000000000000000000000000000000000000000000000000000000000000000000000000000000000000000000000000000000000000000000000000000000000000000000000000
310
00000000000000000000000000000000000000000000000000000000000000000000000000000000000000000000000000000000000000000000000000000000000000000000000000000000000000000000000000000000000000000000000000000000000000000000000000000000000000000000000000000000000000
310
0000000000000000000000000000000000000000FFFFFFFFFFFFFFFFFFFFFFFFFFFFFFFFFFFFFFFFFFFFFFFFFFFF0000000000FF0000000000000000000000000000000000000000000000000000FF00000000FF0000000000000000000000000000000000000000000000000000FF00000000FF0000000000000000000000
310
000000000000000000000000000000FF00000000FFFF00000000000000000000FFFFFFFFFFFF000000000000000000FF0000000000FF000000000000000000FF000000000000FF0000000000000000FF0000000000FF000000000000000000FF00000000000000FF0000000000000000FF00000000FF0000000000000000FF
310
0000000000000000FF0000000000000000FF00000000FF00000000000000FF00000000000000000000FF00000000000000FF00000000FF0000000000000000FF0000000000000000FF0000000000000000FF00000000FF0000000000000000FF0000000000000000FF0000000000000000FF0000000000FF00000000000000
310
00FF000000000000FF000000000000000000FF0000000000FF0000000000000000FF000000000000FF000000000000000000FF0000000000FF000000000000000000FFFFFFFFFFFF00000000000000000000FFFF00000000FF0000000000000000000000000000000000000000000000000000FF00000000FF000000000000
310
0000000000000000000000000000000000000000FF00000000FF0000000000000000000000000000000000000000000000000000FF0000000000FFFFFFFFFFFFFFFFFFFFFFFFFFFFFFFFFFFFFFFFFFFFFFFFFFFF00000000000000000000000000000000000000000000000000000000000000000000000000000000000000
310
00000000000000000000000000000000000000000000000000000000000000000000000000000000000000000000000000000000000000000000000000000000000000000000000000000000000000000000000000000000000000000000000000000000000000000000000000000000000000000000000000000000000000
310
0000000000000000000000000000000000000000000000000000000000000000000000000000000000000000000000000000000000000000
1001
ACAD
1000
DesignCenter Data
1002
{
1070
     1
1070
     4
1002
}
  0
BLOCK_RECORD
  5
15E3
330
1
100
AcDbSymbolTableRecord
100
AcDbBlockTableRecord
  2
ta2
340
0
310
2800000020000000200000000100080000000000000400000000000000000000000000000000000000000000000080000080000000808000800000008000800080800000C0C0C000C0DCC000F0CAA6000020400000206000002080000020A0000020C0000020E00000400000004020000040400000406000004080000040A0
310
000040C0000040E00000600000006020000060400000606000006080000060A0000060C0000060E00000800000008020000080400000806000008080000080A0000080C0000080E00000A0000000A0200000A0400000A0600000A0800000A0A00000A0C00000A0E00000C0000000C0200000C0400000C0600000C0800000C0
310
A00000C0C00000C0E00000E0000000E0200000E0400000E0600000E0800000E0A00000E0C00000E0E00040000000400020004000400040006000400080004000A0004000C0004000E00040200000402020004020400040206000402080004020A0004020C0004020E000404000004040200040404000404060004040800040
310
40A0004040C0004040E00040600000406020004060400040606000406080004060A0004060C0004060E00040800000408020004080400040806000408080004080A0004080C0004080E00040A0000040A0200040A0400040A0600040A0800040A0A00040A0C00040A0E00040C0000040C0200040C0400040C0600040C08000
310
40C0A00040C0C00040C0E00040E0000040E0200040E0400040E0600040E0800040E0A00040E0C00040E0E00080000000800020008000400080006000800080008000A0008000C0008000E00080200000802020008020400080206000802080008020A0008020C0008020E00080400000804020008040400080406000804080
310
008040A0008040C0008040E00080600000806020008060400080606000806080008060A0008060C0008060E00080800000808020008080400080806000808080008080A0008080C0008080E00080A0000080A0200080A0400080A0600080A0800080A0A00080A0C00080A0E00080C0000080C0200080C0400080C0600080C0
310
800080C0A00080C0C00080C0E00080E0000080E0200080E0400080E0600080E0800080E0A00080E0C00080E0E000C0000000C0002000C0004000C0006000C0008000C000A000C000C000C000E000C0200000C0202000C0204000C0206000C0208000C020A000C020C000C020E000C0400000C0402000C0404000C0406000C0
310
408000C040A000C040C000C040E000C0600000C0602000C0604000C0606000C0608000C060A000C060C000C060E000C0800000C0802000C0804000C0806000C0808000C080A000C080C000C080E000C0A00000C0A02000C0A04000C0A06000C0A08000C0A0A000C0A0C000C0A0E000C0C00000C0C02000C0C04000C0C06000
310
C0C08000C0C0A000F0FBFF00A4A0A000808080000000FF0000FF000000FFFF00FF000000FF00FF00FFFF0000FFFFFF0000000000000000000000000000000000000000000000000000000000000000000000000000000000000000000000000000000000000000000000000000000000000000000000000000000000000000
310
00000000000000000000000000000000000000000000000000000000000000000000000000000000000000000000000000000000000000000000000000000000000000000000000000000000000000000000000000000000000000000000000000000000000000000000000000000000000000000000000000000000000000
310
000000000000000000000000000000000000000000FFFFFFFFFFFFFFFFFFFFFFFFFFFFFFFFFFFFFFFFFFFFFFFF00000000000000FF000000000000000000000000000000000000000000000000FF0000000000FF00000000000000000000000000000000000000000000000000FF0000000000FF0000000000000000000000
310
0000000000000000000000000000FF0000000000FF0000000000000000000000FFFFFFFFFFFF0000000000000000FF0000000000FFFF00000000000000000000FF00000000FF0000000000000000FF000000000000FF000000000000000000FF000000000000FF00000000000000FF00000000000000FF0000000000000000
310
FF000000000000FF0000000000000000FF000000000000FF00000000000000FF0000000000000000FF00000000000000FF000000000000FF00000000000000FF0000000000000000FF00000000000000FF000000000000FF0000000000000000FF00000000000000FF00000000000000FF00000000000000FF000000000000
310
00FF000000000000FF000000000000000000FF000000000000FF0000000000000000FF0000000000FF000000000000000000FFFF0000000000FF0000000000000000FFFFFFFFFFFF0000000000000000000000FF0000000000FF00000000000000000000000000000000000000000000000000FF0000000000FF0000000000
310
0000000000000000000000000000000000000000FF000000000000FF0000000000000000000000000000000000000000000000FF00000000000000FFFFFFFFFFFFFFFFFFFFFFFFFFFFFFFFFFFFFFFFFFFFFFFF0000000000000000000000000000000000000000000000000000000000000000000000000000000000000000
310
00000000000000000000000000000000000000000000000000000000000000000000000000000000000000000000000000000000000000000000000000000000000000000000000000000000000000000000000000000000000000000000000000000000000000000000000000000000000000000000000000000000000000
310
0000000000000000000000000000000000000000000000000000000000000000000000000000000000000000000000000000000000000000
1001
ACAD
1000
DesignCenter Data
1002
{
1070
     1
1070
     4
1002
}
  0
BLOCK_RECORD
  5
1E3C
330
1
100
AcDbSymbolTableRecord
100
AcDbBlockTableRecord
  2
*D6
340
0
  0
BLOCK_RECORD
  5
1EA7
330
1
100
AcDbSymbolTableRecord
100
AcDbBlockTableRecord
  2
*D7
340
0
  0
BLOCK_RECORD
  5
1EF1
330
1
100
AcDbSymbolTableRecord
100
AcDbBlockTableRecord
  2
*D8
340
0
  0
BLOCK_RECORD
  5
1F3A
330
1
100
AcDbSymbolTableRecord
100
AcDbBlockTableRecord
  2
*D9
340
0
  0
BLOCK_RECORD
  5
1F6D
330
1
100
AcDbSymbolTableRecord
100
AcDbBlockTableRecord
  2
*D10
340
0
  0
BLOCK_RECORD
  5
2037
330
1
100
AcDbSymbolTableRecord
100
AcDbBlockTableRecord
  2
*D11
340
0
  0
BLOCK_RECORD
  5
20AF
330
1
100
AcDbSymbolTableRecord
100
AcDbBlockTableRecord
  2
*D12
340
0
  0
BLOCK_RECORD
  5
22D9
330
1
100
AcDbSymbolTableRecord
100
AcDbBlockTableRecord
  2
*D15
340
0
  0
BLOCK_RECORD
  5
234C
330
1
100
AcDbSymbolTableRecord
100
AcDbBlockTableRecord
  2
*D16
340
0
  0
BLOCK_RECORD
  5
2379
330
1
100
AcDbSymbolTableRecord
100
AcDbBlockTableRecord
  2
*D17
340
0
  0
BLOCK_RECORD
  5
23C1
330
1
100
AcDbSymbolTableRecord
100
AcDbBlockTableRecord
  2
*D18
340
0
  0
BLOCK_RECORD
  5
2407
330
1
100
AcDbSymbolTableRecord
100
AcDbBlockTableRecord
  2
*D19
340
0
  0
BLOCK_RECORD
  5
2442
330
1
100
AcDbSymbolTableRecord
100
AcDbBlockTableRecord
  2
*D20
340
0
  0
BLOCK_RECORD
  5
2487
330
1
100
AcDbSymbolTableRecord
100
AcDbBlockTableRecord
  2
*D21
340
0
  0
BLOCK_RECORD
  5
24C4
330
1
100
AcDbSymbolTableRecord
100
AcDbBlockTableRecord
  2
*D22
340
0
  0
BLOCK_RECORD
  5
24EE
330
1
100
AcDbSymbolTableRecord
100
AcDbBlockTableRecord
  2
*D23
340
0
  0
ENDTAB
  0
ENDSEC
  0
SECTION
  2
BLOCKS
  0
BLOCK
  5
20
330
1F
100
AcDbEntity
  8
0
100
AcDbBlockBegin
  2
*Model_Space
 70
     0
 10
0.0
 20
0.0
 30
0.0
  3
*Model_Space
  1

  0
ENDBLK
  5
21
330
1F
100
AcDbEntity
  8
0
100
AcDbBlockEnd
  0
BLOCK
  5
1C
330
1B
100
AcDbEntity
 67
     1
  8
0
100
AcDbBlockBegin
  2
*Paper_Space
 70
     0
 10
0.0
 20
0.0
 30
0.0
  3
*Paper_Space
  1

  0
ENDBLK
  5
1D
330
1B
100
AcDbEntity
 67
     1
  8
0
100
AcDbBlockEnd
  0
BLOCK
  5
24
330
23
100
AcDbEntity
  8
0
100
AcDbBlockBegin
  2
*Paper_Space0
 70
     0
 10
0.0
 20
0.0
 30
0.0
  3
*Paper_Space0
  1

  0
ENDBLK
  5
25
330
23
100
AcDbEntity
  8
0
100
AcDbBlockEnd
  0
BLOCK
  5
89
330
87
100
AcDbEntity
  8
0
100
AcDbBlockBegin
  2
GENAXEH
 70
     0
 10
0.0
 20
0.0
 30
0.0
  3
GENAXEH
  1

  0
LINE
  5
88
330
87
100
AcDbEntity
  8
0
100
AcDbLine
 10
-1.0
 20
0.0
 30
0.0
 11
1.0
 21
0.0
 31
0.0
  0
ENDBLK
  5
8A
330
87
100
AcDbEntity
  8
0
100
AcDbBlockEnd
  0
BLOCK
  5
21B
330
217
100
AcDbEntity
  8
0
100
AcDbBlockBegin
  2
_Open30
 70
     0
 10
0.0
 20
0.0
 30
0.0
  3
_Open30
  1

  0
LINE
  5
218
330
217
100
AcDbEntity
  8
0
  6
ByBlock
 62
     0
370
    -2
100
AcDbLine
 10
-1.0
 20
0.26794919
 30
0.0
 11
0.0
 21
0.0
 31
0.0
  0
LINE
  5
219
330
217
100
AcDbEntity
  8
0
  6
ByBlock
 62
     0
370
    -2
100
AcDbLine
 10
0.0
 20
0.0
 30
0.0
 11
-1.0
 21
-0.26794919
 31
0.0
  0
LINE
  5
21A
330
217
100
AcDbEntity
  8
0
  6
ByBlock
 62
     0
370
    -2
100
AcDbLine
 10
0.0
 20
0.0
 30
0.0
 11
-1.0
 21
0.0
 31
0.0
  0
ENDBLK
  5
21C
330
217
100
AcDbEntity
  8
0
100
AcDbBlockEnd
  0
BLOCK
  5
9EF
330
9EE
100
AcDbEntity
  8
0
100
AcDbBlockBegin
  2
ta
 70
     0
 10
0.0
 20
0.0
 30
0.0
  3
ta
  1

  0
LINE
  5
A2B
330
9EE
100
AcDbEntity
  8
AM_0
100
AcDbLine
 10
-10.94000000000007
 20
6.998578643761788
 30
0.0
 11
-0.4000000000000537
 21
6.998578643762527
 31
0.0
  0
ARC
  5
A2C
330
9EE
100
AcDbEntity
  8
AM_0
100
AcDbCircle
 10
-0.4000000000000537
 20
6.598578643762522
 30
0.0
 40
0.4
100
AcDbArc
 50
0.0000000000040711
 51
90.00000000000323
1001
GENIUS_GENOBJ-N-FIL_13
1002
{
1000
OWNER
1000
GEN
1002
}
1001
GENIUS_GENODEF_13
1002
{
1000
HIER
1070
     0
1002
}
1002
{
1000
MANEDIT
1070
     0
1002
}
1002
{
1000
NOSEL
1070
     0
1002
}
1002
{
1000
BEHIND
1070
     0
1002
}
1002
{
1000
OTHER
1070
     0
1002
}
1002
{
1000
REACTOR
1002
}
  0
ARC
  5
A2D
330
9EE
100
AcDbEntity
  8
AM_0
100
AcDbCircle
 10
-10.94000000000007
 20
6.598578643761783
 30
0.0
 40
0.4
100
AcDbArc
 50
90.00000000000323
 51
180.0
1001
GENIUS_GENOBJ-N-FIL_13
1002
{
1000
OWNER
1000
GEN
1002
}
1001
GENIUS_GENODEF_13
1002
{
1000
HIER
1070
     0
1002
}
1002
{
1000
MANEDIT
1070
     0
1002
}
1002
{
1000
NOSEL
1070
     0
1002
}
1002
{
1000
BEHIND
1070
     0
1002
}
1002
{
1000
OTHER
1070
     0
1002
}
1002
{
1000
REACTOR
1002
}
  0
LINE
  5
A2E
330
9EE
100
AcDbEntity
  8
AM_0
100
AcDbLine
 10
-1.060000000000078
 20
-0.0014213562374148
 30
0.0
 11
-11.6000000000001
 21
-0.0014213562374148
 31
0.0
  0
ARC
  5
A2F
330
9EE
100
AcDbEntity
  8
AM_0
100
AcDbCircle
 10
-11.6000000000001
 20
0.3985786437625909
 30
0.0
 40
0.4
100
AcDbArc
 50
180.0
 51
270.0
1001
GENIUS_GENODEF_13
1002
{
1000
HIER
1070
     0
1002
}
1002
{
1000
MANEDIT
1070
     0
1002
}
1002
{
1000
NOSEL
1070
     0
1002
}
1002
{
1000
BEHIND
1070
     0
1002
}
1002
{
1000
OTHER
1070
     0
1002
}
1002
{
1000
REACTOR
1002
}
1001
GENIUS_GENOBJ-N-FIL_13
1002
{
1000
OWNER
1000
GEN
1002
}
  0
LINE
  5
A30
330
9EE
100
AcDbEntity
  8
AM_0
100
AcDbLine
 10
-11.34000000000005
 20
6.598578643761783
 30
0.0
 11
-11.34000000000005
 21
5.465263475678085
 31
0.0
  0
LINE
  5
A31
330
9EE
100
AcDbEntity
  8
AM_0
100
AcDbLine
 10
-0.6600000000001014
 20
0.3985786437625909
 30
0.0
 11
-0.6600000000001014
 21
1.531893811845151
 31
0.0
  0
ARC
  5
A32
330
9EE
100
AcDbEntity
  8
AM_0
100
AcDbCircle
 10
-0.2600000000001241
 20
1.531893811845151
 30
0.0
 40
0.4
100
AcDbArc
 50
172.3666694127705
 51
180.0
1001
GENIUS_GENOBJ-N-FIL_13
1002
{
1000
OWNER
1000
GEN
1002
}
1001
GENIUS_GENODEF_13
1002
{
1000
HIER
1070
     0
1002
}
1002
{
1000
MANEDIT
1070
     0
1002
}
1002
{
1000
NOSEL
1070
     0
1002
}
1002
{
1000
BEHIND
1070
     0
1002
}
1002
{
1000
OTHER
1070
     0
1002
}
1002
{
1000
REACTOR
1002
}
  0
ARC
  5
A33
330
9EE
100
AcDbEntity
  8
AM_0
100
AcDbCircle
 10
-1.060000000000078
 20
0.3985786437625909
 30
0.0
 40
0.4
100
AcDbArc
 50
270.0
 51
0.0
1001
GENIUS_GENODEF_13
1002
{
1000
HIER
1070
     0
1002
}
1002
{
1000
MANEDIT
1070
     0
1002
}
1002
{
1000
NOSEL
1070
     0
1002
}
1002
{
1000
BEHIND
1070
     0
1002
}
1002
{
1000
OTHER
1070
     0
1002
}
1002
{
1000
REACTOR
1002
}
1001
GENIUS_GENOBJ-N-FIL_13
1002
{
1000
OWNER
1000
GEN
1002
}
  0
LINE
  5
A34
330
9EE
100
AcDbEntity
  8
AM_0
100
AcDbLine
 10
-12.00000000000007
 20
0.3985786437625909
 30
0.0
 11
-12.00000000000007
 21
1.392893218812844
 31
0.0
  0
LINE
  5
A35
330
9EE
100
AcDbEntity
  8
AM_0
100
AcDbLine
 10
-0.0000000000000764
 20
6.59857864376255
 30
0.0
 11
-0.0000000000000195
 21
5.604264068712353
 31
0.0
  0
ARC
  5
A36
330
9EE
100
AcDbEntity
  8
AM_0
100
AcDbCircle
 10
-0.0000000000000764
 20
5.038578643762548
 30
0.0
 40
0.3999999999999488
100
AcDbArc
 50
109.4712206344584
 51
180.0
  0
ARC
  5
A37
330
9EE
100
AcDbEntity
  8
AM_0
100
AcDbCircle
 10
-0.1999999999999513
 20
5.604264068712353
 30
0.0
 40
0.2
100
AcDbArc
 50
289.4712206344672
 51
0.0
1001
GENIUS_GENODEF_13
1002
{
1000
HIER
1070
     0
1002
}
1002
{
1000
MANEDIT
1070
     0
1002
}
1002
{
1000
NOSEL
1070
     0
1002
}
1002
{
1000
BEHIND
1070
     0
1002
}
1002
{
1000
OTHER
1070
     0
1002
}
1002
{
1000
REACTOR
1002
}
1001
GENIUS_GENOBJ-N-FIL_13
1002
{
1000
OWNER
1000
GEN
1002
}
  0
ARC
  5
A38
330
9EE
100
AcDbEntity
  8
AM_0
100
AcDbCircle
 10
-12.00000000000007
 20
1.958578643762593
 30
0.0
 40
0.4000000000000057
100
AcDbArc
 50
289.4712206344724
 51
0.0
  0
ARC
  5
A39
330
9EE
100
AcDbEntity
  8
AM_0
100
AcDbCircle
 10
-11.80000000000009
 20
1.392893218812844
 30
0.0
 40
0.2
100
AcDbArc
 50
109.4712206344756
 51
180.0
1001
GENIUS_GENODEF_13
1002
{
1000
HIER
1070
     0
1002
}
1002
{
1000
MANEDIT
1070
     0
1002
}
1002
{
1000
NOSEL
1070
     0
1002
}
1002
{
1000
BEHIND
1070
     0
1002
}
1002
{
1000
OTHER
1070
     0
1002
}
1002
{
1000
REACTOR
1002
}
1001
GENIUS_GENOBJ-N-FIL_13
1002
{
1000
OWNER
1000
GEN
1002
}
  0
LINE
  5
A3A
330
9EE
100
AcDbEntity
  8
AM_0
100
AcDbLine
 10
-11.34354462590877
 20
5.412130281212228
 30
0.0
 11
-11.59645537409166
 21
3.525027006309557
 31
0.0
  0
ARC
  5
A3B
330
9EE
100
AcDbEntity
  8
AM_0
100
AcDbCircle
 10
-11.2000000000004
 20
3.471893811843699
 30
0.0
 40
0.4
100
AcDbArc
 50
172.3666694127663
 51
180.0
1001
GENIUS_GENOBJ-N-FIL_13
1002
{
1000
OWNER
1000
GEN
1002
}
1001
GENIUS_GENODEF_13
1002
{
1000
HIER
1070
     0
1002
}
1002
{
1000
MANEDIT
1070
     0
1002
}
1002
{
1000
NOSEL
1070
     0
1002
}
1002
{
1000
BEHIND
1070
     0
1002
}
1002
{
1000
OTHER
1070
     0
1002
}
1002
{
1000
REACTOR
1002
}
  0
ARC
  5
A3C
330
9EE
100
AcDbEntity
  8
AM_0
100
AcDbCircle
 10
-11.74000000000003
 20
5.465263475678085
 30
0.0
 40
0.4
100
AcDbArc
 50
352.3666694127664
 51
0.0
1001
GENIUS_GENOBJ-N-FIL_13
1002
{
1000
OWNER
1000
GEN
1002
}
1001
GENIUS_GENODEF_13
1002
{
1000
HIER
1070
     0
1002
}
1002
{
1000
MANEDIT
1070
     0
1002
}
1002
{
1000
NOSEL
1070
     0
1002
}
1002
{
1000
BEHIND
1070
     0
1002
}
1002
{
1000
OTHER
1070
     0
1002
}
1002
{
1000
REACTOR
1002
}
  0
LINE
  5
A3D
330
9EE
100
AcDbEntity
  8
AM_0
100
AcDbLine
 10
-11.60000000000038
 20
3.471893811843699
 30
0.0
 11
-11.60000000000038
 21
1.958578643762593
 31
0.0
  0
LINE
  5
A3E
330
9EE
100
AcDbEntity
  8
AM_0
100
AcDbLine
 10
-0.4000000000000537
 20
5.038578643762463
 30
0.0
 11
-0.4000000000000537
 21
3.525263475678685
 31
0.0
  0
LINE
  5
A3F
330
9EE
100
AcDbEntity
  8
AM_0
100
AcDbLine
 10
-0.4035446259087703
 20
3.472130281212856
 30
0.0
 11
-0.6564553740913848
 21
1.58502700631098
 31
0.0
  0
ARC
  5
A40
330
9EE
100
AcDbEntity
  8
AM_0
100
AcDbCircle
 10
-0.8000000000000309
 20
3.525263475678685
 30
0.0
 40
0.4
100
AcDbArc
 50
352.3666694127705
 51
0.0
1001
GENIUS_GENODEF_13
1002
{
1000
HIER
1070
     0
1002
}
1002
{
1000
MANEDIT
1070
     0
1002
}
1002
{
1000
NOSEL
1070
     0
1002
}
1002
{
1000
BEHIND
1070
     0
1002
}
1002
{
1000
OTHER
1070
     0
1002
}
1002
{
1000
REACTOR
1002
}
1001
GENIUS_GENOBJ-N-FIL_13
1002
{
1000
OWNER
1000
GEN
1002
}
  0
CIRCLE
  5
A41
330
9EE
100
AcDbEntity
  8
AM_0
100
AcDbCircle
 10
-6.000000000000019
 20
3.498578643762187
 30
0.0
 40
2.25
  0
ENDBLK
  5
9F0
330
9EE
100
AcDbEntity
  8
0
100
AcDbBlockEnd
  0
BLOCK
  5
15E4
330
15E3
100
AcDbEntity
  8
0
100
AcDbBlockBegin
  2
ta2
 70
     0
 10
0.0
 20
0.0
 30
0.0
  3
ta2
  1

  0
LINE
  5
15E5
330
15E3
100
AcDbEntity
  8
AM_0
100
AcDbLine
 10
-55.23858755055481
 20
79.91153498646927
 30
0.0
 11
-40.66858755055493
 21
79.91153498646927
 31
0.0
  0
ARC
  5
15E6
330
15E3
100
AcDbEntity
  8
AM_0
100
AcDbCircle
 10
-55.23858755055481
 20
79.11153498646925
 30
0.0
 40
0.8
100
AcDbArc
 50
90.0
 51
180.0
1001
GENIUS_GENOBJ-N-FIL_13
1002
{
1000
OWNER
1000
GEN
1002
}
1001
GENIUS_GENODEF_13
1002
{
1000
HIER
1070
     0
1002
}
1002
{
1000
MANEDIT
1070
     0
1002
}
1002
{
1000
NOSEL
1070
     0
1002
}
1002
{
1000
BEHIND
1070
     0
1002
}
1002
{
1000
OTHER
1070
     0
1002
}
1002
{
1000
REACTOR
1002
}
  0
LINE
  5
15E7
330
15E3
100
AcDbEntity
  8
AM_0
100
AcDbLine
 10
-39.86858755055492
 20
79.11153498646925
 30
0.0
 11
-39.86858755055492
 21
77.09675790690505
 31
0.0
  0
ARC
  5
15E8
330
15E3
100
AcDbEntity
  8
AM_0
100
AcDbCircle
 10
-40.66858755055493
 20
77.09675790690505
 30
0.0
 40
0.8
100
AcDbArc
 50
333.9281571240058
 51
0.0
1001
GENIUS_GENODEF_13
1002
{
1000
HIER
1070
     0
1002
}
1002
{
1000
MANEDIT
1070
     0
1002
}
1002
{
1000
NOSEL
1070
     0
1002
}
1002
{
1000
BEHIND
1070
     0
1002
}
1002
{
1000
OTHER
1070
     0
1002
}
1002
{
1000
REACTOR
1002
}
1001
GENIUS_GENOBJ-N-FIL_13
1002
{
1000
OWNER
1000
GEN
1002
}
  0
ARC
  5
15E9
330
15E3
100
AcDbEntity
  8
AM_0
100
AcDbCircle
 10
-40.66858755055493
 20
79.11153498646925
 30
0.0
 40
0.8
100
AcDbArc
 50
0.0
 51
90.0
1001
GENIUS_GENOBJ-N-FIL_13
1002
{
1000
OWNER
1000
GEN
1002
}
1001
GENIUS_GENODEF_13
1002
{
1000
HIER
1070
     0
1002
}
1002
{
1000
MANEDIT
1070
     0
1002
}
1002
{
1000
NOSEL
1070
     0
1002
}
1002
{
1000
BEHIND
1070
     0
1002
}
1002
{
1000
OTHER
1070
     0
1002
}
1002
{
1000
REACTOR
1002
}
  0
LINE
  5
15EA
330
15E3
100
AcDbEntity
  8
AM_0
100
AcDbLine
 10
-57.40858755055494
 20
72.52631206603402
 30
0.0
 11
-57.40858755055488
 21
70.5115349864696
 31
0.0
  0
LINE
  5
15EB
330
15E3
100
AcDbEntity
  8
AM_0
100
AcDbLine
 10
-56.60858755055487
 20
69.71153498646959
 30
0.0
 11
-42.03858755055491
 21
69.71153498646962
 31
0.0
  0
ARC
  5
15EC
330
15E3
100
AcDbEntity
  8
AM_0
100
AcDbCircle
 10
-56.60858755055487
 20
70.5115349864696
 30
0.0
 40
0.8
100
AcDbArc
 50
180.0
 51
270.0
1001
GENIUS_GENOBJ-N-FIL_13
1002
{
1000
OWNER
1000
GEN
1002
}
1001
GENIUS_GENODEF_13
1002
{
1000
HIER
1070
     0
1002
}
1002
{
1000
MANEDIT
1070
     0
1002
}
1002
{
1000
NOSEL
1070
     0
1002
}
1002
{
1000
BEHIND
1070
     0
1002
}
1002
{
1000
OTHER
1070
     0
1002
}
1002
{
1000
REACTOR
1002
}
  0
LINE
  5
15ED
330
15E3
100
AcDbEntity
  8
AM_0
100
AcDbLine
 10
-56.03858755055482
 20
79.11153498646925
 30
0.0
 11
-56.03858755055488
 21
76.97634492328242
 31
0.0
  0
LINE
  5
15EE
330
15E3
100
AcDbEntity
  8
AM_0
100
AcDbLine
 10
-56.04901990267321
 20
76.84757019975887
 30
0.0
 11
-56.36206172632267
 21
74.92818967519295
 31
0.0
  0
ARC
  5
15EF
330
15E3
100
AcDbEntity
  8
AM_0
100
AcDbCircle
 10
-56.83858755055489
 20
76.97634492328245
 30
0.0
 40
0.8
100
AcDbArc
 50
350.7368896666856
 51
359.9999999999984
1001
GENIUS_GENOBJ-N-FIL_13
1002
{
1000
OWNER
1000
GEN
1002
}
1001
GENIUS_GENODEF_13
1002
{
1000
HIER
1070
     0
1002
}
1002
{
1000
MANEDIT
1070
     0
1002
}
1002
{
1000
NOSEL
1070
     0
1002
}
1002
{
1000
BEHIND
1070
     0
1002
}
1002
{
1000
OTHER
1070
     0
1002
}
1002
{
1000
REACTOR
1002
}
  0
ARC
  5
15F0
330
15E3
100
AcDbEntity
  8
AM_0
100
AcDbCircle
 10
-57.15162937420434
 20
75.0569643987165
 30
0.0
 40
0.8
100
AcDbArc
 50
333.928157124005
 51
350.7368896666872
1001
GENIUS_GENOBJ-N-FIL_13
1002
{
1000
OWNER
1000
GEN
1002
}
1001
GENIUS_GENODEF_13
1002
{
1000
HIER
1070
     0
1002
}
1002
{
1000
MANEDIT
1070
     0
1002
}
1002
{
1000
NOSEL
1070
     0
1002
}
1002
{
1000
BEHIND
1070
     0
1002
}
1002
{
1000
OTHER
1070
     0
1002
}
1002
{
1000
REACTOR
1002
}
  0
LINE
  5
15F1
330
15E3
100
AcDbEntity
  8
AM_0
100
AcDbLine
 10
-56.43303443931866
 20
74.70536616271886
 30
0.0
 11
-57.32718248544061
 21
72.87791030203166
 31
0.0
  0
ARC
  5
15F2
330
15E3
100
AcDbEntity
  8
AM_0
100
AcDbCircle
 10
-56.60858755055492
 20
72.52631206603402
 30
0.0
 40
0.8
100
AcDbArc
 50
153.9281571240049
 51
180.0
1001
GENIUS_GENOBJ-N-FIL_13
1002
{
1000
OWNER
1000
GEN
1002
}
1001
GENIUS_GENODEF_13
1002
{
1000
HIER
1070
     0
1002
}
1002
{
1000
MANEDIT
1070
     0
1002
}
1002
{
1000
NOSEL
1070
     0
1002
}
1002
{
1000
BEHIND
1070
     0
1002
}
1002
{
1000
OTHER
1070
     0
1002
}
1002
{
1000
REACTOR
1002
}
  0
LINE
  5
15F3
330
15E3
100
AcDbEntity
  8
AM_0
100
AcDbLine
 10
-41.23858755055489
 20
70.5115349864696
 30
0.0
 11
-41.23858755055486
 21
72.64672504965682
 31
0.0
  0
ARC
  5
15F4
330
15E3
100
AcDbEntity
  8
AM_0
100
AcDbCircle
 10
-42.03858755055491
 20
70.5115349864696
 30
0.0
 40
0.8
100
AcDbArc
 50
270.0
 51
0.0
1001
GENIUS_GENOBJ-N-FIL_13
1002
{
1000
OWNER
1000
GEN
1002
}
1001
GENIUS_GENODEF_13
1002
{
1000
HIER
1070
     0
1002
}
1002
{
1000
MANEDIT
1070
     0
1002
}
1002
{
1000
NOSEL
1070
     0
1002
}
1002
{
1000
BEHIND
1070
     0
1002
}
1002
{
1000
OTHER
1070
     0
1002
}
1002
{
1000
REACTOR
1002
}
  0
LINE
  5
15F5
330
15E3
100
AcDbEntity
  8
AM_0
100
AcDbLine
 10
-41.23858755055489
 20
72.71153498646961
 30
0.0
 11
-40.91511337478716
 21
74.69488029774618
 31
0.0
  0
ARC
  5
15F6
330
15E3
100
AcDbEntity
  8
AM_0
100
AcDbCircle
 10
-40.12554572690548
 20
74.5661055742226
 30
0.0
 40
0.8
100
AcDbArc
 50
153.9281571240058
 51
170.7368896666872
1001
GENIUS_GENOBJ-N-FIL_13
1002
{
1000
OWNER
1000
GEN
1002
}
1001
GENIUS_GENODEF_13
1002
{
1000
HIER
1070
     0
1002
}
1002
{
1000
MANEDIT
1070
     0
1002
}
1002
{
1000
NOSEL
1070
     0
1002
}
1002
{
1000
BEHIND
1070
     0
1002
}
1002
{
1000
OTHER
1070
     0
1002
}
1002
{
1000
REACTOR
1002
}
  0
ARC
  5
15F7
330
15E3
100
AcDbEntity
  8
AM_0
100
AcDbCircle
 10
-40.43858755055485
 20
72.64672504965682
 30
0.0
 40
0.8
100
AcDbArc
 50
170.7368896666872
 51
180.0
1001
GENIUS_GENODEF_13
1002
{
1000
HIER
1070
     0
1002
}
1002
{
1000
MANEDIT
1070
     0
1002
}
1002
{
1000
NOSEL
1070
     0
1002
}
1002
{
1000
BEHIND
1070
     0
1002
}
1002
{
1000
OTHER
1070
     0
1002
}
1002
{
1000
REACTOR
1002
}
1001
GENIUS_GENOBJ-N-FIL_13
1002
{
1000
OWNER
1000
GEN
1002
}
  0
LINE
  5
15F8
330
15E3
100
AcDbEntity
  8
AM_0
100
AcDbLine
 10
-40.84414066179117
 20
74.91770381022025
 30
0.0
 11
-39.94999261566924
 21
76.74515967090741
 31
0.0
  0
CIRCLE
  5
15F9
330
15E3
100
AcDbEntity
  8
AM_0
100
AcDbCircle
 10
-48.6385875505551
 20
74.81153498646958
 30
0.0
 40
3.0
  0
ENDBLK
  5
15FA
330
15E3
100
AcDbEntity
  8
0
100
AcDbBlockEnd
  0
BLOCK
  5
1E54
330
1E3C
100
AcDbEntity
  8
0
100
AcDbBlockBegin
  2
*D6
 70
     1
 10
0.0
 20
0.0
 30
0.0
  3
*D6
  1

  0
LINE
  5
2244
330
1E3C
100
AcDbEntity
  8
AM_5
 62
     3
100
AcDbLine
 10
0.1
 20
201.2340414192671
 30
0.0
 11
20.0680370975536
 21
201.2340414192671
 31
0.0
  0
LINE
  5
2245
330
1E3C
100
AcDbEntity
  8
AM_5
 62
     3
100
AcDbLine
 10
0.1
 20
151.2340414192671
 30
0.0
 11
20.06803709755359
 21
151.2340414192671
 31
0.0
  0
LINE
  5
2246
330
1E3C
100
AcDbEntity
  8
AM_5
 62
     3
100
AcDbLine
 10
19.56803709755359
 20
198.7340414192671
 30
0.0
 11
19.56803709755359
 21
153.7340414192671
 31
0.0
  0
INSERT
  5
2247
330
1E3C
100
AcDbEntity
  8
AM_5
 62
     3
100
AcDbBlockReference
  2
_Open30
 10
19.5680370975536
 20
201.2340414192671
 30
0.0
 41
2.5
 42
2.5
 43
2.5
 50
90.0
  0
INSERT
  5
2248
330
1E3C
100
AcDbEntity
  8
AM_5
 62
     3
100
AcDbBlockReference
  2
_Open30
 10
19.56803709755358
 20
151.2340414192671
 30
0.0
 41
2.5
 42
2.5
 43
2.5
 50
270.0
  0
MTEXT
  5
2249
330
1E3C
100
AcDbEntity
  8
AM_5
 62
     2
100
AcDbMText
 10
16.86803709755356
 20
176.2340414192671
 30
0.0
 40
3.399999999999999
 41
0.0
 71
     5
 72
     1
  1
%%c50
 11
0.0000000000000001
 21
1.0
 31
0.0
 73
     1
 44
1.0
  0
POINT
  5
224A
330
1E3C
100
AcDbEntity
  8
Defpoints
 62
     0
100
AcDbPoint
 10
0.0
 20
201.2340414192671
 30
0.0
  0
POINT
  5
224B
330
1E3C
100
AcDbEntity
  8
Defpoints
 62
     0
100
AcDbPoint
 10
0.0
 20
151.2340414192671
 30
0.0
  0
POINT
  5
224C
330
1E3C
100
AcDbEntity
  8
Defpoints
 62
     0
100
AcDbPoint
 10
19.56803709755358
 20
151.2340414192671
 30
0.0
  0
ENDBLK
  5
1E55
330
1E3C
100
AcDbEntity
  8
0
100
AcDbBlockEnd
  0
BLOCK
  5
1EC8
330
1EA7
100
AcDbEntity
  8
0
100
AcDbBlockBegin
  2
*D7
 70
     1
 10
0.0
 20
0.0
 30
0.0
  3
*D7
  1

  0
LINE
  5
223B
330
1EA7
100
AcDbEntity
  8
AM_5
 62
     3
100
AcDbLine
 10
-27.70000000000001
 20
212.2340414192671
 30
0.0
 11
29.2324200096408
 21
212.2340414192671
 31
0.0
  0
LINE
  5
223C
330
1EA7
100
AcDbEntity
  8
AM_5
 62
     3
100
AcDbLine
 10
-29.21433332460092
 20
140.2340414192671
 30
0.0
 11
29.23242000964079
 21
140.2340414192671
 31
0.0
  0
LINE
  5
223D
330
1EA7
100
AcDbEntity
  8
AM_5
 62
     3
100
AcDbLine
 10
28.7324200096408
 20
209.7340414192671
 30
0.0
 11
28.73242000964078
 21
142.7340414192671
 31
0.0
  0
INSERT
  5
223E
330
1EA7
100
AcDbEntity
  8
AM_5
 62
     3
100
AcDbBlockReference
  2
_Open30
 10
28.7324200096408
 20
212.2340414192671
 30
0.0
 41
2.5
 42
2.5
 43
2.5
 50
90.0
  0
INSERT
  5
223F
330
1EA7
100
AcDbEntity
  8
AM_5
 62
     3
100
AcDbBlockReference
  2
_Open30
 10
28.73242000964078
 20
140.2340414192671
 30
0.0
 41
2.5
 42
2.5
 43
2.5
 50
270.0
  0
MTEXT
  5
2240
330
1EA7
100
AcDbEntity
  8
AM_5
 62
     2
100
AcDbMText
 10
26.03208536397147
 20
176.2340414192671
 30
0.0
 40
3.399999999999999
 41
0.0
 71
     5
 72
     1
  1
%%c72
 11
0.0000000000000001
 21
1.0
 31
0.0
 73
     1
 44
1.0
  0
POINT
  5
2241
330
1EA7
100
AcDbEntity
  8
Defpoints
 62
     0
100
AcDbPoint
 10
-27.80000000000001
 20
212.2340414192671
 30
0.0
  0
POINT
  5
2242
330
1EA7
100
AcDbEntity
  8
Defpoints
 62
     0
100
AcDbPoint
 10
-29.31433332460093
 20
140.2340414192671
 30
0.0
  0
POINT
  5
2243
330
1EA7
100
AcDbEntity
  8
Defpoints
 62
     0
100
AcDbPoint
 10
28.73242000964078
 20
140.2340414192671
 30
0.0
  0
ENDBLK
  5
1EC9
330
1EA7
100
AcDbEntity
  8
0
100
AcDbBlockEnd
  0
BLOCK
  5
1F09
330
1EF1
100
AcDbEntity
  8
0
100
AcDbBlockBegin
  2
*D8
 70
     1
 10
0.0
 20
0.0
 30
0.0
  3
*D8
  1

  0
LINE
  5
224D
330
1EF1
100
AcDbEntity
  8
AM_5
 62
     3
100
AcDbLine
 10
0.0
 20
152.1340414192671
 30
0.0
 11
-0.0000000000000021
 21
118.6140752695354
 31
0.0
  0
LINE
  5
224E
330
1EF1
100
AcDbEntity
  8
AM_5
 62
     3
100
AcDbLine
 10
-120.0
 20
161.6340414192671
 30
0.0
 11
-120.0
 21
118.6140752695354
 31
0.0
  0
LINE
  5
224F
330
1EF1
100
AcDbEntity
  8
AM_5
 62
     3
100
AcDbLine
 10
-2.500000000000002
 20
119.1140752695354
 30
0.0
 11
-117.5
 21
119.1140752695354
 31
0.0
  0
INSERT
  5
2250
330
1EF1
100
AcDbEntity
  8
AM_5
 62
     3
100
AcDbBlockReference
  2
_Open30
 10
-0.000000000000002
 20
119.1140752695354
 30
0.0
 41
2.5
 42
2.5
 43
2.5
  0
INSERT
  5
2251
330
1EF1
100
AcDbEntity
  8
AM_5
 62
     3
100
AcDbBlockReference
  2
_Open30
 10
-120.0
 20
119.1140752695354
 30
0.0
 41
2.5
 42
2.5
 43
2.5
 50
180.0
  0
MTEXT
  5
2252
330
1EF1
100
AcDbEntity
  8
AM_5
 62
     2
100
AcDbMText
 10
-60.0
 20
121.8144099152047
 30
0.0
 40
3.399999999999999
 41
0.0
 71
     5
 72
     1
  1
120
 73
     1
 44
1.0
  0
POINT
  5
2253
330
1EF1
100
AcDbEntity
  8
Defpoints
 62
     0
100
AcDbPoint
 10
0.0
 20
152.2340414192671
 30
0.0
  0
POINT
  5
2254
330
1EF1
100
AcDbEntity
  8
Defpoints
 62
     0
100
AcDbPoint
 10
-120.0
 20
161.7340414192671
 30
0.0
  0
POINT
  5
2255
330
1EF1
100
AcDbEntity
  8
Defpoints
 62
     0
100
AcDbPoint
 10
-120.0
 20
119.1140752695354
 30
0.0
  0
ENDBLK
  5
1F0A
330
1EF1
100
AcDbEntity
  8
0
100
AcDbBlockEnd
  0
BLOCK
  5
1F5B
330
1F3A
100
AcDbEntity
  8
0
100
AcDbBlockBegin
  2
*D9
 70
     1
 10
0.0
 20
0.0
 30
0.0
  3
*D9
  1

  0
LINE
  5
228B
330
1F3A
100
AcDbEntity
  8
AM_5
 62
     3
100
AcDbLine
 10
-118.6
 20
192.2340414192671
 30
0.0
 11
-131.0
 21
192.2340414192671
 31
0.0
  0
LINE
  5
228C
330
1F3A
100
AcDbEntity
  8
AM_5
 62
     3
100
AcDbLine
 10
-118.6
 20
160.2340414192671
 30
0.0
 11
-131.0
 21
160.2340414192671
 31
0.0
  0
LINE
  5
228D
330
1F3A
100
AcDbEntity
  8
AM_5
 62
     3
100
AcDbLine
 10
-130.5
 20
189.7340414192671
 30
0.0
 11
-130.5
 21
162.7340414192671
 31
0.0
  0
INSERT
  5
228E
330
1F3A
100
AcDbEntity
  8
AM_5
 62
     3
100
AcDbBlockReference
  2
_Open30
 10
-130.4999999999999
 20
192.2340414192671
 30
0.0
 41
2.5
 42
2.5
 43
2.5
 50
90.0
  0
INSERT
  5
228F
330
1F3A
100
AcDbEntity
  8
AM_5
 62
     3
100
AcDbBlockReference
  2
_Open30
 10
-130.5
 20
160.2340414192671
 30
0.0
 41
2.5
 42
2.5
 43
2.5
 50
270.0
  0
MTEXT
  5
2290
330
1F3A
100
AcDbEntity
  8
AM_5
 62
     2
100
AcDbMText
 10
-133.2003346456693
 20
176.2340414192671
 30
0.0
 40
3.399999999999999
 41
0.0
 71
     5
 72
     1
  1
%%c32
 11
0.0000000000000001
 21
1.0
 31
0.0
 73
     1
 44
1.0
  0
POINT
  5
2291
330
1F3A
100
AcDbEntity
  8
Defpoints
 62
     0
100
AcDbPoint
 10
-118.5
 20
192.2340414192671
 30
0.0
  0
POINT
  5
2292
330
1F3A
100
AcDbEntity
  8
Defpoints
 62
     0
100
AcDbPoint
 10
-118.5
 20
160.2340414192671
 30
0.0
  0
POINT
  5
2293
330
1F3A
100
AcDbEntity
  8
Defpoints
 62
     0
100
AcDbPoint
 10
-130.5
 20
160.2340414192671
 30
0.0
  0
ENDBLK
  5
1F5C
330
1F3A
100
AcDbEntity
  8
0
100
AcDbBlockEnd
  0
BLOCK
  5
1F85
330
1F6D
100
AcDbEntity
  8
0
100
AcDbBlockBegin
  2
*D10
 70
     1
 10
0.0
 20
0.0
 30
0.0
  3
*D10
  1

  0
LINE
  5
225F
330
1F6D
100
AcDbEntity
  8
AM_5
 62
     3
100
AcDbLine
 10
-120.0
 20
161.6340414192671
 30
0.0
 11
-120.0
 21
127.8158537993984
 31
0.0
  0
LINE
  5
2260
330
1F6D
100
AcDbEntity
  8
AM_5
 62
     3
100
AcDbLine
 10
-40.0
 20
160.4340414192671
 30
0.0
 11
-40.0
 21
127.8158537993984
 31
0.0
  0
LINE
  5
2261
330
1F6D
100
AcDbEntity
  8
AM_5
 62
     3
100
AcDbLine
 10
-117.5
 20
128.3158537993984
 30
0.0
 11
-42.5
 21
128.3158537993984
 31
0.0
  0
INSERT
  5
2262
330
1F6D
100
AcDbEntity
  8
AM_5
 62
     3
100
AcDbBlockReference
  2
_Open30
 10
-120.0
 20
128.3158537993984
 30
0.0
 41
2.5
 42
2.5
 43
2.5
 50
180.0
  0
INSERT
  5
2263
330
1F6D
100
AcDbEntity
  8
AM_5
 62
     3
100
AcDbBlockReference
  2
_Open30
 10
-40.0
 20
128.3158537993984
 30
0.0
 41
2.5
 42
2.5
 43
2.5
  0
MTEXT
  5
2264
330
1F6D
100
AcDbEntity
  8
AM_5
 62
     2
100
AcDbMText
 10
-80.0
 20
131.0158537993984
 30
0.0
 40
3.399999999999999
 41
0.0
 71
     5
 72
     1
  1
80
 73
     1
 44
1.0
  0
POINT
  5
2265
330
1F6D
100
AcDbEntity
  8
Defpoints
 62
     0
100
AcDbPoint
 10
-120.0
 20
161.7340414192671
 30
0.0
  0
POINT
  5
2266
330
1F6D
100
AcDbEntity
  8
Defpoints
 62
     0
100
AcDbPoint
 10
-40.0
 20
160.5340414192671
 30
0.0
  0
POINT
  5
2267
330
1F6D
100
AcDbEntity
  8
Defpoints
 62
     0
100
AcDbPoint
 10
-40.0
 20
128.3158537993984
 30
0.0
  0
ENDBLK
  5
1F86
330
1F6D
100
AcDbEntity
  8
0
100
AcDbBlockEnd
  0
BLOCK
  5
204F
330
2037
100
AcDbEntity
  8
0
100
AcDbBlockBegin
  2
*D11
 70
     1
 10
0.0
 20
0.0
 30
0.0
  3
*D11
  1

  0
LINE
  5
2268
330
2037
100
AcDbEntity
  8
AM_5
 62
     3
100
AcDbLine
 10
-40.0
 20
150.1340414192671
 30
0.0
 11
-40.0
 21
127.8158537993985
 31
0.0
  0
LINE
  5
2269
330
2037
100
AcDbEntity
  8
AM_5
 62
     3
100
AcDbLine
 10
0.0
 20
151.6840763218505
 30
0.0
 11
-0.0000000000000015
 21
127.8158537993985
 31
0.0
  0
LINE
  5
226A
330
2037
100
AcDbEntity
  8
AM_5
 62
     3
100
AcDbLine
 10
-37.5
 20
128.3158537993985
 30
0.0
 11
-2.500000000000001
 21
128.3158537993985
 31
0.0
  0
INSERT
  5
226B
330
2037
100
AcDbEntity
  8
AM_5
 62
     3
100
AcDbBlockReference
  2
_Open30
 10
-40.0
 20
128.3158537993985
 30
0.0
 41
2.5
 42
2.5
 43
2.5
 50
180.0
  0
INSERT
  5
226C
330
2037
100
AcDbEntity
  8
AM_5
 62
     3
100
AcDbBlockReference
  2
_Open30
 10
-0.0000000000000014
 20
128.3158537993985
 30
0.0
 41
2.5
 42
2.5
 43
2.5
  0
MTEXT
  5
226D
330
2037
100
AcDbEntity
  8
AM_5
 62
     2
100
AcDbMText
 10
-20.0
 20
131.0158537993985
 30
0.0
 40
3.399999999999999
 41
0.0
 71
     5
 72
     1
  1
40
 73
     1
 44
1.0
  0
POINT
  5
226E
330
2037
100
AcDbEntity
  8
Defpoints
 62
     0
100
AcDbPoint
 10
-40.0
 20
150.2340414192671
 30
0.0
  0
POINT
  5
226F
330
2037
100
AcDbEntity
  8
Defpoints
 62
     0
100
AcDbPoint
 10
0.0
 20
151.7840763218505
 30
0.0
  0
POINT
  5
2270
330
2037
100
AcDbEntity
  8
Defpoints
 62
     0
100
AcDbPoint
 10
-0.0000000000000014
 20
128.3158537993985
 30
0.0
  0
ENDBLK
  5
2050
330
2037
100
AcDbEntity
  8
0
100
AcDbBlockEnd
  0
BLOCK
  5
20F6
330
20AF
100
AcDbEntity
  8
0
100
AcDbBlockBegin
  2
*D12
 70
     1
 10
0.0
 20
0.0
 30
0.0
  3
*D12
  1

  0
LINE
  5
227E
330
20AF
100
AcDbEntity
  8
AM_5
 62
     3
100
AcDbLine
 10
0.0707106781187008
 20
201.1633307411484
 30
0.0
 11
12.34377858595581
 21
188.8902628333113
 31
0.0
  0
LINE
  5
227F
330
20AF
100
AcDbEntity
  8
AM_5
 62
     3
100
AcDbLine
 10
11.52878436107424
 20
201.2340414192671
 30
0.0
 11
17.45673908718926
 21
201.2340414192671
 31
0.0
  0
ARC
  5
2280
330
20AF
100
AcDbEntity
  8
AM_5
 62
     3
100
AcDbCircle
 10
0.0000000000000284
 20
201.2340414192671
 30
0.0
 40
16.45673908718923
100
AcDbArc
 50
297.5752183708273
 51
306.2876091854137
  0
ARC
  5
2281
330
20AF
100
AcDbEntity
  8
AM_5
 62
     3
100
AcDbCircle
 10
0.0000000000000284
 20
201.2340414192671
 30
0.0
 40
16.45673908718923
100
AcDbArc
 50
8.712390814586452
 51
17.42478162917282
  0
ARC
  5
2282
330
20AF
100
AcDbEntity
  8
AM_5
 62
     3
100
AcDbCircle
 10
0.0000000000000284
 20
201.2340414192671
 30
0.0
 40
16.45673908718923
100
AcDbArc
 50
315.0000000000002
 51
0.0
  0
INSERT
  5
2283
330
20AF
100
AcDbEntity
  8
AM_5
 62
     3
100
AcDbBlockReference
  2
_Open30
 10
11.63667180476927
 20
189.5973696144979
 30
0.0
 41
2.5
 42
2.5
 43
2.5
 50
40.64380459270693
  0
INSERT
  5
2284
330
20AF
100
AcDbEntity
  8
AM_5
 62
     3
100
AcDbBlockReference
  2
_Open30
 10
16.45673908718925
 20
201.2340414192671
 30
0.0
 41
2.5
 42
2.5
 43
2.5
 50
274.3561954072932
  0
MTEXT
  5
2285
330
20AF
100
AcDbEntity
  8
AM_5
 62
     2
100
AcDbMText
 10
12.7095696767522
 20
195.9695652872305
 30
0.0
 40
3.399999999999999
 41
0.0
 71
     5
 72
     1
  1
45%%d
 11
0.382683432365089
 21
0.9238795325112871
 31
0.0
 73
     1
 44
1.0
  0
POINT
  5
2286
330
20AF
100
AcDbEntity
  8
Defpoints
 62
     0
100
AcDbPoint
 10
14.25195411295825
 20
193.0056718756725
 30
0.0
  0
POINT
  5
2287
330
20AF
100
AcDbEntity
  8
Defpoints
 62
     0
100
AcDbPoint
 10
0.1000000000000085
 20
201.2340414192671
 30
0.0
  0
POINT
  5
2288
330
20AF
100
AcDbEntity
  8
Defpoints
 62
     0
100
AcDbPoint
 10
-6.789051999999998
 20
208.0230934192671
 30
0.0
  0
POINT
  5
2289
330
20AF
100
AcDbEntity
  8
Defpoints
 62
     0
100
AcDbPoint
 10
-0.1912030000000016
 20
201.4252444192671
 30
0.0
  0
POINT
  5
228A
330
20AF
100
AcDbEntity
  8
Defpoints
 62
     0
100
AcDbPoint
 10
11.42878436107423
 20
201.2340414192671
 30
0.0
  0
ENDBLK
  5
20F7
330
20AF
100
AcDbEntity
  8
0
100
AcDbBlockEnd
  0
BLOCK
  5
22F1
330
22D9
100
AcDbEntity
  8
0
100
AcDbBlockBegin
  2
*D15
 70
     1
 10
0.0
 20
0.0
 30
0.0
  3
*D15
  1

  0
LINE
  5
2327
330
22D9
100
AcDbEntity
  8
AM_5
 62
     3
100
AcDbLine
 10
-35.64697724830126
 20
74.0
 30
0.0
 11
-80.45502453908445
 21
74.0
 31
0.0
  0
LINE
  5
2328
330
22D9
100
AcDbEntity
  8
AM_5
 62
     3
100
AcDbLine
 10
-32.80672193762691
 20
-73.80000000000001
 30
0.0
 11
-80.45502453908447
 21
-73.80000000000001
 31
0.0
  0
LINE
  5
2329
330
22D9
100
AcDbEntity
  8
AM_5
 62
     3
100
AcDbLine
 10
-79.95502453908445
 20
71.5
 30
0.0
 11
-79.95502453908447
 21
-71.30000000000001
 31
0.0
  0
INSERT
  5
232A
330
22D9
100
AcDbEntity
  8
AM_5
 62
     3
100
AcDbBlockReference
  2
_Open30
 10
-79.95502453908445
 20
74.0
 30
0.0
 41
2.5
 42
2.5
 43
2.5
 50
90.0
  0
INSERT
  5
232B
330
22D9
100
AcDbEntity
  8
AM_5
 62
     3
100
AcDbBlockReference
  2
_Open30
 10
-79.95502453908447
 20
-73.80000000000001
 30
0.0
 41
2.5
 42
2.5
 43
2.5
 50
270.0
  0
MTEXT
  5
232C
330
22D9
100
AcDbEntity
  8
AM_5
 62
     2
100
AcDbMText
 10
-82.65502453908446
 20
0.0999999999999853
 30
0.0
 40
3.399999999999999
 41
0.0
 71
     5
 72
     1
  1
148
 11
0.0000000000000001
 21
1.0
 31
0.0
 73
     1
 44
1.0
  0
POINT
  5
232D
330
22D9
100
AcDbEntity
  8
Defpoints
 62
     0
100
AcDbPoint
 10
-35.54697724830126
 20
74.0
 30
0.0
  0
POINT
  5
232E
330
22D9
100
AcDbEntity
  8
Defpoints
 62
     0
100
AcDbPoint
 10
-32.70672193762691
 20
-73.80000000000001
 30
0.0
  0
POINT
  5
232F
330
22D9
100
AcDbEntity
  8
Defpoints
 62
     0
100
AcDbPoint
 10
-79.95502453908447
 20
-73.80000000000001
 30
0.0
  0
ENDBLK
  5
22F2
330
22D9
100
AcDbEntity
  8
0
100
AcDbBlockEnd
  0
BLOCK
  5
2391
330
234C
100
AcDbEntity
  8
0
100
AcDbBlockBegin
  2
*D16
 70
     1
 10
0.0
 20
0.0
 30
0.0
  3
*D16
  1

  0
LINE
  5
2361
330
234C
100
AcDbEntity
  8
AM_5
 62
     3
100
AcDbLine
 10
-37.51344387525384
 20
73.99999999999998
 30
0.0
 11
-96.910454446667
 21
74.0
 31
0.0
  0
LINE
  5
2362
330
234C
100
AcDbEntity
  8
AM_5
 62
     3
100
AcDbLine
 10
-37.51344397525381
 20
-74.0
 30
0.0
 11
-96.91045444666704
 21
-73.99999999999998
 31
0.0
  0
LINE
  5
2363
330
234C
100
AcDbEntity
  8
AM_5
 62
     3
100
AcDbLine
 10
-96.41045444666701
 20
71.5
 30
0.0
 11
-96.41045444666703
 21
-71.49999999999998
 31
0.0
  0
INSERT
  5
2364
330
234C
100
AcDbEntity
  8
AM_5
 62
     3
100
AcDbBlockReference
  2
_Open30
 10
-96.41045444666701
 20
74.0
 30
0.0
 41
2.5
 42
2.5
 43
2.5
 50
90.0
  0
INSERT
  5
2365
330
234C
100
AcDbEntity
  8
AM_5
 62
     3
100
AcDbBlockReference
  2
_Open30
 10
-96.41045444666703
 20
-73.99999999999998
 30
0.0
 41
2.5
 42
2.5
 43
2.5
 50
270.0
  0
MTEXT
  5
2366
330
234C
100
AcDbEntity
  8
AM_5
 62
     2
100
AcDbMText
 10
-99.11045444666703
 20
-0.0000000000000151
 30
0.0
 40
3.399999999999999
 41
0.0
 71
     5
 72
     1
  1
%%c148
 11
0.0000000000000001
 21
1.0
 31
0.0
 73
     1
 44
1.0
  0
POINT
  5
2367
330
234C
100
AcDbEntity
  8
Defpoints
 62
     0
100
AcDbPoint
 10
-37.41344387525384
 20
73.99999999999998
 30
0.0
  0
POINT
  5
2368
330
234C
100
AcDbEntity
  8
Defpoints
 62
     0
100
AcDbPoint
 10
-37.41344397525381
 20
-74.0
 30
0.0
  0
POINT
  5
2369
330
234C
100
AcDbEntity
  8
Defpoints
 62
     0
100
AcDbPoint
 10
-96.41045444666703
 20
-73.99999999999998
 30
0.0
  0
ENDBLK
  5
2392
330
234C
100
AcDbEntity
  8
0
100
AcDbBlockEnd
  0
BLOCK
  5
2393
330
2379
100
AcDbEntity
  8
0
100
AcDbBlockBegin
  2
*D17
 70
     1
 10
0.0
 20
0.0
 30
0.0
  3
*D17
  1

  0
LINE
  5
23EE
330
2379
100
AcDbEntity
  8
AM_5
 62
     3
100
AcDbLine
 10
-50.1
 20
7.950000000000003
 30
0.0
 11
-72.21681809624442
 21
7.950000000000009
 31
0.0
  0
LINE
  5
23EF
330
2379
100
AcDbEntity
  8
AM_5
 62
     3
100
AcDbLine
 10
-55.1
 20
-7.950000000000002
 30
0.0
 11
-72.21681809624442
 21
-7.949999999999998
 31
0.0
  0
LINE
  5
23F0
330
2379
100
AcDbEntity
  8
AM_5
 62
     3
100
AcDbLine
 10
-71.71681809624442
 20
5.450000000000009
 30
0.0
 11
-71.71681809624442
 21
-5.449999999999998
 31
0.0
  0
INSERT
  5
23F1
330
2379
100
AcDbEntity
  8
AM_5
 62
     3
100
AcDbBlockReference
  2
_Open30
 10
-71.71681809624442
 20
7.950000000000009
 30
0.0
 41
2.5
 42
2.5
 43
2.5
 50
90.0
  0
INSERT
  5
23F2
330
2379
100
AcDbEntity
  8
AM_5
 62
     3
100
AcDbBlockReference
  2
_Open30
 10
-71.71681809624442
 20
-7.949999999999998
 30
0.0
 41
2.5
 42
2.5
 43
2.5
 50
270.0
  0
MTEXT
  5
23F3
330
2379
100
AcDbEntity
  8
AM_5
 62
     2
100
AcDbMText
 10
-74.41681809624443
 20
-0.0000000000000059
 30
0.0
 40
3.399999999999999
 41
0.0
 71
     5
 72
     1
  1
15.9
 11
0.0000000000000001
 21
1.0
 31
0.0
 73
     1
 44
1.0
  0
POINT
  5
23F4
330
2379
100
AcDbEntity
  8
Defpoints
 62
     0
100
AcDbPoint
 10
-50.0
 20
7.950000000000002
 30
0.0
  0
POINT
  5
23F5
330
2379
100
AcDbEntity
  8
Defpoints
 62
     0
100
AcDbPoint
 10
-55.0
 20
-7.950000000000002
 30
0.0
  0
POINT
  5
23F6
330
2379
100
AcDbEntity
  8
Defpoints
 62
     0
100
AcDbPoint
 10
-71.71681809624442
 20
-7.949999999999998
 30
0.0
  0
ENDBLK
  5
2394
330
2379
100
AcDbEntity
  8
0
100
AcDbBlockEnd
  0
BLOCK
  5
23EB
330
23C1
100
AcDbEntity
  8
0
100
AcDbBlockBegin
  2
*D18
 70
     1
 10
0.0
 20
0.0
 30
0.0
  3
*D18
  1

  0
LINE
  5
23DF
330
23C1
100
AcDbEntity
  8
AM_5
 62
     3
100
AcDbLine
 10
-55.90661043669863
 20
19.05
 30
0.0
 11
-80.21681809624443
 21
19.05
 31
0.0
  0
LINE
  5
23E0
330
23C1
100
AcDbEntity
  8
AM_5
 62
     3
100
AcDbLine
 10
-55.90661043669862
 20
-19.05
 30
0.0
 11
-80.21681809624443
 21
-19.04999999999999
 31
0.0
  0
LINE
  5
23E1
330
23C1
100
AcDbEntity
  8
AM_5
 62
     3
100
AcDbLine
 10
-79.71681809624442
 20
16.55
 30
0.0
 11
-79.71681809624442
 21
-16.54999999999999
 31
0.0
  0
INSERT
  5
23E2
330
23C1
100
AcDbEntity
  8
AM_5
 62
     3
100
AcDbBlockReference
  2
_Open30
 10
-79.71681809624442
 20
19.05
 30
0.0
 41
2.5
 42
2.5
 43
2.5
 50
90.0
  0
INSERT
  5
23E3
330
23C1
100
AcDbEntity
  8
AM_5
 62
     3
100
AcDbBlockReference
  2
_Open30
 10
-79.71681809624442
 20
-19.04999999999999
 30
0.0
 41
2.5
 42
2.5
 43
2.5
 50
270.0
  0
MTEXT
  5
23E4
330
23C1
100
AcDbEntity
  8
AM_5
 62
     2
100
AcDbMText
 10
-82.41681809624443
 20
-0.0000000000000054
 30
0.0
 40
3.399999999999999
 41
0.0
 71
     5
 72
     1
  1
%%c38.1
 11
0.0000000000000001
 21
1.0
 31
0.0
 73
     1
 44
1.0
  0
POINT
  5
23E5
330
23C1
100
AcDbEntity
  8
Defpoints
 62
     0
100
AcDbPoint
 10
-55.80661043669863
 20
19.05
 30
0.0
  0
POINT
  5
23E6
330
23C1
100
AcDbEntity
  8
Defpoints
 62
     0
100
AcDbPoint
 10
-55.80661043669862
 20
-19.05
 30
0.0
  0
POINT
  5
23E7
330
23C1
100
AcDbEntity
  8
Defpoints
 62
     0
100
AcDbPoint
 10
-79.71681809624442
 20
-19.04999999999999
 30
0.0
  0
ENDBLK
  5
23EC
330
23C1
100
AcDbEntity
  8
0
100
AcDbBlockEnd
  0
BLOCK
  5
242F
330
2407
100
AcDbEntity
  8
0
100
AcDbBlockBegin
  2
*D19
 70
     1
 10
0.0
 20
0.0
 30
0.0
  3
*D19
  1

  0
LINE
  5
2584
330
2407
100
AcDbEntity
  8
AM_5
 62
     3
100
AcDbLine
 10
-58.01069310703797
 20
40.0
 30
0.0
 11
-88.91045444666705
 21
40.0
 31
0.0
  0
LINE
  5
2585
330
2407
100
AcDbEntity
  8
AM_5
 62
     3
100
AcDbLine
 10
-57.01069310703797
 20
-40.0
 30
0.0
 11
-88.91045444666707
 21
-40.0
 31
0.0
  0
LINE
  5
2586
330
2407
100
AcDbEntity
  8
AM_5
 62
     3
100
AcDbLine
 10
-88.41045444666704
 20
37.50000000000001
 30
0.0
 11
-88.41045444666708
 21
-37.5
 31
0.0
  0
INSERT
  5
2587
330
2407
100
AcDbEntity
  8
AM_5
 62
     3
100
AcDbBlockReference
  2
_Open30
 10
-88.41045444666704
 20
40.0
 30
0.0
 41
2.5
 42
2.5
 43
2.5
 50
90.0
  0
INSERT
  5
2588
330
2407
100
AcDbEntity
  8
AM_5
 62
     3
100
AcDbBlockReference
  2
_Open30
 10
-88.41045444666708
 20
-40.0
 30
0.0
 41
2.5
 42
2.5
 43
2.5
 50
270.0
  0
MTEXT
  5
2589
330
2407
100
AcDbEntity
  8
AM_5
 62
     2
100
AcDbMText
 10
-91.11045444666705
 20
-0.0000000000000085
 30
0.0
 40
3.399999999999999
 41
0.0
 71
     5
 72
     1
  1
%%c80
 11
0.0000000000000001
 21
1.0
 31
0.0
 73
     1
 44
1.0
  0
POINT
  5
258A
330
2407
100
AcDbEntity
  8
Defpoints
 62
     0
100
AcDbPoint
 10
-57.91069310703797
 20
40.0
 30
0.0
  0
POINT
  5
258B
330
2407
100
AcDbEntity
  8
Defpoints
 62
     0
100
AcDbPoint
 10
-56.91069310703797
 20
-40.0
 30
0.0
  0
POINT
  5
258C
330
2407
100
AcDbEntity
  8
Defpoints
 62
     0
100
AcDbPoint
 10
-88.41045444666708
 20
-40.0
 30
0.0
  0
ENDBLK
  5
2430
330
2407
100
AcDbEntity
  8
0
100
AcDbBlockEnd
  0
BLOCK
  5
2463
330
2442
100
AcDbEntity
  8
0
100
AcDbBlockBegin
  2
*D20
 70
     1
 10
0.0
 20
0.0
 30
0.0
  3
*D20
  1

  0
LINE
  5
246E
330
2442
100
AcDbEntity
  8
AM_5
 62
     3
100
AcDbLine
 10
0.0999999999999965
 20
-62.49999999999999
 30
0.0
 11
18.79720092188778
 21
-62.5
 31
0.0
  0
LINE
  5
246F
330
2442
100
AcDbEntity
  8
AM_5
 62
     3
100
AcDbLine
 10
0.1000000000000071
 20
62.5
 30
0.0
 11
18.79720092188781
 21
62.5
 31
0.0
  0
LINE
  5
2470
330
2442
100
AcDbEntity
  8
AM_5
 62
     3
100
AcDbLine
 10
18.29720092188778
 20
-60.0
 30
0.0
 11
18.29720092188781
 21
60.0
 31
0.0
  0
INSERT
  5
2471
330
2442
100
AcDbEntity
  8
AM_5
 62
     3
100
AcDbBlockReference
  2
_Open30
 10
18.29720092188778
 20
-62.5
 30
0.0
 41
2.5
 42
2.5
 43
2.5
 50
270.0
  0
INSERT
  5
2472
330
2442
100
AcDbEntity
  8
AM_5
 62
     3
100
AcDbBlockReference
  2
_Open30
 10
18.29720092188781
 20
62.5
 30
0.0
 41
2.5
 42
2.5
 43
2.5
 50
90.0
  0
MTEXT
  5
2473
330
2442
100
AcDbEntity
  8
AM_5
 62
     2
100
AcDbMText
 10
15.5968662762185
 20
0.0000000000000063
 30
0.0
 40
3.399999999999999
 41
0.0
 71
     5
 72
     1
  1
%%c125
 11
0.0000000000000001
 21
1.0
 31
0.0
 73
     1
 44
1.0
  0
POINT
  5
2474
330
2442
100
AcDbEntity
  8
Defpoints
 62
     0
100
AcDbPoint
 10
-0.0000000000000036
 20
-62.49999999999999
 30
0.0
  0
POINT
  5
2475
330
2442
100
AcDbEntity
  8
Defpoints
 62
     0
100
AcDbPoint
 10
0.0000000000000071
 20
62.5
 30
0.0
  0
POINT
  5
2476
330
2442
100
AcDbEntity
  8
Defpoints
 62
     0
100
AcDbPoint
 10
18.29720092188781
 20
62.5
 30
0.0
  0
ENDBLK
  5
2464
330
2442
100
AcDbEntity
  8
0
100
AcDbBlockEnd
  0
BLOCK
  5
249F
330
2487
100
AcDbEntity
  8
0
100
AcDbBlockBegin
  2
*D21
 70
     1
 10
0.0
 20
0.0
 30
0.0
  3
*D21
  1

  0
LINE
  5
2578
330
2487
100
AcDbEntity
  8
AM_5
 62
     3
100
AcDbLine
 10
-60.0
 20
31.17630853406508
 30
0.0
 11
-60.0
 21
86.50000099999999
 31
0.0
  0
LINE
  5
2579
330
2487
100
AcDbEntity
  8
AM_5
 62
     3
100
AcDbLine
 10
0.0
 20
61.9559254320254
 30
0.0
 11
0.0000000000000015
 21
86.50000099999999
 31
0.0
  0
LINE
  5
257A
330
2487
100
AcDbEntity
  8
AM_5
 62
     3
100
AcDbLine
 10
-57.5
 20
86.000001
 30
0.0
 11
-2.499999999999998
 21
86.000001
 31
0.0
  0
INSERT
  5
257B
330
2487
100
AcDbEntity
  8
AM_5
 62
     3
100
AcDbBlockReference
  2
_Open30
 10
-60.0
 20
86.000001
 30
0.0
 41
2.5
 42
2.5
 43
2.5
 50
180.0
  0
INSERT
  5
257C
330
2487
100
AcDbEntity
  8
AM_5
 62
     3
100
AcDbBlockReference
  2
_Open30
 10
0.0000000000000015
 20
86.000001
 30
0.0
 41
2.5
 42
2.5
 43
2.5
  0
MTEXT
  5
257D
330
2487
100
AcDbEntity
  8
AM_5
 62
     2
100
AcDbMText
 10
-30.0
 20
88.700001
 30
0.0
 40
3.399999999999999
 41
0.0
 71
     5
 72
     1
  1
60
 73
     1
 44
1.0
  0
POINT
  5
257E
330
2487
100
AcDbEntity
  8
Defpoints
 62
     0
100
AcDbPoint
 10
-60.0
 20
31.07630853406508
 30
0.0
  0
POINT
  5
257F
330
2487
100
AcDbEntity
  8
Defpoints
 62
     0
100
AcDbPoint
 10
0.0
 20
61.8559254320254
 30
0.0
  0
POINT
  5
2580
330
2487
100
AcDbEntity
  8
Defpoints
 62
     0
100
AcDbPoint
 10
0.0000000000000015
 20
86.000001
 30
0.0
  0
ENDBLK
  5
24A0
330
2487
100
AcDbEntity
  8
0
100
AcDbBlockEnd
  0
BLOCK
  5
24DC
330
24C4
100
AcDbEntity
  8
0
100
AcDbBlockBegin
  2
*D22
 70
     1
 10
0.0
 20
0.0
 30
0.0
  3
*D22
  1

  0
LINE
  5
24D0
330
24C4
100
AcDbEntity
  8
AM_5
 62
     3
100
AcDbLine
 10
-60.0
 20
-8.050000000000002
 30
0.0
 11
-60.0
 21
-86.29160422902179
 31
0.0
  0
LINE
  5
24D1
330
24C4
100
AcDbEntity
  8
AM_5
 62
     3
100
AcDbLine
 10
-50.0
 20
-8.050000000000004
 30
0.0
 11
-50.00000000000001
 21
-86.29160422902179
 31
0.0
  0
LINE
  5
24D2
330
24C4
100
AcDbEntity
  8
AM_5
 62
     3
100
AcDbLine
 10
-57.5
 20
-85.7916042290218
 30
0.0
 11
-52.50000000000001
 21
-85.7916042290218
 31
0.0
  0
INSERT
  5
24D3
330
24C4
100
AcDbEntity
  8
AM_5
 62
     3
100
AcDbBlockReference
  2
_Open30
 10
-60.0
 20
-85.7916042290218
 30
0.0
 41
2.5
 42
2.5
 43
2.5
 50
180.0
  0
INSERT
  5
24D4
330
24C4
100
AcDbEntity
  8
AM_5
 62
     3
100
AcDbBlockReference
  2
_Open30
 10
-50.00000000000001
 20
-85.7916042290218
 30
0.0
 41
2.5
 42
2.5
 43
2.5
  0
MTEXT
  5
24D5
330
24C4
100
AcDbEntity
  8
AM_5
 62
     2
100
AcDbMText
 10
-55.00000000000001
 20
-83.09160422902179
 30
0.0
 40
3.399999999999999
 41
0.0
 71
     5
 72
     1
  1
10
 73
     1
 44
1.0
  0
POINT
  5
24D6
330
24C4
100
AcDbEntity
  8
Defpoints
 62
     0
100
AcDbPoint
 10
-60.0
 20
-7.950000000000002
 30
0.0
  0
POINT
  5
24D7
330
24C4
100
AcDbEntity
  8
Defpoints
 62
     0
100
AcDbPoint
 10
-50.0
 20
-7.950000000000003
 30
0.0
  0
POINT
  5
24D8
330
24C4
100
AcDbEntity
  8
Defpoints
 62
     0
100
AcDbPoint
 10
-50.00000000000001
 20
-85.7916042290218
 30
0.0
  0
ENDBLK
  5
24DD
330
24C4
100
AcDbEntity
  8
0
100
AcDbBlockEnd
  0
BLOCK
  5
2506
330
24EE
100
AcDbEntity
  8
0
100
AcDbBlockBegin
  2
*D23
 70
     1
 10
0.0
 20
0.0
 30
0.0
  3
*D23
  1

  0
LINE
  5
24FA
330
24EE
100
AcDbEntity
  8
AM_5
 62
     3
100
AcDbLine
 10
-60.0
 20
-8.050000000000002
 30
0.0
 11
-60.0
 21
-94.29160422902176
 31
0.0
  0
LINE
  5
24FB
330
24EE
100
AcDbEntity
  8
AM_5
 62
     3
100
AcDbLine
 10
-22.0
 20
-14.18178029030898
 30
0.0
 11
-22.00000000000001
 21
-94.29160422902176
 31
0.0
  0
LINE
  5
24FC
330
24EE
100
AcDbEntity
  8
AM_5
 62
     3
100
AcDbLine
 10
-57.5
 20
-93.79160422902176
 30
0.0
 11
-24.50000000000001
 21
-93.79160422902176
 31
0.0
  0
INSERT
  5
24FD
330
24EE
100
AcDbEntity
  8
AM_5
 62
     3
100
AcDbBlockReference
  2
_Open30
 10
-60.0
 20
-93.79160422902176
 30
0.0
 41
2.5
 42
2.5
 43
2.5
 50
180.0
  0
INSERT
  5
24FE
330
24EE
100
AcDbEntity
  8
AM_5
 62
     3
100
AcDbBlockReference
  2
_Open30
 10
-22.00000000000001
 20
-93.79160422902176
 30
0.0
 41
2.5
 42
2.5
 43
2.5
  0
MTEXT
  5
24FF
330
24EE
100
AcDbEntity
  8
AM_5
 62
     2
100
AcDbMText
 10
-41.0
 20
-91.09160422902176
 30
0.0
 40
3.399999999999999
 41
0.0
 71
     5
 72
     1
  1
38
 73
     1
 44
1.0
  0
POINT
  5
2500
330
24EE
100
AcDbEntity
  8
Defpoints
 62
     0
100
AcDbPoint
 10
-60.0
 20
-7.950000000000001
 30
0.0
  0
POINT
  5
2501
330
24EE
100
AcDbEntity
  8
Defpoints
 62
     0
100
AcDbPoint
 10
-22.0
 20
-14.08178029030898
 30
0.0
  0
POINT
  5
2502
330
24EE
100
AcDbEntity
  8
Defpoints
 62
     0
100
AcDbPoint
 10
-22.00000000000001
 20
-93.79160422902176
 30
0.0
  0
ENDBLK
  5
2507
330
24EE
100
AcDbEntity
  8
0
100
AcDbBlockEnd
  0
ENDSEC
  0
SECTION
  2
ENTITIES
  0
MTEXT
  5
B1F
330
1F
100
AcDbEntity
  8
AM_6
100
AcDbMText
 10
-33.5493898656564
 20
-111.5912101143794
 30
0.0
 40
3.799999999999999
 41
60.06636689918345
 71
     1
 72
     5
  1
FPG5125R
 73
     1
 44
1.0
  0
LINE
  5
21C4
102
{ACAD_REACTORS
330
2492
102
}
330
1F
100
AcDbEntity
  8
AM_0
100
AcDbLine
 10
-60.0
 20
38.00000000000001
 30
0.0
 11
-60.0
 21
7.950000000000002
 31
0.0
  0
LINE
  5
21C5
330
1F
100
AcDbEntity
  8
AM_0
100
AcDbLine
 10
-60.0
 20
7.950000000000002
 30
0.0
 11
-50.0
 21
7.950000000000002
 31
0.0
  0
LINE
  5
21C6
102
{ACAD_REACTORS
330
2384
102
}
330
1F
100
AcDbEntity
  8
AM_0
100
AcDbLine
 10
-50.0
 20
0.0
 30
0.0
 11
-50.0
 21
7.950000000000002
 31
0.0
  0
LINE
  5
21C7
330
1F
100
AcDbEntity
  8
AM_0
100
AcDbLine
 10
-58.0
 20
40.0
 30
0.0
 11
-55.82138621407594
 21
40.0
 31
0.0
  0
LINE
  5
21C8
330
1F
100
AcDbEntity
  8
AM_0
100
AcDbLine
 10
-52.86696295814952
 20
42.47905544936037
 30
0.0
 11
-49.25
 21
62.99187100000001
 31
0.0
  0
LINE
  5
21C9
330
1F
100
AcDbEntity
  8
AM_0
100
AcDbLine
 10
-49.25
 20
62.99187100000001
 30
0.0
 11
-38.82765743762694
 21
73.41421356237309
 31
0.0
  0
LINE
  5
21CA
102
{ACAD_REACTORS
330
2357
102
}
330
1F
100
AcDbEntity
  8
AM_0
100
AcDbLine
 10
-37.41344387525384
 20
74.0
 30
0.0
 11
-27.80000000000001
 21
74.0
 31
0.0
  0
LINE
  5
21CB
330
1F
100
AcDbEntity
  8
AM_0
100
AcDbLine
 10
-27.80000000000001
 20
74.0
 30
0.0
 11
-27.80000000000001
 21
73.52081602897981
 31
0.0
  0
LINE
  5
21CD
330
1F
100
AcDbEntity
  8
AM_0
100
AcDbLine
 10
-19.80000000000001
 20
74.0
 30
0.0
 11
-13.546693
 21
74.0
 31
0.0
  0
LINE
  5
21CF
330
1F
100
AcDbEntity
  8
AM_0
100
AcDbLine
 10
-13.546693
 20
74.0
 30
0.0
 11
-13.07580021669013
 21
73.52081602897981
 31
0.0
  0
LINE
  5
21D2
330
1F
100
AcDbEntity
  8
AM_0
100
AcDbLine
 10
-22.0
 20
40.54999999999999
 30
0.0
 11
-22.0
 21
0.0
 31
0.0
  0
LINE
  5
21D3
102
{ACAD_REACTORS
330
23CC
102
}
330
1F
100
AcDbEntity
  8
AM_0
100
AcDbLine
 10
-60.0
 20
19.05
 30
0.0
 11
-22.0
 21
19.05
 31
0.0
  0
LINE
  5
220E
330
1F
100
AcDbEntity
  8
AM_0
100
AcDbLine
 10
-31.17320899999999
 20
69.63157902897981
 30
0.0
 11
-29.03703999999999
 21
67.49541002897982
 31
0.0
  0
LINE
  5
220F
330
1F
100
AcDbEntity
  8
AM_0
100
AcDbLine
 10
-30.55551699999998
 20
73.52081602897982
 30
0.0
 11
-31.17320899999999
 21
69.63157902897981
 31
0.0
  0
LINE
  5
2210
330
1F
100
AcDbEntity
  8
AM_0
100
AcDbLine
 10
-29.03703999999999
 20
67.49541002897982
 30
0.0
 11
-29.03703999999999
 21
73.52081602897982
 31
0.0
  0
LINE
  5
2211
330
1F
100
AcDbEntity
  8
AM_0
100
AcDbLine
 10
-29.03703999999999
 20
73.52081602897982
 30
0.0
 11
-30.55551699999998
 21
73.52081602897982
 31
0.0
  0
LINE
  5
2212
330
1F
100
AcDbEntity
  8
AM_0
100
AcDbLine
 10
-29.122749
 20
60.51005102897982
 30
0.0
 11
-25.58721499999999
 21
64.04558502897981
 31
0.0
  0
LINE
  5
2213
330
1F
100
AcDbEntity
  8
AM_0
100
AcDbLine
 10
-25.58721499999999
 20
64.04558502897981
 30
0.0
 11
-29.03703999999999
 21
67.49541002897982
 31
0.0
  0
LINE
  5
2214
330
1F
100
AcDbEntity
  8
AM_0
100
AcDbLine
 10
-12.43502899999998
 20
73.52081602897982
 30
0.0
 11
-10.63953249695604
 21
71.72532000000001
 31
0.0
  0
LINE
  5
2219
330
1F
100
AcDbEntity
  8
AM_0
100
AcDbLine
 10
-15.26345599999999
 20
46.65075802897982
 30
0.0
 11
-29.122749
 21
60.51005102897982
 31
0.0
  0
LINE
  5
221A
330
1F
100
AcDbEntity
  8
AM_0
100
AcDbLine
 10
-12.43502899999998
 20
73.52081602897982
 30
0.0
 11
-29.03703999999999
 21
73.52081602897982
 31
0.0
  0
LINE
  5
221B
330
1F
100
AcDbEntity
  8
AM_0
100
AcDbLine
 10
-10.63953502897982
 20
51.274679
 30
0.0
 11
-15.26345599999999
 21
46.65075802897982
 31
0.0
  0
LINE
  5
221E
330
1F
100
AcDbEntity
  8
AM_0
100
AcDbLine
 10
-28.41564199999999
 20
66.87401202897982
 30
0.0
 11
-31.95117600000001
 21
63.33847802897982
 31
0.0
  0
LINE
  5
221F
330
1F
100
AcDbEntity
  8
AM_0
100
AcDbLine
 10
-31.95117600000001
 20
63.33847802897982
 30
0.0
 11
-29.122749
 21
60.51005102897982
 31
0.0
  0
LINE
  5
2222
102
{ACAD_REACTORS
330
24CF
102
}
330
1F
100
AcDbEntity
  8
AM_0
100
AcDbLine
 10
-60.0
 20
-7.950000000000002
 30
0.0
 11
-50.0
 21
-7.950000000000002
 31
0.0
  0
LINE
  5
2223
102
{ACAD_REACTORS
330
24CF
102
}
330
1F
100
AcDbEntity
  8
AM_0
100
AcDbLine
 10
-50.0
 20
0.0
 30
0.0
 11
-50.0
 21
-7.950000000000002
 31
0.0
  0
LINE
  5
2225
330
1F
100
AcDbEntity
  8
AM_0
100
AcDbLine
 10
-52.86696295814951
 20
-42.47905544936037
 30
0.0
 11
-49.25
 21
-62.99187100000001
 31
0.0
  0
LINE
  5
2226
330
1F
100
AcDbEntity
  8
AM_0
100
AcDbLine
 10
-49.25
 20
-62.99187100000001
 30
0.0
 11
-38.82765743762691
 21
-73.41421356237311
 31
0.0
  0
LINE
  5
2227
102
{ACAD_REACTORS
330
2357
102
}
330
1F
100
AcDbEntity
  8
AM_0
100
AcDbLine
 10
-37.41344397525381
 20
-74.0
 30
0.0
 11
-27.80000000000001
 21
-74.0
 31
0.0
  0
LINE
  5
2228
330
1F
100
AcDbEntity
  8
AM_0
100
AcDbLine
 10
-27.80000000000001
 20
-74.0
 30
0.0
 11
-27.80000000000001
 21
-66.5
 31
0.0
  0
LINE
  5
2229
330
1F
100
AcDbEntity
  8
AM_0
100
AcDbLine
 10
-27.80000000000001
 20
-66.5
 30
0.0
 11
-25.80000000000001
 21
-66.5
 31
0.0
  0
LINE
  5
222A
330
1F
100
AcDbEntity
  8
AM_0
100
AcDbLine
 10
-22.80000000000001
 20
-73.80000000000001
 30
0.0
 11
-13.546693
 21
-73.80000000000001
 31
0.0
  0
LINE
  5
222B
330
1F
100
AcDbEntity
  8
AM_0
100
AcDbLine
 10
-22.80000000000001
 20
-73.80000000000001
 30
0.0
 11
-22.80000000000001
 21
-69.5
 31
0.0
  0
LINE
  5
222C
330
1F
100
AcDbEntity
  8
AM_0
100
AcDbLine
 10
-13.546693
 20
-73.80000000000001
 30
0.0
 11
-2.0
 21
-62.05
 31
0.0
  0
LINE
  5
222D
330
1F
100
AcDbEntity
  8
AM_0
100
AcDbLine
 10
-2.0
 20
-60.54999999999999
 30
0.0
 11
-22.0
 21
-40.54999999999999
 31
0.0
  0
LINE
  5
222E
102
{ACAD_REACTORS
330
24F9
102
}
330
1F
100
AcDbEntity
  8
AM_0
100
AcDbLine
 10
-22.0
 20
-40.54999999999999
 30
0.0
 11
-22.0
 21
0.0
 31
0.0
  0
LINE
  5
222F
102
{ACAD_REACTORS
330
23CC
102
}
330
1F
100
AcDbEntity
  8
AM_0
100
AcDbLine
 10
-60.0
 20
-19.05
 30
0.0
 11
-22.0
 21
-19.05
 31
0.0
  0
LINE
  5
2238
330
1F
100
AcDbEntity
  8
AM_0
100
AcDbLine
 10
-20.2791839710202
 20
73.52081602897981
 30
0.0
 11
-19.80000000000001
 21
74.0
 31
0.0
  0
LINE
  5
2239
330
1F
100
AcDbEntity
  8
AM_0
100
AcDbLine
 10
-22.80000000000001
 20
-69.5
 30
0.0
 11
-25.80000000000001
 21
-66.5
 31
0.0
  0
LINE
  5
2294
330
1F
100
AcDbEntity
  8
AM_7
100
AcDbLine
 10
-9.282261312709351
 20
0.0
 30
0.0
 11
-64.97419358974219
 21
0.0
 31
0.0
  0
LINE
  5
22C4
330
1F
100
AcDbEntity
  8
AM_0
100
AcDbLine
 10
-60.0
 20
-7.950000000000001
 30
0.0
 11
-60.0
 21
-38.0
 31
0.0
  0
LINE
  5
22C7
330
1F
100
AcDbEntity
  8
AM_0
100
AcDbLine
 10
-15.58134898551008
 20
46.96865101448991
 30
0.0
 11
-22.0
 21
40.54999999999999
 31
0.0
  0
ARC
  5
2326
102
{ACAD_REACTORS
330
2357
102
}
330
1F
100
AcDbEntity
  8
AM_0
100
AcDbCircle
 10
-37.41344387525384
 20
72.0
 30
0.0
 40
2.0
100
AcDbArc
 50
90.0
 51
135.0000000000001
  0
ARC
  5
233B
330
1F
100
AcDbEntity
  8
AM_0
100
AcDbCircle
 10
-37.4134438752538
 20
-72.0
 30
0.0
 40
2.0
100
AcDbArc
 50
225.0
 51
269.9999999999998
  0
DIMENSION
  5
234B
102
{ACAD_XDICTIONARY
360
2356
102
}
102
{ACAD_REACTORS
330
2357
102
}
330
1F
100
AcDbEntity
  8
AM_5
100
AcDbDimension
  2
*D16
 10
-96.41045444666703
 20
-73.99999999999998
 30
0.0
 11
-99.11045444666703
 21
-0.0000000000000151
 31
0.0
 70
    32
  1
%%c<>
 71
     5
 42
148.0
  3
AM_JIS$0
100
AcDbAlignedDimension
 13
-37.41344387525384
 23
73.99999999999998
 33
0.0
 14
-37.41344397525381
 24
-74.0
 34
0.0
 50
90.00000000000003
100
AcDbRotatedDimension
1001
ACAD
1000
DSTYLE
1002
{
1070
    40
1040
1.0
1070
   144
1040
1.0
1070
   271
1070
     0
1002
}
  0
DIMENSION
  5
2378
102
{ACAD_XDICTIONARY
360
2383
102
}
102
{ACAD_REACTORS
330
2384
102
}
330
1F
100
AcDbEntity
  8
AM_5
100
AcDbDimension
  2
*D17
 10
-71.71681809624442
 20
-7.949999999999998
 30
0.0
 11
-74.41681809624443
 21
-0.0000000000000059
 31
0.0
 70
    32
  1
<>
 71
     5
 42
15.9
  3
AM_JIS$0
100
AcDbAlignedDimension
 13
-50.0
 23
7.950000000000002
 33
0.0
 14
-55.0
 24
-7.950000000000002
 34
0.0
 50
90.0
100
AcDbRotatedDimension
1001
ACAD
1000
DSTYLE
1002
{
1070
   271
1070
     1
1002
}
  0
DIMENSION
  5
23C0
102
{ACAD_XDICTIONARY
360
23CB
102
}
102
{ACAD_REACTORS
330
23CC
102
}
330
1F
100
AcDbEntity
  8
AM_5
100
AcDbDimension
  2
*D18
 10
-79.71681809624442
 20
-19.04999999999999
 30
0.0
 11
-82.41681809624443
 21
-0.0000000000000054
 31
0.0
 70
    32
  1
%%c<>
 71
     5
 42
38.1
  3
AM_JIS$0
100
AcDbAlignedDimension
 13
-55.80661043669863
 23
19.05
 33
0.0
 14
-55.80661043669862
 24
-19.05
 34
0.0
 50
90.00000000000003
100
AcDbRotatedDimension
1001
ACAD
1000
DSTYLE
1002
{
1070
   271
1070
     1
1002
}
  0
DIMENSION
  5
2406
330
1F
100
AcDbEntity
  8
AM_5
100
AcDbDimension
  2
*D19
 10
-88.41045444666708
 20
-40.0
 30
0.0
 11
-91.11045444666705
 21
-0.0000000000000085
 31
0.0
 70
    32
  1
%%c<>
 71
     5
 42
80.0
  3
AM_JIS$0
100
AcDbAlignedDimension
 13
-57.91069310703797
 23
40.0
 33
0.0
 14
-56.91069310703797
 24
-40.0
 34
0.0
 50
90.00000000000003
100
AcDbRotatedDimension
1001
ACAD
1000
DSTYLE
1002
{
1070
   271
1070
     0
1002
}
  0
DIMENSION
  5
2441
330
1F
100
AcDbEntity
  8
AM_5
100
AcDbDimension
  2
*D20
 10
18.29720092188781
 20
62.5
 30
0.0
 11
15.5968662762185
 21
0.0000000000000063
 31
0.0
 70
    32
  1
%%c<>
 71
     5
 42
125.0
  3
AM_JIS$0
100
AcDbAlignedDimension
 13
-0.0000000000000036
 23
-62.49999999999999
 33
0.0
 14
0.0000000000000071
 24
62.5
 34
0.0
 50
90.0
100
AcDbRotatedDimension
1001
ACAD
1000
DSTYLE
1002
{
1070
    40
1040
1.0
1070
   144
1040
1.0
1070
   271
1070
     0
1002
}
  0
DIMENSION
  5
2486
102
{ACAD_XDICTIONARY
360
2491
102
}
102
{ACAD_REACTORS
330
2492
102
}
330
1F
100
AcDbEntity
  8
AM_5
100
AcDbDimension
  2
*D21
 10
0.0000000000000015
 20
86.000001
 30
0.0
 11
-30.0
 21
88.700001
 31
0.0
 70
    32
 71
     5
 42
60.0
  3
AM_JIS$0
100
AcDbAlignedDimension
 13
-60.0
 23
31.07630853406508
 33
0.0
 14
0.0
 24
61.8559254320254
 34
0.0
100
AcDbRotatedDimension
1001
ACAD
1000
DSTYLE
1002
{
1070
    40
1040
1.0
1070
   144
1040
1.0
1070
   271
1070
     0
1002
}
  0
DIMENSION
  5
24C3
102
{ACAD_XDICTIONARY
360
24CE
102
}
102
{ACAD_REACTORS
330
24CF
102
}
330
1F
100
AcDbEntity
  8
AM_5
100
AcDbDimension
  2
*D22
 10
-50.00000000000001
 20
-85.7916042290218
 30
0.0
 11
-55.00000000000001
 21
-83.09160422902179
 31
0.0
 70
    32
 71
     5
 42
9.999999999999992
  3
AM_JIS$0
100
AcDbAlignedDimension
 13
-60.0
 23
-7.950000000000002
 33
0.0
 14
-50.0
 24
-7.950000000000003
 34
0.0
 50
0.0000000000001132
100
AcDbRotatedDimension
1001
ACAD
1000
DSTYLE
1002
{
1070
    40
1040
1.0
1070
   144
1040
1.0
1070
   271
1070
     0
1002
}
  0
DIMENSION
  5
24ED
102
{ACAD_XDICTIONARY
360
24F8
102
}
102
{ACAD_REACTORS
330
24F9
102
}
330
1F
100
AcDbEntity
  8
AM_5
100
AcDbDimension
  2
*D23
 10
-22.00000000000001
 20
-93.79160422902176
 30
0.0
 11
-41.0
 21
-91.09160422902176
 31
0.0
 70
    32
 71
     5
 42
38.0
  3
AM_JIS$0
100
AcDbAlignedDimension
 13
-60.0
 23
-7.950000000000001
 33
0.0
 14
-22.0
 24
-14.08178029030898
 34
0.0
 50
0.0000000000001132
100
AcDbRotatedDimension
1001
ACAD
1000
DSTYLE
1002
{
1070
    40
1040
1.0
1070
   144
1040
1.0
1070
   271
1070
     0
1002
}
  0
LINE
  5
255A
330
1F
100
AcDbEntity
  8
AM_0
100
AcDbLine
 10
-9.225319999999989
 20
71.72532000000001
 30
0.0
 11
-11.22531999999999
 21
71.72532000000001
 31
0.0
  0
LINE
  5
255B
330
1F
100
AcDbEntity
  8
AM_0
100
AcDbLine
 10
-9.225319999999989
 20
71.72532000000001
 30
0.0
 11
0.0
 21
62.5
 31
0.0
  0
LINE
  5
255C
330
1F
100
AcDbEntity
  8
AM_0
100
AcDbLine
 10
-11.22531999999999
 20
51.274679
 30
0.0
 11
-9.225319999999989
 21
51.274679
 31
0.0
  0
LINE
  5
255D
330
1F
100
AcDbEntity
  8
AM_0
100
AcDbLine
 10
-20.45063999999999
 20
62.5
 30
0.0
 11
-11.22531999999999
 21
71.72532000000001
 31
0.0
  0
LINE
  5
255E
330
1F
100
AcDbEntity
  8
AM_0
100
AcDbLine
 10
-20.45063999999999
 20
62.5
 30
0.0
 11
-20.45063999999999
 21
60.5
 31
0.0
  0
LINE
  5
255F
330
1F
100
AcDbEntity
  8
AM_0
100
AcDbLine
 10
0.0
 20
60.5
 30
0.0
 11
-9.225319999999989
 21
51.274679
 31
0.0
  0
LINE
  5
2560
330
1F
100
AcDbEntity
  8
AM_0
100
AcDbLine
 10
-11.22531999999999
 20
51.274679
 30
0.0
 11
-20.45063999999999
 21
60.5
 31
0.0
  0
LINE
  5
2561
330
1F
100
AcDbEntity
  8
AM_0
100
AcDbLine
 10
0.0
 20
60.5
 30
0.0
 11
0.0
 21
62.5
 31
0.0
  0
LINE
  5
2562
330
1F
100
AcDbEntity
  8
AM_0
100
AcDbLine
 10
-2.0
 20
-60.54999999999999
 30
0.0
 11
-2.0
 21
-62.05
 31
0.0
  0
LINE
  5
2563
330
1F
100
AcDbEntity
  8
AM_0
100
AcDbLine
 10
-9.225319999999989
 20
-71.72532000000003
 30
0.0
 11
-11.22531999999999
 21
-71.72532000000003
 31
0.0
  0
LINE
  5
2564
330
1F
100
AcDbEntity
  8
AM_0
100
AcDbLine
 10
-9.225319999999989
 20
-71.72532000000003
 30
0.0
 11
0.0
 21
-62.50000000000003
 31
0.0
  0
LINE
  5
2565
330
1F
100
AcDbEntity
  8
AM_0
100
AcDbLine
 10
-11.22531999999999
 20
-51.27467900000002
 30
0.0
 11
-9.225319999999989
 21
-51.27467900000002
 31
0.0
  0
LINE
  5
2566
330
1F
100
AcDbEntity
  8
AM_3
 48
0.3
100
AcDbLine
 10
-20.45063999999999
 20
-62.50000000000003
 30
0.0
 11
-11.22531999999999
 21
-71.72532000000003
 31
0.0
  0
LINE
  5
2567
330
1F
100
AcDbEntity
  8
AM_3
 48
0.3
100
AcDbLine
 10
-20.45063999999999
 20
-62.50000000000003
 30
0.0
 11
-20.45063999999999
 21
-60.50000000000003
 31
0.0
  0
LINE
  5
2568
330
1F
100
AcDbEntity
  8
AM_0
100
AcDbLine
 10
0.0
 20
-60.50000000000003
 30
0.0
 11
-9.225319999999989
 21
-51.27467900000002
 31
0.0
  0
LINE
  5
2569
330
1F
100
AcDbEntity
  8
AM_3
 48
0.3
100
AcDbLine
 10
-11.22531999999999
 20
-51.27467900000002
 30
0.0
 11
-20.45063999999999
 21
-60.50000000000003
 31
0.0
  0
LINE
  5
256A
330
1F
100
AcDbEntity
  8
AM_0
100
AcDbLine
 10
0.0
 20
-60.50000000000003
 30
0.0
 11
0.0
 21
-62.50000000000003
 31
0.0
  0
LINE
  5
256B
330
1F
100
AcDbEntity
  8
AM_0
100
AcDbLine
 10
-11.22531999999999
 20
-71.72532000000003
 30
0.0
 11
-11.36908124828569
 21
-71.58404621282969
 31
0.0
  0
LINE
  5
256C
330
1F
100
AcDbEntity
  8
AM_0
100
AcDbLine
 10
-11.22531999999999
 20
-51.27467900000002
 30
0.0
 11
-11.25032049999998
 21
-51.29967950000002
 31
0.0
  0
ARC
  5
256D
330
1F
100
AcDbEntity
  8
AM_0
100
AcDbCircle
 10
-55.82138621407594
 20
43.0
 30
0.0
 40
3.0
100
AcDbArc
 50
270.0
 51
349.9999996579263
  0
LINE
  5
2577
330
1F
100
AcDbEntity
  8
AM_0
100
AcDbLine
 10
-60.0
 20
38.00000000000001
 30
0.0
 11
-58.0
 21
40.0
 31
0.0
  0
LINE
  5
2581
330
1F
100
AcDbEntity
  8
AM_0
100
AcDbLine
 10
-58.0
 20
-40.0
 30
0.0
 11
-55.82138621407594
 21
-40.0
 31
0.0
  0
LINE
  5
2582
330
1F
100
AcDbEntity
  8
AM_0
100
AcDbLine
 10
-60.0
 20
-38.0
 30
0.0
 11
-58.0
 21
-40.0
 31
0.0
  0
ARC
  5
2583
330
1F
100
AcDbEntity
  8
AM_0
100
AcDbCircle
 10
-55.82138621407594
 20
-42.99999999999999
 30
0.0
 40
3.0
100
AcDbArc
 50
10.0000003420737
 51
90.00000000000003
  0
ENDSEC
  0
SECTION
  2
OBJECTS
  0
DICTIONARY
  5
C
330
0
100
AcDbDictionary
281
     1
  3
ACAD_COLOR
350
BE
  3
ACAD_GROUP
350
D
  3
ACAD_LAYOUT
350
1A
  3
ACAD_MATERIAL
350
BD
  3
ACAD_MLINESTYLE
350
17
  3
ACAD_PLOTSETTINGS
350
19
  3
ACAD_PLOTSTYLENAME
350
E
  3
ACAD_TABLESTYLE
350
11A
  3
AcDbVariableDictionary
350
94
  3
AcmDictionary
350
5B
  3
AMG
350
41
  3
AMGSNAPSETTINGS
350
1B8
  0
DICTIONARY
  5
34B
330
2
100
AcDbDictionary
280
     1
281
     1
  3
AMLAYER_GROUPCOLORS
360
34C
  0
DICTIONARY
  5
8F
330
1F
100
AcDbDictionary
280
     1
281
     1
  3
ACAD_SORTENTS
360
7DB
  0
DICTIONARY
  5
2356
330
234B
100
AcDbDictionary
280
     1
281
     1
  3
ACAD_DIMASSOC
360
2357
  0
DICTIONARY
  5
2383
330
2378
100
AcDbDictionary
280
     1
281
     1
  3
ACAD_DIMASSOC
360
2384
  0
DICTIONARY
  5
23CB
330
23C0
100
AcDbDictionary
280
     1
281
     1
  3
ACAD_DIMASSOC
360
23CC
  0
DICTIONARY
  5
2491
330
2486
100
AcDbDictionary
280
     1
281
     1
  3
ACAD_DIMASSOC
360
2492
  0
DICTIONARY
  5
24CE
330
24C3
100
AcDbDictionary
280
     1
281
     1
  3
ACAD_DIMASSOC
360
24CF
  0
DICTIONARY
  5
24F8
330
24ED
100
AcDbDictionary
280
     1
281
     1
  3
ACAD_DIMASSOC
360
24F9
  0
DICTIONARY
  5
BE
102
{ACAD_REACTORS
330
C
102
}
330
C
100
AcDbDictionary
281
     1
  0
DICTIONARY
  5
D
102
{ACAD_REACTORS
330
C
102
}
330
C
100
AcDbDictionary
281
     1
  0
DICTIONARY
  5
1A
102
{ACAD_REACTORS
330
C
102
}
330
C
100
AcDbDictionary
281
     1
  3
\M+1838C\M+18343\M+18341\M+18345\M+183671
350
1E
  3
\M+1838C\M+18343\M+18341\M+18345\M+183672
350
26
  3
Model
350
22
  0
DICTIONARY
  5
BD
102
{ACAD_REACTORS
330
C
102
}
330
C
100
AcDbDictionary
281
     1
  0
DICTIONARY
  5
17
102
{ACAD_REACTORS
330
C
102
}
330
C
100
AcDbDictionary
281
     1
  3
Standard
350
18
  0
DICTIONARY
  5
19
102
{ACAD_REACTORS
330
C
102
}
330
C
100
AcDbDictionary
281
     1
  0
ACDBDICTIONARYWDFLT
  5
E
102
{ACAD_REACTORS
330
C
102
}
330
C
100
AcDbDictionary
281
     1
  3
Normal
350
F
100
AcDbDictionaryWithDefault
340
F
  0
DICTIONARY
  5
11A
102
{ACAD_REACTORS
330
C
102
}
330
C
100
AcDbDictionary
281
     1
  3
Standard
350
11B
  0
DICTIONARY
  5
94
102
{ACAD_REACTORS
330
C
102
}
330
C
100
AcDbDictionary
281
     1
  3
CTABLESTYLE
350
138
  3
DIMASSOC
350
96
  3
INDEXCTL
350
95
  0
DICTIONARY
  5
5B
102
{ACAD_REACTORS
330
C
102
}
330
C
100
AcDbDictionary
281
     1
  3
AcmBOM
350
1B5
  3
AcmStdDictionary
350
61
  3
AMDTSECTSYM_ARROWCOLOR
350
123
  0
DICTIONARY
  5
41
102
{ACAD_REACTORS
330
C
102
}
330
C
100
AcDbDictionary
281
     1
  0
DICTIONARY
  5
1B8
102
{ACAD_REACTORS
330
C
102
}
330
C
100
AcDbDictionary
281
     1
  0
DICTIONARY
  5
34C
102
{ACAD_REACTORS
330
34B
102
}
330
34B
100
AcDbDictionary
280
     1
281
     1
  0
SORTENTSTABLE
  5
7DB
102
{ACAD_REACTORS
330
8F
102
}
330
8F
100
AcDbSortentsTable
330
1F
331
2378
  5
2486
331
222B
  5
2238
331
2225
  5
222F
331
256D
  5
21CD
331
2567
  5
2569
331
221F
  5
222B
331
2561
  5
2563
331
2219
  5
2225
331
255B
  5
255D
331
2213
  5
2223
331
21CA
  5
21D1
331
21C4
  5
21C4
331
24C3
  5
255A
331
222C
  5
2239
331
2226
  5
2232
331
2568
  5
256A
331
2562
  5
2564
331
221A
  5
2227
331
255C
  5
255E
331
2486
  5
250A
331
2214
  5
2224
331
23C0
  5
24C3
331
21CB
  5
21D4
331
21C5
  5
21C6
331
222D
  5
223A
331
2227
  5
2233
331
21D2
  5
2205
331
2569
  5
256B
331
2563
  5
2565
331
221B
  5
2228
331
255D
  5
255F
331
22C7
  5
2203
331
21C6
  5
21C7
331
222E
  5
2294
331
234B
  5
2441
331
21D3
  5
2217
331
2228
  5
2234
331
256A
  5
256C
331
2222
  5
222C
331
2564
  5
2566
331
255E
  5
2560
331
24ED
  5
255B
331
2210
  5
221D
331
21CD
  5
2200
331
2326
  5
21D2
331
21C7
  5
21C8
331
222F
  5
22A9
331
2577
  5
21CA
331
2294
  5
23C0
331
2238
  5
2201
331
2229
  5
2235
331
256B
  5
256D
331
2223
  5
222D
331
2565
  5
2567
331
220E
  5
221A
331
255F
  5
2561
331
B1F
  5
1458
331
2211
  5
221E
331
21C8
  5
21CC
331
2406
  5
24ED
331
222A
  5
2237
331
2239
  5
2236
331
256C
  5
2577
331
2441
  5
2509
331
2566
  5
2568
331
221E
  5
222A
331
220F
  5
221B
331
2560
  5
2562
331
233B
  5
2406
331
255A
  5
255C
331
2212
  5
221F
331
21CF
  5
2202
331
21C9
  5
21CF
331
22C4
  5
21C5
  0
DIMASSOC
  5
2357
102
{ACAD_REACTORS
330
2356
102
}
330
2356
100
AcDbDimAssoc
330
234B
 90
        3
 70
     0
 71
     0
  1
AcDbOsnapPointRef
 72
     6
331
21CA
 73
     0
 91
        0
 40
0.0
 10
0.0
 20
0.0
 30
0.0
332
2326
 74
     0
 92
        0
 75
     0
  1
AcDbOsnapPointRef
 72
    13
331
2227
 73
     0
 91
        0
 40
0.0
 10
0.0
 20
0.0
 30
2.000000000000000E+50
 75
     0
  0
DIMASSOC
  5
2384
102
{ACAD_REACTORS
330
2383
102
}
330
2383
100
AcDbDimAssoc
330
2378
 90
        1
 70
     0
 71
     0
  1
AcDbOsnapPointRef
 72
     1
331
21C6
 73
     0
 91
        0
 40
0.0
 10
0.0
 20
0.0
 30
2.000000000000000E+50
 75
     0
  0
DIMASSOC
  5
23CC
102
{ACAD_REACTORS
330
23CB
102
}
330
23CB
100
AcDbDimAssoc
330
23C0
 90
        3
 70
     0
 71
     0
  1
AcDbOsnapPointRef
 72
    10
331
21D3
 73
     0
 91
        0
 40
0.1103523569289835
 10
0.0
 20
0.0
 30
0.0
 75
     0
  1
AcDbOsnapPointRef
 72
     8
331
222F
 73
     0
 91
        0
 40
0.1103523569289837
 10
0.0
 20
0.0
 30
0.0
 75
     1
  1
AcDbOsnapPointRef
 72
    10
331
21D3
 73
     0
 91
        0
 40
0.1103523569289835
 10
0.0
 20
0.0
 30
0.0
 75
     0
  0
DIMASSOC
  5
2492
102
{ACAD_REACTORS
330
2491
102
}
330
2491
100
AcDbDimAssoc
330
2486
 90
        1
 70
     0
 71
     0
  1
AcDbOsnapPointRef
 72
    10
331
21C4
 73
     0
 91
        0
 40
0.2304057060211289
 10
0.0
 20
0.0
 30
0.0
 75
     0
  0
DIMASSOC
  5
24CF
102
{ACAD_REACTORS
330
24CE
102
}
330
24CE
100
AcDbDimAssoc
330
24C3
 90
        3
 70
     0
 71
     0
  1
AcDbOsnapPointRef
 72
    13
331
2222
 73
     0
 91
        0
 40
0.0
 10
0.0
 20
0.0
 30
2.000000000000000E+50
 75
     0
  1
AcDbOsnapPointRef
 72
     8
331
2223
 73
     0
 91
        0
 40
1.0
 10
0.0
 20
0.0
 30
0.0
 75
     1
  1
AcDbOsnapPointRef
 72
    13
331
2222
 73
     0
 91
        0
 40
0.0
 10
0.0
 20
0.0
 30
2.000000000000000E+50
 75
     0
  0
DIMASSOC
  5
24F9
102
{ACAD_REACTORS
330
24F8
102
}
330
24F8
100
AcDbDimAssoc
330
24ED
 90
        2
 70
     0
 71
     0
  1
AcDbOsnapPointRef
 72
    10
331
222E
 73
     0
 91
        0
 40
0.652730449067596
 10
0.0
 20
0.0
 30
0.0
 75
     0
  0
LAYOUT
  5
1E
102
{ACAD_REACTORS
330
1A
102
}
330
1A
100
AcDbPlotSettings
  1

  2

  4

  6

 40
0.0
 41
0.0
 42
0.0
 43
0.0
 44
0.0
 45
0.0
 46
0.0
 47
0.0
 48
0.0
 49
0.0
140
0.0
141
0.0
142
1.0
143
1.0
 70
   688
 72
     0
 73
     0
 74
     5
  7
sei_cad.ctb
 75
    16
147
1.0
 76
     0
 77
     2
 78
   300
148
0.0
149
0.0
100
AcDbLayout
  1
\M+1838C\M+18343\M+18341\M+18345\M+183671
 70
     1
 71
     1
 10
0.0
 20
0.0
 11
420.0
 21
297.0
 12
0.0
 22
0.0
 32
0.0
 14
1.000000000000000E+20
 24
1.000000000000000E+20
 34
1.000000000000000E+20
 15
-1.000000000000000E+20
 25
-1.000000000000000E+20
 35
-1.000000000000000E+20
146
0.0
 13
0.0
 23
0.0
 33
0.0
 16
1.0
 26
0.0
 36
0.0
 17
0.0
 27
1.0
 37
0.0
 76
     0
330
1B
  0
LAYOUT
  5
26
102
{ACAD_REACTORS
330
1A
102
}
330
1A
100
AcDbPlotSettings
  1

  2

  4

  6

 40
0.0
 41
0.0
 42
0.0
 43
0.0
 44
0.0
 45
0.0
 46
0.0
 47
0.0
 48
0.0
 49
0.0
140
0.0
141
0.0
142
1.0
143
1.0
 70
   688
 72
     0
 73
     0
 74
     5
  7
sei_cad.ctb
 75
    16
147
1.0
 76
     0
 77
     2
 78
   300
148
0.0
149
0.0
100
AcDbLayout
  1
\M+1838C\M+18343\M+18341\M+18345\M+183672
 70
     1
 71
     2
 10
0.0
 20
0.0
 11
12.0
 21
9.0
 12
0.0
 22
0.0
 32
0.0
 14
0.0
 24
0.0
 34
0.0
 15
0.0
 25
0.0
 35
0.0
146
0.0
 13
0.0
 23
0.0
 33
0.0
 16
1.0
 26
0.0
 36
0.0
 17
0.0
 27
1.0
 37
0.0
 76
     0
330
23
  0
LAYOUT
  5
22
102
{ACAD_REACTORS
330
1A
102
}
330
1A
100
AcDbPlotSettings
  1

  2
SII LP-1010 (C2 VR)2R
  4
A4
  6

 40
3.174999952316284
 41
3.174999952316284
 42
3.175003051757812
 43
3.17498779296875
 44
209.9733276367187
 45
296.9259948730469
 46
0.0
 47
0.0
 48
0.0
 49
0.0
140
0.0
141
0.0
142
1.0
143
1.458575536647462
 70
 11952
 72
     1
 73
     1
 74
     2
  7
sei_cad.ctb
 75
     0
147
0.6856004196385342
 76
     0
 77
     2
 78
   300
148
0.0
149
0.0
100
AcDbLayout
  1
Model
 70
     1
 71
     0
 10
0.0
 20
0.0
 11
12.0
 21
9.0
 12
0.0
 22
0.0
 32
0.0
 14
0.0
 24
0.0
 34
0.0
 15
0.0
 25
0.0
 35
0.0
146
0.0
 13
0.0
 23
0.0
 33
0.0
 16
1.0
 26
0.0
 36
0.0
 17
0.0
 27
1.0
 37
0.0
 76
     0
330
1F
1001
ACAD_PSEXT
1000
SII LP-1010 (C2 VR)2R
1000
SII LP-1010 (C2 VR)2R
1000
133.153.16.130#9100
1000

1070
     0
  0
MLINESTYLE
  5
18
102
{ACAD_REACTORS
330
17
102
}
330
17
100
AcDbMlineStyle
  2
STANDARD
 70
     0
  3

 62
   256
 51
90.0
 52
90.0
 71
     2
 49
0.5
 62
   256
  6
BYLAYER
 49
-0.5
 62
   256
  6
BYLAYER
  0
ACDBPLACEHOLDER
  5
F
102
{ACAD_REACTORS
330
E
102
}
330
E
  0
TABLESTYLE
  5
11B
102
{ACAD_REACTORS
330
11A
102
}
330
11A
100
AcDbTableStyle
  3
Standard
 70
     0
 71
     0
 40
1.5
 41
1.5
280
     0
281
     0
  7
STANDARD
140
4.5
170
     2
 62
     0
 63
     7
283
     0
274
    -2
284
     1
 64
     0
275
    -2
285
     1
 65
     0
276
    -2
286
     1
 66
     0
277
    -2
287
     1
 67
     0
278
    -2
288
     1
 68
     0
279
    -2
289
     1
 69
     0
  7
STANDARD
140
6.0
170
     5
 62
     0
 63
     7
283
     0
274
    -2
284
     1
 64
     0
275
    -2
285
     1
 65
     0
276
    -2
286
     1
 66
     0
277
    -2
287
     1
 67
     0
278
    -2
288
     1
 68
     0
279
    -2
289
     1
 69
     0
  7
STANDARD
140
4.5
170
     5
 62
     0
 63
     7
283
     0
274
    -2
284
     1
 64
     0
275
    -2
285
     1
 65
     0
276
    -2
286
     1
 66
     0
277
    -2
287
     1
 67
     0
278
    -2
288
     1
 68
     0
279
    -2
289
     1
 69
     0
  0
DICTIONARYVAR
  5
138
102
{ACAD_REACTORS
330
94
102
}
330
94
100
DictionaryVariables
280
     0
  1
STANDARD
  0
DICTIONARYVAR
  5
96
102
{ACAD_REACTORS
330
94
102
}
330
94
100
DictionaryVariables
280
     0
  1
2
  0
DICTIONARYVAR
  5
95
102
{ACAD_REACTORS
330
94
102
}
330
94
100
DictionaryVariables
280
     0
  1
1
  0
DICTIONARY
  5
1B5
102
{ACAD_REACTORS
330
5B
102
}
330
5B
100
AcDbDictionary
281
     1
  0
DICTIONARY
  5
61
102
{ACAD_REACTORS
330
5B
102
}
330
5B
100
AcDbDictionary
281
     1
  0
XRECORD
  5
123
102
{ACAD_REACTORS
330
5B
102
}
330
5B
100
AcDbXrecord
280
     1
 90
-1023410169
  0
ENDSEC
  0
EOF
