  0
SECTION
  2
HEADER
  9
$ACADVER
  1
AC1015
  9
$ACADMAINTVER
 70
     6
  9
$DWGCODEPAGE
  3
ANSI_932
  9
$INSBASE
 10
0.0
 20
0.0
 30
0.0
  9
$EXTMIN
 10
-100.0351867685901
 20
-79.07403320662117
 30
0.0
  9
$EXTMAX
 10
31.96186981867272
 20
40.32438103584195
 30
0.0
  9
$LIMMIN
 10
0.0
 20
0.0
  9
$LIMMAX
 10
0.0
 20
0.0
  9
$ORTHOMODE
 70
     1
  9
$REGENMODE
 70
     1
  9
$FILLMODE
 70
     1
  9
$QTEXTMODE
 70
     0
  9
$MIRRTEXT
 70
     1
  9
$LTSCALE
 40
1.0
  9
$ATTMODE
 70
     1
  9
$TEXTSIZE
 40
3.8
  9
$TRACEWID
 40
1.0
  9
$TEXTSTYLE
  7
ACISOTS
  9
$CLAYER
  8
AM_0
  9
$CELTYPE
  6
ByLayer
  9
$CECOLOR
 62
   256
  9
$CELTSCALE
 40
1.0
  9
$DISPSILH
 70
     0
  9
$DIMSCALE
 40
1.0
  9
$DIMASZ
 40
2.5
  9
$DIMEXO
 40
1.0
  9
$DIMDLI
 40
10.0
  9
$DIMRND
 40
0.0
  9
$DIMDLE
 40
0.0
  9
$DIMEXE
 40
1.0
  9
$DIMTP
 40
0.1
  9
$DIMTM
 40
0.1000000001
  9
$DIMTXT
 40
3.8
  9
$DIMCEN
 40
0.0
  9
$DIMTSZ
 40
0.0
  9
$DIMTOL
 70
     0
  9
$DIMLIM
 70
     0
  9
$DIMTIH
 70
     0
  9
$DIMTOH
 70
     0
  9
$DIMSE1
 70
     0
  9
$DIMSE2
 70
     0
  9
$DIMTAD
 70
     3
  9
$DIMZIN
 70
     8
  9
$DIMBLK
  1
Open30
  9
$DIMASO
 70
     1
  9
$DIMSHO
 70
     1
  9
$DIMPOST
  1

  9
$DIMAPOST
  1
"
  9
$DIMALT
 70
     0
  9
$DIMALTD
 70
     2
  9
$DIMALTF
 40
0.0393701
  9
$DIMLFAC
 40
1.0
  9
$DIMTOFL
 70
     1
  9
$DIMTVP
 40
0.0
  9
$DIMTIX
 70
     0
  9
$DIMSOXD
 70
     0
  9
$DIMSAH
 70
     0
  9
$DIMBLK1
  1

  9
$DIMBLK2
  1

  9
$DIMSTYLE
  2
AM_JIS
  9
$DIMCLRD
 70
   256
  9
$DIMCLRE
 70
   256
  9
$DIMCLRT
 70
     2
  9
$DIMTFAC
 40
0.71
  9
$DIMGAP
 40
1.5
  9
$DIMJUST
 70
     0
  9
$DIMSD1
 70
     0
  9
$DIMSD2
 70
     0
  9
$DIMTOLJ
 70
     0
  9
$DIMTZIN
 70
     8
  9
$DIMALTZ
 70
     0
  9
$DIMALTTZ
 70
     0
  9
$DIMUPT
 70
     0
  9
$DIMDEC
 70
     0
  9
$DIMTDEC
 70
     2
  9
$DIMALTU
 70
     2
  9
$DIMALTTD
 70
     2
  9
$DIMTXSTY
  7
STANDARD
  9
$DIMAUNIT
 70
     1
  9
$DIMADEC
 70
     0
  9
$DIMALTRND
 40
0.0
  9
$DIMAZIN
 70
     2
  9
$DIMDSEP
 70
    46
  9
$DIMATFIT
 70
     3
  9
$DIMFRAC
 70
     0
  9
$DIMLDRBLK
  1
Open30
  9
$DIMLUNIT
 70
     2
  9
$DIMLWD
 70
    -1
  9
$DIMLWE
 70
    -1
  9
$DIMTMOVE
 70
     0
  9
$LUNITS
 70
     2
  9
$LUPREC
 70
     2
  9
$SKETCHINC
 40
1.0
  9
$FILLETRAD
 40
2.0
  9
$AUNITS
 70
     0
  9
$AUPREC
 70
     0
  9
$MENU
  1
.
  9
$ELEVATION
 40
0.0
  9
$PELEVATION
 40
0.0
  9
$THICKNESS
 40
0.0
  9
$LIMCHECK
 70
     0
  9
$CHAMFERA
 40
2.5
  9
$CHAMFERB
 40
2.5
  9
$CHAMFERC
 40
20.0
  9
$CHAMFERD
 40
0.0
  9
$SKPOLY
 70
     0
  9
$TDCREATE
 40
2453853.58522044
  9
$TDUCREATE
 40
2453853.21022044
  9
$TDUPDATE
 40
2455432.572059167
  9
$TDUUPDATE
 40
2455432.197059167
  9
$TDINDWG
 40
0.6472267477
  9
$TDUSRTIMER
 40
0.6472267477
  9
$USRTIMER
 70
     1
  9
$ANGBASE
 50
0.0
  9
$ANGDIR
 70
     0
  9
$PDMODE
 70
     0
  9
$PDSIZE
 40
0.0
  9
$PLINEWID
 40
0.0
  9
$SPLFRAME
 70
     0
  9
$SPLINETYPE
 70
     6
  9
$SPLINESEGS
 70
    80
  9
$HANDSEED
  5
5B33
  9
$SURFTAB1
 70
     6
  9
$SURFTAB2
 70
     6
  9
$SURFTYPE
 70
     6
  9
$SURFU
 70
     6
  9
$SURFV
 70
     6
  9
$UCSBASE
  2

  9
$UCSNAME
  2

  9
$UCSORG
 10
0.0
 20
0.0
 30
0.0
  9
$UCSXDIR
 10
1.0
 20
0.0
 30
0.0
  9
$UCSYDIR
 10
0.0
 20
1.0
 30
0.0
  9
$UCSORTHOREF
  2

  9
$UCSORTHOVIEW
 70
     0
  9
$UCSORGTOP
 10
0.0
 20
0.0
 30
0.0
  9
$UCSORGBOTTOM
 10
0.0
 20
0.0
 30
0.0
  9
$UCSORGLEFT
 10
0.0
 20
0.0
 30
0.0
  9
$UCSORGRIGHT
 10
0.0
 20
0.0
 30
0.0
  9
$UCSORGFRONT
 10
0.0
 20
0.0
 30
0.0
  9
$UCSORGBACK
 10
0.0
 20
0.0
 30
0.0
  9
$PUCSBASE
  2

  9
$PUCSNAME
  2

  9
$PUCSORG
 10
0.0
 20
0.0
 30
0.0
  9
$PUCSXDIR
 10
1.0
 20
0.0
 30
0.0
  9
$PUCSYDIR
 10
0.0
 20
1.0
 30
0.0
  9
$PUCSORTHOREF
  2

  9
$PUCSORTHOVIEW
 70
     0
  9
$PUCSORGTOP
 10
0.0
 20
0.0
 30
0.0
  9
$PUCSORGBOTTOM
 10
0.0
 20
0.0
 30
0.0
  9
$PUCSORGLEFT
 10
0.0
 20
0.0
 30
0.0
  9
$PUCSORGRIGHT
 10
0.0
 20
0.0
 30
0.0
  9
$PUCSORGFRONT
 10
0.0
 20
0.0
 30
0.0
  9
$PUCSORGBACK
 10
0.0
 20
0.0
 30
0.0
  9
$USERI1
 70
     0
  9
$USERI2
 70
     0
  9
$USERI3
 70
     0
  9
$USERI4
 70
     0
  9
$USERI5
 70
     0
  9
$USERR1
 40
0.0
  9
$USERR2
 40
0.0
  9
$USERR3
 40
0.0
  9
$USERR4
 40
0.0
  9
$USERR5
 40
0.0
  9
$WORLDVIEW
 70
     1
  9
$SHADEDGE
 70
     3
  9
$SHADEDIF
 70
    70
  9
$TILEMODE
 70
     1
  9
$MAXACTVP
 70
    64
  9
$PINSBASE
 10
0.0
 20
0.0
 30
0.0
  9
$PLIMCHECK
 70
     0
  9
$PEXTMIN
 10
1.000000000000000E+20
 20
1.000000000000000E+20
 30
1.000000000000000E+20
  9
$PEXTMAX
 10
-1.000000000000000E+20
 20
-1.000000000000000E+20
 30
-1.000000000000000E+20
  9
$PLIMMIN
 10
0.0
 20
0.0
  9
$PLIMMAX
 10
420.0
 20
297.0
  9
$UNITMODE
 70
     0
  9
$VISRETAIN
 70
     1
  9
$PLINEGEN
 70
     0
  9
$PSLTSCALE
 70
     1
  9
$TREEDEPTH
 70
  3020
  9
$CMLSTYLE
  2
Standard
  9
$CMLJUST
 70
     0
  9
$CMLSCALE
 40
20.0
  9
$PROXYGRAPHICS
 70
     1
  9
$MEASUREMENT
 70
     1
  9
$CELWEIGHT
370
    -1
  9
$ENDCAPS
280
     0
  9
$JOINSTYLE
280
     0
  9
$LWDISPLAY
290
     0
  9
$INSUNITS
 70
     4
  9
$HYPERLINKBASE
  1

  9
$STYLESHEET
  1

  9
$XEDIT
290
     1
  9
$CEPSNTYPE
380
     0
  9
$PSTYLEMODE
290
     1
  9
$FINGERPRINTGUID
  2
{D5CD5245-272E-46D9-A97D-BA87CA099A84}
  9
$VERSIONGUID
  2
{4AB16FA6-6740-42CE-A234-82E8E7817D8D}
  9
$EXTNAMES
290
     1
  9
$PSVPSCALE
 40
0.0
  9
$OLESTARTUP
290
     0
  0
ENDSEC
  0
SECTION
  2
CLASSES
  0
CLASS
  1
ACDBDICTIONARYWDFLT
  2
AcDbDictionaryWithDefault
  3
ObjectDBX Classes
 90
        0
280
     0
281
     0
  0
CLASS
  1
ACDBPLACEHOLDER
  2
AcDbPlaceHolder
  3
ObjectDBX Classes
 90
        0
280
     0
281
     0
  0
CLASS
  1
LAYOUT
  2
AcDbLayout
  3
ObjectDBX Classes
 90
        0
280
     0
281
     0
  0
CLASS
  1
ACME_DOCUMENT
  2
AcMeDbDoc
  3
AcMeServices
 90
        0
280
     1
281
     0
  0
CLASS
  1
AMGSETTINGSOBJ
  2
AmgSettingsObj
  3
"AcadM|Product Description: AutoCAD Mechanical 2000|Company: Autodesk"
 90
        0
280
     1
281
     0
  0
CLASS
  1
ACMESCOPE
  2
AcMeScope
  3
AcMeServices
 90
        0
280
     1
281
     0
  0
CLASS
  1
ACMECOMMANDHISTORY
  2
AcMeCommandHistory
  3
AcMeServices
 90
        0
280
     1
281
     0
  0
CLASS
  1
ACIMSYSVARMAN
  2
AcImSysVarManager
  3
AcMeServices
 90
        0
280
     1
281
     0
  0
CLASS
  1
ACIMREALSYSVAR
  2
AcImRealSysVar
  3
AcMeServices
 90
        0
280
     1
281
     0
  0
CLASS
  1
ACIMINTSYSVAR
  2
AcImIntSysVar
  3
AcMeServices
 90
        0
280
     1
281
     0
  0
CLASS
  1
ACMEDRAWINGMAN
  2
AcMeDrawingMan
  3
AcMeServices
 90
        0
280
     1
281
     0
  0
CLASS
  1
ACMEVIEW
  2
AcMeView
  3
AcMeServices
 90
        0
280
     1
281
     0
  0
CLASS
  1
ACDBENTITYCACHE
  2
AcMeEntityCache
  3
AcMeServices
 90
        0
280
     1
281
     0
  0
CLASS
  1
GSMANAGER
  2
AcMeGSManager
  3
AcMeServices
 90
        0
280
     1
281
     0
  0
CLASS
  1
AMDTINTERNALREACTOR
  2
AmdtInternalReactor
  3
AcMeServices
 90
        0
280
     1
281
     0
  0
CLASS
  1
ACMESTATEMGR
  2
AcMeStateMgr
  3
AcMeServices
 90
        0
280
     1
281
     0
  0
CLASS
  1
ACGREFMASTER
  2
AcGrefMaster
  3
AcAttribServices
 90
        0
280
     1
281
     0
  0
CLASS
  1
ACME_DATABASE
  2
AcMeDbDatabase
  3
AcMeServices
 90
        0
280
     1
281
     0
  0
CLASS
  1
ACRFINSADJUSTERMGR
  2
AcRfInsAdjusterMgr
  3
AcMeServices
 90
        0
280
     1
281
     0
  0
CLASS
  1
ACGREFACADMASTER
  2
AcGrefacadMaster
  3
AcGrefServices
 90
        0
280
     1
281
     0
  0
CLASS
  1
AMIMASTER
  2
AmiMaster
  3
AmiServices
 90
        0
280
     1
281
     0
  0
CLASS
  1
ACMDATADICTIONARY
  2
AcmDataDictionary
  3
"AcmSymBB|Product Description: AutoCAD Mechanical 2004 DX|Company: Autodesk"
 90
        0
280
     1
281
     0
  0
CLASS
  1
ACMDATAENTRYBLOCK
  2
AcmDataEntryBlock
  3
"AcmSymBB|Product Description: AutoCAD Mechanical 2004 DX|Company: Autodesk"
 90
        0
280
     1
281
     0
  0
CLASS
  1
ACIMSTRSYSVAR
  2
AcImStrSysVar
  3
AcMeServices
 90
        0
280
     1
281
     0
  0
CLASS
  1
ACMSTANDARDISO
  2
AcmStandardISO
  3
"Amdt_StdImp|Product Description: AutoCAD Mechanical 2004 DX|Company: Autodesk"
 90
        0
280
     1
281
     0
  0
CLASS
  1
AMGOBJPROPCFG
  2
AmgObjPropCfg
  3
"AmgLay|Product Description: AutoCAD Mechanical 2000|Company: Autodesk"
 90
        1
280
     1
281
     0
  0
CLASS
  1
AMDTEDGESTANDARDISO
  2
AmdtEdgeStdISO
  3
"Amdt_StdImp|Product Description: AutoCAD Mechanical 2004 DX|Company: Autodesk"
 90
        0
280
     1
281
     0
  0
CLASS
  1
ACMSURFSTANDARDISO
  2
AcmSurfTextStdISO
  3
"Amdt_StdImp|Product Description: AutoCAD Mechanical 2004 DX|Company: Autodesk"
 90
        0
280
     1
281
     0
  0
CLASS
  1
ACMFCFSTANDARDISO
  2
AcmFCFStdISO
  3
"Amdt_StdImp|Product Description: AutoCAD Mechanical 2004 DX|Company: Autodesk"
 90
        0
280
     1
281
     0
  0
CLASS
  1
ACMWELDSTANDARDISO
  2
AcmWeldingStdISO
  3
"Amdt_StdImp|Product Description: AutoCAD Mechanical 2004 DX|Company: Autodesk"
 90
        0
280
     1
281
     0
  0
CLASS
  1
ACMIDSTANDARDISO
  2
AcmIdStdISO
  3
"Amdt_StdImp|Product Description: AutoCAD Mechanical 2004 DX|Company: Autodesk"
 90
        0
280
     1
281
     0
  0
CLASS
  1
ACMDATUMSTANDARDISO
  2
AcmDatumStdISO
  3
"Amdt_StdImp|Product Description: AutoCAD Mechanical 2004 DX|Company: Autodesk"
 90
        0
280
     1
281
     0
  0
CLASS
  1
ACMBOMSTANDARDISO
  2
AcmBOMStdISO
  3
"Amdt_StdImp|Product Description: AutoCAD Mechanical 2004 DX|Company: Autodesk"
 90
        0
280
     1
281
     0
  0
CLASS
  1
ACMDETAILSTANDARDISO
  2
AmdtDetailSymStdISO
  3
"Amdt_StdImp|Product Description: AutoCAD Mechanical 2004 DX|Company: Autodesk"
 90
        0
280
     1
281
     0
  0
CLASS
  1
ACMSECTIONSTANDARDISO
  2
AmdtSectionSymStdISO
  3
"Amdt_StdImp|Product Description: AutoCAD Mechanical 2004 DX|Company: Autodesk"
 90
        0
280
     1
281
     0
  0
CLASS
  1
ACMCENTERLINESTANDARDISO
  2
AmdtCenterLineStdISO
  3
"Amdt_StdImp|Product Description: AutoCAD Mechanical 2004 DX|Company: Autodesk"
 90
        0
280
     1
281
     0
  0
CLASS
  1
ACMNOTESTANDARDISO
  2
AmdtNoteStdISO
  3
"Amdt_StdImp|Product Description: AutoCAD Mechanical 2004 DX|Company: Autodesk"
 90
        0
280
     1
281
     0
  0
CLASS
  1
ACAMGLAYSTD
  2
AcAmgLayStd
  3
"AcAmgLayStd|Product Description: AutoCAD Mechanical 2000|Company: Autodesk"
 90
        0
280
     1
281
     0
  0
CLASS
  1
ACAMGDIMSTD
  2
AcAmgDimStd
  3
"AcAmgDimStd|Product Description: AutoCAD Mechanical 2000|Company: Autodesk"
 90
        0
280
     1
281
     0
  0
CLASS
  1
ACAMGHOLECHARTSTDISO
  2
AcAmgHoleChartStdISO
  3
ACMSYMBB_MODULE_NAME
 90
        0
280
     1
281
     0
  0
CLASS
  1
ACAMGTITLESTD
  2
AcAmgTitleStd
  3
"TITLEAPP"
 90
        0
280
     1
281
     0
  0
CLASS
  1
LAYER_INDEX
  2
AcDbLayerIndex
  3
ObjectDBX Classes
 90
        0
280
     0
281
     0
  0
CLASS
  1
IDBUFFER
  2
AcDbIdBuffer
  3
ObjectDBX Classes
 90
        0
280
     0
281
     0
  0
CLASS
  1
DICTIONARYVAR
  2
AcDbDictionaryVar
  3
ObjectDBX Classes
 90
        0
280
     0
281
     0
  0
CLASS
  1
AM_DRAWING_MGR
  2
AcDmDwgMgr
  3
AcMechDwgViewMgmt
 90
        0
280
     1
281
     0
  0
CLASS
  1
AM_DWG_DOCUMENT
  2
AcDmDwgDocument
  3
AcMechDwgViewMgmt
 90
        0
280
     1
281
     0
  0
CLASS
  1
AM_DWG_SHEET
  2
AcDmSheet
  3
AcMechDwgViewMgmt
 90
        0
280
     1
281
     0
  0
CLASS
  1
AM_VIEWDIMPARMAP
  2
AcDmViewDimParMap
  3
AcMechDwgViewMgmt
 90
        0
280
     1
281
     0
  0
CLASS
  1
AM_DWGMGR_NAME
  2
AcDmDwgMgrName
  3
AcMechDwgViewMgmt
 90
        0
280
     1
281
     0
  0
CLASS
  1
AMDTMENUSTATEMGR
  2
AmdtMenuStateMgr
  3
McadcomServices
 90
        0
280
     1
281
     0
  0
CLASS
  1
AMDTMCOMMENUSTATE
  2
AmdtMcomMenuState
  3
McadcomServices
 90
        0
280
     1
281
     0
  0
CLASS
  1
MAPIAMMOUDLE
  2
MApiAmModule
  3
MApiAmServices
 90
        0
280
     1
281
     0
  0
CLASS
  1
AMDTADMENUSTATE
  2
AmdtAdMenuState
  3
DesignerServices
 90
        0
280
     1
281
     0
  0
CLASS
  1
ADAPPL
  2
AcAdAppl
  3
DesignerServices
 90
        0
280
     1
281
     0
  0
CLASS
  1
DEPMGR
  2
AcAdDepMgr
  3
DesignerServices
 90
        0
280
     1
281
     0
  0
CLASS
  1
PARAMMGR
  2
AcAdParamMgr
  3
DesignerServices
 90
        0
280
     1
281
     0
  0
CLASS
  1
PARAMSCOPE
  2
AcAdParamScope
  3
DesignerServices
 90
        0
280
     1
281
     0
  0
CLASS
  1
NAMEDAPPL
  2
AcAdNamedAppl
  3
DesignerServices
 90
        0
280
     1
281
     0
  0
CLASS
  1
AMDTDMMENUSTATE
  2
AmdtDmMenuState
  3
AcMechDwgViewMgmt
 90
        0
280
     1
281
     0
  0
CLASS
  1
AMDTAMMENUSTATE
  2
AmdtAmMenuState
  3
DesignerAssemblies
 90
        0
280
     1
281
     0
  0
CLASS
  1
ACAMPROJECT
  2
AcAmProject
  3
DesignerAssemblies
 90
        0
280
     1
281
     0
  0
CLASS
  1
ACAMGRCOMPDEF
  2
AcAmGrCompDef
  3
DesignerAssemblies
 90
        0
280
     1
281
     0
  0
CLASS
  1
ACCMCONTEXT
  2
AcCmContext
  3
DesignerAssemblies
 90
        0
280
     1
281
     0
  0
CLASS
  1
ACAMCOMPDEF
  2
AcAmCompDef
  3
DesignerAssemblies
 90
        0
280
     1
281
     0
  0
CLASS
  1
ACAMCOMPDEFMGR
  2
AcAmCompDefMgr
  3
DesignerAssemblies
 90
        0
280
     1
281
     0
  0
CLASS
  1
AMCONTEXTMGR
  2
AcAmContextMgr
  3
DesignerAssemblies
 90
        0
280
     1
281
     0
  0
CLASS
  1
ACAMCONTEXTMODELER
  2
AcAmContextModeler
  3
DesignerAssemblies
 90
        0
280
     1
281
     0
  0
CLASS
  1
ACMTHREADLINESTANDARDISO
  2
AmdtThreadLineStdISO
  3
"Amdt_StdImp|Product Description: AutoCAD Mechanical 2004 DX|Company: Autodesk"
 90
        0
280
     1
281
     0
  0
CLASS
  1
CATALOGSTATE
  2
AcAmCatalogState
  3
DesignerAssemblies
 90
        0
280
     1
281
     0
  0
CLASS
  1
ACAMGRCOMPDEFSET
  2
AcAmGrCompDefSet
  3
DesignerAssemblies
 90
        0
280
     1
281
     0
  0
CLASS
  1
AMDTBROWSERDBTAB
  2
AmdtBrowserDbTab
  3
McadcomServices
 90
        0
280
     1
281
     0
  0
CLASS
  1
CBROWSERAPPOBJECT
  2
CBrowserAppObject
  3
McadcomServices
 90
        0
280
     1
281
     0
  0
CLASS
  1
DM_PLACEHOLDER
  2
AcDmSelsetPlaceholder
  3
AcMechDwgViewMgmt
 90
        0
280
     1
281
     0
  0
CLASS
  1
TABLESTYLE
  2
AcDbTableStyle
  3
ObjectDBX Classes
 90
     2047
280
     0
281
     0
  0
CLASS
  1
VAACXREFPANELOBJECT
  2
VaAcXREFPanelObject
  3
VAAC_ADDIN
 90
        0
280
     1
281
     0
  0
CLASS
  1
VAACIMAGEINVENTORY
  2
VaAcImageInventory
  3
VAAC_ADDIN
 90
        0
280
     1
281
     0
  0
CLASS
  1
AMDTNOTETEMPLATEDB
  2
AmdtNoteTemplateDB
  3
AMDT_STDIMP_MODULE_NAME
 90
        0
280
     1
281
     0
  0
CLASS
  1
ACMBOM
  2
AcmBom
  3
"AcmSymBB|Product Description: AutoCAD Mechanical 2004 DX|Company: Autodesk"
 90
        0
280
     1
281
     0
  0
CLASS
  1
AMDTFORMULAUPDATEDISPATCHER
  2
AmdtFormulaUpdateDispatcher
  3
AcMeServices
 90
        0
280
     1
281
     0
  0
CLASS
  1
ACMPARTLIST
  2
AcmPartList
  3
"AcmSymBB|Product Description: AutoCAD Mechanical 2004 DX|Company: Autodesk"
 90
     1023
280
     1
281
     1
  0
CLASS
  1
ACAMGFILTERDAT
  2
AcAmgFilterDat
  3
"AcadM|Product Description: AutoCAD Mechanical 2000|Company: Autodesk"
 90
        0
280
     1
281
     0
  0
CLASS
  1
ACMSTANDARDJIS
  2
AcmStandardJIS
  3
"Amdt_StdImp|Product Description: AutoCAD Mechanical 2004 DX|Company: Autodesk"
 90
        0
280
     1
281
     0
  0
CLASS
  1
ACMSURFSTANDARDJIS
  2
AcmSurfTextStdJIS
  3
"Amdt_StdImp|Product Description: AutoCAD Mechanical 2004 DX|Company: Autodesk"
 90
        0
280
     1
281
     0
  0
CLASS
  1
ACMFCFSTANDARDJIS98
  2
AcmFCFStdJIS98
  3
"Amdt_StdImp|Product Description: AutoCAD Mechanical 2004 DX|Company: Autodesk"
 90
        0
280
     1
281
     0
  0
CLASS
  1
ACMWELDSTANDARDJIS
  2
AcmWeldingStdJIS
  3
"Amdt_StdImp|Product Description: AutoCAD Mechanical 2004 DX|Company: Autodesk"
 90
        0
280
     1
281
     0
  0
CLASS
  1
ACMIDSTANDARDJIS
  2
AcmIdStdJIS
  3
"Amdt_StdImp|Product Description: AutoCAD Mechanical 2004 DX|Company: Autodesk"
 90
        0
280
     1
281
     0
  0
CLASS
  1
ACMDATUMSTANDARDJIS
  2
AcmDatumStdJIS
  3
"Amdt_StdImp|Product Description: AutoCAD Mechanical 2004 DX|Company: Autodesk"
 90
        0
280
     1
281
     0
  0
CLASS
  1
ACMBOMSTANDARDJIS
  2
AcmBOMStdJIS
  3
"Amdt_StdImp|Product Description: AutoCAD Mechanical 2004 DX|Company: Autodesk"
 90
        0
280
     1
281
     0
  0
CLASS
  1
ACMDETAILSTANDARDJIS
  2
AmdtDetailSymStdJIS
  3
"Amdt_StdImp|Product Description: AutoCAD Mechanical 2004 DX|Company: Autodesk"
 90
        0
280
     1
281
     0
  0
CLASS
  1
ACMSECTIONSTANDARDJIS
  2
AmdtSectionSymStdJIS
  3
"Amdt_StdImp|Product Description: AutoCAD Mechanical 2004 DX|Company: Autodesk"
 90
        0
280
     1
281
     0
  0
CLASS
  1
ACMCENTERLINESTANDARDJIS
  2
AmdtCenterLineStdJIS
  3
"Amdt_StdImp|Product Description: AutoCAD Mechanical 2004 DX|Company: Autodesk"
 90
        0
280
     1
281
     0
  0
CLASS
  1
ACMTHREADLINESTANDARDJIS
  2
AmdtThreadLineStdJIS
  3
"Amdt_StdImp|Product Description: AutoCAD Mechanical 2004 DX|Company: Autodesk"
 90
        0
280
     1
281
     0
  0
CLASS
  1
ACMNOTESTANDARDJIS
  2
AmdtNoteStdJIS
  3
"Amdt_StdImp|Product Description: AutoCAD Mechanical 2004 DX|Company: Autodesk"
 90
        0
280
     1
281
     0
  0
CLASS
  1
ACAMGHOLECHARTSTDJIS
  2
AcAmgHoleChartStdJIS
  3
ACMSYMBB_MODULE_NAME
 90
        0
280
     1
281
     0
  0
CLASS
  1
SORTENTSTABLE
  2
AcDbSortentsTable
  3
ObjectDBX Classes
 90
        0
280
     0
281
     0
  0
CLASS
  1
DIMASSOC
  2
AcDbDimAssoc
  3
"AcDbDimAssoc|Product Desc:     AcDim ARX App For Dimension|Company:          Autodesk, Inc.|WEB Address:      www.autodesk.com"
 90
        0
280
     0
281
     0
  0
CLASS
  1
AMDTNOTE
  2
AmdtNote
  3
"AcmSymBB|Product Description: AutoCAD Mechanical 2004 DX|Company: Autodesk"
 90
     1023
280
     1
281
     1
  0
CLASS
  1
ACRFATTGENMGR
  2
AcRfAttGeneralMgr
  3
AcAttribServices
 90
        0
280
     1
281
     0
  0
CLASS
  1
ACMSTANDARDANSI
  2
AcmStandardANSI
  3
"Amdt_StdImp|Product Description: AutoCAD Mechanical 2004 DX|Company: Autodesk"
 90
        0
280
     1
281
     0
  0
CLASS
  1
ACMSURFSTANDARDANSI
  2
AcmSurfTextStdANSI
  3
"Amdt_StdImp|Product Description: AutoCAD Mechanical 2004 DX|Company: Autodesk"
 90
        0
280
     1
281
     0
  0
CLASS
  1
ACMFCFSTANDARDANSI
  2
AcmFCFStdANSI
  3
"Amdt_StdImp|Product Description: AutoCAD Mechanical 2004 DX|Company: Autodesk"
 90
        0
280
     1
281
     0
  0
CLASS
  1
ACMWELDSTANDARDANSI
  2
AcmWeldingStdANSI
  3
"Amdt_StdImp|Product Description: AutoCAD Mechanical 2004 DX|Company: Autodesk"
 90
        0
280
     1
281
     0
  0
CLASS
  1
ACMIDSTANDARDANSI
  2
AcmIdStdANSI
  3
"Amdt_StdImp|Product Description: AutoCAD Mechanical 2004 DX|Company: Autodesk"
 90
        0
280
     1
281
     0
  0
CLASS
  1
ACMDATUMSTANDARDANSI
  2
AcmDatumStdANSI
  3
"Amdt_StdImp|Product Description: AutoCAD Mechanical 2004 DX|Company: Autodesk"
 90
        0
280
     1
281
     0
  0
CLASS
  1
ACMBOMSTANDARDANSI
  2
AcmBOMStdANSI
  3
"Amdt_StdImp|Product Description: AutoCAD Mechanical 2004 DX|Company: Autodesk"
 90
        0
280
     1
281
     0
  0
CLASS
  1
ACMDETAILSTANDARDANSI
  2
AmdtDetailSymStdANSI
  3
"Amdt_StdImp|Product Description: AutoCAD Mechanical 2004 DX|Company: Autodesk"
 90
        0
280
     1
281
     0
  0
CLASS
  1
ACMSECTIONSTANDARDANSI
  2
AmdtSectionSymStdANSI
  3
"Amdt_StdImp|Product Description: AutoCAD Mechanical 2004 DX|Company: Autodesk"
 90
        0
280
     1
281
     0
  0
CLASS
  1
ACMCENTERLINESTANDARDANSI
  2
AmdtCenterLineStdANSI
  3
"Amdt_StdImp|Product Description: AutoCAD Mechanical 2004 DX|Company: Autodesk"
 90
        0
280
     1
281
     0
  0
CLASS
  1
ACMTHREADLINESTANDARDANSI
  2
AmdtThreadLineStdANSI
  3
"Amdt_StdImp|Product Description: AutoCAD Mechanical 2004 DX|Company: Autodesk"
 90
        0
280
     1
281
     0
  0
CLASS
  1
ACMNOTESTANDARDANSI
  2
AmdtNoteStdANSI
  3
"Amdt_StdImp|Product Description: AutoCAD Mechanical 2004 DX|Company: Autodesk"
 90
        0
280
     1
281
     0
  0
CLASS
  1
ACAMGHOLECHARTSTDANSI
  2
AcAmgHoleChartStdANSI
  3
ACMSYMBB_MODULE_NAME
 90
        0
280
     1
281
     0
  0
ENDSEC
  0
SECTION
  2
TABLES
  0
TABLE
  2
VPORT
  5
8
330
0
100
AcDbSymbolTable
 70
     3
  0
VPORT
  5
5B2D
330
8
100
AcDbSymbolTableRecord
100
AcDbViewportTableRecord
  2
*Active
 70
     0
 10
0.0
 20
0.0
 11
1.0
 21
1.0
 12
-34.03743529325175
 22
-19.47250501978436
 13
0.0
 23
0.0
 14
2.5
 24
2.5
 15
10.0
 25
10.0
 16
0.0
 26
0.0
 36
1.0
 17
0.0
 27
0.0
 37
0.0
 40
119.9577118912968
 41
1.62534435261708
 42
50.0
 43
0.0
 44
0.0
 50
0.0
 51
0.0
 71
    16
 72
 20000
 73
     1
 74
     3
 75
     0
 76
     0
 77
     0
 78
     0
281
     0
 65
     1
110
0.0
120
0.0
130
0.0
111
1.0
121
0.0
131
0.0
112
0.0
122
1.0
132
0.0
 79
     0
146
0.0
  0
ENDTAB
  0
TABLE
  2
LTYPE
  5
5
330
0
100
AcDbSymbolTable
 70
    14
  0
LTYPE
  5
14
330
5
100
AcDbSymbolTableRecord
100
AcDbLinetypeTableRecord
  2
ByBlock
 70
     0
  3

 72
    65
 73
     0
 40
0.0
  0
LTYPE
  5
15
330
5
100
AcDbSymbolTableRecord
100
AcDbLinetypeTableRecord
  2
ByLayer
 70
     0
  3

 72
    65
 73
     0
 40
0.0
  0
LTYPE
  5
16
330
5
100
AcDbSymbolTableRecord
100
AcDbLinetypeTableRecord
  2
Continuous
 70
     0
  3
Solid line
 72
    65
 73
     0
 40
0.0
  0
LTYPE
  5
64
330
5
100
AcDbSymbolTableRecord
100
AcDbLinetypeTableRecord
  2
AM_ISO02W050
 70
     0
  3
__ __ __ __ __ __ __ __ __ __ __ __ __ __ __
 72
    65
 73
     2
 40
7.5
 49
6.0
 74
     0
 49
-1.5
 74
     0
  0
LTYPE
  5
65
330
5
100
AcDbSymbolTableRecord
100
AcDbLinetypeTableRecord
  2
AM_ISO08W050
 70
     0
  3
____ . ____ . ____ . ____ . ____ . ____ . ____
 72
    65
 73
     4
 40
18.0
 49
12.0
 74
     0
 49
-1.5
 74
     0
 49
3.0
 74
     0
 49
-1.5
 74
     0
  0
LTYPE
  5
66
330
5
100
AcDbSymbolTableRecord
100
AcDbLinetypeTableRecord
  2
AM_ISO09W050
 70
     0
  3
_____ . . _____ . . _____ . . ____ .. ____
 72
    65
 73
     6
 40
22.5
 49
12.0
 74
     0
 49
-1.5
 74
     0
 49
3.0
 74
     0
 49
-1.5
 74
     0
 49
3.0
 74
     0
 49
-1.5
 74
     0
  0
LTYPE
  5
67
330
5
100
AcDbSymbolTableRecord
100
AcDbLinetypeTableRecord
  2
Amconstr
 70
     0
  3
_______________________
 72
    65
 73
     2
 40
9999.0
 49
9999.0
 74
     0
 49
0.0
 74
     0
  0
LTYPE
  5
68
330
5
100
AcDbSymbolTableRecord
100
AcDbLinetypeTableRecord
  2
AM_ISO08W050x2
 70
     0
  3
__ . __ . __ . __ . __ . __
 72
    65
 73
     4
 40
9.0
 49
6.0
 74
     0
 49
-0.75
 74
     0
 49
1.5
 74
     0
 49
-0.75
 74
     0
  0
LTYPE
  5
69
330
5
100
AcDbSymbolTableRecord
100
AcDbLinetypeTableRecord
  2
AM_ISO02W050x2
 70
     0
  3
 _ _ _ _ _ _ _ _ _ _ _ _
 72
    65
 73
     2
 40
3.75
 49
3.0
 74
     0
 49
-0.75
 74
     0
  0
LTYPE
  5
6C
330
5
100
AcDbSymbolTableRecord
100
AcDbLinetypeTableRecord
  2
Amzigzag
 70
     0
  3
/\/-/\/-/\/-/\/-/\/-/\/
 72
    65
 73
     2
 40
11.0001
 49
0.0001
 74
     4
 75
   135
340
6B
 46
0.04
 50
0.0
 44
0.0
 45
0.0
 49
-11.0
 74
     0
  0
LTYPE
  5
7A
330
5
100
AcDbSymbolTableRecord
100
AcDbLinetypeTableRecord
  2
ACISOWELD
 70
     0
  3
_ _ _ _ _
 72
    65
 73
     2
 40
2.0
 49
2.0
 74
     0
 49
-1.0
 74
     0
  0
LTYPE
  5
7B
330
5
100
AcDbSymbolTableRecord
100
AcDbLinetypeTableRecord
  2
ACISOTGB
 70
     0
  3
__ . . __ . .
 72
    65
 73
     6
 40
9.0
 49
4.0
 74
     0
 49
-1.0
 74
     0
 49
1.0
 74
     0
 49
-1.0
 74
     0
 49
1.0
 74
     0
 49
-1.0
 74
     0
  0
LTYPE
  5
7C
330
5
100
AcDbSymbolTableRecord
100
AcDbLinetypeTableRecord
  2
ACISOTGL
 70
     0
  3
_ _ _ _ _
 72
    65
 73
     2
 40
3.0
 49
2.0
 74
     0
 49
-1.0
 74
     0
  0
LTYPE
  5
7E
330
5
100
AcDbSymbolTableRecord
100
AcDbLinetypeTableRecord
  2
CENTER
 70
     0
  3
__ . __
 72
    65
 73
     4
 40
7.0
 49
4.0
 74
     0
 49
-1.0
 74
     0
 49
1.0
 74
     0
 49
-1.0
 74
     0
  0
LTYPE
  5
D8
330
5
100
AcDbSymbolTableRecord
100
AcDbLinetypeTableRecord
  2
HIDDEN
 70
     0
  3
Hidden __ __ __ __ __ __ __ __ __ __ __ __ __ _
 72
    65
 73
     2
 40
9.524999999999999
 49
6.35
 74
     0
 49
-3.175
 74
     0
  0
LTYPE
  5
D9
330
5
100
AcDbSymbolTableRecord
100
AcDbLinetypeTableRecord
  2
PHANTOM2
 70
     0
  3
Phantom (.5x) ___ _ _ ___ _ _ ___ _ _ ___ _ _
 72
    65
 73
     6
 40
31.75
 49
15.875
 74
     0
 49
-3.175
 74
     0
 49
3.175
 74
     0
 49
-3.175
 74
     0
 49
3.175
 74
     0
 49
-3.175
 74
     0
  0
ENDTAB
  0
TABLE
  2
LAYER
  5
2
102
{ACAD_XDICTIONARY
360
34B
102
}
330
0
100
AcDbSymbolTable
 70
    16
  0
LAYER
  5
10
330
2
100
AcDbSymbolTableRecord
100
AcDbLayerTableRecord
  2
0
 70
     0
 62
     7
  6
Continuous
370
    -3
390
F
  0
LAYER
  5
34A
330
2
100
AcDbSymbolTableRecord
100
AcDbLayerTableRecord
  2
AM_0
 70
     0
 62
     7
  6
Continuous
370
    30
390
F
  0
LAYER
  5
3AC
330
2
100
AcDbSymbolTableRecord
100
AcDbLayerTableRecord
  2
AM_5
 70
     0
 62
     3
  6
Continuous
370
    13
390
F
  0
LAYER
  5
7F2
330
2
100
AcDbSymbolTableRecord
100
AcDbLayerTableRecord
  2
AM_4
 70
     0
 62
     3
  6
Continuous
370
    13
390
F
  0
LAYER
  5
99D
330
2
100
AcDbSymbolTableRecord
100
AcDbLayerTableRecord
  2
Defpoints
 70
     0
 62
     7
  6
Continuous
290
     0
370
    -3
390
F
  0
LAYER
  5
30AC
330
2
100
AcDbSymbolTableRecord
100
AcDbLayerTableRecord
  2
AM_7
 70
     0
 62
     4
  6
AM_ISO08W050
370
    25
390
F
  0
ENDTAB
  0
TABLE
  2
STYLE
  5
3
330
0
100
AcDbSymbolTable
 70
     4
  0
STYLE
  5
11
330
3
100
AcDbSymbolTableRecord
100
AcDbTextStyleTableRecord
  2
STANDARD
 70
     0
 40
0.0
 41
1.0
 50
0.0
 71
     0
 42
3.8
  3
ISOCP.SHX
  4
EXTFONT.SHX
  0
STYLE
  5
6B
330
3
100
AcDbSymbolTableRecord
100
AcDbTextStyleTableRecord
  2

 70
     1
 40
0.0
 41
1.0
 50
0.0
 71
     0
 42
2.5
  3
ltypeshp.shx
  4

  0
STYLE
  5
6D
330
3
100
AcDbSymbolTableRecord
100
AcDbTextStyleTableRecord
  2
ACISOTS
 70
     0
 40
1.0
 41
1.0
 50
0.0
 71
     0
 42
1.0
  3
isocp.shx
  4
extfont.shx
  0
STYLE
  5
79
330
3
100
AcDbSymbolTableRecord
100
AcDbTextStyleTableRecord
  2
ACISOGDT
 70
     0
 40
0.0
 41
1.0
 50
0.0
 71
     0
 42
2.5
  3
amgdt.shx
  4
extfont.shx
  0
ENDTAB
  0
TABLE
  2
VIEW
  5
6
330
0
100
AcDbSymbolTable
 70
     6
  0
VIEW
  5
882
330
6
100
AcDbSymbolTableRecord
100
AcDbViewTableRecord
  2
AM_VIEW1
 70
     0
 40
1.0
 10
0.0
 20
0.0
 41
1.0
 11
0.0
 21
0.0
 31
1.0
 12
0.0
 22
0.0
 32
0.0
 42
50.0
 43
0.0
 44
0.0
 50
0.0
 71
    16
281
     0
 72
     0
  0
VIEW
  5
883
330
6
100
AcDbSymbolTableRecord
100
AcDbViewTableRecord
  2
AM_VIEW2
 70
     0
 40
1.0
 10
0.0
 20
0.0
 41
1.0
 11
0.0
 21
0.0
 31
1.0
 12
0.0
 22
0.0
 32
0.0
 42
50.0
 43
0.0
 44
0.0
 50
0.0
 71
    16
281
     0
 72
     0
  0
VIEW
  5
884
330
6
100
AcDbSymbolTableRecord
100
AcDbViewTableRecord
  2
AM_VIEW3
 70
     0
 40
1.0
 10
0.0
 20
0.0
 41
1.0
 11
0.0
 21
0.0
 31
1.0
 12
0.0
 22
0.0
 32
0.0
 42
50.0
 43
0.0
 44
0.0
 50
0.0
 71
    16
281
     0
 72
     0
  0
VIEW
  5
885
330
6
100
AcDbSymbolTableRecord
100
AcDbViewTableRecord
  2
AM_VIEW4
 70
     0
 40
1.0
 10
0.0
 20
0.0
 41
1.0
 11
0.0
 21
0.0
 31
1.0
 12
0.0
 22
0.0
 32
0.0
 42
50.0
 43
0.0
 44
0.0
 50
0.0
 71
    16
281
     0
 72
     0
  0
VIEW
  5
886
330
6
100
AcDbSymbolTableRecord
100
AcDbViewTableRecord
  2
AM_VIEW5
 70
     0
 40
1.0
 10
0.0
 20
0.0
 41
1.0
 11
0.0
 21
0.0
 31
1.0
 12
0.0
 22
0.0
 32
0.0
 42
50.0
 43
0.0
 44
0.0
 50
0.0
 71
    16
281
     0
 72
     0
  0
VIEW
  5
887
330
6
100
AcDbSymbolTableRecord
100
AcDbViewTableRecord
  2
AM_VIEW6
 70
     0
 40
1.0
 10
0.0
 20
0.0
 41
1.0
 11
0.0
 21
0.0
 31
1.0
 12
0.0
 22
0.0
 32
0.0
 42
50.0
 43
0.0
 44
0.0
 50
0.0
 71
    16
281
     0
 72
     0
  0
ENDTAB
  0
TABLE
  2
UCS
  5
7
330
0
100
AcDbSymbolTable
 70
     0
  0
ENDTAB
  0
TABLE
  2
APPID
  5
9
330
0
100
AcDbSymbolTable
 70
    42
  0
APPID
  5
12
330
9
100
AcDbSymbolTableRecord
100
AcDbRegAppTableRecord
  2
ACAD
 70
     0
  0
APPID
  5
46
330
9
100
AcDbSymbolTableRecord
100
AcDbRegAppTableRecord
  2
MCAD_NO_VIS
 70
     0
  0
APPID
  5
47
330
9
100
AcDbSymbolTableRecord
100
AcDbRegAppTableRecord
  2
ACAD_TEMP_GRAPHIC
 70
     0
  0
APPID
  5
58
330
9
100
AcDbSymbolTableRecord
100
AcDbRegAppTableRecord
  2
ACATTRIBSERVICES
 70
     0
  0
APPID
  5
EE
330
9
100
AcDbSymbolTableRecord
100
AcDbRegAppTableRecord
  2
AD_DRAW
 70
     0
  0
APPID
  5
10C
330
9
100
AcDbSymbolTableRecord
100
AcDbRegAppTableRecord
  2
DESIGNERASSEMBLIES
 70
     0
  0
APPID
  5
111
330
9
100
AcDbSymbolTableRecord
100
AcDbRegAppTableRecord
  2
ACADM_DIM_EDIT
 70
     0
  0
APPID
  5
112
330
9
100
AcDbSymbolTableRecord
100
AcDbRegAppTableRecord
  2
AMDT_DM_ADJ
 70
     0
  0
APPID
  5
243
330
9
100
AcDbSymbolTableRecord
100
AcDbRegAppTableRecord
  2
ACAD_DSTYLE_DIMTEXT_FILL
 70
     0
  0
APPID
  5
7F4
330
9
100
AcDbSymbolTableRecord
100
AcDbRegAppTableRecord
  2
GENIUS_GENREC_14
 70
     0
  0
APPID
  5
7F5
330
9
100
AcDbSymbolTableRecord
100
AcDbRegAppTableRecord
  2
GENIUS_GENODEF_13
 70
     0
  0
APPID
  5
7F6
330
9
100
AcDbSymbolTableRecord
100
AcDbRegAppTableRecord
  2
GENIUS_GENOBJ-N-REC_13
 70
     0
  0
APPID
  5
7F7
330
9
100
AcDbSymbolTableRecord
100
AcDbRegAppTableRecord
  2
GENIUS_GENOBJ-N-HTC_13
 70
     0
  0
APPID
  5
7F8
330
9
100
AcDbSymbolTableRecord
100
AcDbRegAppTableRecord
  2
GENIUS_GENHATCH_13
 70
     0
  0
APPID
  5
85E
330
9
100
AcDbSymbolTableRecord
100
AcDbRegAppTableRecord
  2
GENIUS_GENCFG_13
 70
     0
  0
APPID
  5
85F
330
9
100
AcDbSymbolTableRecord
100
AcDbRegAppTableRecord
  2
GENIUS_GENCFG0_13
 70
     0
  0
APPID
  5
860
330
9
100
AcDbSymbolTableRecord
100
AcDbRegAppTableRecord
  2
GENIUS_GENCFG1_13
 70
     0
  0
APPID
  5
861
330
9
100
AcDbSymbolTableRecord
100
AcDbRegAppTableRecord
  2
GENIUS_GENCFG2_13
 70
     0
  0
APPID
  5
862
330
9
100
AcDbSymbolTableRecord
100
AcDbRegAppTableRecord
  2
GENIUS_GENCFG3_13
 70
     0
  0
APPID
  5
863
330
9
100
AcDbSymbolTableRecord
100
AcDbRegAppTableRecord
  2
GENIUS_GENCFG4_13
 70
     0
  0
APPID
  5
864
330
9
100
AcDbSymbolTableRecord
100
AcDbRegAppTableRecord
  2
GENIUS_GENBLLY_14
 70
     0
  0
APPID
  5
865
330
9
100
AcDbSymbolTableRecord
100
AcDbRegAppTableRecord
  2
GENIUS_GENOBJ-N-CEN_13
 70
     0
  0
APPID
  5
873
330
9
100
AcDbSymbolTableRecord
100
AcDbRegAppTableRecord
  2
GENIUS_GENTRA_14
 70
     0
  0
APPID
  5
87D
330
9
100
AcDbSymbolTableRecord
100
AcDbRegAppTableRecord
  2
GENIUS_GENOENT_13
 70
     0
  0
APPID
  5
87E
330
9
100
AcDbSymbolTableRecord
100
AcDbRegAppTableRecord
  2
GENIUS_GENOLIS_13
 70
     0
  0
APPID
  5
87F
330
9
100
AcDbSymbolTableRecord
100
AcDbRegAppTableRecord
  2
GENIUS_GENOBJ-N-TIT_13
 70
     0
  0
APPID
  5
880
330
9
100
AcDbSymbolTableRecord
100
AcDbRegAppTableRecord
  2
GENIUS_GENTITLE_13
 70
     0
  0
APPID
  5
881
330
9
100
AcDbSymbolTableRecord
100
AcDbRegAppTableRecord
  2
GENIUS_GENOREF_13
 70
     0
  0
APPID
  5
888
330
9
100
AcDbSymbolTableRecord
100
AcDbRegAppTableRecord
  2
GENIUS_GENSCREG_15
 70
     0
  0
APPID
  5
889
330
9
100
AcDbSymbolTableRecord
100
AcDbRegAppTableRecord
  2
GENIUS_GENOBJ-N-SDF_13
 70
     0
  0
APPID
  5
91E
330
9
100
AcDbSymbolTableRecord
100
AcDbRegAppTableRecord
  2
ACAD_PSEXT
 70
     0
  0
APPID
  5
989
330
9
100
AcDbSymbolTableRecord
100
AcDbRegAppTableRecord
  2
GENIUS_GENOBJ-N-FIL_13
 70
     0
  0
APPID
  5
B18
330
9
100
AcDbSymbolTableRecord
100
AcDbRegAppTableRecord
  2
GENIUS_GENDTOL_13
 70
     0
  0
APPID
  5
B19
330
9
100
AcDbSymbolTableRecord
100
AcDbRegAppTableRecord
  2
GENIUS_GENOBJ-N-RSBK_13
 70
     0
  0
APPID
  5
B1A
330
9
100
AcDbSymbolTableRecord
100
AcDbRegAppTableRecord
  2
GENIUS_GENOBJ-N-LIB_13
 70
     0
  0
APPID
  5
B1B
330
9
100
AcDbSymbolTableRecord
100
AcDbRegAppTableRecord
  2
GENIUS_GENSCALE_13
 70
     0
  0
APPID
  5
B1C
330
9
100
AcDbSymbolTableRecord
100
AcDbRegAppTableRecord
  2
GENIUS_AMGTXT_16
 70
     0
  0
APPID
  5
15C8
330
9
100
AcDbSymbolTableRecord
100
AcDbRegAppTableRecord
  2
ACAD_DIMASSOC_DIMLFAC
 70
     0
  0
APPID
  5
15C9
330
9
100
AcDbSymbolTableRecord
100
AcDbRegAppTableRecord
  2
ACAD_DIMASSOC_CALC_DIMLFAC
 70
     0
  0
APPID
  5
15CA
330
9
100
AcDbSymbolTableRecord
100
AcDbRegAppTableRecord
  2
ACAD_DIMASSOC_OVERRIDDEN_DIMLFAC
 70
     0
  0
APPID
  5
30AE
330
9
100
AcDbSymbolTableRecord
100
AcDbRegAppTableRecord
  2
GENIUS_GENCEN_19
 70
     0
  0
APPID
  5
37D3
330
9
100
AcDbSymbolTableRecord
100
AcDbRegAppTableRecord
  2
GENIUS_GENOBJ-N-CRS_13
 70
     0
  0
ENDTAB
  0
TABLE
  2
DIMSTYLE
  5
A
330
0
100
AcDbSymbolTable
 70
    17
100
AcDbDimStyleTable
  0
DIMSTYLE
105
81
330
A
100
AcDbSymbolTableRecord
100
AcDbDimStyleTableRecord
  2
AM_ISO
 70
     0
  4
"
 41
2.5
 42
1.0
 43
10.0
 44
1.0
 47
0.1
 48
0.1
 73
     0
 74
     0
 77
     1
 78
     8
 79
     2
140
3.5
141
0.0
143
0.0393701
146
0.71
147
1.5
172
     1
176
   256
177
   256
178
     2
271
     2
272
     3
274
     4
283
     0
284
     8
340
11
371
    -1
372
    -1
  0
DIMSTYLE
105
82
330
A
100
AcDbSymbolTableRecord
100
AcDbDimStyleTableRecord
  2
AM_ISO$3
 70
     0
  4
"
 41
2.5
 42
1.0
 43
10.0
 44
1.0
 47
0.1
 48
0.1
 73
     0
 77
     1
 78
     8
 79
     2
140
3.5
141
0.0
143
0.0393701
146
0.71
147
1.5
176
   256
177
   256
178
     2
271
     2
272
     3
274
     4
283
     0
284
     8
288
     1
289
     0
340
11
371
    -1
372
    -1
  0
DIMSTYLE
105
83
330
A
100
AcDbSymbolTableRecord
100
AcDbDimStyleTableRecord
  2
AM_ISO$4
 70
     0
  4
"
 41
2.5
 42
1.0
 43
10.0
 44
1.0
 47
0.1
 48
0.1
 73
     0
 77
     1
 78
     8
 79
     2
140
3.5
141
0.0
143
0.0393701
146
0.71
147
1.5
176
   256
177
   256
178
     2
271
     2
272
     3
274
     4
283
     0
284
     8
288
     1
289
     0
340
11
371
    -1
372
    -1
  0
DIMSTYLE
105
84
330
A
100
AcDbSymbolTableRecord
100
AcDbDimStyleTableRecord
  2
AM_ISO$6
 70
     0
  4
"
 41
2.5
 42
1.0
 43
10.0
 44
1.0
 47
0.1
 48
0.1
 73
     0
 74
     0
 78
     8
 79
     2
140
3.5
141
0.0
143
0.0393701
146
0.71
147
1.5
172
     1
176
   256
177
   256
178
     2
271
     2
272
     3
274
     4
283
     0
284
     8
340
11
371
    -1
372
    -1
  0
DIMSTYLE
105
85
330
A
100
AcDbSymbolTableRecord
100
AcDbDimStyleTableRecord
  2
AM_ISO$7
 70
     0
  4
"
 41
2.5
 42
1.0
 43
10.0
 44
1.0
 47
0.1
 48
0.1
 73
     0
 74
     0
 77
     1
 78
     8
 79
     2
140
5.0
141
0.0
143
0.0393701
146
0.71
147
1.5
172
     1
176
   256
177
   256
178
     2
271
     2
272
     3
274
     4
283
     0
284
     8
340
11
371
    -1
372
    -1
  0
DIMSTYLE
105
86
330
A
100
AcDbSymbolTableRecord
100
AcDbDimStyleTableRecord
  2
AM_ISO$SF
 70
     0
  4
"
 41
2.5
 42
1.0
 43
10.0
 44
1.0
 47
0.1
 48
0.1
 73
     0
 74
     0
 75
     1
 76
     1
 77
     1
 78
     8
 79
     2
140
3.5
141
0.0
143
0.0393701
146
0.71
147
1.5
172
     1
176
   256
177
   256
178
     2
271
     2
272
     3
274
     4
283
     0
284
     8
340
11
371
    -1
372
    -1
  0
DIMSTYLE
105
8B
330
A
100
AcDbSymbolTableRecord
100
AcDbDimStyleTableRecord
  2
AM_ISO$SH
 70
     0
  4
"
 41
2.5
 42
1.0
 43
10.0
 44
1.0
 47
0.1
 48
0.1
 73
     0
 74
     0
 75
     1
 76
     1
 77
     1
 78
     8
 79
     2
140
3.5
141
0.0
143
0.0393701
144
2.0
146
0.71
147
1.5
172
     1
173
     1
176
   256
177
   256
178
     2
271
     2
272
     3
274
     4
283
     0
284
     8
340
11
343
87
371
    -1
372
    -1
  0
DIMSTYLE
105
216
330
A
100
AcDbSymbolTableRecord
100
AcDbDimStyleTableRecord
  2
AM_JIS
 70
     0
  4
"
 41
2.5
 42
1.0
 43
10.0
 44
1.0
 47
0.1
 48
0.1000000001
 73
     0
 74
     0
 77
     3
 78
     8
 79
     2
140
3.8
141
0.0
143
0.0393701
146
0.71
147
1.5
172
     1
176
   256
177
   256
178
     2
271
     2
272
     2
275
     1
283
     0
284
     8
340
11
341
217
342
217
371
    -1
372
    -1
  0
DIMSTYLE
105
7F3
102
{ACAD_REACTORS
330
3AC6
330
5825
330
5852
330
587F
330
58AC
330
58DF
330
590C
330
5939
330
5966
102
}
330
A
100
AcDbSymbolTableRecord
100
AcDbDimStyleTableRecord
  2
AM_JIS$0
 70
     0
  4
"
 41
2.5
 42
0.0
 43
10.0
 44
1.0
 48
0.000000001
 73
     0
 74
     0
 77
     3
 78
     1
 79
     2
140
3.8
141
0.0
143
0.0393701
146
0.71
147
1.5
172
     1
176
   256
177
   256
178
     2
179
     1
271
     3
272
     3
275
     1
283
     0
284
     8
340
11
341
217
342
217
371
    -1
372
    -1
  0
DIMSTYLE
105
856
330
A
100
AcDbSymbolTableRecord
100
AcDbDimStyleTableRecord
  2
STANDARD
 70
     0
340
11
  0
ENDTAB
  0
TABLE
  2
BLOCK_RECORD
  5
1
330
0
100
AcDbSymbolTable
 70
    31
  0
BLOCK_RECORD
  5
1F
102
{ACAD_XDICTIONARY
360
8F
102
}
330
1
100
AcDbSymbolTableRecord
100
AcDbBlockTableRecord
  2
*Model_Space
340
22
  0
BLOCK_RECORD
  5
1B
330
1
100
AcDbSymbolTableRecord
100
AcDbBlockTableRecord
  2
*Paper_Space
340
1E
  0
BLOCK_RECORD
  5
23
330
1
100
AcDbSymbolTableRecord
100
AcDbBlockTableRecord
  2
*Paper_Space0
340
26
  0
BLOCK_RECORD
  5
87
330
1
100
AcDbSymbolTableRecord
100
AcDbBlockTableRecord
  2
GENAXEH
340
0
  0
BLOCK_RECORD
  5
217
330
1
100
AcDbSymbolTableRecord
100
AcDbBlockTableRecord
  2
_Open30
340
0
102
{BLKREFS
331
5A5A
331
5A5B
331
5A11
331
5A12
331
59A6
331
59A7
331
5A23
331
5A24
331
5A70
331
5A71
331
59CF
331
59D0
331
59FE
331
59FF
331
5A36
331
5A37
331
5A48
331
5A49
102
}
  0
BLOCK_RECORD
  5
3AC7
330
1
100
AcDbSymbolTableRecord
100
AcDbBlockTableRecord
  2
*D14
340
0
  0
BLOCK_RECORD
  5
5826
330
1
100
AcDbSymbolTableRecord
100
AcDbBlockTableRecord
  2
*D23
340
0
  0
BLOCK_RECORD
  5
5853
330
1
100
AcDbSymbolTableRecord
100
AcDbBlockTableRecord
  2
*D24
340
0
  0
BLOCK_RECORD
  5
5880
330
1
100
AcDbSymbolTableRecord
100
AcDbBlockTableRecord
  2
*D25
340
0
  0
BLOCK_RECORD
  5
58AD
330
1
100
AcDbSymbolTableRecord
100
AcDbBlockTableRecord
  2
*D26
340
0
  0
BLOCK_RECORD
  5
58E0
330
1
100
AcDbSymbolTableRecord
100
AcDbBlockTableRecord
  2
*D27
340
0
  0
BLOCK_RECORD
  5
590D
330
1
100
AcDbSymbolTableRecord
100
AcDbBlockTableRecord
  2
*D28
340
0
  0
BLOCK_RECORD
  5
593A
330
1
100
AcDbSymbolTableRecord
100
AcDbBlockTableRecord
  2
*D29
340
0
  0
BLOCK_RECORD
  5
5967
330
1
100
AcDbSymbolTableRecord
100
AcDbBlockTableRecord
  2
*D30
340
0
  0
ENDTAB
  0
ENDSEC
  0
SECTION
  2
BLOCKS
  0
BLOCK
  5
20
330
1F
100
AcDbEntity
  8
0
100
AcDbBlockBegin
  2
*Model_Space
 70
     0
 71
     0
 10
0.0
 20
0.0
 30
0.0
  3
*Model_Space
  1

  0
ENDBLK
  5
21
330
1F
100
AcDbEntity
  8
0
100
AcDbBlockEnd
  0
BLOCK
  5
1C
330
1B
100
AcDbEntity
 67
     1
  8
0
100
AcDbBlockBegin
  2
*Paper_Space
 70
     0
 71
     0
 10
0.0
 20
0.0
 30
0.0
  3
*Paper_Space
  1

  0
ENDBLK
  5
1D
330
1B
100
AcDbEntity
 67
     1
  8
0
100
AcDbBlockEnd
  0
BLOCK
  5
24
330
23
100
AcDbEntity
  8
0
100
AcDbBlockBegin
  2
*Paper_Space0
 70
     0
 71
     0
 10
0.0
 20
0.0
 30
0.0
  3
*Paper_Space0
  1

  0
ENDBLK
  5
25
330
23
100
AcDbEntity
  8
0
100
AcDbBlockEnd
  0
BLOCK
  5
5B1B
330
87
100
AcDbEntity
  8
0
100
AcDbBlockBegin
  2
GENAXEH
 70
     0
 71
     0
 10
0.0
 20
0.0
 30
0.0
  3
GENAXEH
  1

  0
LINE
  5
5B1C
330
87
100
AcDbEntity
  8
0
100
AcDbLine
 10
-1.0
 20
0.0
 30
0.0
 11
1.0
 21
0.0
 31
0.0
  0
ENDBLK
  5
5B1D
330
87
100
AcDbEntity
  8
0
100
AcDbBlockEnd
  0
BLOCK
  5
21B
330
217
100
AcDbEntity
  8
0
100
AcDbBlockBegin
  2
_Open30
 70
     0
 71
     0
 10
0.0
 20
0.0
 30
0.0
  3
_Open30
  1

  0
LINE
  5
218
330
217
100
AcDbEntity
  8
0
  6
ByBlock
 62
     0
370
    -2
100
AcDbLine
 10
-1.0
 20
0.26794919
 30
0.0
 11
0.0
 21
0.0
 31
0.0
  0
LINE
  5
219
330
217
100
AcDbEntity
  8
0
  6
ByBlock
 62
     0
370
    -2
100
AcDbLine
 10
0.0
 20
0.0
 30
0.0
 11
-1.0
 21
-0.26794919
 31
0.0
  0
LINE
  5
21A
330
217
100
AcDbEntity
  8
0
  6
ByBlock
 62
     0
370
    -2
100
AcDbLine
 10
0.0
 20
0.0
 30
0.0
 11
-1.0
 21
0.0
 31
0.0
  0
ENDBLK
  5
21C
330
217
100
AcDbEntity
  8
0
100
AcDbBlockEnd
  0
BLOCK
  5
3AF1
330
3AC7
100
AcDbEntity
  8
0
100
AcDbBlockBegin
  2
*D14
 70
     1
 71
     0
 10
0.0
 20
0.0
 30
0.0
  3
*D14
  1

  0
LINE
  5
5A57
330
3AC7
100
AcDbEntity
  8
AM_5
100
AcDbLine
 10
-3.769309141388399
 20
40.00000000027861
 30
0.0
 11
31.96186981867272
 21
40.0000000002786
 31
0.0
  0
LINE
  5
5A58
330
3AC7
100
AcDbEntity
  8
AM_5
100
AcDbLine
 10
-3.769309141388387
 20
-39.99999999972138
 30
0.0
 11
31.9618698186727
 21
-39.99999999972139
 31
0.0
  0
LINE
  5
5A59
330
3AC7
100
AcDbEntity
  8
AM_5
100
AcDbLine
 10
30.96186981867272
 20
37.5000000002786
 30
0.0
 11
30.9618698186727
 21
-37.49999999972139
 31
0.0
  0
INSERT
  5
5A5A
330
3AC7
100
AcDbEntity
  8
AM_5
100
AcDbBlockReference
  2
_Open30
 10
30.96186981867272
 20
40.0000000002786
 30
0.0
 41
2.5
 42
2.5
 43
2.5
 50
90.0
  0
INSERT
  5
5A5B
330
3AC7
100
AcDbEntity
  8
AM_5
100
AcDbBlockReference
  2
_Open30
 10
30.9618698186727
 20
-39.99999999972139
 30
0.0
 41
2.5
 42
2.5
 43
2.5
 50
270.0
  0
MTEXT
  5
5A5C
330
3AC7
100
AcDbEntity
  8
AM_5
 62
     2
100
AcDbMText
 10
27.56186981867271
 20
0.2316198403046887
 30
0.0
 40
3.8
 41
0.0
 71
     5
 72
     1
  1
%%c80
 11
6.123031769111886E-17
 21
1.0
 31
0.0
 73
     1
 44
1.0
  0
POINT
  5
5A5D
330
3AC7
100
AcDbEntity
  8
Defpoints
 62
     0
100
AcDbPoint
 10
-3.769309141388399
 20
40.00000000027861
 30
0.0
  0
POINT
  5
5A5E
330
3AC7
100
AcDbEntity
  8
Defpoints
 62
     0
100
AcDbPoint
 10
-3.769309141388387
 20
-39.99999999972138
 30
0.0
  0
POINT
  5
5A5F
330
3AC7
100
AcDbEntity
  8
Defpoints
 62
     0
100
AcDbPoint
 10
30.9618698186727
 20
-39.99999999972139
 30
0.0
  0
ENDBLK
  5
3AF2
330
3AC7
100
AcDbEntity
  8
0
100
AcDbBlockEnd
  0
BLOCK
  5
5988
330
5826
100
AcDbEntity
  8
0
100
AcDbBlockBegin
  2
*D23
 70
     1
 71
     0
 10
0.0
 20
0.0
 30
0.0
  3
*D23
  1

  0
LINE
  5
5A0E
330
5826
100
AcDbEntity
  8
AM_5
100
AcDbLine
 10
-61.50195435483457
 20
6.200000000278603
 30
0.0
 11
-74.59396856032663
 21
6.200000000278608
 31
0.0
  0
LINE
  5
5A0F
330
5826
100
AcDbEntity
  8
AM_5
100
AcDbLine
 10
-61.50195435483458
 20
-6.199999999721391
 30
0.0
 11
-74.59396856032663
 21
-6.199999999721387
 31
0.0
  0
LINE
  5
5A10
330
5826
100
AcDbEntity
  8
AM_5
100
AcDbLine
 10
-73.59396856032663
 20
3.700000000278607
 30
0.0
 11
-73.59396856032663
 21
-3.699999999721387
 31
0.0
  0
INSERT
  5
5A11
330
5826
100
AcDbEntity
  8
AM_5
100
AcDbBlockReference
  2
_Open30
 10
-73.59396856032663
 20
6.200000000278607
 30
0.0
 41
2.5
 42
2.5
 43
2.5
 50
90.0
  0
INSERT
  5
5A12
330
5826
100
AcDbEntity
  8
AM_5
100
AcDbBlockReference
  2
_Open30
 10
-73.59396856032663
 20
-6.199999999721388
 30
0.0
 41
2.5
 42
2.5
 43
2.5
 50
270.0
  0
MTEXT
  5
5A13
330
5826
100
AcDbEntity
  8
AM_5
 62
     2
100
AcDbMText
 10
-76.99434257607466
 20
-0.6924817083338436
 30
0.0
 40
3.8
 41
0.0
 71
     5
 72
     1
  1
12.4
 11
6.123031769111886E-17
 21
1.0
 31
0.0
 73
     1
 44
1.0
  0
POINT
  5
5A14
330
5826
100
AcDbEntity
  8
Defpoints
 62
     0
100
AcDbPoint
 10
-61.50195435483457
 20
6.200000000278603
 30
0.0
  0
POINT
  5
5A15
330
5826
100
AcDbEntity
  8
Defpoints
 62
     0
100
AcDbPoint
 10
-61.50195435483458
 20
-6.199999999721391
 30
0.0
  0
POINT
  5
5A16
330
5826
100
AcDbEntity
  8
Defpoints
 62
     0
100
AcDbPoint
 10
-73.59396856032663
 20
-6.199999999721388
 30
0.0
  0
ENDBLK
  5
5989
330
5826
100
AcDbEntity
  8
0
100
AcDbBlockEnd
  0
BLOCK
  5
598A
330
5853
100
AcDbEntity
  8
0
100
AcDbBlockBegin
  2
*D24
 70
     1
 71
     0
 10
0.0
 20
0.0
 30
0.0
  3
*D24
  1

  0
LINE
  5
59A3
330
5853
100
AcDbEntity
  8
AM_5
100
AcDbLine
 10
-61.50195435483457
 20
13.5000000002786
 30
0.0
 11
-84.50195435483458
 21
13.5000000002786
 31
0.0
  0
LINE
  5
59A4
330
5853
100
AcDbEntity
  8
AM_5
100
AcDbLine
 10
-61.50195435483457
 20
-13.49999999972138
 30
0.0
 11
-84.50195435483458
 21
-13.49999999972138
 31
0.0
  0
LINE
  5
59A5
330
5853
100
AcDbEntity
  8
AM_5
100
AcDbLine
 10
-83.50195435483458
 20
11.0000000002786
 30
0.0
 11
-83.50195435483458
 21
-10.99999999972138
 31
0.0
  0
INSERT
  5
59A6
330
5853
100
AcDbEntity
  8
AM_5
100
AcDbBlockReference
  2
_Open30
 10
-83.50195435483458
 20
13.5000000002786
 30
0.0
 41
2.5
 42
2.5
 43
2.5
 50
90.0
  0
INSERT
  5
59A7
330
5853
100
AcDbEntity
  8
AM_5
100
AcDbBlockReference
  2
_Open30
 10
-83.50195435483458
 20
-13.49999999972138
 30
0.0
 41
2.5
 42
2.5
 43
2.5
 50
270.0
  0
MTEXT
  5
59A8
330
5853
100
AcDbEntity
  8
AM_5
 62
     2
100
AcDbMText
 10
-86.90232837058261
 20
0.0000000002785996
 30
0.0
 40
3.8
 41
0.0
 71
     5
 72
     1
  1
%%c27
 11
6.123031769111886E-17
 21
1.0
 31
0.0
 73
     1
 44
1.0
  0
POINT
  5
59A9
330
5853
100
AcDbEntity
  8
Defpoints
 62
     0
100
AcDbPoint
 10
-61.50195435483457
 20
13.5000000002786
 30
0.0
  0
POINT
  5
59AA
330
5853
100
AcDbEntity
  8
Defpoints
 62
     0
100
AcDbPoint
 10
-61.50195435483457
 20
-13.49999999972138
 30
0.0
  0
POINT
  5
59AB
330
5853
100
AcDbEntity
  8
Defpoints
 62
     0
100
AcDbPoint
 10
-83.50195435483458
 20
-13.49999999972138
 30
0.0
  0
ENDBLK
  5
598B
330
5853
100
AcDbEntity
  8
0
100
AcDbBlockEnd
  0
BLOCK
  5
598C
330
5880
100
AcDbEntity
  8
0
100
AcDbBlockBegin
  2
*D25
 70
     1
 71
     0
 10
0.0
 20
0.0
 30
0.0
  3
*D25
  1

  0
LINE
  5
5A20
330
5880
100
AcDbEntity
  8
AM_5
100
AcDbLine
 10
-61.00195435483457
 20
38.00000000027859
 30
0.0
 11
-95.7546355874877
 21
38.0000000002786
 31
0.0
  0
LINE
  5
5A21
330
5880
100
AcDbEntity
  8
AM_5
100
AcDbLine
 10
-61.00195435483457
 20
-37.99999999972138
 30
0.0
 11
-95.75463558748773
 21
-37.99999999972138
 31
0.0
  0
LINE
  5
5A22
330
5880
100
AcDbEntity
  8
AM_5
100
AcDbLine
 10
-94.7546355874877
 20
35.5000000002786
 30
0.0
 11
-94.75463558748773
 21
-35.49999999972138
 31
0.0
  0
INSERT
  5
5A23
330
5880
100
AcDbEntity
  8
AM_5
100
AcDbBlockReference
  2
_Open30
 10
-94.7546355874877
 20
38.0000000002786
 30
0.0
 41
2.5
 42
2.5
 43
2.5
 50
90.0
  0
INSERT
  5
5A24
330
5880
100
AcDbEntity
  8
AM_5
100
AcDbBlockReference
  2
_Open30
 10
-94.75463558748773
 20
-37.99999999972138
 30
0.0
 41
2.5
 42
2.5
 43
2.5
 50
270.0
  0
MTEXT
  5
5A25
330
5880
100
AcDbEntity
  8
AM_5
 62
     2
100
AcDbMText
 10
-98.15463558748772
 20
0.7787855558495953
 30
0.0
 40
3.8
 41
0.0
 71
     5
 72
     1
  1
%%c76
 11
6.123031769111886E-17
 21
1.0
 31
0.0
 73
     1
 44
1.0
  0
POINT
  5
5A26
330
5880
100
AcDbEntity
  8
Defpoints
 62
     0
100
AcDbPoint
 10
-61.00195435483457
 20
38.00000000027859
 30
0.0
  0
POINT
  5
5A27
330
5880
100
AcDbEntity
  8
Defpoints
 62
     0
100
AcDbPoint
 10
-61.00195435483457
 20
-37.99999999972138
 30
0.0
  0
POINT
  5
5A28
330
5880
100
AcDbEntity
  8
Defpoints
 62
     0
100
AcDbPoint
 10
-94.75463558748773
 20
-37.99999999972138
 30
0.0
  0
ENDBLK
  5
598D
330
5880
100
AcDbEntity
  8
0
100
AcDbBlockEnd
  0
BLOCK
  5
598E
330
58AD
100
AcDbEntity
  8
0
100
AcDbBlockBegin
  2
*D26
 70
     1
 71
     0
 10
0.0
 20
0.0
 30
0.0
  3
*D26
  1

  0
LINE
  5
5A6B
330
58AD
100
AcDbEntity
  8
AM_5
100
AcDbLine
 10
-63.00195435483457
 20
-35.99999999972138
 30
0.0
 11
-63.00195435483457
 21
-52.29136247713055
 31
0.0
  0
LINE
  5
5A6C
330
58AD
100
AcDbEntity
  8
AM_5
100
AcDbLine
 10
-56.00195435483457
 20
-6.19999999972139
 30
0.0
 11
-56.00195435483457
 21
-52.29136247713055
 31
0.0
  0
LINE
  5
5A6D
330
58AD
100
AcDbEntity
  8
AM_5
100
AcDbLine
 10
-53.50195435483457
 20
-51.29136247713055
 30
0.0
 11
-51.00195435483457
 21
-51.29136247713055
 31
0.0
  0
LINE
  5
5A6E
330
58AD
100
AcDbEntity
  8
AM_5
100
AcDbLine
 10
-65.50195435483457
 20
-51.29136247713055
 30
0.0
 11
-76.32494648081882
 21
-51.29136247713055
 31
0.0
  0
LINE
  5
5A6F
330
58AD
100
AcDbEntity
  8
AM_5
100
AcDbLine
 10
-56.00195435483457
 20
-51.29136247713055
 30
0.0
 11
-63.00195435483457
 21
-51.29136247713055
 31
0.0
  0
INSERT
  5
5A70
330
58AD
100
AcDbEntity
  8
AM_5
100
AcDbBlockReference
  2
_Open30
 10
-56.00195435483457
 20
-51.29136247713055
 30
0.0
 41
2.5
 42
2.5
 43
2.5
 50
180.0
  0
INSERT
  5
5A71
330
58AD
100
AcDbEntity
  8
AM_5
100
AcDbBlockReference
  2
_Open30
 10
-63.00195435483457
 20
-51.29136247713055
 30
0.0
 41
2.5
 42
2.5
 43
2.5
  0
MTEXT
  5
5A72
330
58AD
100
AcDbEntity
  8
AM_5
 62
     2
100
AcDbMText
 10
-72.1634504178267
 20
-47.89136247713055
 30
0.0
 40
3.8
 41
0.0
 71
     5
 72
     1
  1
7.0
 73
     1
 44
1.0
  0
POINT
  5
5A73
330
58AD
100
AcDbEntity
  8
Defpoints
 62
     0
100
AcDbPoint
 10
-63.00195435483457
 20
-35.99999999972138
 30
0.0
  0
POINT
  5
5A74
330
58AD
100
AcDbEntity
  8
Defpoints
 62
     0
100
AcDbPoint
 10
-56.00195435483457
 20
-6.19999999972139
 30
0.0
  0
POINT
  5
5A75
330
58AD
100
AcDbEntity
  8
Defpoints
 62
     0
100
AcDbPoint
 10
-56.00195435483457
 20
-51.29136247713055
 30
0.0
  0
ENDBLK
  5
598F
330
58AD
100
AcDbEntity
  8
0
100
AcDbBlockEnd
  0
BLOCK
  5
5990
330
58E0
100
AcDbEntity
  8
0
100
AcDbBlockBegin
  2
*D27
 70
     1
 71
     0
 10
0.0
 20
0.0
 30
0.0
  3
*D27
  1

  0
LINE
  5
59CC
330
58E0
100
AcDbEntity
  8
AM_5
100
AcDbLine
 10
-63.00195435483457
 20
-35.99999999972138
 30
0.0
 11
-63.00195435483457
 21
-63.6776087832427
 31
0.0
  0
LINE
  5
59CD
330
58E0
100
AcDbEntity
  8
AM_5
100
AcDbLine
 10
-38.00195435483457
 20
-13.99999999972139
 30
0.0
 11
-38.00195435483457
 21
-63.6776087832427
 31
0.0
  0
LINE
  5
59CE
330
58E0
100
AcDbEntity
  8
AM_5
100
AcDbLine
 10
-60.50195435483457
 20
-62.6776087832427
 30
0.0
 11
-40.50195435483457
 21
-62.6776087832427
 31
0.0
  0
INSERT
  5
59CF
330
58E0
100
AcDbEntity
  8
AM_5
100
AcDbBlockReference
  2
_Open30
 10
-63.00195435483457
 20
-62.6776087832427
 30
0.0
 41
2.5
 42
2.5
 43
2.5
 50
180.0
  0
INSERT
  5
59D0
330
58E0
100
AcDbEntity
  8
AM_5
100
AcDbBlockReference
  2
_Open30
 10
-38.00195435483457
 20
-62.6776087832427
 30
0.0
 41
2.5
 42
2.5
 43
2.5
  0
MTEXT
  5
59D1
330
58E0
100
AcDbEntity
  8
AM_5
 62
     2
100
AcDbMText
 10
-50.50195435483457
 20
-59.27723476749468
 30
0.0
 40
3.8
 41
0.0
 71
     5
 72
     1
  1
25
 73
     1
 44
1.0
  0
POINT
  5
59D2
330
58E0
100
AcDbEntity
  8
Defpoints
 62
     0
100
AcDbPoint
 10
-63.00195435483457
 20
-35.99999999972138
 30
0.0
  0
POINT
  5
59D3
330
58E0
100
AcDbEntity
  8
Defpoints
 62
     0
100
AcDbPoint
 10
-38.00195435483457
 20
-13.99999999972139
 30
0.0
  0
POINT
  5
59D4
330
58E0
100
AcDbEntity
  8
Defpoints
 62
     0
100
AcDbPoint
 10
-38.00195435483457
 20
-62.6776087832427
 30
0.0
  0
ENDBLK
  5
5991
330
58E0
100
AcDbEntity
  8
0
100
AcDbBlockEnd
  0
BLOCK
  5
5992
330
590D
100
AcDbEntity
  8
0
100
AcDbBlockBegin
  2
*D28
 70
     1
 71
     0
 10
0.0
 20
0.0
 30
0.0
  3
*D28
  1

  0
LINE
  5
59FB
330
590D
100
AcDbEntity
  8
AM_5
100
AcDbLine
 10
-63.00195435483457
 20
-35.99999999972138
 30
0.0
 11
-63.00195435483457
 21
-73.69314281166507
 31
0.0
  0
LINE
  5
59FC
330
590D
100
AcDbEntity
  8
AM_5
100
AcDbLine
 10
-0.0019543548345662
 20
-33.14423263149993
 30
0.0
 11
-0.0019543548345687
 21
-73.69314281166507
 31
0.0
  0
LINE
  5
59FD
330
590D
100
AcDbEntity
  8
AM_5
100
AcDbLine
 10
-60.50195435483457
 20
-72.69314281166507
 30
0.0
 11
-2.501954354834568
 21
-72.69314281166507
 31
0.0
  0
INSERT
  5
59FE
330
590D
100
AcDbEntity
  8
AM_5
100
AcDbBlockReference
  2
_Open30
 10
-63.00195435483457
 20
-72.69314281166507
 30
0.0
 41
2.5
 42
2.5
 43
2.5
 50
180.0
  0
INSERT
  5
59FF
330
590D
100
AcDbEntity
  8
AM_5
100
AcDbBlockReference
  2
_Open30
 10
-0.0019543548345686
 20
-72.69314281166507
 30
0.0
 41
2.5
 42
2.5
 43
2.5
  0
MTEXT
  5
5A00
330
590D
100
AcDbEntity
  8
AM_5
 62
     2
100
AcDbMText
 10
-31.50195435483457
 20
-69.29314281166506
 30
0.0
 40
3.8
 41
0.0
 71
     5
 72
     1
  1
63
 73
     1
 44
1.0
  0
POINT
  5
5A01
330
590D
100
AcDbEntity
  8
Defpoints
 62
     0
100
AcDbPoint
 10
-63.00195435483457
 20
-35.99999999972138
 30
0.0
  0
POINT
  5
5A02
330
590D
100
AcDbEntity
  8
Defpoints
 62
     0
100
AcDbPoint
 10
-0.0019543548345662
 20
-33.14423263149993
 30
0.0
  0
POINT
  5
5A03
330
590D
100
AcDbEntity
  8
Defpoints
 62
     0
100
AcDbPoint
 10
-0.0019543548345686
 20
-72.69314281166507
 30
0.0
  0
ENDBLK
  5
5993
330
590D
100
AcDbEntity
  8
0
100
AcDbBlockEnd
  0
BLOCK
  5
5994
330
593A
100
AcDbEntity
  8
0
100
AcDbBlockBegin
  2
*D29
 70
     1
 71
     0
 10
0.0
 20
0.0
 30
0.0
  3
*D29
  1

  0
LINE
  5
5A33
330
593A
100
AcDbEntity
  8
AM_5
100
AcDbLine
 10
-32.00195435483456
 20
6.750000000278604
 30
0.0
 11
11.90523750232501
 21
6.750000000278591
 31
0.0
  0
LINE
  5
5A34
330
593A
100
AcDbEntity
  8
AM_5
100
AcDbLine
 10
-32.00195435483455
 20
-6.74999999972139
 30
0.0
 11
11.90523750232501
 21
-6.749999999721402
 31
0.0
  0
LINE
  5
5A35
330
593A
100
AcDbEntity
  8
AM_5
100
AcDbLine
 10
10.90523750232501
 20
4.250000000278591
 30
0.0
 11
10.90523750232501
 21
-4.249999999721402
 31
0.0
  0
INSERT
  5
5A36
330
593A
100
AcDbEntity
  8
AM_5
100
AcDbBlockReference
  2
_Open30
 10
10.90523750232501
 20
6.750000000278591
 30
0.0
 41
2.5
 42
2.5
 43
2.5
 50
90.0
  0
INSERT
  5
5A37
330
593A
100
AcDbEntity
  8
AM_5
100
AcDbBlockReference
  2
_Open30
 10
10.90523750232501
 20
-6.749999999721402
 30
0.0
 41
2.5
 42
2.5
 43
2.5
 50
270.0
  0
MTEXT
  5
5A38
330
593A
100
AcDbEntity
  8
AM_5
 62
     2
100
AcDbMText
 10
7.505237502325008
 20
0.0000000002785969
 30
0.0
 40
3.8
 41
0.0
 71
     5
 72
     1
  1
%%c13.5
 11
6.123031769111886E-17
 21
1.0
 31
0.0
 73
     1
 44
1.0
  0
POINT
  5
5A39
330
593A
100
AcDbEntity
  8
Defpoints
 62
     0
100
AcDbPoint
 10
-32.00195435483456
 20
6.750000000278604
 30
0.0
  0
POINT
  5
5A3A
330
593A
100
AcDbEntity
  8
Defpoints
 62
     0
100
AcDbPoint
 10
-32.00195435483455
 20
-6.74999999972139
 30
0.0
  0
POINT
  5
5A3B
330
593A
100
AcDbEntity
  8
Defpoints
 62
     0
100
AcDbPoint
 10
10.90523750232501
 20
-6.749999999721402
 30
0.0
  0
ENDBLK
  5
5995
330
593A
100
AcDbEntity
  8
0
100
AcDbBlockEnd
  0
BLOCK
  5
5996
330
5967
100
AcDbEntity
  8
0
100
AcDbBlockBegin
  2
*D30
 70
     1
 71
     0
 10
0.0
 20
0.0
 30
0.0
  3
*D30
  1

  0
LINE
  5
5A45
330
5967
100
AcDbEntity
  8
AM_5
100
AcDbLine
 10
-3.301954354834578
 20
10.0000000002786
 30
0.0
 11
21.2895331230958
 21
10.0000000002786
 31
0.0
  0
LINE
  5
5A46
330
5967
100
AcDbEntity
  8
AM_5
100
AcDbLine
 10
-3.301954354834578
 20
-9.999999999721391
 30
0.0
 11
21.28953312309579
 21
-9.999999999721398
 31
0.0
  0
LINE
  5
5A47
330
5967
100
AcDbEntity
  8
AM_5
100
AcDbLine
 10
20.28953312309579
 20
7.500000000278598
 30
0.0
 11
20.28953312309579
 21
-7.499999999721397
 31
0.0
  0
INSERT
  5
5A48
330
5967
100
AcDbEntity
  8
AM_5
100
AcDbBlockReference
  2
_Open30
 10
20.2895331230958
 20
10.0000000002786
 30
0.0
 41
2.5
 42
2.5
 43
2.5
 50
90.0
  0
INSERT
  5
5A49
330
5967
100
AcDbEntity
  8
AM_5
100
AcDbBlockReference
  2
_Open30
 10
20.28953312309579
 20
-9.999999999721398
 30
0.0
 41
2.5
 42
2.5
 43
2.5
 50
270.0
  0
MTEXT
  5
5A4A
330
5967
100
AcDbEntity
  8
AM_5
 62
     2
100
AcDbMText
 10
16.88915910734776
 20
0.7833451534095848
 30
0.0
 40
3.8
 41
0.0
 71
     5
 72
     1
  1
%%c20
 11
6.123031769111886E-17
 21
1.0
 31
0.0
 73
     1
 44
1.0
  0
POINT
  5
5A4B
330
5967
100
AcDbEntity
  8
Defpoints
 62
     0
100
AcDbPoint
 10
-3.301954354834578
 20
10.0000000002786
 30
0.0
  0
POINT
  5
5A4C
330
5967
100
AcDbEntity
  8
Defpoints
 62
     0
100
AcDbPoint
 10
-3.301954354834578
 20
-9.999999999721391
 30
0.0
  0
POINT
  5
5A4D
330
5967
100
AcDbEntity
  8
Defpoints
 62
     0
100
AcDbPoint
 10
20.28953312309579
 20
-9.999999999721398
 30
0.0
  0
ENDBLK
  5
5997
330
5967
100
AcDbEntity
  8
0
100
AcDbBlockEnd
  0
ENDSEC
  0
SECTION
  2
ENTITIES
  0
LINE
  5
30AD
330
1F
100
AcDbEntity
  8
AM_7
100
AcDbLine
 10
-66.33520233715808
 20
0.000000000278611
 30
0.0
 11
3.000000013102977
 21
0.0000000002786072
 31
0.0
1001
GENIUS_GENODEF_13
1002
{
1000
HIER
1070
     0
1002
}
1002
{
1000
MANEDIT
1070
     0
1002
}
1002
{
1000
NOSEL
1070
     0
1002
}
1002
{
1000
BEHIND
1070
     0
1002
}
1002
{
1000
OTHER
1070
     0
1002
}
1002
{
1000
REACTOR
1002
}
1001
GENIUS_GENOBJ-N-CEN_13
1002
{
1000
OWNER
1000
GEN
1002
}
1001
GENIUS_GENCEN_19
1002
{
1040
3.0
1002
}
  0
TEXT
  5
36DC
330
1F
100
AcDbEntity
  8
AM_0
100
AcDbText
 10
-8.295609036323981
 20
-79.12938753732988
 30
0.0
 40
3.8
  1
MSX14080RS
  7
ACISOTS
100
AcDbText
  0
DIMENSION
  5
3AC6
330
1F
100
AcDbEntity
  8
AM_5
100
AcDbDimension
  2
*D14
 10
30.9618698186727
 20
-39.99999999972139
 30
0.0
 11
30.96186981867271
 21
0.2316198403046883
 31
0.0
 70
   160
  1
%%c<>
 71
     5
 42
80.0
  3
AM_JIS$0
100
AcDbAlignedDimension
 13
-3.769309141388399
 23
40.00000000027861
 33
0.0
 14
-3.769309141388387
 24
-39.99999999972138
 34
0.0
 50
90.00000000000003
100
AcDbRotatedDimension
1001
ACAD
1000
DSTYLE
1002
{
1070
   179
1070
     0
1070
   271
1070
     0
1002
}
  0
LINE
  5
4D04
330
1F
100
AcDbEntity
  8
AM_0
100
AcDbLine
 10
-0.0725934898494902
 20
31.08648234022515
 30
0.0
 11
-0.0031727007962932
 21
33.07443363865215
 31
0.0
  0
ARC
  5
4D05
330
1F
100
AcDbEntity
  8
AM_0
100
AcDbCircle
 10
-2.001954354834576
 20
33.14423263205716
 30
0.0
 40
2.0
100
AcDbArc
 50
357.9999999999964
 51
20.00000000000305
  0
LINE
  5
4D06
330
1F
100
AcDbEntity
  8
AM_0
100
AcDbLine
 10
-0.2094837941007004
 20
30.42596592122978
 30
0.0
 11
-1.987296093011517
 21
25.78686025232874
 31
0.0
  0
ARC
  5
4D07
330
1F
100
AcDbEntity
  8
AM_0
100
AcDbCircle
 10
-2.071375143887432
 20
31.15628133363006
 30
0.0
 40
2.0
100
AcDbArc
 50
338.5827114671855
 51
358.0000000000029
1001
GENIUS_GENODEF_13
1002
{
1000
HIER
1070
     0
1002
}
1002
{
1000
MANEDIT
1070
     0
1002
}
1002
{
1000
NOSEL
1070
     0
1002
}
1002
{
1000
BEHIND
1070
     0
1002
}
1002
{
1000
OTHER
1070
     0
1002
}
1002
{
1000
REACTOR
1002
}
1001
GENIUS_GENOBJ-N-FIL_13
1002
{
1000
OWNER
1000
GEN
1002
}
  0
ARC
  5
4D08
330
1F
100
AcDbEntity
  8
AM_0
100
AcDbCircle
 10
-3.7693091413884
 20
38.00000000027861
 30
0.0
 40
2.0
100
AcDbArc
 50
20.00000000000305
 51
93.00000000001394
  0
CIRCLE
  5
4D09
330
1F
100
AcDbEntity
  8
AM_0
100
AcDbCircle
 10
-7.032827364719006
 20
32.34742062604286
 30
0.0
 40
3.8
  0
LINE
  5
4D0A
330
1F
100
AcDbEntity
  8
AM_0
100
AcDbLine
 10
-0.1225691132626512
 20
33.8282729187085
 30
0.0
 11
-1.889923899816589
 21
38.68404028692995
 31
0.0
  0
LINE
  5
4D0B
330
1F
100
AcDbEntity
  8
AM_0
100
AcDbLine
 10
-9.420939714031057
 20
39.00562912086965
 30
0.0
 11
-11.17726643448166
 21
38.0717736385271
 31
0.0
  0
ARC
  5
4D0C
330
1F
100
AcDbEntity
  8
AM_0
100
AcDbCircle
 10
-10.23832330890983
 20
36.30587845280896
 30
0.0
 40
2.0
100
AcDbArc
 50
117.9999999999975
 51
140.0000000000035
  0
LINE
  5
4D0D
330
1F
100
AcDbEntity
  8
AM_0
100
AcDbLine
 10
-8.780470563438804
 20
39.21733684935392
 30
0.0
 11
-3.873981053874653
 21
39.99725906978741
 31
0.0
  0
ARC
  5
4D0E
330
1F
100
AcDbEntity
  8
AM_0
100
AcDbCircle
 10
-8.481996588459232
 20
37.23973393515197
 30
0.0
 40
2.0
100
AcDbArc
 50
98.58271146718572
 51
118.0000000000002
1001
GENIUS_GENODEF_13
1002
{
1000
HIER
1070
     0
1002
}
1002
{
1000
MANEDIT
1070
     0
1002
}
1002
{
1000
NOSEL
1070
     0
1002
}
1002
{
1000
BEHIND
1070
     0
1002
}
1002
{
1000
OTHER
1070
     0
1002
}
1002
{
1000
REACTOR
1002
}
1001
GENIUS_GENOBJ-N-FIL_13
1002
{
1000
OWNER
1000
GEN
1002
}
  0
ARC
  5
4D0F
330
1F
100
AcDbEntity
  8
AM_0
100
AcDbCircle
 10
-13.55986381138022
 20
32.34742062604263
 30
0.0
 40
2.0
100
AcDbArc
 50
140.0000000000035
 51
213.0000000000109
  0
LINE
  5
4D10
330
1F
100
AcDbEntity
  8
AM_0
100
AcDbLine
 10
-11.77041219514795
 20
37.59145367218215
 30
0.0
 11
-15.09195269761822
 21
33.6329958454157
 31
0.0
  0
LINE
  5
4D11
330
1F
100
AcDbEntity
  8
AM_0
100
AcDbLine
 10
-11.60494889027618
 20
26.95015041703365
 30
0.0
 11
-9.918042958878779
 21
25.89605460094932
 31
0.0
  0
ARC
  5
4D12
330
1F
100
AcDbEntity
  8
AM_0
100
AcDbCircle
 10
-8.858204430412265
 20
27.59215079326221
 30
0.0
 40
2.0
100
AcDbArc
 50
237.9999999999977
 51
260.000000000003
  0
LINE
  5
4D13
330
1F
100
AcDbEntity
  8
AM_0
100
AcDbLine
 10
-12.10852773661734
 20
27.39895910754463
 30
0.0
 11
-15.23720494727068
 21
31.25814255601241
 31
0.0
  0
ARC
  5
4D14
330
1F
100
AcDbEntity
  8
AM_0
100
AcDbCircle
 10
-10.54511036181001
 20
28.64624660934631
 30
0.0
 40
2.0
100
AcDbArc
 50
218.5827114671847
 51
238.0000000000006
1001
GENIUS_GENODEF_13
1002
{
1000
HIER
1070
     0
1002
}
1002
{
1000
MANEDIT
1070
     0
1002
}
1002
{
1000
NOSEL
1070
     0
1002
}
1002
{
1000
BEHIND
1070
     0
1002
}
1002
{
1000
OTHER
1070
     0
1002
}
1002
{
1000
REACTOR
1002
}
1001
GENIUS_GENOBJ-N-FIL_13
1002
{
1000
OWNER
1000
GEN
1002
}
  0
ARC
  5
4D15
330
1F
100
AcDbEntity
  8
AM_0
100
AcDbCircle
 10
-3.769309141388058
 20
26.69484125180721
 30
0.0
 40
2.0
100
AcDbArc
 50
260.0000000000014
 51
333.0000000000129
  0
LINE
  5
4D16
330
1F
100
AcDbEntity
  8
AM_0
100
AcDbLine
 10
-9.205500785746246
 20
25.62253528723769
 30
0.0
 11
-4.116605496721926
 21
24.72522574578269
 31
0.0
  0
LINE
  5
4D38
330
1F
100
AcDbEntity
  8
AM_0
  6
ACISOTGL
370
    20
100
AcDbLine
 10
-0.0725934898494809
 20
-31.08648233966792
 30
0.0
 11
-0.0031727007962838
 21
-33.07443363809492
 31
0.0
  0
ARC
  5
4D39
330
1F
100
AcDbEntity
  8
AM_0
  6
ACISOTGL
370
    20
100
AcDbCircle
 10
-2.001954354834566
 20
-33.14423263149993
 30
0.0
 40
2.0
100
AcDbArc
 50
339.999999999997
 51
2.000000000003655
  0
LINE
  5
4D3A
330
1F
100
AcDbEntity
  8
AM_0
  6
ACISOTGL
370
    20
100
AcDbLine
 10
-0.2094837941006911
 20
-30.42596592067255
 30
0.0
 11
-1.987296093011508
 21
-25.78686025177152
 31
0.0
  0
ARC
  5
4D3B
330
1F
100
AcDbEntity
  8
AM_0
  6
ACISOTGL
370
    20
100
AcDbCircle
 10
-2.071375143887422
 20
-31.15628133307283
 30
0.0
 40
2.0
100
AcDbArc
 50
1.999999999997142
 51
21.41728853281458
1001
GENIUS_GENODEF_13
1002
{
1000
HIER
1070
     0
1002
}
1002
{
1000
MANEDIT
1070
     0
1002
}
1002
{
1000
NOSEL
1070
     0
1002
}
1002
{
1000
BEHIND
1070
     0
1002
}
1002
{
1000
OTHER
1070
     0
1002
}
1002
{
1000
REACTOR
1002
}
1001
GENIUS_GENOBJ-N-FIL_13
1002
{
1000
OWNER
1000
GEN
1002
}
  0
ARC
  5
4D3C
330
1F
100
AcDbEntity
  8
AM_0
  6
ACISOTGL
370
    20
100
AcDbCircle
 10
-3.76930914138839
 20
-37.99999999972138
 30
0.0
 40
2.0
100
AcDbArc
 50
266.9999999999861
 51
339.999999999997
  0
LINE
  5
4D3E
330
1F
100
AcDbEntity
  8
AM_0
  6
ACISOTGL
370
    20
100
AcDbLine
 10
-0.1225691132626419
 20
-33.82827291815127
 30
0.0
 11
-1.88992389981658
 21
-38.68404028637272
 31
0.0
  0
LINE
  5
4D3F
330
1F
100
AcDbEntity
  8
AM_0
  6
ACISOTGL
370
    20
100
AcDbLine
 10
-9.42093971403105
 20
-39.00562912031242
 30
0.0
 11
-11.17726643448165
 21
-38.07177363796987
 31
0.0
  0
ARC
  5
4D40
330
1F
100
AcDbEntity
  8
AM_0
  6
ACISOTGL
370
    20
100
AcDbCircle
 10
-10.23832330890983
 20
-36.30587845225173
 30
0.0
 40
2.0
100
AcDbArc
 50
219.9999999999965
 51
242.0000000000025
  0
LINE
  5
4D41
330
1F
100
AcDbEntity
  8
AM_0
  6
ACISOTGL
370
    20
100
AcDbLine
 10
-8.780470563438797
 20
-39.21733684879669
 30
0.0
 11
-3.873981053874644
 21
-39.99725906923018
 31
0.0
  0
ARC
  5
4D42
330
1F
100
AcDbEntity
  8
AM_0
  6
ACISOTGL
370
    20
100
AcDbCircle
 10
-8.481996588459225
 20
-37.23973393459474
 30
0.0
 40
2.0
100
AcDbArc
 50
241.9999999999998
 51
261.4172885328143
1001
GENIUS_GENODEF_13
1002
{
1000
HIER
1070
     0
1002
}
1002
{
1000
MANEDIT
1070
     0
1002
}
1002
{
1000
NOSEL
1070
     0
1002
}
1002
{
1000
BEHIND
1070
     0
1002
}
1002
{
1000
OTHER
1070
     0
1002
}
1002
{
1000
REACTOR
1002
}
1001
GENIUS_GENOBJ-N-FIL_13
1002
{
1000
OWNER
1000
GEN
1002
}
  0
ARC
  5
4D43
330
1F
100
AcDbEntity
  8
AM_0
  6
ACISOTGL
370
    20
100
AcDbCircle
 10
-13.55986381138021
 20
-32.3474206254854
 30
0.0
 40
2.0
100
AcDbArc
 50
146.9999999999891
 51
219.9999999999965
  0
LINE
  5
4D44
330
1F
100
AcDbEntity
  8
AM_0
  6
ACISOTGL
370
    20
100
AcDbLine
 10
-11.77041219514794
 20
-37.59145367162492
 30
0.0
 11
-15.09195269761821
 21
-33.63299584485847
 31
0.0
  0
LINE
  5
4D45
330
1F
100
AcDbEntity
  8
AM_0
  6
ACISOTGL
370
    20
100
AcDbLine
 10
-11.60494889027618
 20
-26.95015041647642
 30
0.0
 11
-9.918042958878772
 21
-25.89605460039209
 31
0.0
  0
ARC
  5
4D46
330
1F
100
AcDbEntity
  8
AM_0
  6
ACISOTGL
370
    20
100
AcDbCircle
 10
-8.858204430412258
 20
-27.59215079270498
 30
0.0
 40
2.0
100
AcDbArc
 50
99.99999999999704
 51
122.0000000000023
  0
LINE
  5
4D47
330
1F
100
AcDbEntity
  8
AM_0
  6
ACISOTGL
370
    20
100
AcDbLine
 10
-12.10852773661733
 20
-27.39895910698741
 30
0.0
 11
-15.23720494727067
 21
-31.25814255545518
 31
0.0
  0
ARC
  5
4D48
330
1F
100
AcDbEntity
  8
AM_0
  6
ACISOTGL
370
    20
100
AcDbCircle
 10
-10.54511036181
 20
-28.64624660878909
 30
0.0
 40
2.0
100
AcDbArc
 50
121.9999999999994
 51
141.4172885328153
1001
GENIUS_GENODEF_13
1002
{
1000
HIER
1070
     0
1002
}
1002
{
1000
MANEDIT
1070
     0
1002
}
1002
{
1000
NOSEL
1070
     0
1002
}
1002
{
1000
BEHIND
1070
     0
1002
}
1002
{
1000
OTHER
1070
     0
1002
}
1002
{
1000
REACTOR
1002
}
1001
GENIUS_GENOBJ-N-FIL_13
1002
{
1000
OWNER
1000
GEN
1002
}
  0
ARC
  5
4D49
330
1F
100
AcDbEntity
  8
AM_0
  6
ACISOTGL
370
    20
100
AcDbCircle
 10
-3.769309141388049
 20
-26.69484125124998
 30
0.0
 40
2.0
100
AcDbArc
 50
26.99999999998719
 51
99.99999999999859
  0
LINE
  5
4D4A
330
1F
100
AcDbEntity
  8
AM_0
  6
ACISOTGL
370
    20
100
AcDbLine
 10
-9.205500785746239
 20
-25.62253528668046
 30
0.0
 11
-4.116605496721917
 21
-24.72522574522546
 31
0.0
  0
LINE
  5
4E12
102
{ACAD_REACTORS
330
5972
102
}
330
1F
100
AcDbEntity
  8
AM_0
100
AcDbLine
 10
-3.301954354834578
 20
24.75021288024478
 30
0.0
 11
-3.301954354834578
 21
-26.65504516081212
 31
0.0
  0
LINE
  5
4E13
330
1F
100
AcDbEntity
  8
AM_0
100
AcDbLine
 10
-3.30195435483457
 20
-26.65504516081214
 30
0.0
 11
-1.30195435483457
 21
-32.14999999972138
 31
0.0
  0
LINE
  5
4E6B
330
1F
100
AcDbEntity
  8
AM_0
100
AcDbLine
 10
-1.30195435483457
 20
-32.14999999972138
 30
0.0
 11
-1.30195435483457
 21
-33.34999999972138
 31
0.0
  0
LINE
  5
4E6C
330
1F
100
AcDbEntity
  8
AM_0
100
AcDbLine
 10
-1.30195435483457
 20
-33.34999999972138
 30
0.0
 11
-3.121805526165582
 21
-38.34999999972138
 31
0.0
  0
LINE
  5
4E6D
330
1F
100
AcDbEntity
  8
AM_0
100
AcDbLine
 10
-3.121805526165582
 20
-38.34999999972138
 30
0.0
 11
-4.10195435483457
 21
-38.34999999972138
 31
0.0
  0
LINE
  5
4E6E
330
1F
100
AcDbEntity
  8
AM_0
100
AcDbLine
 10
-4.10195435483457
 20
-38.34999999972138
 30
0.0
 11
-7.865658442417333
 21
-37.54999999972138
 31
0.0
  0
LINE
  5
4E6F
330
1F
100
AcDbEntity
  8
AM_0
100
AcDbLine
 10
-7.865658442417333
 20
-37.54999999972138
 30
0.0
 11
-11.80195435483457
 21
-37.54999999972138
 31
0.0
  0
ARC
  5
4E7A
330
1F
100
AcDbEntity
  8
AM_0
100
AcDbCircle
 10
-24.22001373929657
 20
-88.32131671685332
 30
0.0
 40
52.26791367624452
100
AcDbArc
 50
76.25596572179937
 51
82.5047237258908
  0
LINE
  5
507A
330
1F
100
AcDbEntity
  8
AM_4
100
AcDbLine
 10
-0.0019543548345662
 20
-33.14423263149993
 30
0.0
 11
-0.0019543548345666
 21
33.14423263205716
 31
0.0
  0
LINE
  5
51AD
330
1F
100
AcDbEntity
  8
AM_0
100
AcDbLine
 10
-63.00195435483455
 20
-7.699999999721396
 30
0.0
 11
-63.00195435483457
 21
-35.99999999972138
 31
0.0
  0
LINE
  5
51AF
330
1F
100
AcDbEntity
  8
AM_0
100
AcDbLine
 10
-22.40195435483457
 20
-36.49999999972138
 30
0.0
 11
-17.40195435483455
 21
-36.49999999972138
 31
0.0
  0
ARC
  5
51B3
330
1F
100
AcDbEntity
  8
AM_0
100
AcDbCircle
 10
-24.22001373929657
 20
88.32131671741055
 30
0.0
 40
52.26791367624452
100
AcDbArc
 50
277.4952762741092
 51
283.7440342782006
  0
LINE
  5
579C
102
{ACAD_REACTORS
330
5972
102
}
330
1F
100
AcDbEntity
  8
AM_0
100
AcDbLine
 10
-3.301954354834582
 20
-9.999999999721391
 30
0.0
 11
-32.00195435483457
 21
-9.999999999721391
 31
0.0
  0
LINE
  5
579D
102
{ACAD_REACTORS
330
5945
102
}
330
1F
100
AcDbEntity
  8
AM_0
100
AcDbLine
 10
-32.00195435483457
 20
-9.999999999721391
 30
0.0
 11
-32.00195435483456
 21
10.0000000002786
 31
0.0
  0
LINE
  5
579E
102
{ACAD_REACTORS
330
5945
102
}
330
1F
100
AcDbEntity
  8
AM_0
100
AcDbLine
 10
-32.00195435483457
 20
-6.749999999721391
 30
0.0
 11
-38.00195435483457
 21
-6.749999999721391
 31
0.0
  0
LINE
  5
579F
330
1F
100
AcDbEntity
  8
AM_0
100
AcDbLine
 10
-38.00195435483456
 20
14.0000000002786
 30
0.0
 11
-38.00195435483457
 21
-13.99999999972139
 31
0.0
  0
LINE
  5
57A0
330
1F
100
AcDbEntity
  8
AM_0
100
AcDbLine
 10
-38.00195435483457
 20
-13.99999999972139
 30
0.0
 11
-41.00195435483457
 21
-13.99999999972139
 31
0.0
  0
LINE
  5
57A1
330
1F
100
AcDbEntity
  8
AM_0
100
AcDbLine
 10
-41.00195435483457
 20
-13.99999999972139
 30
0.0
 11
-41.00195435483457
 21
14.0000000002786
 31
0.0
  0
LINE
  5
57A2
330
1F
100
AcDbEntity
  8
AM_0
100
AcDbLine
 10
-41.00195435483457
 20
-13.49999999972139
 30
0.0
 11
-61.50195435483457
 21
-13.49999999972139
 31
0.0
  0
LINE
  5
57A3
102
{ACAD_REACTORS
330
5831
102
}
330
1F
100
AcDbEntity
  8
AM_0
100
AcDbLine
 10
-61.50195435483458
 20
-6.199999999721391
 30
0.0
 11
-56.00195435483457
 21
-6.19999999972139
 31
0.0
  0
LINE
  5
57A4
102
{ACAD_REACTORS
330
58BA
102
}
330
1F
100
AcDbEntity
  8
AM_0
100
AcDbLine
 10
-56.00195435483457
 20
-6.19999999972139
 30
0.0
 11
-56.00195435483457
 21
6.200000000278602
 31
0.0
  0
ARC
  5
57D0
330
1F
100
AcDbEntity
  8
AM_0
100
AcDbCircle
 10
-33.37807452601485
 20
-58.96162919236477
 30
0.0
 40
25.0
100
AcDbArc
 50
63.95704806958376
 51
123.0216017420091
  0
LINE
  5
57D1
330
1F
100
AcDbEntity
  8
AM_0
100
AcDbLine
 10
-47.00195435483457
 20
-37.99999999972139
 30
0.0
 11
-61.00195435483457
 21
-37.99999999972138
 31
0.0
  0
ARC
  5
57D4
102
{ACAD_REACTORS
330
588B
330
58BA
102
}
330
1F
100
AcDbEntity
  8
AM_0
100
AcDbCircle
 10
-61.00195435483457
 20
-35.99999999972138
 30
0.0
 40
2.0
100
AcDbArc
 50
180.0
 51
270.0
1001
GENIUS_GENOBJ-N-FIL_13
1002
{
1000
OWNER
1000
GEN
1002
}
1001
GENIUS_GENODEF_13
1002
{
1000
HIER
1070
     0
1002
}
1002
{
1000
MANEDIT
1070
     0
1002
}
1002
{
1000
NOSEL
1070
     0
1002
}
1002
{
1000
BEHIND
1070
     0
1002
}
1002
{
1000
OTHER
1070
     0
1002
}
1002
{
1000
REACTOR
1002
}
  0
LINE
  5
57F6
330
1F
100
AcDbEntity
  8
AM_0
100
AcDbLine
 10
-63.00195435483457
 20
-14.99999999972139
 30
0.0
 11
-61.50195435483457
 21
-13.49999999972138
 31
0.0
  0
LINE
  5
57F7
102
{ACAD_REACTORS
330
585E
102
}
330
1F
100
AcDbEntity
  8
AM_0
100
AcDbLine
 10
-61.50195435483457
 20
-13.49999999972138
 30
0.0
 11
-61.50195435483457
 21
-6.19999999972139
 31
0.0
  0
LINE
  5
57F8
330
1F
100
AcDbEntity
  8
AM_0
100
AcDbLine
 10
-61.50195435483457
 20
-6.19999999972139
 30
0.0
 11
-63.00195435483457
 21
-7.699999999721394
 31
0.0
  0
LINE
  5
57F9
330
1F
100
AcDbEntity
  8
AM_0
100
AcDbLine
 10
-63.00195435483455
 20
7.700000000278609
 30
0.0
 11
-63.00195435483457
 21
36.00000000027859
 31
0.0
  0
LINE
  5
57FA
330
1F
100
AcDbEntity
  8
AM_0
100
AcDbLine
 10
-22.40195435483457
 20
36.50000000027859
 30
0.0
 11
-17.40195435483455
 21
36.50000000027859
 31
0.0
  0
LINE
  5
57FB
102
{ACAD_REACTORS
330
5972
102
}
330
1F
100
AcDbEntity
  8
AM_0
100
AcDbLine
 10
-3.301954354834582
 20
10.0000000002786
 30
0.0
 11
-32.00195435483457
 21
10.0000000002786
 31
0.0
  0
LINE
  5
57FC
102
{ACAD_REACTORS
330
5945
102
}
330
1F
100
AcDbEntity
  8
AM_0
100
AcDbLine
 10
-32.00195435483457
 20
6.750000000278604
 30
0.0
 11
-38.00195435483457
 21
6.750000000278604
 31
0.0
  0
LINE
  5
57FD
330
1F
100
AcDbEntity
  8
AM_0
100
AcDbLine
 10
-38.00195435483457
 20
14.0000000002786
 30
0.0
 11
-41.00195435483457
 21
14.0000000002786
 31
0.0
  0
LINE
  5
57FE
102
{ACAD_REACTORS
330
585E
102
}
330
1F
100
AcDbEntity
  8
AM_0
100
AcDbLine
 10
-41.00195435483457
 20
13.5000000002786
 30
0.0
 11
-61.50195435483457
 21
13.5000000002786
 31
0.0
  0
LINE
  5
57FF
330
1F
100
AcDbEntity
  8
AM_0
100
AcDbLine
 10
-61.50195435483458
 20
6.200000000278604
 30
0.0
 11
-56.00195435483457
 21
6.200000000278603
 31
0.0
  0
ARC
  5
5800
330
1F
100
AcDbEntity
  8
AM_0
100
AcDbCircle
 10
-33.37807452601485
 20
58.96162919292197
 30
0.0
 40
25.0
100
AcDbArc
 50
236.9783982579909
 51
296.0429519304163
  0
LINE
  5
5801
330
1F
100
AcDbEntity
  8
AM_0
100
AcDbLine
 10
-47.00195435483457
 20
38.0000000002786
 30
0.0
 11
-61.00195435483457
 21
38.00000000027859
 31
0.0
  0
ARC
  5
5802
102
{ACAD_REACTORS
330
588B
102
}
330
1F
100
AcDbEntity
  8
AM_0
100
AcDbCircle
 10
-61.00195435483457
 20
36.00000000027859
 30
0.0
 40
2.0
100
AcDbArc
 50
90.00000000000003
 51
180.0
1001
GENIUS_GENOBJ-N-FIL_13
1002
{
1000
OWNER
1000
GEN
1002
}
1001
GENIUS_GENODEF_13
1002
{
1000
HIER
1070
     0
1002
}
1002
{
1000
MANEDIT
1070
     0
1002
}
1002
{
1000
NOSEL
1070
     0
1002
}
1002
{
1000
BEHIND
1070
     0
1002
}
1002
{
1000
OTHER
1070
     0
1002
}
1002
{
1000
REACTOR
1002
}
  0
LINE
  5
5803
330
1F
100
AcDbEntity
  8
AM_0
100
AcDbLine
 10
-63.00195435483457
 20
15.0000000002786
 30
0.0
 11
-61.50195435483457
 21
13.5000000002786
 31
0.0
  0
LINE
  5
5804
330
1F
100
AcDbEntity
  8
AM_0
100
AcDbLine
 10
-61.50195435483457
 20
13.5000000002786
 30
0.0
 11
-61.50195435483457
 21
6.200000000278603
 31
0.0
  0
LINE
  5
5805
102
{ACAD_REACTORS
330
5831
102
}
330
1F
100
AcDbEntity
  8
AM_0
100
AcDbLine
 10
-61.50195435483457
 20
6.200000000278603
 30
0.0
 11
-63.00195435483457
 21
7.700000000278607
 31
0.0
  0
DIMENSION
  5
5825
102
{ACAD_REACTORS
330
5831
102
}
102
{ACAD_XDICTIONARY
360
5830
102
}
330
1F
100
AcDbEntity
  8
AM_5
100
AcDbDimension
  2
*D23
 10
-73.59396856032663
 20
-6.199999999721388
 30
0.0
 11
-73.59396856032663
 21
-0.6924817083338439
 31
0.0
 70
   160
 71
     5
 42
12.4
  3
AM_JIS$0
100
AcDbAlignedDimension
 13
-61.50195435483457
 23
6.200000000278603
 33
0.0
 14
-61.50195435483458
 24
-6.199999999721391
 34
0.0
 50
90.0
100
AcDbRotatedDimension
1001
ACAD
1000
DSTYLE
1002
{
1070
   179
1070
     0
1070
   271
1070
     1
1002
}
  0
DIMENSION
  5
5852
102
{ACAD_REACTORS
330
585E
102
}
102
{ACAD_XDICTIONARY
360
585D
102
}
330
1F
100
AcDbEntity
  8
AM_5
100
AcDbDimension
  2
*D24
 10
-83.50195435483458
 20
-13.49999999972138
 30
0.0
 11
-86.90232837058261
 21
0.0000000002785996
 31
0.0
 70
    32
  1
%%c<>
 71
     5
 42
26.99999999999998
  3
AM_JIS$0
100
AcDbAlignedDimension
 13
-61.50195435483457
 23
13.5000000002786
 33
0.0
 14
-61.50195435483457
 24
-13.49999999972138
 34
0.0
 50
90.0
100
AcDbRotatedDimension
1001
ACAD
1000
DSTYLE
1002
{
1070
   179
1070
     0
1070
   271
1070
     0
1002
}
  0
DIMENSION
  5
587F
102
{ACAD_REACTORS
330
588B
102
}
102
{ACAD_XDICTIONARY
360
588A
102
}
330
1F
100
AcDbEntity
  8
AM_5
100
AcDbDimension
  2
*D25
 10
-94.75463558748773
 20
-37.99999999972138
 30
0.0
 11
-94.75463558748771
 21
0.7787855558495949
 31
0.0
 70
   160
  1
%%c<>
 71
     5
 42
75.99999999999997
  3
AM_JIS$0
100
AcDbAlignedDimension
 13
-61.00195435483457
 23
38.00000000027859
 33
0.0
 14
-61.00195435483457
 24
-37.99999999972138
 34
0.0
 50
90.00000000000006
100
AcDbRotatedDimension
1001
ACAD
1000
DSTYLE
1002
{
1070
   179
1070
     0
1070
   271
1070
     0
1002
}
  0
DIMENSION
  5
58AC
102
{ACAD_REACTORS
330
58BA
102
}
102
{ACAD_XDICTIONARY
360
58B9
102
}
330
1F
100
AcDbEntity
  8
AM_5
100
AcDbDimension
  2
*D26
 10
-56.00195435483457
 20
-51.29136247713055
 30
0.0
 11
-72.1634504178267
 21
-51.29136247713055
 31
0.0
 70
   160
 71
     5
 42
7.0
  3
AM_JIS$0
100
AcDbAlignedDimension
 13
-63.00195435483457
 23
-35.99999999972138
 33
0.0
 14
-56.00195435483457
 24
-6.19999999972139
 34
0.0
 50
0.0000000000001132
100
AcDbRotatedDimension
1001
ACAD
1000
DSTYLE
1002
{
1070
   179
1070
     0
1070
   271
1070
     1
1002
}
  0
DIMENSION
  5
58DF
330
1F
100
AcDbEntity
  8
AM_5
100
AcDbDimension
  2
*D27
 10
-38.00195435483457
 20
-62.6776087832427
 30
0.0
 11
-50.50195435483457
 21
-59.27723476749468
 31
0.0
 70
    32
 71
     5
 42
25.0
  3
AM_JIS$0
100
AcDbAlignedDimension
 13
-63.00195435483457
 23
-35.99999999972138
 33
0.0
 14
-38.00195435483457
 24
-13.99999999972139
 34
0.0
 50
0.0000000000001132
100
AcDbRotatedDimension
1001
ACAD
1000
DSTYLE
1002
{
1070
   179
1070
     0
1070
   271
1070
     0
1002
}
  0
DIMENSION
  5
590C
330
1F
100
AcDbEntity
  8
AM_5
100
AcDbDimension
  2
*D28
 10
-0.0019543548345686
 20
-72.69314281166507
 30
0.0
 11
-31.50195435483457
 21
-69.29314281166506
 31
0.0
 70
    32
 71
     5
 42
63.0
  3
AM_JIS$0
100
AcDbAlignedDimension
 13
-63.00195435483457
 23
-35.99999999972138
 33
0.0
 14
-0.0019543548345662
 24
-33.14423263149993
 34
0.0
 50
0.0000000000001132
100
AcDbRotatedDimension
1001
ACAD
1000
DSTYLE
1002
{
1070
   179
1070
     0
1070
   271
1070
     0
1002
}
  0
DIMENSION
  5
5939
102
{ACAD_REACTORS
330
5945
102
}
102
{ACAD_XDICTIONARY
360
5944
102
}
330
1F
100
AcDbEntity
  8
AM_5
100
AcDbDimension
  2
*D29
 10
10.90523750232501
 20
-6.749999999721402
 30
0.0
 11
10.90523750232501
 21
0.0000000002785965
 31
0.0
 70
   160
  1
%%c<>
 71
     5
 42
13.49999999999999
  3
AM_JIS$0
100
AcDbAlignedDimension
 13
-32.00195435483456
 23
6.750000000278604
 33
0.0
 14
-32.00195435483455
 24
-6.74999999972139
 34
0.0
 50
90.00000000000003
100
AcDbRotatedDimension
1001
ACAD
1000
DSTYLE
1002
{
1070
   179
1070
     0
1070
   271
1070
     1
1002
}
  0
DIMENSION
  5
5966
102
{ACAD_REACTORS
330
5972
102
}
102
{ACAD_XDICTIONARY
360
5971
102
}
330
1F
100
AcDbEntity
  8
AM_5
100
AcDbDimension
  2
*D30
 10
20.28953312309579
 20
-9.999999999721398
 30
0.0
 11
20.28953312309579
 21
0.7833451534095843
 31
0.0
 70
   160
  1
%%c<>
 71
     5
 42
19.99999999999999
  3
AM_JIS$0
100
AcDbAlignedDimension
 13
-3.301954354834578
 23
10.0000000002786
 33
0.0
 14
-3.301954354834578
 24
-9.999999999721391
 34
0.0
 50
90.00000000000003
100
AcDbRotatedDimension
1001
ACAD
1000
DSTYLE
1002
{
1070
   179
1070
     0
1070
   271
1070
     0
1002
}
  0
ENDSEC
  0
SECTION
  2
OBJECTS
  0
DICTIONARY
  5
C
330
0
100
AcDbDictionary
281
     1
  3
ACAD_COLOR
350
BE
  3
ACAD_GROUP
350
D
  3
ACAD_LAYOUT
350
1A
  3
ACAD_MATERIAL
350
BD
  3
ACAD_MLINESTYLE
350
17
  3
ACAD_PLOTSETTINGS
350
19
  3
ACAD_PLOTSTYLENAME
350
E
  3
ACAD_TABLESTYLE
350
11A
  3
ACDBHEADERROUNDTRIPXREC
350
5B2F
  3
AcDbVariableDictionary
350
94
  3
AcmDictionary
350
5B
  3
AMG
350
41
  3
AMGSNAPSETTINGS
350
1B8
  3
DWGPROPS
350
5B32
  0
DICTIONARY
  5
34B
330
2
100
AcDbDictionary
280
     1
281
     1
  3
ACAD_LAYERSTATES
360
36D3
  3
AMLAYER_GROUPCOLORS
360
34C
  0
DICTIONARY
  5
8F
330
1F
100
AcDbDictionary
280
     1
281
     1
  3
ACAD_SORTENTS
360
14F8
  0
DICTIONARY
  5
5830
330
5825
100
AcDbDictionary
280
     1
281
     1
  3
ACAD_DIMASSOC
360
5831
  0
DICTIONARY
  5
585D
330
5852
100
AcDbDictionary
280
     1
281
     1
  3
ACAD_DIMASSOC
360
585E
  0
DICTIONARY
  5
588A
330
587F
100
AcDbDictionary
280
     1
281
     1
  3
ACAD_DIMASSOC
360
588B
  0
DICTIONARY
  5
58B9
330
58AC
100
AcDbDictionary
280
     1
281
     1
  3
ACAD_DIMASSOC
360
58BA
  0
DICTIONARY
  5
5944
330
5939
100
AcDbDictionary
280
     1
281
     1
  3
ACAD_DIMASSOC
360
5945
  0
DICTIONARY
  5
5971
330
5966
100
AcDbDictionary
280
     1
281
     1
  3
ACAD_DIMASSOC
360
5972
  0
DICTIONARY
  5
BE
102
{ACAD_REACTORS
330
C
102
}
330
C
100
AcDbDictionary
281
     1
  0
DICTIONARY
  5
D
102
{ACAD_REACTORS
330
C
102
}
330
C
100
AcDbDictionary
281
     1
  0
DICTIONARY
  5
1A
102
{ACAD_REACTORS
330
C
102
}
330
C
100
AcDbDictionary
281
     1
  3
Model
350
22
  3
レイアウト1
350
1E
  3
レイアウト2
350
26
  0
DICTIONARY
  5
BD
102
{ACAD_REACTORS
330
C
102
}
330
C
100
AcDbDictionary
281
     1
  0
DICTIONARY
  5
17
102
{ACAD_REACTORS
330
C
102
}
330
C
100
AcDbDictionary
281
     1
  3
Standard
350
18
  0
DICTIONARY
  5
19
102
{ACAD_REACTORS
330
C
102
}
330
C
100
AcDbDictionary
281
     1
  0
ACDBDICTIONARYWDFLT
  5
E
102
{ACAD_REACTORS
330
C
102
}
330
C
100
AcDbDictionary
281
     1
  3
Normal
350
F
100
AcDbDictionaryWithDefault
340
F
  0
DICTIONARY
  5
11A
102
{ACAD_REACTORS
330
C
102
}
330
C
100
AcDbDictionary
281
     1
  3
Standard
350
11B
  0
DICTIONARY
  5
5B2F
102
{ACAD_REACTORS
330
C
102
}
330
C
100
AcDbDictionary
281
     1
  3
COLORDICT
350
5B30
  3
MATERIALDICT
350
5B31
  0
DICTIONARY
  5
94
102
{ACAD_REACTORS
330
C
102
}
330
C
100
AcDbDictionary
281
     1
  3
CTABLESTYLE
350
138
  3
DIMASSOC
350
96
  3
HIDETEXT
350
5B2E
  3
INDEXCTL
350
95
  3
PROJECTNAME
350
1694
  0
DICTIONARY
  5
5B
102
{ACAD_REACTORS
330
C
102
}
330
C
100
AcDbDictionary
281
     1
  3
AcmBOM
350
1B5
  3
AcmStdDictionary
350
61
  3
AMDTSECTSYM_ARROWCOLOR
350
123
  0
DICTIONARY
  5
41
102
{ACAD_REACTORS
330
C
102
}
330
C
100
AcDbDictionary
281
     1
  3
AMGLAYCFG
350
5A99
  0
DICTIONARY
  5
1B8
102
{ACAD_REACTORS
330
C
102
}
330
C
100
AcDbDictionary
281
     1
  0
XRECORD
  5
5B32
102
{ACAD_REACTORS
330
C
102
}
330
C
100
AcDbXrecord
280
     1
  1
DWGPROPS COOKIE
  2

  3

  4

  6

  7

  8

  9

300
AmdtFileType=84
301
=
302
=
303
=
304
=
305
=
306
=
307
=
308
=
309
=
 40
0.0
 41
2453853.21022044
 42
2455432.197059167
  1

 90
        1
  0
DICTIONARY
  5
36D3
102
{ACAD_REACTORS
330
34B
102
}
330
34B
100
AcDbDictionary
281
     1
  0
DICTIONARY
  5
34C
102
{ACAD_REACTORS
330
34B
102
}
330
34B
100
AcDbDictionary
280
     1
281
     1
  0
SORTENTSTABLE
  5
14F8
102
{ACAD_REACTORS
330
8F
102
}
330
8F
100
AcDbSortentsTable
330
1F
331
30AD
  5
30AD
331
36DC
  5
36DC
331
3AC6
  5
3AC6
331
4D04
  5
4D04
331
4D05
  5
4D05
331
4D06
  5
4D06
331
4D07
  5
4D07
331
4D08
  5
4D08
331
4D09
  5
4D09
331
4D0A
  5
4D0A
331
4D0B
  5
4D0B
331
4D0C
  5
4D0C
331
4D0D
  5
4D0D
331
4D0E
  5
4D0E
331
4D0F
  5
4D0F
331
4D10
  5
4D10
331
4D11
  5
4D11
331
4D12
  5
4D12
331
4D13
  5
4D13
331
4D14
  5
4D14
331
4D15
  5
4D15
331
4D16
  5
4D16
331
4D38
  5
4D38
331
4D39
  5
4D39
331
4D3A
  5
4D3A
331
4D3B
  5
4D3B
331
4D3C
  5
4D3C
331
4D3E
  5
4D3E
331
4D3F
  5
4D3F
331
4D40
  5
4D40
331
4D41
  5
4D41
331
4D42
  5
4D42
331
4D43
  5
4D43
331
4D44
  5
4D44
331
4D45
  5
4D45
331
4D46
  5
4D46
331
4D47
  5
4D47
331
4D48
  5
4D48
331
4D49
  5
4D49
331
4D4A
  5
4D4A
331
4E12
  5
4E12
331
4E13
  5
4E13
331
4E6B
  5
4E6B
331
4E6C
  5
4E6C
331
4E6D
  5
4E6D
331
4E6E
  5
4E6E
331
4E6F
  5
4E6F
331
4E7A
  5
4E7A
331
507A
  5
507A
331
51AD
  5
51AD
331
51AF
  5
51B3
331
51B3
  5
51B4
331
579C
  5
579C
331
579D
  5
579D
331
579E
  5
579E
331
579F
  5
579F
331
57A0
  5
57A0
331
57A1
  5
57A1
331
57A2
  5
57A2
331
57A3
  5
57A3
331
57A4
  5
57A4
331
57D0
  5
57D0
331
57D1
  5
57D1
331
57D4
  5
57D4
  0
DIMASSOC
  5
5831
102
{ACAD_REACTORS
330
5830
102
}
330
5830
100
AcDbDimAssoc
330
5825
 90
        3
 70
     0
 71
     0
  1
AcDbOsnapPointRef
 72
    13
331
5805
 73
     0
 91
        0
 40
0.0
 10
0.0
 20
0.0
 30
2.000000000000000E+50
 75
     0
  1
AcDbOsnapPointRef
 72
    13
331
57A3
 73
     0
 91
        0
 40
0.0
 10
0.0
 20
0.0
 30
2.000000000000000E+50
 75
     0
  0
DIMASSOC
  5
585E
102
{ACAD_REACTORS
330
585D
102
}
330
585D
100
AcDbDimAssoc
330
5852
 90
        3
 70
     0
 71
     0
  1
AcDbOsnapPointRef
 72
     1
331
57FE
 73
     0
 91
        0
 40
0.0
 10
0.0
 20
0.0
 30
2.000000000000000E+50
 75
     0
  1
AcDbOsnapPointRef
 72
    13
331
57F7
 73
     0
 91
        0
 40
0.0
 10
0.0
 20
0.0
 30
2.000000000000000E+50
 75
     0
  0
DIMASSOC
  5
588B
102
{ACAD_REACTORS
330
588A
102
}
330
588A
100
AcDbDimAssoc
330
587F
 90
        3
 70
     0
 71
     0
  1
AcDbOsnapPointRef
 72
    13
331
5802
 73
     0
 91
        0
 40
0.0
 10
0.0
 20
0.0
 30
2.000000000000000E+50
 75
     0
  1
AcDbOsnapPointRef
 72
     1
331
57D4
 73
     0
 91
        0
 40
0.0
 10
0.0
 20
0.0
 30
2.000000000000000E+50
 75
     0
  0
DIMASSOC
  5
58BA
102
{ACAD_REACTORS
330
58B9
102
}
330
58B9
100
AcDbDimAssoc
330
58AC
 90
        3
 70
     0
 71
     0
  1
AcDbOsnapPointRef
 72
    13
331
57D4
 73
     0
 91
        0
 40
0.0
 10
0.0
 20
0.0
 30
2.000000000000000E+50
 75
     0
  1
AcDbOsnapPointRef
 72
    13
331
57A4
 73
     0
 91
        0
 40
0.0
 10
0.0
 20
0.0
 30
2.000000000000000E+50
 75
     0
  0
DIMASSOC
  5
5945
102
{ACAD_REACTORS
330
5944
102
}
330
5944
100
AcDbDimAssoc
330
5939
 90
        3
 70
     0
 71
     0
  1
AcDbOsnapPointRef
 72
    11
331
57FC
 73
     0
 91
        0
 40
-0.0000000000000012
 10
0.0
 20
0.0
 30
0.0
332
579D
 74
     0
 92
        0
 75
     0
  1
AcDbOsnapPointRef
 72
     8
331
579E
 73
     0
 91
        0
 40
-0.0000000000000024
 10
0.0
 20
0.0
 30
0.0
 75
     1
  1
AcDbOsnapPointRef
 72
    11
331
57FC
 73
     0
 91
        0
 40
-0.0000000000000012
 10
0.0
 20
0.0
 30
0.0
332
579D
 74
     0
 92
        0
 75
     0
  0
DIMASSOC
  5
5972
102
{ACAD_REACTORS
330
5971
102
}
330
5971
100
AcDbDimAssoc
330
5966
 90
        3
 70
     0
 71
     0
  1
AcDbOsnapPointRef
 72
    11
331
57FB
 73
     0
 91
        0
 40
-0.0000000000000001
 10
0.0
 20
0.0
 30
0.0
332
4E12
 74
     0
 92
        0
 75
     0
  1
AcDbOsnapPointRef
 72
     8
331
579C
 73
     0
 91
        0
 40
-0.0000000000000001
 10
0.0
 20
0.0
 30
0.0
 75
     1
  1
AcDbOsnapPointRef
 72
    11
331
57FB
 73
     0
 91
        0
 40
-0.0000000000000001
 10
0.0
 20
0.0
 30
0.0
332
4E12
 74
     0
 92
        0
 75
     0
  0
LAYOUT
  5
22
102
{ACAD_REACTORS
330
1A
102
}
330
1A
100
AcDbPlotSettings
  1

  2
SII LP-1010 (C2 VR)2R
  4
A4
  6

 40
5.789083480834961
 41
5.789072036743164
 42
5.789093017578125
 43
5.789093017578125
 44
209.9733276367188
 45
296.9259948730469
 46
0.0
 47
0.0
 48
1752.153931125263
 49
844.862975770846
140
2049.153931125263
141
1054.862975770846
142
1.0
143
1.058493611336319
 70
 11952
 72
     1
 73
     1
 74
     4
  7
sei_cad.ctb
 75
     0
147
0.9447388149443132
148
-1752.153931125263
149
-844.862975770846
100
AcDbLayout
  1
Model
 70
     1
 71
     0
 10
0.0
 20
0.0
 11
12.0
 21
9.0
 12
0.0
 22
0.0
 32
0.0
 14
0.0
 24
0.0
 34
0.0
 15
0.0
 25
0.0
 35
0.0
146
0.0
 13
0.0
 23
0.0
 33
0.0
 16
1.0
 26
0.0
 36
0.0
 17
0.0
 27
1.0
 37
0.0
 76
     0
330
1F
1001
ACAD_PSEXT
1000
SII LP-1010 (C2 VR)2R
1000
SII LP-1010 (C2 VR)2R
1000
133.153.16.130#9100
1000

1070
     0
  0
LAYOUT
  5
1E
102
{ACAD_REACTORS
330
1A
102
}
330
1A
100
AcDbPlotSettings
  1

  2

  4

  6

 40
0.0
 41
0.0
 42
0.0
 43
0.0
 44
0.0
 45
0.0
 46
0.0
 47
0.0
 48
0.0
 49
0.0
140
0.0
141
0.0
142
1.0
143
1.0
 70
   688
 72
     0
 73
     0
 74
     5
  7
sei_cad.ctb
 75
    16
147
1.0
148
0.0
149
0.0
100
AcDbLayout
  1
レイアウト1
 70
     1
 71
     1
 10
0.0
 20
0.0
 11
420.0
 21
297.0
 12
0.0
 22
0.0
 32
0.0
 14
1.000000000000000E+20
 24
1.000000000000000E+20
 34
1.000000000000000E+20
 15
-1.000000000000000E+20
 25
-1.000000000000000E+20
 35
-1.000000000000000E+20
146
0.0
 13
0.0
 23
0.0
 33
0.0
 16
1.0
 26
0.0
 36
0.0
 17
0.0
 27
1.0
 37
0.0
 76
     0
330
1B
  0
LAYOUT
  5
26
102
{ACAD_REACTORS
330
1A
102
}
330
1A
100
AcDbPlotSettings
  1

  2

  4

  6

 40
0.0
 41
0.0
 42
0.0
 43
0.0
 44
0.0
 45
0.0
 46
0.0
 47
0.0
 48
0.0
 49
0.0
140
0.0
141
0.0
142
1.0
143
1.0
 70
   688
 72
     0
 73
     0
 74
     5
  7
sei_cad.ctb
 75
    16
147
1.0
148
0.0
149
0.0
100
AcDbLayout
  1
レイアウト2
 70
     1
 71
     2
 10
0.0
 20
0.0
 11
12.0
 21
9.0
 12
0.0
 22
0.0
 32
0.0
 14
0.0
 24
0.0
 34
0.0
 15
0.0
 25
0.0
 35
0.0
146
0.0
 13
0.0
 23
0.0
 33
0.0
 16
1.0
 26
0.0
 36
0.0
 17
0.0
 27
1.0
 37
0.0
 76
     0
330
23
  0
MLINESTYLE
  5
18
102
{ACAD_REACTORS
330
17
102
}
330
17
100
AcDbMlineStyle
  2
STANDARD
 70
     0
  3

 62
   256
 51
90.0
 52
90.0
 71
     2
 49
0.5
 62
   256
  6
BYLAYER
 49
-0.5
 62
   256
  6
BYLAYER
  0
ACDBPLACEHOLDER
  5
F
102
{ACAD_REACTORS
330
E
102
}
330
E
  0
TABLESTYLE
  5
11B
102
{ACAD_REACTORS
330
11A
102
}
330
11A
100
AcDbTableStyle
  3
Standard
 70
     0
 71
     0
 40
1.5
 41
1.5
280
     0
281
     0
  7
STANDARD
140
4.5
170
     2
 62
     0
 63
     7
283
     0
274
    -2
284
     1
 64
     0
275
    -2
285
     1
 65
     0
276
    -2
286
     1
 66
     0
277
    -2
287
     1
 67
     0
278
    -2
288
     1
 68
     0
279
    -2
289
     1
 69
     0
  7
STANDARD
140
6.0
170
     5
 62
     0
 63
     7
283
     0
274
    -2
284
     1
 64
     0
275
    -2
285
     1
 65
     0
276
    -2
286
     1
 66
     0
277
    -2
287
     1
 67
     0
278
    -2
288
     1
 68
     0
279
    -2
289
     1
 69
     0
  7
STANDARD
140
4.5
170
     5
 62
     0
 63
     7
283
     0
274
    -2
284
     1
 64
     0
275
    -2
285
     1
 65
     0
276
    -2
286
     1
 66
     0
277
    -2
287
     1
 67
     0
278
    -2
288
     1
 68
     0
279
    -2
289
     1
 69
     0
  0
XRECORD
  5
5B30
102
{ACAD_REACTORS
330
5B2F
102
}
330
5B2F
100
AcDbXrecord
280
     1
340
BE
  0
XRECORD
  5
5B31
102
{ACAD_REACTORS
330
5B2F
102
}
330
5B2F
100
AcDbXrecord
280
     1
340
BD
  0
DICTIONARYVAR
  5
138
102
{ACAD_REACTORS
330
94
102
}
330
94
100
DictionaryVariables
280
     0
  1
STANDARD
  0
DICTIONARYVAR
  5
96
102
{ACAD_REACTORS
330
94
102
}
330
94
100
DictionaryVariables
280
     0
  1
2
  0
DICTIONARYVAR
  5
5B2E
102
{ACAD_REACTORS
330
94
102
}
330
94
100
DictionaryVariables
280
     0
  1
0
  0
DICTIONARYVAR
  5
95
102
{ACAD_REACTORS
330
94
102
}
330
94
100
DictionaryVariables
280
     0
  1
0
  0
DICTIONARYVAR
  5
1694
102
{ACAD_REACTORS
330
94
102
}
330
94
100
DictionaryVariables
280
     0
  1

  0
DICTIONARY
  5
1B5
102
{ACAD_REACTORS
330
5B
102
}
330
5B
100
AcDbDictionary
281
     1
  0
DICTIONARY
  5
61
102
{ACAD_REACTORS
330
5B
102
}
330
5B
100
AcDbDictionary
281
     1
  0
XRECORD
  5
123
102
{ACAD_REACTORS
330
5B
102
}
330
5B
100
AcDbXrecord
280
     1
 90
-1023410169
  0
ACAD_PROXY_OBJECT
  5
5A99
102
{ACAD_REACTORS
330
41
102
}
330
41
100
AcDbProxyObject
 90
      499
 91
      525
 95
       25
 70
     0
 93
    17944
310
41102491013041105357CC201C00030C0132441013141105357CC603800030C0132441013241105357CCA01400030C0132441013341105357CCE01800030C01199013441105357CD200C00030C01199013541105357CD600C00030C01199013641105357CDA00800030C01239013741105357CDE01000030C0119901384110
310
5357CE200400030C01199013941105357CE63F400030C0241102324141505357CC4C201C00030C0132902344141505357CC4C600C00030C0119902495041505357CC4CA01C00030C013240902304E41505357CC13A01C00030C0132902314E41505357CC53A03800030C0132902324E41505357CC93A01400030C013290233
310
4E41505357CCD3A01800030C0119902344E41505357CD13A00C00030C0119902354E41505357CD53A00C00030C0119902364E41505357CD93A00800030C0123902374E41505357CDD3A01000030C0119902384E41505357CE13A00400030C0119902394E41505357CE53A3F400030C024110332414E41905357CC4C13A01C0
310
0030C013290334414E41905357CC4C53A00C00030C011990349504E41905357CC4C93A01C00030C0132409044B4C494E41505357D0D3200400030C011942504494E464F42105357D410549151A01000030C011942D055241484D3541905357D093D4A01C00030C0132425045649455742105357D5925155D4E00400030C011
310
942D06424548494E4441905357D25395A3F400030C0243505545241494C41505357D514A00C00030C01194250348494441905357D21251201C00030C01194250356495341905357D59254E01C00030C01324250650415244494D42505357D41054911253600C00030C01194250652454644494D42505357D49151911253601
310
000030C0119425534110921395901398000000C0003FFFFFFFE415092139594D06424548494E448000000C0003FFFFFFFE411093D48C9055241484D358010000C300466411093D48CD055241484D358020000C30048E411093D48D5055241484D358000000C0003FFFFFFFE4110D0530C901348000000C0003FFFFFFFE4110
310
D0530CD01348020000C30048E4110D0530D501348070000C3004CA4110D0530DD013481E0000C30051A4110D15393901378000000C0003FFFFFFFE4110D15395D01378000000C0003FFFFFFFE4110D312539044B4C494E8000000C0003FFFFFFFE4110D3D38C501308000000C0003FFFFFFFD034110D3D38C901318000000C
310
0003FFFFFFFD034110D3D38CD01328000000C0003FFFFFFFD034110D3D38D101328000000C0003FFFFFFFD034111115510501348000000C0003FFFFFFFE4111125051D01358000000C0003FFFFFFFE4111125312501358000000C0003FFFFFFFE411112535410650415244494D8000000C0003FFFFFFFE4111125354906524
310
54644494D8000000C0003FFFFFFFE4111915353901388000000C0003FFFFFFFE415191535413901388030000C3003FFFFFFFE4151915354D410234418000000C0003FFFFFFFE4151915354D510234418030000C300466415191535593901328000000C0003FFFFFFFE415191535595101328030000C3004664112105510D01
310
388000000C0003FFFFFFFD014112125113901338000000C0003FFFFFFFD034112125115D01338000000C0003FFFFFFFD034112131253901348000000C0003FFFFFFFD01411213D0D3901378000000C0003FFFFFFFE411213D0D5D01378000000C0003FFFFFFFE4112539193D04494E464F8000000C0003FFFFFFFE41131150
310
51101358000000C0003FFFFFFFE419397D0921395902394E8000000C0003FFFFFFFE419397D0D3D38C502304E8000000C0003FFFFFFFD03419397D0D3D38C902314E8000000C0003FFFFFFFD03419397D0D3D38CD02324E8000000C0003FFFFFFFD03419397D0D3D38D102324E8000000C0003FFFFFFFD03419397D0D15393
310
902374E8000000C0003FFFFFFFE419397D0D15395D02374E8000000C0003FFFFFFFE419397D1125312502354E8000000C0003FFFFFFFE419397D2105510D02384E8000000C0003FFFFFFFD01419397D2125113902334E8000000C0003FFFFFFFD03419397D2125115D02334E8000000C0003FFFFFFFD03419397D311505110
310
2354E8000000C0003FFFFFFFE419397D391D25410349504E8000000C0003FFFFFFFE419397D412105390334414E8000000C0003FFFFFFFE419397D510D3D3902304E8000000C0003FFFFFFFD03419397D5121312502344E8000000C0003FFFFFFFD01419397D5131153902304E8000000C0003FFFFFFFD03419397D5941312
310
50332414E8000000C0003FFFFFFFE411391D25410249508000000C0003FFFFFFFE411410530C9055241484D358010000C300466411410530CD055241484D358020000C30048E411410530D5055241484D358000000C0003FFFFFFFE411412105390234418000000C0003FFFFFFFE411413D4D3901358000000C0003FFFFFFF
310
E411490D1D3901378000000C0003FFFFFFFE411490D1D5D01378000000C0003FFFFFFFE4114D09492D01348000000C0003FFFFFFFD014114D150D5101348000000C0003FFFFFFFD014114D6508CD01358020000C30048E411354D653501358020000C30048E411510D3D3901308000000C0003FFFFFFFD0341151213125013
310
48000000C0003FFFFFFFD01411512550C9055241484D358010000C300466411512550CD055241484D358020000C30048E411512550D5055241484D358000000C0003FFFFFFFE4115131153901308000000C0003FFFFFFFD03415514905253105545241494C8000000C0003FFFFFFFE4115149312501348000000C0003FFFFF
310
FFD01411516150C501368030000C300466411516150C901368030000C300466411516150CD01368000000C0003FFFFFFFE411516150D501368070000C3004CA411516150DD013681E0000C30051A4115925155D04564945578000000C0003FFFFFFFE41159151121034849448000000C0003FFFFFFFD024115915115903564
310
9538000000C0003FFFFFFFD02411594131250232418000000C0003FFFFFFFE4116925690501348000000C0003FFFFFFFD01AAA3F400030C01013F90A405194092340D1941119415324191941D3243932479467F6
340
16
340
16
340
16
340
64
340
16
340
16
340
16
340
65
340
16
340
16
340
65
340
66
340
16
340
16
340
16
340
16
340
64
340
16
340
16
340
16
340
65
340
16
340
16
340
65
340
66
340
16
340
67
340
16
340
16
340
16
340
16
340
16
340
64
340
16
340
16
340
16
340
15
340
15
340
15
340
15
340
15
340
15
340
15
340
15
340
15
340
68
340
15
340
15
340
15
340
15
340
15
340
15
340
15
340
15
340
15
340
15
340
15
340
15
340
15
340
16
340
15
340
15
340
15
340
15
340
69
340
15
340
15
340
68
340
15
340
15
340
15
340
15
340
15
340
15
340
15
340
15
340
68
340
15
340
15
340
15
340
69
340
15
340
15
340
15
340
15
340
15
340
15
340
15
340
15
340
15
340
15
340
15
340
15
340
15
340
15
340
68
340
15
340
15
340
15
340
15
340
15
340
15
340
15
340
15
340
15
340
15
340
15
340
15
340
15
340
15
340
15
340
15
340
15
340
15
340
15
340
15
340
15
340
15
340
6C
 94
        0
  0
ENDSEC
  0
EOF
