  0
SECTION
  2
HEADER
  9
$ACADVER
  1
AC1014
  9
$ACADMAINTVER
 70
     9
  9
$DWGCODEPAGE
  3
ANSI_932
  9
$INSBASE
 10
0.0
 20
0.0
 30
0.0
  9
$EXTMIN
 10
-103.0240963311683
 20
-119.4974037896699
 30
-0.00000001
  9
$EXTMAX
 10
18.74468091036797
 20
63.32110181297531
 30
0.00000001
  9
$LIMMIN
 10
-122.9594188388855
 20
-136.7883262238431
  9
$LIMMAX
 10
45.97243939240115
 20
88.5959339281627
  9
$ORTHOMODE
 70
     0
  9
$REGENMODE
 70
     1
  9
$FILLMODE
 70
     1
  9
$QTEXTMODE
 70
     0
  9
$MIRRTEXT
 70
     0
  9
$DRAGMODE
 70
     2
  9
$LTSCALE
 40
1.0
  9
$OSMODE
 70
    55
  9
$ATTMODE
 70
     1
  9
$TEXTSIZE
 40
2.5
  9
$TRACEWID
 40
1.0
  9
$TEXTSTYLE
  7
STANDARD
  9
$CLAYER
  8
AM_0
  9
$CELTYPE
  6
BYLAYER
  9
$CECOLOR
 62
   256
  9
$CELTSCALE
 40
1.0
  9
$DELOBJ
 70
     1
  9
$DISPSILH
 70
     0
  9
$DIMSCALE
 40
1.0
  9
$DIMASZ
 40
2.5
  9
$DIMEXO
 40
1.0
  9
$DIMDLI
 40
12.0
  9
$DIMRND
 40
0.0
  9
$DIMDLE
 40
0.0
  9
$DIMEXE
 40
1.0
  9
$DIMTP
 40
0.1
  9
$DIMTM
 40
0.1
  9
$DIMTXT
 40
3.2
  9
$DIMCEN
 40
0.0
  9
$DIMTSZ
 40
0.0
  9
$DIMTOL
 70
     0
  9
$DIMLIM
 70
     0
  9
$DIMTIH
 70
     0
  9
$DIMTOH
 70
     0
  9
$DIMSE1
 70
     0
  9
$DIMSE2
 70
     0
  9
$DIMTAD
 70
     3
  9
$DIMZIN
 70
     8
  9
$DIMBLK
  1
OPEN30
  9
$DIMASO
 70
     1
  9
$DIMSHO
 70
     1
  9
$DIMPOST
  1

  9
$DIMAPOST
  1
"
  9
$DIMALT
 70
     0
  9
$DIMALTD
 70
     2
  9
$DIMALTF
 40
0.0393701
  9
$DIMLFAC
 40
1.0
  9
$DIMTOFL
 70
     1
  9
$DIMTVP
 40
0.0
  9
$DIMTIX
 70
     0
  9
$DIMSOXD
 70
     0
  9
$DIMSAH
 70
     0
  9
$DIMBLK1
  1

  9
$DIMBLK2
  1

  9
$DIMSTYLE
  2
AM_JIS
  9
$DIMCLRD
 70
   256
  9
$DIMCLRE
 70
   256
  9
$DIMCLRT
 70
     2
  9
$DIMTFAC
 40
0.71
  9
$DIMGAP
 40
1.5
  9
$DIMJUST
 70
     0
  9
$DIMSD1
 70
     0
  9
$DIMSD2
 70
     0
  9
$DIMTOLJ
 70
     0
  9
$DIMTZIN
 70
     0
  9
$DIMALTZ
 70
     0
  9
$DIMALTTZ
 70
     0
  9
$DIMFIT
 70
     3
  9
$DIMUPT
 70
     0
  9
$DIMUNIT
 70
     2
  9
$DIMDEC
 70
     3
  9
$DIMTDEC
 70
     3
  9
$DIMALTU
 70
     2
  9
$DIMALTTD
 70
     2
  9
$DIMTXSTY
  7
ASAMI
  9
$DIMAUNIT
 70
     0
  9
$LUNITS
 70
     2
  9
$LUPREC
 70
     2
  9
$SKETCHINC
 40
1.0
  9
$FILLETRAD
 40
1.0
  9
$AUNITS
 70
     0
  9
$AUPREC
 70
     0
  9
$MENU
  1
.
  9
$ELEVATION
 40
0.0
  9
$PELEVATION
 40
0.0
  9
$THICKNESS
 40
0.0
  9
$LIMCHECK
 70
     0
  9
$BLIPMODE
 70
     0
  9
$CHAMFERA
 40
1.3
  9
$CHAMFERB
 40
1.3
  9
$CHAMFERC
 40
20.0
  9
$CHAMFERD
 40
0.0
  9
$SKPOLY
 70
     0
  9
$TDCREATE
 40
2452836.771637361
  9
$TDUPDATE
 40
2453152.367212778
  9
$TDINDWG
 40
0.0918805671
  9
$TDUSRTIMER
 40
0.0918805671
  9
$USRTIMER
 70
     1
  9
$ANGBASE
 50
0.0
  9
$ANGDIR
 70
     0
  9
$PDMODE
 70
     0
  9
$PDSIZE
 40
0.0
  9
$PLINEWID
 40
0.0
  9
$COORDS
 70
     1
  9
$SPLFRAME
 70
     0
  9
$SPLINETYPE
 70
     6
  9
$SPLINESEGS
 70
     8
  9
$ATTDIA
 70
     1
  9
$ATTREQ
 70
     1
  9
$HANDLING
 70
 12289
  9
$HANDSEED
  5
5766
  9
$SURFTAB1
 70
     6
  9
$SURFTAB2
 70
     6
  9
$SURFTYPE
 70
     6
  9
$SURFU
 70
     6
  9
$SURFV
 70
     6
  9
$UCSNAME
  2

  9
$UCSORG
 10
0.0
 20
0.0
 30
0.0
  9
$UCSXDIR
 10
1.0
 20
0.0
 30
0.0
  9
$UCSYDIR
 10
0.0
 20
1.0
 30
0.0
  9
$PUCSNAME
  2

  9
$PUCSORG
 10
0.0
 20
0.0
 30
0.0
  9
$PUCSXDIR
 10
1.0
 20
0.0
 30
0.0
  9
$PUCSYDIR
 10
0.0
 20
1.0
 30
0.0
  9
$USERI1
 70
     0
  9
$USERI2
 70
     0
  9
$USERI3
 70
     0
  9
$USERI4
 70
     0
  9
$USERI5
 70
     0
  9
$USERR1
 40
0.0
  9
$USERR2
 40
0.0
  9
$USERR3
 40
0.0
  9
$USERR4
 40
0.0
  9
$USERR5
 40
0.0
  9
$WORLDVIEW
 70
     1
  9
$SHADEDGE
 70
     3
  9
$SHADEDIF
 70
    70
  9
$TILEMODE
 70
     1
  9
$MAXACTVP
 70
    64
  9
$PINSBASE
 10
0.0
 20
0.0
 30
0.0
  9
$PLIMCHECK
 70
     0
  9
$PEXTMIN
 10
1.000000000000000E+20
 20
1.000000000000000E+20
 30
1.000000000000000E+20
  9
$PEXTMAX
 10
-1.000000000000000E+20
 20
-1.000000000000000E+20
 30
-1.000000000000000E+20
  9
$PLIMMIN
 10
0.0
 20
0.0
  9
$PLIMMAX
 10
841.0
 20
594.0
  9
$UNITMODE
 70
     0
  9
$VISRETAIN
 70
     1
  9
$PLINEGEN
 70
     0
  9
$PSLTSCALE
 70
     0
  9
$TREEDEPTH
 70
  3020
  9
$PICKSTYLE
 70
     0
  9
$CMLSTYLE
  2
STANDARD
  9
$CMLJUST
 70
     0
  9
$CMLSCALE
 40
20.0
  9
$PROXYGRAPHICS
 70
     1
  9
$MEASUREMENT
 70
     1
  0
ENDSEC
  0
SECTION
  2
CLASSES
  0
CLASS
  1
ACDBDICTIONARYWDFLT
  2
AcDbDictionaryWithDefault
  3
AutoCAD 2000
 90
        0
280
     0
281
     0
  0
CLASS
  1
ACDBPLACEHOLDER
  2
AcDbPlaceHolder
  3
AutoCAD 2000
 90
        0
280
     0
281
     0
  0
CLASS
  1
LAYOUT
  2
AcDbLayout
  3
AutoCAD 2000
 90
        0
280
     0
281
     0
  0
CLASS
  1
AMGSETTINGSOBJ
  2
AmgSettingsObj
  3
"AcadM|Product Description: AutoCAD Mechanical 2000|Company: Autodesk"
 90
        0
280
     0
281
     0
  0
CLASS
  1
ACME_DOCUMENT
  2
AcMeDbDoc
  3
AcMeServices
 90
        0
280
     0
281
     0
  0
CLASS
  1
ACMESCOPE
  2
AcMeScope
  3
AcMeServices
 90
        0
280
     0
281
     0
  0
CLASS
  1
ACMECOMMANDHISTORY
  2
AcMeCommandHistory
  3
AcMeServices
 90
        0
280
     0
281
     0
  0
CLASS
  1
DICTIONARYVAR
  2
AcDbDictionaryVar
  3
AutoCAD 2000
 90
        0
280
     0
281
     0
  0
CLASS
  1
ACIMSYSVARMAN
  2
AcImSysVarManager
  3
AcMeServices
 90
        0
280
     0
281
     0
  0
CLASS
  1
ACIMREALSYSVAR
  2
AcImRealSysVar
  3
AcMeServices
 90
        0
280
     0
281
     0
  0
CLASS
  1
ACIMINTSYSVAR
  2
AcImIntSysVar
  3
AcMeServices
 90
        0
280
     0
281
     0
  0
CLASS
  1
ACMEDRAWINGMAN
  2
AcMeDrawingMan
  3
AcMeServices
 90
        0
280
     0
281
     0
  0
CLASS
  1
ACMEVIEW
  2
AcMeView
  3
AcMeServices
 90
        0
280
     0
281
     0
  0
CLASS
  1
ACDBENTITYCACHE
  2
AcMeEntityCache
  3
AcMeServices
 90
        0
280
     0
281
     0
  0
CLASS
  1
GSMANAGER
  2
AcMeGSManager
  3
AcMeServices
 90
        0
280
     0
281
     0
  0
CLASS
  1
AmdtInternalReactor
  2
AmdtInternalReactor
  3
AcMeServices
 90
        0
280
     0
281
     0
  0
CLASS
  1
ACMESTATEMGR
  2
AcMeStateMgr
  3
AcMeServices
 90
        0
280
     0
281
     0
  0
CLASS
  1
ACME_DATABASE
  2
AcMeDbDatabase
  3
AcMeServices
 90
        0
280
     0
281
     0
  0
CLASS
  1
ACRFINSADJUSTERMGR
  2
AcRfInsAdjusterMgr
  3
AcMeServices
 90
        0
280
     0
281
     0
  0
CLASS
  1
ACMDATADICTIONARY
  2
AcmDataDictionary
  3
"AcmSymBB|Product Description: AutoCAD Mechanical 2000|Company: Autodesk"
 90
        0
280
     0
281
     0
  0
CLASS
  1
ACMDATAENTRYBLOCK
  2
AcmDataEntryBlock
  3
"AcmSymBB|Product Description: AutoCAD Mechanical 2000|Company: Autodesk"
 90
        0
280
     0
281
     0
  0
CLASS
  1
AMGOBJPROPCFG
  2
AmgObjPropCfg
  3
"AmgLay|Product Description: AutoCAD Mechanical 2000|Company: Autodesk"
 90
        1
280
     0
281
     0
  0
CLASS
  1
ACAMGFILTERDAT
  2
AcAmgFilterDat
  3
"AcadM|Product Description: AutoCAD Mechanical 2000|Company: Autodesk"
 90
        0
280
     0
281
     0
  0
CLASS
  1
LAYER_INDEX
  2
AcDbLayerIndex
  3
AutoCAD 2000
 90
        0
280
     0
281
     0
  0
CLASS
  1
IDBUFFER
  2
AcDbIdBuffer
  3
AutoCAD 2000
 90
        0
280
     0
281
     0
  0
CLASS
  1
ACIMSTRSYSVAR
  2
AcImStrSysVar
  3
AcMeServices
 90
        0
280
     0
281
     0
  0
CLASS
  1
ACMSTANDARDJIS
  2
AcmStandardJIS
  3
"AcmSymBB|Product Description: AutoCAD Mechanical 2000|Company: Autodesk"
 90
        0
280
     0
281
     0
  0
CLASS
  1
ACMSURFSTANDARDJIS
  2
AcmSurfTextStdJIS
  3
"AcmSymBB|Product Description: AutoCAD Mechanical 2000|Company: Autodesk"
 90
        0
280
     0
281
     0
  0
CLASS
  1
ACMFCFSTANDARDJIS
  2
AcmFCFStdJIS
  3
"AcmSymBB|Product Description: AutoCAD Mechanical 2000|Company: Autodesk"
 90
        0
280
     0
281
     0
  0
CLASS
  1
ACMWELDSTANDARDJIS
  2
AcmWeldingStdJIS
  3
"AcmSymBB|Product Description: AutoCAD Mechanical 2000|Company: Autodesk"
 90
        0
280
     0
281
     0
  0
CLASS
  1
ACMIDSTANDARDJIS
  2
AcmIdStdJIS
  3
"AcmSymBB|Product Description: AutoCAD Mechanical 2000|Company: Autodesk"
 90
        0
280
     0
281
     0
  0
CLASS
  1
ACMDATUMSTANDARDJIS
  2
AcmDatumStdJIS
  3
"AcmSymBB|Product Description: AutoCAD Mechanical 2000|Company: Autodesk"
 90
        0
280
     0
281
     0
  0
CLASS
  1
ACMBOMSTANDARDJIS
  2
AcmBOMStdJIS
  3
"AcmSymBB|Product Description: AutoCAD Mechanical 2000|Company: Autodesk"
 90
        0
280
     0
281
     0
  0
CLASS
  1
ACMSTANDARDANSI
  2
AcmStandardANSI
  3
"AcmSymBB|Product Description: AutoCAD Mechanical 2000|Company: Autodesk"
 90
        0
280
     0
281
     0
  0
CLASS
  1
ACMSURFSTANDARDANSI
  2
AcmSurfTextStdANSI
  3
"AcmSymBB|Product Description: AutoCAD Mechanical 2000|Company: Autodesk"
 90
        0
280
     0
281
     0
  0
CLASS
  1
ACMFCFSTANDARDANSI
  2
AcmFCFStdANSI
  3
"AcmSymBB|Product Description: AutoCAD Mechanical 2000|Company: Autodesk"
 90
        0
280
     0
281
     0
  0
CLASS
  1
ACMWELDSTANDARDANSI
  2
AcmWeldingStdANSI
  3
"AcmSymBB|Product Description: AutoCAD Mechanical 2000|Company: Autodesk"
 90
        0
280
     0
281
     0
  0
CLASS
  1
ACMIDSTANDARDANSI
  2
AcmIdStdANSI
  3
"AcmSymBB|Product Description: AutoCAD Mechanical 2000|Company: Autodesk"
 90
        0
280
     0
281
     0
  0
CLASS
  1
ACMDATUMSTANDARDANSI
  2
AcmDatumStdANSI
  3
"AcmSymBB|Product Description: AutoCAD Mechanical 2000|Company: Autodesk"
 90
        0
280
     0
281
     0
  0
CLASS
  1
ACMBOMSTANDARDANSI
  2
AcmBOMStdANSI
  3
"AcmSymBB|Product Description: AutoCAD Mechanical 2000|Company: Autodesk"
 90
        0
280
     0
281
     0
  0
CLASS
  1
ACMSTANDARDBSI
  2
AcmStandardBSI
  3
"AcmSymBB|Product Description: AutoCAD Mechanical 2000|Company: Autodesk"
 90
        0
280
     0
281
     0
  0
CLASS
  1
ACMSURFSTANDARDBSI
  2
AcmSurfTextStdBSI
  3
"AcmSymBB|Product Description: AutoCAD Mechanical 2000|Company: Autodesk"
 90
        0
280
     0
281
     0
  0
CLASS
  1
ACMFCFSTANDARDBSI
  2
AcmFCFStdBSI
  3
"AcmSymBB|Product Description: AutoCAD Mechanical 2000|Company: Autodesk"
 90
        0
280
     0
281
     0
  0
CLASS
  1
ACMWELDSTANDARDBSI
  2
AcmWeldingStdBSI
  3
"AcmSymBB|Product Description: AutoCAD Mechanical 2000|Company: Autodesk"
 90
        0
280
     0
281
     0
  0
CLASS
  1
ACMIDSTANDARDBSI
  2
AcmIdStdBSI
  3
"AcmSymBB|Product Description: AutoCAD Mechanical 2000|Company: Autodesk"
 90
        0
280
     0
281
     0
  0
CLASS
  1
ACMDATUMSTANDARDBSI
  2
AcmDatumStdBSI
  3
"AcmSymBB|Product Description: AutoCAD Mechanical 2000|Company: Autodesk"
 90
        0
280
     0
281
     0
  0
CLASS
  1
ACMBOMSTANDARDBSI
  2
AcmBOMStdBSI
  3
"AcmSymBB|Product Description: AutoCAD Mechanical 2000|Company: Autodesk"
 90
        0
280
     0
281
     0
  0
CLASS
  1
LONG_TRANSACTION
  2
AcDbLongTransaction
  3
AutoCAD 2000
 90
        0
280
     0
281
     0
  0
CLASS
  1
LWPOLYLINE
  2
AcDbPolyline
  3
AutoCAD 2000
 90
        0
280
     0
281
     1
  0
CLASS
  1
HATCH
  2
AcDbHatch
  3
AutoCAD 2000
 90
        0
280
     0
281
     1
  0
CLASS
  1
XRECORD
  2
AcDbXrecord
  3
AutoCAD 2000
 90
        0
280
     0
281
     0
  0
ENDSEC
  0
SECTION
  2
TABLES
  0
TABLE
  2
VPORT
  5
8
330
0
100
AcDbSymbolTable
 70
     3
  0
VPORT
  5
573B
330
8
100
AcDbSymbolTableRecord
100
AcDbViewportTableRecord
  2
*ACTIVE
 70
     0
 10
0.0
 20
0.0
 11
1.0
 21
1.0
 12
-42.13448435600159
 22
-28.09413877999371
 13
0.0
 23
0.0
 14
2.5
 24
2.5
 15
10.0
 25
10.0
 16
0.0
 26
0.0
 36
1.0
 17
0.0
 27
0.0
 37
0.0
 40
183.9644314992816
 41
1.56570841889117
 42
50.0
 43
0.0
 44
0.0
 50
0.0
 51
0.0
 71
     0
 72
   100
 73
     1
 74
     3
 75
     0
 76
     0
 77
     0
 78
     0
  0
ENDTAB
  0
TABLE
  2
LTYPE
  5
5
330
0
100
AcDbSymbolTable
 70
    10
  0
LTYPE
  5
14
330
5
100
AcDbSymbolTableRecord
100
AcDbLinetypeTableRecord
  2
BYBLOCK
 70
     0
  3

 72
    65
 73
     0
 40
0.0
  0
LTYPE
  5
15
330
5
100
AcDbSymbolTableRecord
100
AcDbLinetypeTableRecord
  2
BYLAYER
 70
     0
  3

 72
    65
 73
     0
 40
0.0
  0
LTYPE
  5
16
330
5
100
AcDbSymbolTableRecord
100
AcDbLinetypeTableRecord
  2
CONTINUOUS
 70
     0
  3
Solid line
 72
    65
 73
     0
 40
0.0
  0
LTYPE
  5
4B
330
5
100
AcDbSymbolTableRecord
100
AcDbLinetypeTableRecord
  2
AM_ISO02W050
 70
     0
  3
__ __ __ __ __ __ __ __ __ __ __ __ __ __ __
 72
    65
 73
     2
 40
7.5
 49
6.0
 74
     0
 49
-1.5
 74
     0
  0
LTYPE
  5
4C
330
5
100
AcDbSymbolTableRecord
100
AcDbLinetypeTableRecord
  2
AM_ISO08W050
 70
     0
  3
____ . ____ . ____ . ____ . ____ . ____ . ____
 72
    65
 73
     4
 40
18.0
 49
12.0
 74
     0
 49
-1.5
 74
     0
 49
3.0
 74
     0
 49
-1.5
 74
     0
  0
LTYPE
  5
4D
330
5
100
AcDbSymbolTableRecord
100
AcDbLinetypeTableRecord
  2
AM_ISO09W050
 70
     0
  3
_____ . . _____ . . _____ . . ____ .. ____
 72
    65
 73
     6
 40
22.5
 49
12.0
 74
     0
 49
-1.5
 74
     0
 49
3.0
 74
     0
 49
-1.5
 74
     0
 49
3.0
 74
     0
 49
-1.5
 74
     0
  0
LTYPE
  5
4E
330
5
100
AcDbSymbolTableRecord
100
AcDbLinetypeTableRecord
  2
AMCONSTR
 70
     0
  3
_______________________
 72
    65
 73
     2
 40
9999.0
 49
9999.0
 74
     0
 49
0.0
 74
     0
  0
LTYPE
  5
4F
330
5
100
AcDbSymbolTableRecord
100
AcDbLinetypeTableRecord
  2
AM_ISO02W050X2
 70
     0
  3
 _ _ _ _ _ _ _ _ _ _ _ _
 72
    65
 73
     2
 40
3.75
 49
3.0
 74
     0
 49
-0.75
 74
     0
  0
LTYPE
  5
50
330
5
100
AcDbSymbolTableRecord
100
AcDbLinetypeTableRecord
  2
AM_ISO08W050X2
 70
     0
  3
__ . __ . __ . __ . __ . __
 72
    65
 73
     4
 40
9.0
 49
6.0
 74
     0
 49
-0.75
 74
     0
 49
1.5
 74
     0
 49
-0.75
 74
     0
  0
LTYPE
  5
53
330
5
100
AcDbSymbolTableRecord
100
AcDbLinetypeTableRecord
  2
AMZIGZAG
 70
     0
  3
/\/-/\/-/\/-/\/-/\/-/\/
 72
    65
 73
     2
 40
11.00009999999999
 49
0.0001
 74
     4
 75
   135
340
52
 46
0.04
 50
0.0
 44
0.0
 45
0.0
 49
-11.0
 74
     0
  0
LTYPE
  5
166
330
5
100
AcDbSymbolTableRecord
100
AcDbLinetypeTableRecord
  2
ACJISTGL
 70
     0
  3
_ _ _ _ _
 72
    65
 73
     2
 40
3.0
 49
2.0
 74
     0
 49
-1.0
 74
     0
  0
LTYPE
  5
26A
330
5
100
AcDbSymbolTableRecord
100
AcDbLinetypeTableRecord
  2
ACJISTGB
 70
     0
  3
__ . . __ . .
 72
    65
 73
     6
 40
9.0
 49
4.0
 74
     0
 49
-1.0
 74
     0
 49
1.0
 74
     0
 49
-1.0
 74
     0
 49
1.0
 74
     0
 49
-1.0
 74
     0
  0
ENDTAB
  0
TABLE
  2
LAYER
  5
2
330
0
100
AcDbSymbolTable
 70
     8
  0
LAYER
  5
10
330
2
100
AcDbSymbolTableRecord
100
AcDbLayerTableRecord
  2
0
 70
     0
 62
     7
  6
CONTINUOUS
  0
LAYER
  5
3F9
330
2
100
AcDbSymbolTableRecord
100
AcDbLayerTableRecord
  2
AM_0
 70
     0
 62
     7
  6
CONTINUOUS
  0
LAYER
  5
BD5
330
2
100
AcDbSymbolTableRecord
100
AcDbLayerTableRecord
  2
AM_7
 70
     0
 62
     4
  6
AM_ISO08W050
  0
LAYER
  5
BD6
330
2
100
AcDbSymbolTableRecord
100
AcDbLayerTableRecord
  2
AM_5
 70
     0
 62
     3
  6
CONTINUOUS
  0
LAYER
  5
BD7
330
2
100
AcDbSymbolTableRecord
100
AcDbLayerTableRecord
  2
DEFPOINTS
 70
     0
 62
     7
  6
CONTINUOUS
  0
LAYER
  5
E59
330
2
100
AcDbSymbolTableRecord
100
AcDbLayerTableRecord
  2
AM_6
 70
     0
 62
     2
  6
CONTINUOUS
  0
LAYER
  5
1E31
330
2
100
AcDbSymbolTableRecord
100
AcDbLayerTableRecord
  2
AM_11
 70
     0
 62
     3
  6
AM_ISO09W050
  0
LAYER
  5
1E41
330
2
100
AcDbSymbolTableRecord
100
AcDbLayerTableRecord
  2
AM_3
 70
     0
 62
     6
  6
ACJISTGL
  0
ENDTAB
  0
TABLE
  2
STYLE
  5
3
330
0
100
AcDbSymbolTable
 70
     5
  0
STYLE
  5
11
330
3
100
AcDbSymbolTableRecord
100
AcDbTextStyleTableRecord
  2
STANDARD
 70
     0
 40
0.0
 41
1.0
 50
0.0
 71
     0
 42
2.5
  3
simplex.shx
  4
EXTFONT.SHX
  0
STYLE
  5
52
330
3
100
AcDbSymbolTableRecord
100
AcDbTextStyleTableRecord
  2

 70
     1
 40
0.0
 41
1.0
 50
0.0
 71
     0
 42
2.5
  3
ltypeshp.shx
  4

  0
STYLE
  5
6B
330
3
100
AcDbSymbolTableRecord
100
AcDbTextStyleTableRecord
  2
ASAMI
 70
     0
 40
0.0
 41
1.0
 50
0.0
 71
     0
 42
2.5
  3
simplex.shx
  4
EXTFONT.SHX
  0
STYLE
  5
262
330
3
100
AcDbSymbolTableRecord
100
AcDbTextStyleTableRecord
  2
ACJISTS
 70
     0
 40
1.0
 41
1.0
 50
0.0
 71
     0
 42
2.5
  3
simplex.shx
  4
bigfont.shx
  0
STYLE
  5
269
330
3
100
AcDbSymbolTableRecord
100
AcDbTextStyleTableRecord
  2
ACJISGDT
 70
     0
 40
0.0
 41
1.0
 50
0.0
 71
     0
 42
2.5
  3
amgdtans.shx
  4

  0
ENDTAB
  0
TABLE
  2
VIEW
  5
6
330
0
100
AcDbSymbolTable
 70
     0
  0
ENDTAB
  0
TABLE
  2
UCS
  5
7
330
0
100
AcDbSymbolTable
 70
     0
  0
ENDTAB
  0
TABLE
  2
APPID
  5
9
330
0
100
AcDbSymbolTable
 70
    13
  0
APPID
  5
12
330
9
100
AcDbSymbolTableRecord
100
AcDbRegAppTableRecord
  2
ACAD
 70
     0
  0
APPID
  5
30
330
9
100
AcDbSymbolTableRecord
100
AcDbRegAppTableRecord
  2
MCAD_NO_VIS
 70
     0
  0
APPID
  5
31
330
9
100
AcDbSymbolTableRecord
100
AcDbRegAppTableRecord
  2
ACAD_TEMP_GRAPHIC
 70
     0
  0
APPID
  5
2C2
330
9
100
AcDbSymbolTableRecord
100
AcDbRegAppTableRecord
  2
GENIUS_GENDTOL_13
 70
     0
  0
APPID
  5
339
330
9
100
AcDbSymbolTableRecord
100
AcDbRegAppTableRecord
  2
GENIUS_GENODEF_13
 70
     0
  0
APPID
  5
33A
330
9
100
AcDbSymbolTableRecord
100
AcDbRegAppTableRecord
  2
GENIUS_GENOBJ-N-RSBK_13
 70
     0
  0
APPID
  5
33B
330
9
100
AcDbSymbolTableRecord
100
AcDbRegAppTableRecord
  2
GENIUS_GENOBJ-N-LIB_13
 70
     0
  0
APPID
  5
33C
330
9
100
AcDbSymbolTableRecord
100
AcDbRegAppTableRecord
  2
GENIUS_GENSCALE_13
 70
     0
  0
APPID
  5
378
330
9
100
AcDbSymbolTableRecord
100
AcDbRegAppTableRecord
  2
GENIUS_GENDIMSH_14
 70
     0
  0
APPID
  5
BD8
330
9
100
AcDbSymbolTableRecord
100
AcDbRegAppTableRecord
  2
GENIUS_GENOBJ-N-CEN_13
 70
     0
  0
APPID
  5
BD9
330
9
100
AcDbSymbolTableRecord
100
AcDbRegAppTableRecord
  2
GENIUS_GENFIL_13
 70
     0
  0
APPID
  5
BDA
330
9
100
AcDbSymbolTableRecord
100
AcDbRegAppTableRecord
  2
GENIUS_GENOBJ-N-CHA_13
 70
     0
  0
APPID
  5
2BC1
330
9
100
AcDbSymbolTableRecord
100
AcDbRegAppTableRecord
  2
GENIUS_GENOBJ-N-FIL_13
 70
     0
  0
ENDTAB
  0
TABLE
  2
DIMSTYLE
  5
A
330
0
100
AcDbSymbolTable
 70
     9
  0
DIMSTYLE
105
58
102
{ACAD_REACTORS
330
5321
330
531F
330
5320
330
5323
330
5322
330
5324
330
5325
102
}
330
A
100
AcDbSymbolTableRecord
100
AcDbDimStyleTableRecord
  2
AM_JIS
 70
     0
  3

  4
"
  5
OPEN30
  6

  7

 40
1.0
 41
2.5
 42
1.0
 43
12.0
 44
1.0
 45
0.0
 46
0.0
 47
0.1
 48
0.1
140
3.2
141
0.0
142
0.0
143
0.0393701
144
1.0
145
0.0
146
0.71
147
1.5
 71
     0
 72
     0
 73
     0
 74
     0
 75
     0
 76
     0
 77
     3
 78
     8
170
     0
171
     2
172
     1
173
     0
174
     0
175
     0
176
   256
177
   256
178
     2
270
     2
271
     3
272
     3
273
     2
274
     2
340
6B
275
     0
280
     0
281
     0
282
     0
283
     0
284
     0
285
     0
286
     0
287
     3
288
     0
  0
DIMSTYLE
105
5F
330
A
100
AcDbSymbolTableRecord
100
AcDbDimStyleTableRecord
  2
AM_JIS$3
 70
     0
  3

  4
"
  5
OPEN30
  6

  7

 40
1.0
 41
2.5
 42
1.0
 43
10.0
 44
1.0
 45
0.0
 46
0.0
 47
0.1
 48
0.1
140
3.2
141
0.0
142
0.0
143
0.0393701
144
1.0
145
0.0
146
0.71
147
1.5
 71
     0
 72
     0
 73
     0
 74
     1
 75
     0
 76
     0
 77
     3
 78
     8
170
     0
171
     2
172
     0
173
     0
174
     0
175
     0
176
   256
177
   256
178
     2
270
     2
271
     2
272
     3
273
     2
274
     2
340
6B
275
     0
280
     0
281
     0
282
     0
283
     0
284
     0
285
     0
286
     0
287
     0
288
     1
  0
DIMSTYLE
105
60
330
A
100
AcDbSymbolTableRecord
100
AcDbDimStyleTableRecord
  2
AM_JIS$4
 70
     0
  3

  4
"
  5
OPEN30
  6

  7

 40
1.0
 41
2.5
 42
1.0
 43
10.0
 44
1.0
 45
0.0
 46
0.0
 47
0.1
 48
0.1
140
3.2
141
0.0
142
0.0
143
0.0393701
144
1.0
145
0.0
146
0.71
147
1.5
 71
     0
 72
     0
 73
     0
 74
     1
 75
     0
 76
     0
 77
     3
 78
     8
170
     0
171
     2
172
     0
173
     0
174
     0
175
     0
176
   256
177
   256
178
     2
270
     2
271
     2
272
     3
273
     2
274
     2
340
6B
275
     0
280
     0
281
     0
282
     0
283
     0
284
     0
285
     0
286
     0
287
     0
288
     1
  0
DIMSTYLE
105
61
330
A
100
AcDbSymbolTableRecord
100
AcDbDimStyleTableRecord
  2
AM_JIS$6
 70
     0
  3

  4
"
  5
OPEN30
  6

  7

 40
1.0
 41
2.5
 42
1.0
 43
10.0
 44
1.0
 45
0.0
 46
0.0
 47
0.1
 48
0.1
140
3.2
141
0.0
142
0.0
143
0.0393701
144
1.0
145
0.0
146
0.71
147
1.5
 71
     0
 72
     0
 73
     0
 74
     0
 75
     0
 76
     0
 77
     0
 78
     8
170
     0
171
     2
172
     1
173
     0
174
     0
175
     0
176
   256
177
   256
178
     2
270
     2
271
     2
272
     2
273
     2
274
     2
340
6B
275
     0
280
     0
281
     0
282
     0
283
     0
284
     0
285
     0
286
     0
287
     3
288
     0
  0
DIMSTYLE
105
62
330
A
100
AcDbSymbolTableRecord
100
AcDbDimStyleTableRecord
  2
AM_JIS$7
 70
     0
  3

  4
"
  5
OPEN30
  6

  7

 40
1.0
 41
2.5
 42
1.0
 43
10.0
 44
1.0
 45
0.0
 46
0.0
 47
0.1
 48
0.1
140
3.2
141
0.0
142
0.0
143
0.0393701
144
1.0
145
0.0
146
0.71
147
1.5
 71
     0
 72
     0
 73
     0
 74
     0
 75
     0
 76
     0
 77
     3
 78
     8
170
     0
171
     2
172
     1
173
     0
174
     0
175
     0
176
   256
177
   256
178
     2
270
     2
271
     2
272
     3
273
     2
274
     2
340
6B
275
     0
280
     0
281
     0
282
     0
283
     0
284
     0
285
     0
286
     0
287
     3
288
     0
  0
DIMSTYLE
105
63
330
A
100
AcDbSymbolTableRecord
100
AcDbDimStyleTableRecord
  2
AM_JIS$SF
 70
     0
  3

  4
"
  5
OPEN30
  6

  7

 40
1.0
 41
2.5
 42
1.0
 43
10.0
 44
1.0
 45
0.0
 46
0.0
 47
0.1
 48
0.1
140
3.2
141
0.0
142
0.0
143
0.0393701
144
1.0
145
0.0
146
0.71
147
1.5
 71
     0
 72
     0
 73
     0
 74
     0
 75
     1
 76
     1
 77
     3
 78
     8
170
     0
171
     2
172
     1
173
     0
174
     0
175
     0
176
   256
177
   256
178
     2
270
     2
271
     2
272
     2
273
     2
274
     2
340
6B
275
     0
280
     0
281
     0
282
     0
283
     0
284
     0
285
     0
286
     0
287
     3
288
     0
  0
DIMSTYLE
105
68
330
A
100
AcDbSymbolTableRecord
100
AcDbDimStyleTableRecord
  2
AM_JIS$SH
 70
     0
  3

  4
"
  5

  6
GENAXEH
  7
OPEN30
 40
1.0
 41
2.5
 42
1.0
 43
10.0
 44
1.0
 45
0.0
 46
0.0
 47
0.1
 48
0.1
140
3.2
141
0.0
142
0.0
143
0.0393701
144
2.0
145
0.0
146
0.71
147
1.5
 71
     0
 72
     0
 73
     0
 74
     0
 75
     1
 76
     1
 77
     3
 78
     8
170
     0
171
     2
172
     1
173
     1
174
     0
175
     0
176
   256
177
   256
178
     2
270
     2
271
     2
272
     2
273
     2
274
     2
340
6B
275
     0
280
     0
281
     0
282
     0
283
     0
284
     0
285
     0
286
     0
287
     3
288
     0
  0
DIMSTYLE
105
B34
330
A
100
AcDbSymbolTableRecord
100
AcDbDimStyleTableRecord
  2
AM_JIS$2
 70
     0
  3

  4
"
  5
OPEN30
  6

  7

 40
1.0
 41
2.5
 42
1.0
 43
12.0
 44
1.0
 45
0.0
 46
0.0
 47
0.1
 48
0.1
140
3.2
141
0.0
142
0.0
143
0.0393701
144
1.0
145
0.0
146
0.71
147
1.5
 71
     0
 72
     0
 73
     0
 74
     0
 75
     0
 76
     0
 77
     3
 78
     8
170
     0
171
     2
172
     1
173
     0
174
     0
175
     0
176
   256
177
   256
178
     2
270
     2
271
     3
272
     3
273
     2
274
     2
340
6B
275
     0
280
     0
281
     0
282
     0
283
     0
284
     0
285
     0
286
     0
287
     3
288
     0
  0
DIMSTYLE
105
1E42
330
A
100
AcDbSymbolTableRecord
100
AcDbDimStyleTableRecord
  2
AM_JIS$0
 70
     0
  3

  4
"
  5
OPEN30
  6

  7

 40
2.0
 41
2.5
 42
1.0
 43
10.0
 44
1.0
 45
0.0
 46
0.0
 47
0.1
 48
0.1
140
2.5
141
0.0
142
0.0
143
0.0393701
144
1.0
145
0.0
146
0.71
147
1.0
 71
     0
 72
     0
 73
     0
 74
     0
 75
     0
 76
     0
 77
     3
 78
     8
170
     0
171
     2
172
     1
173
     0
174
     0
175
     0
176
   256
177
   256
178
     4
270
     2
271
     3
272
     3
273
     2
274
     2
340
6B
275
     0
280
     0
281
     0
282
     0
283
     0
284
     0
285
     0
286
     0
287
     3
288
     0
  0
ENDTAB
  0
TABLE
  2
BLOCK_RECORD
  5
1
330
0
100
AcDbSymbolTable
 70
    12
  0
BLOCK_RECORD
  5
1F
102
{ACAD_XDICTIONARY
360
74
102
}
330
1
100
AcDbSymbolTableRecord
100
AcDbBlockTableRecord
  2
*MODEL_SPACE
  0
BLOCK_RECORD
  5
101
102
{ACAD_XDICTIONARY
360
5764
102
}
330
1
100
AcDbSymbolTableRecord
100
AcDbBlockTableRecord
  2
*PAPER_SPACE
  0
BLOCK_RECORD
  5
59
330
1
100
AcDbSymbolTableRecord
100
AcDbBlockTableRecord
  2
_OPEN30
  0
BLOCK_RECORD
  5
64
330
1
100
AcDbSymbolTableRecord
100
AcDbBlockTableRecord
  2
GENAXEH
  0
BLOCK_RECORD
  5
5326
330
1
100
AcDbSymbolTableRecord
100
AcDbBlockTableRecord
  2
*D5
  0
BLOCK_RECORD
  5
5332
330
1
100
AcDbSymbolTableRecord
100
AcDbBlockTableRecord
  2
*D6
  0
BLOCK_RECORD
  5
5340
330
1
100
AcDbSymbolTableRecord
100
AcDbBlockTableRecord
  2
*D7
  0
BLOCK_RECORD
  5
534C
330
1
100
AcDbSymbolTableRecord
100
AcDbBlockTableRecord
  2
*D8
  0
BLOCK_RECORD
  5
535A
330
1
100
AcDbSymbolTableRecord
100
AcDbBlockTableRecord
  2
*D9
  0
BLOCK_RECORD
  5
5366
330
1
100
AcDbSymbolTableRecord
100
AcDbBlockTableRecord
  2
*D10
  0
BLOCK_RECORD
  5
5372
330
1
100
AcDbSymbolTableRecord
100
AcDbBlockTableRecord
  2
*D11
  0
ENDTAB
  0
ENDSEC
  0
SECTION
  2
BLOCKS
  0
BLOCK
  5
20
330
1F
100
AcDbEntity
  8
0
100
AcDbBlockBegin
  2
*MODEL_SPACE
 70
     0
 10
0.0
 20
0.0
 30
0.0
  3
*MODEL_SPACE
  1

  0
ENDBLK
  5
21
330
1F
100
AcDbEntity
  8
0
100
AcDbBlockEnd
  0
BLOCK
  5
103
330
101
100
AcDbEntity
 67
     1
  8
0
100
AcDbBlockBegin
  2
*PAPER_SPACE
 70
     0
 10
0.0
 20
0.0
 30
0.0
  3
*PAPER_SPACE
  1

  0
ENDBLK
  5
104
330
101
100
AcDbEntity
 67
     1
  8
0
100
AcDbBlockEnd
  0
BLOCK
  5
5D
330
59
100
AcDbEntity
  8
0
100
AcDbBlockBegin
  2
_OPEN30
 70
     0
 10
0.0
 20
0.0
 30
0.0
  3
_OPEN30
  1

  0
LINE
  5
5A
330
59
100
AcDbEntity
  8
0
 62
     0
100
AcDbLine
 10
-1.0
 20
0.26794919
 30
0.0
 11
0.0
 21
0.0
 31
0.0
  0
LINE
  5
5B
330
59
100
AcDbEntity
  8
0
 62
     0
100
AcDbLine
 10
0.0
 20
0.0
 30
0.0
 11
-1.0
 21
-0.26794919
 31
0.0
  0
LINE
  5
5C
330
59
100
AcDbEntity
  8
0
 62
     0
100
AcDbLine
 10
0.0
 20
0.0
 30
0.0
 11
-1.0
 21
0.0
 31
0.0
  0
ENDBLK
  5
5E
330
59
100
AcDbEntity
  8
0
100
AcDbBlockEnd
  0
BLOCK
  5
66
330
64
100
AcDbEntity
  8
0
100
AcDbBlockBegin
  2
GENAXEH
 70
     0
 10
0.0
 20
0.0
 30
0.0
  3
GENAXEH
  1

  0
LINE
  5
65
330
64
100
AcDbEntity
  8
0
100
AcDbLine
 10
-1.0
 20
0.0
 30
0.0
 11
1.0
 21
0.0
 31
0.0
  0
ENDBLK
  5
67
330
64
100
AcDbEntity
  8
0
100
AcDbBlockEnd
  0
BLOCK
  5
5330
330
5326
100
AcDbEntity
  8
0
100
AcDbBlockBegin
  2
*D5
 70
     1
 10
0.0
 20
0.0
 30
0.0
  3
*D5
  1

  0
LINE
  5
5524
330
5326
100
AcDbEntity
  8
AM_5
100
AcDbLine
 10
-58.70000000000018
 20
50.0
 30
0.0
 11
-99.32409633116836
 21
50.0
 31
0.0
  0
LINE
  5
5525
330
5326
100
AcDbEntity
  8
AM_5
100
AcDbLine
 10
-58.70000000000018
 20
-50.0
 30
0.0
 11
-99.3240963311684
 21
-50.0
 31
0.0
  0
LINE
  5
5526
330
5326
100
AcDbEntity
  8
AM_5
100
AcDbLine
 10
-98.32409633116837
 20
47.5
 30
0.0
 11
-98.32409633116839
 21
-47.49999999999999
 31
0.0
  0
INSERT
  5
5527
330
5326
100
AcDbEntity
  8
AM_5
100
AcDbBlockReference
  2
_OPEN30
 10
-98.32409633116837
 20
50.0
 30
0.0
 41
2.5
 42
2.5
 43
2.5
 50
90.0
  0
INSERT
  5
5528
330
5326
100
AcDbEntity
  8
AM_5
100
AcDbBlockReference
  2
_OPEN30
 10
-98.32409633116839
 20
-50.0
 30
0.0
 41
2.5
 42
2.5
 43
2.5
 50
270.0
  0
MTEXT
  5
5529
330
5326
100
AcDbEntity
  8
AM_5
 62
     2
100
AcDbMText
 10
-101.4240963311683
 20
-0.0000000000000078
 30
0.0
 40
3.2
 41
0.0
 71
     5
 72
     1
  1
%%c100
  7
ASAMI
 11
0.0000000000000001
 21
1.0
 31
0.0
1001
ACAD
1000
MTEXTBEGIN
1070
    73
1070
     1
1070
    44
1040
1.0
1070
    74
1070
     0
1000
MTEXTEND
  0
POINT
  5
552A
330
5326
100
AcDbEntity
  8
DEFPOINTS
 62
     0
100
AcDbPoint
 10
-57.70000000000019
 20
50.0
 30
0.0
  0
POINT
  5
552B
330
5326
100
AcDbEntity
  8
DEFPOINTS
 62
     0
100
AcDbPoint
 10
-57.70000000000019
 20
-50.0
 30
0.0
  0
POINT
  5
552C
330
5326
100
AcDbEntity
  8
DEFPOINTS
 62
     0
100
AcDbPoint
 10
-98.32409633116839
 20
-50.0
 30
0.0
  0
ENDBLK
  5
5331
330
5326
100
AcDbEntity
  8
0
100
AcDbBlockEnd
  0
BLOCK
  5
533E
330
5332
100
AcDbEntity
  8
0
100
AcDbBlockBegin
  2
*D6
 70
     1
 10
0.0
 20
0.0
 30
0.0
  3
*D6
  1

  0
LINE
  5
5536
330
5332
100
AcDbEntity
  8
AM_5
100
AcDbLine
 10
-59.20000000000005
 20
7.949999999999988
 30
0.0
 11
-79.32409633116839
 21
7.949999999999993
 31
0.0
  0
LINE
  5
5537
330
5332
100
AcDbEntity
  8
AM_5
100
AcDbLine
 10
-59.20000000000005
 20
-7.949999999999988
 30
0.0
 11
-79.32409633116839
 21
-7.949999999999983
 31
0.0
  0
LINE
  5
5538
330
5332
100
AcDbEntity
  8
AM_5
100
AcDbLine
 10
-78.32409633116839
 20
10.44999999999999
 30
0.0
 11
-78.32409633116839
 21
12.94999999999999
 31
0.0
  0
LINE
  5
5539
330
5332
100
AcDbEntity
  8
AM_5
100
AcDbLine
 10
-78.32409633116839
 20
-10.44999999999998
 30
0.0
 11
-78.32409633116839
 21
-12.94999999999998
 31
0.0
  0
LINE
  5
553A
330
5332
100
AcDbEntity
  8
AM_5
100
AcDbLine
 10
-78.32409633116839
 20
7.949999999999993
 30
0.0
 11
-78.32409633116839
 21
-7.949999999999983
 31
0.0
  0
INSERT
  5
553B
330
5332
100
AcDbEntity
  8
AM_5
100
AcDbBlockReference
  2
_OPEN30
 10
-78.32409633116839
 20
7.949999999999993
 30
0.0
 41
2.5
 42
2.5
 43
2.5
 50
270.0
  0
INSERT
  5
553C
330
5332
100
AcDbEntity
  8
AM_5
100
AcDbBlockReference
  2
_OPEN30
 10
-78.32409633116839
 20
-7.949999999999983
 30
0.0
 41
2.5
 42
2.5
 43
2.5
 50
90.0
  0
MTEXT
  5
553D
330
5332
100
AcDbEntity
  8
AM_5
 62
     2
100
AcDbMText
 10
-81.42409633116839
 20
-0.0000000000000351
 30
0.0
 40
3.2
 41
0.0
 71
     5
 72
     1
  1
15.9
  7
ASAMI
 11
0.0000000000000001
 21
1.0
 31
0.0
1001
ACAD
1000
MTEXTBEGIN
1070
    73
1070
     1
1070
    44
1040
1.0
1070
    74
1070
     0
1000
MTEXTEND
  0
POINT
  5
553E
330
5332
100
AcDbEntity
  8
DEFPOINTS
 62
     0
100
AcDbPoint
 10
-58.20000000000004
 20
7.949999999999988
 30
0.0
  0
POINT
  5
553F
330
5332
100
AcDbEntity
  8
DEFPOINTS
 62
     0
100
AcDbPoint
 10
-58.20000000000004
 20
-7.949999999999988
 30
0.0
  0
POINT
  5
5540
330
5332
100
AcDbEntity
  8
DEFPOINTS
 62
     0
100
AcDbPoint
 10
-78.32409633116839
 20
-7.949999999999983
 30
0.0
  0
ENDBLK
  5
533F
330
5332
100
AcDbEntity
  8
0
100
AcDbBlockEnd
  0
BLOCK
  5
534A
330
5340
100
AcDbEntity
  8
0
100
AcDbBlockBegin
  2
*D7
 70
     1
 10
0.0
 20
0.0
 30
0.0
  3
*D7
  1

  0
LINE
  5
552D
330
5340
100
AcDbEntity
  8
AM_5
100
AcDbLine
 10
-50.08348486100899
 20
19.05000000000001
 30
0.0
 11
-89.32409633116838
 21
19.05000000000002
 31
0.0
  0
LINE
  5
552E
330
5340
100
AcDbEntity
  8
AM_5
100
AcDbLine
 10
-50.08348486100899
 20
-19.05
 30
0.0
 11
-89.32409633116838
 21
-19.04999999999999
 31
0.0
  0
LINE
  5
552F
330
5340
100
AcDbEntity
  8
AM_5
100
AcDbLine
 10
-88.32409633116839
 20
16.55000000000002
 30
0.0
 11
-88.32409633116839
 21
-16.54999999999999
 31
0.0
  0
INSERT
  5
5530
330
5340
100
AcDbEntity
  8
AM_5
100
AcDbBlockReference
  2
_OPEN30
 10
-88.32409633116839
 20
19.05000000000002
 30
0.0
 41
2.5
 42
2.5
 43
2.5
 50
90.0
  0
INSERT
  5
5531
330
5340
100
AcDbEntity
  8
AM_5
100
AcDbBlockReference
  2
_OPEN30
 10
-88.32409633116839
 20
-19.04999999999999
 30
0.0
 41
2.5
 42
2.5
 43
2.5
 50
270.0
  0
MTEXT
  5
5532
330
5340
100
AcDbEntity
  8
AM_5
 62
     2
100
AcDbMText
 10
-91.42409633116839
 20
0.0000000000000022
 30
0.0
 40
3.2
 41
0.0
 71
     5
 72
     1
  1
%%c38.1
  7
ASAMI
 11
0.0000000000000001
 21
1.0
 31
0.0
1001
ACAD
1000
MTEXTBEGIN
1070
    73
1070
     1
1070
    44
1040
1.0
1070
    74
1070
     0
1000
MTEXTEND
  0
POINT
  5
5533
330
5340
100
AcDbEntity
  8
DEFPOINTS
 62
     0
100
AcDbPoint
 10
-49.083484861009
 20
19.05000000000001
 30
0.0
  0
POINT
  5
5534
330
5340
100
AcDbEntity
  8
DEFPOINTS
 62
     0
100
AcDbPoint
 10
-49.083484861009
 20
-19.05
 30
0.0
  0
POINT
  5
5535
330
5340
100
AcDbEntity
  8
DEFPOINTS
 62
     0
100
AcDbPoint
 10
-88.32409633116839
 20
-19.04999999999999
 30
0.0
  0
ENDBLK
  5
534B
330
5340
100
AcDbEntity
  8
0
100
AcDbBlockEnd
  0
BLOCK
  5
5358
330
534C
100
AcDbEntity
  8
0
100
AcDbBlockBegin
  2
*D8
 70
     1
 10
0.0
 20
0.0
 30
0.0
  3
*D8
  1

  0
LINE
  5
56CC
330
534C
100
AcDbEntity
  8
AM_5
100
AcDbLine
 10
-60.0000000000002
 20
-48.7
 30
0.0
 11
-60.0000000000002
 21
-77.99740378966996
 31
0.0
  0
LINE
  5
56CD
330
534C
100
AcDbEntity
  8
AM_5
100
AcDbLine
 10
-50.00000000000017
 20
-7.949999999999988
 30
0.0
 11
-50.00000000000017
 21
-77.99740378966996
 31
0.0
  0
LINE
  5
56CE
330
534C
100
AcDbEntity
  8
AM_5
100
AcDbLine
 10
-57.5000000000002
 20
-76.99740378966996
 30
0.0
 11
-52.50000000000017
 21
-76.99740378966996
 31
0.0
  0
INSERT
  5
56CF
330
534C
100
AcDbEntity
  8
AM_5
100
AcDbBlockReference
  2
_OPEN30
 10
-60.0000000000002
 20
-76.99740378966996
 30
0.0
 41
2.5
 42
2.5
 43
2.5
 50
180.0
  0
INSERT
  5
56D0
330
534C
100
AcDbEntity
  8
AM_5
100
AcDbBlockReference
  2
_OPEN30
 10
-50.00000000000017
 20
-76.99740378966996
 30
0.0
 41
2.5
 42
2.5
 43
2.5
  0
MTEXT
  5
56D1
330
534C
100
AcDbEntity
  8
AM_5
 62
     2
100
AcDbMText
 10
-55.00000000000018
 20
-73.89740378966997
 30
0.0
 40
3.2
 41
0.0
 71
     5
 72
     1
  1
10
  7
ASAMI
1001
ACAD
1000
MTEXTBEGIN
1070
    73
1070
     1
1070
    44
1040
1.0
1070
    74
1070
     0
1000
MTEXTEND
  0
POINT
  5
56D2
330
534C
100
AcDbEntity
  8
DEFPOINTS
 62
     0
100
AcDbPoint
 10
-60.0000000000002
 20
-47.7
 30
0.0
  0
POINT
  5
56D3
330
534C
100
AcDbEntity
  8
DEFPOINTS
 62
     0
100
AcDbPoint
 10
-50.00000000000017
 20
-6.949999999999988
 30
0.0
  0
POINT
  5
56D4
330
534C
100
AcDbEntity
  8
DEFPOINTS
 62
     0
100
AcDbPoint
 10
-50.00000000000017
 20
-76.99740378966996
 30
0.0
  0
ENDBLK
  5
5359
330
534C
100
AcDbEntity
  8
0
100
AcDbBlockEnd
  0
BLOCK
  5
5364
330
535A
100
AcDbEntity
  8
0
100
AcDbBlockBegin
  2
*D9
 70
     1
 10
0.0
 20
0.0
 30
0.0
  3
*D9
  1

  0
LINE
  5
56D5
330
535A
100
AcDbEntity
  8
AM_5
100
AcDbLine
 10
-60.0000000000002
 20
-48.7
 30
0.0
 11
-60.0000000000002
 21
-97.99740378966996
 31
0.0
  0
LINE
  5
56D6
330
535A
100
AcDbEntity
  8
AM_5
100
AcDbLine
 10
0.0000000000002273
 20
-63.5
 30
0.0
 11
0.0000000000002252
 21
-97.99740378966996
 31
0.0
  0
LINE
  5
56D7
330
535A
100
AcDbEntity
  8
AM_5
100
AcDbLine
 10
-57.5000000000002
 20
-96.99740378966996
 30
0.0
 11
-2.499999999999774
 21
-96.99740378966996
 31
0.0
  0
INSERT
  5
56D8
330
535A
100
AcDbEntity
  8
AM_5
100
AcDbBlockReference
  2
_OPEN30
 10
-60.0000000000002
 20
-96.99740378966996
 30
0.0
 41
2.5
 42
2.5
 43
2.5
 50
180.0
  0
INSERT
  5
56D9
330
535A
100
AcDbEntity
  8
AM_5
100
AcDbBlockReference
  2
_OPEN30
 10
0.0000000000002253
 20
-96.99740378966996
 30
0.0
 41
2.5
 42
2.5
 43
2.5
  0
MTEXT
  5
56DA
330
535A
100
AcDbEntity
  8
AM_5
 62
     2
100
AcDbMText
 10
-29.99999999999998
 20
-93.89740378966996
 30
0.0
 40
3.2
 41
0.0
 71
     5
 72
     1
  1
60
  7
ASAMI
1001
ACAD
1000
MTEXTBEGIN
1070
    73
1070
     1
1070
    44
1040
1.0
1070
    74
1070
     0
1000
MTEXTEND
  0
POINT
  5
56DB
330
535A
100
AcDbEntity
  8
DEFPOINTS
 62
     0
100
AcDbPoint
 10
-60.0000000000002
 20
-47.7
 30
0.0
  0
POINT
  5
56DC
330
535A
100
AcDbEntity
  8
DEFPOINTS
 62
     0
100
AcDbPoint
 10
0.0000000000002274
 20
-62.5
 30
0.0
  0
POINT
  5
56DD
330
535A
100
AcDbEntity
  8
DEFPOINTS
 62
     0
100
AcDbPoint
 10
0.0000000000002253
 20
-96.99740378966996
 30
0.0
  0
ENDBLK
  5
5365
330
535A
100
AcDbEntity
  8
0
100
AcDbBlockEnd
  0
BLOCK
  5
5370
330
5366
100
AcDbEntity
  8
0
100
AcDbBlockBegin
  2
*D10
 70
     1
 10
0.0
 20
0.0
 30
0.0
  3
*D10
  1

  0
LINE
  5
56DE
330
5366
100
AcDbEntity
  8
AM_5
100
AcDbLine
 10
-60.0000000000002
 20
-48.7
 30
0.0
 11
-60.0000000000002
 21
-87.99740378966996
 31
0.0
  0
LINE
  5
56DF
330
5366
100
AcDbEntity
  8
AM_5
100
AcDbLine
 10
-22.0000000000002
 20
-32.88613840961684
 30
0.0
 11
-22.0000000000002
 21
-87.99740378966996
 31
0.0
  0
LINE
  5
56E0
330
5366
100
AcDbEntity
  8
AM_5
100
AcDbLine
 10
-57.5000000000002
 20
-86.99740378966996
 30
0.0
 11
-24.5000000000002
 21
-86.99740378966996
 31
0.0
  0
INSERT
  5
56E1
330
5366
100
AcDbEntity
  8
AM_5
100
AcDbBlockReference
  2
_OPEN30
 10
-60.0000000000002
 20
-86.99740378966996
 30
0.0
 41
2.5
 42
2.5
 43
2.5
 50
180.0
  0
INSERT
  5
56E2
330
5366
100
AcDbEntity
  8
AM_5
100
AcDbBlockReference
  2
_OPEN30
 10
-22.0000000000002
 20
-86.99740378966996
 30
0.0
 41
2.5
 42
2.5
 43
2.5
  0
MTEXT
  5
56E3
330
5366
100
AcDbEntity
  8
AM_5
 62
     2
100
AcDbMText
 10
-41.0000000000002
 20
-83.89740378966996
 30
0.0
 40
3.2
 41
0.0
 71
     5
 72
     1
  1
38
  7
ASAMI
1001
ACAD
1000
MTEXTBEGIN
1070
    73
1070
     1
1070
    44
1040
1.0
1070
    74
1070
     0
1000
MTEXTEND
  0
POINT
  5
56E4
330
5366
100
AcDbEntity
  8
DEFPOINTS
 62
     0
100
AcDbPoint
 10
-60.0000000000002
 20
-47.7
 30
0.0
  0
POINT
  5
56E5
330
5366
100
AcDbEntity
  8
DEFPOINTS
 62
     0
100
AcDbPoint
 10
-22.0000000000002
 20
-31.88613840961684
 30
0.0
  0
POINT
  5
56E6
330
5366
100
AcDbEntity
  8
DEFPOINTS
 62
     0
100
AcDbPoint
 10
-22.0000000000002
 20
-86.99740378966996
 30
0.0
  0
ENDBLK
  5
5371
330
5366
100
AcDbEntity
  8
0
100
AcDbBlockEnd
  0
BLOCK
  5
537C
330
5372
100
AcDbEntity
  8
0
100
AcDbBlockBegin
  2
*D11
 70
     1
 10
0.0
 20
0.0
 30
0.0
  3
*D11
  1

  0
LINE
  5
5500
330
5372
100
AcDbEntity
  8
AM_5
100
AcDbLine
 10
0.9999999999998863
 20
62.5
 30
0.0
 11
18.74468091036797
 21
62.5
 31
0.0
  0
LINE
  5
5501
330
5372
100
AcDbEntity
  8
AM_5
100
AcDbLine
 10
1.000000000000028
 20
-62.5
 30
0.0
 11
18.74468091036794
 21
-62.5
 31
0.0
  0
LINE
  5
5502
330
5372
100
AcDbEntity
  8
AM_5
100
AcDbLine
 10
17.74468091036797
 20
60.0
 30
0.0
 11
17.74468091036794
 21
-60.0
 31
0.0
  0
INSERT
  5
5503
330
5372
100
AcDbEntity
  8
AM_5
100
AcDbBlockReference
  2
_OPEN30
 10
17.74468091036797
 20
62.5
 30
0.0
 41
2.5
 42
2.5
 43
2.5
 50
90.0
  0
INSERT
  5
5504
330
5372
100
AcDbEntity
  8
AM_5
100
AcDbBlockReference
  2
_OPEN30
 10
17.74468091036794
 20
-62.5
 30
0.0
 41
2.5
 42
2.5
 43
2.5
 50
270.0
  0
MTEXT
  5
5505
330
5372
100
AcDbEntity
  8
AM_5
 62
     2
100
AcDbMText
 10
14.64468091036795
 20
-0.0000000000000007
 30
0.0
 40
3.2
 41
0.0
 71
     5
 72
     1
  1
%%c125
  7
ASAMI
 11
0.0000000000000001
 21
1.0
 31
0.0
1001
ACAD
1000
MTEXTBEGIN
1070
    73
1070
     1
1070
    44
1040
1.0
1070
    74
1070
     0
1000
MTEXTEND
  0
POINT
  5
5506
330
5372
100
AcDbEntity
  8
DEFPOINTS
 62
     0
100
AcDbPoint
 10
-0.0000000000001137
 20
62.5
 30
0.0
  0
POINT
  5
5507
330
5372
100
AcDbEntity
  8
DEFPOINTS
 62
     0
100
AcDbPoint
 10
0.0000000000000284
 20
-62.5
 30
0.0
  0
POINT
  5
5508
330
5372
100
AcDbEntity
  8
DEFPOINTS
 62
     0
100
AcDbPoint
 10
17.74468091036794
 20
-62.5
 30
0.0
  0
ENDBLK
  5
537D
330
5372
100
AcDbEntity
  8
0
100
AcDbBlockEnd
  0
ENDSEC
  0
SECTION
  2
ENTITIES
  0
TEXT
  5
E5A
330
1F
100
AcDbEntity
  8
AM_6
100
AcDbText
 10
-42.97619047619044
 20
-119.4974037896699
 30
0.0
 40
5.0
  1
PF5125
 72
     4
 11
-29.99999999999997
 21
-116.9974037896699
 31
0.0
100
AcDbText
  0
LINE
  5
49CD
330
1F
100
AcDbEntity
  8
AM_7
100
AcDbLine
 10
-64.32409533116839
 20
0.0
 30
0.0
 11
3.744679910367949
 21
0.0
 31
0.0
  0
LINE
  5
49CE
330
1F
100
AcDbEntity
  8
AM_0
100
AcDbLine
 10
-21.40705523608218
 20
32.6588790706481
 30
0.0
 11
-3.382361909795093
 21
37.48858109124532
 31
0.0
  0
LINE
  5
49CF
330
1F
100
AcDbEntity
  8
AM_3
100
AcDbLine
 10
-15.58924227069491
 20
62.0
 30
0.0
 11
-3.400000000000204
 21
62.0
 31
0.0
  0
LINE
  5
49D0
330
1F
100
AcDbEntity
  8
AM_0
100
AcDbLine
 10
-60.0000000000002
 20
47.7
 30
0.0
 11
-60.00000000000006
 21
9.749999999999985
 31
0.0
  0
LINE
  5
49D1
330
1F
100
AcDbEntity
  8
AM_0
100
AcDbLine
 10
-49.083484861009
 20
19.05000000000001
 30
0.0
 11
-23.30000000000015
 21
19.04999999999999
 31
0.0
  0
LINE
  5
49D2
330
1F
100
AcDbEntity
  8
AM_0
100
AcDbLine
 10
-49.00000000000017
 20
18.65000000000003
 30
0.0
 11
-49.00000000000001
 21
0.0
 31
0.0
  0
LINE
  5
49D3
330
1F
100
AcDbEntity
  8
AM_0
100
AcDbLine
 10
-58.20000000000004
 20
7.949999999999988
 30
0.0
 11
-51.00000000000017
 21
7.949999999999988
 31
0.0
  0
LINE
  5
49D4
330
1F
100
AcDbEntity
  8
AM_0
100
AcDbLine
 10
-50.00000000000017
 20
6.949999999999988
 30
0.0
 11
-50.00000000000017
 21
0.0
 31
0.0
  0
LINE
  5
49D5
330
1F
100
AcDbEntity
  8
AM_0
100
AcDbLine
 10
-57.7000000000001
 20
19.64999999999999
 30
0.0
 11
-50.00000000000017
 21
19.65000000000001
 31
0.0
  0
LINE
  5
49D6
330
1F
100
AcDbEntity
  8
AM_0
100
AcDbLine
 10
-22.00000000000017
 20
31.88613840961684
 30
0.0
 11
-22.00000000000008
 21
-0.0000000000000071
 31
0.0
  0
LINE
  5
49D7
330
1F
100
AcDbEntity
  8
AM_0
100
AcDbLine
 10
-48.29141624367006
 20
60.34729635533385
 30
0.0
 11
-49.82450752483188
 21
51.65270364466614
 31
0.0
  0
LINE
  5
49D8
330
1F
100
AcDbEntity
  8
AM_0
100
AcDbLine
 10
-57.70000000000019
 20
50.0
 30
0.0
 11
-51.7941230308563
 21
50.0
 31
0.0
  0
LINE
  5
49D9
330
1F
100
AcDbEntity
  8
AM_3
100
AcDbLine
 10
-1.900000000000204
 20
60.5
 30
0.0
 11
-1.900000000000168
 21
44.87452042804177
 31
0.0
  0
ARC
  5
52E2
330
1F
100
AcDbEntity
  8
AM_0
100
AcDbCircle
 10
-3.900000000000147
 20
39.42043274382345
 30
0.0
 40
2.0
100
AcDbArc
 50
285.0
 51
0.0000000000001018
1001
GENIUS_GENODEF_13
1002
{
1000
HIER
1070
     0
1002
}
1002
{
1000
MANEDIT
1070
     0
1002
}
1002
{
1000
NOSEL
1070
     0
1002
}
1002
{
1000
BEHIND
1070
     0
1002
}
1002
{
1000
REACTOR
1002
}
1001
GENIUS_GENOBJ-N-FIL_13
1002
{
1000
OWNER
1000
GEN
1002
}
  0
ARC
  5
52E5
330
1F
100
AcDbEntity
  8
AM_0
100
AcDbCircle
 10
-46.32180073764565
 20
60.0
 30
0.0
 40
2.0
100
AcDbArc
 50
90.0
 51
170.0000000000004
1001
GENIUS_GENODEF_13
1002
{
1000
HIER
1070
     0
1002
}
1002
{
1000
MANEDIT
1070
     0
1002
}
1002
{
1000
NOSEL
1070
     0
1002
}
1002
{
1000
BEHIND
1070
     0
1002
}
1002
{
1000
REACTOR
1002
}
1001
GENIUS_GENOBJ-N-FIL_13
1002
{
1000
OWNER
1000
GEN
1002
}
  0
ARC
  5
52E8
330
1F
100
AcDbEntity
  8
AM_0
100
AcDbCircle
 10
-51.7941230308563
 20
52.0
 30
0.0
 40
2.0
100
AcDbArc
 50
270.0
 51
350.0000000000003
1001
GENIUS_GENODEF_13
1002
{
1000
HIER
1070
     0
1002
}
1002
{
1000
MANEDIT
1070
     0
1002
}
1002
{
1000
NOSEL
1070
     0
1002
}
1002
{
1000
BEHIND
1070
     0
1002
}
1002
{
1000
REACTOR
1002
}
1001
GENIUS_GENOBJ-N-FIL_13
1002
{
1000
OWNER
1000
GEN
1002
}
  0
ARC
  5
52EB
330
1F
100
AcDbEntity
  8
AM_3
100
AcDbCircle
 10
-3.400000000000204
 20
60.5
 30
0.0
 40
1.5
100
AcDbArc
 50
0.0000000000001527
 51
90.0
1001
GENIUS_GENODEF_13
1002
{
1000
HIER
1070
     0
1002
}
1002
{
1000
MANEDIT
1070
     0
1002
}
1002
{
1000
NOSEL
1070
     0
1002
}
1002
{
1000
BEHIND
1070
     0
1002
}
1002
{
1000
REACTOR
1002
}
1001
GENIUS_GENOBJ-N-FIL_13
1002
{
1000
OWNER
1000
GEN
1002
}
  0
ARC
  5
52EE
330
1F
100
AcDbEntity
  8
AM_0
100
AcDbCircle
 10
-21.20000000000016
 20
31.88613840961684
 30
0.0
 40
0.8
100
AcDbArc
 50
104.9999999999998
 51
180.0
1001
GENIUS_GENODEF_13
1002
{
1000
HIER
1070
     0
1002
}
1002
{
1000
MANEDIT
1070
     0
1002
}
1002
{
1000
NOSEL
1070
     0
1002
}
1002
{
1000
BEHIND
1070
     0
1002
}
1002
{
1000
REACTOR
1002
}
1001
GENIUS_GENOBJ-N-FIL_13
1002
{
1000
OWNER
1000
GEN
1002
}
  0
ARC
  5
52F1
330
1F
100
AcDbEntity
  8
AM_0
100
AcDbCircle
 10
-51.00000000000017
 20
6.949999999999988
 30
0.0
 40
1.0
100
AcDbArc
 50
0.0
 51
90.0
1001
GENIUS_GENODEF_13
1002
{
1000
HIER
1070
     0
1002
}
1002
{
1000
MANEDIT
1070
     0
1002
}
1002
{
1000
NOSEL
1070
     0
1002
}
1002
{
1000
BEHIND
1070
     0
1002
}
1002
{
1000
REACTOR
1002
}
1001
GENIUS_GENOBJ-N-FIL_13
1002
{
1000
OWNER
1000
GEN
1002
}
  0
ARC
  5
52F4
330
1F
100
AcDbEntity
  8
AM_0
100
AcDbCircle
 10
-50.00000000000017
 20
18.65000000000001
 30
0.0
 40
1.0
100
AcDbArc
 50
0.0000000000004198
 51
90.0000000000001
1001
GENIUS_GENODEF_13
1002
{
1000
HIER
1070
     0
1002
}
1002
{
1000
MANEDIT
1070
     0
1002
}
1002
{
1000
NOSEL
1070
     0
1002
}
1002
{
1000
BEHIND
1070
     0
1002
}
1002
{
1000
REACTOR
1002
}
1001
GENIUS_GENOBJ-N-FIL_13
1002
{
1000
OWNER
1000
GEN
1002
}
  0
LINE
  5
52F8
330
1F
100
AcDbEntity
  8
AM_0
100
AcDbLine
 10
-57.70000000000019
 20
50.0
 30
0.0
 11
-60.0000000000002
 21
47.7
 31
0.0
1001
GENIUS_GENFIL_13
1070
     0
1040
2.299999999999999
1040
2.299999999999999
1040
20.0
1040
0.0
1002
{
1002
}
1001
GENIUS_GENODEF_13
1002
{
1000
HIER
1070
     0
1002
}
1002
{
1000
MANEDIT
1070
     0
1002
}
1002
{
1000
NOSEL
1070
     0
1002
}
1002
{
1000
BEHIND
1070
     0
1002
}
1002
{
1000
REACTOR
1002
}
1001
GENIUS_GENOBJ-N-CHA_13
1002
{
1000
OWNER
1000
GEN
1002
}
  0
LINE
  5
52FB
330
1F
100
AcDbEntity
  8
AM_0
100
AcDbLine
 10
-60.00000000000011
 20
21.94999999999998
 30
0.0
 11
-57.7000000000001
 21
19.64999999999999
 31
0.0
1001
GENIUS_GENFIL_13
1070
     0
1040
2.299999999999999
1040
2.299999999999999
1040
20.0
1040
0.0
1002
{
1002
}
1001
GENIUS_GENODEF_13
1002
{
1000
HIER
1070
     0
1002
}
1002
{
1000
MANEDIT
1070
     0
1002
}
1002
{
1000
NOSEL
1070
     0
1002
}
1002
{
1000
BEHIND
1070
     0
1002
}
1002
{
1000
REACTOR
1002
}
1001
GENIUS_GENOBJ-N-CHA_13
1002
{
1000
OWNER
1000
GEN
1002
}
  0
LINE
  5
52FE
330
1F
100
AcDbEntity
  8
AM_0
100
AcDbLine
 10
-60.00000000000006
 20
9.749999999999985
 30
0.0
 11
-58.20000000000004
 21
7.949999999999988
 31
0.0
1001
GENIUS_GENFIL_13
1070
     0
1040
1.8
1040
1.8
1040
20.0
1040
0.0
1002
{
1002
}
1001
GENIUS_GENODEF_13
1002
{
1000
HIER
1070
     0
1002
}
1002
{
1000
MANEDIT
1070
     0
1002
}
1002
{
1000
NOSEL
1070
     0
1002
}
1002
{
1000
BEHIND
1070
     0
1002
}
1002
{
1000
REACTOR
1002
}
1001
GENIUS_GENOBJ-N-CHA_13
1002
{
1000
OWNER
1000
GEN
1002
}
  0
LINE
  5
52FF
330
1F
100
AcDbEntity
  8
AM_0
100
AcDbLine
 10
-57.7000000000001
 20
19.64999999999999
 30
0.0
 11
-57.7000000000001
 21
7.949999999999988
 31
0.0
  0
LINE
  5
5302
330
1F
100
AcDbEntity
  8
AM_0
100
AcDbLine
 10
-22.00000000000014
 20
20.34999999999999
 30
0.0
 11
-23.30000000000015
 21
19.04999999999999
 31
0.0
1001
GENIUS_GENFIL_13
1070
     0
1040
1.3
1040
1.3
1040
20.0
1040
0.0
1002
{
1002
}
1001
GENIUS_GENODEF_13
1002
{
1000
HIER
1070
     0
1002
}
1002
{
1000
MANEDIT
1070
     0
1002
}
1002
{
1000
NOSEL
1070
     0
1002
}
1002
{
1000
BEHIND
1070
     0
1002
}
1002
{
1000
REACTOR
1002
}
1001
GENIUS_GENOBJ-N-CHA_13
1002
{
1000
OWNER
1000
GEN
1002
}
  0
LINE
  5
5303
330
1F
100
AcDbEntity
  8
AM_0
100
AcDbLine
 10
-23.30000000000015
 20
19.04999999999999
 30
0.0
 11
-23.30000000000015
 21
0.0
 31
0.0
  0
LINE
  5
5304
330
1F
100
AcDbEntity
  8
AM_0
100
AcDbLine
 10
-49.083484861009
 20
-19.05
 30
0.0
 11
-23.30000000000015
 21
-19.04999999999999
 31
0.0
  0
LINE
  5
5305
330
1F
100
AcDbEntity
  8
AM_0
100
AcDbLine
 10
-46.32180073764565
 20
-62.0
 30
0.0
 11
-15.58924227069418
 21
-62.0
 31
0.0
  0
LINE
  5
5306
330
1F
100
AcDbEntity
  8
AM_0
100
AcDbLine
 10
-60.0000000000002
 20
-47.7
 30
0.0
 11
-60.00000000000006
 21
-9.749999999999985
 31
0.0
  0
LINE
  5
5307
330
1F
100
AcDbEntity
  8
AM_0
100
AcDbLine
 10
-57.7000000000001
 20
-19.64999999999999
 30
0.0
 11
-50.00000000000017
 21
-19.65000000000001
 31
0.0
  0
ARC
  5
5308
330
1F
100
AcDbEntity
  8
AM_0
100
AcDbCircle
 10
-51.00000000000017
 20
-6.949999999999988
 30
0.0
 40
1.0
100
AcDbArc
 50
270.0
 51
0.0
1001
GENIUS_GENODEF_13
1002
{
1000
HIER
1070
     0
1002
}
1002
{
1000
MANEDIT
1070
     0
1002
}
1002
{
1000
NOSEL
1070
     0
1002
}
1002
{
1000
BEHIND
1070
     0
1002
}
1002
{
1000
REACTOR
1002
}
1001
GENIUS_GENOBJ-N-FIL_13
1002
{
1000
OWNER
1000
GEN
1002
}
  0
LINE
  5
5309
330
1F
100
AcDbEntity
  8
AM_0
100
AcDbLine
 10
-57.7000000000001
 20
-19.64999999999999
 30
0.0
 11
-57.7000000000001
 21
-7.949999999999988
 31
0.0
  0
LINE
  5
530A
330
1F
100
AcDbEntity
  8
AM_0
100
AcDbLine
 10
-58.20000000000004
 20
-7.949999999999988
 30
0.0
 11
-51.00000000000017
 21
-7.949999999999988
 31
0.0
  0
LINE
  5
530B
330
1F
100
AcDbEntity
  8
AM_0
100
AcDbLine
 10
-60.00000000000006
 20
-9.749999999999985
 30
0.0
 11
-58.20000000000004
 21
-7.949999999999988
 31
0.0
1001
GENIUS_GENFIL_13
1070
     0
1040
1.8
1040
1.8
1040
20.0
1040
0.0
1002
{
1002
}
1001
GENIUS_GENODEF_13
1002
{
1000
HIER
1070
     0
1002
}
1002
{
1000
MANEDIT
1070
     0
1002
}
1002
{
1000
NOSEL
1070
     0
1002
}
1002
{
1000
BEHIND
1070
     0
1002
}
1002
{
1000
REACTOR
1002
}
1001
GENIUS_GENOBJ-N-CHA_13
1002
{
1000
OWNER
1000
GEN
1002
}
  0
LINE
  5
530C
330
1F
100
AcDbEntity
  8
AM_0
100
AcDbLine
 10
-60.00000000000011
 20
-21.94999999999998
 30
0.0
 11
-57.7000000000001
 21
-19.64999999999999
 31
0.0
1001
GENIUS_GENFIL_13
1070
     0
1040
2.299999999999999
1040
2.299999999999999
1040
20.0
1040
0.0
1002
{
1002
}
1001
GENIUS_GENODEF_13
1002
{
1000
HIER
1070
     0
1002
}
1002
{
1000
MANEDIT
1070
     0
1002
}
1002
{
1000
NOSEL
1070
     0
1002
}
1002
{
1000
BEHIND
1070
     0
1002
}
1002
{
1000
REACTOR
1002
}
1001
GENIUS_GENOBJ-N-CHA_13
1002
{
1000
OWNER
1000
GEN
1002
}
  0
LINE
  5
530D
330
1F
100
AcDbEntity
  8
AM_0
100
AcDbLine
 10
-50.00000000000017
 20
-6.949999999999988
 30
0.0
 11
-50.00000000000017
 21
0.0
 31
0.0
  0
LINE
  5
530E
330
1F
100
AcDbEntity
  8
AM_0
100
AcDbLine
 10
-49.00000000000017
 20
-18.65000000000003
 30
0.0
 11
-49.00000000000001
 21
0.0
 31
0.0
  0
ARC
  5
530F
330
1F
100
AcDbEntity
  8
AM_0
100
AcDbCircle
 10
-50.00000000000017
 20
-18.65000000000001
 30
0.0
 40
1.0
100
AcDbArc
 50
269.9999999999998
 51
359.9999999999996
1001
GENIUS_GENODEF_13
1002
{
1000
HIER
1070
     0
1002
}
1002
{
1000
MANEDIT
1070
     0
1002
}
1002
{
1000
NOSEL
1070
     0
1002
}
1002
{
1000
BEHIND
1070
     0
1002
}
1002
{
1000
REACTOR
1002
}
1001
GENIUS_GENOBJ-N-FIL_13
1002
{
1000
OWNER
1000
GEN
1002
}
  0
ARC
  5
5310
330
1F
100
AcDbEntity
  8
AM_0
100
AcDbCircle
 10
-51.7941230308563
 20
-52.0
 30
0.0
 40
2.0
100
AcDbArc
 50
9.999999999999696
 51
90.00000000000003
1001
GENIUS_GENODEF_13
1002
{
1000
HIER
1070
     0
1002
}
1002
{
1000
MANEDIT
1070
     0
1002
}
1002
{
1000
NOSEL
1070
     0
1002
}
1002
{
1000
BEHIND
1070
     0
1002
}
1002
{
1000
REACTOR
1002
}
1001
GENIUS_GENOBJ-N-FIL_13
1002
{
1000
OWNER
1000
GEN
1002
}
  0
LINE
  5
5311
330
1F
100
AcDbEntity
  8
AM_0
100
AcDbLine
 10
-57.70000000000019
 20
-50.0
 30
0.0
 11
-51.7941230308563
 21
-50.0
 31
0.0
  0
LINE
  5
5312
330
1F
100
AcDbEntity
  8
AM_0
100
AcDbLine
 10
-57.70000000000019
 20
-50.0
 30
0.0
 11
-60.0000000000002
 21
-47.7
 31
0.0
1001
GENIUS_GENFIL_13
1070
     0
1040
2.299999999999999
1040
2.299999999999999
1040
20.0
1040
0.0
1002
{
1002
}
1001
GENIUS_GENODEF_13
1002
{
1000
HIER
1070
     0
1002
}
1002
{
1000
MANEDIT
1070
     0
1002
}
1002
{
1000
NOSEL
1070
     0
1002
}
1002
{
1000
BEHIND
1070
     0
1002
}
1002
{
1000
REACTOR
1002
}
1001
GENIUS_GENOBJ-N-CHA_13
1002
{
1000
OWNER
1000
GEN
1002
}
  0
LINE
  5
5313
330
1F
100
AcDbEntity
  8
AM_0
100
AcDbLine
 10
-48.29141624367006
 20
-60.34729635533385
 30
0.0
 11
-49.82450752483188
 21
-51.65270364466614
 31
0.0
  0
ARC
  5
5314
330
1F
100
AcDbEntity
  8
AM_0
100
AcDbCircle
 10
-46.32180073764565
 20
-60.0
 30
0.0
 40
2.0
100
AcDbArc
 50
189.9999999999995
 51
270.0
1001
GENIUS_GENODEF_13
1002
{
1000
HIER
1070
     0
1002
}
1002
{
1000
MANEDIT
1070
     0
1002
}
1002
{
1000
NOSEL
1070
     0
1002
}
1002
{
1000
BEHIND
1070
     0
1002
}
1002
{
1000
REACTOR
1002
}
1001
GENIUS_GENOBJ-N-FIL_13
1002
{
1000
OWNER
1000
GEN
1002
}
  0
LINE
  5
5315
330
1F
100
AcDbEntity
  8
AM_0
100
AcDbLine
 10
-22.00000000000017
 20
-31.88613840961684
 30
0.0
 11
-22.00000000000008
 21
0.0000000000000071
 31
0.0
  0
LINE
  5
5316
330
1F
100
AcDbEntity
  8
AM_0
100
AcDbLine
 10
-1.900000000000168
 20
-44.8745204280411
 30
0.0
 11
-1.900000000000062
 21
0.0
 31
0.0
  0
LINE
  5
5317
330
1F
100
AcDbEntity
  8
AM_0
100
AcDbLine
 10
-23.30000000000015
 20
-19.04999999999999
 30
0.0
 11
-23.30000000000015
 21
0.0
 31
0.0
  0
LINE
  5
5318
330
1F
100
AcDbEntity
  8
AM_0
100
AcDbLine
 10
-22.00000000000014
 20
-20.34999999999998
 30
0.0
 11
-23.30000000000015
 21
-19.04999999999999
 31
0.0
1001
GENIUS_GENFIL_13
1070
     0
1040
1.3
1040
1.3
1040
20.0
1040
0.0
1002
{
1002
}
1001
GENIUS_GENODEF_13
1002
{
1000
HIER
1070
     0
1002
}
1002
{
1000
MANEDIT
1070
     0
1002
}
1002
{
1000
NOSEL
1070
     0
1002
}
1002
{
1000
BEHIND
1070
     0
1002
}
1002
{
1000
REACTOR
1002
}
1001
GENIUS_GENOBJ-N-CHA_13
1002
{
1000
OWNER
1000
GEN
1002
}
  0
LINE
  5
5319
330
1F
100
AcDbEntity
  8
AM_0
100
AcDbLine
 10
-21.40705523608218
 20
-32.6588790706481
 30
0.0
 11
-3.382361909795093
 21
-37.48858109124532
 31
0.0
  0
ARC
  5
531A
330
1F
100
AcDbEntity
  8
AM_0
100
AcDbCircle
 10
-21.20000000000016
 20
-31.88613840961684
 30
0.0
 40
0.8
100
AcDbArc
 50
180.0
 51
255.0000000000001
1001
GENIUS_GENODEF_13
1002
{
1000
HIER
1070
     0
1002
}
1002
{
1000
MANEDIT
1070
     0
1002
}
1002
{
1000
NOSEL
1070
     0
1002
}
1002
{
1000
BEHIND
1070
     0
1002
}
1002
{
1000
REACTOR
1002
}
1001
GENIUS_GENOBJ-N-FIL_13
1002
{
1000
OWNER
1000
GEN
1002
}
  0
ARC
  5
531B
330
1F
100
AcDbEntity
  8
AM_0
100
AcDbCircle
 10
-3.900000000000147
 20
-39.42043274382345
 30
0.0
 40
2.0
100
AcDbArc
 50
359.9999999999998
 51
75.00000000000003
1001
GENIUS_GENODEF_13
1002
{
1000
HIER
1070
     0
1002
}
1002
{
1000
MANEDIT
1070
     0
1002
}
1002
{
1000
NOSEL
1070
     0
1002
}
1002
{
1000
BEHIND
1070
     0
1002
}
1002
{
1000
REACTOR
1002
}
1001
GENIUS_GENOBJ-N-FIL_13
1002
{
1000
OWNER
1000
GEN
1002
}
  0
DIMENSION
  5
531F
330
1F
100
AcDbEntity
  8
AM_5
100
AcDbDimension
  2
*D6
 10
-78.32409633116839
 20
-7.949999999999983
 30
0.0
 11
-78.32409633116839
 21
-0.0000000000000355
 31
0.0
 70
   160
  3
AM_JIS
100
AcDbAlignedDimension
 13
-58.20000000000004
 23
7.949999999999988
 33
0.0
 14
-58.20000000000004
 24
-7.949999999999988
 34
0.0
 50
90.0
100
AcDbRotatedDimension
  0
DIMENSION
  5
5320
330
1F
100
AcDbEntity
  8
AM_5
100
AcDbDimension
  2
*D7
 10
-88.32409633116839
 20
-19.04999999999999
 30
0.0
 11
-91.42409633116839
 21
0.0000000000000022
 31
0.0
 70
    32
  1
%%c<>
  3
AM_JIS
100
AcDbAlignedDimension
 13
-49.083484861009
 23
19.05000000000001
 33
0.0
 14
-49.083484861009
 24
-19.05
 34
0.0
 50
90.0
100
AcDbRotatedDimension
1001
GENIUS_GENDTOL_13
1000

1000
h7
1000

1040
0.0
  0
DIMENSION
  5
5321
330
1F
100
AcDbEntity
  8
AM_5
100
AcDbDimension
  2
*D5
 10
-98.32409633116839
 20
-50.0
 30
0.0
 11
-101.4240963311683
 21
-0.0000000000000078
 31
0.0
 70
    32
  1
%%c<>
  3
AM_JIS
100
AcDbAlignedDimension
 13
-57.70000000000019
 23
50.0
 33
0.0
 14
-57.70000000000019
 24
-50.0
 34
0.0
 50
90.0
100
AcDbRotatedDimension
1001
GENIUS_GENDTOL_13
1000

1000
h7
1000

1040
0.0
  0
DIMENSION
  5
5322
330
1F
100
AcDbEntity
  8
AM_5
100
AcDbDimension
  2
*D9
 10
0.0000000000002253
 20
-96.99740378966996
 30
0.0
 11
-29.99999999999998
 21
-93.89740378966996
 31
0.0
 70
    32
  3
AM_JIS
100
AcDbAlignedDimension
 13
-60.0000000000002
 23
-47.7
 33
0.0
 14
0.0000000000002274
 24
-62.5
 34
0.0
100
AcDbRotatedDimension
  0
DIMENSION
  5
5323
330
1F
100
AcDbEntity
  8
AM_5
100
AcDbDimension
  2
*D8
 10
-50.00000000000017
 20
-76.99740378966996
 30
0.0
 11
-55.00000000000018
 21
-73.89740378966997
 31
0.0
 70
    32
  3
AM_JIS
100
AcDbAlignedDimension
 13
-60.0000000000002
 23
-47.7
 33
0.0
 14
-50.00000000000017
 24
-6.949999999999988
 34
0.0
100
AcDbRotatedDimension
  0
DIMENSION
  5
5324
330
1F
100
AcDbEntity
  8
AM_5
100
AcDbDimension
  2
*D10
 10
-22.0000000000002
 20
-86.99740378966996
 30
0.0
 11
-41.0000000000002
 21
-83.89740378966996
 31
0.0
 70
    32
  3
AM_JIS
100
AcDbAlignedDimension
 13
-60.0000000000002
 23
-47.7
 33
0.0
 14
-22.0000000000002
 24
-31.88613840961684
 34
0.0
100
AcDbRotatedDimension
  0
DIMENSION
  5
5325
330
1F
100
AcDbEntity
  8
AM_5
100
AcDbDimension
  2
*D11
 10
17.74468091036794
 20
-62.5
 30
0.0
 11
14.64468091036795
 21
-0.0000000000000007
 31
0.0
 70
    32
  1
%%c<>
  3
AM_JIS
100
AcDbAlignedDimension
 13
-0.0000000000001137
 23
62.5
 33
0.0
 14
0.0000000000000284
 24
-62.5
 34
0.0
 50
90.0
100
AcDbRotatedDimension
1001
GENIUS_GENDTOL_13
1000

1000
h7
1000

1040
0.0
  0
LINE
  5
5485
330
1F
100
AcDbEntity
  8
AM_11
100
AcDbLine
 10
-1.98904280851822
 20
62.57150208154072
 30
0.0
 11
-0.0000000000002558
 21
62.5
 31
0.0
  0
LINE
  5
548D
330
1F
100
AcDbEntity
  8
AM_11
100
AcDbLine
 10
-0.0000000000002558
 20
62.5
 30
0.0
 11
0.0000000000002274
 21
-62.5
 31
0.0
  0
LINE
  5
561C
330
1F
100
AcDbEntity
  8
AM_0
100
AcDbLine
 10
-23.0755320000002
 20
60.82070265270036
 30
0.0
 11
-28.0755320000002
 21
60.82070265270036
 31
0.0
  0
LINE
  5
561D
330
1F
100
AcDbEntity
  8
AM_0
100
AcDbLine
 10
-28.0755320000002
 20
51.82070265270036
 30
0.0
 11
-23.0755320000002
 21
51.82070265270036
 31
0.0
  0
LINE
  5
561E
330
1F
100
AcDbEntity
  8
AM_0
100
AcDbLine
 10
-44.40000000000023
 20
59.53127365270032
 30
0.0
 11
-44.40000000000023
 21
49.1946546527004
 31
0.0
  0
LINE
  5
561F
330
1F
100
AcDbEntity
  8
AM_0
100
AcDbLine
 10
-34.83959700000028
 20
47.54288765270032
 30
0.0
 11
-34.83959700000028
 21
50.84642165270046
 31
0.0
  0
ELLIPSE
  5
5620
330
1F
100
AcDbEntity
  8
AM_0
100
AcDbEllipse
 10
-38.40000000000023
 20
49.1946546527004
 30
0.0
 11
6.0
 21
0.0
 31
0.0
210
0.0
220
0.0
230
1.0
 40
0.34202016666667
 41
0.9355191735479779
 42
3.1415936664791
  0
ELLIPSE
  5
5621
330
1F
100
AcDbEntity
  8
AM_0
100
AcDbEllipse
 10
-38.40000000000023
 20
30.22033465270036
 30
0.0
 11
5.988484248357996
 21
32.041280580413
 31
0.0
210
0.0
220
0.0
230
0.9999999999999998
 40
0.01158838091602
 41
-0.9974479098401799
 42
-0.7746311960796759
  0
ELLIPSE
  5
5622
330
1F
100
AcDbEntity
  8
AM_0
100
AcDbEllipse
 10
-38.40000000000023
 20
49.1946546527004
 30
0.0
 11
6.0
 21
0.0
 31
0.0
210
0.0
220
0.0
230
1.0
 40
0.34202016666667
 41
3.1415936664791
 42
5.34766574931044
  0
ELLIPSE
  5
5623
330
1F
100
AcDbEntity
  8
AM_0
100
AcDbEllipse
 10
-38.40000000000023
 20
49.1946546527004
 30
0.0
 11
3.0
 21
0.0
 31
0.0
210
0.0
220
0.0
230
1.0
 40
0.34202
 41
0.0
 42
1.57079621502451
  0
ELLIPSE
  5
5624
330
1F
100
AcDbEntity
  8
AM_0
100
AcDbEllipse
 10
-38.40000000000023
 20
49.1946546527004
 30
0.0
 11
3.0
 21
0.0
 31
0.0
210
0.0
220
0.0
230
1.0
 40
0.34202
 41
3.1415936664791
 42
6.283184408925299
  0
ELLIPSE
  5
5625
330
1F
100
AcDbEntity
  8
AM_0
100
AcDbEllipse
 10
-38.40000000000023
 20
49.1946546527004
 30
0.0
 11
3.0
 21
0.0
 31
0.0
210
0.0
220
0.0
230
1.0
 40
0.34202
 41
1.57079621502451
 42
3.1415936664791
  0
ELLIPSE
  5
5626
330
1F
100
AcDbEntity
  8
AM_0
100
AcDbEllipse
 10
-38.40000000000023
 20
59.53127365270032
 30
0.0
 11
6.0
 21
0.0
 31
0.0
210
0.0
220
0.0
230
1.0
 40
0.34202016666667
 41
0.411138234073143
 42
3.1415936664791
  0
LINE
  5
5627
330
1F
100
AcDbEntity
  8
AM_0
100
AcDbLine
 10
-28.0755320000002
 20
57.85979365270034
 30
0.0
 11
-28.0755320000002
 21
60.82070265270036
 31
0.0
  0
ELLIPSE
  5
5628
330
1F
100
AcDbEntity
  8
AM_0
100
AcDbEllipse
 10
-38.40000000000023
 20
30.22033465270036
 30
0.0
 11
5.988484248357996
 21
32.041280580413
 31
0.0
210
0.0
220
0.0
230
0.9999999999999998
 40
0.01158838091602
 41
0.349233427063958
 42
0.8736044317141439
  0
LINE
  5
5629
330
1F
100
AcDbEntity
  8
AM_0
100
AcDbLine
 10
-28.0755320000002
 20
51.82070265270036
 30
0.0
 11
-28.0755320000002
 21
57.85979365270034
 31
0.0
  0
ELLIPSE
  5
562A
330
1F
100
AcDbEntity
  8
AM_0
100
AcDbEllipse
 10
-33.50244300000028
 20
56.32070265270036
 30
0.0
 11
0.5403904950060001
 21
3.249844754290999
 31
0.0
210
0.0
220
0.0
230
1.0
 40
0.05869022212091
 41
0.009762816312222
 42
3.15134433469479
  0
LINE
  5
562B
330
1F
100
AcDbEntity
  8
AM_0
100
AcDbLine
 10
-34.04094500000027
 20
53.07070265270036
 30
0.0
 11
-28.0755320000002
 21
53.07070265270036
 31
0.0
  0
LINE
  5
562C
330
1F
100
AcDbEntity
  8
AM_0
100
AcDbLine
 10
-28.0755320000002
 20
59.57070265270036
 30
0.0
 11
-32.96394000000023
 21
59.57070265270036
 31
0.0
  0
LINE
  5
562D
330
1F
100
AcDbEntity
  8
AM_0
100
AcDbLine
 10
-32.90000000000023
 20
59.57070265270036
 30
0.0
 11
-32.90000000000023
 21
60.35140865270037
 31
0.0
  0
LINE
  5
562E
330
1F
100
AcDbEntity
  8
AM_0
100
AcDbLine
 10
-1.987634776400956
 20
62.57145099428541
 30
0.0
 11
-13.79899100000025
 21
62.99604265270037
 31
0.0
  0
ELLIPSE
  5
562F
330
1F
100
AcDbEntity
  8
AM_0
100
AcDbEllipse
 10
-1.989044000000291
 20
60.69211665270043
 30
0.0
 11
-1.911766273767999
 21
0.587494437833
 31
0.0
210
0.0
220
0.0
230
1.0
 40
0.9345449999999999
 41
3.421255991823669
 42
4.99205176693515
  0
ELLIPSE
  5
5630
330
1F
100
AcDbEntity
  8
AM_0
100
AcDbEllipse
 10
-1.989044000000291
 20
49.5332666527004
 30
0.0
 11
-1.911766273767999
 21
0.587494437833
 31
0.0
210
0.0
220
0.0
230
1.0
 40
0.9345449999999999
 41
1.850459730901969
 42
3.14159302432637
  0
LINE
  5
5631
330
1F
100
AcDbEntity
  8
AM_0
100
AcDbLine
 10
-17.05269200000023
 20
60.55382265270035
 30
0.0
 11
-17.3316110000002
 21
50.28833365270045
 31
0.0
  0
LINE
  5
5632
330
1F
100
AcDbEntity
  8
AM_0
100
AcDbLine
 10
-17.3316110000002
 20
50.28833365270045
 30
0.0
 11
-13.47202900000027
 21
51.39571465270037
 31
0.0
  0
LINE
  5
5633
330
1F
100
AcDbEntity
  8
AM_0
100
AcDbLine
 10
-2.434032000000257
 20
48.05016165270038
 30
0.0
 11
-1.537766000000289
 21
50.96670465270043
 31
0.0
  0
LINE
  5
5634
330
1F
100
AcDbEntity
  8
AM_0
100
AcDbLine
 10
-17.64006500000024
 20
49.28459265270035
 30
0.0
 11
-17.64006500000024
 21
60.05732365270038
 31
0.0
  0
LINE
  5
5635
330
1F
100
AcDbEntity
  8
AM_0
100
AcDbLine
 10
-0.0000000000002558
 20
49.46176465270039
 30
0.0
 11
-0.0000000000002558
 21
60.62061465270042
 31
0.0
  0
ELLIPSE
  5
5636
330
1F
100
AcDbEntity
  8
AM_0
100
AcDbEllipse
 10
-9.42954400000022
 20
49.82625365270033
 30
0.0
 11
3.001175240374
 21
0.008751451806
 31
0.0
210
0.0
220
0.0
230
1.0
 40
0.35380522646365
 41
1.46137911659883
 42
3.130946883473579
  0
ELLIPSE
  5
5637
330
1F
100
AcDbEntity
  8
AM_0
100
AcDbEllipse
 10
-9.42954400000022
 20
49.82625365270033
 30
0.0
 11
3.001175240374
 21
0.008751451806
 31
0.0
210
0.0
220
0.0
230
1.0
 40
0.35380522646365
 41
6.27254051606492
 42
11.10499123220948
  0
LINE
  5
5638
330
1F
100
AcDbEntity
  8
AM_0
100
AcDbLine
 10
-13.81877000000028
 20
48.63136965270044
 30
0.0
 11
-16.30507500000024
 21
48.72074665270045
 31
0.0
  0
LINE
  5
5639
330
1F
100
AcDbEntity
  8
AM_0
100
AcDbLine
 10
-13.79899100000025
 20
48.07842265270031
 30
0.0
 11
-14.29654700000028
 21
46.4593256527003
 31
0.0
  0
LINE
  5
563A
330
1F
100
AcDbEntity
  8
AM_0
100
AcDbLine
 10
-2.486599000000268
 20
46.03478365270032
 30
0.0
 11
-14.0555470000003
 21
46.45066165270034
 31
0.0
  0
LINE
  5
563B
330
1F
100
AcDbEntity
  8
AM_0
100
AcDbLine
 10
-14.63045400000024
 20
44.57985565270044
 30
0.0
 11
-2.696191000000254
 21
44.15084565270038
 31
0.0
  0
LINE
  5
563C
330
1F
100
AcDbEntity
  8
AM_0
100
AcDbLine
 10
-14.29654700000028
 20
46.4593256527003
 30
0.0
 11
-2.486599000000268
 21
46.03478365270032
 31
0.0
  0
ELLIPSE
  5
563D
330
1F
100
AcDbEntity
  8
AM_0
100
AcDbEllipse
 10
-13.79899100000025
 20
49.95780765270038
 30
0.0
 11
-1.911766273767999
 21
0.587494437833
 31
0.0
210
0.0
220
0.0
230
1.0
 40
0.9345449999999999
 41
1.063725250220469
 42
1.850459730901969
  0
LINE
  5
563E
330
1F
100
AcDbEntity
  8
AM_0
100
AcDbLine
 10
-14.0555470000003
 20
46.45066165270034
 30
0.0
 11
-14.63045400000024
 21
44.57985565270044
 31
0.0
  0
LINE
  5
563F
330
1F
100
AcDbEntity
  8
AM_0
100
AcDbLine
 10
-14.63045400000024
 20
44.57985565270044
 30
0.0
 11
-16.12223700000029
 21
46.04302065270033
 31
0.0
  0
LINE
  5
5640
330
1F
100
AcDbEntity
  8
AM_0
100
AcDbLine
 10
-16.30507500000024
 20
48.72074665270045
 30
0.0
 11
-17.64006500000024
 21
49.28459265270035
 31
0.0
  0
LINE
  5
5641
330
1F
100
AcDbEntity
  8
AM_0
100
AcDbLine
 10
-17.3316110000002
 20
50.28833365270045
 30
0.0
 11
-17.64006500000024
 21
49.28459265270035
 31
0.0
  0
LINE
  5
5642
330
1F
100
AcDbEntity
  8
AM_0
100
AcDbLine
 10
-16.12223700000029
 20
46.04302065270033
 30
0.0
 11
-15.78382000000024
 21
47.1442636527004
 31
0.0
  0
LINE
  5
5643
330
1F
100
AcDbEntity
  8
AM_0
100
AcDbLine
 10
-16.12223700000029
 20
47.65846065270037
 30
0.0
 11
-16.12223700000029
 21
46.04302065270033
 31
0.0
  0
LINE
  5
5644
330
1F
100
AcDbEntity
  8
AM_0
100
AcDbLine
 10
-16.19141800000025
 20
48.71666065270031
 30
0.0
 11
-16.28559100000026
 21
48.41021165270039
 31
0.0
  0
LINE
  5
5645
330
1F
100
AcDbEntity
  8
AM_0
100
AcDbLine
 10
-16.28559100000026
 20
48.7200456527004
 30
0.0
 11
-16.28559100000026
 21
48.41021165270039
 31
0.0
  0
ELLIPSE
  5
5646
330
1F
100
AcDbEntity
  8
AM_0
100
AcDbEllipse
 10
-14.29654700000028
 20
48.33871065270037
 30
0.0
 11
-1.911766273767999
 21
0.587494437833
 31
0.0
210
0.0
220
0.0
230
1.0
 40
0.9345449999999999
 41
0.279662971137573
 42
1.850459730901969
  0
LINE
  5
5647
330
1F
100
AcDbEntity
  8
AM_0
100
AcDbLine
 10
-13.87103400000026
 20
48.46129565270032
 30
0.0
 11
-2.434032000000257
 21
48.05016165270038
 31
0.0
  0
LINE
  5
5648
330
1F
100
AcDbEntity
  8
AM_0
100
AcDbLine
 10
-13.79899100000025
 20
48.07842265270031
 30
0.0
 11
-1.989044000000291
 21
47.65388165270045
 31
0.0
  0
ELLIPSE
  5
5649
330
1F
100
AcDbEntity
  8
AM_0
100
AcDbEllipse
 10
-9.42954400000022
 20
49.82625365270033
 30
0.0
 11
3.001175240374
 21
0.008751451806
 31
0.0
210
0.0
220
0.0
230
1.0
 40
0.35380522646365
 41
3.130946883473579
 42
6.27254051606492
  0
LINE
  5
564A
330
1F
100
AcDbEntity
  8
AM_0
100
AcDbLine
 10
-13.87103400000026
 20
48.46129565270032
 30
0.0
 11
-13.81877000000028
 21
48.63136965270044
 31
0.0
  0
LINE
  5
564B
330
1F
100
AcDbEntity
  8
AM_0
100
AcDbLine
 10
-13.87103400000026
 20
48.46129565270032
 30
0.0
 11
-13.87103400000026
 21
48.63324765270036
 31
0.0
  0
LINE
  5
564C
330
1F
100
AcDbEntity
  8
AM_0
100
AcDbLine
 10
-2.696191000000254
 20
44.15084565270038
 30
0.0
 11
-2.121284000000201
 21
46.02165165270029
 31
0.0
  0
LINE
  5
564D
330
1F
100
AcDbEntity
  8
AM_0
100
AcDbLine
 10
-1.204408000000256
 20
45.50675865270036
 30
0.0
 11
-0.7802060000002769
 21
46.88715765270038
 31
0.0
  0
LINE
  5
564E
330
1F
100
AcDbEntity
  8
AM_0
100
AcDbLine
 10
-1.204408000000256
 20
45.50675865270036
 30
0.0
 11
-2.696191000000254
 21
44.15084565270038
 31
0.0
  0
LINE
  5
564F
330
1F
100
AcDbEntity
  8
AM_0
100
AcDbLine
 10
-2.121284000000201
 20
46.02165165270029
 30
0.0
 11
-2.486599000000268
 21
46.03478365270032
 31
0.0
  0
LINE
  5
5650
330
1F
100
AcDbEntity
  8
AM_0
100
AcDbLine
 10
-2.121284000000201
 20
46.02165165270029
 30
0.0
 11
-2.079093000000312
 21
46.06000065270044
 31
0.0
  0
LINE
  5
5651
330
1F
100
AcDbEntity
  8
AM_0
100
AcDbLine
 10
-1.989044000000291
 20
47.65388165270045
 30
0.0
 11
-2.486599000000268
 21
46.03478365270032
 31
0.0
  0
LINE
  5
5652
330
1F
100
AcDbEntity
  8
AM_0
100
AcDbLine
 10
-0.5748330000002682
 20
47.3266756527004
 30
0.0
 11
-0.0772770000002368
 21
48.94577265270029
 31
0.0
  0
ELLIPSE
  5
5653
330
1F
100
AcDbEntity
  8
AM_0
100
AcDbEllipse
 10
-1.989044000000291
 20
49.5332666527004
 30
0.0
 11
-1.911766273767999
 21
0.587494437833
 31
0.0
210
0.0
220
0.0
230
1.0
 40
0.9345449999999999
 41
3.14159302432637
 42
3.421255991823669
  0
ELLIPSE
  5
5654
330
1F
100
AcDbEntity
  8
AM_0
100
AcDbEllipse
 10
-2.486599000000268
 20
47.91416965270039
 30
0.0
 11
-1.911766273767999
 21
0.587494437833
 31
0.0
210
0.0
220
0.0
230
1.0
 40
0.9345449999999999
 41
1.850459730901969
 42
3.14159302432637
  0
LINE
  5
5655
330
1F
100
AcDbEntity
  8
AM_0
100
AcDbLine
 10
-13.21848200000025
 20
60.72740565270035
 30
0.0
 11
-17.05269200000023
 21
60.55382265270035
 31
0.0
  0
ELLIPSE
  5
5656
330
1F
100
AcDbEntity
  8
AM_0
100
AcDbEllipse
 10
-13.79899100000025
 20
61.11665765270029
 30
0.0
 11
-1.911766273767999
 21
0.587494437833
 31
0.0
210
0.0
220
0.0
230
1.0
 40
0.9345449999999999
 41
-1.291133250000019
 42
0.0
  0
LINE
  5
5657
330
1F
100
AcDbEntity
  8
AM_0
100
AcDbLine
 10
-15.78803500000029
 20
61.1881596527003
 30
0.0
 11
-15.78803500000029
 21
60.6110766527004
 31
0.0
  0
LINE
  5
5658
330
1F
100
AcDbEntity
  8
AM_0
100
AcDbLine
 10
-15.78803500000029
 20
61.1881596527003
 30
0.0
 11
-15.9678770000003
 21
60.60293465270039
 31
0.0
  0
LINE
  5
5659
330
1F
100
AcDbEntity
  8
AM_0
100
AcDbLine
 10
-15.71075800000025
 20
61.7041516527004
 30
0.0
 11
-16.05031300000021
 21
60.59920265270037
 31
0.0
  0
LINE
  5
565A
330
1F
100
AcDbEntity
  8
AM_0
100
AcDbLine
 10
-19.07553200000021
 20
58.03080365270037
 30
0.0
 11
-19.07553200000021
 21
61.32070265270036
 31
0.0
  0
LINE
  5
565B
330
1F
100
AcDbEntity
  8
AM_0
100
AcDbLine
 10
-23.0755320000002
 20
58.03080365270037
 30
0.0
 11
-23.0755320000002
 21
61.32070265270036
 31
0.0
  0
LINE
  5
565C
330
1F
100
AcDbEntity
  8
AM_0
100
AcDbLine
 10
-23.0755320000002
 20
51.32070265270036
 30
0.0
 11
-19.07553200000021
 21
51.32070265270036
 31
0.0
  0
LINE
  5
565D
330
1F
100
AcDbEntity
  8
AM_0
100
AcDbLine
 10
-23.0755320000002
 20
51.32070265270036
 30
0.0
 11
-23.0755320000002
 21
58.03080365270037
 31
0.0
  0
LINE
  5
565E
330
1F
100
AcDbEntity
  8
AM_0
100
AcDbLine
 10
-19.07553200000021
 20
51.32070265270036
 30
0.0
 11
-19.07553200000021
 21
58.03080365270037
 31
0.0
  0
LINE
  5
565F
330
1F
100
AcDbEntity
  8
AM_0
100
AcDbLine
 10
-19.07553200000021
 20
54.32070265270036
 30
0.0
 11
-17.64006500000024
 21
54.32070265270036
 31
0.0
  0
LINE
  5
5660
330
1F
100
AcDbEntity
  8
AM_0
100
AcDbLine
 10
-17.05269200000023
 20
60.55382265270035
 30
0.0
 11
-17.64006500000024
 21
60.05732365270038
 31
0.0
  0
LINE
  5
5661
330
1F
100
AcDbEntity
  8
AM_0
100
AcDbLine
 10
-17.64006500000024
 20
58.32070265270036
 30
0.0
 11
-19.07553200000021
 21
58.32070265270036
 31
0.0
  0
LINE
  5
5662
330
1F
100
AcDbEntity
  8
AM_0
100
AcDbLine
 10
-19.07553200000021
 20
61.32070265270036
 30
0.0
 11
-23.0755320000002
 21
61.32070265270036
 31
0.0
  0
ELLIPSE
  5
5663
330
1F
100
AcDbEntity
  8
AM_0
100
AcDbEllipse
 10
-13.79899100000025
 20
61.11665765270029
 30
0.0
 11
-1.911766273767999
 21
0.587494437833
 31
0.0
210
0.0
220
0.0
230
1.0
 40
0.9345449999999999
 41
0.0
 42
0.279662971137573
  0
LINE
  5
5664
330
1F
100
AcDbEntity
  8
AM_0
100
AcDbLine
 10
-13.47202900000027
 20
51.39571465270037
 30
0.0
 11
-1.537766000000289
 21
50.96670465270043
 31
0.0
  0
LINE
  5
5665
330
1F
100
AcDbEntity
  8
AM_0
100
AcDbLine
 10
-3.677596000000249
 20
60.38443265270032
 30
0.0
 11
-13.21848200000025
 21
60.72740565270035
 31
0.0
  0
LINE
  5
5666
330
1F
100
AcDbEntity
  8
AM_0
100
AcDbLine
 10
-13.21848200000025
 20
60.72740565270035
 30
0.0
 11
-13.47202900000027
 21
51.39571465270037
 31
0.0
  0
LINE
  5
5667
330
1F
100
AcDbEntity
  8
AM_0
100
AcDbLine
 10
-1.514881000000258
 20
51.80898265270028
 30
0.0
 11
-3.677596000000249
 21
60.38443265270032
 31
0.0
  0
LINE
  5
5668
330
1F
100
AcDbEntity
  8
AM_0
100
AcDbLine
 10
-1.537766000000289
 20
50.96670465270043
 30
0.0
 11
-1.514881000000258
 21
51.80898265270028
 31
0.0
  0
LINE
  5
5669
330
1F
100
AcDbEntity
  8
AM_0
100
AcDbLine
 10
-15.58924227069491
 20
62.0
 30
0.0
 11
-46.32180073764565
 21
62.0
 31
0.0
  0
LINE
  5
566A
330
1F
100
AcDbEntity
  8
AM_0
100
AcDbLine
 10
-1.900000000000168
 20
44.87452042804178
 30
0.0
 11
-1.900000000000133
 21
0.0
 31
0.0
  0
LINE
  5
5678
330
1F
100
AcDbEntity
  8
AM_3
100
AcDbLine
 10
-15.58924227069423
 20
-61.99999999999992
 30
0.0
 11
-3.399999999999526
 21
-61.99999999999977
 31
0.0
  0
LINE
  5
5679
330
1F
100
AcDbEntity
  8
AM_0
100
AcDbLine
 10
-1.987634776400272
 20
-62.57145099428517
 30
0.0
 11
-13.79899099999956
 21
-62.99604265270026
 31
0.0
  0
LINE
  5
567A
330
1F
100
AcDbEntity
  8
AM_0
100
AcDbLine
 10
-3.677595999999589
 20
-60.38443265270011
 30
0.0
 11
-13.21848199999958
 21
-60.72740565270024
 31
0.0
  0
LINE
  5
567B
330
1F
100
AcDbEntity
  8
AM_0
100
AcDbLine
 10
-13.47202899999971
 20
-51.39571465270027
 30
0.0
 11
-1.537765999999732
 21
-50.96670465270019
 31
0.0
  0
ELLIPSE
  5
567C
330
1F
100
AcDbEntity
  8
AM_0
100
AcDbEllipse
 10
-9.429543999999674
 20
-49.82625365270018
 30
0.0
 11
3.001175240374
 21
-0.0087514518059672
 31
0.0
210
0.0
220
0.0
230
-1.0
 40
0.35380522646365
 41
3.130946883473579
 42
6.27254051606492
  0
LINE
  5
567D
330
1F
100
AcDbEntity
  8
AM_0
100
AcDbLine
 10
-13.79899099999973
 20
-48.07842265270021
 30
0.0
 11
-1.98904399999977
 21
-47.65388165270021
 31
0.0
  0
LINE
  5
567E
330
1F
100
AcDbEntity
  8
AM_0
100
AcDbLine
 10
-13.87103399999973
 20
-48.46129565270022
 30
0.0
 11
-2.434031999999732
 21
-48.05016165270015
 31
0.0
  0
LINE
  5
567F
330
1F
100
AcDbEntity
  8
AM_0
100
AcDbLine
 10
-14.29654699999978
 20
-46.4593256527002
 30
0.0
 11
-2.486598999999765
 21
-46.03478365270009
 31
0.0
  0
LINE
  5
5680
330
1F
100
AcDbEntity
  8
AM_0
100
AcDbLine
 10
-14.63045399999975
 20
-44.57985565270035
 30
0.0
 11
-2.696190999999771
 21
-44.15084565270015
 31
0.0
  0
LINE
  5
5681
330
1F
100
AcDbEntity
  8
AM_0
100
AcDbLine
 10
-2.486598999999765
 20
-46.03478365270009
 30
0.0
 11
-14.05554699999979
 21
-46.45066165270025
 31
0.0
  0
ELLIPSE
  5
5682
330
1F
100
AcDbEntity
  8
AM_0
100
AcDbEllipse
 10
-9.429543999999674
 20
-49.82625365270018
 30
0.0
 11
3.001175240374
 21
-0.0087514518059672
 31
0.0
210
0.0
220
0.0
230
-1.0
 40
0.35380522646365
 41
6.27254051606492
 42
11.10499123220948
  0
ELLIPSE
  5
5683
330
1F
100
AcDbEntity
  8
AM_0
100
AcDbEllipse
 10
-38.3999999999999
 20
-30.22033465270052
 30
0.0
 11
5.988484248358349
 21
-32.04128058041293
 31
0.0
210
0.0
220
0.0
230
-1.0
 40
0.01158838091602
 41
0.349233427063958
 42
0.8736044317141439
  0
ELLIPSE
  5
5684
330
1F
100
AcDbEntity
  8
AM_0
100
AcDbEllipse
 10
-38.39999999999958
 20
-59.53127365270049
 30
0.0
 11
6.0
 21
0.0000000000000656
 31
0.0
210
0.0
220
0.0
230
-1.0
 40
0.34202016666667
 41
0.411138234073143
 42
3.1415936664791
  0
ELLIPSE
  5
5685
330
1F
100
AcDbEntity
  8
AM_0
100
AcDbEllipse
 10
-38.3999999999999
 20
-30.22033465270052
 30
0.0
 11
5.988484248358349
 21
-32.04128058041293
 31
0.0
210
0.0
220
0.0
230
-1.0
 40
0.01158838091602
 41
-0.9974479098401799
 42
-0.7746311960796759
  0
ELLIPSE
  5
5686
330
1F
100
AcDbEntity
  8
AM_0
100
AcDbEllipse
 10
-38.39999999999969
 20
-49.19465465270056
 30
0.0
 11
6.0
 21
0.0000000000000656
 31
0.0
210
0.0
220
0.0
230
-1.0
 40
0.34202016666667
 41
0.9355191735479779
 42
3.1415936664791
  0
LINE
  5
5687
330
1F
100
AcDbEntity
  8
AM_0
100
AcDbLine
 10
-44.39999999999957
 20
-59.53127365270055
 30
0.0
 11
-44.39999999999969
 21
-49.19465465270062
 31
0.0
  0
ELLIPSE
  5
5688
330
1F
100
AcDbEntity
  8
AM_0
100
AcDbEllipse
 10
-38.39999999999969
 20
-49.19465465270056
 30
0.0
 11
3.0
 21
0.0000000000000328
 31
0.0
210
0.0
220
0.0
230
-1.0
 40
0.34202
 41
1.57079621502451
 42
3.1415936664791
  0
ELLIPSE
  5
5689
330
1F
100
AcDbEntity
  8
AM_0
100
AcDbEllipse
 10
-38.39999999999969
 20
-49.19465465270056
 30
0.0
 11
3.0
 21
0.0000000000000328
 31
0.0
210
0.0
220
0.0
230
-1.0
 40
0.34202
 41
3.1415936664791
 42
6.283184408925299
  0
ELLIPSE
  5
568A
330
1F
100
AcDbEntity
  8
AM_0
100
AcDbEllipse
 10
-38.39999999999969
 20
-49.19465465270056
 30
0.0
 11
6.0
 21
0.0000000000000656
 31
0.0
210
0.0
220
0.0
230
-1.0
 40
0.34202016666667
 41
3.1415936664791
 42
5.34766574931044
  0
ELLIPSE
  5
568B
330
1F
100
AcDbEntity
  8
AM_0
100
AcDbEllipse
 10
-38.39999999999969
 20
-49.19465465270056
 30
0.0
 11
3.0
 21
0.0000000000000328
 31
0.0
210
0.0
220
0.0
230
-1.0
 40
0.34202
 41
0.0
 42
1.57079621502451
  0
LINE
  5
568C
330
1F
100
AcDbEntity
  8
AM_0
100
AcDbLine
 10
-34.83959699999976
 20
-47.54288765270046
 30
0.0
 11
-34.83959699999973
 21
-50.84642165270058
 31
0.0
  0
LINE
  5
568D
330
1F
100
AcDbEntity
  8
AM_0
100
AcDbLine
 10
-13.21848199999958
 20
-60.72740565270024
 30
0.0
 11
-13.47202899999971
 21
-51.39571465270027
 31
0.0
  0
LINE
  5
568E
330
1F
100
AcDbEntity
  8
AM_0
100
AcDbLine
 10
-19.07553199999964
 20
-51.32070265270031
 30
0.0
 11
-19.07553199999957
 21
-58.03080365270032
 31
0.0
  0
LINE
  5
568F
330
1F
100
AcDbEntity
  8
AM_0
100
AcDbLine
 10
-23.07553199999964
 20
-51.32070265270036
 30
0.0
 11
-23.07553199999957
 21
-58.03080365270037
 31
0.0
  0
LINE
  5
5690
330
1F
100
AcDbEntity
  8
AM_0
100
AcDbLine
 10
-17.6400649999997
 20
-49.28459265270029
 30
0.0
 11
-17.64006499999959
 21
-60.05732365270031
 31
0.0
  0
LINE
  5
5691
330
1F
100
AcDbEntity
  8
AM_0
100
AcDbLine
 10
-17.05269199999957
 20
-60.55382265270027
 30
0.0
 11
-17.33161099999965
 21
-50.28833365270039
 31
0.0
  0
LINE
  5
5692
330
1F
100
AcDbEntity
  8
AM_0
100
AcDbLine
 10
-28.07553199999964
 20
-51.82070265270041
 30
0.0
 11
-28.07553199999957
 21
-57.8597936527004
 31
0.0
  0
LINE
  5
5693
330
1F
100
AcDbEntity
  8
AM_0
100
AcDbLine
 10
-23.07553199999964
 20
-51.32070265270036
 30
0.0
 11
-19.07553199999964
 21
-51.32070265270031
 31
0.0
  0
LINE
  5
5694
330
1F
100
AcDbEntity
  8
AM_0
100
AcDbLine
 10
-28.07553199999964
 20
-51.82070265270041
 30
0.0
 11
-23.07553199999964
 21
-51.82070265270036
 31
0.0
  0
ELLIPSE
  5
5695
330
1F
100
AcDbEntity
  8
AM_0
100
AcDbEllipse
 10
-14.29654699999976
 20
-48.33871065270027
 30
0.0
 11
-1.911766273767993
 21
-0.5874944378330209
 31
0.0
210
0.0
220
0.0
230
-1.0
 40
0.9345450000000001
 41
0.279662971137573
 42
1.850459730901969
  0
LINE
  5
5696
330
1F
100
AcDbEntity
  8
AM_0
100
AcDbLine
 10
-16.12223699999977
 20
-47.65846065270029
 30
0.0
 11
-16.12223699999979
 21
-46.04302065270025
 31
0.0
  0
LINE
  5
5697
330
1F
100
AcDbEntity
  8
AM_0
100
AcDbLine
 10
-16.12223699999979
 20
-46.04302065270025
 30
0.0
 11
-15.78381999999973
 21
-47.14426365270031
 31
0.0
  0
LINE
  5
5698
330
1F
100
AcDbEntity
  8
AM_0
100
AcDbLine
 10
-13.79899099999973
 20
-48.07842265270021
 30
0.0
 11
-14.29654699999978
 21
-46.4593256527002
 31
0.0
  0
LINE
  5
5699
330
1F
100
AcDbEntity
  8
AM_0
100
AcDbLine
 10
-14.63045399999975
 20
-44.57985565270035
 30
0.0
 11
-16.12223699999979
 21
-46.04302065270025
 31
0.0
  0
LINE
  5
569A
330
1F
100
AcDbEntity
  8
AM_0
100
AcDbLine
 10
-14.05554699999979
 20
-46.45066165270025
 30
0.0
 11
-14.63045399999975
 21
-44.57985565270035
 31
0.0
  0
LINE
  5
569B
330
1F
100
AcDbEntity
  8
AM_0
100
AcDbLine
 10
-16.30507499999971
 20
-48.72074665270037
 30
0.0
 11
-17.6400649999997
 21
-49.28459265270029
 31
0.0
  0
LINE
  5
569C
330
1F
100
AcDbEntity
  8
AM_0
100
AcDbLine
 10
-17.33161099999965
 20
-50.28833365270039
 30
0.0
 11
-13.47202899999971
 21
-51.39571465270027
 31
0.0
  0
LINE
  5
569D
330
1F
100
AcDbEntity
  8
AM_0
100
AcDbLine
 10
-17.33161099999965
 20
-50.28833365270039
 30
0.0
 11
-17.6400649999997
 21
-49.28459265270029
 31
0.0
  0
LINE
  5
569E
330
1F
100
AcDbEntity
  8
AM_0
100
AcDbLine
 10
-13.87103399999973
 20
-48.46129565270022
 30
0.0
 11
-13.87103399999973
 21
-48.63324765270025
 31
0.0
  0
LINE
  5
569F
330
1F
100
AcDbEntity
  8
AM_0
100
AcDbLine
 10
-13.87103399999973
 20
-48.46129565270022
 30
0.0
 11
-13.81876999999975
 21
-48.63136965270033
 31
0.0
  0
LINE
  5
56A0
330
1F
100
AcDbEntity
  8
AM_0
100
AcDbLine
 10
-16.28559099999973
 20
-48.72004565270033
 30
0.0
 11
-16.28559099999973
 21
-48.41021165270031
 31
0.0
  0
LINE
  5
56A1
330
1F
100
AcDbEntity
  8
AM_0
100
AcDbLine
 10
-16.19141799999972
 20
-48.71666065270023
 30
0.0
 11
-16.28559099999973
 21
-48.41021165270031
 31
0.0
  0
ELLIPSE
  5
56A2
330
1F
100
AcDbEntity
  8
AM_0
100
AcDbEllipse
 10
-13.79899099999971
 20
-49.95780765270027
 30
0.0
 11
-1.911766273767993
 21
-0.5874944378330209
 31
0.0
210
0.0
220
0.0
230
-1.0
 40
0.9345450000000001
 41
1.063725250220469
 42
1.850459730901969
  0
LINE
  5
56A3
330
1F
100
AcDbEntity
  8
AM_0
100
AcDbLine
 10
-13.81876999999975
 20
-48.63136965270033
 30
0.0
 11
-16.30507499999971
 21
-48.72074665270037
 31
0.0
  0
ELLIPSE
  5
56A4
330
1F
100
AcDbEntity
  8
AM_0
100
AcDbEllipse
 10
-9.429543999999674
 20
-49.82625365270018
 30
0.0
 11
3.001175240374
 21
-0.0087514518059672
 31
0.0
210
0.0
220
0.0
230
-1.0
 40
0.35380522646365
 41
1.46137911659883
 42
3.130946883473579
  0
LINE
  5
56A5
330
1F
100
AcDbEntity
  8
AM_0
100
AcDbLine
 10
-19.07553199999953
 20
-61.32070265270031
 30
0.0
 11
-23.07553199999953
 21
-61.32070265270036
 31
0.0
  0
LINE
  5
56A6
330
1F
100
AcDbEntity
  8
AM_0
100
AcDbLine
 10
-23.07553199999954
 20
-60.82070265270036
 30
0.0
 11
-28.07553199999954
 21
-60.82070265270041
 31
0.0
  0
ELLIPSE
  5
56A7
330
1F
100
AcDbEntity
  8
AM_0
100
AcDbEllipse
 10
-33.50244299999966
 20
-56.32070265270048
 30
0.0
 11
0.5403904950060356
 21
-3.249844754290994
 31
0.0
210
0.0
220
0.0
230
-1.0
 40
0.05869022212091
 41
0.009762816312222
 42
3.15134433469479
  0
LINE
  5
56A8
330
1F
100
AcDbEntity
  8
AM_0
100
AcDbLine
 10
-34.04094499999969
 20
-53.07070265270048
 30
0.0
 11
-28.07553199999963
 21
-53.07070265270041
 31
0.0
  0
LINE
  5
56A9
330
1F
100
AcDbEntity
  8
AM_0
100
AcDbLine
 10
-28.07553199999956
 20
-59.57070265270041
 30
0.0
 11
-32.96393999999958
 21
-59.57070265270047
 31
0.0
  0
LINE
  5
56AA
330
1F
100
AcDbEntity
  8
AM_0
100
AcDbLine
 10
-32.89999999999958
 20
-59.57070265270047
 30
0.0
 11
-32.89999999999957
 21
-60.35140865270047
 31
0.0
  0
LINE
  5
56AB
330
1F
100
AcDbEntity
  8
AM_0
100
AcDbLine
 10
-28.07553199999957
 20
-57.8597936527004
 30
0.0
 11
-28.07553199999954
 21
-60.82070265270041
 31
0.0
  0
LINE
  5
56AC
330
1F
100
AcDbEntity
  8
AM_0
100
AcDbLine
 10
-23.07553199999957
 20
-58.03080365270037
 30
0.0
 11
-23.07553199999953
 21
-61.32070265270036
 31
0.0
  0
ELLIPSE
  5
56AD
330
1F
100
AcDbEntity
  8
AM_0
100
AcDbEllipse
 10
-13.79899099999958
 20
-61.11665765270019
 30
0.0
 11
-1.911766273767993
 21
-0.5874944378330209
 31
0.0
210
0.0
220
0.0
230
-1.0
 40
0.9345450000000001
 41
-1.291133250000019
 42
0.0
  0
LINE
  5
56AE
330
1F
100
AcDbEntity
  8
AM_0
100
AcDbLine
 10
-13.21848199999958
 20
-60.72740565270024
 30
0.0
 11
-17.05269199999957
 21
-60.55382265270027
 31
0.0
  0
LINE
  5
56AF
330
1F
100
AcDbEntity
  8
AM_0
100
AcDbLine
 10
-19.07553199999961
 20
-54.32070265270031
 30
0.0
 11
-17.64006499999965
 21
-54.3207026527003
 31
0.0
  0
LINE
  5
56B0
330
1F
100
AcDbEntity
  8
AM_0
100
AcDbLine
 10
-17.64006499999961
 20
-58.32070265270029
 30
0.0
 11
-19.07553199999957
 21
-58.32070265270031
 31
0.0
  0
LINE
  5
56B1
330
1F
100
AcDbEntity
  8
AM_0
100
AcDbLine
 10
-17.05269199999957
 20
-60.55382265270027
 30
0.0
 11
-17.64006499999959
 21
-60.05732365270031
 31
0.0
  0
LINE
  5
56B2
330
1F
100
AcDbEntity
  8
AM_0
100
AcDbLine
 10
-19.07553199999957
 20
-58.03080365270032
 30
0.0
 11
-19.07553199999953
 21
-61.32070265270031
 31
0.0
  0
ELLIPSE
  5
56B3
330
1F
100
AcDbEntity
  8
AM_0
100
AcDbEllipse
 10
-13.79899099999958
 20
-61.11665765270019
 30
0.0
 11
-1.911766273767993
 21
-0.5874944378330209
 31
0.0
210
0.0
220
0.0
230
-1.0
 40
0.9345450000000001
 41
0.0
 42
0.279662971137573
  0
LINE
  5
56B4
330
1F
100
AcDbEntity
  8
AM_0
100
AcDbLine
 10
-15.71075799999958
 20
-61.70415165270032
 30
0.0
 11
-16.05031299999955
 21
-60.59920265270029
 31
0.0
  0
LINE
  5
56B5
330
1F
100
AcDbEntity
  8
AM_0
100
AcDbLine
 10
-15.78803499999962
 20
-61.18815965270022
 30
0.0
 11
-15.96787699999963
 21
-60.60293465270031
 31
0.0
  0
LINE
  5
56B6
330
1F
100
AcDbEntity
  8
AM_0
100
AcDbLine
 10
-15.78803499999962
 20
-61.18815965270022
 30
0.0
 11
-15.78803499999962
 21
-60.61107665270032
 31
0.0
  0
LINE
  5
56B7
330
1F
100
AcDbEntity
  8
AM_3
100
AcDbLine
 10
-1.899999999999543
 20
-60.49999999999976
 30
0.0
 11
-1.899999999999677
 21
-44.87452042804153
 31
0.0
  0
LINE
  5
56B8
330
1F
100
AcDbEntity
  8
AM_0
100
AcDbLine
 10
-1.514880999999691
 20
-51.80898265270004
 30
0.0
 11
-3.677595999999589
 21
-60.38443265270011
 31
0.0
  0
LINE
  5
56B9
330
1F
100
AcDbEntity
  8
AM_0
100
AcDbLine
 10
0.0000000000002849
 20
-49.46176465270013
 30
0.0
 11
0.0000000000004069
 21
-60.62061465270017
 31
0.0
  0
ELLIPSE
  5
56BA
330
1F
100
AcDbEntity
  8
AM_0
100
AcDbEllipse
 10
-2.486598999999744
 20
-47.91416965270016
 30
0.0
 11
-1.911766273767993
 21
-0.5874944378330209
 31
0.0
210
0.0
220
0.0
230
-1.0
 40
0.9345450000000001
 41
1.850459730901969
 42
3.14159302432637
  0
LINE
  5
56BB
330
1F
100
AcDbEntity
  8
AM_0
100
AcDbLine
 10
-1.98904399999977
 20
-47.65388165270021
 30
0.0
 11
-2.486598999999765
 21
-46.03478365270009
 31
0.0
  0
LINE
  5
56BC
330
1F
100
AcDbEntity
  8
AM_0
100
AcDbLine
 10
-2.121283999999698
 20
-46.02165165270005
 30
0.0
 11
-2.079092999999809
 21
-46.0600006527002
 31
0.0
  0
LINE
  5
56BD
330
1F
100
AcDbEntity
  8
AM_0
100
AcDbLine
 10
-2.121283999999698
 20
-46.02165165270005
 30
0.0
 11
-2.486598999999765
 21
-46.03478365270009
 31
0.0
  0
LINE
  5
56BE
330
1F
100
AcDbEntity
  8
AM_0
100
AcDbLine
 10
-1.204407999999759
 20
-45.50675865270012
 30
0.0
 11
-2.696190999999771
 21
-44.15084565270015
 31
0.0
  0
LINE
  5
56BF
330
1F
100
AcDbEntity
  8
AM_0
100
AcDbLine
 10
-1.204407999999759
 20
-45.50675865270012
 30
0.0
 11
-0.7802059999997643
 21
-46.88715765270013
 31
0.0
  0
LINE
  5
56C0
330
1F
100
AcDbEntity
  8
AM_0
100
AcDbLine
 10
-2.696190999999771
 20
-44.15084565270015
 30
0.0
 11
-2.121283999999698
 21
-46.02165165270005
 31
0.0
  0
LINE
  5
56C1
330
1F
100
AcDbEntity
  8
AM_0
100
AcDbLine
 10
-1.537765999999732
 20
-50.96670465270019
 30
0.0
 11
-1.514880999999691
 21
-51.80898265270004
 31
0.0
  0
ELLIPSE
  5
56C2
330
1F
100
AcDbEntity
  8
AM_0
100
AcDbEllipse
 10
-1.989043999999749
 20
-49.53326665270017
 30
0.0
 11
-1.911766273767993
 21
-0.5874944378330209
 31
0.0
210
0.0
220
0.0
230
-1.0
 40
0.9345450000000001
 41
3.14159302432637
 42
3.421255991823669
  0
LINE
  5
56C3
330
1F
100
AcDbEntity
  8
AM_0
100
AcDbLine
 10
-0.5748329999997508
 20
-47.32667565270015
 30
0.0
 11
-0.0772769999997017
 21
-48.94577265270005
 31
0.0
  0
LINE
  5
56C4
330
1F
100
AcDbEntity
  8
AM_0
100
AcDbLine
 10
-2.434031999999732
 20
-48.05016165270015
 30
0.0
 11
-1.537765999999732
 21
-50.96670465270019
 31
0.0
  0
ELLIPSE
  5
56C5
330
1F
100
AcDbEntity
  8
AM_0
100
AcDbEllipse
 10
-1.989043999999749
 20
-49.53326665270017
 30
0.0
 11
-1.911766273767993
 21
-0.5874944378330209
 31
0.0
210
0.0
220
0.0
230
-1.0
 40
0.9345450000000001
 41
1.850459730901969
 42
3.14159302432637
  0
ARC
  5
56C6
330
1F
100
AcDbEntity
  8
AM_3
100
AcDbCircle
 10
-3.399999999999543
 20
-60.49999999999978
 30
0.0
 40
1.5
100
AcDbArc
 50
270.0000000000006
 51
0.0000000000004737
1001
GENIUS_GENODEF_13
1002
{
1000
HIER
1070
     0
1002
}
1002
{
1000
MANEDIT
1070
     0
1002
}
1002
{
1000
NOSEL
1070
     0
1002
}
1002
{
1000
BEHIND
1070
     0
1002
}
1002
{
1000
REACTOR
1002
}
1001
GENIUS_GENOBJ-N-FIL_13
1002
{
1000
OWNER
1000
GEN
1002
}
  0
ELLIPSE
  5
56C7
330
1F
100
AcDbEntity
  8
AM_0
100
AcDbEllipse
 10
-1.989043999999627
 20
-60.6921166527002
 30
0.0
 11
-1.911766273767993
 21
-0.5874944378330209
 31
0.0
210
0.0
220
0.0
230
-1.0
 40
0.9345450000000001
 41
3.421255991823669
 42
4.99205176693515
  0
LINE
  5
56C8
330
1F
100
AcDbEntity
  8
AM_11
100
AcDbLine
 10
-1.989042808517536
 20
-62.57150208154049
 30
0.0
 11
0.0000000000004274
 21
-62.49999999999975
 31
0.0
  0
VIEWPORT
  5
110
330
101
100
AcDbEntity
 67
     1
  8
0
100
AcDbViewport
 10
420.5
 20
297.0
 30
0.0
 40
948.9782706766916
 41
628.452
 68
     1
 69
     1
1001
ACAD
1000
MVIEW
1002
{
1070
    16
1010
0.0
1020
0.0
1030
0.0
1010
0.0
1020
0.0
1030
1.0
1040
0.0
1040
628.452
1040
420.5
1040
297.0
1040
50.0
1040
0.0
1040
0.0
1070
     0
1070
   100
1070
     1
1070
     1
1070
     0
1070
     0
1070
     0
1070
     0
1040
0.0
1040
0.0
1040
0.0
1040
10.0
1040
10.0
1040
10.0
1040
10.0
1070
     0
1002
{
1002
}
1002
}
  0
ENDSEC
  0
SECTION
  2
OBJECTS
  0
DICTIONARY
  5
C
330
0
100
AcDbDictionary
  3
ACAD_GROUP
350
D
  3
ACAD_LAYOUT
350
1A
  3
ACAD_MLINESTYLE
350
17
  3
ACAD_PLOTSETTINGS
350
19
  3
ACAD_PLOTSTYLENAME
350
E
  3
ACDBVARIABLEDICTIONARY
350
34
  3
ACMDICTIONARY
350
43
  3
AMG
350
2B
  3
AMGSNAPSETTINGS
350
6E
  3
DWGPROPS
350
572F
  3
ACDBHEADERROUNDTRIPXREC
350
573C
  0
DICTIONARY
  5
74
330
1F
100
AcDbDictionary
280
     1
  3
ACAD_INDEX
360
5731
  3
ACAD_LAYOUTSELFREF
360
575F
  0
DICTIONARY
  5
5764
330
101
100
AcDbDictionary
280
     1
  3
ACAD_LAYOUTSELFREF
360
5765
  0
DICTIONARY
  5
D
102
{ACAD_REACTORS
330
C
102
}
330
C
100
AcDbDictionary
  0
DICTIONARY
  5
1A
102
{ACAD_REACTORS
330
C
102
}
330
C
100
AcDbDictionary
  0
DICTIONARY
  5
17
102
{ACAD_REACTORS
330
C
102
}
330
C
100
AcDbDictionary
  3
STANDARD
350
18
  0
DICTIONARY
  5
19
102
{ACAD_REACTORS
330
C
102
}
330
C
100
AcDbDictionary
  0
ACDBDICTIONARYWDFLT
  5
E
102
{ACAD_REACTORS
330
C
102
}
330
C
100
AcDbDictionary
281
     1
  3
Normal
350
F
100
AcDbDictionaryWithDefault
340
F
  0
DICTIONARY
  5
34
102
{ACAD_REACTORS
330
C
102
}
330
C
100
AcDbDictionary
  3
INDEXCTL
350
35
  3
SORTENTS
350
B5E
  0
DICTIONARY
  5
43
102
{ACAD_REACTORS
330
C
102
}
330
C
100
AcDbDictionary
  3
ACMSTDDICTIONARY
350
260
  0
DICTIONARY
  5
2B
102
{ACAD_REACTORS
330
C
102
}
330
C
100
AcDbDictionary
  3
ACMGSETTINGS
350
2C
  0
DICTIONARY
  5
6E
102
{ACAD_REACTORS
330
C
102
}
330
C
100
AcDbDictionary
  0
XRECORD
  5
572F
102
{ACAD_REACTORS
330
C
102
}
330
C
100
AcDbXrecord
  1
DWGPROPS COOKIE
  2

  3

  4

  6

  7

  8

  9

300
AmdtFileType=82
301
=
302
=
303
=
304
=
305
=
306
=
307
=
308
=
309
=
 40
0.091823599537037
 41
2452836.771637361
 42
2452913.479670127
  1

 90
        1
  0
DICTIONARY
  5
573C
102
{ACAD_REACTORS
330
C
102
}
330
C
100
AcDbDictionary
  3
TSTACKALIGN
350
573D
  3
TSTACKSIZE
350
573E
  3
HYPERLINKBASE
350
573F
  3
STYLESHEET
350
5740
  3
LAYOUTDICT
350
5741
  3
PLOTSETDICT
350
5742
  3
PLOTSTYLNAMDICT
350
5743
  3
LWETCUNION
350
5744
  3
INSUNITS
350
5745
  3
CEPSNTYPE
350
5746
  3
FINGERPRINTGUID
350
5747
  3
VERSIONGUID
350
5748
  3
PSVPSCALE
350
5749
  3
DIMSTYLEDATA
350
574A
  3
PUCSORTHOREF
350
574B
  3
PUCSORTHOVIEW
350
574C
  3
PUCSBASE
350
574D
  3
PUCSORGTOP
350
574E
  3
PUCSORGBOTTOM
350
574F
  3
PUCSORGLEFT
350
5750
  3
PUCSORGRIGHT
350
5751
  3
PUCSORGFRONT
350
5752
  3
PUCSORGBACK
350
5753
  3
UCSORTHOREF
350
5754
  3
UCSORTHOVIEW
350
5755
  3
UCSBASE
350
5756
  3
UCSORGTOP
350
5757
  3
UCSORGBOTTOM
350
5758
  3
UCSORGLEFT
350
5759
  3
UCSORGRIGHT
350
575A
  3
UCSORGFRONT
350
575B
  3
UCSORGBACK
350
575C
  0
DICTIONARY
  5
5731
102
{ACAD_REACTORS
330
74
102
}
330
74
100
AcDbDictionary
  3
*A1
350
5732
  0
XRECORD
  5
575F
102
{ACAD_REACTORS
330
74
102
}
330
74
100
AcDbXrecord
340
1F
  0
XRECORD
  5
5765
102
{ACAD_REACTORS
330
5764
102
}
330
5764
100
AcDbXrecord
340
101
  0
MLINESTYLE
  5
18
102
{ACAD_REACTORS
330
17
102
}
330
17
100
AcDbMlineStyle
  2
STANDARD
 70
     0
  3

 62
   256
 51
90.0
 52
90.0
 71
     2
 49
0.5
 62
   256
  6
BYLAYER
 49
-0.5
 62
   256
  6
BYLAYER
  0
ACDBPLACEHOLDER
  5
F
102
{ACAD_REACTORS
330
E
102
}
330
E
100
AcDbPlaceHolder
280
     0
  0
DICTIONARYVAR
  5
35
102
{ACAD_REACTORS
330
34
102
}
330
34
100
DictionaryVariables
280
     0
  1
1
  0
DICTIONARYVAR
  5
B5E
102
{ACAD_REACTORS
330
34
102
}
330
34
100
DictionaryVariables
280
     0
  1
96
  0
DICTIONARY
  5
260
102
{ACAD_REACTORS
330
43
102
}
330
43
100
AcDbDictionary
  0
DICTIONARY
  5
2C
102
{ACAD_REACTORS
330
2B
102
}
330
2B
100
AcDbDictionary
  3
DWGSETTINGS
350
2D
  0
XRECORD
  5
573D
102
{ACAD_REACTORS
330
573C
102
}
330
573C
100
AcDbXrecord
 90
        1
  0
XRECORD
  5
573E
102
{ACAD_REACTORS
330
573C
102
}
330
573C
100
AcDbXrecord
 90
       70
  0
XRECORD
  5
573F
102
{ACAD_REACTORS
330
573C
102
}
330
573C
100
AcDbXrecord
  1

  0
XRECORD
  5
5740
102
{ACAD_REACTORS
330
573C
102
}
330
573C
100
AcDbXrecord
  1
ASAMI.ctb
  0
XRECORD
  5
5741
102
{ACAD_REACTORS
330
573C
102
}
330
573C
100
AcDbXrecord
340
1A
  0
XRECORD
  5
5742
102
{ACAD_REACTORS
330
573C
102
}
330
573C
100
AcDbXrecord
340
19
  0
XRECORD
  5
5743
102
{ACAD_REACTORS
330
573C
102
}
330
573C
100
AcDbXrecord
340
E
  0
XRECORD
  5
5744
102
{ACAD_REACTORS
330
573C
102
}
330
573C
100
AcDbXrecord
 90
    10781
  0
XRECORD
  5
5745
102
{ACAD_REACTORS
330
573C
102
}
330
573C
100
AcDbXrecord
 90
        4
  0
XRECORD
  5
5746
102
{ACAD_REACTORS
330
573C
102
}
330
573C
100
AcDbXrecord
 90
        0
  0
XRECORD
  5
5747
102
{ACAD_REACTORS
330
573C
102
}
330
573C
100
AcDbXrecord
  1
{AFB28963-8C59-40AE-9337-C84526B81ACE}
  0
XRECORD
  5
5748
102
{ACAD_REACTORS
330
573C
102
}
330
573C
100
AcDbXrecord
  1
{580F1AA0-CC48-4B8F-9888-86D42EE7ECB2}
  0
XRECORD
  5
5749
102
{ACAD_REACTORS
330
573C
102
}
330
573C
100
AcDbXrecord
 40
0.0
  0
XRECORD
  5
574A
102
{ACAD_REACTORS
330
573C
102
}
330
573C
100
AcDbXrecord
1000
DSTYLE
1002
{
1070
    79
 70
     2
1070
   341
340
59
1070
   342
340
59
1070
   371
 70
    -1
1070
   372
 70
    -1
1002
}
  0
XRECORD
  5
574B
102
{ACAD_REACTORS
330
573C
102
}
330
573C
100
AcDbXrecord
340
0
  0
XRECORD
  5
574C
102
{ACAD_REACTORS
330
573C
102
}
330
573C
100
AcDbXrecord
 70
     0
  0
XRECORD
  5
574D
102
{ACAD_REACTORS
330
573C
102
}
330
573C
100
AcDbXrecord
340
0
  0
XRECORD
  5
574E
102
{ACAD_REACTORS
330
573C
102
}
330
573C
100
AcDbXrecord
 10
0.0
 20
0.0
 30
0.0
  0
XRECORD
  5
574F
102
{ACAD_REACTORS
330
573C
102
}
330
573C
100
AcDbXrecord
 10
0.0
 20
0.0
 30
0.0
  0
XRECORD
  5
5750
102
{ACAD_REACTORS
330
573C
102
}
330
573C
100
AcDbXrecord
 10
0.0
 20
0.0
 30
0.0
  0
XRECORD
  5
5751
102
{ACAD_REACTORS
330
573C
102
}
330
573C
100
AcDbXrecord
 10
0.0
 20
0.0
 30
0.0
  0
XRECORD
  5
5752
102
{ACAD_REACTORS
330
573C
102
}
330
573C
100
AcDbXrecord
 10
0.0
 20
0.0
 30
0.0
  0
XRECORD
  5
5753
102
{ACAD_REACTORS
330
573C
102
}
330
573C
100
AcDbXrecord
 10
0.0
 20
0.0
 30
0.0
  0
XRECORD
  5
5754
102
{ACAD_REACTORS
330
573C
102
}
330
573C
100
AcDbXrecord
340
0
  0
XRECORD
  5
5755
102
{ACAD_REACTORS
330
573C
102
}
330
573C
100
AcDbXrecord
 70
     0
  0
XRECORD
  5
5756
102
{ACAD_REACTORS
330
573C
102
}
330
573C
100
AcDbXrecord
340
0
  0
XRECORD
  5
5757
102
{ACAD_REACTORS
330
573C
102
}
330
573C
100
AcDbXrecord
 10
0.0
 20
0.0
 30
0.0
  0
XRECORD
  5
5758
102
{ACAD_REACTORS
330
573C
102
}
330
573C
100
AcDbXrecord
 10
0.0
 20
0.0
 30
0.0
  0
XRECORD
  5
5759
102
{ACAD_REACTORS
330
573C
102
}
330
573C
100
AcDbXrecord
 10
0.0
 20
0.0
 30
0.0
  0
XRECORD
  5
575A
102
{ACAD_REACTORS
330
573C
102
}
330
573C
100
AcDbXrecord
 10
0.0
 20
0.0
 30
0.0
  0
XRECORD
  5
575B
102
{ACAD_REACTORS
330
573C
102
}
330
573C
100
AcDbXrecord
 10
0.0
 20
0.0
 30
0.0
  0
XRECORD
  5
575C
102
{ACAD_REACTORS
330
573C
102
}
330
573C
100
AcDbXrecord
 10
0.0
 20
0.0
 30
0.0
  0
LAYER_INDEX
  5
5732
102
{ACAD_REACTORS
330
5731
102
}
330
5731
100
AcDbIndex
 40
2453152.367212778
100
AcDbLayerIndex
  8
0
360
5733
 90
        0
  8
AM_0
360
5734
 90
      202
  8
AM_7
360
5735
 90
        1
  8
AM_5
360
5736
 90
        7
  8
Defpoints
360
5737
 90
        0
  8
AM_6
360
5738
 90
        1
  8
AM_11
360
5739
 90
        3
  8
AM_3
360
573A
 90
        6
  0
XRECORD
  5
2D
102
{ACAD_REACTORS
330
2C
102
}
330
2C
100
AcDbXrecord
  1
VERSION
140
15.0
  1
PRODUCT
  2
AutoCAD Mechanical 2000
  0
IDBUFFER
  5
5733
330
0
100
AcDbIdBuffer
  0
IDBUFFER
  5
5734
330
0
100
AcDbIdBuffer
330
565E
330
565F
330
5660
330
5661
330
5662
330
5663
330
5664
330
5665
330
5666
330
5667
330
5668
330
5669
330
566A
330
5679
330
567A
330
567B
330
567C
330
567D
330
567E
330
567F
330
5680
330
5681
330
5682
330
5683
330
5684
330
5685
330
5686
330
5687
330
5688
330
5689
330
568A
330
568B
330
568C
330
568D
330
568E
330
568F
330
5690
330
5691
330
5692
330
5693
330
5694
330
5695
330
5696
330
5697
330
5698
330
5699
330
569A
330
569B
330
569C
330
569D
330
569E
330
569F
330
56A0
330
56A1
330
56A2
330
56A3
330
56A4
330
56A5
330
56A6
330
56A7
330
56A8
330
56A9
330
56AA
330
56AB
330
56AC
330
56AD
330
56AE
330
56AF
330
56B0
330
56B1
330
56B2
330
56B3
330
56B4
330
56B5
330
56B6
330
56B8
330
56B9
330
56BA
330
56BB
330
56BC
330
56BD
330
56BE
330
56BF
330
56C0
330
56C1
330
56C2
330
56C3
330
56C4
330
56C5
330
56C7
330
49CE
330
49D0
330
49D1
330
49D2
330
49D3
330
49D4
330
49D5
330
49D6
330
49D7
330
49D8
330
52E2
330
52E5
330
52E8
330
52EE
330
52F1
330
52F4
330
52F8
330
52FB
330
52FE
330
52FF
330
5302
330
5303
330
5304
330
5305
330
5306
330
5307
330
5308
330
5309
330
530A
330
530B
330
530C
330
530D
330
530E
330
530F
330
5310
330
5311
330
5312
330
5313
330
5314
330
5315
330
5316
330
5317
330
5318
330
5319
330
531A
330
531B
330
561C
330
561D
330
561E
330
561F
330
5620
330
5621
330
5622
330
5623
330
5624
330
5625
330
5626
330
5627
330
5628
330
5629
330
562A
330
562B
330
562C
330
562D
330
562E
330
562F
330
5630
330
5631
330
5632
330
5633
330
5634
330
5635
330
5636
330
5637
330
5638
330
5639
330
563A
330
563B
330
563C
330
563D
330
563E
330
563F
330
5640
330
5641
330
5642
330
5643
330
5644
330
5645
330
5646
330
5647
330
5648
330
5649
330
564A
330
564B
330
564C
330
564D
330
564E
330
564F
330
5650
330
5651
330
5652
330
5653
330
5654
330
5655
330
5656
330
5657
330
5658
330
5659
330
565A
330
565B
330
565C
330
565D
  0
IDBUFFER
  5
5735
330
0
100
AcDbIdBuffer
330
49CD
  0
IDBUFFER
  5
5736
330
0
100
AcDbIdBuffer
330
531F
330
5320
330
5321
330
5322
330
5323
330
5324
330
5325
  0
IDBUFFER
  5
5737
330
0
100
AcDbIdBuffer
  0
IDBUFFER
  5
5738
330
0
100
AcDbIdBuffer
330
E5A
  0
IDBUFFER
  5
5739
330
0
100
AcDbIdBuffer
330
5485
330
548D
330
56C8
  0
IDBUFFER
  5
573A
330
0
100
AcDbIdBuffer
330
49CF
330
49D9
330
52EB
330
5678
330
56B7
330
56C6
  0
ENDSEC
  0
EOF
