  0
SECTION
  2
HEADER
  9
$ACADVER
  1
AC1014
  9
$ACADMAINTVER
 70
     9
  9
$DWGCODEPAGE
  3
ANSI_932
  9
$INSBASE
 10
0.0
 20
0.0
 30
0.0
  9
$EXTMIN
 10
-103.0240963311682
 20
-136.9974037896703
 30
-0.00000001
  9
$EXTMAX
 10
22.72194283186267
 20
80.82110181297538
 30
0.00000001
  9
$LIMMIN
 10
-134.2474266609176
 20
-157.7810137578715
  9
$LIMMAX
 10
41.01735708787805
 20
102.8685568452403
  9
$ORTHOMODE
 70
     0
  9
$REGENMODE
 70
     1
  9
$FILLMODE
 70
     1
  9
$QTEXTMODE
 70
     0
  9
$MIRRTEXT
 70
     0
  9
$DRAGMODE
 70
     2
  9
$LTSCALE
 40
1.0
  9
$OSMODE
 70
    55
  9
$ATTMODE
 70
     1
  9
$TEXTSIZE
 40
2.5
  9
$TRACEWID
 40
1.0
  9
$TEXTSTYLE
  7
STANDARD
  9
$CLAYER
  8
AM_0
  9
$CELTYPE
  6
BYLAYER
  9
$CECOLOR
 62
   256
  9
$CELTSCALE
 40
1.0
  9
$DELOBJ
 70
     1
  9
$DISPSILH
 70
     0
  9
$DIMSCALE
 40
1.0
  9
$DIMASZ
 40
2.5
  9
$DIMEXO
 40
1.0
  9
$DIMDLI
 40
12.0
  9
$DIMRND
 40
0.0
  9
$DIMDLE
 40
0.0
  9
$DIMEXE
 40
1.0
  9
$DIMTP
 40
0.1
  9
$DIMTM
 40
0.1
  9
$DIMTXT
 40
3.2
  9
$DIMCEN
 40
0.0
  9
$DIMTSZ
 40
0.0
  9
$DIMTOL
 70
     0
  9
$DIMLIM
 70
     0
  9
$DIMTIH
 70
     0
  9
$DIMTOH
 70
     0
  9
$DIMSE1
 70
     0
  9
$DIMSE2
 70
     0
  9
$DIMTAD
 70
     3
  9
$DIMZIN
 70
     8
  9
$DIMBLK
  1
OPEN30
  9
$DIMASO
 70
     1
  9
$DIMSHO
 70
     1
  9
$DIMPOST
  1

  9
$DIMAPOST
  1
"
  9
$DIMALT
 70
     0
  9
$DIMALTD
 70
     2
  9
$DIMALTF
 40
0.0393701
  9
$DIMLFAC
 40
1.0
  9
$DIMTOFL
 70
     1
  9
$DIMTVP
 40
0.0
  9
$DIMTIX
 70
     0
  9
$DIMSOXD
 70
     0
  9
$DIMSAH
 70
     0
  9
$DIMBLK1
  1

  9
$DIMBLK2
  1

  9
$DIMSTYLE
  2
AM_JIS
  9
$DIMCLRD
 70
   256
  9
$DIMCLRE
 70
   256
  9
$DIMCLRT
 70
     2
  9
$DIMTFAC
 40
0.71
  9
$DIMGAP
 40
1.5
  9
$DIMJUST
 70
     0
  9
$DIMSD1
 70
     0
  9
$DIMSD2
 70
     0
  9
$DIMTOLJ
 70
     0
  9
$DIMTZIN
 70
     0
  9
$DIMALTZ
 70
     0
  9
$DIMALTTZ
 70
     0
  9
$DIMFIT
 70
     3
  9
$DIMUPT
 70
     0
  9
$DIMUNIT
 70
     2
  9
$DIMDEC
 70
     3
  9
$DIMTDEC
 70
     3
  9
$DIMALTU
 70
     2
  9
$DIMALTTD
 70
     2
  9
$DIMTXSTY
  7
ASAMI
  9
$DIMAUNIT
 70
     0
  9
$LUNITS
 70
     2
  9
$LUPREC
 70
     2
  9
$SKETCHINC
 40
1.0
  9
$FILLETRAD
 40
0.8
  9
$AUNITS
 70
     0
  9
$AUPREC
 70
     0
  9
$MENU
  1
.
  9
$ELEVATION
 40
0.0
  9
$PELEVATION
 40
0.0
  9
$THICKNESS
 40
0.0
  9
$LIMCHECK
 70
     0
  9
$BLIPMODE
 70
     0
  9
$CHAMFERA
 40
1.8
  9
$CHAMFERB
 40
1.8
  9
$CHAMFERC
 40
20.0
  9
$CHAMFERD
 40
0.0
  9
$SKPOLY
 70
     0
  9
$TDCREATE
 40
2452836.771637361
  9
$TDUPDATE
 40
2453152.367299039
  9
$TDINDWG
 40
0.0984016667
  9
$TDUSRTIMER
 40
0.0984016667
  9
$USRTIMER
 70
     1
  9
$ANGBASE
 50
0.0
  9
$ANGDIR
 70
     0
  9
$PDMODE
 70
     0
  9
$PDSIZE
 40
0.0
  9
$PLINEWID
 40
0.0
  9
$COORDS
 70
     1
  9
$SPLFRAME
 70
     0
  9
$SPLINETYPE
 70
     6
  9
$SPLINESEGS
 70
     8
  9
$ATTDIA
 70
     1
  9
$ATTREQ
 70
     1
  9
$HANDLING
 70
 12289
  9
$HANDSEED
  5
62C4
  9
$SURFTAB1
 70
     6
  9
$SURFTAB2
 70
     6
  9
$SURFTYPE
 70
     6
  9
$SURFU
 70
     6
  9
$SURFV
 70
     6
  9
$UCSNAME
  2

  9
$UCSORG
 10
0.0
 20
0.0
 30
0.0
  9
$UCSXDIR
 10
1.0
 20
0.0
 30
0.0
  9
$UCSYDIR
 10
0.0
 20
1.0
 30
0.0
  9
$PUCSNAME
  2

  9
$PUCSORG
 10
0.0
 20
0.0
 30
0.0
  9
$PUCSXDIR
 10
1.0
 20
0.0
 30
0.0
  9
$PUCSYDIR
 10
0.0
 20
1.0
 30
0.0
  9
$USERI1
 70
     0
  9
$USERI2
 70
     0
  9
$USERI3
 70
     0
  9
$USERI4
 70
     0
  9
$USERI5
 70
     0
  9
$USERR1
 40
0.0
  9
$USERR2
 40
0.0
  9
$USERR3
 40
0.0
  9
$USERR4
 40
0.0
  9
$USERR5
 40
0.0
  9
$WORLDVIEW
 70
     1
  9
$SHADEDGE
 70
     3
  9
$SHADEDIF
 70
    70
  9
$TILEMODE
 70
     1
  9
$MAXACTVP
 70
    64
  9
$PINSBASE
 10
0.0
 20
0.0
 30
0.0
  9
$PLIMCHECK
 70
     0
  9
$PEXTMIN
 10
1.000000000000000E+20
 20
1.000000000000000E+20
 30
1.000000000000000E+20
  9
$PEXTMAX
 10
-1.000000000000000E+20
 20
-1.000000000000000E+20
 30
-1.000000000000000E+20
  9
$PLIMMIN
 10
0.0
 20
0.0
  9
$PLIMMAX
 10
841.0
 20
594.0
  9
$UNITMODE
 70
     0
  9
$VISRETAIN
 70
     1
  9
$PLINEGEN
 70
     0
  9
$PSLTSCALE
 70
     0
  9
$TREEDEPTH
 70
  3020
  9
$PICKSTYLE
 70
     0
  9
$CMLSTYLE
  2
STANDARD
  9
$CMLJUST
 70
     0
  9
$CMLSCALE
 40
20.0
  9
$PROXYGRAPHICS
 70
     1
  9
$MEASUREMENT
 70
     1
  0
ENDSEC
  0
SECTION
  2
CLASSES
  0
CLASS
  1
ACDBDICTIONARYWDFLT
  2
AcDbDictionaryWithDefault
  3
AutoCAD 2000
 90
        0
280
     0
281
     0
  0
CLASS
  1
ACDBPLACEHOLDER
  2
AcDbPlaceHolder
  3
AutoCAD 2000
 90
        0
280
     0
281
     0
  0
CLASS
  1
LAYOUT
  2
AcDbLayout
  3
AutoCAD 2000
 90
        0
280
     0
281
     0
  0
CLASS
  1
AMGSETTINGSOBJ
  2
AmgSettingsObj
  3
"AcadM|Product Description: AutoCAD Mechanical 2000|Company: Autodesk"
 90
        0
280
     0
281
     0
  0
CLASS
  1
ACME_DOCUMENT
  2
AcMeDbDoc
  3
AcMeServices
 90
        0
280
     0
281
     0
  0
CLASS
  1
ACMESCOPE
  2
AcMeScope
  3
AcMeServices
 90
        0
280
     0
281
     0
  0
CLASS
  1
ACMECOMMANDHISTORY
  2
AcMeCommandHistory
  3
AcMeServices
 90
        0
280
     0
281
     0
  0
CLASS
  1
DICTIONARYVAR
  2
AcDbDictionaryVar
  3
AutoCAD 2000
 90
        0
280
     0
281
     0
  0
CLASS
  1
ACIMSYSVARMAN
  2
AcImSysVarManager
  3
AcMeServices
 90
        0
280
     0
281
     0
  0
CLASS
  1
ACIMREALSYSVAR
  2
AcImRealSysVar
  3
AcMeServices
 90
        0
280
     0
281
     0
  0
CLASS
  1
ACIMINTSYSVAR
  2
AcImIntSysVar
  3
AcMeServices
 90
        0
280
     0
281
     0
  0
CLASS
  1
ACMEDRAWINGMAN
  2
AcMeDrawingMan
  3
AcMeServices
 90
        0
280
     0
281
     0
  0
CLASS
  1
ACMEVIEW
  2
AcMeView
  3
AcMeServices
 90
        0
280
     0
281
     0
  0
CLASS
  1
ACDBENTITYCACHE
  2
AcMeEntityCache
  3
AcMeServices
 90
        0
280
     0
281
     0
  0
CLASS
  1
GSMANAGER
  2
AcMeGSManager
  3
AcMeServices
 90
        0
280
     0
281
     0
  0
CLASS
  1
AmdtInternalReactor
  2
AmdtInternalReactor
  3
AcMeServices
 90
        0
280
     0
281
     0
  0
CLASS
  1
ACMESTATEMGR
  2
AcMeStateMgr
  3
AcMeServices
 90
        0
280
     0
281
     0
  0
CLASS
  1
ACME_DATABASE
  2
AcMeDbDatabase
  3
AcMeServices
 90
        0
280
     0
281
     0
  0
CLASS
  1
ACRFINSADJUSTERMGR
  2
AcRfInsAdjusterMgr
  3
AcMeServices
 90
        0
280
     0
281
     0
  0
CLASS
  1
ACMDATADICTIONARY
  2
AcmDataDictionary
  3
"AcmSymBB|Product Description: AutoCAD Mechanical 2000|Company: Autodesk"
 90
        0
280
     0
281
     0
  0
CLASS
  1
ACMDATAENTRYBLOCK
  2
AcmDataEntryBlock
  3
"AcmSymBB|Product Description: AutoCAD Mechanical 2000|Company: Autodesk"
 90
        0
280
     0
281
     0
  0
CLASS
  1
AMGOBJPROPCFG
  2
AmgObjPropCfg
  3
"AmgLay|Product Description: AutoCAD Mechanical 2000|Company: Autodesk"
 90
        1
280
     0
281
     0
  0
CLASS
  1
ACAMGFILTERDAT
  2
AcAmgFilterDat
  3
"AcadM|Product Description: AutoCAD Mechanical 2000|Company: Autodesk"
 90
        0
280
     0
281
     0
  0
CLASS
  1
LAYER_INDEX
  2
AcDbLayerIndex
  3
AutoCAD 2000
 90
        0
280
     0
281
     0
  0
CLASS
  1
IDBUFFER
  2
AcDbIdBuffer
  3
AutoCAD 2000
 90
        0
280
     0
281
     0
  0
CLASS
  1
ACIMSTRSYSVAR
  2
AcImStrSysVar
  3
AcMeServices
 90
        0
280
     0
281
     0
  0
CLASS
  1
ACMSTANDARDJIS
  2
AcmStandardJIS
  3
"AcmSymBB|Product Description: AutoCAD Mechanical 2000|Company: Autodesk"
 90
        0
280
     0
281
     0
  0
CLASS
  1
ACMSURFSTANDARDJIS
  2
AcmSurfTextStdJIS
  3
"AcmSymBB|Product Description: AutoCAD Mechanical 2000|Company: Autodesk"
 90
        0
280
     0
281
     0
  0
CLASS
  1
ACMFCFSTANDARDJIS
  2
AcmFCFStdJIS
  3
"AcmSymBB|Product Description: AutoCAD Mechanical 2000|Company: Autodesk"
 90
        0
280
     0
281
     0
  0
CLASS
  1
ACMWELDSTANDARDJIS
  2
AcmWeldingStdJIS
  3
"AcmSymBB|Product Description: AutoCAD Mechanical 2000|Company: Autodesk"
 90
        0
280
     0
281
     0
  0
CLASS
  1
ACMIDSTANDARDJIS
  2
AcmIdStdJIS
  3
"AcmSymBB|Product Description: AutoCAD Mechanical 2000|Company: Autodesk"
 90
        0
280
     0
281
     0
  0
CLASS
  1
ACMDATUMSTANDARDJIS
  2
AcmDatumStdJIS
  3
"AcmSymBB|Product Description: AutoCAD Mechanical 2000|Company: Autodesk"
 90
        0
280
     0
281
     0
  0
CLASS
  1
ACMBOMSTANDARDJIS
  2
AcmBOMStdJIS
  3
"AcmSymBB|Product Description: AutoCAD Mechanical 2000|Company: Autodesk"
 90
        0
280
     0
281
     0
  0
CLASS
  1
ACMSTANDARDANSI
  2
AcmStandardANSI
  3
"AcmSymBB|Product Description: AutoCAD Mechanical 2000|Company: Autodesk"
 90
        0
280
     0
281
     0
  0
CLASS
  1
ACMSURFSTANDARDANSI
  2
AcmSurfTextStdANSI
  3
"AcmSymBB|Product Description: AutoCAD Mechanical 2000|Company: Autodesk"
 90
        0
280
     0
281
     0
  0
CLASS
  1
ACMFCFSTANDARDANSI
  2
AcmFCFStdANSI
  3
"AcmSymBB|Product Description: AutoCAD Mechanical 2000|Company: Autodesk"
 90
        0
280
     0
281
     0
  0
CLASS
  1
ACMWELDSTANDARDANSI
  2
AcmWeldingStdANSI
  3
"AcmSymBB|Product Description: AutoCAD Mechanical 2000|Company: Autodesk"
 90
        0
280
     0
281
     0
  0
CLASS
  1
ACMIDSTANDARDANSI
  2
AcmIdStdANSI
  3
"AcmSymBB|Product Description: AutoCAD Mechanical 2000|Company: Autodesk"
 90
        0
280
     0
281
     0
  0
CLASS
  1
ACMDATUMSTANDARDANSI
  2
AcmDatumStdANSI
  3
"AcmSymBB|Product Description: AutoCAD Mechanical 2000|Company: Autodesk"
 90
        0
280
     0
281
     0
  0
CLASS
  1
ACMBOMSTANDARDANSI
  2
AcmBOMStdANSI
  3
"AcmSymBB|Product Description: AutoCAD Mechanical 2000|Company: Autodesk"
 90
        0
280
     0
281
     0
  0
CLASS
  1
ACMSTANDARDBSI
  2
AcmStandardBSI
  3
"AcmSymBB|Product Description: AutoCAD Mechanical 2000|Company: Autodesk"
 90
        0
280
     0
281
     0
  0
CLASS
  1
ACMSURFSTANDARDBSI
  2
AcmSurfTextStdBSI
  3
"AcmSymBB|Product Description: AutoCAD Mechanical 2000|Company: Autodesk"
 90
        0
280
     0
281
     0
  0
CLASS
  1
ACMFCFSTANDARDBSI
  2
AcmFCFStdBSI
  3
"AcmSymBB|Product Description: AutoCAD Mechanical 2000|Company: Autodesk"
 90
        0
280
     0
281
     0
  0
CLASS
  1
ACMWELDSTANDARDBSI
  2
AcmWeldingStdBSI
  3
"AcmSymBB|Product Description: AutoCAD Mechanical 2000|Company: Autodesk"
 90
        0
280
     0
281
     0
  0
CLASS
  1
ACMIDSTANDARDBSI
  2
AcmIdStdBSI
  3
"AcmSymBB|Product Description: AutoCAD Mechanical 2000|Company: Autodesk"
 90
        0
280
     0
281
     0
  0
CLASS
  1
ACMDATUMSTANDARDBSI
  2
AcmDatumStdBSI
  3
"AcmSymBB|Product Description: AutoCAD Mechanical 2000|Company: Autodesk"
 90
        0
280
     0
281
     0
  0
CLASS
  1
ACMBOMSTANDARDBSI
  2
AcmBOMStdBSI
  3
"AcmSymBB|Product Description: AutoCAD Mechanical 2000|Company: Autodesk"
 90
        0
280
     0
281
     0
  0
CLASS
  1
LONG_TRANSACTION
  2
AcDbLongTransaction
  3
AutoCAD 2000
 90
        0
280
     0
281
     0
  0
CLASS
  1
LWPOLYLINE
  2
AcDbPolyline
  3
AutoCAD 2000
 90
        0
280
     0
281
     1
  0
CLASS
  1
HATCH
  2
AcDbHatch
  3
AutoCAD 2000
 90
        0
280
     0
281
     1
  0
CLASS
  1
XRECORD
  2
AcDbXrecord
  3
AutoCAD 2000
 90
        0
280
     0
281
     0
  0
ENDSEC
  0
SECTION
  2
TABLES
  0
TABLE
  2
VPORT
  5
8
330
0
100
AcDbSymbolTable
 70
     3
  0
VPORT
  5
6299
330
8
100
AcDbSymbolTableRecord
100
AcDbViewportTableRecord
  2
*ACTIVE
 70
     0
 10
0.0
 20
0.0
 11
1.0
 21
1.0
 12
-40.14984554779224
 22
-28.09257934091453
 13
0.0
 23
0.0
 14
2.5
 24
2.5
 15
10.0
 25
10.0
 16
0.0
 26
0.0
 36
1.0
 17
0.0
 27
0.0
 37
0.0
 40
219.1715685107265
 41
1.56570841889117
 42
50.0
 43
0.0
 44
0.0
 50
0.0
 51
0.0
 71
     0
 72
   100
 73
     1
 74
     3
 75
     0
 76
     0
 77
     0
 78
     0
  0
ENDTAB
  0
TABLE
  2
LTYPE
  5
5
330
0
100
AcDbSymbolTable
 70
    10
  0
LTYPE
  5
14
330
5
100
AcDbSymbolTableRecord
100
AcDbLinetypeTableRecord
  2
BYBLOCK
 70
     0
  3

 72
    65
 73
     0
 40
0.0
  0
LTYPE
  5
15
330
5
100
AcDbSymbolTableRecord
100
AcDbLinetypeTableRecord
  2
BYLAYER
 70
     0
  3

 72
    65
 73
     0
 40
0.0
  0
LTYPE
  5
16
330
5
100
AcDbSymbolTableRecord
100
AcDbLinetypeTableRecord
  2
CONTINUOUS
 70
     0
  3
Solid line
 72
    65
 73
     0
 40
0.0
  0
LTYPE
  5
4B
330
5
100
AcDbSymbolTableRecord
100
AcDbLinetypeTableRecord
  2
AM_ISO02W050
 70
     0
  3
__ __ __ __ __ __ __ __ __ __ __ __ __ __ __
 72
    65
 73
     2
 40
7.5
 49
6.0
 74
     0
 49
-1.5
 74
     0
  0
LTYPE
  5
4C
330
5
100
AcDbSymbolTableRecord
100
AcDbLinetypeTableRecord
  2
AM_ISO08W050
 70
     0
  3
____ . ____ . ____ . ____ . ____ . ____ . ____
 72
    65
 73
     4
 40
18.0
 49
12.0
 74
     0
 49
-1.5
 74
     0
 49
3.0
 74
     0
 49
-1.5
 74
     0
  0
LTYPE
  5
4D
330
5
100
AcDbSymbolTableRecord
100
AcDbLinetypeTableRecord
  2
AM_ISO09W050
 70
     0
  3
_____ . . _____ . . _____ . . ____ .. ____
 72
    65
 73
     6
 40
22.5
 49
12.0
 74
     0
 49
-1.5
 74
     0
 49
3.0
 74
     0
 49
-1.5
 74
     0
 49
3.0
 74
     0
 49
-1.5
 74
     0
  0
LTYPE
  5
4E
330
5
100
AcDbSymbolTableRecord
100
AcDbLinetypeTableRecord
  2
AMCONSTR
 70
     0
  3
_______________________
 72
    65
 73
     2
 40
9999.0
 49
9999.0
 74
     0
 49
0.0
 74
     0
  0
LTYPE
  5
4F
330
5
100
AcDbSymbolTableRecord
100
AcDbLinetypeTableRecord
  2
AM_ISO02W050X2
 70
     0
  3
 _ _ _ _ _ _ _ _ _ _ _ _
 72
    65
 73
     2
 40
3.75
 49
3.0
 74
     0
 49
-0.75
 74
     0
  0
LTYPE
  5
50
330
5
100
AcDbSymbolTableRecord
100
AcDbLinetypeTableRecord
  2
AM_ISO08W050X2
 70
     0
  3
__ . __ . __ . __ . __ . __
 72
    65
 73
     4
 40
9.0
 49
6.0
 74
     0
 49
-0.75
 74
     0
 49
1.5
 74
     0
 49
-0.75
 74
     0
  0
LTYPE
  5
53
330
5
100
AcDbSymbolTableRecord
100
AcDbLinetypeTableRecord
  2
AMZIGZAG
 70
     0
  3
/\/-/\/-/\/-/\/-/\/-/\/
 72
    65
 73
     2
 40
11.00009999999999
 49
0.0001
 74
     4
 75
   135
340
52
 46
0.04
 50
0.0
 44
0.0
 45
0.0
 49
-11.0
 74
     0
  0
LTYPE
  5
166
330
5
100
AcDbSymbolTableRecord
100
AcDbLinetypeTableRecord
  2
ACJISTGL
 70
     0
  3
_ _ _ _ _
 72
    65
 73
     2
 40
3.0
 49
2.0
 74
     0
 49
-1.0
 74
     0
  0
LTYPE
  5
26A
330
5
100
AcDbSymbolTableRecord
100
AcDbLinetypeTableRecord
  2
ACJISTGB
 70
     0
  3
__ . . __ . .
 72
    65
 73
     6
 40
9.0
 49
4.0
 74
     0
 49
-1.0
 74
     0
 49
1.0
 74
     0
 49
-1.0
 74
     0
 49
1.0
 74
     0
 49
-1.0
 74
     0
  0
ENDTAB
  0
TABLE
  2
LAYER
  5
2
330
0
100
AcDbSymbolTable
 70
     8
  0
LAYER
  5
10
330
2
100
AcDbSymbolTableRecord
100
AcDbLayerTableRecord
  2
0
 70
     0
 62
     7
  6
CONTINUOUS
  0
LAYER
  5
3F9
330
2
100
AcDbSymbolTableRecord
100
AcDbLayerTableRecord
  2
AM_0
 70
     0
 62
     7
  6
CONTINUOUS
  0
LAYER
  5
BD5
330
2
100
AcDbSymbolTableRecord
100
AcDbLayerTableRecord
  2
AM_7
 70
     0
 62
     4
  6
AM_ISO08W050
  0
LAYER
  5
BD6
330
2
100
AcDbSymbolTableRecord
100
AcDbLayerTableRecord
  2
AM_5
 70
     0
 62
     3
  6
CONTINUOUS
  0
LAYER
  5
BD7
330
2
100
AcDbSymbolTableRecord
100
AcDbLayerTableRecord
  2
DEFPOINTS
 70
     0
 62
     7
  6
CONTINUOUS
  0
LAYER
  5
E59
330
2
100
AcDbSymbolTableRecord
100
AcDbLayerTableRecord
  2
AM_6
 70
     0
 62
     2
  6
CONTINUOUS
  0
LAYER
  5
1E31
330
2
100
AcDbSymbolTableRecord
100
AcDbLayerTableRecord
  2
AM_11
 70
     0
 62
     3
  6
AM_ISO09W050
  0
LAYER
  5
1E41
330
2
100
AcDbSymbolTableRecord
100
AcDbLayerTableRecord
  2
AM_3
 70
     0
 62
     6
  6
ACJISTGL
  0
ENDTAB
  0
TABLE
  2
STYLE
  5
3
330
0
100
AcDbSymbolTable
 70
     5
  0
STYLE
  5
11
330
3
100
AcDbSymbolTableRecord
100
AcDbTextStyleTableRecord
  2
STANDARD
 70
     0
 40
0.0
 41
1.0
 50
0.0
 71
     0
 42
2.5
  3
simplex.shx
  4
EXTFONT.SHX
  0
STYLE
  5
52
330
3
100
AcDbSymbolTableRecord
100
AcDbTextStyleTableRecord
  2

 70
     1
 40
0.0
 41
1.0
 50
0.0
 71
     0
 42
2.5
  3
ltypeshp.shx
  4

  0
STYLE
  5
6B
330
3
100
AcDbSymbolTableRecord
100
AcDbTextStyleTableRecord
  2
ASAMI
 70
     0
 40
0.0
 41
1.0
 50
0.0
 71
     0
 42
2.5
  3
simplex.shx
  4
EXTFONT.SHX
  0
STYLE
  5
262
330
3
100
AcDbSymbolTableRecord
100
AcDbTextStyleTableRecord
  2
ACJISTS
 70
     0
 40
1.0
 41
1.0
 50
0.0
 71
     0
 42
2.5
  3
simplex.shx
  4
bigfont.shx
  0
STYLE
  5
269
330
3
100
AcDbSymbolTableRecord
100
AcDbTextStyleTableRecord
  2
ACJISGDT
 70
     0
 40
0.0
 41
1.0
 50
0.0
 71
     0
 42
2.5
  3
amgdtans.shx
  4

  0
ENDTAB
  0
TABLE
  2
VIEW
  5
6
330
0
100
AcDbSymbolTable
 70
     0
  0
ENDTAB
  0
TABLE
  2
UCS
  5
7
330
0
100
AcDbSymbolTable
 70
     0
  0
ENDTAB
  0
TABLE
  2
APPID
  5
9
330
0
100
AcDbSymbolTable
 70
    13
  0
APPID
  5
12
330
9
100
AcDbSymbolTableRecord
100
AcDbRegAppTableRecord
  2
ACAD
 70
     0
  0
APPID
  5
30
330
9
100
AcDbSymbolTableRecord
100
AcDbRegAppTableRecord
  2
MCAD_NO_VIS
 70
     0
  0
APPID
  5
31
330
9
100
AcDbSymbolTableRecord
100
AcDbRegAppTableRecord
  2
ACAD_TEMP_GRAPHIC
 70
     0
  0
APPID
  5
2C2
330
9
100
AcDbSymbolTableRecord
100
AcDbRegAppTableRecord
  2
GENIUS_GENDTOL_13
 70
     0
  0
APPID
  5
339
330
9
100
AcDbSymbolTableRecord
100
AcDbRegAppTableRecord
  2
GENIUS_GENODEF_13
 70
     0
  0
APPID
  5
33A
330
9
100
AcDbSymbolTableRecord
100
AcDbRegAppTableRecord
  2
GENIUS_GENOBJ-N-RSBK_13
 70
     0
  0
APPID
  5
33B
330
9
100
AcDbSymbolTableRecord
100
AcDbRegAppTableRecord
  2
GENIUS_GENOBJ-N-LIB_13
 70
     0
  0
APPID
  5
33C
330
9
100
AcDbSymbolTableRecord
100
AcDbRegAppTableRecord
  2
GENIUS_GENSCALE_13
 70
     0
  0
APPID
  5
378
330
9
100
AcDbSymbolTableRecord
100
AcDbRegAppTableRecord
  2
GENIUS_GENDIMSH_14
 70
     0
  0
APPID
  5
BD8
330
9
100
AcDbSymbolTableRecord
100
AcDbRegAppTableRecord
  2
GENIUS_GENOBJ-N-CEN_13
 70
     0
  0
APPID
  5
BD9
330
9
100
AcDbSymbolTableRecord
100
AcDbRegAppTableRecord
  2
GENIUS_GENFIL_13
 70
     0
  0
APPID
  5
BDA
330
9
100
AcDbSymbolTableRecord
100
AcDbRegAppTableRecord
  2
GENIUS_GENOBJ-N-CHA_13
 70
     0
  0
APPID
  5
2BC1
330
9
100
AcDbSymbolTableRecord
100
AcDbRegAppTableRecord
  2
GENIUS_GENOBJ-N-FIL_13
 70
     0
  0
ENDTAB
  0
TABLE
  2
DIMSTYLE
  5
A
330
0
100
AcDbSymbolTable
 70
     9
  0
DIMSTYLE
105
58
102
{ACAD_REACTORS
330
5D23
330
5D24
330
5D25
330
5D26
330
5D27
330
5D28
330
5D29
102
}
330
A
100
AcDbSymbolTableRecord
100
AcDbDimStyleTableRecord
  2
AM_JIS
 70
     0
  3

  4
"
  5
OPEN30
  6

  7

 40
1.0
 41
2.5
 42
1.0
 43
12.0
 44
1.0
 45
0.0
 46
0.0
 47
0.1
 48
0.1
140
3.2
141
0.0
142
0.0
143
0.0393701
144
1.0
145
0.0
146
0.71
147
1.5
 71
     0
 72
     0
 73
     0
 74
     0
 75
     0
 76
     0
 77
     3
 78
     8
170
     0
171
     2
172
     1
173
     0
174
     0
175
     0
176
   256
177
   256
178
     2
270
     2
271
     3
272
     3
273
     2
274
     2
340
6B
275
     0
280
     0
281
     0
282
     0
283
     0
284
     0
285
     0
286
     0
287
     3
288
     0
  0
DIMSTYLE
105
5F
330
A
100
AcDbSymbolTableRecord
100
AcDbDimStyleTableRecord
  2
AM_JIS$3
 70
     0
  3

  4
"
  5
OPEN30
  6

  7

 40
1.0
 41
2.5
 42
1.0
 43
10.0
 44
1.0
 45
0.0
 46
0.0
 47
0.1
 48
0.1
140
3.2
141
0.0
142
0.0
143
0.0393701
144
1.0
145
0.0
146
0.71
147
1.5
 71
     0
 72
     0
 73
     0
 74
     1
 75
     0
 76
     0
 77
     3
 78
     8
170
     0
171
     2
172
     0
173
     0
174
     0
175
     0
176
   256
177
   256
178
     2
270
     2
271
     2
272
     3
273
     2
274
     2
340
6B
275
     0
280
     0
281
     0
282
     0
283
     0
284
     0
285
     0
286
     0
287
     0
288
     1
  0
DIMSTYLE
105
60
330
A
100
AcDbSymbolTableRecord
100
AcDbDimStyleTableRecord
  2
AM_JIS$4
 70
     0
  3

  4
"
  5
OPEN30
  6

  7

 40
1.0
 41
2.5
 42
1.0
 43
10.0
 44
1.0
 45
0.0
 46
0.0
 47
0.1
 48
0.1
140
3.2
141
0.0
142
0.0
143
0.0393701
144
1.0
145
0.0
146
0.71
147
1.5
 71
     0
 72
     0
 73
     0
 74
     1
 75
     0
 76
     0
 77
     3
 78
     8
170
     0
171
     2
172
     0
173
     0
174
     0
175
     0
176
   256
177
   256
178
     2
270
     2
271
     2
272
     3
273
     2
274
     2
340
6B
275
     0
280
     0
281
     0
282
     0
283
     0
284
     0
285
     0
286
     0
287
     0
288
     1
  0
DIMSTYLE
105
61
330
A
100
AcDbSymbolTableRecord
100
AcDbDimStyleTableRecord
  2
AM_JIS$6
 70
     0
  3

  4
"
  5
OPEN30
  6

  7

 40
1.0
 41
2.5
 42
1.0
 43
10.0
 44
1.0
 45
0.0
 46
0.0
 47
0.1
 48
0.1
140
3.2
141
0.0
142
0.0
143
0.0393701
144
1.0
145
0.0
146
0.71
147
1.5
 71
     0
 72
     0
 73
     0
 74
     0
 75
     0
 76
     0
 77
     0
 78
     8
170
     0
171
     2
172
     1
173
     0
174
     0
175
     0
176
   256
177
   256
178
     2
270
     2
271
     2
272
     2
273
     2
274
     2
340
6B
275
     0
280
     0
281
     0
282
     0
283
     0
284
     0
285
     0
286
     0
287
     3
288
     0
  0
DIMSTYLE
105
62
330
A
100
AcDbSymbolTableRecord
100
AcDbDimStyleTableRecord
  2
AM_JIS$7
 70
     0
  3

  4
"
  5
OPEN30
  6

  7

 40
1.0
 41
2.5
 42
1.0
 43
10.0
 44
1.0
 45
0.0
 46
0.0
 47
0.1
 48
0.1
140
3.2
141
0.0
142
0.0
143
0.0393701
144
1.0
145
0.0
146
0.71
147
1.5
 71
     0
 72
     0
 73
     0
 74
     0
 75
     0
 76
     0
 77
     3
 78
     8
170
     0
171
     2
172
     1
173
     0
174
     0
175
     0
176
   256
177
   256
178
     2
270
     2
271
     2
272
     3
273
     2
274
     2
340
6B
275
     0
280
     0
281
     0
282
     0
283
     0
284
     0
285
     0
286
     0
287
     3
288
     0
  0
DIMSTYLE
105
63
330
A
100
AcDbSymbolTableRecord
100
AcDbDimStyleTableRecord
  2
AM_JIS$SF
 70
     0
  3

  4
"
  5
OPEN30
  6

  7

 40
1.0
 41
2.5
 42
1.0
 43
10.0
 44
1.0
 45
0.0
 46
0.0
 47
0.1
 48
0.1
140
3.2
141
0.0
142
0.0
143
0.0393701
144
1.0
145
0.0
146
0.71
147
1.5
 71
     0
 72
     0
 73
     0
 74
     0
 75
     1
 76
     1
 77
     3
 78
     8
170
     0
171
     2
172
     1
173
     0
174
     0
175
     0
176
   256
177
   256
178
     2
270
     2
271
     2
272
     2
273
     2
274
     2
340
6B
275
     0
280
     0
281
     0
282
     0
283
     0
284
     0
285
     0
286
     0
287
     3
288
     0
  0
DIMSTYLE
105
68
330
A
100
AcDbSymbolTableRecord
100
AcDbDimStyleTableRecord
  2
AM_JIS$SH
 70
     0
  3

  4
"
  5

  6
GENAXEH
  7
OPEN30
 40
1.0
 41
2.5
 42
1.0
 43
10.0
 44
1.0
 45
0.0
 46
0.0
 47
0.1
 48
0.1
140
3.2
141
0.0
142
0.0
143
0.0393701
144
2.0
145
0.0
146
0.71
147
1.5
 71
     0
 72
     0
 73
     0
 74
     0
 75
     1
 76
     1
 77
     3
 78
     8
170
     0
171
     2
172
     1
173
     1
174
     0
175
     0
176
   256
177
   256
178
     2
270
     2
271
     2
272
     2
273
     2
274
     2
340
6B
275
     0
280
     0
281
     0
282
     0
283
     0
284
     0
285
     0
286
     0
287
     3
288
     0
  0
DIMSTYLE
105
B34
330
A
100
AcDbSymbolTableRecord
100
AcDbDimStyleTableRecord
  2
AM_JIS$2
 70
     0
  3

  4
"
  5
OPEN30
  6

  7

 40
1.0
 41
2.5
 42
1.0
 43
12.0
 44
1.0
 45
0.0
 46
0.0
 47
0.1
 48
0.1
140
3.2
141
0.0
142
0.0
143
0.0393701
144
1.0
145
0.0
146
0.71
147
1.5
 71
     0
 72
     0
 73
     0
 74
     0
 75
     0
 76
     0
 77
     3
 78
     8
170
     0
171
     2
172
     1
173
     0
174
     0
175
     0
176
   256
177
   256
178
     2
270
     2
271
     3
272
     3
273
     2
274
     2
340
6B
275
     0
280
     0
281
     0
282
     0
283
     0
284
     0
285
     0
286
     0
287
     3
288
     0
  0
DIMSTYLE
105
1E42
330
A
100
AcDbSymbolTableRecord
100
AcDbDimStyleTableRecord
  2
AM_JIS$0
 70
     0
  3

  4
"
  5
OPEN30
  6

  7

 40
2.0
 41
2.5
 42
1.0
 43
10.0
 44
1.0
 45
0.0
 46
0.0
 47
0.1
 48
0.1
140
2.5
141
0.0
142
0.0
143
0.0393701
144
1.0
145
0.0
146
0.71
147
1.0
 71
     0
 72
     0
 73
     0
 74
     0
 75
     0
 76
     0
 77
     3
 78
     8
170
     0
171
     2
172
     1
173
     0
174
     0
175
     0
176
   256
177
   256
178
     4
270
     2
271
     3
272
     3
273
     2
274
     2
340
6B
275
     0
280
     0
281
     0
282
     0
283
     0
284
     0
285
     0
286
     0
287
     3
288
     0
  0
ENDTAB
  0
TABLE
  2
BLOCK_RECORD
  5
1
330
0
100
AcDbSymbolTable
 70
    12
  0
BLOCK_RECORD
  5
1F
102
{ACAD_XDICTIONARY
360
74
102
}
330
1
100
AcDbSymbolTableRecord
100
AcDbBlockTableRecord
  2
*MODEL_SPACE
  0
BLOCK_RECORD
  5
101
102
{ACAD_XDICTIONARY
360
62C2
102
}
330
1
100
AcDbSymbolTableRecord
100
AcDbBlockTableRecord
  2
*PAPER_SPACE
  0
BLOCK_RECORD
  5
59
330
1
100
AcDbSymbolTableRecord
100
AcDbBlockTableRecord
  2
_OPEN30
  0
BLOCK_RECORD
  5
64
330
1
100
AcDbSymbolTableRecord
100
AcDbBlockTableRecord
  2
GENAXEH
  0
BLOCK_RECORD
  5
5D2B
330
1
100
AcDbSymbolTableRecord
100
AcDbBlockTableRecord
  2
*D5
  0
BLOCK_RECORD
  5
5D39
330
1
100
AcDbSymbolTableRecord
100
AcDbBlockTableRecord
  2
*D6
  0
BLOCK_RECORD
  5
5D45
330
1
100
AcDbSymbolTableRecord
100
AcDbBlockTableRecord
  2
*D7
  0
BLOCK_RECORD
  5
5D51
330
1
100
AcDbSymbolTableRecord
100
AcDbBlockTableRecord
  2
*D8
  0
BLOCK_RECORD
  5
5D5D
330
1
100
AcDbSymbolTableRecord
100
AcDbBlockTableRecord
  2
*D9
  0
BLOCK_RECORD
  5
5D69
330
1
100
AcDbSymbolTableRecord
100
AcDbBlockTableRecord
  2
*D10
  0
BLOCK_RECORD
  5
5D75
330
1
100
AcDbSymbolTableRecord
100
AcDbBlockTableRecord
  2
*D11
  0
ENDTAB
  0
ENDSEC
  0
SECTION
  2
BLOCKS
  0
BLOCK
  5
20
330
1F
100
AcDbEntity
  8
0
100
AcDbBlockBegin
  2
*MODEL_SPACE
 70
     0
 10
0.0
 20
0.0
 30
0.0
  3
*MODEL_SPACE
  1

  0
ENDBLK
  5
21
330
1F
100
AcDbEntity
  8
0
100
AcDbBlockEnd
  0
BLOCK
  5
103
330
101
100
AcDbEntity
 67
     1
  8
0
100
AcDbBlockBegin
  2
*PAPER_SPACE
 70
     0
 10
0.0
 20
0.0
 30
0.0
  3
*PAPER_SPACE
  1

  0
ENDBLK
  5
104
330
101
100
AcDbEntity
 67
     1
  8
0
100
AcDbBlockEnd
  0
BLOCK
  5
5D
330
59
100
AcDbEntity
  8
0
100
AcDbBlockBegin
  2
_OPEN30
 70
     0
 10
0.0
 20
0.0
 30
0.0
  3
_OPEN30
  1

  0
LINE
  5
5A
330
59
100
AcDbEntity
  8
0
 62
     0
100
AcDbLine
 10
-1.0
 20
0.26794919
 30
0.0
 11
0.0
 21
0.0
 31
0.0
  0
LINE
  5
5B
330
59
100
AcDbEntity
  8
0
 62
     0
100
AcDbLine
 10
0.0
 20
0.0
 30
0.0
 11
-1.0
 21
-0.26794919
 31
0.0
  0
LINE
  5
5C
330
59
100
AcDbEntity
  8
0
 62
     0
100
AcDbLine
 10
0.0
 20
0.0
 30
0.0
 11
-1.0
 21
0.0
 31
0.0
  0
ENDBLK
  5
5E
330
59
100
AcDbEntity
  8
0
100
AcDbBlockEnd
  0
BLOCK
  5
66
330
64
100
AcDbEntity
  8
0
100
AcDbBlockBegin
  2
GENAXEH
 70
     0
 10
0.0
 20
0.0
 30
0.0
  3
GENAXEH
  1

  0
LINE
  5
65
330
64
100
AcDbEntity
  8
0
100
AcDbLine
 10
-1.0
 20
0.0
 30
0.0
 11
1.0
 21
0.0
 31
0.0
  0
ENDBLK
  5
67
330
64
100
AcDbEntity
  8
0
100
AcDbBlockEnd
  0
BLOCK
  5
5D37
330
5D2B
100
AcDbEntity
  8
0
100
AcDbBlockBegin
  2
*D5
 70
     1
 10
0.0
 20
0.0
 30
0.0
  3
*D5
  1

  0
LINE
  5
5F55
330
5D2B
100
AcDbEntity
  8
AM_5
100
AcDbLine
 10
-59.20000000000001
 20
9.5
 30
0.0
 11
-79.32409633116828
 21
9.500000000000007
 31
0.0
  0
LINE
  5
5F56
330
5D2B
100
AcDbEntity
  8
AM_5
100
AcDbLine
 10
-59.20000000000001
 20
-9.5
 30
0.0
 11
-79.32409633116828
 21
-9.499999999999992
 31
0.0
  0
LINE
  5
5F57
330
5D2B
100
AcDbEntity
  8
AM_5
100
AcDbLine
 10
-78.32409633116828
 20
7.000000000000007
 30
0.0
 11
-78.32409633116828
 21
-6.999999999999992
 31
0.0
  0
INSERT
  5
5F58
330
5D2B
100
AcDbEntity
  8
AM_5
100
AcDbBlockReference
  2
_OPEN30
 10
-78.32409633116828
 20
9.500000000000007
 30
0.0
 41
2.5
 42
2.5
 43
2.5
 50
90.0
  0
INSERT
  5
5F59
330
5D2B
100
AcDbEntity
  8
AM_5
100
AcDbBlockReference
  2
_OPEN30
 10
-78.32409633116828
 20
-9.499999999999992
 30
0.0
 41
2.5
 42
2.5
 43
2.5
 50
270.0
  0
MTEXT
  5
5F5A
330
5D2B
100
AcDbEntity
  8
AM_5
 62
     2
100
AcDbMText
 10
-81.42409633116827
 20
-0.0000000000000351
 30
0.0
 40
3.2
 41
0.0
 71
     5
 72
     1
  1
19
  7
ASAMI
 11
0.0000000000000001
 21
1.0
 31
0.0
1001
ACAD
1000
MTEXTBEGIN
1070
    73
1070
     1
1070
    44
1040
1.0
1070
    74
1070
     0
1000
MTEXTEND
  0
POINT
  5
5F5B
330
5D2B
100
AcDbEntity
  8
DEFPOINTS
 62
     0
100
AcDbPoint
 10
-58.20000000000002
 20
9.5
 30
0.0
  0
POINT
  5
5F5C
330
5D2B
100
AcDbEntity
  8
DEFPOINTS
 62
     0
100
AcDbPoint
 10
-58.20000000000002
 20
-9.5
 30
0.0
  0
POINT
  5
5F5D
330
5D2B
100
AcDbEntity
  8
DEFPOINTS
 62
     0
100
AcDbPoint
 10
-78.32409633116828
 20
-9.499999999999992
 30
0.0
  0
ENDBLK
  5
5D38
330
5D2B
100
AcDbEntity
  8
0
100
AcDbBlockEnd
  0
BLOCK
  5
5D43
330
5D39
100
AcDbEntity
  8
0
100
AcDbBlockBegin
  2
*D6
 70
     1
 10
0.0
 20
0.0
 30
0.0
  3
*D6
  1

  0
LINE
  5
5F4C
330
5D39
100
AcDbEntity
  8
AM_5
100
AcDbLine
 10
-49.08348486100885
 20
25.4
 30
0.0
 11
-89.32409633116828
 21
25.40000000000002
 31
0.0
  0
LINE
  5
5F4D
330
5D39
100
AcDbEntity
  8
AM_5
100
AcDbLine
 10
-49.08348486100885
 20
-25.4
 30
0.0
 11
-89.32409633116828
 21
-25.39999999999998
 31
0.0
  0
LINE
  5
5F4E
330
5D39
100
AcDbEntity
  8
AM_5
100
AcDbLine
 10
-88.32409633116828
 20
22.90000000000002
 30
0.0
 11
-88.32409633116828
 21
-22.89999999999998
 31
0.0
  0
INSERT
  5
5F4F
330
5D39
100
AcDbEntity
  8
AM_5
100
AcDbBlockReference
  2
_OPEN30
 10
-88.32409633116828
 20
25.40000000000002
 30
0.0
 41
2.5
 42
2.5
 43
2.5
 50
90.0
  0
INSERT
  5
5F50
330
5D39
100
AcDbEntity
  8
AM_5
100
AcDbBlockReference
  2
_OPEN30
 10
-88.32409633116828
 20
-25.39999999999998
 30
0.0
 41
2.5
 42
2.5
 43
2.5
 50
270.0
  0
MTEXT
  5
5F51
330
5D39
100
AcDbEntity
  8
AM_5
 62
     2
100
AcDbMText
 10
-91.42409633116827
 20
0.0000000000000022
 30
0.0
 40
3.2
 41
0.0
 71
     5
 72
     1
  1
%%c50.8
  7
ASAMI
 11
0.0000000000000001
 21
1.0
 31
0.0
1001
ACAD
1000
MTEXTBEGIN
1070
    73
1070
     1
1070
    44
1040
1.0
1070
    74
1070
     0
1000
MTEXTEND
  0
POINT
  5
5F52
330
5D39
100
AcDbEntity
  8
DEFPOINTS
 62
     0
100
AcDbPoint
 10
-48.08348486100886
 20
25.4
 30
0.0
  0
POINT
  5
5F53
330
5D39
100
AcDbEntity
  8
DEFPOINTS
 62
     0
100
AcDbPoint
 10
-48.08348486100886
 20
-25.4
 30
0.0
  0
POINT
  5
5F54
330
5D39
100
AcDbEntity
  8
DEFPOINTS
 62
     0
100
AcDbPoint
 10
-88.32409633116828
 20
-25.39999999999998
 30
0.0
  0
ENDBLK
  5
5D44
330
5D39
100
AcDbEntity
  8
0
100
AcDbBlockEnd
  0
BLOCK
  5
5D4F
330
5D45
100
AcDbEntity
  8
0
100
AcDbBlockBegin
  2
*D7
 70
     1
 10
0.0
 20
0.0
 30
0.0
  3
*D7
  1

  0
LINE
  5
5F31
330
5D45
100
AcDbEntity
  8
AM_5
100
AcDbLine
 10
-58.50000000000003
 20
50.0
 30
0.0
 11
-99.32409633116826
 21
50.0
 31
0.0
  0
LINE
  5
5F32
330
5D45
100
AcDbEntity
  8
AM_5
100
AcDbLine
 10
-58.70000000000004
 20
-50.0
 30
0.0
 11
-99.32409633116828
 21
-50.0
 31
0.0
  0
LINE
  5
5F33
330
5D45
100
AcDbEntity
  8
AM_5
100
AcDbLine
 10
-98.32409633116824
 20
47.5
 30
0.0
 11
-98.32409633116828
 21
-47.49999999999999
 31
0.0
  0
INSERT
  5
5F34
330
5D45
100
AcDbEntity
  8
AM_5
100
AcDbBlockReference
  2
_OPEN30
 10
-98.32409633116824
 20
50.0
 30
0.0
 41
2.5
 42
2.5
 43
2.5
 50
90.0
  0
INSERT
  5
5F35
330
5D45
100
AcDbEntity
  8
AM_5
100
AcDbBlockReference
  2
_OPEN30
 10
-98.32409633116828
 20
-50.0
 30
0.0
 41
2.5
 42
2.5
 43
2.5
 50
270.0
  0
MTEXT
  5
5F36
330
5D45
100
AcDbEntity
  8
AM_5
 62
     2
100
AcDbMText
 10
-101.4240963311682
 20
-0.0000000000000078
 30
0.0
 40
3.2
 41
0.0
 71
     5
 72
     1
  1
%%c100
  7
ASAMI
 11
0.0000000000000001
 21
1.0
 31
0.0
1001
ACAD
1000
MTEXTBEGIN
1070
    73
1070
     1
1070
    44
1040
1.0
1070
    74
1070
     0
1000
MTEXTEND
  0
POINT
  5
5F37
330
5D45
100
AcDbEntity
  8
DEFPOINTS
 62
     0
100
AcDbPoint
 10
-57.50000000000003
 20
50.0
 30
0.0
  0
POINT
  5
5F38
330
5D45
100
AcDbEntity
  8
DEFPOINTS
 62
     0
100
AcDbPoint
 10
-57.70000000000004
 20
-50.0
 30
0.0
  0
POINT
  5
5F39
330
5D45
100
AcDbEntity
  8
DEFPOINTS
 62
     0
100
AcDbPoint
 10
-98.32409633116828
 20
-50.0
 30
0.0
  0
ENDBLK
  5
5D50
330
5D45
100
AcDbEntity
  8
0
100
AcDbBlockEnd
  0
BLOCK
  5
5D5B
330
5D51
100
AcDbEntity
  8
0
100
AcDbBlockBegin
  2
*D8
 70
     1
 10
0.0
 20
0.0
 30
0.0
  3
*D8
  1

  0
LINE
  5
60ED
330
5D51
100
AcDbEntity
  8
AM_5
100
AcDbLine
 10
-60.00000000000006
 20
-48.7
 30
0.0
 11
-60.00000000000007
 21
-115.4974037896701
 31
0.0
  0
LINE
  5
60EE
330
5D51
100
AcDbEntity
  8
AM_5
100
AcDbLine
 10
0.000000000000142
 20
-81.0
 30
0.0
 11
0.0000000000001399
 21
-115.4974037896701
 31
0.0
  0
LINE
  5
60EF
330
5D51
100
AcDbEntity
  8
AM_5
100
AcDbLine
 10
-57.50000000000007
 20
-114.4974037896701
 30
0.0
 11
-2.49999999999986
 21
-114.4974037896701
 31
0.0
  0
INSERT
  5
60F0
330
5D51
100
AcDbEntity
  8
AM_5
100
AcDbBlockReference
  2
_OPEN30
 10
-60.00000000000007
 20
-114.4974037896701
 30
0.0
 41
2.5
 42
2.5
 43
2.5
 50
180.0
  0
INSERT
  5
60F1
330
5D51
100
AcDbEntity
  8
AM_5
100
AcDbBlockReference
  2
_OPEN30
 10
0.00000000000014
 20
-114.4974037896701
 30
0.0
 41
2.5
 42
2.5
 43
2.5
  0
MTEXT
  5
60F2
330
5D51
100
AcDbEntity
  8
AM_5
 62
     2
100
AcDbMText
 10
-29.99999999999996
 20
-111.3974037896701
 30
0.0
 40
3.2
 41
0.0
 71
     5
 72
     1
  1
60
  7
ASAMI
1001
ACAD
1000
MTEXTBEGIN
1070
    73
1070
     1
1070
    44
1040
1.0
1070
    74
1070
     0
1000
MTEXTEND
  0
POINT
  5
60F3
330
5D51
100
AcDbEntity
  8
DEFPOINTS
 62
     0
100
AcDbPoint
 10
-60.00000000000006
 20
-47.7
 30
0.0
  0
POINT
  5
60F4
330
5D51
100
AcDbEntity
  8
DEFPOINTS
 62
     0
100
AcDbPoint
 10
0.0000000000001421
 20
-80.0
 30
0.0
  0
POINT
  5
60F5
330
5D51
100
AcDbEntity
  8
DEFPOINTS
 62
     0
100
AcDbPoint
 10
0.00000000000014
 20
-114.4974037896701
 30
0.0
  0
ENDBLK
  5
5D5C
330
5D51
100
AcDbEntity
  8
0
100
AcDbBlockEnd
  0
BLOCK
  5
5D67
330
5D5D
100
AcDbEntity
  8
0
100
AcDbBlockBegin
  2
*D9
 70
     1
 10
0.0
 20
0.0
 30
0.0
  3
*D9
  1

  0
LINE
  5
60E3
330
5D5D
100
AcDbEntity
  8
AM_5
100
AcDbLine
 10
-60.00000000000006
 20
-48.7
 30
0.0
 11
-60.00000000000006
 21
-95.49740378967014
 31
0.0
  0
LINE
  5
60E4
330
5D5D
100
AcDbEntity
  8
AM_5
100
AcDbLine
 10
-49.0
 20
-9.499999999999992
 30
0.0
 11
-49.00000000000001
 21
-95.49740378967015
 31
0.0
  0
LINE
  5
60E5
330
5D5D
100
AcDbEntity
  8
AM_5
100
AcDbLine
 10
-57.50000000000006
 20
-94.49740378967014
 30
0.0
 11
-51.50000000000001
 21
-94.49740378967014
 31
0.0
  0
INSERT
  5
60E6
330
5D5D
100
AcDbEntity
  8
AM_5
100
AcDbBlockReference
  2
_OPEN30
 10
-60.00000000000006
 20
-94.49740378967014
 30
0.0
 41
2.5
 42
2.5
 43
2.5
 50
180.0
  0
INSERT
  5
60E7
330
5D5D
100
AcDbEntity
  8
AM_5
100
AcDbBlockReference
  2
_OPEN30
 10
-49.00000000000001
 20
-94.49740378967014
 30
0.0
 41
2.5
 42
2.5
 43
2.5
  0
MTEXT
  5
60E8
330
5D5D
100
AcDbEntity
  8
AM_5
 62
     2
100
AcDbMText
 10
-54.50000000000002
 20
-91.39740378967015
 30
0.0
 40
3.2
 41
0.0
 71
     5
 72
     1
  1
11
  7
ASAMI
1001
ACAD
1000
MTEXTBEGIN
1070
    73
1070
     1
1070
    44
1040
1.0
1070
    74
1070
     0
1000
MTEXTEND
  0
POINT
  5
60E9
330
5D5D
100
AcDbEntity
  8
DEFPOINTS
 62
     0
100
AcDbPoint
 10
-60.00000000000006
 20
-47.7
 30
0.0
  0
POINT
  5
60EA
330
5D5D
100
AcDbEntity
  8
DEFPOINTS
 62
     0
100
AcDbPoint
 10
-49.0
 20
-8.499999999999992
 30
0.0
  0
POINT
  5
60EB
330
5D5D
100
AcDbEntity
  8
DEFPOINTS
 62
     0
100
AcDbPoint
 10
-49.00000000000001
 20
-94.49740378967014
 30
0.0
  0
ENDBLK
  5
5D68
330
5D5D
100
AcDbEntity
  8
0
100
AcDbBlockEnd
  0
BLOCK
  5
5D73
330
5D69
100
AcDbEntity
  8
0
100
AcDbBlockBegin
  2
*D10
 70
     1
 10
0.0
 20
0.0
 30
0.0
  3
*D10
  1

  0
LINE
  5
60DA
330
5D69
100
AcDbEntity
  8
AM_5
100
AcDbLine
 10
-60.00000000000006
 20
-48.7
 30
0.0
 11
-60.00000000000006
 21
-105.4974037896701
 31
0.0
  0
LINE
  5
60DB
330
5D69
100
AcDbEntity
  8
AM_5
100
AcDbLine
 10
-22.00000000000002
 20
-50.38613840961684
 30
0.0
 11
-22.00000000000003
 21
-105.4974037896701
 31
0.0
  0
LINE
  5
60DC
330
5D69
100
AcDbEntity
  8
AM_5
100
AcDbLine
 10
-57.50000000000006
 20
-104.4974037896701
 30
0.0
 11
-24.50000000000003
 21
-104.4974037896701
 31
0.0
  0
INSERT
  5
60DD
330
5D69
100
AcDbEntity
  8
AM_5
100
AcDbBlockReference
  2
_OPEN30
 10
-60.00000000000006
 20
-104.4974037896701
 30
0.0
 41
2.5
 42
2.5
 43
2.5
 50
180.0
  0
INSERT
  5
60DE
330
5D69
100
AcDbEntity
  8
AM_5
100
AcDbBlockReference
  2
_OPEN30
 10
-22.00000000000003
 20
-104.4974037896701
 30
0.0
 41
2.5
 42
2.5
 43
2.5
  0
MTEXT
  5
60DF
330
5D69
100
AcDbEntity
  8
AM_5
 62
     2
100
AcDbMText
 10
-41.00000000000004
 20
-101.3974037896701
 30
0.0
 40
3.2
 41
0.0
 71
     5
 72
     1
  1
38
  7
ASAMI
1001
ACAD
1000
MTEXTBEGIN
1070
    73
1070
     1
1070
    44
1040
1.0
1070
    74
1070
     0
1000
MTEXTEND
  0
POINT
  5
60E0
330
5D69
100
AcDbEntity
  8
DEFPOINTS
 62
     0
100
AcDbPoint
 10
-60.00000000000006
 20
-47.7
 30
0.0
  0
POINT
  5
60E1
330
5D69
100
AcDbEntity
  8
DEFPOINTS
 62
     0
100
AcDbPoint
 10
-22.00000000000002
 20
-49.38613840961685
 30
0.0
  0
POINT
  5
60E2
330
5D69
100
AcDbEntity
  8
DEFPOINTS
 62
     0
100
AcDbPoint
 10
-22.00000000000003
 20
-104.4974037896701
 30
0.0
  0
ENDBLK
  5
5D74
330
5D69
100
AcDbEntity
  8
0
100
AcDbBlockEnd
  0
BLOCK
  5
5D7F
330
5D75
100
AcDbEntity
  8
0
100
AcDbBlockBegin
  2
*D11
 70
     1
 10
0.0
 20
0.0
 30
0.0
  3
*D11
  1

  0
LINE
  5
5F28
330
5D75
100
AcDbEntity
  8
AM_5
100
AcDbLine
 10
0.9999999999999431
 20
79.99999999999999
 30
0.0
 11
22.72194283186267
 21
79.99999999999999
 31
0.0
  0
LINE
  5
5F29
330
5D75
100
AcDbEntity
  8
AM_5
100
AcDbLine
 10
0.9999999999999431
 20
-80.0
 30
0.0
 11
22.72194283186263
 21
-80.0
 31
0.0
  0
LINE
  5
5F2A
330
5D75
100
AcDbEntity
  8
AM_5
100
AcDbLine
 10
21.72194283186267
 20
77.49999999999999
 30
0.0
 11
21.72194283186263
 21
-77.5
 31
0.0
  0
INSERT
  5
5F2B
330
5D75
100
AcDbEntity
  8
AM_5
100
AcDbBlockReference
  2
_OPEN30
 10
21.72194283186267
 20
79.99999999999999
 30
0.0
 41
2.5
 42
2.5
 43
2.5
 50
90.0
  0
INSERT
  5
5F2C
330
5D75
100
AcDbEntity
  8
AM_5
100
AcDbBlockReference
  2
_OPEN30
 10
21.72194283186263
 20
-80.0
 30
0.0
 41
2.5
 42
2.5
 43
2.5
 50
270.0
  0
MTEXT
  5
5F2D
330
5D75
100
AcDbEntity
  8
AM_5
 62
     2
100
AcDbMText
 10
18.62194283186265
 20
-0.0000000000000081
 30
0.0
 40
3.2
 41
0.0
 71
     5
 72
     1
  1
%%c160
  7
ASAMI
 11
0.0000000000000001
 21
1.0
 31
0.0
1001
ACAD
1000
MTEXTBEGIN
1070
    73
1070
     1
1070
    44
1040
1.0
1070
    74
1070
     0
1000
MTEXTEND
  0
POINT
  5
5F2E
330
5D75
100
AcDbEntity
  8
DEFPOINTS
 62
     0
100
AcDbPoint
 10
-0.0000000000000568
 20
79.99999999999999
 30
0.0
  0
POINT
  5
5F2F
330
5D75
100
AcDbEntity
  8
DEFPOINTS
 62
     0
100
AcDbPoint
 10
-0.0000000000000568
 20
-80.0
 30
0.0
  0
POINT
  5
5F30
330
5D75
100
AcDbEntity
  8
DEFPOINTS
 62
     0
100
AcDbPoint
 10
21.72194283186263
 20
-80.0
 30
0.0
  0
ENDBLK
  5
5D80
330
5D75
100
AcDbEntity
  8
0
100
AcDbBlockEnd
  0
ENDSEC
  0
SECTION
  2
ENTITIES
  0
LINE
  5
555A
330
1F
100
AcDbEntity
  8
AM_7
100
AcDbLine
 10
-64.32409533116828
 20
0.0
 30
0.0
 11
7.721941831862636
 21
0.0
 31
0.0
  0
LINE
  5
5D09
330
1F
100
AcDbEntity
  8
AM_0
100
AcDbLine
 10
-48.08348486100886
 20
-25.4
 30
0.0
 11
-23.30000000000006
 21
-25.4
 31
0.0
  0
LINE
  5
5D0A
330
1F
100
AcDbEntity
  8
AM_0
100
AcDbLine
 10
-46.32180073764541
 20
-79.5
 30
0.0
 11
-15.5892422706956
 21
-79.50000000000001
 31
0.0
  0
LINE
  5
5D0B
330
1F
100
AcDbEntity
  8
AM_0
100
AcDbLine
 10
-48.29141624366982
 20
-77.84729635533385
 30
0.0
 11
-52.91022968722979
 21
-51.65270364466614
 31
0.0
  0
LINE
  5
5D0C
330
1F
100
AcDbEntity
  8
AM_0
100
AcDbLine
 10
-49.00000000000003
 20
-8.5
 30
0.0
 11
-49.0
 21
0.0
 31
0.0
  0
LINE
  5
5D0D
330
1F
100
AcDbEntity
  8
AM_0
100
AcDbLine
 10
-60.00000000000006
 20
-47.7
 30
0.0
 11
-60.00000000000003
 21
-11.29999999999999
 31
0.0
  0
LINE
  5
5D0E
330
1F
100
AcDbEntity
  8
AM_0
100
AcDbLine
 10
-57.70000000000004
 20
-26.0
 30
0.0
 11
-49.00000000000003
 21
-25.99999999999999
 31
0.0
  0
ARC
  5
5D0F
330
1F
100
AcDbEntity
  8
AM_0
100
AcDbCircle
 10
-50.00000000000003
 20
-8.499999999999992
 30
0.0
 40
1.0
100
AcDbArc
 50
270.0
 51
359.9999999999996
1001
GENIUS_GENODEF_13
1002
{
1000
HIER
1070
     0
1002
}
1002
{
1000
MANEDIT
1070
     0
1002
}
1002
{
1000
NOSEL
1070
     0
1002
}
1002
{
1000
BEHIND
1070
     0
1002
}
1002
{
1000
REACTOR
1002
}
1001
GENIUS_GENOBJ-N-FIL_13
1002
{
1000
OWNER
1000
GEN
1002
}
  0
LINE
  5
5D10
330
1F
100
AcDbEntity
  8
AM_0
100
AcDbLine
 10
-57.70000000000004
 20
-26.0
 30
0.0
 11
-57.70000000000004
 21
-9.5
 31
0.0
  0
LINE
  5
5D11
330
1F
100
AcDbEntity
  8
AM_0
100
AcDbLine
 10
-58.20000000000002
 20
-9.5
 30
0.0
 11
-50.00000000000003
 21
-9.499999999999992
 31
0.0
  0
LINE
  5
5D12
330
1F
100
AcDbEntity
  8
AM_0
100
AcDbLine
 10
-58.20000000000002
 20
-9.5
 30
0.0
 11
-60.00000000000003
 21
-11.29999999999999
 31
0.0
1001
GENIUS_GENFIL_13
1070
     0
1040
1.8
1040
1.8
1040
20.0
1040
0.0
1002
{
1002
}
1001
GENIUS_GENODEF_13
1002
{
1000
HIER
1070
     0
1002
}
1002
{
1000
MANEDIT
1070
     0
1002
}
1002
{
1000
NOSEL
1070
     0
1002
}
1002
{
1000
BEHIND
1070
     0
1002
}
1002
{
1000
REACTOR
1002
}
1001
GENIUS_GENOBJ-N-CHA_13
1002
{
1000
OWNER
1000
GEN
1002
}
  0
LINE
  5
5D13
330
1F
100
AcDbEntity
  8
AM_0
100
AcDbLine
 10
-60.00000000000006
 20
-28.30000000000001
 30
0.0
 11
-57.70000000000004
 21
-26.0
 31
0.0
1001
GENIUS_GENFIL_13
1070
     0
1040
2.299999999999999
1040
2.299999999999999
1040
20.0
1040
0.0
1002
{
1002
}
1001
GENIUS_GENODEF_13
1002
{
1000
HIER
1070
     0
1002
}
1002
{
1000
MANEDIT
1070
     0
1002
}
1002
{
1000
NOSEL
1070
     0
1002
}
1002
{
1000
BEHIND
1070
     0
1002
}
1002
{
1000
REACTOR
1002
}
1001
GENIUS_GENOBJ-N-CHA_13
1002
{
1000
OWNER
1000
GEN
1002
}
  0
LINE
  5
5D14
330
1F
100
AcDbEntity
  8
AM_0
100
AcDbLine
 10
-48.00000000000003
 20
-24.99999999999999
 30
0.0
 11
-48.00000000000011
 21
0.0
 31
0.0
  0
ARC
  5
5D15
330
1F
100
AcDbEntity
  8
AM_0
100
AcDbCircle
 10
-49.00000000000003
 20
-24.99999999999999
 30
0.0
 40
1.0
100
AcDbArc
 50
270.0
 51
0.0
1001
GENIUS_GENODEF_13
1002
{
1000
HIER
1070
     0
1002
}
1002
{
1000
MANEDIT
1070
     0
1002
}
1002
{
1000
NOSEL
1070
     0
1002
}
1002
{
1000
BEHIND
1070
     0
1002
}
1002
{
1000
REACTOR
1002
}
1001
GENIUS_GENOBJ-N-FIL_13
1002
{
1000
OWNER
1000
GEN
1002
}
  0
LINE
  5
5D16
330
1F
100
AcDbEntity
  8
AM_0
100
AcDbLine
 10
-57.70000000000004
 20
-50.0
 30
0.0
 11
-54.87984519325419
 21
-50.0
 31
0.0
  0
LINE
  5
5D17
330
1F
100
AcDbEntity
  8
AM_0
100
AcDbLine
 10
-57.70000000000004
 20
-50.0
 30
0.0
 11
-60.00000000000006
 21
-47.7
 31
0.0
1001
GENIUS_GENFIL_13
1070
     0
1040
2.299999999999999
1040
2.299999999999999
1040
20.0
1040
0.0
1002
{
1002
}
1001
GENIUS_GENODEF_13
1002
{
1000
HIER
1070
     0
1002
}
1002
{
1000
MANEDIT
1070
     0
1002
}
1002
{
1000
NOSEL
1070
     0
1002
}
1002
{
1000
BEHIND
1070
     0
1002
}
1002
{
1000
REACTOR
1002
}
1001
GENIUS_GENOBJ-N-CHA_13
1002
{
1000
OWNER
1000
GEN
1002
}
  0
ARC
  5
5D18
330
1F
100
AcDbEntity
  8
AM_0
100
AcDbCircle
 10
-54.87984519325419
 20
-52.0
 30
0.0
 40
2.0
100
AcDbArc
 50
9.99999999999985
 51
90.00000000000003
1001
GENIUS_GENODEF_13
1002
{
1000
HIER
1070
     0
1002
}
1002
{
1000
MANEDIT
1070
     0
1002
}
1002
{
1000
NOSEL
1070
     0
1002
}
1002
{
1000
BEHIND
1070
     0
1002
}
1002
{
1000
REACTOR
1002
}
1001
GENIUS_GENOBJ-N-FIL_13
1002
{
1000
OWNER
1000
GEN
1002
}
  0
ARC
  5
5D19
330
1F
100
AcDbEntity
  8
AM_0
100
AcDbCircle
 10
-46.32180073764541
 20
-77.5
 30
0.0
 40
2.0
100
AcDbArc
 50
189.9999999999998
 51
270.0
1001
GENIUS_GENODEF_13
1002
{
1000
HIER
1070
     0
1002
}
1002
{
1000
MANEDIT
1070
     0
1002
}
1002
{
1000
NOSEL
1070
     0
1002
}
1002
{
1000
BEHIND
1070
     0
1002
}
1002
{
1000
REACTOR
1002
}
1001
GENIUS_GENOBJ-N-FIL_13
1002
{
1000
OWNER
1000
GEN
1002
}
  0
LINE
  5
5D1A
330
1F
100
AcDbEntity
  8
AM_0
100
AcDbLine
 10
-1.900000000000653
 20
-62.37452042804199
 30
0.0
 11
-1.90000000000063
 21
0.0000000000006253
 31
0.0
  0
ARC
  5
5D1B
330
1F
100
AcDbEntity
  8
AM_0
100
AcDbCircle
 10
-3.899999999999977
 20
-56.92043274382353
 30
0.0
 40
2.0
100
AcDbArc
 50
0.0000000000000649
 51
75.00000000000003
1001
GENIUS_GENODEF_13
1002
{
1000
HIER
1070
     0
1002
}
1002
{
1000
MANEDIT
1070
     0
1002
}
1002
{
1000
NOSEL
1070
     0
1002
}
1002
{
1000
BEHIND
1070
     0
1002
}
1002
{
1000
REACTOR
1002
}
1001
GENIUS_GENOBJ-N-FIL_13
1002
{
1000
OWNER
1000
GEN
1002
}
  0
LINE
  5
5D1C
330
1F
100
AcDbEntity
  8
AM_0
100
AcDbLine
 10
-22.00000000000005
 20
-49.38613840961685
 30
0.0
 11
-22.00000000000008
 21
0.0000000000000071
 31
0.0
  0
LINE
  5
5D1D
330
1F
100
AcDbEntity
  8
AM_0
100
AcDbLine
 10
-23.30000000000004
 20
-25.4
 30
0.0
 11
-23.30000000000004
 21
0.0
 31
0.0
  0
LINE
  5
5D1E
330
1F
100
AcDbEntity
  8
AM_0
100
AcDbLine
 10
-21.40705523608207
 20
-50.1588790706481
 30
0.0
 11
-3.382361909794923
 21
-54.98858109124539
 31
0.0
  0
LINE
  5
5D1F
330
1F
100
AcDbEntity
  8
AM_0
100
AcDbLine
 10
-22.00000000000005
 20
-26.70000000000001
 30
0.0
 11
-23.30000000000006
 21
-25.4
 31
0.0
1001
GENIUS_GENFIL_13
1070
     0
1040
1.3
1040
1.3
1040
20.0
1040
0.0
1002
{
1002
}
1001
GENIUS_GENODEF_13
1002
{
1000
HIER
1070
     0
1002
}
1002
{
1000
MANEDIT
1070
     0
1002
}
1002
{
1000
NOSEL
1070
     0
1002
}
1002
{
1000
BEHIND
1070
     0
1002
}
1002
{
1000
REACTOR
1002
}
1001
GENIUS_GENOBJ-N-CHA_13
1002
{
1000
OWNER
1000
GEN
1002
}
  0
ARC
  5
5D20
330
1F
100
AcDbEntity
  8
AM_0
100
AcDbCircle
 10
-21.20000000000004
 20
-49.38613840961685
 30
0.0
 40
0.8
100
AcDbArc
 50
180.0
 51
255.0
1001
GENIUS_GENODEF_13
1002
{
1000
HIER
1070
     0
1002
}
1002
{
1000
MANEDIT
1070
     0
1002
}
1002
{
1000
NOSEL
1070
     0
1002
}
1002
{
1000
BEHIND
1070
     0
1002
}
1002
{
1000
REACTOR
1002
}
1001
GENIUS_GENOBJ-N-FIL_13
1002
{
1000
OWNER
1000
GEN
1002
}
  0
DIMENSION
  5
5D23
330
1F
100
AcDbEntity
  8
AM_5
100
AcDbDimension
  2
*D5
 10
-78.32409633116828
 20
-9.499999999999992
 30
0.0
 11
-78.32409633116828
 21
-0.0000000000000355
 31
0.0
 70
   160
  3
AM_JIS
100
AcDbAlignedDimension
 13
-58.20000000000002
 23
9.5
 33
0.0
 14
-58.20000000000002
 24
-9.5
 34
0.0
 50
90.0
100
AcDbRotatedDimension
  0
DIMENSION
  5
5D24
330
1F
100
AcDbEntity
  8
AM_5
100
AcDbDimension
  2
*D6
 10
-88.32409633116828
 20
-25.39999999999998
 30
0.0
 11
-91.42409633116827
 21
0.0000000000000022
 31
0.0
 70
    32
  1
%%c<>
  3
AM_JIS
100
AcDbAlignedDimension
 13
-48.08348486100886
 23
25.4
 33
0.0
 14
-48.08348486100886
 24
-25.4
 34
0.0
 50
90.0
100
AcDbRotatedDimension
1001
GENIUS_GENDTOL_13
1000

1000
h7
1000

1040
0.0
  0
DIMENSION
  5
5D25
330
1F
100
AcDbEntity
  8
AM_5
100
AcDbDimension
  2
*D7
 10
-98.32409633116828
 20
-50.0
 30
0.0
 11
-101.4240963311682
 21
-0.0000000000000078
 31
0.0
 70
    32
  1
%%c<>
  3
AM_JIS
100
AcDbAlignedDimension
 13
-57.50000000000003
 23
50.0
 33
0.0
 14
-57.70000000000004
 24
-50.0
 34
0.0
 50
90.0
100
AcDbRotatedDimension
1001
GENIUS_GENDTOL_13
1000

1000
h7
1000

1040
0.0
  0
DIMENSION
  5
5D26
330
1F
100
AcDbEntity
  8
AM_5
100
AcDbDimension
  2
*D8
 10
0.00000000000014
 20
-114.4974037896701
 30
0.0
 11
-29.99999999999996
 21
-111.3974037896701
 31
0.0
 70
    32
  3
AM_JIS
100
AcDbAlignedDimension
 13
-60.00000000000006
 23
-47.7
 33
0.0
 14
0.0000000000001421
 24
-80.0
 34
0.0
100
AcDbRotatedDimension
  0
DIMENSION
  5
5D27
330
1F
100
AcDbEntity
  8
AM_5
100
AcDbDimension
  2
*D9
 10
-49.00000000000001
 20
-94.49740378967014
 30
0.0
 11
-54.50000000000002
 21
-91.39740378967015
 31
0.0
 70
    32
  3
AM_JIS
100
AcDbAlignedDimension
 13
-60.00000000000006
 23
-47.7
 33
0.0
 14
-49.0
 24
-8.499999999999992
 34
0.0
100
AcDbRotatedDimension
  0
DIMENSION
  5
5D28
330
1F
100
AcDbEntity
  8
AM_5
100
AcDbDimension
  2
*D10
 10
-22.00000000000003
 20
-104.4974037896701
 30
0.0
 11
-41.00000000000004
 21
-101.3974037896701
 31
0.0
 70
    32
  3
AM_JIS
100
AcDbAlignedDimension
 13
-60.00000000000006
 23
-47.7
 33
0.0
 14
-22.00000000000002
 24
-49.38613840961685
 34
0.0
100
AcDbRotatedDimension
  0
DIMENSION
  5
5D29
330
1F
100
AcDbEntity
  8
AM_5
100
AcDbDimension
  2
*D11
 10
21.72194283186263
 20
-80.0
 30
0.0
 11
18.62194283186265
 21
-0.0000000000000081
 31
0.0
 70
    32
  1
%%c<>
  3
AM_JIS
100
AcDbAlignedDimension
 13
-0.0000000000000568
 23
79.99999999999999
 33
0.0
 14
-0.0000000000000568
 24
-80.0
 34
0.0
 50
90.0
100
AcDbRotatedDimension
1001
GENIUS_GENDTOL_13
1000

1000
h7
1000

1040
0.0
  0
TEXT
  5
5D2A
330
1F
100
AcDbEntity
  8
AM_6
100
AcDbText
 10
-42.97619047619043
 20
-136.9974037896701
 30
0.0
 40
5.0
  1
PF5160
 72
     4
 11
-29.99999999999994
 21
-134.4974037896701
 31
0.0
100
AcDbText
  0
LINE
  5
5EDB
330
1F
100
AcDbEntity
  8
AM_11
100
AcDbLine
 10
-0.0000000000000568
 20
79.99999999999999
 30
0.0
 11
0.0000000000000568
 21
-80.0
 31
0.0
  0
LINE
  5
6085
330
1F
100
AcDbEntity
  8
AM_3
100
AcDbLine
 10
-15.58924227069556
 20
-79.50000000000009
 30
0.0
 11
-3.400000000000846
 21
-79.50000000000023
 31
0.0
  0
LINE
  5
6086
330
1F
100
AcDbEntity
  8
AM_0
100
AcDbLine
 10
-1.987634776409739
 20
-80.07145099428591
 30
0.0
 11
-13.79899100000093
 21
-80.49604265270046
 31
0.0
  0
LINE
  5
6087
330
1F
100
AcDbEntity
  8
AM_0
100
AcDbLine
 10
-3.677596000000902
 20
-77.88443265270053
 30
0.0
 11
-13.2184820000009
 21
-78.22740565270045
 31
0.0
  0
ELLIPSE
  5
6088
330
1F
100
AcDbEntity
  8
AM_0
100
AcDbEllipse
 10
-9.429544000000756
 20
-67.32625365270047
 30
0.0
 11
3.001175240374
 21
-0.0087514518060328
 31
0.0
210
0.0
220
0.0
230
-1.0
 40
0.35380522646365
 41
3.130946883473579
 42
6.27254051606492
  0
ELLIPSE
  5
6089
330
1F
100
AcDbEntity
  8
AM_0
100
AcDbEllipse
 10
-9.429544000000756
 20
-67.32625365270047
 30
0.0
 11
3.001175240374
 21
-0.0087514518060328
 31
0.0
210
0.0
220
0.0
230
-1.0
 40
0.35380522646365
 41
6.27254051606492
 42
11.10499123220948
  0
ELLIPSE
  5
608A
330
1F
100
AcDbEntity
  8
AM_0
100
AcDbEllipse
 10
-9.429544000000756
 20
-67.32625365270047
 30
0.0
 11
3.001175240374
 21
-0.0087514518060328
 31
0.0
210
0.0
220
0.0
230
-1.0
 40
0.35380522646365
 41
1.46137911659883
 42
3.130946883473579
  0
LINE
  5
608B
330
1F
100
AcDbEntity
  8
AM_0
100
AcDbLine
 10
-14.29654700000078
 20
-63.95932565270038
 30
0.0
 11
-2.486599000000763
 21
-63.53478365270054
 31
0.0
  0
LINE
  5
608C
330
1F
100
AcDbEntity
  8
AM_0
100
AcDbLine
 10
-13.79899100000077
 20
-65.57842265270039
 30
0.0
 11
-1.989044000000804
 21
-65.15388165270066
 31
0.0
  0
LINE
  5
608D
330
1F
100
AcDbEntity
  8
AM_0
100
AcDbLine
 10
-13.87103400000078
 20
-65.96129565270041
 30
0.0
 11
-2.434032000000775
 21
-65.5501616527006
 31
0.0
  0
LINE
  5
608E
330
1F
100
AcDbEntity
  8
AM_0
100
AcDbLine
 10
-14.63045400000072
 20
-62.07985565270052
 30
0.0
 11
-2.696191000000729
 21
-61.6508456527006
 31
0.0
  0
LINE
  5
608F
330
1F
100
AcDbEntity
  8
AM_0
100
AcDbLine
 10
-2.486599000000763
 20
-63.53478365270054
 30
0.0
 11
-14.0555470000008
 21
-63.95066165270043
 31
0.0
  0
LINE
  5
6090
330
1F
100
AcDbEntity
  8
AM_0
100
AcDbLine
 10
-13.47202900000083
 20
-68.89571465270048
 30
0.0
 11
-1.537766000000838
 21
-68.46670465270065
 31
0.0
  0
ELLIPSE
  5
6091
330
1F
100
AcDbEntity
  8
AM_0
100
AcDbEllipse
 10
-38.40000000000088
 20
-77.03127365270013
 30
0.0
 11
6.0
 21
-0.0000000000000656
 31
0.0
210
0.0
220
0.0
230
-1.0
 40
0.34202016666667
 41
0.411138234073143
 42
3.1415936664791
  0
ELLIPSE
  5
6092
330
1F
100
AcDbEntity
  8
AM_0
100
AcDbEllipse
 10
-38.40000000000076
 20
-66.69465465270021
 30
0.0
 11
3.0
 21
-0.0000000000000328
 31
0.0
210
0.0
220
0.0
230
-1.0
 40
0.34202
 41
3.1415936664791
 42
6.283184408925299
  0
ELLIPSE
  5
6093
330
1F
100
AcDbEntity
  8
AM_0
100
AcDbEllipse
 10
-38.40000000000076
 20
-66.69465465270021
 30
0.0
 11
3.0
 21
-0.0000000000000328
 31
0.0
210
0.0
220
0.0
230
-1.0
 40
0.34202
 41
1.57079621502451
 42
3.1415936664791
  0
ELLIPSE
  5
6094
330
1F
100
AcDbEntity
  8
AM_0
100
AcDbEllipse
 10
-38.40000000000076
 20
-66.69465465270021
 30
0.0
 11
6.0
 21
-0.0000000000000656
 31
0.0
210
0.0
220
0.0
230
-1.0
 40
0.34202016666667
 41
3.1415936664791
 42
5.34766574931044
  0
ELLIPSE
  5
6095
330
1F
100
AcDbEntity
  8
AM_0
100
AcDbEllipse
 10
-38.40000000000076
 20
-66.69465465270021
 30
0.0
 11
6.0
 21
-0.0000000000000656
 31
0.0
210
0.0
220
0.0
230
-1.0
 40
0.34202016666667
 41
0.9355191735479779
 42
3.1415936664791
  0
LINE
  5
6096
330
1F
100
AcDbEntity
  8
AM_0
100
AcDbLine
 10
-44.40000000000088
 20
-77.03127365270008
 30
0.0
 11
-44.40000000000076
 21
-66.69465465270015
 31
0.0
  0
LINE
  5
6097
330
1F
100
AcDbEntity
  8
AM_0
100
AcDbLine
 10
-23.07553200000086
 20
-78.32070265270035
 30
0.0
 11
-28.07553200000086
 21
-78.32070265270029
 31
0.0
  0
LINE
  5
6098
330
1F
100
AcDbEntity
  8
AM_0
100
AcDbLine
 10
-28.07553200000076
 20
-69.32070265270029
 30
0.0
 11
-23.07553200000076
 21
-69.32070265270034
 31
0.0
  0
ELLIPSE
  5
6099
330
1F
100
AcDbEntity
  8
AM_0
100
AcDbEllipse
 10
-33.50244300000089
 20
-73.82070265270023
 30
0.0
 11
0.5403904950059644
 21
-3.249844754291006
 31
0.0
210
0.0
220
0.0
230
-1.0
 40
0.05869022212091
 41
0.009762816312222
 42
3.15134433469479
  0
ELLIPSE
  5
609A
330
1F
100
AcDbEntity
  8
AM_0
100
AcDbEllipse
 10
-38.40000000000055
 20
-47.72033465270018
 30
0.0
 11
5.988484248357646
 21
-32.04128058041306
 31
0.0
210
0.0
220
0.0
230
-1.0
 40
0.01158838091602
 41
0.349233427063958
 42
0.8736044317141439
  0
LINE
  5
609B
330
1F
100
AcDbEntity
  8
AM_0
100
AcDbLine
 10
-28.07553200000076
 20
-69.32070265270029
 30
0.0
 11
-28.07553200000083
 21
-75.35979365270027
 31
0.0
  0
LINE
  5
609C
330
1F
100
AcDbEntity
  8
AM_0
100
AcDbLine
 10
-34.04094500000085
 20
-70.57070265270024
 30
0.0
 11
-28.07553200000078
 21
-70.57070265270029
 31
0.0
  0
LINE
  5
609D
330
1F
100
AcDbEntity
  8
AM_0
100
AcDbLine
 10
-34.83959700000079
 20
-65.04288765270018
 30
0.0
 11
-34.83959700000083
 21
-68.34642165270031
 31
0.0
  0
ELLIPSE
  5
609E
330
1F
100
AcDbEntity
  8
AM_0
100
AcDbEllipse
 10
-38.40000000000055
 20
-47.72033465270018
 30
0.0
 11
5.988484248357646
 21
-32.04128058041306
 31
0.0
210
0.0
220
0.0
230
-1.0
 40
0.01158838091602
 41
-0.9974479098401799
 42
-0.7746311960796759
  0
ELLIPSE
  5
609F
330
1F
100
AcDbEntity
  8
AM_0
100
AcDbEllipse
 10
-38.40000000000076
 20
-66.69465465270021
 30
0.0
 11
3.0
 21
-0.0000000000000328
 31
0.0
210
0.0
220
0.0
230
-1.0
 40
0.34202
 41
0.0
 42
1.57079621502451
  0
LINE
  5
60A0
330
1F
100
AcDbEntity
  8
AM_0
100
AcDbLine
 10
-28.07553200000085
 20
-77.07070265270029
 30
0.0
 11
-32.96394000000088
 21
-77.07070265270025
 31
0.0
  0
LINE
  5
60A1
330
1F
100
AcDbEntity
  8
AM_0
100
AcDbLine
 10
-32.90000000000087
 20
-77.07070265270025
 30
0.0
 11
-32.90000000000088
 21
-77.85140865270026
 31
0.0
  0
LINE
  5
60A2
330
1F
100
AcDbEntity
  8
AM_0
100
AcDbLine
 10
-28.07553200000083
 20
-75.35979365270027
 30
0.0
 11
-28.07553200000086
 21
-78.32070265270029
 31
0.0
  0
LINE
  5
60A3
330
1F
100
AcDbEntity
  8
AM_0
100
AcDbLine
 10
-17.64006500000077
 20
-66.78459265270039
 30
0.0
 11
-17.64006500000089
 21
-77.55732365270041
 31
0.0
  0
LINE
  5
60A4
330
1F
100
AcDbEntity
  8
AM_0
100
AcDbLine
 10
-23.07553200000076
 20
-68.82070265270034
 30
0.0
 11
-23.07553200000083
 21
-75.53080365270036
 31
0.0
  0
LINE
  5
60A5
330
1F
100
AcDbEntity
  8
AM_0
100
AcDbLine
 10
-19.07553200000076
 20
-68.82070265270039
 30
0.0
 11
-19.07553200000083
 21
-75.5308036527004
 31
0.0
  0
LINE
  5
60A6
330
1F
100
AcDbEntity
  8
AM_0
100
AcDbLine
 10
-17.05269200000088
 20
-78.0538226527004
 30
0.0
 11
-17.33161100000075
 21
-67.78833365270052
 31
0.0
  0
LINE
  5
60A7
330
1F
100
AcDbEntity
  8
AM_0
100
AcDbLine
 10
-13.2184820000009
 20
-78.22740565270045
 30
0.0
 11
-13.47202900000083
 21
-68.89571465270048
 31
0.0
  0
LINE
  5
60A8
330
1F
100
AcDbEntity
  8
AM_0
100
AcDbLine
 10
-16.30507500000077
 20
-66.22074665270051
 30
0.0
 11
-17.64006500000077
 21
-66.78459265270039
 31
0.0
  0
LINE
  5
60A9
330
1F
100
AcDbEntity
  8
AM_0
100
AcDbLine
 10
-17.33161100000075
 20
-67.78833365270052
 30
0.0
 11
-13.47202900000083
 21
-68.89571465270048
 31
0.0
  0
LINE
  5
60AA
330
1F
100
AcDbEntity
  8
AM_0
100
AcDbLine
 10
-23.07553200000076
 20
-68.82070265270034
 30
0.0
 11
-19.07553200000076
 21
-68.82070265270039
 31
0.0
  0
LINE
  5
60AB
330
1F
100
AcDbEntity
  8
AM_0
100
AcDbLine
 10
-17.33161100000075
 20
-67.78833365270052
 30
0.0
 11
-17.64006500000077
 21
-66.78459265270039
 31
0.0
  0
ELLIPSE
  5
60AC
330
1F
100
AcDbEntity
  8
AM_0
100
AcDbEllipse
 10
-13.79899100000079
 20
-67.45780765270047
 30
0.0
 11
-1.911766273768006
 21
-0.5874944378329791
 31
0.0
210
0.0
220
0.0
230
-1.0
 40
0.9345449999999999
 41
1.063725250220469
 42
1.850459730901969
  0
LINE
  5
60AD
330
1F
100
AcDbEntity
  8
AM_0
100
AcDbLine
 10
-13.79899100000077
 20
-65.57842265270039
 30
0.0
 11
-14.29654700000078
 21
-63.95932565270038
 31
0.0
  0
LINE
  5
60AE
330
1F
100
AcDbEntity
  8
AM_0
100
AcDbLine
 10
-13.87103400000078
 20
-65.96129565270041
 30
0.0
 11
-13.87103400000079
 21
-66.13324765270045
 31
0.0
  0
LINE
  5
60AF
330
1F
100
AcDbEntity
  8
AM_0
100
AcDbLine
 10
-13.87103400000078
 20
-65.96129565270041
 30
0.0
 11
-13.81877000000081
 21
-66.13136965270053
 31
0.0
  0
LINE
  5
60B0
330
1F
100
AcDbEntity
  8
AM_0
100
AcDbLine
 10
-16.28559100000079
 20
-66.22004565270046
 30
0.0
 11
-16.28559100000078
 21
-65.91021165270044
 31
0.0
  0
LINE
  5
60B1
330
1F
100
AcDbEntity
  8
AM_0
100
AcDbLine
 10
-16.19141800000078
 20
-66.21666065270038
 30
0.0
 11
-16.28559100000078
 21
-65.91021165270044
 31
0.0
  0
LINE
  5
60B2
330
1F
100
AcDbEntity
  8
AM_0
100
AcDbLine
 10
-13.81877000000081
 20
-66.13136965270053
 30
0.0
 11
-16.30507500000077
 21
-66.22074665270051
 31
0.0
  0
LINE
  5
60B3
330
1F
100
AcDbEntity
  8
AM_0
100
AcDbLine
 10
-14.63045400000072
 20
-62.07985565270052
 30
0.0
 11
-16.12223700000079
 21
-63.5430206527004
 31
0.0
  0
ELLIPSE
  5
60B4
330
1F
100
AcDbEntity
  8
AM_0
100
AcDbEllipse
 10
-14.29654700000081
 20
-65.83871065270045
 30
0.0
 11
-1.911766273768006
 21
-0.5874944378329791
 31
0.0
210
0.0
220
0.0
230
-1.0
 40
0.9345449999999999
 41
0.279662971137573
 42
1.850459730901969
  0
LINE
  5
60B5
330
1F
100
AcDbEntity
  8
AM_0
100
AcDbLine
 10
-16.12223700000081
 20
-65.15846065270044
 30
0.0
 11
-16.12223700000079
 21
-63.5430206527004
 31
0.0
  0
LINE
  5
60B6
330
1F
100
AcDbEntity
  8
AM_0
100
AcDbLine
 10
-16.12223700000079
 20
-63.5430206527004
 30
0.0
 11
-15.78382000000075
 21
-64.64426365270047
 31
0.0
  0
LINE
  5
60B7
330
1F
100
AcDbEntity
  8
AM_0
100
AcDbLine
 10
-14.0555470000008
 20
-63.95066165270043
 30
0.0
 11
-14.63045400000072
 21
-62.07985565270052
 31
0.0
  0
LINE
  5
60B8
330
1F
100
AcDbEntity
  8
AM_0
100
AcDbLine
 10
-17.05269200000088
 20
-78.0538226527004
 30
0.0
 11
-17.64006500000089
 21
-77.55732365270041
 31
0.0
  0
LINE
  5
60B9
330
1F
100
AcDbEntity
  8
AM_0
100
AcDbLine
 10
-19.07553200000083
 20
-75.5308036527004
 30
0.0
 11
-19.07553200000087
 21
-78.82070265270039
 31
0.0
  0
LINE
  5
60BA
330
1F
100
AcDbEntity
  8
AM_0
100
AcDbLine
 10
-23.07553200000083
 20
-75.53080365270036
 30
0.0
 11
-23.07553200000087
 21
-78.82070265270034
 31
0.0
  0
LINE
  5
60BB
330
1F
100
AcDbEntity
  8
AM_0
100
AcDbLine
 10
-17.64006500000087
 20
-75.8207026527004
 30
0.0
 11
-19.07553200000083
 21
-75.82070265270039
 31
0.0
  0
LINE
  5
60BC
330
1F
100
AcDbEntity
  8
AM_0
100
AcDbLine
 10
-19.07553200000079
 20
-71.82070265270039
 30
0.0
 11
-17.64006500000083
 21
-71.8207026527004
 31
0.0
  0
LINE
  5
60BD
330
1F
100
AcDbEntity
  8
AM_0
100
AcDbLine
 10
-19.07553200000087
 20
-78.82070265270039
 30
0.0
 11
-23.07553200000087
 21
-78.82070265270034
 31
0.0
  0
LINE
  5
60BE
330
1F
100
AcDbEntity
  8
AM_0
100
AcDbLine
 10
-13.2184820000009
 20
-78.22740565270045
 30
0.0
 11
-17.05269200000088
 21
-78.0538226527004
 31
0.0
  0
ELLIPSE
  5
60BF
330
1F
100
AcDbEntity
  8
AM_0
100
AcDbEllipse
 10
-13.79899100000091
 20
-78.61665765270038
 30
0.0
 11
-1.911766273768006
 21
-0.5874944378329791
 31
0.0
210
0.0
220
0.0
230
-1.0
 40
0.9345449999999999
 41
0.0
 42
0.279662971137573
  0
LINE
  5
60C0
330
1F
100
AcDbEntity
  8
AM_0
100
AcDbLine
 10
-15.71075800000092
 20
-79.20415165270047
 30
0.0
 11
-16.05031300000087
 21
-78.09920265270044
 31
0.0
  0
LINE
  5
60C1
330
1F
100
AcDbEntity
  8
AM_0
100
AcDbLine
 10
-15.78803500000095
 20
-78.68815965270037
 30
0.0
 11
-15.96787700000095
 21
-78.10293465270046
 31
0.0
  0
LINE
  5
60C2
330
1F
100
AcDbEntity
  8
AM_0
100
AcDbLine
 10
-15.78803500000095
 20
-78.68815965270037
 30
0.0
 11
-15.78803500000094
 21
-78.11107665270047
 31
0.0
  0
ELLIPSE
  5
60C3
330
1F
100
AcDbEntity
  8
AM_0
100
AcDbEllipse
 10
-13.79899100000091
 20
-78.61665765270038
 30
0.0
 11
-1.911766273768006
 21
-0.5874944378329791
 31
0.0
210
0.0
220
0.0
230
-1.0
 40
0.9345449999999999
 41
-1.291133250000019
 42
0.0
  0
LINE
  5
60C4
330
1F
100
AcDbEntity
  8
AM_3
100
AcDbLine
 10
-1.900000000000829
 20
-78.00000000000025
 30
0.0
 11
-1.900000000000653
 21
-62.374520428042
 31
0.0
  0
LINE
  5
60C5
330
1F
100
AcDbEntity
  8
AM_0
100
AcDbLine
 10
-0.0000000000007888
 20
-66.96176465270063
 30
0.0
 11
-0.0000000000009108
 21
-78.12061465270066
 31
0.0
  0
LINE
  5
60C6
330
1F
100
AcDbEntity
  8
AM_0
100
AcDbLine
 10
-1.514881000000817
 20
-69.30898265270051
 30
0.0
 11
-3.677596000000902
 21
-77.88443265270053
 31
0.0
  0
LINE
  5
60C7
330
1F
100
AcDbEntity
  8
AM_0
100
AcDbLine
 10
-1.204408000000746
 20
-63.0067586527006
 30
0.0
 11
-2.696191000000729
 21
-61.6508456527006
 31
0.0
  0
LINE
  5
60C8
330
1F
100
AcDbEntity
  8
AM_0
100
AcDbLine
 10
-2.696191000000729
 20
-61.6508456527006
 30
0.0
 11
-2.121284000000697
 21
-63.52165165270051
 31
0.0
  0
LINE
  5
60C9
330
1F
100
AcDbEntity
  8
AM_0
100
AcDbLine
 10
-0.5748330000007779
 20
-64.82667565270064
 30
0.0
 11
-0.0772770000007642
 21
-66.44577265270054
 31
0.0
  0
LINE
  5
60CA
330
1F
100
AcDbEntity
  8
AM_0
100
AcDbLine
 10
-2.434032000000775
 20
-65.5501616527006
 30
0.0
 11
-1.537766000000838
 21
-68.46670465270065
 31
0.0
  0
ELLIPSE
  5
60CB
330
1F
100
AcDbEntity
  8
AM_0
100
AcDbEllipse
 10
-1.989044000000824
 20
-67.03326665270061
 30
0.0
 11
-1.911766273768006
 21
-0.5874944378329791
 31
0.0
210
0.0
220
0.0
230
-1.0
 40
0.9345449999999999
 41
1.850459730901969
 42
3.14159302432637
  0
LINE
  5
60CC
330
1F
100
AcDbEntity
  8
AM_0
100
AcDbLine
 10
-2.121284000000697
 20
-63.52165165270051
 30
0.0
 11
-2.079093000000808
 21
-63.56000065270066
 31
0.0
  0
LINE
  5
60CD
330
1F
100
AcDbEntity
  8
AM_0
100
AcDbLine
 10
-2.121284000000697
 20
-63.52165165270051
 30
0.0
 11
-2.486599000000763
 21
-63.53478365270054
 31
0.0
  0
ELLIPSE
  5
60CE
330
1F
100
AcDbEntity
  8
AM_0
100
AcDbEllipse
 10
-2.486599000000784
 20
-65.41416965270061
 30
0.0
 11
-1.911766273768006
 21
-0.5874944378329791
 31
0.0
210
0.0
220
0.0
230
-1.0
 40
0.9345449999999999
 41
1.850459730901969
 42
3.14159302432637
  0
LINE
  5
60CF
330
1F
100
AcDbEntity
  8
AM_0
100
AcDbLine
 10
-1.989044000000804
 20
-65.15388165270066
 30
0.0
 11
-2.486599000000763
 21
-63.53478365270054
 31
0.0
  0
LINE
  5
60D0
330
1F
100
AcDbEntity
  8
AM_0
100
AcDbLine
 10
-1.204408000000746
 20
-63.0067586527006
 30
0.0
 11
-0.7802060000007818
 21
-64.3871576527006
 31
0.0
  0
ELLIPSE
  5
60D1
330
1F
100
AcDbEntity
  8
AM_0
100
AcDbEllipse
 10
-1.989044000000824
 20
-67.03326665270061
 30
0.0
 11
-1.911766273768006
 21
-0.5874944378329791
 31
0.0
210
0.0
220
0.0
230
-1.0
 40
0.9345449999999999
 41
3.14159302432637
 42
3.421255991823669
  0
LINE
  5
60D2
330
1F
100
AcDbEntity
  8
AM_0
100
AcDbLine
 10
-1.537766000000838
 20
-68.46670465270065
 30
0.0
 11
-1.514881000000817
 21
-69.30898265270051
 31
0.0
  0
ARC
  5
60D3
330
1F
100
AcDbEntity
  8
AM_3
100
AcDbCircle
 10
-3.400000000000829
 20
-78.00000000000022
 30
0.0
 40
1.5
100
AcDbArc
 50
269.9999999999993
 51
359.9999999999993
1001
GENIUS_GENODEF_13
1002
{
1000
HIER
1070
     0
1002
}
1002
{
1000
MANEDIT
1070
     0
1002
}
1002
{
1000
NOSEL
1070
     0
1002
}
1002
{
1000
BEHIND
1070
     0
1002
}
1002
{
1000
REACTOR
1002
}
1001
GENIUS_GENOBJ-N-FIL_13
1002
{
1000
OWNER
1000
GEN
1002
}
  0
LINE
  5
60D4
330
1F
100
AcDbEntity
  8
AM_11
100
AcDbLine
 10
-1.989042808518897
 20
-80.07150208154094
 30
0.0
 11
-0.0000000000009314
 21
-80.00000000000026
 31
0.0
  0
ELLIPSE
  5
60D5
330
1F
100
AcDbEntity
  8
AM_0
100
AcDbEllipse
 10
-1.989044000000946
 20
-78.19211665270064
 30
0.0
 11
-1.911766273768006
 21
-0.5874944378329791
 31
0.0
210
0.0
220
0.0
230
-1.0
 40
0.9345449999999999
 41
3.421255991823669
 42
4.99205176693515
  0
LINE
  5
6173
330
1F
100
AcDbEntity
  8
AM_0
100
AcDbLine
 10
-1.900000000000653
 20
62.37452042804199
 30
0.0
 11
-1.90000000000063
 21
-0.0000000000006253
 31
0.0
  0
LINE
  5
6174
330
1F
100
AcDbEntity
  8
AM_0
100
AcDbLine
 10
-22.00000000000005
 20
49.38613840961685
 30
0.0
 11
-22.00000000000008
 21
-0.0000000000000071
 31
0.0
  0
LINE
  5
6175
330
1F
100
AcDbEntity
  8
AM_0
100
AcDbLine
 10
-60.00000000000006
 20
28.30000000000001
 30
0.0
 11
-57.70000000000004
 21
26.0
 31
0.0
1001
GENIUS_GENFIL_13
1070
     0
1040
2.299999999999999
1040
2.299999999999999
1040
20.0
1040
0.0
1002
{
1002
}
1001
GENIUS_GENODEF_13
1002
{
1000
HIER
1070
     0
1002
}
1002
{
1000
MANEDIT
1070
     0
1002
}
1002
{
1000
NOSEL
1070
     0
1002
}
1002
{
1000
BEHIND
1070
     0
1002
}
1002
{
1000
REACTOR
1002
}
1001
GENIUS_GENOBJ-N-CHA_13
1002
{
1000
OWNER
1000
GEN
1002
}
  0
LINE
  5
6176
330
1F
100
AcDbEntity
  8
AM_0
100
AcDbLine
 10
-60.00000000000006
 20
47.7
 30
0.0
 11
-60.00000000000003
 21
11.29999999999999
 31
0.0
  0
ELLIPSE
  5
6177
330
1F
100
AcDbEntity
  8
AM_0
100
AcDbEllipse
 10
-1.989044000000946
 20
78.19211665270064
 30
0.0
 11
-1.911766273768006
 21
0.5874944378329791
 31
0.0
210
0.0
220
0.0
230
1.0
 40
0.9345449999999999
 41
3.421255991823669
 42
4.99205176693515
  0
ELLIPSE
  5
6178
330
1F
100
AcDbEntity
  8
AM_0
100
AcDbEllipse
 10
-1.989044000000824
 20
67.03326665270061
 30
0.0
 11
-1.911766273768006
 21
0.5874944378329791
 31
0.0
210
0.0
220
0.0
230
1.0
 40
0.9345449999999999
 41
3.14159302432637
 42
3.421255991823669
  0
ELLIPSE
  5
6179
330
1F
100
AcDbEntity
  8
AM_0
100
AcDbEllipse
 10
-2.486599000000784
 20
65.41416965270061
 30
0.0
 11
-1.911766273768006
 21
0.5874944378329791
 31
0.0
210
0.0
220
0.0
230
1.0
 40
0.9345449999999999
 41
1.850459730901969
 42
3.14159302432637
  0
ELLIPSE
  5
617A
330
1F
100
AcDbEntity
  8
AM_0
100
AcDbEllipse
 10
-1.989044000000824
 20
67.03326665270061
 30
0.0
 11
-1.911766273768006
 21
0.5874944378329791
 31
0.0
210
0.0
220
0.0
230
1.0
 40
0.9345449999999999
 41
1.850459730901969
 42
3.14159302432637
  0
ELLIPSE
  5
617B
330
1F
100
AcDbEntity
  8
AM_0
100
AcDbEllipse
 10
-13.79899100000091
 20
78.61665765270038
 30
0.0
 11
-1.911766273768006
 21
0.5874944378329791
 31
0.0
210
0.0
220
0.0
230
1.0
 40
0.9345449999999999
 41
-1.291133250000019
 42
0.0
  0
ELLIPSE
  5
617C
330
1F
100
AcDbEntity
  8
AM_0
100
AcDbEllipse
 10
-13.79899100000091
 20
78.61665765270038
 30
0.0
 11
-1.911766273768006
 21
0.5874944378329791
 31
0.0
210
0.0
220
0.0
230
1.0
 40
0.9345449999999999
 41
0.0
 42
0.279662971137573
  0
ELLIPSE
  5
617D
330
1F
100
AcDbEntity
  8
AM_0
100
AcDbEllipse
 10
-14.29654700000081
 20
65.83871065270045
 30
0.0
 11
-1.911766273768006
 21
0.5874944378329791
 31
0.0
210
0.0
220
0.0
230
1.0
 40
0.9345449999999999
 41
0.279662971137573
 42
1.850459730901969
  0
ELLIPSE
  5
617E
330
1F
100
AcDbEntity
  8
AM_0
100
AcDbEllipse
 10
-13.79899100000079
 20
67.45780765270047
 30
0.0
 11
-1.911766273768006
 21
0.5874944378329791
 31
0.0
210
0.0
220
0.0
230
1.0
 40
0.9345449999999999
 41
1.063725250220469
 42
1.850459730901969
  0
ELLIPSE
  5
617F
330
1F
100
AcDbEntity
  8
AM_0
100
AcDbEllipse
 10
-38.40000000000076
 20
66.69465465270021
 30
0.0
 11
3.0
 21
0.0000000000000328
 31
0.0
210
0.0
220
0.0
230
1.0
 40
0.34202
 41
0.0
 42
1.57079621502451
  0
ELLIPSE
  5
6180
330
1F
100
AcDbEntity
  8
AM_0
100
AcDbEllipse
 10
-38.40000000000055
 20
47.72033465270018
 30
0.0
 11
5.988484248357646
 21
32.04128058041306
 31
0.0
210
0.0
220
0.0
230
1.0
 40
0.01158838091602
 41
-0.9974479098401799
 42
-0.7746311960796759
  0
ELLIPSE
  5
6181
330
1F
100
AcDbEntity
  8
AM_0
100
AcDbEllipse
 10
-38.40000000000055
 20
47.72033465270018
 30
0.0
 11
5.988484248357646
 21
32.04128058041306
 31
0.0
210
0.0
220
0.0
230
1.0
 40
0.01158838091602
 41
0.349233427063958
 42
0.8736044317141439
  0
ELLIPSE
  5
6182
330
1F
100
AcDbEntity
  8
AM_0
100
AcDbEllipse
 10
-33.50244300000089
 20
73.82070265270023
 30
0.0
 11
0.5403904950059644
 21
3.249844754291006
 31
0.0
210
0.0
220
0.0
230
1.0
 40
0.05869022212091
 41
0.009762816312222
 42
3.15134433469479
  0
ELLIPSE
  5
6183
330
1F
100
AcDbEntity
  8
AM_0
100
AcDbEllipse
 10
-38.40000000000076
 20
66.69465465270021
 30
0.0
 11
6.0
 21
0.0000000000000656
 31
0.0
210
0.0
220
0.0
230
1.0
 40
0.34202016666667
 41
0.9355191735479779
 42
3.1415936664791
  0
ELLIPSE
  5
6184
330
1F
100
AcDbEntity
  8
AM_0
100
AcDbEllipse
 10
-38.40000000000076
 20
66.69465465270021
 30
0.0
 11
6.0
 21
0.0000000000000656
 31
0.0
210
0.0
220
0.0
230
1.0
 40
0.34202016666667
 41
3.1415936664791
 42
5.34766574931044
  0
ELLIPSE
  5
6185
330
1F
100
AcDbEntity
  8
AM_0
100
AcDbEllipse
 10
-38.40000000000076
 20
66.69465465270021
 30
0.0
 11
3.0
 21
0.0000000000000328
 31
0.0
210
0.0
220
0.0
230
1.0
 40
0.34202
 41
1.57079621502451
 42
3.1415936664791
  0
ELLIPSE
  5
6186
330
1F
100
AcDbEntity
  8
AM_0
100
AcDbEllipse
 10
-38.40000000000076
 20
66.69465465270021
 30
0.0
 11
3.0
 21
0.0000000000000328
 31
0.0
210
0.0
220
0.0
230
1.0
 40
0.34202
 41
3.1415936664791
 42
6.283184408925299
  0
ELLIPSE
  5
6187
330
1F
100
AcDbEntity
  8
AM_0
100
AcDbEllipse
 10
-38.40000000000088
 20
77.03127365270013
 30
0.0
 11
6.0
 21
0.0000000000000656
 31
0.0
210
0.0
220
0.0
230
1.0
 40
0.34202016666667
 41
0.411138234073143
 42
3.1415936664791
  0
ELLIPSE
  5
6188
330
1F
100
AcDbEntity
  8
AM_0
100
AcDbEllipse
 10
-9.429544000000756
 20
67.32625365270047
 30
0.0
 11
3.001175240374
 21
0.0087514518060328
 31
0.0
210
0.0
220
0.0
230
1.0
 40
0.35380522646365
 41
1.46137911659883
 42
3.130946883473579
  0
ELLIPSE
  5
6189
330
1F
100
AcDbEntity
  8
AM_0
100
AcDbEllipse
 10
-9.429544000000756
 20
67.32625365270047
 30
0.0
 11
3.001175240374
 21
0.0087514518060328
 31
0.0
210
0.0
220
0.0
230
1.0
 40
0.35380522646365
 41
6.27254051606492
 42
11.10499123220948
  0
ELLIPSE
  5
618A
330
1F
100
AcDbEntity
  8
AM_0
100
AcDbEllipse
 10
-9.429544000000756
 20
67.32625365270047
 30
0.0
 11
3.001175240374
 21
0.0087514518060328
 31
0.0
210
0.0
220
0.0
230
1.0
 40
0.35380522646365
 41
3.130946883473579
 42
6.27254051606492
  0
LINE
  5
618B
330
1F
100
AcDbEntity
  8
AM_0
100
AcDbLine
 10
-13.47202900000083
 20
68.89571465270048
 30
0.0
 11
-1.537766000000838
 21
68.46670465270065
 31
0.0
  0
LINE
  5
618C
330
1F
100
AcDbEntity
  8
AM_0
100
AcDbLine
 10
-2.486599000000763
 20
63.53478365270054
 30
0.0
 11
-14.0555470000008
 21
63.95066165270043
 31
0.0
  0
LINE
  5
618D
330
1F
100
AcDbEntity
  8
AM_0
100
AcDbLine
 10
-14.63045400000072
 20
62.07985565270052
 30
0.0
 11
-2.696191000000729
 21
61.6508456527006
 31
0.0
  0
LINE
  5
618E
330
1F
100
AcDbEntity
  8
AM_0
100
AcDbLine
 10
-13.87103400000078
 20
65.96129565270041
 30
0.0
 11
-2.434032000000775
 21
65.5501616527006
 31
0.0
  0
LINE
  5
618F
330
1F
100
AcDbEntity
  8
AM_0
100
AcDbLine
 10
-13.79899100000077
 20
65.57842265270039
 30
0.0
 11
-1.989044000000804
 21
65.15388165270066
 31
0.0
  0
LINE
  5
6190
330
1F
100
AcDbEntity
  8
AM_0
100
AcDbLine
 10
-14.29654700000078
 20
63.95932565270038
 30
0.0
 11
-2.486599000000763
 21
63.53478365270054
 31
0.0
  0
LINE
  5
6191
330
1F
100
AcDbEntity
  8
AM_0
100
AcDbLine
 10
-3.677596000000902
 20
77.88443265270053
 30
0.0
 11
-13.2184820000009
 21
78.22740565270045
 31
0.0
  0
LINE
  5
6192
330
1F
100
AcDbEntity
  8
AM_0
100
AcDbLine
 10
-1.987634776409739
 20
80.07145099428591
 30
0.0
 11
-13.79899100000093
 21
80.49604265270046
 31
0.0
  0
LINE
  5
6193
330
1F
100
AcDbEntity
  8
AM_3
100
AcDbLine
 10
-15.58924227069556
 20
79.50000000000009
 30
0.0
 11
-3.400000000000846
 21
79.50000000000023
 31
0.0
  0
LINE
  5
6194
330
1F
100
AcDbEntity
  8
AM_0
100
AcDbLine
 10
-21.40705523608207
 20
50.1588790706481
 30
0.0
 11
-3.382361909794923
 21
54.98858109124539
 31
0.0
  0
LINE
  5
6195
330
1F
100
AcDbEntity
  8
AM_0
100
AcDbLine
 10
-46.32180073764541
 20
79.5
 30
0.0
 11
-15.5892422706956
 21
79.50000000000001
 31
0.0
  0
LINE
  5
6196
330
1F
100
AcDbEntity
  8
AM_0
100
AcDbLine
 10
-48.29141624366982
 20
77.84729635533385
 30
0.0
 11
-52.91022968722979
 21
51.65270364466614
 31
0.0
  0
ARC
  5
6197
330
1F
100
AcDbEntity
  8
AM_0
100
AcDbCircle
 10
-46.32180073764541
 20
77.5
 30
0.0
 40
2.0
100
AcDbArc
 50
90.00000000000003
 51
170.0000000000001
1001
GENIUS_GENODEF_13
1002
{
1000
HIER
1070
     0
1002
}
1002
{
1000
MANEDIT
1070
     0
1002
}
1002
{
1000
NOSEL
1070
     0
1002
}
1002
{
1000
BEHIND
1070
     0
1002
}
1002
{
1000
REACTOR
1002
}
1001
GENIUS_GENOBJ-N-FIL_13
1002
{
1000
OWNER
1000
GEN
1002
}
  0
LINE
  5
6198
330
1F
100
AcDbEntity
  8
AM_0
100
AcDbLine
 10
-57.70000000000004
 20
50.0
 30
0.0
 11
-60.00000000000006
 21
47.7
 31
0.0
1001
GENIUS_GENFIL_13
1070
     0
1040
2.299999999999999
1040
2.299999999999999
1040
20.0
1040
0.0
1002
{
1002
}
1001
GENIUS_GENODEF_13
1002
{
1000
HIER
1070
     0
1002
}
1002
{
1000
MANEDIT
1070
     0
1002
}
1002
{
1000
NOSEL
1070
     0
1002
}
1002
{
1000
BEHIND
1070
     0
1002
}
1002
{
1000
REACTOR
1002
}
1001
GENIUS_GENOBJ-N-CHA_13
1002
{
1000
OWNER
1000
GEN
1002
}
  0
LINE
  5
6199
330
1F
100
AcDbEntity
  8
AM_0
100
AcDbLine
 10
-57.70000000000004
 20
50.0
 30
0.0
 11
-54.87984519325419
 21
50.0
 31
0.0
  0
ARC
  5
619A
330
1F
100
AcDbEntity
  8
AM_0
100
AcDbCircle
 10
-54.87984519325419
 20
52.0
 30
0.0
 40
2.0
100
AcDbArc
 50
270.0
 51
350.0000000000001
1001
GENIUS_GENODEF_13
1002
{
1000
HIER
1070
     0
1002
}
1002
{
1000
MANEDIT
1070
     0
1002
}
1002
{
1000
NOSEL
1070
     0
1002
}
1002
{
1000
BEHIND
1070
     0
1002
}
1002
{
1000
REACTOR
1002
}
1001
GENIUS_GENOBJ-N-FIL_13
1002
{
1000
OWNER
1000
GEN
1002
}
  0
LINE
  5
619B
330
1F
100
AcDbEntity
  8
AM_0
100
AcDbLine
 10
-17.33161100000075
 20
67.78833365270052
 30
0.0
 11
-13.47202900000083
 21
68.89571465270048
 31
0.0
  0
LINE
  5
619C
330
1F
100
AcDbEntity
  8
AM_0
100
AcDbLine
 10
-17.05269200000088
 20
78.0538226527004
 30
0.0
 11
-17.33161100000075
 21
67.78833365270052
 31
0.0
  0
LINE
  5
619D
330
1F
100
AcDbEntity
  8
AM_0
100
AcDbLine
 10
-17.64006500000077
 20
66.78459265270039
 30
0.0
 11
-17.64006500000089
 21
77.55732365270041
 31
0.0
  0
LINE
  5
619E
330
1F
100
AcDbEntity
  8
AM_0
100
AcDbLine
 10
-34.83959700000079
 20
65.04288765270018
 30
0.0
 11
-34.83959700000083
 21
68.34642165270031
 31
0.0
  0
LINE
  5
619F
330
1F
100
AcDbEntity
  8
AM_0
100
AcDbLine
 10
-44.40000000000088
 20
77.03127365270008
 30
0.0
 11
-44.40000000000076
 21
66.69465465270015
 31
0.0
  0
LINE
  5
61A0
330
1F
100
AcDbEntity
  8
AM_0
100
AcDbLine
 10
-28.07553200000076
 20
69.32070265270029
 30
0.0
 11
-23.07553200000076
 21
69.32070265270034
 31
0.0
  0
LINE
  5
61A1
330
1F
100
AcDbEntity
  8
AM_0
100
AcDbLine
 10
-23.07553200000086
 20
78.32070265270035
 30
0.0
 11
-28.07553200000086
 21
78.32070265270029
 31
0.0
  0
LINE
  5
61A2
330
1F
100
AcDbEntity
  8
AM_0
100
AcDbLine
 10
-28.07553200000085
 20
77.07070265270029
 30
0.0
 11
-32.96394000000088
 21
77.07070265270025
 31
0.0
  0
LINE
  5
61A3
330
1F
100
AcDbEntity
  8
AM_0
100
AcDbLine
 10
-34.04094500000085
 20
70.57070265270024
 30
0.0
 11
-28.07553200000078
 21
70.57070265270029
 31
0.0
  0
LINE
  5
61A4
330
1F
100
AcDbEntity
  8
AM_0
100
AcDbLine
 10
-32.90000000000087
 20
77.07070265270025
 30
0.0
 11
-32.90000000000088
 21
77.85140865270026
 31
0.0
  0
LINE
  5
61A5
330
1F
100
AcDbEntity
  8
AM_0
100
AcDbLine
 10
-28.07553200000076
 20
69.32070265270029
 30
0.0
 11
-28.07553200000083
 21
75.35979365270027
 31
0.0
  0
LINE
  5
61A6
330
1F
100
AcDbEntity
  8
AM_0
100
AcDbLine
 10
-28.07553200000083
 20
75.35979365270027
 30
0.0
 11
-28.07553200000086
 21
78.32070265270029
 31
0.0
  0
LINE
  5
61A7
330
1F
100
AcDbEntity
  8
AM_0
100
AcDbLine
 10
-13.2184820000009
 20
78.22740565270045
 30
0.0
 11
-17.05269200000088
 21
78.0538226527004
 31
0.0
  0
LINE
  5
61A8
330
1F
100
AcDbEntity
  8
AM_0
100
AcDbLine
 10
-23.07553200000083
 20
75.53080365270036
 30
0.0
 11
-23.07553200000087
 21
78.82070265270034
 31
0.0
  0
LINE
  5
61A9
330
1F
100
AcDbEntity
  8
AM_0
100
AcDbLine
 10
-19.07553200000083
 20
75.5308036527004
 30
0.0
 11
-19.07553200000087
 21
78.82070265270039
 31
0.0
  0
LINE
  5
61AA
330
1F
100
AcDbEntity
  8
AM_0
100
AcDbLine
 10
-19.07553200000087
 20
78.82070265270039
 30
0.0
 11
-23.07553200000087
 21
78.82070265270034
 31
0.0
  0
LINE
  5
61AB
330
1F
100
AcDbEntity
  8
AM_0
100
AcDbLine
 10
-23.07553200000076
 20
68.82070265270034
 30
0.0
 11
-19.07553200000076
 21
68.82070265270039
 31
0.0
  0
LINE
  5
61AC
330
1F
100
AcDbEntity
  8
AM_0
100
AcDbLine
 10
-23.07553200000076
 20
68.82070265270034
 30
0.0
 11
-23.07553200000083
 21
75.53080365270036
 31
0.0
  0
LINE
  5
61AD
330
1F
100
AcDbEntity
  8
AM_0
100
AcDbLine
 10
-19.07553200000076
 20
68.82070265270039
 30
0.0
 11
-19.07553200000083
 21
75.5308036527004
 31
0.0
  0
LINE
  5
61AE
330
1F
100
AcDbEntity
  8
AM_0
100
AcDbLine
 10
-17.64006500000087
 20
75.8207026527004
 30
0.0
 11
-19.07553200000083
 21
75.82070265270039
 31
0.0
  0
LINE
  5
61AF
330
1F
100
AcDbEntity
  8
AM_0
100
AcDbLine
 10
-17.05269200000088
 20
78.0538226527004
 30
0.0
 11
-17.64006500000089
 21
77.55732365270041
 31
0.0
  0
LINE
  5
61B0
330
1F
100
AcDbEntity
  8
AM_0
100
AcDbLine
 10
-19.07553200000079
 20
71.82070265270039
 30
0.0
 11
-17.64006500000083
 21
71.8207026527004
 31
0.0
  0
LINE
  5
61B1
330
1F
100
AcDbEntity
  8
AM_0
100
AcDbLine
 10
-15.78803500000095
 20
78.68815965270037
 30
0.0
 11
-15.78803500000094
 21
78.11107665270047
 31
0.0
  0
LINE
  5
61B2
330
1F
100
AcDbEntity
  8
AM_0
100
AcDbLine
 10
-15.78803500000095
 20
78.68815965270037
 30
0.0
 11
-15.96787700000095
 21
78.10293465270046
 31
0.0
  0
LINE
  5
61B3
330
1F
100
AcDbEntity
  8
AM_0
100
AcDbLine
 10
-15.71075800000092
 20
79.20415165270047
 30
0.0
 11
-16.05031300000087
 21
78.09920265270044
 31
0.0
  0
LINE
  5
61B4
330
1F
100
AcDbEntity
  8
AM_0
100
AcDbLine
 10
-13.2184820000009
 20
78.22740565270045
 30
0.0
 11
-13.47202900000083
 21
68.89571465270048
 31
0.0
  0
LINE
  5
61B5
330
1F
100
AcDbEntity
  8
AM_0
100
AcDbLine
 10
-13.81877000000081
 20
66.13136965270053
 30
0.0
 11
-16.30507500000077
 21
66.22074665270051
 31
0.0
  0
LINE
  5
61B6
330
1F
100
AcDbEntity
  8
AM_0
100
AcDbLine
 10
-16.19141800000078
 20
66.21666065270038
 30
0.0
 11
-16.28559100000078
 21
65.91021165270044
 31
0.0
  0
LINE
  5
61B7
330
1F
100
AcDbEntity
  8
AM_0
100
AcDbLine
 10
-16.28559100000079
 20
66.22004565270046
 30
0.0
 11
-16.28559100000078
 21
65.91021165270044
 31
0.0
  0
LINE
  5
61B8
330
1F
100
AcDbEntity
  8
AM_0
100
AcDbLine
 10
-17.33161100000075
 20
67.78833365270052
 30
0.0
 11
-17.64006500000077
 21
66.78459265270039
 31
0.0
  0
LINE
  5
61B9
330
1F
100
AcDbEntity
  8
AM_0
100
AcDbLine
 10
-16.30507500000077
 20
66.22074665270051
 30
0.0
 11
-17.64006500000077
 21
66.78459265270039
 31
0.0
  0
ARC
  5
61BA
330
1F
100
AcDbEntity
  8
AM_0
100
AcDbCircle
 10
-21.20000000000004
 20
49.38613840961685
 30
0.0
 40
0.8
100
AcDbArc
 50
104.9999999999999
 51
180.0
1001
GENIUS_GENODEF_13
1002
{
1000
HIER
1070
     0
1002
}
1002
{
1000
MANEDIT
1070
     0
1002
}
1002
{
1000
NOSEL
1070
     0
1002
}
1002
{
1000
BEHIND
1070
     0
1002
}
1002
{
1000
REACTOR
1002
}
1001
GENIUS_GENOBJ-N-FIL_13
1002
{
1000
OWNER
1000
GEN
1002
}
  0
LINE
  5
61BB
330
1F
100
AcDbEntity
  8
AM_0
100
AcDbLine
 10
-14.0555470000008
 20
63.95066165270043
 30
0.0
 11
-14.63045400000072
 21
62.07985565270052
 31
0.0
  0
LINE
  5
61BC
330
1F
100
AcDbEntity
  8
AM_0
100
AcDbLine
 10
-14.63045400000072
 20
62.07985565270052
 30
0.0
 11
-16.12223700000079
 21
63.5430206527004
 31
0.0
  0
LINE
  5
61BD
330
1F
100
AcDbEntity
  8
AM_0
100
AcDbLine
 10
-16.12223700000079
 20
63.5430206527004
 30
0.0
 11
-15.78382000000075
 21
64.64426365270047
 31
0.0
  0
LINE
  5
61BE
330
1F
100
AcDbEntity
  8
AM_0
100
AcDbLine
 10
-16.12223700000081
 20
65.15846065270044
 30
0.0
 11
-16.12223700000079
 21
63.5430206527004
 31
0.0
  0
LINE
  5
61BF
330
1F
100
AcDbEntity
  8
AM_0
100
AcDbLine
 10
-13.87103400000078
 20
65.96129565270041
 30
0.0
 11
-13.81877000000081
 21
66.13136965270053
 31
0.0
  0
LINE
  5
61C0
330
1F
100
AcDbEntity
  8
AM_0
100
AcDbLine
 10
-13.87103400000078
 20
65.96129565270041
 30
0.0
 11
-13.87103400000079
 21
66.13324765270045
 31
0.0
  0
LINE
  5
61C1
330
1F
100
AcDbEntity
  8
AM_0
100
AcDbLine
 10
-13.79899100000077
 20
65.57842265270039
 30
0.0
 11
-14.29654700000078
 21
63.95932565270038
 31
0.0
  0
LINE
  5
61C2
330
1F
100
AcDbEntity
  8
AM_0
100
AcDbLine
 10
-2.434032000000775
 20
65.5501616527006
 30
0.0
 11
-1.537766000000838
 21
68.46670465270065
 31
0.0
  0
LINE
  5
61C3
330
1F
100
AcDbEntity
  8
AM_0
100
AcDbLine
 10
-0.0000000000007888
 20
66.96176465270063
 30
0.0
 11
-0.0000000000009108
 21
78.12061465270066
 31
0.0
  0
LINE
  5
61C4
330
1F
100
AcDbEntity
  8
AM_3
100
AcDbLine
 10
-1.900000000000829
 20
78.00000000000025
 30
0.0
 11
-1.900000000000653
 21
62.374520428042
 31
0.0
  0
ARC
  5
61C5
330
1F
100
AcDbEntity
  8
AM_3
100
AcDbCircle
 10
-3.400000000000829
 20
78.00000000000022
 30
0.0
 40
1.5
100
AcDbArc
 50
0.0000000000006247
 51
90.00000000000062
1001
GENIUS_GENODEF_13
1002
{
1000
HIER
1070
     0
1002
}
1002
{
1000
MANEDIT
1070
     0
1002
}
1002
{
1000
NOSEL
1070
     0
1002
}
1002
{
1000
BEHIND
1070
     0
1002
}
1002
{
1000
REACTOR
1002
}
1001
GENIUS_GENOBJ-N-FIL_13
1002
{
1000
OWNER
1000
GEN
1002
}
  0
LINE
  5
61C6
330
1F
100
AcDbEntity
  8
AM_11
100
AcDbLine
 10
-1.989042808518897
 20
80.07150208154094
 30
0.0
 11
-0.0000000000009314
 21
80.00000000000026
 31
0.0
  0
LINE
  5
61C7
330
1F
100
AcDbEntity
  8
AM_0
100
AcDbLine
 10
-1.514881000000817
 20
69.30898265270051
 30
0.0
 11
-3.677596000000902
 21
77.88443265270053
 31
0.0
  0
LINE
  5
61C8
330
1F
100
AcDbEntity
  8
AM_0
100
AcDbLine
 10
-1.537766000000838
 20
68.46670465270065
 30
0.0
 11
-1.514881000000817
 21
69.30898265270051
 31
0.0
  0
LINE
  5
61C9
330
1F
100
AcDbEntity
  8
AM_0
100
AcDbLine
 10
-1.204408000000746
 20
63.0067586527006
 30
0.0
 11
-2.696191000000729
 21
61.6508456527006
 31
0.0
  0
LINE
  5
61CA
330
1F
100
AcDbEntity
  8
AM_0
100
AcDbLine
 10
-2.696191000000729
 20
61.6508456527006
 30
0.0
 11
-2.121284000000697
 21
63.52165165270051
 31
0.0
  0
LINE
  5
61CB
330
1F
100
AcDbEntity
  8
AM_0
100
AcDbLine
 10
-1.989044000000804
 20
65.15388165270066
 30
0.0
 11
-2.486599000000763
 21
63.53478365270054
 31
0.0
  0
LINE
  5
61CC
330
1F
100
AcDbEntity
  8
AM_0
100
AcDbLine
 10
-2.121284000000697
 20
63.52165165270051
 30
0.0
 11
-2.486599000000763
 21
63.53478365270054
 31
0.0
  0
LINE
  5
61CD
330
1F
100
AcDbEntity
  8
AM_0
100
AcDbLine
 10
-2.121284000000697
 20
63.52165165270051
 30
0.0
 11
-2.079093000000808
 21
63.56000065270066
 31
0.0
  0
LINE
  5
61CE
330
1F
100
AcDbEntity
  8
AM_0
100
AcDbLine
 10
-1.204408000000746
 20
63.0067586527006
 30
0.0
 11
-0.7802060000007818
 21
64.3871576527006
 31
0.0
  0
LINE
  5
61CF
330
1F
100
AcDbEntity
  8
AM_0
100
AcDbLine
 10
-0.5748330000007779
 20
64.82667565270064
 30
0.0
 11
-0.0772770000007642
 21
66.44577265270054
 31
0.0
  0
ARC
  5
61D0
330
1F
100
AcDbEntity
  8
AM_0
100
AcDbCircle
 10
-3.899999999999977
 20
56.92043274382353
 30
0.0
 40
2.0
100
AcDbArc
 50
285.0
 51
359.9999999999999
1001
GENIUS_GENODEF_13
1002
{
1000
HIER
1070
     0
1002
}
1002
{
1000
MANEDIT
1070
     0
1002
}
1002
{
1000
NOSEL
1070
     0
1002
}
1002
{
1000
BEHIND
1070
     0
1002
}
1002
{
1000
REACTOR
1002
}
1001
GENIUS_GENOBJ-N-FIL_13
1002
{
1000
OWNER
1000
GEN
1002
}
  0
LINE
  5
61D1
330
1F
100
AcDbEntity
  8
AM_0
100
AcDbLine
 10
-48.08348486100886
 20
25.4
 30
0.0
 11
-23.30000000000006
 21
25.4
 31
0.0
  0
LINE
  5
61D2
330
1F
100
AcDbEntity
  8
AM_0
100
AcDbLine
 10
-49.00000000000003
 20
8.5
 30
0.0
 11
-49.0
 21
0.0
 31
0.0
  0
LINE
  5
61D3
330
1F
100
AcDbEntity
  8
AM_0
100
AcDbLine
 10
-58.20000000000002
 20
9.5
 30
0.0
 11
-50.00000000000003
 21
9.499999999999992
 31
0.0
  0
LINE
  5
61D4
330
1F
100
AcDbEntity
  8
AM_0
100
AcDbLine
 10
-57.70000000000004
 20
26.0
 30
0.0
 11
-49.00000000000003
 21
25.99999999999999
 31
0.0
  0
LINE
  5
61D5
330
1F
100
AcDbEntity
  8
AM_0
100
AcDbLine
 10
-57.70000000000004
 20
26.0
 30
0.0
 11
-57.70000000000004
 21
9.5
 31
0.0
  0
LINE
  5
61D6
330
1F
100
AcDbEntity
  8
AM_0
100
AcDbLine
 10
-58.20000000000002
 20
9.5
 30
0.0
 11
-60.00000000000003
 21
11.29999999999999
 31
0.0
1001
GENIUS_GENFIL_13
1070
     0
1040
1.8
1040
1.8
1040
20.0
1040
0.0
1002
{
1002
}
1001
GENIUS_GENODEF_13
1002
{
1000
HIER
1070
     0
1002
}
1002
{
1000
MANEDIT
1070
     0
1002
}
1002
{
1000
NOSEL
1070
     0
1002
}
1002
{
1000
BEHIND
1070
     0
1002
}
1002
{
1000
REACTOR
1002
}
1001
GENIUS_GENOBJ-N-CHA_13
1002
{
1000
OWNER
1000
GEN
1002
}
  0
LINE
  5
61D7
330
1F
100
AcDbEntity
  8
AM_0
100
AcDbLine
 10
-48.00000000000003
 20
24.99999999999999
 30
0.0
 11
-48.00000000000011
 21
0.0
 31
0.0
  0
ARC
  5
61D8
330
1F
100
AcDbEntity
  8
AM_0
100
AcDbCircle
 10
-49.00000000000003
 20
24.99999999999999
 30
0.0
 40
1.0
100
AcDbArc
 50
0.0
 51
90.00000000000003
1001
GENIUS_GENODEF_13
1002
{
1000
HIER
1070
     0
1002
}
1002
{
1000
MANEDIT
1070
     0
1002
}
1002
{
1000
NOSEL
1070
     0
1002
}
1002
{
1000
BEHIND
1070
     0
1002
}
1002
{
1000
REACTOR
1002
}
1001
GENIUS_GENOBJ-N-FIL_13
1002
{
1000
OWNER
1000
GEN
1002
}
  0
ARC
  5
61D9
330
1F
100
AcDbEntity
  8
AM_0
100
AcDbCircle
 10
-50.00000000000003
 20
8.499999999999992
 30
0.0
 40
1.0
100
AcDbArc
 50
0.0000000000003703
 51
90.00000000000003
1001
GENIUS_GENODEF_13
1002
{
1000
HIER
1070
     0
1002
}
1002
{
1000
MANEDIT
1070
     0
1002
}
1002
{
1000
NOSEL
1070
     0
1002
}
1002
{
1000
BEHIND
1070
     0
1002
}
1002
{
1000
REACTOR
1002
}
1001
GENIUS_GENOBJ-N-FIL_13
1002
{
1000
OWNER
1000
GEN
1002
}
  0
LINE
  5
61DA
330
1F
100
AcDbEntity
  8
AM_0
100
AcDbLine
 10
-23.30000000000004
 20
25.4
 30
0.0
 11
-23.30000000000004
 21
0.0
 31
0.0
  0
LINE
  5
61DB
330
1F
100
AcDbEntity
  8
AM_0
100
AcDbLine
 10
-22.00000000000005
 20
26.70000000000001
 30
0.0
 11
-23.30000000000006
 21
25.4
 31
0.0
1001
GENIUS_GENFIL_13
1070
     0
1040
1.3
1040
1.3
1040
20.0
1040
0.0
1002
{
1002
}
1001
GENIUS_GENODEF_13
1002
{
1000
HIER
1070
     0
1002
}
1002
{
1000
MANEDIT
1070
     0
1002
}
1002
{
1000
NOSEL
1070
     0
1002
}
1002
{
1000
BEHIND
1070
     0
1002
}
1002
{
1000
REACTOR
1002
}
1001
GENIUS_GENOBJ-N-CHA_13
1002
{
1000
OWNER
1000
GEN
1002
}
  0
VIEWPORT
  5
110
330
101
100
AcDbEntity
 67
     1
  8
0
100
AcDbViewport
 10
420.5
 20
297.0
 30
0.0
 40
948.9782706766916
 41
628.452
 68
     1
 69
     1
1001
ACAD
1000
MVIEW
1002
{
1070
    16
1010
0.0
1020
0.0
1030
0.0
1010
0.0
1020
0.0
1030
1.0
1040
0.0
1040
628.452
1040
420.5
1040
297.0
1040
50.0
1040
0.0
1040
0.0
1070
     0
1070
   100
1070
     1
1070
     1
1070
     0
1070
     0
1070
     0
1070
     0
1040
0.0
1040
0.0
1040
0.0
1040
10.0
1040
10.0
1040
10.0
1040
10.0
1070
     0
1002
{
1002
}
1002
}
  0
ENDSEC
  0
SECTION
  2
OBJECTS
  0
DICTIONARY
  5
C
330
0
100
AcDbDictionary
  3
ACAD_GROUP
350
D
  3
ACAD_LAYOUT
350
1A
  3
ACAD_MLINESTYLE
350
17
  3
ACAD_PLOTSETTINGS
350
19
  3
ACAD_PLOTSTYLENAME
350
E
  3
ACDBVARIABLEDICTIONARY
350
34
  3
ACMDICTIONARY
350
43
  3
AMG
350
2B
  3
AMGSNAPSETTINGS
350
6E
  3
DWGPROPS
350
628D
  3
ACDBHEADERROUNDTRIPXREC
350
629A
  0
DICTIONARY
  5
74
330
1F
100
AcDbDictionary
280
     1
  3
ACAD_INDEX
360
628F
  3
ACAD_LAYOUTSELFREF
360
62BD
  0
DICTIONARY
  5
62C2
330
101
100
AcDbDictionary
280
     1
  3
ACAD_LAYOUTSELFREF
360
62C3
  0
DICTIONARY
  5
D
102
{ACAD_REACTORS
330
C
102
}
330
C
100
AcDbDictionary
  0
DICTIONARY
  5
1A
102
{ACAD_REACTORS
330
C
102
}
330
C
100
AcDbDictionary
  0
DICTIONARY
  5
17
102
{ACAD_REACTORS
330
C
102
}
330
C
100
AcDbDictionary
  3
STANDARD
350
18
  0
DICTIONARY
  5
19
102
{ACAD_REACTORS
330
C
102
}
330
C
100
AcDbDictionary
  0
ACDBDICTIONARYWDFLT
  5
E
102
{ACAD_REACTORS
330
C
102
}
330
C
100
AcDbDictionary
281
     1
  3
Normal
350
F
100
AcDbDictionaryWithDefault
340
F
  0
DICTIONARY
  5
34
102
{ACAD_REACTORS
330
C
102
}
330
C
100
AcDbDictionary
  3
INDEXCTL
350
35
  3
SORTENTS
350
B5E
  0
DICTIONARY
  5
43
102
{ACAD_REACTORS
330
C
102
}
330
C
100
AcDbDictionary
  3
ACMSTDDICTIONARY
350
260
  0
DICTIONARY
  5
2B
102
{ACAD_REACTORS
330
C
102
}
330
C
100
AcDbDictionary
  3
ACMGSETTINGS
350
2C
  0
DICTIONARY
  5
6E
102
{ACAD_REACTORS
330
C
102
}
330
C
100
AcDbDictionary
  0
XRECORD
  5
628D
102
{ACAD_REACTORS
330
C
102
}
330
C
100
AcDbXrecord
  1
DWGPROPS COOKIE
  2

  3

  4

  6

  7

  8

  9

300
AmdtFileType=82
301
=
302
=
303
=
304
=
305
=
306
=
307
=
308
=
309
=
 40
0.0983448726851852
 41
2452836.771637361
 42
2452913.479858565
  1

 90
        1
  0
DICTIONARY
  5
629A
102
{ACAD_REACTORS
330
C
102
}
330
C
100
AcDbDictionary
  3
TSTACKALIGN
350
629B
  3
TSTACKSIZE
350
629C
  3
HYPERLINKBASE
350
629D
  3
STYLESHEET
350
629E
  3
LAYOUTDICT
350
629F
  3
PLOTSETDICT
350
62A0
  3
PLOTSTYLNAMDICT
350
62A1
  3
LWETCUNION
350
62A2
  3
INSUNITS
350
62A3
  3
CEPSNTYPE
350
62A4
  3
FINGERPRINTGUID
350
62A5
  3
VERSIONGUID
350
62A6
  3
PSVPSCALE
350
62A7
  3
DIMSTYLEDATA
350
62A8
  3
PUCSORTHOREF
350
62A9
  3
PUCSORTHOVIEW
350
62AA
  3
PUCSBASE
350
62AB
  3
PUCSORGTOP
350
62AC
  3
PUCSORGBOTTOM
350
62AD
  3
PUCSORGLEFT
350
62AE
  3
PUCSORGRIGHT
350
62AF
  3
PUCSORGFRONT
350
62B0
  3
PUCSORGBACK
350
62B1
  3
UCSORTHOREF
350
62B2
  3
UCSORTHOVIEW
350
62B3
  3
UCSBASE
350
62B4
  3
UCSORGTOP
350
62B5
  3
UCSORGBOTTOM
350
62B6
  3
UCSORGLEFT
350
62B7
  3
UCSORGRIGHT
350
62B8
  3
UCSORGFRONT
350
62B9
  3
UCSORGBACK
350
62BA
  0
DICTIONARY
  5
628F
102
{ACAD_REACTORS
330
74
102
}
330
74
100
AcDbDictionary
  3
*A1
350
6290
  0
XRECORD
  5
62BD
102
{ACAD_REACTORS
330
74
102
}
330
74
100
AcDbXrecord
340
1F
  0
XRECORD
  5
62C3
102
{ACAD_REACTORS
330
62C2
102
}
330
62C2
100
AcDbXrecord
340
101
  0
MLINESTYLE
  5
18
102
{ACAD_REACTORS
330
17
102
}
330
17
100
AcDbMlineStyle
  2
STANDARD
 70
     0
  3

 62
   256
 51
90.0
 52
90.0
 71
     2
 49
0.5
 62
   256
  6
BYLAYER
 49
-0.5
 62
   256
  6
BYLAYER
  0
ACDBPLACEHOLDER
  5
F
102
{ACAD_REACTORS
330
E
102
}
330
E
100
AcDbPlaceHolder
280
     0
  0
DICTIONARYVAR
  5
35
102
{ACAD_REACTORS
330
34
102
}
330
34
100
DictionaryVariables
280
     0
  1
1
  0
DICTIONARYVAR
  5
B5E
102
{ACAD_REACTORS
330
34
102
}
330
34
100
DictionaryVariables
280
     0
  1
96
  0
DICTIONARY
  5
260
102
{ACAD_REACTORS
330
43
102
}
330
43
100
AcDbDictionary
  0
DICTIONARY
  5
2C
102
{ACAD_REACTORS
330
2B
102
}
330
2B
100
AcDbDictionary
  3
DWGSETTINGS
350
2D
  0
XRECORD
  5
629B
102
{ACAD_REACTORS
330
629A
102
}
330
629A
100
AcDbXrecord
 90
        1
  0
XRECORD
  5
629C
102
{ACAD_REACTORS
330
629A
102
}
330
629A
100
AcDbXrecord
 90
       70
  0
XRECORD
  5
629D
102
{ACAD_REACTORS
330
629A
102
}
330
629A
100
AcDbXrecord
  1

  0
XRECORD
  5
629E
102
{ACAD_REACTORS
330
629A
102
}
330
629A
100
AcDbXrecord
  1
ASAMI.ctb
  0
XRECORD
  5
629F
102
{ACAD_REACTORS
330
629A
102
}
330
629A
100
AcDbXrecord
340
1A
  0
XRECORD
  5
62A0
102
{ACAD_REACTORS
330
629A
102
}
330
629A
100
AcDbXrecord
340
19
  0
XRECORD
  5
62A1
102
{ACAD_REACTORS
330
629A
102
}
330
629A
100
AcDbXrecord
340
E
  0
XRECORD
  5
62A2
102
{ACAD_REACTORS
330
629A
102
}
330
629A
100
AcDbXrecord
 90
    10781
  0
XRECORD
  5
62A3
102
{ACAD_REACTORS
330
629A
102
}
330
629A
100
AcDbXrecord
 90
        4
  0
XRECORD
  5
62A4
102
{ACAD_REACTORS
330
629A
102
}
330
629A
100
AcDbXrecord
 90
        0
  0
XRECORD
  5
62A5
102
{ACAD_REACTORS
330
629A
102
}
330
629A
100
AcDbXrecord
  1
{AFB28963-8C59-40AE-9337-C84526B81ACE}
  0
XRECORD
  5
62A6
102
{ACAD_REACTORS
330
629A
102
}
330
629A
100
AcDbXrecord
  1
{1F449231-F924-4B20-86B9-D11D9DD768E4}
  0
XRECORD
  5
62A7
102
{ACAD_REACTORS
330
629A
102
}
330
629A
100
AcDbXrecord
 40
0.0
  0
XRECORD
  5
62A8
102
{ACAD_REACTORS
330
629A
102
}
330
629A
100
AcDbXrecord
1000
DSTYLE
1002
{
1070
    79
 70
     2
1070
   341
340
59
1070
   342
340
59
1070
   371
 70
    -1
1070
   372
 70
    -1
1002
}
  0
XRECORD
  5
62A9
102
{ACAD_REACTORS
330
629A
102
}
330
629A
100
AcDbXrecord
340
0
  0
XRECORD
  5
62AA
102
{ACAD_REACTORS
330
629A
102
}
330
629A
100
AcDbXrecord
 70
     0
  0
XRECORD
  5
62AB
102
{ACAD_REACTORS
330
629A
102
}
330
629A
100
AcDbXrecord
340
0
  0
XRECORD
  5
62AC
102
{ACAD_REACTORS
330
629A
102
}
330
629A
100
AcDbXrecord
 10
0.0
 20
0.0
 30
0.0
  0
XRECORD
  5
62AD
102
{ACAD_REACTORS
330
629A
102
}
330
629A
100
AcDbXrecord
 10
0.0
 20
0.0
 30
0.0
  0
XRECORD
  5
62AE
102
{ACAD_REACTORS
330
629A
102
}
330
629A
100
AcDbXrecord
 10
0.0
 20
0.0
 30
0.0
  0
XRECORD
  5
62AF
102
{ACAD_REACTORS
330
629A
102
}
330
629A
100
AcDbXrecord
 10
0.0
 20
0.0
 30
0.0
  0
XRECORD
  5
62B0
102
{ACAD_REACTORS
330
629A
102
}
330
629A
100
AcDbXrecord
 10
0.0
 20
0.0
 30
0.0
  0
XRECORD
  5
62B1
102
{ACAD_REACTORS
330
629A
102
}
330
629A
100
AcDbXrecord
 10
0.0
 20
0.0
 30
0.0
  0
XRECORD
  5
62B2
102
{ACAD_REACTORS
330
629A
102
}
330
629A
100
AcDbXrecord
340
0
  0
XRECORD
  5
62B3
102
{ACAD_REACTORS
330
629A
102
}
330
629A
100
AcDbXrecord
 70
     0
  0
XRECORD
  5
62B4
102
{ACAD_REACTORS
330
629A
102
}
330
629A
100
AcDbXrecord
340
0
  0
XRECORD
  5
62B5
102
{ACAD_REACTORS
330
629A
102
}
330
629A
100
AcDbXrecord
 10
0.0
 20
0.0
 30
0.0
  0
XRECORD
  5
62B6
102
{ACAD_REACTORS
330
629A
102
}
330
629A
100
AcDbXrecord
 10
0.0
 20
0.0
 30
0.0
  0
XRECORD
  5
62B7
102
{ACAD_REACTORS
330
629A
102
}
330
629A
100
AcDbXrecord
 10
0.0
 20
0.0
 30
0.0
  0
XRECORD
  5
62B8
102
{ACAD_REACTORS
330
629A
102
}
330
629A
100
AcDbXrecord
 10
0.0
 20
0.0
 30
0.0
  0
XRECORD
  5
62B9
102
{ACAD_REACTORS
330
629A
102
}
330
629A
100
AcDbXrecord
 10
0.0
 20
0.0
 30
0.0
  0
XRECORD
  5
62BA
102
{ACAD_REACTORS
330
629A
102
}
330
629A
100
AcDbXrecord
 10
0.0
 20
0.0
 30
0.0
  0
LAYER_INDEX
  5
6290
102
{ACAD_REACTORS
330
628F
102
}
330
628F
100
AcDbIndex
 40
2453152.367299039
100
AcDbLayerIndex
  8
0
360
6291
 90
        0
  8
AM_0
360
6292
 90
      202
  8
AM_7
360
6293
 90
        1
  8
AM_5
360
6294
 90
        7
  8
Defpoints
360
6295
 90
        0
  8
AM_6
360
6296
 90
        1
  8
AM_11
360
6297
 90
        3
  8
AM_3
360
6298
 90
        6
  0
XRECORD
  5
2D
102
{ACAD_REACTORS
330
2C
102
}
330
2C
100
AcDbXrecord
  1
VERSION
140
15.0
  1
PRODUCT
  2
AutoCAD Mechanical 2000
  0
IDBUFFER
  5
6291
330
0
100
AcDbIdBuffer
  0
IDBUFFER
  5
6292
330
0
100
AcDbIdBuffer
330
617E
330
617F
330
6180
330
6181
330
6182
330
6183
330
6184
330
6185
330
6186
330
6187
330
6188
330
6189
330
618A
330
618B
330
618C
330
618D
330
618E
330
618F
330
6190
330
6191
330
6192
330
6194
330
6195
330
6196
330
6197
330
6198
330
6199
330
619A
330
619B
330
619C
330
619D
330
619E
330
619F
330
61A0
330
61A1
330
61A2
330
61A3
330
61A4
330
61A5
330
61A6
330
61A7
330
61A8
330
61A9
330
61AA
330
61AB
330
61AC
330
61AD
330
61AE
330
61AF
330
61B0
330
61B1
330
61B2
330
61B3
330
61B4
330
61B5
330
61B6
330
61B7
330
61B8
330
61B9
330
61BA
330
61BB
330
61BC
330
61BD
330
61BE
330
61BF
330
61C0
330
61C1
330
61C2
330
61C3
330
61C7
330
61C8
330
61C9
330
61CA
330
61CB
330
61CC
330
61CD
330
61CE
330
61CF
330
61D0
330
61D1
330
61D2
330
61D3
330
61D4
330
61D5
330
61D6
330
61D7
330
61D8
330
61D9
330
61DA
330
61DB
330
5D09
330
5D0A
330
5D0B
330
5D0C
330
5D0D
330
5D0E
330
5D0F
330
5D10
330
5D11
330
5D12
330
5D13
330
5D14
330
5D15
330
5D16
330
5D17
330
5D18
330
5D19
330
5D1A
330
5D1B
330
5D1C
330
5D1D
330
5D1E
330
5D1F
330
5D20
330
6086
330
6087
330
6088
330
6089
330
608A
330
608B
330
608C
330
608D
330
608E
330
608F
330
6090
330
6091
330
6092
330
6093
330
6094
330
6095
330
6096
330
6097
330
6098
330
6099
330
609A
330
609B
330
609C
330
609D
330
609E
330
609F
330
60A0
330
60A1
330
60A2
330
60A3
330
60A4
330
60A5
330
60A6
330
60A7
330
60A8
330
60A9
330
60AA
330
60AB
330
60AC
330
60AD
330
60AE
330
60AF
330
60B0
330
60B1
330
60B2
330
60B3
330
60B4
330
60B5
330
60B6
330
60B7
330
60B8
330
60B9
330
60BA
330
60BB
330
60BC
330
60BD
330
60BE
330
60BF
330
60C0
330
60C1
330
60C2
330
60C3
330
60C5
330
60C6
330
60C7
330
60C8
330
60C9
330
60CA
330
60CB
330
60CC
330
60CD
330
60CE
330
60CF
330
60D0
330
60D1
330
60D2
330
60D5
330
6173
330
6174
330
6175
330
6176
330
6177
330
6178
330
6179
330
617A
330
617B
330
617C
330
617D
  0
IDBUFFER
  5
6293
330
0
100
AcDbIdBuffer
330
555A
  0
IDBUFFER
  5
6294
330
0
100
AcDbIdBuffer
330
5D23
330
5D24
330
5D25
330
5D26
330
5D27
330
5D28
330
5D29
  0
IDBUFFER
  5
6295
330
0
100
AcDbIdBuffer
  0
IDBUFFER
  5
6296
330
0
100
AcDbIdBuffer
330
5D2A
  0
IDBUFFER
  5
6297
330
0
100
AcDbIdBuffer
330
5EDB
330
60D4
330
61C6
  0
IDBUFFER
  5
6298
330
0
100
AcDbIdBuffer
330
6085
330
60C4
330
60D3
330
6193
330
61C4
330
61C5
  0
ENDSEC
  0
EOF
