  0
SECTION
  2
HEADER
  9
$ACADVER
  1
AC1015
  9
$ACADMAINTVER
 70
    20
  9
$DWGCODEPAGE
  3
ANSI_932
  9
$INSBASE
 10
0.0
 20
0.0
 30
0.0
  9
$EXTMIN
 10
-102.5131227676198
 20
-80.23781829887928
 30
0.0
  9
$EXTMAX
 10
27.77771571539644
 20
362.5
 30
0.0
  9
$LIMMIN
 10
0.0
 20
0.0
  9
$LIMMAX
 10
420.0
 20
297.0
  9
$ORTHOMODE
 70
     0
  9
$REGENMODE
 70
     1
  9
$FILLMODE
 70
     1
  9
$QTEXTMODE
 70
     0
  9
$MIRRTEXT
 70
     1
  9
$LTSCALE
 40
1.0
  9
$ATTMODE
 70
     1
  9
$TEXTSIZE
 40
3.799999999999999
  9
$TRACEWID
 40
1.0
  9
$TEXTSTYLE
  7
ACISOTS
  9
$CLAYER
  8
AM_0
  9
$CELTYPE
  6
ByLayer
  9
$CECOLOR
 62
   256
  9
$CELTSCALE
 40
1.0
  9
$DISPSILH
 70
     0
  9
$DIMSCALE
 40
1.0
  9
$DIMASZ
 40
2.5
  9
$DIMEXO
 40
1.0
  9
$DIMDLI
 40
10.0
  9
$DIMRND
 40
0.0
  9
$DIMDLE
 40
0.0
  9
$DIMEXE
 40
1.0
  9
$DIMTP
 40
0.1
  9
$DIMTM
 40
0.1000000001
  9
$DIMTXT
 40
3.799999999999999
  9
$DIMCEN
 40
0.0
  9
$DIMTSZ
 40
0.0
  9
$DIMTOL
 70
     0
  9
$DIMLIM
 70
     0
  9
$DIMTIH
 70
     0
  9
$DIMTOH
 70
     0
  9
$DIMSE1
 70
     0
  9
$DIMSE2
 70
     0
  9
$DIMTAD
 70
     3
  9
$DIMZIN
 70
     8
  9
$DIMBLK
  1
Open30
  9
$DIMASO
 70
     1
  9
$DIMSHO
 70
     1
  9
$DIMPOST
  1

  9
$DIMAPOST
  1
"
  9
$DIMALT
 70
     0
  9
$DIMALTD
 70
     2
  9
$DIMALTF
 40
0.0393701
  9
$DIMLFAC
 40
1.0
  9
$DIMTOFL
 70
     1
  9
$DIMTVP
 40
0.0
  9
$DIMTIX
 70
     0
  9
$DIMSOXD
 70
     0
  9
$DIMSAH
 70
     0
  9
$DIMBLK1
  1

  9
$DIMBLK2
  1

  9
$DIMSTYLE
  2
AM_JIS
  9
$DIMCLRD
 70
   256
  9
$DIMCLRE
 70
   256
  9
$DIMCLRT
 70
     2
  9
$DIMTFAC
 40
0.71
  9
$DIMGAP
 40
1.5
  9
$DIMJUST
 70
     0
  9
$DIMSD1
 70
     0
  9
$DIMSD2
 70
     0
  9
$DIMTOLJ
 70
     0
  9
$DIMTZIN
 70
     8
  9
$DIMALTZ
 70
     0
  9
$DIMALTTZ
 70
     0
  9
$DIMUPT
 70
     0
  9
$DIMDEC
 70
     1
  9
$DIMTDEC
 70
     2
  9
$DIMALTU
 70
     2
  9
$DIMALTTD
 70
     2
  9
$DIMTXSTY
  7
STANDARD
  9
$DIMAUNIT
 70
     1
  9
$DIMADEC
 70
     0
  9
$DIMALTRND
 40
0.0
  9
$DIMAZIN
 70
     2
  9
$DIMDSEP
 70
    46
  9
$DIMATFIT
 70
     3
  9
$DIMFRAC
 70
     0
  9
$DIMLDRBLK
  1
Open30
  9
$DIMLUNIT
 70
     2
  9
$DIMLWD
 70
    -1
  9
$DIMLWE
 70
    -1
  9
$DIMTMOVE
 70
     0
  9
$LUNITS
 70
     2
  9
$LUPREC
 70
     2
  9
$SKETCHINC
 40
1.0
  9
$FILLETRAD
 40
2.5
  9
$AUNITS
 70
     0
  9
$AUPREC
 70
     0
  9
$MENU
  1
.
  9
$ELEVATION
 40
0.0
  9
$PELEVATION
 40
0.0
  9
$THICKNESS
 40
0.0
  9
$LIMCHECK
 70
     0
  9
$CHAMFERA
 40
2.5
  9
$CHAMFERB
 40
2.5
  9
$CHAMFERC
 40
20.0
  9
$CHAMFERD
 40
0.0
  9
$SKPOLY
 70
     0
  9
$TDCREATE
 40
2455540.343698449
  9
$TDUCREATE
 40
2455539.968698449
  9
$TDUPDATE
 40
2455540.370591540
  9
$TDUUPDATE
 40
2455539.995591540
  9
$TDINDWG
 40
0.0043903704
  9
$TDUSRTIMER
 40
0.0043903704
  9
$USRTIMER
 70
     1
  9
$ANGBASE
 50
0.0
  9
$ANGDIR
 70
     0
  9
$PDMODE
 70
     0
  9
$PDSIZE
 40
0.0
  9
$PLINEWID
 40
0.0
  9
$SPLFRAME
 70
     0
  9
$SPLINETYPE
 70
     6
  9
$SPLINESEGS
 70
    40
  9
$HANDSEED
  5
AF9
  9
$SURFTAB1
 70
     6
  9
$SURFTAB2
 70
     6
  9
$SURFTYPE
 70
     6
  9
$SURFU
 70
     6
  9
$SURFV
 70
     6
  9
$UCSBASE
  2

  9
$UCSNAME
  2

  9
$UCSORG
 10
0.0
 20
0.0
 30
0.0
  9
$UCSXDIR
 10
1.0
 20
0.0
 30
0.0
  9
$UCSYDIR
 10
0.0
 20
1.0
 30
0.0
  9
$UCSORTHOREF
  2

  9
$UCSORTHOVIEW
 70
     0
  9
$UCSORGTOP
 10
0.0
 20
0.0
 30
0.0
  9
$UCSORGBOTTOM
 10
0.0
 20
0.0
 30
0.0
  9
$UCSORGLEFT
 10
0.0
 20
0.0
 30
0.0
  9
$UCSORGRIGHT
 10
0.0
 20
0.0
 30
0.0
  9
$UCSORGFRONT
 10
0.0
 20
0.0
 30
0.0
  9
$UCSORGBACK
 10
0.0
 20
0.0
 30
0.0
  9
$PUCSBASE
  2

  9
$PUCSNAME
  2

  9
$PUCSORG
 10
0.0
 20
0.0
 30
0.0
  9
$PUCSXDIR
 10
1.0
 20
0.0
 30
0.0
  9
$PUCSYDIR
 10
0.0
 20
1.0
 30
0.0
  9
$PUCSORTHOREF
  2

  9
$PUCSORTHOVIEW
 70
     0
  9
$PUCSORGTOP
 10
0.0
 20
0.0
 30
0.0
  9
$PUCSORGBOTTOM
 10
0.0
 20
0.0
 30
0.0
  9
$PUCSORGLEFT
 10
0.0
 20
0.0
 30
0.0
  9
$PUCSORGRIGHT
 10
0.0
 20
0.0
 30
0.0
  9
$PUCSORGFRONT
 10
0.0
 20
0.0
 30
0.0
  9
$PUCSORGBACK
 10
0.0
 20
0.0
 30
0.0
  9
$USERI1
 70
     0
  9
$USERI2
 70
     0
  9
$USERI3
 70
     0
  9
$USERI4
 70
     0
  9
$USERI5
 70
     0
  9
$USERR1
 40
0.0
  9
$USERR2
 40
0.0
  9
$USERR3
 40
0.0
  9
$USERR4
 40
0.0
  9
$USERR5
 40
0.0
  9
$WORLDVIEW
 70
     1
  9
$SHADEDGE
 70
     3
  9
$SHADEDIF
 70
    70
  9
$TILEMODE
 70
     1
  9
$MAXACTVP
 70
    64
  9
$PINSBASE
 10
0.0
 20
0.0
 30
0.0
  9
$PLIMCHECK
 70
     0
  9
$PEXTMIN
 10
1.000000000000000E+20
 20
1.000000000000000E+20
 30
1.000000000000000E+20
  9
$PEXTMAX
 10
-1.000000000000000E+20
 20
-1.000000000000000E+20
 30
-1.000000000000000E+20
  9
$PLIMMIN
 10
0.0
 20
0.0
  9
$PLIMMAX
 10
420.0
 20
297.0
  9
$UNITMODE
 70
     0
  9
$VISRETAIN
 70
     1
  9
$PLINEGEN
 70
     0
  9
$PSLTSCALE
 70
     1
  9
$TREEDEPTH
 70
  3020
  9
$CMLSTYLE
  2
Standard
  9
$CMLJUST
 70
     0
  9
$CMLSCALE
 40
20.0
  9
$PROXYGRAPHICS
 70
     1
  9
$MEASUREMENT
 70
     1
  9
$CELWEIGHT
370
    -1
  9
$ENDCAPS
280
     0
  9
$JOINSTYLE
280
     0
  9
$LWDISPLAY
290
     0
  9
$INSUNITS
 70
     4
  9
$HYPERLINKBASE
  1

  9
$STYLESHEET
  1

  9
$XEDIT
290
     1
  9
$CEPSNTYPE
380
     0
  9
$PSTYLEMODE
290
     1
  9
$FINGERPRINTGUID
  2
{A64359F7-742B-4F9A-A926-A59280BF123B}
  9
$VERSIONGUID
  2
{240BAC9A-5AC5-42C2-80E1-B3558BCE32A3}
  9
$EXTNAMES
290
     1
  9
$PSVPSCALE
 40
0.0
  9
$OLESTARTUP
290
     0
  0
ENDSEC
  0
SECTION
  2
CLASSES
  0
CLASS
  1
ACDBDICTIONARYWDFLT
  2
AcDbDictionaryWithDefault
  3
ObjectDBX Classes
 90
        0
280
     0
281
     0
  0
CLASS
  1
ACDBPLACEHOLDER
  2
AcDbPlaceHolder
  3
ObjectDBX Classes
 90
        0
280
     0
281
     0
  0
CLASS
  1
LAYOUT
  2
AcDbLayout
  3
ObjectDBX Classes
 90
        0
280
     0
281
     0
  0
CLASS
  1
ACME_DOCUMENT
  2
AcMeDbDoc
  3
AcMeServices
 90
        0
280
     0
281
     0
  0
CLASS
  1
AMGSETTINGSOBJ
  2
AmgSettingsObj
  3
"AcadM|Product Description: AutoCAD Mechanical 2000|Company: Autodesk"
 90
        0
280
     0
281
     0
  0
CLASS
  1
ACMESCOPE
  2
AcMeScope
  3
AcMeServices
 90
        0
280
     0
281
     0
  0
CLASS
  1
ACMECOMMANDHISTORY
  2
AcMeCommandHistory
  3
AcMeServices
 90
        0
280
     0
281
     0
  0
CLASS
  1
ACIMSYSVARMAN
  2
AcImSysVarManager
  3
AcMeServices
 90
        0
280
     0
281
     0
  0
CLASS
  1
ACIMREALSYSVAR
  2
AcImRealSysVar
  3
AcMeServices
 90
        0
280
     0
281
     0
  0
CLASS
  1
ACIMINTSYSVAR
  2
AcImIntSysVar
  3
AcMeServices
 90
        0
280
     0
281
     0
  0
CLASS
  1
ACMEDRAWINGMAN
  2
AcMeDrawingMan
  3
AcMeServices
 90
        0
280
     0
281
     0
  0
CLASS
  1
ACMEVIEW
  2
AcMeView
  3
AcMeServices
 90
        0
280
     0
281
     0
  0
CLASS
  1
ACDBENTITYCACHE
  2
AcMeEntityCache
  3
AcMeServices
 90
        0
280
     0
281
     0
  0
CLASS
  1
GSMANAGER
  2
AcMeGSManager
  3
AcMeServices
 90
        0
280
     0
281
     0
  0
CLASS
  1
AMDTINTERNALREACTOR
  2
AmdtInternalReactor
  3
AcMeServices
 90
        0
280
     0
281
     0
  0
CLASS
  1
ACMESTATEMGR
  2
AcMeStateMgr
  3
AcMeServices
 90
        0
280
     0
281
     0
  0
CLASS
  1
ACGREFMASTER
  2
AcGrefMaster
  3
AcAttribServices
 90
        0
280
     0
281
     0
  0
CLASS
  1
ACME_DATABASE
  2
AcMeDbDatabase
  3
AcMeServices
 90
        0
280
     0
281
     0
  0
CLASS
  1
ACRFINSADJUSTERMGR
  2
AcRfInsAdjusterMgr
  3
AcMeServices
 90
        0
280
     0
281
     0
  0
CLASS
  1
ACGREFACADMASTER
  2
AcGrefacadMaster
  3
AcGrefServices
 90
        0
280
     0
281
     0
  0
CLASS
  1
AMIMASTER
  2
AmiMaster
  3
AmiServices
 90
        0
280
     0
281
     0
  0
CLASS
  1
ACMDATADICTIONARY
  2
AcmDataDictionary
  3
"AcmSymBB|Product Description: AutoCAD Mechanical 2004 DX|Company: Autodesk"
 90
        0
280
     0
281
     0
  0
CLASS
  1
ACMDATAENTRYBLOCK
  2
AcmDataEntryBlock
  3
"AcmSymBB|Product Description: AutoCAD Mechanical 2004 DX|Company: Autodesk"
 90
        0
280
     0
281
     0
  0
CLASS
  1
ACIMSTRSYSVAR
  2
AcImStrSysVar
  3
AcMeServices
 90
        0
280
     0
281
     0
  0
CLASS
  1
ACMSTANDARDISO
  2
AcmStandardISO
  3
"Amdt_StdImp|Product Description: AutoCAD Mechanical 2004 DX|Company: Autodesk"
 90
        0
280
     0
281
     0
  0
CLASS
  1
AMGOBJPROPCFG
  2
AmgObjPropCfg
  3
"AmgLay|Product Description: AutoCAD Mechanical 2000|Company: Autodesk"
 90
        1
280
     0
281
     0
  0
CLASS
  1
AMDTEDGESTANDARDISO
  2
AmdtEdgeStdISO
  3
"Amdt_StdImp|Product Description: AutoCAD Mechanical 2004 DX|Company: Autodesk"
 90
        0
280
     0
281
     0
  0
CLASS
  1
ACMSURFSTANDARDISO
  2
AcmSurfTextStdISO
  3
"Amdt_StdImp|Product Description: AutoCAD Mechanical 2004 DX|Company: Autodesk"
 90
        0
280
     0
281
     0
  0
CLASS
  1
ACMFCFSTANDARDISO
  2
AcmFCFStdISO
  3
"Amdt_StdImp|Product Description: AutoCAD Mechanical 2004 DX|Company: Autodesk"
 90
        0
280
     0
281
     0
  0
CLASS
  1
ACMWELDSTANDARDISO
  2
AcmWeldingStdISO
  3
"Amdt_StdImp|Product Description: AutoCAD Mechanical 2004 DX|Company: Autodesk"
 90
        0
280
     0
281
     0
  0
CLASS
  1
ACMIDSTANDARDISO
  2
AcmIdStdISO
  3
"Amdt_StdImp|Product Description: AutoCAD Mechanical 2004 DX|Company: Autodesk"
 90
        0
280
     0
281
     0
  0
CLASS
  1
ACMDATUMSTANDARDISO
  2
AcmDatumStdISO
  3
"Amdt_StdImp|Product Description: AutoCAD Mechanical 2004 DX|Company: Autodesk"
 90
        0
280
     0
281
     0
  0
CLASS
  1
ACMBOMSTANDARDISO
  2
AcmBOMStdISO
  3
"Amdt_StdImp|Product Description: AutoCAD Mechanical 2004 DX|Company: Autodesk"
 90
        0
280
     0
281
     0
  0
CLASS
  1
ACMDETAILSTANDARDISO
  2
AmdtDetailSymStdISO
  3
"Amdt_StdImp|Product Description: AutoCAD Mechanical 2004 DX|Company: Autodesk"
 90
        0
280
     0
281
     0
  0
CLASS
  1
ACMSECTIONSTANDARDISO
  2
AmdtSectionSymStdISO
  3
"Amdt_StdImp|Product Description: AutoCAD Mechanical 2004 DX|Company: Autodesk"
 90
        0
280
     0
281
     0
  0
CLASS
  1
ACMCENTERLINESTANDARDISO
  2
AmdtCenterLineStdISO
  3
"Amdt_StdImp|Product Description: AutoCAD Mechanical 2004 DX|Company: Autodesk"
 90
        0
280
     0
281
     0
  0
CLASS
  1
ACMNOTESTANDARDISO
  2
AmdtNoteStdISO
  3
"Amdt_StdImp|Product Description: AutoCAD Mechanical 2004 DX|Company: Autodesk"
 90
        0
280
     0
281
     0
  0
CLASS
  1
ACAMGLAYSTD
  2
AcAmgLayStd
  3
"AcAmgLayStd|Product Description: AutoCAD Mechanical 2000|Company: Autodesk"
 90
        0
280
     0
281
     0
  0
CLASS
  1
ACAMGDIMSTD
  2
AcAmgDimStd
  3
"AcAmgDimStd|Product Description: AutoCAD Mechanical 2000|Company: Autodesk"
 90
        0
280
     0
281
     0
  0
CLASS
  1
ACAMGHOLECHARTSTDISO
  2
AcAmgHoleChartStdISO
  3
ACMSYMBB_MODULE_NAME
 90
        0
280
     0
281
     0
  0
CLASS
  1
ACAMGTITLESTD
  2
AcAmgTitleStd
  3
"TITLEAPP"
 90
        0
280
     0
281
     0
  0
CLASS
  1
LAYER_INDEX
  2
AcDbLayerIndex
  3
ObjectDBX Classes
 90
    32768
280
     0
281
     0
  0
CLASS
  1
IDBUFFER
  2
AcDbIdBuffer
  3
ObjectDBX Classes
 90
    32768
280
     0
281
     0
  0
CLASS
  1
DICTIONARYVAR
  2
AcDbDictionaryVar
  3
ObjectDBX Classes
 90
        0
280
     0
281
     0
  0
CLASS
  1
AM_DRAWING_MGR
  2
AcDmDwgMgr
  3
AcMechDwgViewMgmt
 90
        0
280
     0
281
     0
  0
CLASS
  1
AM_DWG_DOCUMENT
  2
AcDmDwgDocument
  3
AcMechDwgViewMgmt
 90
        0
280
     0
281
     0
  0
CLASS
  1
AM_DWG_SHEET
  2
AcDmSheet
  3
AcMechDwgViewMgmt
 90
        0
280
     0
281
     0
  0
CLASS
  1
AM_VIEWDIMPARMAP
  2
AcDmViewDimParMap
  3
AcMechDwgViewMgmt
 90
        0
280
     0
281
     0
  0
CLASS
  1
AM_DWGMGR_NAME
  2
AcDmDwgMgrName
  3
AcMechDwgViewMgmt
 90
        0
280
     0
281
     0
  0
CLASS
  1
AMDTMENUSTATEMGR
  2
AmdtMenuStateMgr
  3
McadcomServices
 90
        0
280
     0
281
     0
  0
CLASS
  1
AMDTMCOMMENUSTATE
  2
AmdtMcomMenuState
  3
McadcomServices
 90
        0
280
     0
281
     0
  0
CLASS
  1
MAPIAMMOUDLE
  2
MApiAmModule
  3
MApiAmServices
 90
        0
280
     0
281
     0
  0
CLASS
  1
AMDTADMENUSTATE
  2
AmdtAdMenuState
  3
DesignerServices
 90
        0
280
     0
281
     0
  0
CLASS
  1
ADAPPL
  2
AcAdAppl
  3
DesignerServices
 90
        0
280
     0
281
     0
  0
CLASS
  1
DEPMGR
  2
AcAdDepMgr
  3
DesignerServices
 90
        0
280
     0
281
     0
  0
CLASS
  1
PARAMMGR
  2
AcAdParamMgr
  3
DesignerServices
 90
        0
280
     0
281
     0
  0
CLASS
  1
PARAMSCOPE
  2
AcAdParamScope
  3
DesignerServices
 90
        0
280
     0
281
     0
  0
CLASS
  1
NAMEDAPPL
  2
AcAdNamedAppl
  3
DesignerServices
 90
        0
280
     0
281
     0
  0
CLASS
  1
AMDTDMMENUSTATE
  2
AmdtDmMenuState
  3
AcMechDwgViewMgmt
 90
        0
280
     0
281
     0
  0
CLASS
  1
AMDTAMMENUSTATE
  2
AmdtAmMenuState
  3
DesignerAssemblies
 90
        0
280
     0
281
     0
  0
CLASS
  1
ACAMPROJECT
  2
AcAmProject
  3
DesignerAssemblies
 90
        0
280
     0
281
     0
  0
CLASS
  1
ACAMGRCOMPDEF
  2
AcAmGrCompDef
  3
DesignerAssemblies
 90
        0
280
     0
281
     0
  0
CLASS
  1
ACCMCONTEXT
  2
AcCmContext
  3
DesignerAssemblies
 90
        0
280
     0
281
     0
  0
CLASS
  1
ACAMCOMPDEF
  2
AcAmCompDef
  3
DesignerAssemblies
 90
        0
280
     0
281
     0
  0
CLASS
  1
ACAMCOMPDEFMGR
  2
AcAmCompDefMgr
  3
DesignerAssemblies
 90
        0
280
     0
281
     0
  0
CLASS
  1
AMCONTEXTMGR
  2
AcAmContextMgr
  3
DesignerAssemblies
 90
        0
280
     0
281
     0
  0
CLASS
  1
ACAMCONTEXTMODELER
  2
AcAmContextModeler
  3
DesignerAssemblies
 90
        0
280
     0
281
     0
  0
CLASS
  1
ACMTHREADLINESTANDARDISO
  2
AmdtThreadLineStdISO
  3
"Amdt_StdImp|Product Description: AutoCAD Mechanical 2004 DX|Company: Autodesk"
 90
        0
280
     0
281
     0
  0
CLASS
  1
CATALOGSTATE
  2
AcAmCatalogState
  3
DesignerAssemblies
 90
        0
280
     0
281
     0
  0
CLASS
  1
ACAMGRCOMPDEFSET
  2
AcAmGrCompDefSet
  3
DesignerAssemblies
 90
        0
280
     0
281
     0
  0
CLASS
  1
AMDTBROWSERDBTAB
  2
AmdtBrowserDbTab
  3
McadcomServices
 90
        0
280
     0
281
     0
  0
CLASS
  1
CBROWSERAPPOBJECT
  2
CBrowserAppObject
  3
McadcomServices
 90
        0
280
     0
281
     0
  0
CLASS
  1
DM_PLACEHOLDER
  2
AcDmSelsetPlaceholder
  3
AcMechDwgViewMgmt
 90
        0
280
     0
281
     0
  0
CLASS
  1
TABLESTYLE
  2
AcDbTableStyle
  3
ObjectDBX Classes
 90
     2047
280
     0
281
     0
  0
CLASS
  1
VAACXREFPANELOBJECT
  2
VaAcXREFPanelObject
  3
VAAC_ADDIN
 90
    32768
280
     0
281
     0
  0
CLASS
  1
VAACIMAGEINVENTORY
  2
VaAcImageInventory
  3
VAAC_ADDIN
 90
    32768
280
     0
281
     0
  0
CLASS
  1
AMDTNOTETEMPLATEDB
  2
AmdtNoteTemplateDB
  3
AMDT_STDIMP_MODULE_NAME
 90
        0
280
     0
281
     0
  0
CLASS
  1
ACMBOM
  2
AcmBom
  3
"AcmSymBB|Product Description: AutoCAD Mechanical 2004 DX|Company: Autodesk"
 90
    32768
280
     0
281
     0
  0
CLASS
  1
AMDTFORMULAUPDATEDISPATCHER
  2
AmdtFormulaUpdateDispatcher
  3
AcMeServices
 90
    32768
280
     0
281
     0
  0
CLASS
  1
ACMPARTLIST
  2
AcmPartList
  3
"AcmSymBB|Product Description: AutoCAD Mechanical 2004 DX|Company: Autodesk"
 90
    33791
280
     0
281
     1
  0
CLASS
  1
ACAMGFILTERDAT
  2
AcAmgFilterDat
  3
"AcadM|Product Description: AutoCAD Mechanical 2000|Company: Autodesk"
 90
        0
280
     0
281
     0
  0
CLASS
  1
ACMSTANDARDJIS
  2
AcmStandardJIS
  3
"Amdt_StdImp|Product Description: AutoCAD Mechanical 2004 DX|Company: Autodesk"
 90
        0
280
     0
281
     0
  0
CLASS
  1
ACMSURFSTANDARDJIS
  2
AcmSurfTextStdJIS
  3
"Amdt_StdImp|Product Description: AutoCAD Mechanical 2004 DX|Company: Autodesk"
 90
        0
280
     0
281
     0
  0
CLASS
  1
ACMFCFSTANDARDJIS98
  2
AcmFCFStdJIS98
  3
"Amdt_StdImp|Product Description: AutoCAD Mechanical 2004 DX|Company: Autodesk"
 90
        0
280
     0
281
     0
  0
CLASS
  1
ACMWELDSTANDARDJIS
  2
AcmWeldingStdJIS
  3
"Amdt_StdImp|Product Description: AutoCAD Mechanical 2004 DX|Company: Autodesk"
 90
        0
280
     0
281
     0
  0
CLASS
  1
ACMIDSTANDARDJIS
  2
AcmIdStdJIS
  3
"Amdt_StdImp|Product Description: AutoCAD Mechanical 2004 DX|Company: Autodesk"
 90
        0
280
     0
281
     0
  0
CLASS
  1
ACMDATUMSTANDARDJIS
  2
AcmDatumStdJIS
  3
"Amdt_StdImp|Product Description: AutoCAD Mechanical 2004 DX|Company: Autodesk"
 90
        0
280
     0
281
     0
  0
CLASS
  1
ACMBOMSTANDARDJIS
  2
AcmBOMStdJIS
  3
"Amdt_StdImp|Product Description: AutoCAD Mechanical 2004 DX|Company: Autodesk"
 90
        0
280
     0
281
     0
  0
CLASS
  1
ACMDETAILSTANDARDJIS
  2
AmdtDetailSymStdJIS
  3
"Amdt_StdImp|Product Description: AutoCAD Mechanical 2004 DX|Company: Autodesk"
 90
        0
280
     0
281
     0
  0
CLASS
  1
ACMSECTIONSTANDARDJIS
  2
AmdtSectionSymStdJIS
  3
"Amdt_StdImp|Product Description: AutoCAD Mechanical 2004 DX|Company: Autodesk"
 90
        0
280
     0
281
     0
  0
CLASS
  1
ACMCENTERLINESTANDARDJIS
  2
AmdtCenterLineStdJIS
  3
"Amdt_StdImp|Product Description: AutoCAD Mechanical 2004 DX|Company: Autodesk"
 90
        0
280
     0
281
     0
  0
CLASS
  1
ACMTHREADLINESTANDARDJIS
  2
AmdtThreadLineStdJIS
  3
"Amdt_StdImp|Product Description: AutoCAD Mechanical 2004 DX|Company: Autodesk"
 90
        0
280
     0
281
     0
  0
CLASS
  1
ACMNOTESTANDARDJIS
  2
AmdtNoteStdJIS
  3
"Amdt_StdImp|Product Description: AutoCAD Mechanical 2004 DX|Company: Autodesk"
 90
        0
280
     0
281
     0
  0
CLASS
  1
ACAMGHOLECHARTSTDJIS
  2
AcAmgHoleChartStdJIS
  3
ACMSYMBB_MODULE_NAME
 90
        0
280
     0
281
     0
  0
CLASS
  1
DIMASSOC
  2
AcDbDimAssoc
  3
"AcDbDimAssoc|Product Desc:     AcDim ARX App For Dimension|Company:          Autodesk, Inc.|WEB Address:      www.autodesk.com"
 90
        0
280
     0
281
     0
  0
CLASS
  1
SORTENTSTABLE
  2
AcDbSortentsTable
  3
ObjectDBX Classes
 90
    32768
280
     0
281
     0
  0
CLASS
  1
AMDTNOTE
  2
AmdtNote
  3
"AcmSymBB|Product Description: AutoCAD Mechanical 2004 DX|Company: Autodesk"
 90
    33791
280
     0
281
     1
  0
ENDSEC
  0
SECTION
  2
TABLES
  0
TABLE
  2
VPORT
  5
8
330
0
100
AcDbSymbolTable
 70
     6
  0
VPORT
  5
AF0
330
8
100
AcDbSymbolTableRecord
100
AcDbViewportTableRecord
  2
*Active
 70
     0
 10
0.0
 20
0.0
 11
1.0
 21
1.0
 12
-8.109684582529951
 22
4.905173745990239
 13
0.0
 23
0.0
 14
2.5
 24
2.5
 15
10.0
 25
10.0
 16
0.0
 26
0.0
 36
1.0
 17
0.0
 27
0.0
 37
0.0
 40
219.2364184415535
 41
1.618655692729766
 42
50.0
 43
0.0
 44
0.0
 50
0.0
 51
0.0
 71
     0
 72
 10000
 73
     1
 74
     3
 75
     0
 76
     0
 77
     0
 78
     0
281
     0
 65
     1
110
0.0
120
0.0
130
0.0
111
1.0
121
0.0
131
0.0
112
0.0
122
1.0
132
0.0
 79
     0
146
0.0
  0
ENDTAB
  0
TABLE
  2
LTYPE
  5
5
330
0
100
AcDbSymbolTable
 70
    17
  0
LTYPE
  5
14
330
5
100
AcDbSymbolTableRecord
100
AcDbLinetypeTableRecord
  2
ByBlock
 70
     0
  3

 72
    65
 73
     0
 40
0.0
  0
LTYPE
  5
15
330
5
100
AcDbSymbolTableRecord
100
AcDbLinetypeTableRecord
  2
ByLayer
 70
     0
  3

 72
    65
 73
     0
 40
0.0
  0
LTYPE
  5
16
330
5
100
AcDbSymbolTableRecord
100
AcDbLinetypeTableRecord
  2
Continuous
 70
     0
  3
Solid line
 72
    65
 73
     0
 40
0.0
  0
LTYPE
  5
64
330
5
100
AcDbSymbolTableRecord
100
AcDbLinetypeTableRecord
  2
AM_ISO02W050
 70
     0
  3
__ __ __ __ __ __ __ __ __ __ __ __ __ __ __
 72
    65
 73
     2
 40
7.5
 49
6.0
 74
     0
 49
-1.5
 74
     0
  0
LTYPE
  5
65
330
5
100
AcDbSymbolTableRecord
100
AcDbLinetypeTableRecord
  2
AM_ISO08W050
 70
     0
  3
____ . ____ . ____ . ____ . ____ . ____ . ____
 72
    65
 73
     4
 40
18.0
 49
12.0
 74
     0
 49
-1.5
 74
     0
 49
3.0
 74
     0
 49
-1.5
 74
     0
  0
LTYPE
  5
66
330
5
100
AcDbSymbolTableRecord
100
AcDbLinetypeTableRecord
  2
AM_ISO09W050
 70
     0
  3
_____ . . _____ . . _____ . . ____ .. ____
 72
    65
 73
     6
 40
22.5
 49
12.0
 74
     0
 49
-1.5
 74
     0
 49
3.0
 74
     0
 49
-1.5
 74
     0
 49
3.0
 74
     0
 49
-1.5
 74
     0
  0
LTYPE
  5
67
330
5
100
AcDbSymbolTableRecord
100
AcDbLinetypeTableRecord
  2
Amconstr
 70
     0
  3
_______________________
 72
    65
 73
     2
 40
9999.0
 49
9999.0
 74
     0
 49
0.0
 74
     0
  0
LTYPE
  5
68
330
5
100
AcDbSymbolTableRecord
100
AcDbLinetypeTableRecord
  2
AM_ISO08W050x2
 70
     0
  3
__ . __ . __ . __ . __ . __
 72
    65
 73
     4
 40
9.0
 49
6.0
 74
     0
 49
-0.75
 74
     0
 49
1.5
 74
     0
 49
-0.75
 74
     0
  0
LTYPE
  5
69
330
5
100
AcDbSymbolTableRecord
100
AcDbLinetypeTableRecord
  2
AM_ISO02W050x2
 70
     0
  3
 _ _ _ _ _ _ _ _ _ _ _ _
 72
    65
 73
     2
 40
3.75
 49
3.0
 74
     0
 49
-0.75
 74
     0
  0
LTYPE
  5
6C
330
5
100
AcDbSymbolTableRecord
100
AcDbLinetypeTableRecord
  2
Amzigzag
 70
     0
  3
/\/-/\/-/\/-/\/-/\/-/\/
 72
    65
 73
     2
 40
11.0001
 49
0.0001
 74
     4
 75
   135
340
6B
 46
0.04
 50
0.0
 44
0.0
 45
0.0
 49
-11.0
 74
     0
  0
LTYPE
  5
7A
330
5
100
AcDbSymbolTableRecord
100
AcDbLinetypeTableRecord
  2
ACISOWELD
 70
     0
  3
_ _ _ _ _
 72
    65
 73
     2
 40
2.0
 49
2.0
 74
     0
 49
-1.0
 74
     0
  0
LTYPE
  5
7B
330
5
100
AcDbSymbolTableRecord
100
AcDbLinetypeTableRecord
  2
ACISOTGB
 70
     0
  3
__ . . __ . .
 72
    65
 73
     6
 40
9.0
 49
4.0
 74
     0
 49
-1.0
 74
     0
 49
1.0
 74
     0
 49
-1.0
 74
     0
 49
1.0
 74
     0
 49
-1.0
 74
     0
  0
LTYPE
  5
7C
330
5
100
AcDbSymbolTableRecord
100
AcDbLinetypeTableRecord
  2
ACISOTGL
 70
     0
  3
_ _ _ _ _
 72
    65
 73
     2
 40
3.0
 49
2.0
 74
     0
 49
-1.0
 74
     0
  0
LTYPE
  5
7E
330
5
100
AcDbSymbolTableRecord
100
AcDbLinetypeTableRecord
  2
CENTER
 70
     0
  3
__ . __
 72
    65
 73
     4
 40
7.0
 49
4.0
 74
     0
 49
-1.0
 74
     0
 49
1.0
 74
     0
 49
-1.0
 74
     0
  0
LTYPE
  5
D8
330
5
100
AcDbSymbolTableRecord
100
AcDbLinetypeTableRecord
  2
HIDDEN
 70
     0
  3
Hidden __ __ __ __ __ __ __ __ __ __ __ __ __ _
 72
    65
 73
     2
 40
9.524999999999998
 49
6.349999999999999
 74
     0
 49
-3.174999999999999
 74
     0
  0
LTYPE
  5
D9
330
5
100
AcDbSymbolTableRecord
100
AcDbLinetypeTableRecord
  2
PHANTOM2
 70
     0
  3
Phantom (.5x) ___ _ _ ___ _ _ ___ _ _ ___ _ _
 72
    65
 73
     6
 40
31.75
 49
15.875
 74
     0
 49
-3.174999999999999
 74
     0
 49
3.174999999999999
 74
     0
 49
-3.174999999999999
 74
     0
 49
3.174999999999999
 74
     0
 49
-3.174999999999999
 74
     0
  0
LTYPE
  5
20C
330
5
100
AcDbSymbolTableRecord
100
AcDbLinetypeTableRecord
  2
ACJISWELD
 70
     0
  3
_ _ _ _ _
 72
    65
 73
     2
 40
2.0
 49
2.0
 74
     0
 49
-1.0
 74
     0
  0
LTYPE
  5
20D
330
5
100
AcDbSymbolTableRecord
100
AcDbLinetypeTableRecord
  2
ACJISTGB
 70
     0
  3
__ . . __ . .
 72
    65
 73
     6
 40
9.0
 49
4.0
 74
     0
 49
-1.0
 74
     0
 49
1.0
 74
     0
 49
-1.0
 74
     0
 49
1.0
 74
     0
 49
-1.0
 74
     0
  0
LTYPE
  5
20E
330
5
100
AcDbSymbolTableRecord
100
AcDbLinetypeTableRecord
  2
ACJISTGL
 70
     0
  3
_ _ _ _ _
 72
    65
 73
     2
 40
3.0
 49
2.0
 74
     0
 49
-1.0
 74
     0
  0
ENDTAB
  0
TABLE
  2
LAYER
  5
2
102
{ACAD_XDICTIONARY
360
34B
102
}
330
0
100
AcDbSymbolTable
 70
     7
  0
LAYER
  5
10
330
2
100
AcDbSymbolTableRecord
100
AcDbLayerTableRecord
  2
0
 70
     0
 62
     7
  6
Continuous
370
    -3
390
F
  0
LAYER
  5
34A
330
2
100
AcDbSymbolTableRecord
100
AcDbLayerTableRecord
  2
AM_0
 70
     0
 62
     7
  6
Continuous
370
    30
390
F
  0
LAYER
  5
3AF
330
2
100
AcDbSymbolTableRecord
100
AcDbLayerTableRecord
  2
AM_4
 70
     0
 62
     3
  6
Continuous
370
    13
390
F
  0
LAYER
  5
3B0
330
2
100
AcDbSymbolTableRecord
100
AcDbLayerTableRecord
  2
AM_5
 70
     0
 62
     3
  6
Continuous
370
    13
390
F
  0
LAYER
  5
3B1
330
2
100
AcDbSymbolTableRecord
100
AcDbLayerTableRecord
  2
AM_7
 70
     0
 62
     4
  6
AM_ISO08W050
370
    13
390
F
  0
LAYER
  5
445
330
2
100
AcDbSymbolTableRecord
100
AcDbLayerTableRecord
  2
Defpoints
 70
     0
 62
     7
  6
Continuous
290
     0
370
    -3
390
F
  0
LAYER
  5
830
330
2
100
AcDbSymbolTableRecord
100
AcDbLayerTableRecord
  2
6
 70
     0
 62
     2
  6
Continuous
370
     0
390
F
  0
ENDTAB
  0
TABLE
  2
STYLE
  5
3
330
0
100
AcDbSymbolTable
 70
     6
  0
STYLE
  5
11
330
3
100
AcDbSymbolTableRecord
100
AcDbTextStyleTableRecord
  2
STANDARD
 70
     0
 40
0.0
 41
1.0
 50
0.0
 71
     0
 42
3.799999999999999
  3
ISOCP.SHX
  4
EXTFONT.SHX
  0
STYLE
  5
6B
330
3
100
AcDbSymbolTableRecord
100
AcDbTextStyleTableRecord
  2

 70
     1
 40
0.0
 41
1.0
 50
0.0
 71
     0
 42
2.5
  3
ltypeshp.shx
  4

  0
STYLE
  5
6D
330
3
100
AcDbSymbolTableRecord
100
AcDbTextStyleTableRecord
  2
ACISOTS
 70
     0
 40
3.799999999999999
 41
1.0
 50
0.0
 71
     0
 42
3.799999999999999
  3
isocp.shx
  4
extfont.shx
  0
STYLE
  5
79
330
3
100
AcDbSymbolTableRecord
100
AcDbTextStyleTableRecord
  2
ACISOGDT
 70
     0
 40
0.0
 41
1.0
 50
0.0
 71
     0
 42
2.5
  3
amgdt.shx
  4
extfont.shx
  0
STYLE
  5
1FF
330
3
100
AcDbSymbolTableRecord
100
AcDbTextStyleTableRecord
  2
ACJISTS
 70
     0
 40
1.0
 41
1.0
 50
0.0
 71
     0
 42
1.0
  3
isocp.shx
  4
extfont.shx
  0
STYLE
  5
20B
330
3
100
AcDbSymbolTableRecord
100
AcDbTextStyleTableRecord
  2
ACJISGDT
 70
     0
 40
0.0
 41
1.0
 50
0.0
 71
     0
 42
1.0
  3
amgdt.shx
  4

  0
ENDTAB
  0
TABLE
  2
VIEW
  5
6
330
0
100
AcDbSymbolTable
 70
     0
  0
ENDTAB
  0
TABLE
  2
UCS
  5
7
330
0
100
AcDbSymbolTable
 70
     0
  0
ENDTAB
  0
TABLE
  2
APPID
  5
9
330
0
100
AcDbSymbolTable
 70
    21
  0
APPID
  5
12
330
9
100
AcDbSymbolTableRecord
100
AcDbRegAppTableRecord
  2
ACAD
 70
     0
  0
APPID
  5
46
330
9
100
AcDbSymbolTableRecord
100
AcDbRegAppTableRecord
  2
MCAD_NO_VIS
 70
     0
  0
APPID
  5
47
330
9
100
AcDbSymbolTableRecord
100
AcDbRegAppTableRecord
  2
ACAD_TEMP_GRAPHIC
 70
     0
  0
APPID
  5
58
330
9
100
AcDbSymbolTableRecord
100
AcDbRegAppTableRecord
  2
ACATTRIBSERVICES
 70
     0
  0
APPID
  5
EE
330
9
100
AcDbSymbolTableRecord
100
AcDbRegAppTableRecord
  2
AD_DRAW
 70
     0
  0
APPID
  5
10C
330
9
100
AcDbSymbolTableRecord
100
AcDbRegAppTableRecord
  2
DESIGNERASSEMBLIES
 70
     0
  0
APPID
  5
111
330
9
100
AcDbSymbolTableRecord
100
AcDbRegAppTableRecord
  2
ACADM_DIM_EDIT
 70
     0
  0
APPID
  5
112
330
9
100
AcDbSymbolTableRecord
100
AcDbRegAppTableRecord
  2
AMDT_DM_ADJ
 70
     0
  0
APPID
  5
243
330
9
100
AcDbSymbolTableRecord
100
AcDbRegAppTableRecord
  2
ACAD_DSTYLE_DIMTEXT_FILL
 70
     0
  0
APPID
  5
3B4
330
9
100
AcDbSymbolTableRecord
100
AcDbRegAppTableRecord
  2
ACAD_PSEXT
 70
     0
  0
APPID
  5
449
330
9
100
AcDbSymbolTableRecord
100
AcDbRegAppTableRecord
  2
GENIUS_GENODEF_13
 70
     0
  0
APPID
  5
44A
330
9
100
AcDbSymbolTableRecord
100
AcDbRegAppTableRecord
  2
GENIUS_GENOBJ-N-CEN_13
 70
     0
  0
APPID
  5
44B
330
9
100
AcDbSymbolTableRecord
100
AcDbRegAppTableRecord
  2
ACAD_DIMASSOC_DIMLFAC
 70
     0
  0
APPID
  5
44C
330
9
100
AcDbSymbolTableRecord
100
AcDbRegAppTableRecord
  2
ACAD_DIMASSOC_CALC_DIMLFAC
 70
     0
  0
APPID
  5
44D
330
9
100
AcDbSymbolTableRecord
100
AcDbRegAppTableRecord
  2
ACAD_DIMASSOC_OVERRIDDEN_DIMLFAC
 70
     0
  0
APPID
  5
44E
330
9
100
AcDbSymbolTableRecord
100
AcDbRegAppTableRecord
  2
GENIUS_GENCEN_19
 70
     0
  0
APPID
  5
44F
330
9
100
AcDbSymbolTableRecord
100
AcDbRegAppTableRecord
  2
GENIUS_GENOBJ-N-FIL_13
 70
     0
  0
APPID
  5
450
330
9
100
AcDbSymbolTableRecord
100
AcDbRegAppTableRecord
  2
GENIUS_GENFIL_13
 70
     0
  0
APPID
  5
451
330
9
100
AcDbSymbolTableRecord
100
AcDbRegAppTableRecord
  2
GENIUS_GENOBJ-N-CHA_13
 70
     0
  0
APPID
  5
617
330
9
100
AcDbSymbolTableRecord
100
AcDbRegAppTableRecord
  2
GENIUS_GENDTOL_13
 70
     0
  0
APPID
  5
831
330
9
100
AcDbSymbolTableRecord
100
AcDbRegAppTableRecord
  2
AcAecLayerStandard
 70
     0
  0
ENDTAB
  0
TABLE
  2
DIMSTYLE
  5
A
330
0
100
AcDbSymbolTable
 70
    16
100
AcDbDimStyleTable
 71
     2
340
216
340
81
  0
DIMSTYLE
105
81
330
A
100
AcDbSymbolTableRecord
100
AcDbDimStyleTableRecord
  2
AM_ISO
 70
     0
  4
"
 41
2.5
 42
1.0
 43
10.0
 44
1.0
 47
0.1
 48
0.1
 73
     0
 74
     0
 77
     1
 78
     8
 79
     2
140
3.5
141
0.0
143
0.0393701
146
0.71
147
1.5
172
     1
176
   256
177
   256
178
     2
271
     2
272
     3
274
     4
283
     0
284
     8
340
11
371
    -1
372
    -1
  0
DIMSTYLE
105
82
330
A
100
AcDbSymbolTableRecord
100
AcDbDimStyleTableRecord
  2
AM_ISO$3
 70
     0
  4
"
 41
2.5
 42
1.0
 43
10.0
 44
1.0
 47
0.1
 48
0.1
 73
     0
 77
     1
 78
     8
 79
     2
140
3.5
141
0.0
143
0.0393701
146
0.71
147
1.5
176
   256
177
   256
178
     2
271
     2
272
     3
274
     4
283
     0
284
     8
288
     1
289
     0
340
11
371
    -1
372
    -1
  0
DIMSTYLE
105
83
330
A
100
AcDbSymbolTableRecord
100
AcDbDimStyleTableRecord
  2
AM_ISO$4
 70
     0
  4
"
 41
2.5
 42
1.0
 43
10.0
 44
1.0
 47
0.1
 48
0.1
 73
     0
 77
     1
 78
     8
 79
     2
140
3.5
141
0.0
143
0.0393701
146
0.71
147
1.5
176
   256
177
   256
178
     2
271
     2
272
     3
274
     4
283
     0
284
     8
288
     1
289
     0
340
11
371
    -1
372
    -1
  0
DIMSTYLE
105
84
330
A
100
AcDbSymbolTableRecord
100
AcDbDimStyleTableRecord
  2
AM_ISO$6
 70
     0
  4
"
 41
2.5
 42
1.0
 43
10.0
 44
1.0
 47
0.1
 48
0.1
 73
     0
 74
     0
 78
     8
 79
     2
140
3.5
141
0.0
143
0.0393701
146
0.71
147
1.5
172
     1
176
   256
177
   256
178
     2
271
     2
272
     3
274
     4
283
     0
284
     8
340
11
371
    -1
372
    -1
  0
DIMSTYLE
105
85
330
A
100
AcDbSymbolTableRecord
100
AcDbDimStyleTableRecord
  2
AM_ISO$7
 70
     0
  4
"
 41
2.5
 42
1.0
 43
10.0
 44
1.0
 47
0.1
 48
0.1
 73
     0
 74
     0
 77
     1
 78
     8
 79
     2
140
5.0
141
0.0
143
0.0393701
146
0.71
147
1.5
172
     1
176
   256
177
   256
178
     2
271
     2
272
     3
274
     4
283
     0
284
     8
340
11
371
    -1
372
    -1
  0
DIMSTYLE
105
86
330
A
100
AcDbSymbolTableRecord
100
AcDbDimStyleTableRecord
  2
AM_ISO$SF
 70
     0
  4
"
 41
2.5
 42
1.0
 43
10.0
 44
1.0
 47
0.1
 48
0.1
 73
     0
 74
     0
 75
     1
 76
     1
 77
     1
 78
     8
 79
     2
140
3.5
141
0.0
143
0.0393701
146
0.71
147
1.5
172
     1
176
   256
177
   256
178
     2
271
     2
272
     3
274
     4
283
     0
284
     8
340
11
371
    -1
372
    -1
  0
DIMSTYLE
105
8B
330
A
100
AcDbSymbolTableRecord
100
AcDbDimStyleTableRecord
  2
AM_ISO$SH
 70
     0
  4
"
 41
2.5
 42
1.0
 43
10.0
 44
1.0
 47
0.1
 48
0.1
 73
     0
 74
     0
 75
     1
 76
     1
 77
     1
 78
     8
 79
     2
140
3.5
141
0.0
143
0.0393701
144
2.0
146
0.71
147
1.5
172
     1
173
     1
176
   256
177
   256
178
     2
271
     2
272
     3
274
     4
283
     0
284
     8
340
11
343
87
371
    -1
372
    -1
  0
DIMSTYLE
105
216
330
A
100
AcDbSymbolTableRecord
100
AcDbDimStyleTableRecord
  2
AM_JIS
 70
     0
  4
"
 41
2.5
 42
1.0
 43
10.0
 44
1.0
 47
0.1
 48
0.1000000001
 73
     0
 74
     0
 77
     3
 78
     8
 79
     2
140
3.799999999999999
141
0.0
143
0.0393701
146
0.71
147
1.5
172
     1
176
   256
177
   256
178
     2
271
     2
272
     2
275
     1
283
     0
284
     8
340
11
341
217
342
217
371
    -1
372
    -1
  0
DIMSTYLE
105
21D
330
A
100
AcDbSymbolTableRecord
100
AcDbDimStyleTableRecord
  2
AM_JIS$3
 70
     0
  4
"
 41
2.5
 42
1.0
 43
10.0
 44
1.0
 47
0.1
 48
0.1000000001
 73
     0
 77
     3
 78
     8
 79
     2
140
3.799999999999999
141
0.0
143
0.0393701
146
0.71
147
1.5
176
   256
177
   256
178
     2
271
     2
272
     2
275
     1
283
     0
284
     8
288
     1
289
     0
340
11
341
217
342
217
371
    -1
372
    -1
  0
DIMSTYLE
105
21E
330
A
100
AcDbSymbolTableRecord
100
AcDbDimStyleTableRecord
  2
AM_JIS$4
 70
     0
  4
"
 41
2.5
 42
1.0
 43
10.0
 44
1.0
 47
0.1
 48
0.1000000001
 73
     0
 77
     3
 78
     8
 79
     2
140
3.799999999999999
141
0.0
143
0.0393701
146
0.71
147
1.5
176
   256
177
   256
178
     2
271
     2
272
     2
275
     1
283
     0
284
     8
288
     1
289
     0
340
11
341
217
342
217
371
    -1
372
    -1
  0
DIMSTYLE
105
21F
330
A
100
AcDbSymbolTableRecord
100
AcDbDimStyleTableRecord
  2
AM_JIS$6
 70
     0
  4
"
 41
2.5
 42
1.0
 43
10.0
 44
1.0
 47
0.1
 48
0.1000000001
 73
     0
 74
     0
 78
     8
 79
     2
140
3.799999999999999
141
0.0
143
0.0393701
146
0.71
147
1.5
172
     1
176
   256
177
   256
178
     2
271
     2
272
     2
275
     1
283
     0
284
     8
340
11
341
217
342
217
371
    -1
372
    -1
  0
DIMSTYLE
105
220
330
A
100
AcDbSymbolTableRecord
100
AcDbDimStyleTableRecord
  2
AM_JIS$7
 70
     0
  4
"
 41
2.5
 42
1.0
 43
10.0
 44
1.0
 47
0.1
 48
0.1000000001
 73
     0
 74
     0
 77
     3
 78
     8
 79
     2
140
5.0
141
0.0
143
0.0393701
146
0.71
147
1.5
172
     1
176
   256
177
   256
178
     2
271
     2
272
     2
275
     1
283
     0
284
     8
340
11
341
217
342
217
371
    -1
372
    -1
  0
DIMSTYLE
105
221
330
A
100
AcDbSymbolTableRecord
100
AcDbDimStyleTableRecord
  2
AM_JIS$SF
 70
     0
  4
"
 41
2.5
 42
1.0
 43
10.0
 44
1.0
 47
0.1
 48
0.1
 73
     0
 74
     0
 75
     1
 76
     1
 77
     3
 78
     8
 79
     2
140
3.5
141
0.0
143
0.0393701
146
0.71
147
1.5
172
     1
176
   256
177
   256
178
     2
271
     2
272
     3
274
     4
283
     0
284
     8
340
11
341
217
342
217
343
217
344
217
371
    -1
372
    -1
  0
DIMSTYLE
105
222
330
A
100
AcDbSymbolTableRecord
100
AcDbDimStyleTableRecord
  2
AM_JIS$SH
 70
     0
  4
"
 41
2.5
 42
1.0
 43
10.0
 44
1.0
 47
0.1
 48
0.1
 73
     0
 74
     0
 75
     1
 76
     1
 77
     3
 78
     8
 79
     2
140
3.5
141
0.0
143
0.0393701
144
2.0
146
0.71
147
1.5
172
     1
173
     1
176
   256
177
   256
178
     2
271
     2
272
     3
274
     4
283
     0
284
     8
340
11
341
217
342
217
343
87
344
217
371
    -1
372
    -1
  0
DIMSTYLE
105
447
102
{ACAD_REACTORS
330
6BC
330
6BD
330
6BE
330
6BF
330
6C0
330
98B
330
A15
330
A52
102
}
330
A
100
AcDbSymbolTableRecord
100
AcDbDimStyleTableRecord
  2
AM_JIS$0
 70
     0
  4
"
 41
2.5
 42
0.0
 43
10.0
 44
1.0
 48
0.000000001
 73
     0
 74
     0
 77
     3
 78
     1
 79
     2
140
3.799999999999999
141
0.0
143
0.0393701
146
0.71
147
1.5
172
     1
176
   256
177
   256
178
     2
179
     1
271
     3
272
     3
275
     1
283
     0
284
     8
340
11
341
217
342
217
371
    -1
372
    -1
  0
DIMSTYLE
105
448
102
{ACAD_REACTORS
330
9A7
102
}
330
A
100
AcDbSymbolTableRecord
100
AcDbDimStyleTableRecord
  2
AM_JIS$2
 70
     0
  4
"
 41
2.2
 42
0.3
 43
0.5
 44
0.3
 47
0.1
 48
0.1000000001
 73
     0
 74
     0
 77
     3
 78
     8
 79
     2
140
3.799999999999999
141
0.0
143
0.0393701
146
0.71
147
1.5
172
     1
176
     3
177
     3
178
     2
271
     2
272
     2
275
     1
283
     0
284
     8
340
11
341
217
342
217
371
    -1
372
    -1
  0
ENDTAB
  0
TABLE
  2
BLOCK_RECORD
  5
1
330
0
100
AcDbSymbolTable
 70
    13
  0
BLOCK_RECORD
  5
1F
102
{ACAD_XDICTIONARY
360
8F
102
}
330
1
100
AcDbSymbolTableRecord
100
AcDbBlockTableRecord
  2
*Model_Space
340
22
  0
BLOCK_RECORD
  5
1B
330
1
100
AcDbSymbolTableRecord
100
AcDbBlockTableRecord
  2
*Paper_Space
340
1E
  0
BLOCK_RECORD
  5
23
330
1
100
AcDbSymbolTableRecord
100
AcDbBlockTableRecord
  2
*Paper_Space0
340
26
  0
BLOCK_RECORD
  5
87
330
1
100
AcDbSymbolTableRecord
100
AcDbBlockTableRecord
  2
GENAXEH
340
0
  0
BLOCK_RECORD
  5
217
330
1
100
AcDbSymbolTableRecord
100
AcDbBlockTableRecord
  2
_Open30
340
0
102
{BLKREFS
331
A83
331
A84
331
A8C
331
A8D
331
A95
331
A96
331
A9E
331
A9F
331
AA7
331
AA8
331
AAF
331
AB6
331
AB7
331
AC1
331
AC2
331
ACA
331
ACB
102
}
  0
BLOCK_RECORD
  5
757
330
1
100
AcDbSymbolTableRecord
100
AcDbBlockTableRecord
  2
*D4
340
0
  0
BLOCK_RECORD
  5
761
330
1
100
AcDbSymbolTableRecord
100
AcDbBlockTableRecord
  2
*D5
340
0
  0
BLOCK_RECORD
  5
76B
330
1
100
AcDbSymbolTableRecord
100
AcDbBlockTableRecord
  2
*D6
340
0
  0
BLOCK_RECORD
  5
775
330
1
100
AcDbSymbolTableRecord
100
AcDbBlockTableRecord
  2
*D7
340
0
  0
BLOCK_RECORD
  5
77F
330
1
100
AcDbSymbolTableRecord
100
AcDbBlockTableRecord
  2
*D8
340
0
  0
BLOCK_RECORD
  5
9AB
330
1
100
AcDbSymbolTableRecord
100
AcDbBlockTableRecord
  2
*D9
340
0
  0
BLOCK_RECORD
  5
9BA
330
1
100
AcDbSymbolTableRecord
100
AcDbBlockTableRecord
  2
*D10
340
0
  0
BLOCK_RECORD
  5
A16
330
1
100
AcDbSymbolTableRecord
100
AcDbBlockTableRecord
  2
*D11
340
0
  0
BLOCK_RECORD
  5
A53
330
1
100
AcDbSymbolTableRecord
100
AcDbBlockTableRecord
  2
*D12
340
0
  0
ENDTAB
  0
ENDSEC
  0
SECTION
  2
BLOCKS
  0
BLOCK
  5
20
330
1F
100
AcDbEntity
  8
0
100
AcDbBlockBegin
  2
*Model_Space
 70
     0
 10
0.0
 20
0.0
 30
0.0
  3
*Model_Space
  1

  0
ENDBLK
  5
21
330
1F
100
AcDbEntity
  8
0
100
AcDbBlockEnd
  0
BLOCK
  5
1C
330
1B
100
AcDbEntity
 67
     1
  8
0
100
AcDbBlockBegin
  2
*Paper_Space
 70
     0
 10
0.0
 20
0.0
 30
0.0
  3
*Paper_Space
  1

  0
ENDBLK
  5
1D
330
1B
100
AcDbEntity
 67
     1
  8
0
100
AcDbBlockEnd
  0
BLOCK
  5
24
330
23
100
AcDbEntity
  8
0
100
AcDbBlockBegin
  2
*Paper_Space0
 70
     0
 10
0.0
 20
0.0
 30
0.0
  3
*Paper_Space0
  1

  0
ENDBLK
  5
25
330
23
100
AcDbEntity
  8
0
100
AcDbBlockEnd
  0
BLOCK
  5
89
330
87
100
AcDbEntity
  8
0
100
AcDbBlockBegin
  2
GENAXEH
 70
     0
 10
0.0
 20
0.0
 30
0.0
  3
GENAXEH
  1

  0
LINE
  5
88
330
87
100
AcDbEntity
  8
0
100
AcDbLine
 10
-1.0
 20
0.0
 30
0.0
 11
1.0
 21
0.0
 31
0.0
  0
ENDBLK
  5
8A
330
87
100
AcDbEntity
  8
0
100
AcDbBlockEnd
  0
BLOCK
  5
21B
330
217
100
AcDbEntity
  8
0
100
AcDbBlockBegin
  2
_Open30
 70
     0
 10
0.0
 20
0.0
 30
0.0
  3
_Open30
  1

  0
LINE
  5
218
330
217
100
AcDbEntity
  8
0
  6
ByBlock
 62
     0
370
    -2
100
AcDbLine
 10
-1.0
 20
0.26794919
 30
0.0
 11
0.0
 21
0.0
 31
0.0
  0
LINE
  5
219
330
217
100
AcDbEntity
  8
0
  6
ByBlock
 62
     0
370
    -2
100
AcDbLine
 10
0.0
 20
0.0
 30
0.0
 11
-1.0
 21
-0.26794919
 31
0.0
  0
LINE
  5
21A
330
217
100
AcDbEntity
  8
0
  6
ByBlock
 62
     0
370
    -2
100
AcDbLine
 10
0.0
 20
0.0
 30
0.0
 11
-1.0
 21
0.0
 31
0.0
  0
ENDBLK
  5
21C
330
217
100
AcDbEntity
  8
0
100
AcDbBlockEnd
  0
BLOCK
  5
7B8
330
757
100
AcDbEntity
  8
0
100
AcDbBlockBegin
  2
*D4
 70
     1
 10
0.0
 20
0.0
 30
0.0
  3
*D4
  1

  0
LINE
  5
A80
330
757
100
AcDbEntity
  8
AM_5
100
AcDbLine
 10
-56.74854279771148
 20
7.93999999999994
 30
0.0
 11
-71.16135574002533
 21
7.939999999999945
 31
0.0
  0
LINE
  5
A81
330
757
100
AcDbEntity
  8
AM_5
100
AcDbLine
 10
-56.74854279771148
 20
-7.940000000000054
 30
0.0
 11
-71.16135574002533
 21
-7.94000000000005
 31
0.0
  0
LINE
  5
A82
330
757
100
AcDbEntity
  8
AM_5
100
AcDbLine
 10
-70.16135574002532
 20
5.439999999999945
 30
0.0
 11
-70.16135574002532
 21
-5.44000000000005
 31
0.0
  0
INSERT
  5
A83
330
757
100
AcDbEntity
  8
AM_5
100
AcDbBlockReference
  2
_Open30
 10
-70.16135574002532
 20
7.939999999999945
 30
0.0
 41
2.5
 42
2.5
 43
2.5
 50
90.0
  0
INSERT
  5
A84
330
757
100
AcDbEntity
  8
AM_5
100
AcDbBlockReference
  2
_Open30
 10
-70.16135574002532
 20
-7.94000000000005
 30
0.0
 41
2.5
 42
2.5
 43
2.5
 50
270.0
  0
MTEXT
  5
A85
330
757
100
AcDbEntity
  8
AM_5
 62
     2
100
AcDbMText
 10
-73.56135574002533
 20
0.0000000000000004
 30
0.0
 40
3.799999999999999
 41
0.0
 71
     5
 72
     1
  1
15.88
 11
0.0000000000000001
 21
1.0
 31
0.0
 73
     1
 44
1.0
1001
ACAD
1000
MTEXTBEGIN
1070
    73
1070
     1
1070
    44
1040
1.0
1070
    74
1070
     0
1000
MTEXTEND
  0
POINT
  5
A86
330
757
100
AcDbEntity
  8
Defpoints
 62
     0
100
AcDbPoint
 10
-56.74854279771148
 20
7.93999999999994
 30
0.0
  0
POINT
  5
A87
330
757
100
AcDbEntity
  8
Defpoints
 62
     0
100
AcDbPoint
 10
-56.74854279771148
 20
-7.940000000000054
 30
0.0
  0
POINT
  5
A88
330
757
100
AcDbEntity
  8
Defpoints
 62
     0
100
AcDbPoint
 10
-70.16135574002532
 20
-7.94000000000005
 30
0.0
  0
ENDBLK
  5
7B9
330
757
100
AcDbEntity
  8
0
100
AcDbBlockEnd
  0
BLOCK
  5
7BA
330
761
100
AcDbEntity
  8
0
100
AcDbBlockBegin
  2
*D5
 70
     1
 10
0.0
 20
0.0
 30
0.0
  3
*D5
  1

  0
LINE
  5
A89
330
761
100
AcDbEntity
  8
AM_5
100
AcDbLine
 10
-58.48953000000006
 20
40.0
 30
0.0
 11
-98.40162670462767
 21
40.0
 31
0.0
  0
LINE
  5
A8A
330
761
100
AcDbEntity
  8
AM_5
100
AcDbLine
 10
-58.48953000000006
 20
-40.0
 30
0.0
 11
-98.4016267046277
 21
-40.0
 31
0.0
  0
LINE
  5
A8B
330
761
100
AcDbEntity
  8
AM_5
100
AcDbLine
 10
-97.40162670462767
 20
37.50000000000001
 30
0.0
 11
-97.40162670462771
 21
-37.5
 31
0.0
  0
INSERT
  5
A8C
330
761
100
AcDbEntity
  8
AM_5
100
AcDbBlockReference
  2
_Open30
 10
-97.40162670462767
 20
40.0
 30
0.0
 41
2.5
 42
2.5
 43
2.5
 50
90.0
  0
INSERT
  5
A8D
330
761
100
AcDbEntity
  8
AM_5
100
AcDbBlockReference
  2
_Open30
 10
-97.40162670462771
 20
-40.0
 30
0.0
 41
2.5
 42
2.5
 43
2.5
 50
270.0
  0
MTEXT
  5
A8E
330
761
100
AcDbEntity
  8
AM_5
 62
     2
100
AcDbMText
 10
-100.8016267046277
 20
0.0000000000002846
 30
0.0
 40
3.799999999999999
 41
0.0
 71
     5
 72
     1
  1
%%c80
 11
0.0000000000000001
 21
1.0
 31
0.0
 73
     1
 44
1.0
1001
ACAD
1000
MTEXTBEGIN
1070
    73
1070
     1
1070
    44
1040
1.0
1070
    74
1070
     0
1000
MTEXTEND
  0
POINT
  5
A8F
330
761
100
AcDbEntity
  8
Defpoints
 62
     0
100
AcDbPoint
 10
-58.48953000000006
 20
40.0
 30
0.0
  0
POINT
  5
A90
330
761
100
AcDbEntity
  8
Defpoints
 62
     0
100
AcDbPoint
 10
-58.48953000000006
 20
-40.0
 30
0.0
  0
POINT
  5
A91
330
761
100
AcDbEntity
  8
Defpoints
 62
     0
100
AcDbPoint
 10
-97.40162670462771
 20
-40.0
 30
0.0
  0
ENDBLK
  5
7BB
330
761
100
AcDbEntity
  8
0
100
AcDbBlockEnd
  0
BLOCK
  5
7BC
330
76B
100
AcDbEntity
  8
0
100
AcDbBlockBegin
  2
*D6
 70
     1
 10
0.0
 20
0.0
 30
0.0
  3
*D6
  1

  0
LINE
  5
A92
330
76B
100
AcDbEntity
  8
AM_5
100
AcDbLine
 10
-15.48953000000006
 20
28.0
 30
0.0
 11
15.61749597409926
 21
27.99999999999999
 31
0.0
  0
LINE
  5
A93
330
76B
100
AcDbEntity
  8
AM_5
100
AcDbLine
 10
-15.48953000000006
 20
-28.0
 30
0.0
 11
15.61749597409925
 21
-28.00000000000001
 31
0.0
  0
LINE
  5
A94
330
76B
100
AcDbEntity
  8
AM_5
100
AcDbLine
 10
14.61749597409926
 20
25.49999999999999
 30
0.0
 11
14.61749597409925
 21
-25.50000000000001
 31
0.0
  0
INSERT
  5
A95
330
76B
100
AcDbEntity
  8
AM_5
100
AcDbBlockReference
  2
_Open30
 10
14.61749597409926
 20
27.99999999999999
 30
0.0
 41
2.5
 42
2.5
 43
2.5
 50
90.0
  0
INSERT
  5
A96
330
76B
100
AcDbEntity
  8
AM_5
100
AcDbBlockReference
  2
_Open30
 10
14.61749597409925
 20
-28.00000000000001
 30
0.0
 41
2.5
 42
2.5
 43
2.5
 50
270.0
  0
MTEXT
  5
A97
330
76B
100
AcDbEntity
  8
AM_5
 62
     2
100
AcDbMText
 10
11.21749597409925
 20
-0.9972543916710488
 30
0.0
 40
3.799999999999999
 41
0.0
 71
     5
 72
     1
  1
%%c56
 11
0.0000000000000001
 21
1.0
 31
0.0
 73
     1
 44
1.0
1001
ACAD
1000
MTEXTBEGIN
1070
    73
1070
     1
1070
    44
1040
1.0
1070
    74
1070
     0
1000
MTEXTEND
  0
POINT
  5
A98
330
76B
100
AcDbEntity
  8
Defpoints
 62
     0
100
AcDbPoint
 10
-15.48953000000006
 20
28.0
 30
0.0
  0
POINT
  5
A99
330
76B
100
AcDbEntity
  8
Defpoints
 62
     0
100
AcDbPoint
 10
-15.48953000000006
 20
-28.0
 30
0.0
  0
POINT
  5
A9A
330
76B
100
AcDbEntity
  8
Defpoints
 62
     0
100
AcDbPoint
 10
14.61749597409925
 20
-28.00000000000001
 30
0.0
  0
ENDBLK
  5
7BD
330
76B
100
AcDbEntity
  8
0
100
AcDbBlockEnd
  0
BLOCK
  5
7BE
330
775
100
AcDbEntity
  8
0
100
AcDbBlockBegin
  2
*D7
 70
     1
 10
0.0
 20
0.0
 30
0.0
  3
*D7
  1

  0
LINE
  5
A9B
330
775
100
AcDbEntity
  8
AM_5
100
AcDbLine
 10
-60.48953000000006
 20
-38.0
 30
0.0
 11
-60.48953000000006
 21
-62.91006302166289
 31
0.0
  0
LINE
  5
A9C
330
775
100
AcDbEntity
  8
AM_5
100
AcDbLine
 10
-22.48953000000006
 20
-28.0
 30
0.0
 11
-22.48953000000006
 21
-62.91006302166289
 31
0.0
  0
LINE
  5
A9D
330
775
100
AcDbEntity
  8
AM_5
100
AcDbLine
 10
-57.98953000000006
 20
-61.91006302166289
 30
0.0
 11
-24.98953000000006
 21
-61.91006302166289
 31
0.0
  0
INSERT
  5
A9E
330
775
100
AcDbEntity
  8
AM_5
100
AcDbBlockReference
  2
_Open30
 10
-60.48953000000006
 20
-61.91006302166289
 30
0.0
 41
2.5
 42
2.5
 43
2.5
 50
180.0
  0
INSERT
  5
A9F
330
775
100
AcDbEntity
  8
AM_5
100
AcDbBlockReference
  2
_Open30
 10
-22.48953000000006
 20
-61.91006302166289
 30
0.0
 41
2.5
 42
2.5
 43
2.5
  0
MTEXT
  5
AA0
330
775
100
AcDbEntity
  8
AM_5
 62
     2
100
AcDbMText
 10
-41.48953000000005
 20
-58.5100630216629
 30
0.0
 40
3.799999999999999
 41
0.0
 71
     5
 72
     1
  1
38
 73
     1
 44
1.0
1001
ACAD
1000
MTEXTBEGIN
1070
    73
1070
     1
1070
    44
1040
1.0
1070
    74
1070
     0
1000
MTEXTEND
  0
POINT
  5
AA1
330
775
100
AcDbEntity
  8
Defpoints
 62
     0
100
AcDbPoint
 10
-60.48953000000006
 20
-38.0
 30
0.0
  0
POINT
  5
AA2
330
775
100
AcDbEntity
  8
Defpoints
 62
     0
100
AcDbPoint
 10
-22.48953000000006
 20
-28.0
 30
0.0
  0
POINT
  5
AA3
330
775
100
AcDbEntity
  8
Defpoints
 62
     0
100
AcDbPoint
 10
-22.48953000000006
 20
-61.91006302166289
 30
0.0
  0
ENDBLK
  5
7BF
330
775
100
AcDbEntity
  8
0
100
AcDbBlockEnd
  0
BLOCK
  5
7C0
330
77F
100
AcDbEntity
  8
0
100
AcDbBlockBegin
  2
*D8
 70
     1
 10
0.0
 20
0.0
 30
0.0
  3
*D8
  1

  0
LINE
  5
AA4
330
77F
100
AcDbEntity
  8
AM_5
100
AcDbLine
 10
-50.48953000000006
 20
-7.939999999999997
 30
0.0
 11
-50.48953000000006
 21
-32.84799087329827
 31
0.0
  0
LINE
  5
AA5
330
77F
100
AcDbEntity
  8
AM_5
100
AcDbLine
 10
-60.48953000000006
 20
-38.0
 30
0.0
 11
-60.48953000000006
 21
-30.84799087329827
 31
0.0
  0
LINE
  5
AA6
330
77F
100
AcDbEntity
  8
AM_5
100
AcDbLine
 10
-52.98953000000006
 20
-31.84799087329827
 30
0.0
 11
-57.98953000000006
 21
-31.84799087329827
 31
0.0
  0
INSERT
  5
AA7
330
77F
100
AcDbEntity
  8
AM_5
100
AcDbBlockReference
  2
_Open30
 10
-50.48953000000006
 20
-31.84799087329827
 30
0.0
 41
2.5
 42
2.5
 43
2.5
  0
INSERT
  5
AA8
330
77F
100
AcDbEntity
  8
AM_5
100
AcDbBlockReference
  2
_Open30
 10
-60.48953000000006
 20
-31.84799087329827
 30
0.0
 41
2.5
 42
2.5
 43
2.5
 50
180.0
  0
MTEXT
  5
AA9
330
77F
100
AcDbEntity
  8
AM_5
 62
     2
100
AcDbMText
 10
-55.5373253024079
 20
-28.44799087329827
 30
0.0
 40
3.799999999999999
 41
0.0
 71
     5
 72
     1
  1
10
 73
     1
 44
1.0
1001
ACAD
1000
MTEXTBEGIN
1070
    73
1070
     1
1070
    44
1040
1.0
1070
    74
1070
     0
1000
MTEXTEND
  0
POINT
  5
AAA
330
77F
100
AcDbEntity
  8
Defpoints
 62
     0
100
AcDbPoint
 10
-50.48953000000006
 20
-7.939999999999997
 30
0.0
  0
POINT
  5
AAB
330
77F
100
AcDbEntity
  8
Defpoints
 62
     0
100
AcDbPoint
 10
-60.48953000000006
 20
-38.0
 30
0.0
  0
POINT
  5
AAC
330
77F
100
AcDbEntity
  8
Defpoints
 62
     0
100
AcDbPoint
 10
-60.48953000000006
 20
-31.84799087329827
 30
0.0
  0
ENDBLK
  5
7C1
330
77F
100
AcDbEntity
  8
0
100
AcDbBlockEnd
  0
BLOCK
  5
9C5
330
9AB
100
AcDbEntity
  8
0
100
AcDbBlockBegin
  2
*D9
 70
     1
 10
0.0
 20
0.0
 30
0.0
  3
*D9
  1

  0
LINE
  5
AAD
330
9AB
100
AcDbEntity
  8
AM_5
100
AcDbLine
 10
2.531477655513072
 20
62.49999999999994
 30
0.0
 11
27.77771571539644
 21
62.49999999999993
 31
0.0
  0
LINE
  5
AAE
330
9AB
100
AcDbEntity
  8
AM_5
100
AcDbLine
 10
26.77771571539644
 20
59.99999999999993
 30
0.0
 11
26.77771571539643
 21
-5.954297108599676
 31
0.0
  0
INSERT
  5
AAF
330
9AB
100
AcDbEntity
  8
AM_5
100
AcDbBlockReference
  2
_Open30
 10
26.77771571539644
 20
62.49999999999993
 30
0.0
 41
2.5
 42
2.5
 43
2.5
 50
90.0
  0
MTEXT
  5
AB0
330
9AB
100
AcDbEntity
  8
AM_5
 62
     2
100
AcDbMText
 10
23.37734169964839
 20
0.3744034682512169
 30
0.0
 40
3.799999999999999
 41
0.0
 71
     5
 72
     1
  1
%%c125
 11
0.0000000000000001
 21
1.0
 31
0.0
 73
     1
 44
1.0
1001
ACAD
1000
MTEXTBEGIN
1070
    73
1070
     1
1070
    44
1040
1.0
1070
    74
1070
     0
1000
MTEXTEND
  0
POINT
  5
AB1
330
9AB
100
AcDbEntity
  8
Defpoints
 62
     0
100
AcDbPoint
 10
2.531477655513072
 20
62.49999999999994
 30
0.0
  0
POINT
  5
AB2
330
9AB
100
AcDbEntity
  8
Defpoints
 62
     0
100
AcDbPoint
 10
0.0
 20
0.0
 30
0.0
  0
POINT
  5
AB3
330
9AB
100
AcDbEntity
  8
Defpoints
 62
     0
100
AcDbPoint
 10
26.77771571539643
 20
-0.0000000000000076
 30
0.0
  0
ENDBLK
  5
9C6
330
9AB
100
AcDbEntity
  8
0
100
AcDbBlockEnd
  0
BLOCK
  5
9C7
330
9BA
100
AcDbEntity
  8
0
100
AcDbBlockBegin
  2
*D10
 70
     1
 10
0.0
 20
0.0
 30
0.0
  3
*D10
  1

  0
LINE
  5
AB4
330
9BA
100
AcDbEntity
  8
AM_5
 62
     3
100
AcDbLine
 10
-12.85761953214823
 20
63.03666551208166
 30
0.0
 11
-19.40400521407991
 21
63.26527033748485
 31
0.0
  0
ARC
  5
AB5
330
9BA
100
AcDbEntity
  8
AM_5
 62
     3
100
AcDbCircle
 10
2.510469999999941
 20
62.50000000000013
 30
0.0
 40
21.6278330575083
100
AcDbArc
 50
95.8306868828467
 51
172.1693131171501
  0
INSERT
  5
AB6
330
9BA
100
AcDbEntity
  8
AM_5
 62
     3
100
AcDbBlockReference
  2
_Open30
 10
2.510469999999941
 20
84.12783305750844
 30
0.0
 41
2.2
 42
2.2
 43
2.2
 50
2.915343441423349
  0
INSERT
  5
AB7
330
9BA
100
AcDbEntity
  8
AM_5
 62
     3
100
AcDbBlockReference
  2
_Open30
 10
-19.10418796597418
 20
63.25480048847409
 30
0.0
 41
2.2
 42
2.2
 43
2.2
 50
265.0846565585735
  0
MTEXT
  5
AB8
330
9BA
100
AcDbEntity
  8
AM_5
 62
     2
100
AcDbMText
 10
-14.8753237278481
 20
80.50351643449772
 30
0.0
 40
3.799999999999999
 41
0.0
 71
     5
 72
     1
  1
88°
 11
0.7193398003386707
 21
0.6946583704589773
 31
0.0
 73
     1
 44
1.0
1001
ACAD
1000
MTEXTBEGIN
1070
    73
1070
     1
1070
    44
1040
1.0
1070
    74
1070
     0
1000
MTEXTEND
  0
POINT
  5
AB9
330
9BA
100
AcDbEntity
  8
Defpoints
 62
     0
100
AcDbPoint
 10
-8.08478304264284
 20
81.35480776157166
 30
0.0
  0
POINT
  5
ABA
330
9BA
100
AcDbEntity
  8
Defpoints
 62
     0
100
AcDbPoint
 10
-12.55780228404251
 20
63.0261956630709
 30
0.0
  0
POINT
  5
ABB
330
9BA
100
AcDbEntity
  8
Defpoints
 62
     0
100
AcDbPoint
 10
2.510469999999944
 20
62.5
 30
0.0
  0
POINT
  5
ABC
330
9BA
100
AcDbEntity
  8
Defpoints
 62
     0
100
AcDbPoint
 10
2.510469999999912
 20
362.5
 30
0.0
  0
POINT
  5
ABD
330
9BA
100
AcDbEntity
  8
Defpoints
 62
     0
100
AcDbPoint
 10
1.552265038699033
 20
62.53346125457961
 30
0.0
  0
ENDBLK
  5
9C8
330
9BA
100
AcDbEntity
  8
0
100
AcDbBlockEnd
  0
BLOCK
  5
A40
330
A16
100
AcDbEntity
  8
0
100
AcDbBlockBegin
  2
*D11
 70
     1
 10
0.0
 20
0.0
 30
0.0
  3
*D11
  1

  0
LINE
  5
ABE
330
A16
100
AcDbEntity
  8
AM_5
100
AcDbLine
 10
-60.48953000000006
 20
38.0
 30
0.0
 11
-60.48953000000006
 21
93.63114985957498
 31
0.0
  0
LINE
  5
ABF
330
A16
100
AcDbEntity
  8
AM_5
100
AcDbLine
 10
2.510469999999941
 20
62.5
 30
0.0
 11
2.510469999999942
 21
93.63114985957498
 31
0.0
  0
LINE
  5
AC0
330
A16
100
AcDbEntity
  8
AM_5
100
AcDbLine
 10
-57.98953000000006
 20
92.63114985957498
 30
0.0
 11
0.0104699999999429
 21
92.63114985957498
 31
0.0
  0
INSERT
  5
AC1
330
A16
100
AcDbEntity
  8
AM_5
100
AcDbBlockReference
  2
_Open30
 10
-60.48953000000006
 20
92.63114985957498
 30
0.0
 41
2.5
 42
2.5
 43
2.5
 50
180.0
  0
INSERT
  5
AC2
330
A16
100
AcDbEntity
  8
AM_5
100
AcDbBlockReference
  2
_Open30
 10
2.510469999999942
 20
92.63114985957498
 30
0.0
 41
2.5
 42
2.5
 43
2.5
  0
MTEXT
  5
AC3
330
A16
100
AcDbEntity
  8
AM_5
 62
     2
100
AcDbMText
 10
-28.98953000000006
 20
96.03114985957498
 30
0.0
 40
3.799999999999999
 41
0.0
 71
     5
 72
     1
  1
63
 73
     1
 44
1.0
1001
ACAD
1000
MTEXTBEGIN
1070
    73
1070
     1
1070
    44
1040
1.0
1070
    74
1070
     0
1000
MTEXTEND
  0
POINT
  5
AC4
330
A16
100
AcDbEntity
  8
Defpoints
 62
     0
100
AcDbPoint
 10
-60.48953000000006
 20
38.0
 30
0.0
  0
POINT
  5
AC5
330
A16
100
AcDbEntity
  8
Defpoints
 62
     0
100
AcDbPoint
 10
2.510469999999941
 20
62.5
 30
0.0
  0
POINT
  5
AC6
330
A16
100
AcDbEntity
  8
Defpoints
 62
     0
100
AcDbPoint
 10
2.510469999999942
 20
92.63114985957498
 30
0.0
  0
ENDBLK
  5
A41
330
A16
100
AcDbEntity
  8
0
100
AcDbBlockEnd
  0
BLOCK
  5
A7D
330
A53
100
AcDbEntity
  8
0
100
AcDbBlockBegin
  2
*D12
 70
     1
 10
0.0
 20
0.0
 30
0.0
  3
*D12
  1

  0
LINE
  5
AC7
330
A53
100
AcDbEntity
  8
AM_5
100
AcDbLine
 10
-58.48953000000006
 20
19.0499999999999
 30
0.0
 11
-81.1613557400255
 21
19.0499999999999
 31
0.0
  0
LINE
  5
AC8
330
A53
100
AcDbEntity
  8
AM_5
100
AcDbLine
 10
-58.48953000000006
 20
-19.05000000000004
 30
0.0
 11
-81.1613557400255
 21
-19.05000000000003
 31
0.0
  0
LINE
  5
AC9
330
A53
100
AcDbEntity
  8
AM_5
100
AcDbLine
 10
-80.1613557400255
 20
16.5499999999999
 30
0.0
 11
-80.1613557400255
 21
-16.55000000000003
 31
0.0
  0
INSERT
  5
ACA
330
A53
100
AcDbEntity
  8
AM_5
100
AcDbBlockReference
  2
_Open30
 10
-80.1613557400255
 20
19.0499999999999
 30
0.0
 41
2.5
 42
2.5
 43
2.5
 50
90.0
  0
INSERT
  5
ACB
330
A53
100
AcDbEntity
  8
AM_5
100
AcDbBlockReference
  2
_Open30
 10
-80.1613557400255
 20
-19.05000000000003
 30
0.0
 41
2.5
 42
2.5
 43
2.5
 50
270.0
  0
MTEXT
  5
ACC
330
A53
100
AcDbEntity
  8
AM_5
 62
     2
100
AcDbMText
 10
-83.5613557400255
 20
-0.0000000000000799
 30
0.0
 40
3.799999999999999
 41
0.0
 71
     5
 72
     1
  1
38.1
 11
0.0000000000000001
 21
1.0
 31
0.0
 73
     1
 44
1.0
1001
ACAD
1000
MTEXTBEGIN
1070
    73
1070
     1
1070
    44
1040
1.0
1070
    74
1070
     0
1000
MTEXTEND
  0
POINT
  5
ACD
330
A53
100
AcDbEntity
  8
Defpoints
 62
     0
100
AcDbPoint
 10
-58.48953000000006
 20
19.0499999999999
 30
0.0
  0
POINT
  5
ACE
330
A53
100
AcDbEntity
  8
Defpoints
 62
     0
100
AcDbPoint
 10
-58.48953000000006
 20
-19.05000000000004
 30
0.0
  0
POINT
  5
ACF
330
A53
100
AcDbEntity
  8
Defpoints
 62
     0
100
AcDbPoint
 10
-80.1613557400255
 20
-19.05000000000003
 30
0.0
  0
ENDBLK
  5
A7E
330
A53
100
AcDbEntity
  8
0
100
AcDbBlockEnd
  0
ENDSEC
  0
SECTION
  2
ENTITIES
  0
LINE
  5
6BB
330
1F
100
AcDbEntity
  8
AM_7
100
AcDbLine
 10
3.289306821515992
 20
0.0
 30
0.0
 11
-61.15468769372933
 21
0.0
 31
0.0
  0
DIMENSION
  5
6BC
330
1F
100
AcDbEntity
  8
AM_5
100
AcDbDimension
  2
*D4
 10
-70.16135574002532
 20
-7.94000000000005
 30
0.0
 11
-70.16135574002532
 21
0.0
 31
0.0
 70
   160
  1
<>
 71
     5
 42
15.87999999999999
  3
AM_JIS$0
100
AcDbAlignedDimension
 13
-56.74854279771148
 23
7.93999999999994
 33
0.0
 14
-56.74854279771148
 24
-7.940000000000054
 34
0.0
 50
90.0
100
AcDbRotatedDimension
1001
ACAD
1000
DSTYLE
1002
{
1070
    47
1040
0.4
1070
    48
1040
-0.1
1070
   179
1070
     0
1070
   271
1070
     2
1002
}
  0
DIMENSION
  5
6BD
330
1F
100
AcDbEntity
  8
AM_5
100
AcDbDimension
  2
*D5
 10
-97.40162670462771
 20
-40.0
 30
0.0
 11
-97.40162670462769
 21
0.0000000000002842
 31
0.0
 70
   160
  1
%%c<>
 71
     5
 42
80.0
  3
AM_JIS$0
100
AcDbAlignedDimension
 13
-58.48953000000006
 23
40.0
 33
0.0
 14
-58.48953000000006
 24
-40.0
 34
0.0
 50
90.0
100
AcDbRotatedDimension
1001
ACAD
1000
DSTYLE
1002
{
1070
    47
1040
0.4
1070
    48
1040
0.2
1070
   179
1070
     0
1070
   271
1070
     0
1002
}
  0
DIMENSION
  5
6BE
330
1F
100
AcDbEntity
  8
AM_5
100
AcDbDimension
  2
*D6
 10
14.61749597409925
 20
-28.00000000000001
 30
0.0
 11
14.61749597409925
 21
-0.9972543916710492
 31
0.0
 70
   160
  1
%%c<>
 71
     5
 42
56.0
  3
AM_JIS$0
100
AcDbAlignedDimension
 13
-15.48953000000006
 23
28.0
 33
0.0
 14
-15.48953000000006
 24
-28.0
 34
0.0
 50
90.0
100
AcDbRotatedDimension
1001
ACAD
1000
DSTYLE
1002
{
1070
    47
1040
0.4
1070
    48
1040
0.2
1070
   179
1070
     0
1070
   271
1070
     0
1002
}
  0
DIMENSION
  5
6BF
330
1F
100
AcDbEntity
  8
AM_5
100
AcDbDimension
  2
*D7
 10
-22.48953000000006
 20
-61.91006302166289
 30
0.0
 11
-41.48953000000005
 21
-58.5100630216629
 31
0.0
 70
    32
 71
     5
 42
38.0
  3
AM_JIS$0
100
AcDbAlignedDimension
 13
-60.48953000000006
 23
-38.0
 33
0.0
 14
-22.48953000000006
 24
-28.0
 34
0.0
100
AcDbRotatedDimension
1001
ACAD
1000
DSTYLE
1002
{
1070
    47
1040
0.4
1070
    48
1040
0.2
1070
   179
1070
     0
1070
   271
1070
     0
1002
}
  0
DIMENSION
  5
6C0
330
1F
100
AcDbEntity
  8
AM_5
100
AcDbDimension
  2
*D8
 10
-60.48953000000006
 20
-31.84799087329827
 30
0.0
 11
-55.5373253024079
 21
-31.84799087329827
 31
0.0
 70
   160
 71
     5
 42
10.0
  3
AM_JIS$0
100
AcDbAlignedDimension
 13
-50.48953000000006
 23
-7.939999999999997
 33
0.0
 14
-60.48953000000006
 24
-38.0
 34
0.0
100
AcDbRotatedDimension
1001
ACAD
1000
DSTYLE
1002
{
1070
    47
1040
0.4
1070
    48
1040
0.2
1070
   179
1070
     0
1070
   271
1070
     0
1002
}
  0
LINE
  5
6C1
330
1F
100
AcDbEntity
  8
AM_0
100
AcDbLine
 10
-23.5210689999999
 20
58.76309099999992
 30
0.0
 11
-28.23188000000005
 21
48.66072599999995
 31
0.0
  0
LINE
  5
6C2
330
1F
100
AcDbEntity
  8
AM_0
100
AcDbLine
 10
-28.23188000000005
 20
-48.66072600000001
 30
0.0
 11
-25.87647449999986
 21
-53.71190899999999
 31
0.0
  0
LINE
  5
6C3
330
1F
100
AcDbEntity
  8
AM_0
100
AcDbLine
 10
-58.48953000000006
 20
-40.0
 30
0.0
 11
-41.82649600000013
 21
-40.0
 31
0.0
  0
LINE
  5
6C4
330
1F
100
AcDbEntity
  8
AM_0
100
AcDbLine
 10
-41.82649600000013
 20
40.0
 30
0.0
 11
-58.48953000000006
 21
40.0
 31
0.0
  0
LINE
  5
6C5
330
1F
100
AcDbEntity
  8
AM_0
100
AcDbLine
 10
-58.48953000000006
 20
7.939999999999997
 30
0.0
 11
-50.48953000000006
 21
7.939999999999997
 31
0.0
  0
LINE
  5
6C6
330
1F
100
AcDbEntity
  8
AM_0
100
AcDbLine
 10
-50.48953000000006
 20
-7.939999999999997
 30
0.0
 11
-58.48953000000006
 21
-7.939999999999997
 31
0.0
  0
LINE
  5
6C7
330
1F
100
AcDbEntity
  8
AM_0
100
AcDbLine
 10
0.0
 20
56.23257599999999
 30
0.0
 11
0.0
 21
-61.35018299999996
 31
0.0
  0
LINE
  5
6C8
330
1F
100
AcDbEntity
  8
AM_0
100
AcDbLine
 10
-50.48953000000006
 20
7.939999999999997
 30
0.0
 11
-50.48953000000006
 21
-7.939999999999997
 31
0.0
  0
LINE
  5
6C9
330
1F
100
AcDbEntity
  8
AM_0
100
AcDbLine
 10
-60.48953000000006
 20
8.939999999999997
 30
0.0
 11
-60.48953000000006
 21
38.0
 31
0.0
  0
LINE
  5
6CA
330
1F
100
AcDbEntity
  8
AM_0
100
AcDbLine
 10
-60.48953000000006
 20
8.939999999999997
 30
0.0
 11
-60.48953000000006
 21
20.44999999999999
 31
0.0
  0
LINE
  5
6CB
330
1F
100
AcDbEntity
  8
AM_0
100
AcDbLine
 10
-59.48953000000006
 20
-7.939999999999997
 30
0.0
 11
-60.48953000000006
 21
-8.939999999999997
 31
0.0
  0
LINE
  5
6CC
330
1F
100
AcDbEntity
  8
AM_0
100
AcDbLine
 10
-58.48953000000006
 20
-7.939999999999997
 30
0.0
 11
-59.48953000000006
 21
-7.939999999999997
 31
0.0
  0
LINE
  5
6CD
330
1F
100
AcDbEntity
  8
AM_0
100
AcDbLine
 10
-60.48953000000006
 20
8.939999999999997
 30
0.0
 11
-59.48953000000006
 21
7.939999999999997
 31
0.0
  0
LINE
  5
6CE
330
1F
100
AcDbEntity
  8
AM_0
100
AcDbLine
 10
-59.48953000000006
 20
7.939999999999997
 30
0.0
 11
-58.48953000000006
 21
7.939999999999997
 31
0.0
  0
ARC
  5
6CF
330
1F
100
AcDbEntity
  8
AM_0
100
AcDbCircle
 10
-41.82649600000013
 20
-55.0
 30
0.0
 40
14.999999301151
100
AcDbArc
 50
25.00000155617724
 51
90.0
  0
ARC
  5
6D0
330
1F
100
AcDbEntity
  8
AM_0
100
AcDbCircle
 10
-41.82649600000013
 20
55.0
 30
0.0
 40
15.0
100
AcDbArc
 50
270.0
 51
334.9999984438228
  0
ARC
  5
6D1
330
1F
100
AcDbEntity
  8
AM_0
100
AcDbCircle
 10
-58.48953000000006
 20
-38.0
 30
0.0
 40
2.0
100
AcDbArc
 50
180.0
 51
270.0
  0
ARC
  5
6D2
102
{ACAD_REACTORS
330
A21
102
}
330
1F
100
AcDbEntity
  8
AM_0
100
AcDbCircle
 10
-58.48953000000006
 20
38.0
 30
0.0
 40
2.0
100
AcDbArc
 50
90.0
 51
180.0
  0
ARC
  5
6D3
330
1F
100
AcDbEntity
  8
AM_0
100
AcDbCircle
 10
-18.98953000000006
 20
56.64999999999998
 30
0.0
 40
5.000000302091679
100
AcDbArc
 50
142.7399815679484
 51
155.0000035199436
  0
SPLINE
  5
6D4
330
1F
100
AcDbEntity
  8
AM_0
100
AcDbSpline
210
0.0
220
0.0
230
1.0
 70
     8
 71
     3
 72
    11
 73
     7
 74
     5
 42
0.0000000001
 43
0.0000000001
 44
0.0000000001
 40
0.0
 40
0.0
 40
0.0
 40
0.0
 40
1.136864870841694
 40
2.283339073905213
 40
3.43643535230217
 40
4.591555579491085
 40
4.591555579491085
 40
4.591555579491085
 40
4.591555579491085
 10
-22.96902
 20
59.67715399999997
 30
0.0
 10
-22.71906547179483
 20
59.96443608986435
 30
0.0
 10
-22.21704367871414
 20
60.54142851688413
 30
0.0
 10
-21.23668060691284
 20
61.15893070720695
 30
0.0
 10
-20.14714128331259
 20
61.57128593157885
 30
0.0
 10
-19.3756259276418
 20
61.6228429080288
 30
0.0
 10
-18.98953000000006
 20
61.64864399999999
 30
0.0
 11
-22.96902
 21
59.67715399999997
 31
0.0
 11
-22.18212500000004
 21
60.49767699999995
 31
0.0
 11
-21.22136799999998
 21
61.12325599999997
 31
0.0
 11
-20.13691100000006
 21
61.51515400000005
 31
0.0
 11
-18.98953000000006
 21
61.64864399999999
 31
0.0
  0
LINE
  5
6D5
330
1F
100
AcDbEntity
  8
AM_7
100
AcDbLine
 10
3.28930682151622
 20
0.0
 30
0.0
 11
-61.1546876937291
 21
0.0
 31
0.0
  0
LINE
  5
6D6
330
1F
100
AcDbEntity
  8
AM_0
100
AcDbLine
 10
-60.48953000000006
 20
-38.0
 30
0.0
 11
-60.48953000000006
 21
-9.04000000000002
 31
0.0
  0
LINE
  5
6D7
102
{ACAD_REACTORS
330
A5E
102
}
330
1F
100
AcDbEntity
  8
AM_0
100
AcDbLine
 10
-58.48953000000006
 20
7.939999999999997
 30
0.0
 11
-58.48953000000006
 21
19.04999999999998
 31
0.0
  0
LINE
  5
6D8
330
1F
100
AcDbEntity
  8
AM_0
100
AcDbLine
 10
-60.48953000000006
 20
8.939999999999997
 30
0.0
 11
-60.48953000000006
 21
20.44999999999999
 31
0.0
  0
LINE
  5
6D9
330
1F
100
AcDbEntity
  8
AM_0
100
AcDbLine
 10
-60.48953000000006
 20
8.939999999999997
 30
0.0
 11
-59.48953000000006
 21
7.939999999999997
 31
0.0
  0
LINE
  5
6DA
330
1F
100
AcDbEntity
  8
AM_0
100
AcDbLine
 10
-59.48953000000006
 20
7.939999999999997
 30
0.0
 11
-58.48953000000006
 21
7.939999999999997
 31
0.0
  0
LINE
  5
6DB
102
{ACAD_REACTORS
330
A5E
102
}
330
1F
100
AcDbEntity
  8
AM_0
100
AcDbLine
 10
-58.48953000000012
 20
19.04999999999995
 30
0.0
 11
-60.48952999999989
 21
21.04999999999979
 31
0.0
  0
LINE
  5
6DC
330
1F
100
AcDbEntity
  8
AM_0
100
AcDbLine
 10
-49.88952999999992
 20
19.05000000000001
 30
0.0
 11
-33.56952999999999
 21
19.05000000000001
 31
0.0
  0
LINE
  5
6E0
330
1F
100
AcDbEntity
  8
AM_0
100
AcDbLine
 10
-58.48953000000006
 20
19.04999999999998
 30
0.0
 11
-23.98953000000006
 21
19.05000000000001
 31
0.0
  0
ARC
  5
6E1
330
1F
100
AcDbEntity
  8
AM_0
100
AcDbCircle
 10
-23.98953000000006
 20
20.55000000000001
 30
0.0
 40
1.5
100
AcDbArc
 50
270.0
 51
0.0
  0
LINE
  5
6E2
330
1F
100
AcDbEntity
  8
AM_0
100
AcDbLine
 10
-22.48953000000006
 20
-28.0
 30
0.0
 11
-22.48953000000006
 21
28.0
 31
0.0
  0
LINE
  5
6E3
330
1F
100
AcDbEntity
  8
AM_0
100
AcDbLine
 10
-58.48953000000012
 20
-19.05000000000004
 30
0.0
 11
-60.48952999999989
 21
-21.04999999999987
 31
0.0
  0
LINE
  5
6E4
330
1F
100
AcDbEntity
  8
AM_0
100
AcDbLine
 10
-49.88952999999992
 20
-19.05000000000001
 30
0.0
 11
-33.56952999999999
 21
-19.05000000000001
 31
0.0
  0
LINE
  5
6E7
102
{ACAD_REACTORS
330
A5E
102
}
330
1F
100
AcDbEntity
  8
AM_0
100
AcDbLine
 10
-58.48953000000006
 20
-19.05000000000004
 30
0.0
 11
-23.98953000000006
 21
-19.05000000000001
 31
0.0
  0
ARC
  5
6E8
330
1F
100
AcDbEntity
  8
AM_0
100
AcDbCircle
 10
-23.98953000000006
 20
-20.55000000000001
 30
0.0
 40
1.5
100
AcDbArc
 50
0.0
 51
90.0
  0
LINE
  5
6E9
330
1F
100
AcDbEntity
  8
AM_0
100
AcDbLine
 10
-58.48953000000006
 20
-7.939999999999997
 30
0.0
 11
-58.48953000000012
 21
-19.05000000000004
 31
0.0
  0
LINE
  5
74C
330
1F
100
AcDbEntity
  8
AM_0
100
AcDbLine
 10
-18.98953000000006
 20
61.64864399999999
 30
0.0
 11
-14.50631400508086
 21
61.64864399999999
 31
0.0
  0
LINE
  5
74D
330
1F
100
AcDbEntity
  8
AM_0
100
AcDbLine
 10
-10.94266706243024
 20
29.46514406628074
 30
0.0
 11
-2.150494804353911
 21
38.25731618615771
 31
0.0
  0
ARC
  5
74E
330
1F
100
AcDbEntity
  8
AM_0
100
AcDbCircle
 10
-14.47820094057624
 20
33.00067799999999
 30
0.0
 40
5.0
100
AcDbArc
 50
270.0
 51
314.9999995496961
  0
LINE
  5
74F
330
1F
100
AcDbEntity
  8
AM_0
100
AcDbLine
 10
-0.6890745502842038
 20
41.61835255389985
 30
0.0
 11
-0.1784742076208658
 21
56.24002637436991
 31
0.0
  0
ARC
  5
750
330
1F
100
AcDbEntity
  8
AM_0
100
AcDbCircle
 10
-5.686028682500364
 20
41.79285011987701
 30
0.0
 40
5.0
100
AcDbArc
 50
314.9999995496961
 51
357.9999990544507
  0
LINE
  5
751
330
1F
100
AcDbEntity
  8
AM_0
100
AcDbLine
 10
-22.48952999999983
 20
28.00067799999999
 30
0.0
 11
-14.47820094057624
 21
28.00067799999999
 31
0.0
  0
LINE
  5
752
330
1F
100
AcDbEntity
  8
AM_0
100
AcDbLine
 10
-10.94266706243024
 20
-29.46514406628068
 30
0.0
 11
-2.150494804353911
 21
-38.25731618615771
 31
0.0
  0
ARC
  5
753
330
1F
100
AcDbEntity
  8
AM_0
100
AcDbCircle
 10
-14.47820094057624
 20
-33.00067799999994
 30
0.0
 40
5.0
100
AcDbArc
 50
45.00000045030386
 51
90.0
  0
LINE
  5
754
330
1F
100
AcDbEntity
  8
AM_0
100
AcDbLine
 10
-0.6890745502842038
 20
-41.6183525538998
 30
0.0
 11
-0.1784742076208658
 21
-56.24002637436991
 31
0.0
  0
ARC
  5
755
330
1F
100
AcDbEntity
  8
AM_0
100
AcDbCircle
 10
-5.686028682500364
 20
-41.79285011987696
 30
0.0
 40
5.0
100
AcDbArc
 50
2.00000094554937
 51
45.00000045030386
  0
LINE
  5
756
330
1F
100
AcDbEntity
  8
AM_0
100
AcDbLine
 10
-22.48952999999983
 20
-28.00067799999999
 30
0.0
 11
-14.47820094057624
 21
-28.00067799999994
 31
0.0
  0
LINE
  5
95F
330
1F
100
AcDbEntity
  8
AM_0
100
AcDbLine
 10
-23.52188582585495
 20
-58.76201731161128
 30
0.0
 11
-28.23381534527494
 21
-48.65725363940007
 31
0.0
  0
LINE
  5
960
330
1F
100
AcDbEntity
  8
AM_0
100
AcDbLine
 10
0.0
 20
-61.35086000000004
 30
0.0
 11
-0.2895300000000134
 21
-61.650678
 31
0.0
  0
ARC
  5
961
330
1F
100
AcDbEntity
  8
AM_0
100
AcDbCircle
 10
-41.82649600000013
 20
-55.00067800000002
 30
0.0
 40
15.0
100
AcDbArc
 50
25.01749363855174
 51
90.00000000000003
  0
ARC
  5
962
330
1F
100
AcDbEntity
  8
AM_0
100
AcDbCircle
 10
-41.82649600000013
 20
-55.00067800000002
 30
0.0
 40
15.0
100
AcDbArc
 50
25.00000155617725
 51
25.01749363855174
  0
ARC
  5
963
330
1F
100
AcDbEntity
  8
AM_0
100
AcDbCircle
 10
-18.98953000000006
 20
-56.650678
 30
0.0
 40
5.000000302091679
100
AcDbArc
 50
204.9999964800578
 51
217.2600184320523
  0
SPLINE
  5
964
330
1F
100
AcDbEntity
  8
AM_0
100
AcDbSpline
210
0.0
220
0.0
230
1.0
 70
     8
 71
     3
 72
    11
 73
     7
 74
     5
 42
0.0000000001
 43
0.0000000001
 44
0.0000000001
 40
0.0
 40
0.0
 40
0.0
 40
0.0
 40
1.136864870841735
 40
2.283339073905254
 40
3.436435352302172
 40
4.591555579491094
 40
4.591555579491094
 40
4.591555579491094
 40
4.591555579491094
 10
-22.96902
 20
-59.67783199999999
 30
0.0
 10
-22.71906547179483
 20
-59.96511408986438
 30
0.0
 10
-22.21704367871415
 20
-60.54210651688418
 30
0.0
 10
-21.23668060691287
 20
-61.1596087072071
 30
0.0
 10
-20.14714128331256
 20
-61.57196393157878
 30
0.0
 10
-19.3756259276418
 20
-61.62352090802879
 30
0.0
 10
-18.98953000000006
 20
-61.64932200000001
 30
0.0
 11
-22.96902
 21
-59.67783199999999
 31
0.0
 11
-22.18212500000004
 21
-60.49835500000003
 31
0.0
 11
-21.22136799999998
 21
-61.12393400000005
 31
0.0
 11
-20.13691100000006
 21
-61.51583200000001
 31
0.0
 11
-18.98953000000006
 21
-61.64932200000001
 31
0.0
  0
LINE
  5
965
330
1F
100
AcDbEntity
  8
AM_0
100
AcDbLine
 10
-0.6890745502846585
 20
-41.61835255389985
 30
0.0
 11
-0.0000000000002274
 21
-61.3508565700279
 31
0.0
  0
ARC
  5
966
330
1F
100
AcDbEntity
  8
AM_0
100
AcDbCircle
 10
-5.686028682500364
 20
-41.79285011987701
 30
0.0
 40
5.0
100
AcDbArc
 50
2.000000945551011
 51
45.00000045030268
  0
LINE
  5
968
330
1F
100
AcDbEntity
  8
AM_0
100
AcDbLine
 10
-18.98953000000006
 20
-61.64932200000001
 30
0.0
 11
-0.2895300000000134
 21
-61.650678
 31
0.0
  0
DIMENSION
  5
98B
330
1F
100
AcDbEntity
  8
AM_5
100
AcDbDimension
  2
*D9
 10
26.77771571539643
 20
-0.0000000000000076
 30
0.0
 11
26.77771571539643
 21
0.3744034682512165
 31
0.0
 70
   160
  1
%%c<>
 71
     5
 42
124.9999999999999
  3
AM_JIS$0
100
AcDbAlignedDimension
 13
2.531477655513072
 23
62.49999999999994
 33
0.0
 14
0.0
 24
0.0
 34
0.0
 50
90.0
100
AcDbRotatedDimension
1001
ACAD
1000
DSTYLE
1002
{
1070
    47
1040
0.4
1070
    48
1040
0.2
1070
    76
1070
     1
1070
   144
1040
2.0
1070
   179
1070
     0
1070
   271
1070
     0
1070
   282
1070
     1
1002
}
  0
LINE
  5
98C
330
1F
100
AcDbEntity
  8
0
100
AcDbLine
 10
-12.79386065551239
 20
56.79024868268903
 30
0.0
 11
-5.660036655512385
 21
56.48917368268894
 31
0.0
  0
LINE
  5
98D
330
1F
100
AcDbEntity
  8
0
100
AcDbLine
 10
-5.660036655512385
 20
56.48917368268894
 30
0.0
 11
1.473787344487618
 21
56.18809968268897
 31
0.0
  0
LINE
  5
98E
330
1F
100
AcDbEntity
  8
0
100
AcDbLine
 10
-13.36487804537887
 20
62.24947631987356
 30
0.0
 11
-13.37721765551237
 21
62.10115668268918
 31
0.0
  0
LINE
  5
98F
330
1F
100
AcDbEntity
  8
0
100
AcDbLine
 10
-13.37721765551237
 20
62.10115668268918
 30
0.0
 11
-13.53394165551231
 21
60.06854368268887
 31
0.0
  0
LINE
  5
990
330
1F
100
AcDbEntity
  8
0
100
AcDbLine
 10
-13.53394165551231
 20
60.06854368268887
 30
0.0
 11
-13.53619965551229
 21
60.03926268268902
 31
0.0
  0
LINE
  5
991
330
1F
100
AcDbEntity
  8
0
100
AcDbLine
 10
-13.53619965551229
 20
60.03926268268902
 30
0.0
 11
-13.5392626555124
 21
59.99953368268916
 31
0.0
  0
LINE
  5
992
330
1F
100
AcDbEntity
  8
0
100
AcDbLine
 10
-13.55706765551235
 20
57.59522668268892
 30
0.0
 11
-13.53977265551225
 21
59.93077168268905
 31
0.0
  0
LINE
  5
993
330
1F
100
AcDbEntity
  8
0
100
AcDbLine
 10
-13.53977265551225
 20
59.93077168268905
 30
0.0
 11
-13.5395796555124
 21
59.95676568268891
 31
0.0
  0
LINE
  5
994
330
1F
100
AcDbEntity
  8
0
100
AcDbLine
 10
-13.5395796555124
 20
59.95676568268891
 30
0.0
 11
-13.5392626555124
 21
59.99953368268916
 31
0.0
  0
SPLINE
  5
995
330
1F
100
AcDbEntity
  8
0
100
AcDbSpline
210
0.0
220
0.0
230
1.0
 70
     8
 71
     3
 72
    11
 73
     7
 74
     5
 42
0.0000000001
 43
0.0000000001
 44
0.0000000001
 40
0.0
 40
0.0
 40
0.0
 40
0.0
 40
0.0407986572448416
 40
0.0814906228524067
 40
0.1221807014957446
 40
0.1629738636678083
 40
0.1629738636678083
 40
0.1629738636678083
 40
0.1629738636678083
 10
-13.55706765551235
 20
57.59522668268892
 30
0.0
 10
-13.55696944793834
 20
57.58162420682983
 30
0.0
 10
-13.55677328961069
 20
57.55445482663578
 30
0.0
 10
-13.5538330541763
 20
57.51381145307056
 30
0.0
 10
-13.54911943093752
 20
57.47333718343348
 30
0.0
 10
-13.54422830988806
 20
57.44661345223418
 30
0.0
 10
-13.5417796555123
 20
57.43323468268909
 30
0.0
 11
-13.55706765551235
 21
57.59522668268892
 31
0.0
 11
-13.55633065551251
 21
57.55443468268913
 31
0.0
 11
-13.55353765551194
 21
57.51383868268908
 31
0.0
 11
-13.54868765551259
 21
57.47343868268899
 31
0.0
 11
-13.5417796555123
 21
57.43323468268909
 31
0.0
  0
SPLINE
  5
996
330
1F
100
AcDbEntity
  8
0
100
AcDbSpline
210
0.0
220
0.0
230
1.0
 70
     8
 71
     3
 72
    11
 73
     7
 74
     5
 42
0.0000000001
 43
0.0000000001
 44
0.0000000001
 40
0.0
 40
0.0
 40
0.0
 40
0.0
 40
0.2650406375671344
 40
0.5297807496789189
 40
0.794200791449689
 40
1.058417038130242
 40
1.058417038130242
 40
1.058417038130242
 40
1.058417038130242
 10
-13.5417796555123
 20
57.43323468268909
 30
0.0
 10
-13.51612024456494
 20
57.34775527436835
 30
0.0
 10
-13.46483051747708
 20
57.17689338149806
 30
0.0
 10
-13.28737061765074
 20
56.97189921291472
 30
0.0
 10
-13.05829073206811
 20
56.82724596902547
 30
0.0
 10
-12.88198135796481
 20
56.80257794153607
 30
0.0
 10
-12.79386065551239
 20
56.79024868268903
 30
0.0
 11
-13.5417796555123
 21
57.43323468268909
 31
0.0
 11
-13.44801065551223
 21
57.18533568268913
 31
0.0
 11
-13.27865065551236
 21
56.98185468268912
 31
0.0
 11
-13.05230965551231
 21
56.84515168268899
 31
0.0
 11
-12.79386065551239
 21
56.79024868268903
 31
0.0
  0
SPLINE
  5
997
330
1F
100
AcDbEntity
  8
0
100
AcDbSpline
210
0.0
220
0.0
230
1.0
 70
     8
 71
     3
 72
    11
 73
     7
 74
     5
 42
0.0000000001
 43
0.0000000001
 44
0.0000000001
 40
0.0
 40
0.0
 40
0.0
 40
0.0
 40
0.2650406375671344
 40
0.5297807496789189
 40
0.7942007914495714
 40
1.05750352189121
 40
1.05750352189121
 40
1.05750352189121
 40
1.05750352189121
 10
2.489462344487719
 20
61.88946568268921
 30
0.0
 10
2.463809725049326
 20
61.97497831954673
 30
0.0
 10
2.41253357327861
 20
62.14590663181327
 30
0.0
 10
2.234971988060546
 20
62.35040328845954
 30
0.0
 10
2.006541191361487
 20
62.49677521264166
 30
0.0
 10
1.829620883602208
 20
62.51684478910258
 30
0.0
 10
1.741348020355644
 20
62.52685833136229
 30
0.0
 11
2.489462344487719
 21
61.88946568268921
 31
0.0
 11
2.395693344487654
 21
62.13736468268916
 31
0.0
 11
2.226333344487784
 21
62.34084568268918
 31
0.0
 11
1.999992344487736
 21
62.47754868268907
 31
0.0
 11
1.741348020355644
 21
62.52685833136229
 31
0.0
  0
SPLINE
  5
998
330
1F
100
AcDbEntity
  8
0
100
AcDbSpline
210
0.0
220
0.0
230
1.0
 70
     8
 71
     3
 72
    11
 73
     7
 74
     5
 42
0.0000000001
 43
0.0000000001
 44
0.0000000001
 40
0.0
 40
0.0
 40
0.0
 40
0.0
 40
0.0407986391932297
 40
0.0814906734503863
 40
0.1221807520938326
 40
0.1629737449358624
 40
0.1629737449358624
 40
0.1629737449358624
 40
0.1629737449358624
 10
2.50474934448789
 20
61.72747368268892
 30
0.0
 10
2.504651666612167
 20
61.74107616693753
 30
0.0
 10
2.504456566088441
 20
61.76824559277959
 30
0.0
 10
2.501514387876378
 20
61.80888887563914
 30
0.0
 10
2.496800974979148
 20
61.84936308788235
 30
0.0
 10
2.491910613515297
 20
61.87608690024391
 30
0.0
 10
2.489462344487719
 20
61.88946568268921
 30
0.0
 11
2.50474934448789
 21
61.72747368268892
 31
0.0
 11
2.50401334448793
 21
61.76826568268916
 31
0.0
 11
2.501219344487935
 21
61.80886168268898
 31
0.0
 11
2.496369344487675
 21
61.84926168268908
 31
0.0
 11
2.489462344487719
 21
61.88946568268921
 31
0.0
  0
SPLINE
  5
999
330
1F
100
AcDbEntity
  8
0
100
AcDbSpline
210
0.0
220
0.0
230
1.0
 70
     8
 71
     3
 72
    11
 73
     7
 74
     5
 42
0.0000000001
 43
0.0000000001
 44
0.0000000001
 40
0.0
 40
0.0
 40
0.0
 40
0.0
 40
0.0407919769564545
 40
0.0814824091609861
 40
0.1221741315623207
 40
0.1629728995096463
 40
0.1629728995096463
 40
0.1629728995096463
 40
0.1629728995096463
 10
2.273223344487405
 20
56.76578168268907
 30
0.0
 10
2.27679017889822
 20
56.7789062498079
 30
0.0
 10
2.283914968686708
 20
56.80512271264763
 30
0.0
 10
2.292022276396434
 20
56.84505546862769
 30
0.0
 10
2.298377356649453
 20
56.88530654746149
 30
0.0
 10
2.300861594114004
 20
56.91236279062636
 30
0.0
 10
2.302105344487927
 20
56.92590868268917
 30
0.0
 11
2.273223344487405
 21
56.76578168268907
 31
0.0
 11
2.283493344487624
 21
56.80525968268921
 31
0.0
 11
2.291730344487632
 21
56.84510768268911
 31
0.0
 11
2.29793434448743
 21
56.88532368268898
 31
0.0
 11
2.302105344487927
 21
56.92590868268917
 31
0.0
  0
SPLINE
  5
99A
330
1F
100
AcDbEntity
  8
0
100
AcDbSpline
210
0.0
220
0.0
230
1.0
 70
     8
 71
     3
 72
    11
 73
     7
 74
     5
 42
0.0000000001
 43
0.0000000001
 44
0.0000000001
 40
0.0
 40
0.0
 40
0.0
 40
0.0
 40
0.2642162354911864
 40
0.5286359477520017
 40
0.793376672901661
 40
1.058417590531351
 40
1.058417590531351
 40
1.058417590531351
 40
1.058417590531351
 10
1.473787344487618
 20
56.18809968268897
 30
0.0
 10
1.562633559294797
 20
56.19296003160688
 30
0.0
 10
1.740394410672675
 20
56.20268447246816
 30
0.0
 10
1.980847692169817
 20
56.3275221788128
 30
0.0
 10
2.174949051819318
 20
56.51683506618773
 30
0.0
 10
2.240452874692544
 20
56.68276813606254
 30
0.0
 10
2.273223344487405
 20
56.76578168268907
 30
0.0
 11
1.473787344487618
 21
56.18809968268897
 31
0.0
 11
1.73594334448785
 21
56.22103068268916
 31
0.0
 11
1.972997344488021
 21
56.33817668268921
 31
0.0
 11
2.158900344487619
 21
56.52666468268899
 31
0.0
 11
2.273223344487405
 21
56.76578168268907
 31
0.0
  0
LINE
  5
99B
330
1F
100
AcDbEntity
  8
0
100
AcDbLine
 10
2.50474934448789
 20
61.72747368268892
 30
0.0
 11
2.487454344487787
 21
59.3919296826889
 31
0.0
  0
LINE
  5
99C
330
1F
100
AcDbEntity
  8
0
100
AcDbLine
 10
2.487454344487787
 20
59.3919296826889
 30
0.0
 11
2.487262344487817
 21
59.36593468268893
 31
0.0
  0
LINE
  5
99D
330
1F
100
AcDbEntity
  8
0
100
AcDbLine
 10
2.487262344487817
 20
59.36593468268893
 30
0.0
 11
2.486945344487821
 21
59.32316668268914
 31
0.0
  0
LINE
  5
99E
330
1F
100
AcDbEntity
  8
0
100
AcDbLine
 10
2.48388234448771
 20
59.28343768268906
 30
0.0
 11
2.486945344487821
 21
59.32316668268914
 31
0.0
  0
LINE
  5
99F
330
1F
100
AcDbEntity
  8
0
100
AcDbLine
 10
2.481624344487727
 20
59.25415668268897
 30
0.0
 11
2.48388234448771
 21
59.28343768268906
 31
0.0
  0
LINE
  5
9A0
330
1F
100
AcDbEntity
  8
0
100
AcDbLine
 10
2.324900344487787
 20
57.22154368268911
 30
0.0
 11
2.481624344487727
 21
59.25415668268897
 31
0.0
  0
LINE
  5
9A1
330
1F
100
AcDbEntity
  8
0
100
AcDbLine
 10
2.302621344487988
 20
56.9326036826892
 30
0.0
 11
2.324900344487787
 21
57.22154368268911
 31
0.0
  0
LINE
  5
9A2
330
1F
100
AcDbEntity
  8
0
100
AcDbLine
 10
2.302105344487927
 20
56.92590868268917
 30
0.0
 11
2.302621344487988
 21
56.9326036826892
 31
0.0
  0
LINE
  5
9A3
330
1F
100
AcDbEntity
  8
AM_5
100
AcDbLine
 10
1.552265038699033
 20
62.5334612545796
 30
0.0
 11
2.510469999999941
 21
62.5
 31
0.0
  0
LINE
  5
9A4
330
1F
100
AcDbEntity
  8
AM_5
100
AcDbLine
 10
2.510469999999941
 20
62.5
 30
0.0
 11
2.502740792005852
 21
61.4562355967023
 31
0.0
  0
LINE
  5
9A5
102
{ACAD_REACTORS
330
A21
102
}
330
1F
100
AcDbEntity
  8
AM_5
100
AcDbLine
 10
2.510469999999941
 20
62.5
 30
0.0
 11
2.510469999999941
 21
65.95270151658088
 31
0.0
  0
LINE
  5
9A6
102
{ACAD_REACTORS
330
9A9
102
}
330
1F
100
AcDbEntity
  8
0
100
AcDbLine
 10
-12.55780228404251
 20
63.0261956630709
 30
0.0
 11
1.552265038699033
 21
62.5334612545796
 31
0.0
  0
DIMENSION
  5
9A7
102
{ACAD_XDICTIONARY
360
9A8
102
}
102
{ACAD_REACTORS
330
9A9
102
}
330
1F
100
AcDbEntity
  8
AM_5
100
AcDbDimension
  2
*D10
 10
1.552265038699033
 20
62.5334612545796
 30
0.0
 11
-14.87532372784809
 21
80.50351643449772
 31
0.0
 70
    34
 71
     5
 42
1.535889741754954
  3
AM_JIS$2
100
AcDb2LineAngularDimension
 13
2.510469999999941
 23
62.5
 33
0.0
 14
2.510469999999941
 24
362.5
 34
0.0
 15
-12.55780228404251
 25
63.0261956630709
 35
0.0
 16
-8.08478304264284
 26
81.35480776157166
 36
0.0
1001
ACAD_DIMASSOC_DIMLFAC
1040
1.0
1001
ACAD_DIMASSOC_CALC_DIMLFAC
1040
1.0
1001
ACAD_DIMASSOC_OVERRIDDEN_DIMLFAC
1040
1.0
1001
ACAD
1000
DSTYLE
1002
{
1070
   144
1040
1.0
1070
    75
1070
     0
1070
    76
1070
     0
1070
   179
1070
     0
1002
}
  0
ARC
  5
9AA
330
1F
100
AcDbEntity
  8
0
100
AcDbCircle
 10
-12.56508820166869
 20
62.2260973659902
 30
0.0
 40
0.8001314701891699
100
AcDbArc
 50
89.47826311720815
 51
178.3256425840168
  0
DIMENSION
  5
A15
102
{ACAD_XDICTIONARY
360
A20
102
}
102
{ACAD_REACTORS
330
A21
102
}
330
1F
100
AcDbEntity
  8
AM_5
100
AcDbDimension
  2
*D11
 10
2.510469999999942
 20
92.63114985957498
 30
0.0
 11
-28.98953000000006
 21
96.03114985957498
 31
0.0
 70
    32
 71
     5
 42
63.0
  3
AM_JIS$0
100
AcDbAlignedDimension
 13
-60.48953000000006
 23
38.0
 33
0.0
 14
2.510469999999941
 24
62.5
 34
0.0
100
AcDbRotatedDimension
1001
ACAD
1000
DSTYLE
1002
{
1070
   179
1070
     0
1070
   271
1070
     0
1002
}
  0
TEXT
  5
A42
330
1F
100
AcDbEntity
  8
0
370
    -3
100
AcDbText
 10
-40.53365879913167
 20
-80.0478182988793
 30
0.0
 40
3.799999999999999
  1
PWC(F)4125R
  7
ACISOTS
100
AcDbText
  0
DIMENSION
  5
A52
102
{ACAD_XDICTIONARY
360
A5D
102
}
102
{ACAD_REACTORS
330
A5E
102
}
330
1F
100
AcDbEntity
  8
AM_5
100
AcDbDimension
  2
*D12
 10
-80.1613557400255
 20
-19.05000000000003
 30
0.0
 11
-83.5613557400255
 21
-0.0000000000000799
 31
0.0
 70
    32
 71
     5
 42
38.09999999999994
  3
AM_JIS$0
100
AcDbAlignedDimension
 13
-58.48953000000006
 23
19.0499999999999
 33
0.0
 14
-58.48953000000006
 24
-19.05000000000004
 34
0.0
 50
90.0
100
AcDbRotatedDimension
1001
ACAD
1000
DSTYLE
1002
{
1070
   179
1070
     0
1070
   271
1070
     1
1002
}
  0
ENDSEC
  0
SECTION
  2
OBJECTS
  0
DICTIONARY
  5
C
330
0
100
AcDbDictionary
281
     1
  3
ACAD_COLOR
350
BE
  3
ACAD_GROUP
350
D
  3
ACAD_LAYOUT
350
1A
  3
ACAD_MATERIAL
350
BD
  3
ACAD_MLINESTYLE
350
17
  3
ACAD_PLOTSETTINGS
350
19
  3
ACAD_PLOTSTYLENAME
350
E
  3
ACAD_TABLESTYLE
350
11A
  3
ACDBHEADERROUNDTRIPXREC
350
AF2
  3
AcDbVariableDictionary
350
94
  3
AcmDictionary
350
5B
  3
AMG
350
41
  3
AMGSNAPSETTINGS
350
1B8
  3
DWGPROPS
350
AF1
  0
DICTIONARY
  5
34B
330
2
100
AcDbDictionary
280
     1
281
     1
  3
ACAD_LAYERSTATES
360
452
  3
AMLAYER_GROUPCOLORS
360
34C
  0
DICTIONARY
  5
8F
330
1F
100
AcDbDictionary
280
     1
281
     1
  0
DICTIONARY
  5
9A8
330
9A7
100
AcDbDictionary
280
     1
281
     1
  3
ACAD_DIMASSOC
360
9A9
  0
DICTIONARY
  5
A20
330
A15
100
AcDbDictionary
280
     1
281
     1
  3
ACAD_DIMASSOC
360
A21
  0
DICTIONARY
  5
A5D
330
A52
100
AcDbDictionary
280
     1
281
     1
  3
ACAD_DIMASSOC
360
A5E
  0
DICTIONARY
  5
BE
102
{ACAD_REACTORS
330
C
102
}
330
C
100
AcDbDictionary
281
     1
  0
DICTIONARY
  5
D
102
{ACAD_REACTORS
330
C
102
}
330
C
100
AcDbDictionary
281
     1
  0
DICTIONARY
  5
1A
102
{ACAD_REACTORS
330
C
102
}
330
C
100
AcDbDictionary
281
     1
  3
Model
350
22
  3
レイアウト1
350
1E
  3
レイアウト2
350
26
  0
DICTIONARY
  5
BD
102
{ACAD_REACTORS
330
C
102
}
330
C
100
AcDbDictionary
281
     1
  0
DICTIONARY
  5
17
102
{ACAD_REACTORS
330
C
102
}
330
C
100
AcDbDictionary
281
     1
  3
Standard
350
18
  0
DICTIONARY
  5
19
102
{ACAD_REACTORS
330
C
102
}
330
C
100
AcDbDictionary
281
     1
  0
ACDBDICTIONARYWDFLT
  5
E
102
{ACAD_REACTORS
330
C
102
}
330
C
100
AcDbDictionary
281
     1
  3
Normal
350
F
100
AcDbDictionaryWithDefault
340
F
  0
DICTIONARY
  5
11A
102
{ACAD_REACTORS
330
C
102
}
330
C
100
AcDbDictionary
281
     1
  3
Standard
350
11B
  0
DICTIONARY
  5
AF2
102
{ACAD_REACTORS
330
C
102
}
330
C
100
AcDbDictionary
281
     1
  0
DICTIONARY
  5
94
102
{ACAD_REACTORS
330
C
102
}
330
C
100
AcDbDictionary
281
     1
  3
CTABLESTYLE
350
138
  3
DIMASSOC
350
96
  3
INDEXCTL
350
95
  3
PROJECTNAME
350
AEF
  0
DICTIONARY
  5
5B
102
{ACAD_REACTORS
330
C
102
}
330
C
100
AcDbDictionary
281
     1
  3
AcmBOM
350
1B5
  3
AcmStdDictionary
350
61
  3
AMDTSECTSYM_ARROWCOLOR
350
123
  0
DICTIONARY
  5
41
102
{ACAD_REACTORS
330
C
102
}
330
C
100
AcDbDictionary
281
     1
  0
DICTIONARY
  5
1B8
102
{ACAD_REACTORS
330
C
102
}
330
C
100
AcDbDictionary
281
     1
  0
XRECORD
  5
AF1
102
{ACAD_REACTORS
330
C
102
}
330
C
100
AcDbXrecord
280
     1
  1
DWGPROPS COOKIE
  2

  3

  4

  6

  7

  8

  9

300
AmdtFileType=84
301
=
302
=
303
=
304
=
305
=
306
=
307
=
308
=
309
=
 40
0.0043896527777778
 41
2455540.343698449
 42
2455540.37059154
  1

 90
        1
  0
DICTIONARY
  5
452
102
{ACAD_REACTORS
330
34B
102
}
330
34B
100
AcDbDictionary
281
     1
  0
DICTIONARY
  5
34C
102
{ACAD_REACTORS
330
34B
102
}
330
34B
100
AcDbDictionary
280
     1
281
     1
  0
DIMASSOC
  5
9A9
102
{ACAD_REACTORS
330
9A8
102
}
330
9A8
100
AcDbDimAssoc
330
9A7
 90
       12
 70
     1
 71
     0
  1
AcDbOsnapPointRef
 72
    13
331
9A6
 73
     2
 91
        0
 40
0.0
 10
0.0
 20
0.0
 30
2.000000000000000E+50
 75
     0
  1
AcDbOsnapPointRef
 72
     1
331
9A6
 73
     2
 91
        0
 40
0.0
 10
0.0
 20
0.0
 30
2.000000000000000E+50
 75
     0
  0
DIMASSOC
  5
A21
102
{ACAD_REACTORS
330
A20
102
}
330
A20
100
AcDbDimAssoc
330
A15
 90
        3
 70
     0
 71
     0
  1
AcDbOsnapPointRef
 72
     1
331
6D2
 73
     0
 91
        0
 40
0.0
 10
0.0
 20
0.0
 30
2.000000000000000E+50
 75
     0
  1
AcDbOsnapPointRef
 72
    13
331
9A5
 73
     0
 91
        0
 40
0.0
 10
0.0
 20
0.0
 30
2.000000000000000E+50
 75
     0
  0
DIMASSOC
  5
A5E
102
{ACAD_REACTORS
330
A5D
102
}
330
A5D
100
AcDbDimAssoc
330
A52
 90
        3
 70
     0
 71
     0
  1
AcDbOsnapPointRef
 72
     6
331
6DB
 73
     0
 91
        0
 40
-0.0000000000000284
 10
0.0
 20
0.0
 30
0.0
332
6D7
 74
     0
 92
        0
 75
     0
  1
AcDbOsnapPointRef
 72
    13
331
6E7
 73
     0
 91
        0
 40
0.0
 10
0.0
 20
0.0
 30
2.000000000000000E+50
 75
     0
  0
LAYOUT
  5
22
102
{ACAD_XDICTIONARY
360
AF5
102
}
102
{ACAD_REACTORS
330
1A
102
}
330
1A
100
AcDbPlotSettings
  1

  2
SII LP-2150 (D-SCAN C2)
  4
User119
  6

 40
3.174999952316284
 41
3.174999952316284
 42
3.175003051757812
 43
3.17498779296875
 44
210.0579986572266
 45
296.9259948730469
 46
0.0
 47
0.0
 48
0.0
 49
0.0
140
0.0
141
0.0
142
1.0
143
1.580715189147934
 70
 11952
 72
     1
 73
     1
 74
     0
  7
sei_cad.ctb
 75
     0
147
0.6326250338234799
148
19.65895403440572
149
1.143774069319647
100
AcDbLayout
  1
Model
 70
     1
 71
     0
 10
0.0
 20
0.0
 11
12.0
 21
9.0
 12
0.0
 22
0.0
 32
0.0
 14
0.0
 24
0.0
 34
0.0
 15
0.0
 25
0.0
 35
0.0
146
0.0
 13
0.0
 23
0.0
 33
0.0
 16
1.0
 26
0.0
 36
0.0
 17
0.0
 27
1.0
 37
0.0
 76
     0
330
1F
1001
ACAD_PSEXT
1000
SII LP-2150 (D-SCAN C2)
1000
SII LP-2150 (D-SCAN C2)
1000
133.153.16.130#3000
1000

1070
     0
  0
LAYOUT
  5
1E
102
{ACAD_XDICTIONARY
360
AF3
102
}
102
{ACAD_REACTORS
330
1A
102
}
330
1A
100
AcDbPlotSettings
  1

  2

  4

  6

 40
0.0
 41
0.0
 42
0.0
 43
0.0
 44
0.0
 45
0.0
 46
0.0
 47
0.0
 48
0.0
 49
0.0
140
0.0
141
0.0
142
1.0
143
1.0
 70
   688
 72
     0
 73
     0
 74
     5
  7
sei_cad.ctb
 75
    16
147
1.0
148
0.0
149
0.0
100
AcDbLayout
  1
レイアウト1
 70
     1
 71
     1
 10
0.0
 20
0.0
 11
420.0
 21
297.0
 12
0.0
 22
0.0
 32
0.0
 14
1.000000000000000E+20
 24
1.000000000000000E+20
 34
1.000000000000000E+20
 15
-1.000000000000000E+20
 25
-1.000000000000000E+20
 35
-1.000000000000000E+20
146
0.0
 13
0.0
 23
0.0
 33
0.0
 16
1.0
 26
0.0
 36
0.0
 17
0.0
 27
1.0
 37
0.0
 76
     0
330
1B
  0
LAYOUT
  5
26
102
{ACAD_XDICTIONARY
360
AF7
102
}
102
{ACAD_REACTORS
330
1A
102
}
330
1A
100
AcDbPlotSettings
  1

  2

  4

  6

 40
0.0
 41
0.0
 42
0.0
 43
0.0
 44
0.0
 45
0.0
 46
0.0
 47
0.0
 48
0.0
 49
0.0
140
0.0
141
0.0
142
1.0
143
1.0
 70
   688
 72
     0
 73
     0
 74
     5
  7
sei_cad.ctb
 75
    16
147
1.0
148
0.0
149
0.0
100
AcDbLayout
  1
レイアウト2
 70
     1
 71
     2
 10
0.0
 20
0.0
 11
12.0
 21
9.0
 12
0.0
 22
0.0
 32
0.0
 14
0.0
 24
0.0
 34
0.0
 15
0.0
 25
0.0
 35
0.0
146
0.0
 13
0.0
 23
0.0
 33
0.0
 16
1.0
 26
0.0
 36
0.0
 17
0.0
 27
1.0
 37
0.0
 76
     0
330
23
  0
MLINESTYLE
  5
18
102
{ACAD_REACTORS
330
17
102
}
330
17
100
AcDbMlineStyle
  2
STANDARD
 70
     0
  3

 62
   256
 51
90.0
 52
90.0
 71
     2
 49
0.5
 62
   256
  6
BYLAYER
 49
-0.5
 62
   256
  6
BYLAYER
  0
ACDBPLACEHOLDER
  5
F
102
{ACAD_REACTORS
330
E
102
}
330
E
  0
TABLESTYLE
  5
11B
102
{ACAD_REACTORS
330
11A
102
}
330
11A
100
AcDbTableStyle
  3
Standard
 70
     0
 71
     0
 40
1.5
 41
1.5
280
     0
281
     0
  7
STANDARD
140
4.5
170
     2
 62
     0
 63
     7
283
     0
274
    -2
284
     1
 64
     0
275
    -2
285
     1
 65
     0
276
    -2
286
     1
 66
     0
277
    -2
287
     1
 67
     0
278
    -2
288
     1
 68
     0
279
    -2
289
     1
 69
     0
  7
STANDARD
140
6.0
170
     5
 62
     0
 63
     7
283
     0
274
    -2
284
     1
 64
     0
275
    -2
285
     1
 65
     0
276
    -2
286
     1
 66
     0
277
    -2
287
     1
 67
     0
278
    -2
288
     1
 68
     0
279
    -2
289
     1
 69
     0
  7
STANDARD
140
4.5
170
     5
 62
     0
 63
     7
283
     0
274
    -2
284
     1
 64
     0
275
    -2
285
     1
 65
     0
276
    -2
286
     1
 66
     0
277
    -2
287
     1
 67
     0
278
    -2
288
     1
 68
     0
279
    -2
289
     1
 69
     0
  0
DICTIONARYVAR
  5
138
102
{ACAD_REACTORS
330
94
102
}
330
94
100
DictionaryVariables
280
     0
  1
STANDARD
  0
DICTIONARYVAR
  5
96
102
{ACAD_REACTORS
330
94
102
}
330
94
100
DictionaryVariables
280
     0
  1
2
  0
DICTIONARYVAR
  5
95
102
{ACAD_REACTORS
330
94
102
}
330
94
100
DictionaryVariables
280
     0
  1
0
  0
DICTIONARYVAR
  5
AEF
102
{ACAD_REACTORS
330
94
102
}
330
94
100
DictionaryVariables
280
     0
  1

  0
DICTIONARY
  5
1B5
102
{ACAD_REACTORS
330
5B
102
}
330
5B
100
AcDbDictionary
281
     1
  0
DICTIONARY
  5
61
102
{ACAD_REACTORS
330
5B
102
}
330
5B
100
AcDbDictionary
281
     1
  0
XRECORD
  5
123
102
{ACAD_REACTORS
330
5B
102
}
330
5B
100
AcDbXrecord
280
     1
 90
-1023410169
  0
DICTIONARY
  5
AF5
330
22
100
AcDbDictionary
280
     1
281
     1
  3
ACAD_XREC_ROUNDTRIP
360
AF6
  0
DICTIONARY
  5
AF3
330
1E
100
AcDbDictionary
280
     1
281
     1
  3
ACAD_XREC_ROUNDTRIP
360
AF4
  0
DICTIONARY
  5
AF7
330
26
100
AcDbDictionary
280
     1
281
     1
  3
ACAD_XREC_ROUNDTRIP
360
AF8
  0
XRECORD
  5
AF6
102
{ACAD_REACTORS
330
AF5
102
}
330
AF5
100
AcDbXrecord
280
     1
102
SHADEPLOT
 70
     0
102
SHADEPLOTRESLEVEL
 70
     2
102
SHADEPLOTCUSTOMDPI
 70
   300
  0
XRECORD
  5
AF4
102
{ACAD_REACTORS
330
AF3
102
}
330
AF3
100
AcDbXrecord
280
     1
102
SHADEPLOT
 70
     0
102
SHADEPLOTRESLEVEL
 70
     2
102
SHADEPLOTCUSTOMDPI
 70
   300
  0
XRECORD
  5
AF8
102
{ACAD_REACTORS
330
AF7
102
}
330
AF7
100
AcDbXrecord
280
     1
102
SHADEPLOT
 70
     0
102
SHADEPLOTRESLEVEL
 70
     2
102
SHADEPLOTCUSTOMDPI
 70
   300
  0
ENDSEC
  0
EOF
