  0
SECTION
  2
HEADER
  9
$ACADVER
  1
AC1015
  9
$ACADMAINTVER
 70
    20
  9
$DWGCODEPAGE
  3
ANSI_932
  9
$INSBASE
 10
0.0
 20
0.0
 30
0.0
  9
$EXTMIN
 10
-103.5131827363665
 20
-117.68985315843
 30
-0.0015258207003583
  9
$EXTMAX
 10
34.94659476790878
 20
400.0182503231547
 30
0.0000000349246037
  9
$LIMMIN
 10
0.0
 20
0.0
  9
$LIMMAX
 10
420.0
 20
297.0
  9
$ORTHOMODE
 70
     0
  9
$REGENMODE
 70
     1
  9
$FILLMODE
 70
     1
  9
$QTEXTMODE
 70
     0
  9
$MIRRTEXT
 70
     1
  9
$LTSCALE
 40
1.0
  9
$ATTMODE
 70
     1
  9
$TEXTSIZE
 40
3.799999999999999
  9
$TRACEWID
 40
1.0
  9
$TEXTSTYLE
  7
ACISOTS
  9
$CLAYER
  8
AM_0
  9
$CELTYPE
  6
ByLayer
  9
$CECOLOR
 62
   256
  9
$CELTSCALE
 40
1.0
  9
$DISPSILH
 70
     0
  9
$DIMSCALE
 40
1.0
  9
$DIMASZ
 40
2.5
  9
$DIMEXO
 40
1.0
  9
$DIMDLI
 40
10.0
  9
$DIMRND
 40
0.0
  9
$DIMDLE
 40
0.0
  9
$DIMEXE
 40
1.0
  9
$DIMTP
 40
0.1
  9
$DIMTM
 40
0.1000000001
  9
$DIMTXT
 40
3.799999999999999
  9
$DIMCEN
 40
0.0
  9
$DIMTSZ
 40
0.0
  9
$DIMTOL
 70
     0
  9
$DIMLIM
 70
     0
  9
$DIMTIH
 70
     0
  9
$DIMTOH
 70
     0
  9
$DIMSE1
 70
     0
  9
$DIMSE2
 70
     0
  9
$DIMTAD
 70
     3
  9
$DIMZIN
 70
     8
  9
$DIMBLK
  1
Open30
  9
$DIMASO
 70
     1
  9
$DIMSHO
 70
     1
  9
$DIMPOST
  1

  9
$DIMAPOST
  1
"
  9
$DIMALT
 70
     0
  9
$DIMALTD
 70
     2
  9
$DIMALTF
 40
0.0393701
  9
$DIMLFAC
 40
1.0
  9
$DIMTOFL
 70
     1
  9
$DIMTVP
 40
0.0
  9
$DIMTIX
 70
     0
  9
$DIMSOXD
 70
     0
  9
$DIMSAH
 70
     0
  9
$DIMBLK1
  1

  9
$DIMBLK2
  1

  9
$DIMSTYLE
  2
AM_JIS
  9
$DIMCLRD
 70
   256
  9
$DIMCLRE
 70
   256
  9
$DIMCLRT
 70
     2
  9
$DIMTFAC
 40
0.71
  9
$DIMGAP
 40
1.5
  9
$DIMJUST
 70
     0
  9
$DIMSD1
 70
     0
  9
$DIMSD2
 70
     0
  9
$DIMTOLJ
 70
     0
  9
$DIMTZIN
 70
     8
  9
$DIMALTZ
 70
     0
  9
$DIMALTTZ
 70
     0
  9
$DIMUPT
 70
     0
  9
$DIMDEC
 70
     2
  9
$DIMTDEC
 70
     2
  9
$DIMALTU
 70
     2
  9
$DIMALTTD
 70
     2
  9
$DIMTXSTY
  7
STANDARD
  9
$DIMAUNIT
 70
     1
  9
$DIMADEC
 70
     0
  9
$DIMALTRND
 40
0.0
  9
$DIMAZIN
 70
     2
  9
$DIMDSEP
 70
    46
  9
$DIMATFIT
 70
     3
  9
$DIMFRAC
 70
     0
  9
$DIMLDRBLK
  1
Open30
  9
$DIMLUNIT
 70
     2
  9
$DIMLWD
 70
    -1
  9
$DIMLWE
 70
    -1
  9
$DIMTMOVE
 70
     0
  9
$LUNITS
 70
     2
  9
$LUPREC
 70
     2
  9
$SKETCHINC
 40
1.0
  9
$FILLETRAD
 40
2.5
  9
$AUNITS
 70
     0
  9
$AUPREC
 70
     0
  9
$MENU
  1
.
  9
$ELEVATION
 40
0.0
  9
$PELEVATION
 40
0.0
  9
$THICKNESS
 40
0.0
  9
$LIMCHECK
 70
     0
  9
$CHAMFERA
 40
2.5
  9
$CHAMFERB
 40
2.5
  9
$CHAMFERC
 40
20.0
  9
$CHAMFERD
 40
0.0
  9
$SKPOLY
 70
     0
  9
$TDCREATE
 40
2455540.353399699
  9
$TDUCREATE
 40
2455539.978399699
  9
$TDUPDATE
 40
2455540.371191759
  9
$TDUUPDATE
 40
2455539.996191759
  9
$TDINDWG
 40
0.0177944213
  9
$TDUSRTIMER
 40
0.0177942361
  9
$USRTIMER
 70
     1
  9
$ANGBASE
 50
0.0
  9
$ANGDIR
 70
     0
  9
$PDMODE
 70
     0
  9
$PDSIZE
 40
0.0
  9
$PLINEWID
 40
0.0
  9
$SPLFRAME
 70
     0
  9
$SPLINETYPE
 70
     6
  9
$SPLINESEGS
 70
    40
  9
$HANDSEED
  5
1160
  9
$SURFTAB1
 70
     6
  9
$SURFTAB2
 70
     6
  9
$SURFTYPE
 70
     6
  9
$SURFU
 70
     6
  9
$SURFV
 70
     6
  9
$UCSBASE
  2

  9
$UCSNAME
  2

  9
$UCSORG
 10
0.0
 20
0.0
 30
0.0
  9
$UCSXDIR
 10
1.0
 20
0.0
 30
0.0
  9
$UCSYDIR
 10
0.0
 20
1.0
 30
0.0
  9
$UCSORTHOREF
  2

  9
$UCSORTHOVIEW
 70
     0
  9
$UCSORGTOP
 10
0.0
 20
0.0
 30
0.0
  9
$UCSORGBOTTOM
 10
0.0
 20
0.0
 30
0.0
  9
$UCSORGLEFT
 10
0.0
 20
0.0
 30
0.0
  9
$UCSORGRIGHT
 10
0.0
 20
0.0
 30
0.0
  9
$UCSORGFRONT
 10
0.0
 20
0.0
 30
0.0
  9
$UCSORGBACK
 10
0.0
 20
0.0
 30
0.0
  9
$PUCSBASE
  2

  9
$PUCSNAME
  2

  9
$PUCSORG
 10
0.0
 20
0.0
 30
0.0
  9
$PUCSXDIR
 10
1.0
 20
0.0
 30
0.0
  9
$PUCSYDIR
 10
0.0
 20
1.0
 30
0.0
  9
$PUCSORTHOREF
  2

  9
$PUCSORTHOVIEW
 70
     0
  9
$PUCSORGTOP
 10
0.0
 20
0.0
 30
0.0
  9
$PUCSORGBOTTOM
 10
0.0
 20
0.0
 30
0.0
  9
$PUCSORGLEFT
 10
0.0
 20
0.0
 30
0.0
  9
$PUCSORGRIGHT
 10
0.0
 20
0.0
 30
0.0
  9
$PUCSORGFRONT
 10
0.0
 20
0.0
 30
0.0
  9
$PUCSORGBACK
 10
0.0
 20
0.0
 30
0.0
  9
$USERI1
 70
     0
  9
$USERI2
 70
     0
  9
$USERI3
 70
     0
  9
$USERI4
 70
     0
  9
$USERI5
 70
     0
  9
$USERR1
 40
0.0
  9
$USERR2
 40
0.0
  9
$USERR3
 40
0.0
  9
$USERR4
 40
0.0
  9
$USERR5
 40
0.0
  9
$WORLDVIEW
 70
     1
  9
$SHADEDGE
 70
     3
  9
$SHADEDIF
 70
    70
  9
$TILEMODE
 70
     1
  9
$MAXACTVP
 70
    64
  9
$PINSBASE
 10
0.0
 20
0.0
 30
0.0
  9
$PLIMCHECK
 70
     0
  9
$PEXTMIN
 10
1.000000000000000E+20
 20
1.000000000000000E+20
 30
1.000000000000000E+20
  9
$PEXTMAX
 10
-1.000000000000000E+20
 20
-1.000000000000000E+20
 30
-1.000000000000000E+20
  9
$PLIMMIN
 10
0.0
 20
0.0
  9
$PLIMMAX
 10
420.0
 20
297.0
  9
$UNITMODE
 70
     0
  9
$VISRETAIN
 70
     1
  9
$PLINEGEN
 70
     0
  9
$PSLTSCALE
 70
     1
  9
$TREEDEPTH
 70
  3020
  9
$CMLSTYLE
  2
Standard
  9
$CMLJUST
 70
     0
  9
$CMLSCALE
 40
20.0
  9
$PROXYGRAPHICS
 70
     1
  9
$MEASUREMENT
 70
     1
  9
$CELWEIGHT
370
    -1
  9
$ENDCAPS
280
     0
  9
$JOINSTYLE
280
     0
  9
$LWDISPLAY
290
     0
  9
$INSUNITS
 70
     4
  9
$HYPERLINKBASE
  1

  9
$STYLESHEET
  1

  9
$XEDIT
290
     1
  9
$CEPSNTYPE
380
     0
  9
$PSTYLEMODE
290
     1
  9
$FINGERPRINTGUID
  2
{818720B2-3643-4A63-9197-63B8C2472022}
  9
$VERSIONGUID
  2
{D6D0A765-4C7E-466D-8D97-EE941109AA2C}
  9
$EXTNAMES
290
     1
  9
$PSVPSCALE
 40
0.0
  9
$OLESTARTUP
290
     0
  0
ENDSEC
  0
SECTION
  2
CLASSES
  0
CLASS
  1
ACDBDICTIONARYWDFLT
  2
AcDbDictionaryWithDefault
  3
ObjectDBX Classes
 90
        0
280
     0
281
     0
  0
CLASS
  1
ACDBPLACEHOLDER
  2
AcDbPlaceHolder
  3
ObjectDBX Classes
 90
        0
280
     0
281
     0
  0
CLASS
  1
LAYOUT
  2
AcDbLayout
  3
ObjectDBX Classes
 90
        0
280
     0
281
     0
  0
CLASS
  1
ACME_DOCUMENT
  2
AcMeDbDoc
  3
AcMeServices
 90
        0
280
     0
281
     0
  0
CLASS
  1
AMGSETTINGSOBJ
  2
AmgSettingsObj
  3
"AcadM|Product Description: AutoCAD Mechanical 2000|Company: Autodesk"
 90
        0
280
     0
281
     0
  0
CLASS
  1
ACMESCOPE
  2
AcMeScope
  3
AcMeServices
 90
        0
280
     0
281
     0
  0
CLASS
  1
ACMECOMMANDHISTORY
  2
AcMeCommandHistory
  3
AcMeServices
 90
        0
280
     0
281
     0
  0
CLASS
  1
ACIMSYSVARMAN
  2
AcImSysVarManager
  3
AcMeServices
 90
        0
280
     0
281
     0
  0
CLASS
  1
ACIMREALSYSVAR
  2
AcImRealSysVar
  3
AcMeServices
 90
        0
280
     0
281
     0
  0
CLASS
  1
ACIMINTSYSVAR
  2
AcImIntSysVar
  3
AcMeServices
 90
        0
280
     0
281
     0
  0
CLASS
  1
ACMEDRAWINGMAN
  2
AcMeDrawingMan
  3
AcMeServices
 90
        0
280
     0
281
     0
  0
CLASS
  1
ACMEVIEW
  2
AcMeView
  3
AcMeServices
 90
        0
280
     0
281
     0
  0
CLASS
  1
ACDBENTITYCACHE
  2
AcMeEntityCache
  3
AcMeServices
 90
        0
280
     0
281
     0
  0
CLASS
  1
GSMANAGER
  2
AcMeGSManager
  3
AcMeServices
 90
        0
280
     0
281
     0
  0
CLASS
  1
AMDTINTERNALREACTOR
  2
AmdtInternalReactor
  3
AcMeServices
 90
        0
280
     0
281
     0
  0
CLASS
  1
ACMESTATEMGR
  2
AcMeStateMgr
  3
AcMeServices
 90
        0
280
     0
281
     0
  0
CLASS
  1
ACGREFMASTER
  2
AcGrefMaster
  3
AcAttribServices
 90
        0
280
     0
281
     0
  0
CLASS
  1
ACME_DATABASE
  2
AcMeDbDatabase
  3
AcMeServices
 90
        0
280
     0
281
     0
  0
CLASS
  1
ACRFINSADJUSTERMGR
  2
AcRfInsAdjusterMgr
  3
AcMeServices
 90
        0
280
     0
281
     0
  0
CLASS
  1
ACGREFACADMASTER
  2
AcGrefacadMaster
  3
AcGrefServices
 90
        0
280
     0
281
     0
  0
CLASS
  1
AMIMASTER
  2
AmiMaster
  3
AmiServices
 90
        0
280
     0
281
     0
  0
CLASS
  1
ACMDATADICTIONARY
  2
AcmDataDictionary
  3
"AcmSymBB|Product Description: AutoCAD Mechanical 2004 DX|Company: Autodesk"
 90
        0
280
     0
281
     0
  0
CLASS
  1
ACMDATAENTRYBLOCK
  2
AcmDataEntryBlock
  3
"AcmSymBB|Product Description: AutoCAD Mechanical 2004 DX|Company: Autodesk"
 90
        0
280
     0
281
     0
  0
CLASS
  1
ACIMSTRSYSVAR
  2
AcImStrSysVar
  3
AcMeServices
 90
        0
280
     0
281
     0
  0
CLASS
  1
ACMSTANDARDISO
  2
AcmStandardISO
  3
"Amdt_StdImp|Product Description: AutoCAD Mechanical 2004 DX|Company: Autodesk"
 90
        0
280
     0
281
     0
  0
CLASS
  1
AMGOBJPROPCFG
  2
AmgObjPropCfg
  3
"AmgLay|Product Description: AutoCAD Mechanical 2000|Company: Autodesk"
 90
        1
280
     0
281
     0
  0
CLASS
  1
AMDTEDGESTANDARDISO
  2
AmdtEdgeStdISO
  3
"Amdt_StdImp|Product Description: AutoCAD Mechanical 2004 DX|Company: Autodesk"
 90
        0
280
     0
281
     0
  0
CLASS
  1
ACMSURFSTANDARDISO
  2
AcmSurfTextStdISO
  3
"Amdt_StdImp|Product Description: AutoCAD Mechanical 2004 DX|Company: Autodesk"
 90
        0
280
     0
281
     0
  0
CLASS
  1
ACMFCFSTANDARDISO
  2
AcmFCFStdISO
  3
"Amdt_StdImp|Product Description: AutoCAD Mechanical 2004 DX|Company: Autodesk"
 90
        0
280
     0
281
     0
  0
CLASS
  1
ACMWELDSTANDARDISO
  2
AcmWeldingStdISO
  3
"Amdt_StdImp|Product Description: AutoCAD Mechanical 2004 DX|Company: Autodesk"
 90
        0
280
     0
281
     0
  0
CLASS
  1
ACMIDSTANDARDISO
  2
AcmIdStdISO
  3
"Amdt_StdImp|Product Description: AutoCAD Mechanical 2004 DX|Company: Autodesk"
 90
        0
280
     0
281
     0
  0
CLASS
  1
ACMDATUMSTANDARDISO
  2
AcmDatumStdISO
  3
"Amdt_StdImp|Product Description: AutoCAD Mechanical 2004 DX|Company: Autodesk"
 90
        0
280
     0
281
     0
  0
CLASS
  1
ACMBOMSTANDARDISO
  2
AcmBOMStdISO
  3
"Amdt_StdImp|Product Description: AutoCAD Mechanical 2004 DX|Company: Autodesk"
 90
        0
280
     0
281
     0
  0
CLASS
  1
ACMDETAILSTANDARDISO
  2
AmdtDetailSymStdISO
  3
"Amdt_StdImp|Product Description: AutoCAD Mechanical 2004 DX|Company: Autodesk"
 90
        0
280
     0
281
     0
  0
CLASS
  1
ACMSECTIONSTANDARDISO
  2
AmdtSectionSymStdISO
  3
"Amdt_StdImp|Product Description: AutoCAD Mechanical 2004 DX|Company: Autodesk"
 90
        0
280
     0
281
     0
  0
CLASS
  1
ACMCENTERLINESTANDARDISO
  2
AmdtCenterLineStdISO
  3
"Amdt_StdImp|Product Description: AutoCAD Mechanical 2004 DX|Company: Autodesk"
 90
        0
280
     0
281
     0
  0
CLASS
  1
ACMNOTESTANDARDISO
  2
AmdtNoteStdISO
  3
"Amdt_StdImp|Product Description: AutoCAD Mechanical 2004 DX|Company: Autodesk"
 90
        0
280
     0
281
     0
  0
CLASS
  1
ACAMGLAYSTD
  2
AcAmgLayStd
  3
"AcAmgLayStd|Product Description: AutoCAD Mechanical 2000|Company: Autodesk"
 90
        0
280
     0
281
     0
  0
CLASS
  1
ACAMGDIMSTD
  2
AcAmgDimStd
  3
"AcAmgDimStd|Product Description: AutoCAD Mechanical 2000|Company: Autodesk"
 90
        0
280
     0
281
     0
  0
CLASS
  1
ACAMGHOLECHARTSTDISO
  2
AcAmgHoleChartStdISO
  3
ACMSYMBB_MODULE_NAME
 90
        0
280
     0
281
     0
  0
CLASS
  1
ACAMGTITLESTD
  2
AcAmgTitleStd
  3
"TITLEAPP"
 90
        0
280
     0
281
     0
  0
CLASS
  1
LAYER_INDEX
  2
AcDbLayerIndex
  3
ObjectDBX Classes
 90
    32768
280
     0
281
     0
  0
CLASS
  1
IDBUFFER
  2
AcDbIdBuffer
  3
ObjectDBX Classes
 90
    32768
280
     0
281
     0
  0
CLASS
  1
DICTIONARYVAR
  2
AcDbDictionaryVar
  3
ObjectDBX Classes
 90
        0
280
     0
281
     0
  0
CLASS
  1
AM_DRAWING_MGR
  2
AcDmDwgMgr
  3
AcMechDwgViewMgmt
 90
        0
280
     0
281
     0
  0
CLASS
  1
AM_DWG_DOCUMENT
  2
AcDmDwgDocument
  3
AcMechDwgViewMgmt
 90
        0
280
     0
281
     0
  0
CLASS
  1
AM_DWG_SHEET
  2
AcDmSheet
  3
AcMechDwgViewMgmt
 90
        0
280
     0
281
     0
  0
CLASS
  1
AM_VIEWDIMPARMAP
  2
AcDmViewDimParMap
  3
AcMechDwgViewMgmt
 90
        0
280
     0
281
     0
  0
CLASS
  1
AM_DWGMGR_NAME
  2
AcDmDwgMgrName
  3
AcMechDwgViewMgmt
 90
        0
280
     0
281
     0
  0
CLASS
  1
AMDTMENUSTATEMGR
  2
AmdtMenuStateMgr
  3
McadcomServices
 90
        0
280
     0
281
     0
  0
CLASS
  1
AMDTMCOMMENUSTATE
  2
AmdtMcomMenuState
  3
McadcomServices
 90
        0
280
     0
281
     0
  0
CLASS
  1
MAPIAMMOUDLE
  2
MApiAmModule
  3
MApiAmServices
 90
        0
280
     0
281
     0
  0
CLASS
  1
AMDTADMENUSTATE
  2
AmdtAdMenuState
  3
DesignerServices
 90
        0
280
     0
281
     0
  0
CLASS
  1
ADAPPL
  2
AcAdAppl
  3
DesignerServices
 90
        0
280
     0
281
     0
  0
CLASS
  1
DEPMGR
  2
AcAdDepMgr
  3
DesignerServices
 90
        0
280
     0
281
     0
  0
CLASS
  1
PARAMMGR
  2
AcAdParamMgr
  3
DesignerServices
 90
        0
280
     0
281
     0
  0
CLASS
  1
PARAMSCOPE
  2
AcAdParamScope
  3
DesignerServices
 90
        0
280
     0
281
     0
  0
CLASS
  1
NAMEDAPPL
  2
AcAdNamedAppl
  3
DesignerServices
 90
        0
280
     0
281
     0
  0
CLASS
  1
AMDTDMMENUSTATE
  2
AmdtDmMenuState
  3
AcMechDwgViewMgmt
 90
        0
280
     0
281
     0
  0
CLASS
  1
AMDTAMMENUSTATE
  2
AmdtAmMenuState
  3
DesignerAssemblies
 90
        0
280
     0
281
     0
  0
CLASS
  1
ACAMPROJECT
  2
AcAmProject
  3
DesignerAssemblies
 90
        0
280
     0
281
     0
  0
CLASS
  1
ACAMGRCOMPDEF
  2
AcAmGrCompDef
  3
DesignerAssemblies
 90
        0
280
     0
281
     0
  0
CLASS
  1
ACCMCONTEXT
  2
AcCmContext
  3
DesignerAssemblies
 90
        0
280
     0
281
     0
  0
CLASS
  1
ACAMCOMPDEF
  2
AcAmCompDef
  3
DesignerAssemblies
 90
        0
280
     0
281
     0
  0
CLASS
  1
ACAMCOMPDEFMGR
  2
AcAmCompDefMgr
  3
DesignerAssemblies
 90
        0
280
     0
281
     0
  0
CLASS
  1
AMCONTEXTMGR
  2
AcAmContextMgr
  3
DesignerAssemblies
 90
        0
280
     0
281
     0
  0
CLASS
  1
ACAMCONTEXTMODELER
  2
AcAmContextModeler
  3
DesignerAssemblies
 90
        0
280
     0
281
     0
  0
CLASS
  1
ACMTHREADLINESTANDARDISO
  2
AmdtThreadLineStdISO
  3
"Amdt_StdImp|Product Description: AutoCAD Mechanical 2004 DX|Company: Autodesk"
 90
        0
280
     0
281
     0
  0
CLASS
  1
CATALOGSTATE
  2
AcAmCatalogState
  3
DesignerAssemblies
 90
        0
280
     0
281
     0
  0
CLASS
  1
ACAMGRCOMPDEFSET
  2
AcAmGrCompDefSet
  3
DesignerAssemblies
 90
        0
280
     0
281
     0
  0
CLASS
  1
AMDTBROWSERDBTAB
  2
AmdtBrowserDbTab
  3
McadcomServices
 90
        0
280
     0
281
     0
  0
CLASS
  1
CBROWSERAPPOBJECT
  2
CBrowserAppObject
  3
McadcomServices
 90
        0
280
     0
281
     0
  0
CLASS
  1
DM_PLACEHOLDER
  2
AcDmSelsetPlaceholder
  3
AcMechDwgViewMgmt
 90
        0
280
     0
281
     0
  0
CLASS
  1
TABLESTYLE
  2
AcDbTableStyle
  3
ObjectDBX Classes
 90
     2047
280
     0
281
     0
  0
CLASS
  1
VAACXREFPANELOBJECT
  2
VaAcXREFPanelObject
  3
VAAC_ADDIN
 90
    32768
280
     0
281
     0
  0
CLASS
  1
VAACIMAGEINVENTORY
  2
VaAcImageInventory
  3
VAAC_ADDIN
 90
    32768
280
     0
281
     0
  0
CLASS
  1
AMDTNOTETEMPLATEDB
  2
AmdtNoteTemplateDB
  3
AMDT_STDIMP_MODULE_NAME
 90
        0
280
     0
281
     0
  0
CLASS
  1
ACMBOM
  2
AcmBom
  3
"AcmSymBB|Product Description: AutoCAD Mechanical 2004 DX|Company: Autodesk"
 90
    32768
280
     0
281
     0
  0
CLASS
  1
AMDTFORMULAUPDATEDISPATCHER
  2
AmdtFormulaUpdateDispatcher
  3
AcMeServices
 90
    32768
280
     0
281
     0
  0
CLASS
  1
ACMPARTLIST
  2
AcmPartList
  3
"AcmSymBB|Product Description: AutoCAD Mechanical 2004 DX|Company: Autodesk"
 90
    33791
280
     0
281
     1
  0
CLASS
  1
ACAMGFILTERDAT
  2
AcAmgFilterDat
  3
"AcadM|Product Description: AutoCAD Mechanical 2000|Company: Autodesk"
 90
        0
280
     0
281
     0
  0
CLASS
  1
ACMSTANDARDJIS
  2
AcmStandardJIS
  3
"Amdt_StdImp|Product Description: AutoCAD Mechanical 2004 DX|Company: Autodesk"
 90
        0
280
     0
281
     0
  0
CLASS
  1
ACMSURFSTANDARDJIS
  2
AcmSurfTextStdJIS
  3
"Amdt_StdImp|Product Description: AutoCAD Mechanical 2004 DX|Company: Autodesk"
 90
        0
280
     0
281
     0
  0
CLASS
  1
ACMFCFSTANDARDJIS98
  2
AcmFCFStdJIS98
  3
"Amdt_StdImp|Product Description: AutoCAD Mechanical 2004 DX|Company: Autodesk"
 90
        0
280
     0
281
     0
  0
CLASS
  1
ACMWELDSTANDARDJIS
  2
AcmWeldingStdJIS
  3
"Amdt_StdImp|Product Description: AutoCAD Mechanical 2004 DX|Company: Autodesk"
 90
        0
280
     0
281
     0
  0
CLASS
  1
ACMIDSTANDARDJIS
  2
AcmIdStdJIS
  3
"Amdt_StdImp|Product Description: AutoCAD Mechanical 2004 DX|Company: Autodesk"
 90
        0
280
     0
281
     0
  0
CLASS
  1
ACMDATUMSTANDARDJIS
  2
AcmDatumStdJIS
  3
"Amdt_StdImp|Product Description: AutoCAD Mechanical 2004 DX|Company: Autodesk"
 90
        0
280
     0
281
     0
  0
CLASS
  1
ACMBOMSTANDARDJIS
  2
AcmBOMStdJIS
  3
"Amdt_StdImp|Product Description: AutoCAD Mechanical 2004 DX|Company: Autodesk"
 90
        0
280
     0
281
     0
  0
CLASS
  1
ACMDETAILSTANDARDJIS
  2
AmdtDetailSymStdJIS
  3
"Amdt_StdImp|Product Description: AutoCAD Mechanical 2004 DX|Company: Autodesk"
 90
        0
280
     0
281
     0
  0
CLASS
  1
ACMSECTIONSTANDARDJIS
  2
AmdtSectionSymStdJIS
  3
"Amdt_StdImp|Product Description: AutoCAD Mechanical 2004 DX|Company: Autodesk"
 90
        0
280
     0
281
     0
  0
CLASS
  1
ACMCENTERLINESTANDARDJIS
  2
AmdtCenterLineStdJIS
  3
"Amdt_StdImp|Product Description: AutoCAD Mechanical 2004 DX|Company: Autodesk"
 90
        0
280
     0
281
     0
  0
CLASS
  1
ACMTHREADLINESTANDARDJIS
  2
AmdtThreadLineStdJIS
  3
"Amdt_StdImp|Product Description: AutoCAD Mechanical 2004 DX|Company: Autodesk"
 90
        0
280
     0
281
     0
  0
CLASS
  1
ACMNOTESTANDARDJIS
  2
AmdtNoteStdJIS
  3
"Amdt_StdImp|Product Description: AutoCAD Mechanical 2004 DX|Company: Autodesk"
 90
        0
280
     0
281
     0
  0
CLASS
  1
ACAMGHOLECHARTSTDJIS
  2
AcAmgHoleChartStdJIS
  3
ACMSYMBB_MODULE_NAME
 90
        0
280
     0
281
     0
  0
CLASS
  1
DIMASSOC
  2
AcDbDimAssoc
  3
"AcDbDimAssoc|Product Desc:     AcDim ARX App For Dimension|Company:          Autodesk, Inc.|WEB Address:      www.autodesk.com"
 90
        0
280
     0
281
     0
  0
CLASS
  1
SORTENTSTABLE
  2
AcDbSortentsTable
  3
ObjectDBX Classes
 90
        0
280
     0
281
     0
  0
CLASS
  1
AMDTNOTE
  2
AmdtNote
  3
"AcmSymBB|Product Description: AutoCAD Mechanical 2004 DX|Company: Autodesk"
 90
     1023
280
     0
281
     1
  0
CLASS
  1
ACDBLINERES
  2
AcDbLineRes
  3
AcGrefServices
 90
        0
280
     0
281
     0
  0
CLASS
  1
ACDBCIRCARCRES
  2
AcDbCircArcRes
  3
AcGrefServices
 90
        0
280
     0
281
     0
  0
CLASS
  1
ACRFATTGENMGR
  2
AcRfAttGeneralMgr
  3
AcAttribServices
 90
        0
280
     0
281
     0
  0
ENDSEC
  0
SECTION
  2
TABLES
  0
TABLE
  2
VPORT
  5
8
330
0
100
AcDbSymbolTable
 70
   133
  0
VPORT
  5
1157
330
8
100
AcDbSymbolTableRecord
100
AcDbViewportTableRecord
  2
*Active
 70
     0
 10
0.0
 20
0.0
 11
1.0
 21
1.0
 12
-12.73758596116687
 22
11.37907088803661
 13
0.0
 23
0.0
 14
2.5
 24
2.5
 15
10.0
 25
10.0
 16
0.0
 26
0.0
 36
1.0
 17
0.0
 27
0.0
 37
0.0
 40
256.3688808578076
 41
1.618655692729766
 42
50.0
 43
0.0
 44
0.0
 50
0.0
 51
0.0
 71
     0
 72
 10000
 73
     1
 74
     3
 75
     0
 76
     0
 77
     0
 78
     0
281
     0
 65
     1
110
0.0
120
0.0
130
0.0
111
1.0
121
0.0
131
0.0
112
0.0
122
1.0
132
0.0
 79
     0
146
0.0
  0
ENDTAB
  0
TABLE
  2
LTYPE
  5
5
330
0
100
AcDbSymbolTable
 70
    17
  0
LTYPE
  5
14
330
5
100
AcDbSymbolTableRecord
100
AcDbLinetypeTableRecord
  2
ByBlock
 70
     0
  3

 72
    65
 73
     0
 40
0.0
  0
LTYPE
  5
15
330
5
100
AcDbSymbolTableRecord
100
AcDbLinetypeTableRecord
  2
ByLayer
 70
     0
  3

 72
    65
 73
     0
 40
0.0
  0
LTYPE
  5
16
330
5
100
AcDbSymbolTableRecord
100
AcDbLinetypeTableRecord
  2
Continuous
 70
     0
  3
Solid line
 72
    65
 73
     0
 40
0.0
  0
LTYPE
  5
64
330
5
100
AcDbSymbolTableRecord
100
AcDbLinetypeTableRecord
  2
AM_ISO02W050
 70
     0
  3
__ __ __ __ __ __ __ __ __ __ __ __ __ __ __
 72
    65
 73
     2
 40
7.5
 49
6.0
 74
     0
 49
-1.5
 74
     0
  0
LTYPE
  5
65
330
5
100
AcDbSymbolTableRecord
100
AcDbLinetypeTableRecord
  2
AM_ISO08W050
 70
     0
  3
____ . ____ . ____ . ____ . ____ . ____ . ____
 72
    65
 73
     4
 40
18.0
 49
12.0
 74
     0
 49
-1.5
 74
     0
 49
3.0
 74
     0
 49
-1.5
 74
     0
  0
LTYPE
  5
66
330
5
100
AcDbSymbolTableRecord
100
AcDbLinetypeTableRecord
  2
AM_ISO09W050
 70
     0
  3
_____ . . _____ . . _____ . . ____ .. ____
 72
    65
 73
     6
 40
22.5
 49
12.0
 74
     0
 49
-1.5
 74
     0
 49
3.0
 74
     0
 49
-1.5
 74
     0
 49
3.0
 74
     0
 49
-1.5
 74
     0
  0
LTYPE
  5
67
330
5
100
AcDbSymbolTableRecord
100
AcDbLinetypeTableRecord
  2
Amconstr
 70
     0
  3
_______________________
 72
    65
 73
     2
 40
9999.0
 49
9999.0
 74
     0
 49
0.0
 74
     0
  0
LTYPE
  5
68
330
5
100
AcDbSymbolTableRecord
100
AcDbLinetypeTableRecord
  2
AM_ISO08W050x2
 70
     0
  3
__ . __ . __ . __ . __ . __
 72
    65
 73
     4
 40
9.0
 49
6.0
 74
     0
 49
-0.75
 74
     0
 49
1.5
 74
     0
 49
-0.75
 74
     0
  0
LTYPE
  5
69
330
5
100
AcDbSymbolTableRecord
100
AcDbLinetypeTableRecord
  2
AM_ISO02W050x2
 70
     0
  3
 _ _ _ _ _ _ _ _ _ _ _ _
 72
    65
 73
     2
 40
3.75
 49
3.0
 74
     0
 49
-0.75
 74
     0
  0
LTYPE
  5
6C
330
5
100
AcDbSymbolTableRecord
100
AcDbLinetypeTableRecord
  2
Amzigzag
 70
     0
  3
/\/-/\/-/\/-/\/-/\/-/\/
 72
    65
 73
     2
 40
11.0001
 49
0.0001
 74
     4
 75
   135
340
6B
 46
0.04
 50
0.0
 44
0.0
 45
0.0
 49
-11.0
 74
     0
  0
LTYPE
  5
7A
330
5
100
AcDbSymbolTableRecord
100
AcDbLinetypeTableRecord
  2
ACISOWELD
 70
     0
  3
_ _ _ _ _
 72
    65
 73
     2
 40
2.0
 49
2.0
 74
     0
 49
-1.0
 74
     0
  0
LTYPE
  5
7B
330
5
100
AcDbSymbolTableRecord
100
AcDbLinetypeTableRecord
  2
ACISOTGB
 70
     0
  3
__ . . __ . .
 72
    65
 73
     6
 40
9.0
 49
4.0
 74
     0
 49
-1.0
 74
     0
 49
1.0
 74
     0
 49
-1.0
 74
     0
 49
1.0
 74
     0
 49
-1.0
 74
     0
  0
LTYPE
  5
7C
330
5
100
AcDbSymbolTableRecord
100
AcDbLinetypeTableRecord
  2
ACISOTGL
 70
     0
  3
_ _ _ _ _
 72
    65
 73
     2
 40
3.0
 49
2.0
 74
     0
 49
-1.0
 74
     0
  0
LTYPE
  5
7E
330
5
100
AcDbSymbolTableRecord
100
AcDbLinetypeTableRecord
  2
CENTER
 70
     0
  3
__ . __
 72
    65
 73
     4
 40
7.0
 49
4.0
 74
     0
 49
-1.0
 74
     0
 49
1.0
 74
     0
 49
-1.0
 74
     0
  0
LTYPE
  5
D8
330
5
100
AcDbSymbolTableRecord
100
AcDbLinetypeTableRecord
  2
HIDDEN
 70
     0
  3
Hidden __ __ __ __ __ __ __ __ __ __ __ __ __ _
 72
    65
 73
     2
 40
9.524999999999998
 49
6.349999999999999
 74
     0
 49
-3.174999999999999
 74
     0
  0
LTYPE
  5
D9
330
5
100
AcDbSymbolTableRecord
100
AcDbLinetypeTableRecord
  2
PHANTOM2
 70
     0
  3
Phantom (.5x) ___ _ _ ___ _ _ ___ _ _ ___ _ _
 72
    65
 73
     6
 40
31.75
 49
15.875
 74
     0
 49
-3.174999999999999
 74
     0
 49
3.174999999999999
 74
     0
 49
-3.174999999999999
 74
     0
 49
3.174999999999999
 74
     0
 49
-3.174999999999999
 74
     0
  0
LTYPE
  5
20C
330
5
100
AcDbSymbolTableRecord
100
AcDbLinetypeTableRecord
  2
ACJISWELD
 70
     0
  3
_ _ _ _ _
 72
    65
 73
     2
 40
2.0
 49
2.0
 74
     0
 49
-1.0
 74
     0
  0
LTYPE
  5
20D
330
5
100
AcDbSymbolTableRecord
100
AcDbLinetypeTableRecord
  2
ACJISTGB
 70
     0
  3
__ . . __ . .
 72
    65
 73
     6
 40
9.0
 49
4.0
 74
     0
 49
-1.0
 74
     0
 49
1.0
 74
     0
 49
-1.0
 74
     0
 49
1.0
 74
     0
 49
-1.0
 74
     0
  0
LTYPE
  5
20E
330
5
100
AcDbSymbolTableRecord
100
AcDbLinetypeTableRecord
  2
ACJISTGL
 70
     0
  3
_ _ _ _ _
 72
    65
 73
     2
 40
3.0
 49
2.0
 74
     0
 49
-1.0
 74
     0
  0
ENDTAB
  0
TABLE
  2
LAYER
  5
2
102
{ACAD_XDICTIONARY
360
34B
102
}
330
0
100
AcDbSymbolTable
 70
    16
  0
LAYER
  5
10
330
2
100
AcDbSymbolTableRecord
100
AcDbLayerTableRecord
  2
0
 70
     0
 62
     7
  6
Continuous
370
    -3
390
F
  0
LAYER
  5
34A
330
2
100
AcDbSymbolTableRecord
100
AcDbLayerTableRecord
  2
AM_0
 70
     0
 62
     7
  6
Continuous
370
    30
390
F
  0
LAYER
  5
3B0
330
2
100
AcDbSymbolTableRecord
100
AcDbLayerTableRecord
  2
AM_5
 70
     0
 62
     3
  6
Continuous
370
    13
390
F
  0
LAYER
  5
3B1
330
2
100
AcDbSymbolTableRecord
100
AcDbLayerTableRecord
  2
AM_7
 70
     0
 62
     4
  6
AM_ISO08W050
370
    13
390
F
  0
LAYER
  5
43F
330
2
100
AcDbSymbolTableRecord
100
AcDbLayerTableRecord
  2
Defpoints
 70
     0
 62
     7
  6
Continuous
290
     0
370
    -3
390
F
  0
LAYER
  5
440
330
2
100
AcDbSymbolTableRecord
100
AcDbLayerTableRecord
  2
2
 70
     0
 62
     7
  6
Continuous
370
    -3
390
F
  0
LAYER
  5
D77
330
2
100
AcDbSymbolTableRecord
100
AcDbLayerTableRecord
  2
6
 70
     0
 62
     2
  6
Continuous
370
     0
390
F
  0
ENDTAB
  0
TABLE
  2
STYLE
  5
3
330
0
100
AcDbSymbolTable
 70
     9
  0
STYLE
  5
11
330
3
100
AcDbSymbolTableRecord
100
AcDbTextStyleTableRecord
  2
STANDARD
 70
     0
 40
0.0
 41
1.0
 50
0.0
 71
     0
 42
3.799999999999999
  3
ISOCP.SHX
  4
EXTFONT.SHX
  0
STYLE
  5
6B
330
3
100
AcDbSymbolTableRecord
100
AcDbTextStyleTableRecord
  2

 70
     1
 40
0.0
 41
1.0
 50
0.0
 71
     0
 42
2.5
  3
ltypeshp.shx
  4

  0
STYLE
  5
6D
330
3
100
AcDbSymbolTableRecord
100
AcDbTextStyleTableRecord
  2
ACISOTS
 70
     0
 40
3.799999999999999
 41
1.0
 50
0.0
 71
     0
 42
3.799999999999999
  3
isocp.shx
  4
extfont.shx
  0
STYLE
  5
79
330
3
100
AcDbSymbolTableRecord
100
AcDbTextStyleTableRecord
  2
ACISOGDT
 70
     0
 40
0.0
 41
1.0
 50
0.0
 71
     0
 42
2.5
  3
amgdt.shx
  4
extfont.shx
  0
STYLE
  5
1FF
330
3
100
AcDbSymbolTableRecord
100
AcDbTextStyleTableRecord
  2
ACJISTS
 70
     0
 40
1.0
 41
1.0
 50
0.0
 71
     0
 42
1.0
  3
isocp.shx
  4
extfont.shx
  0
STYLE
  5
20B
330
3
100
AcDbSymbolTableRecord
100
AcDbTextStyleTableRecord
  2
ACJISGDT
 70
     0
 40
0.0
 41
1.0
 50
0.0
 71
     0
 42
1.0
  3
amgdt.shx
  4

  0
ENDTAB
  0
TABLE
  2
VIEW
  5
6
330
0
100
AcDbSymbolTable
 70
     0
  0
ENDTAB
  0
TABLE
  2
UCS
  5
7
330
0
100
AcDbSymbolTable
 70
     0
  0
ENDTAB
  0
TABLE
  2
APPID
  5
9
330
0
100
AcDbSymbolTable
 70
    18
  0
APPID
  5
12
330
9
100
AcDbSymbolTableRecord
100
AcDbRegAppTableRecord
  2
ACAD
 70
     0
  0
APPID
  5
46
330
9
100
AcDbSymbolTableRecord
100
AcDbRegAppTableRecord
  2
MCAD_NO_VIS
 70
     0
  0
APPID
  5
47
330
9
100
AcDbSymbolTableRecord
100
AcDbRegAppTableRecord
  2
ACAD_TEMP_GRAPHIC
 70
     0
  0
APPID
  5
58
330
9
100
AcDbSymbolTableRecord
100
AcDbRegAppTableRecord
  2
ACATTRIBSERVICES
 70
     0
  0
APPID
  5
EE
330
9
100
AcDbSymbolTableRecord
100
AcDbRegAppTableRecord
  2
AD_DRAW
 70
     0
  0
APPID
  5
10C
330
9
100
AcDbSymbolTableRecord
100
AcDbRegAppTableRecord
  2
DESIGNERASSEMBLIES
 70
     0
  0
APPID
  5
111
330
9
100
AcDbSymbolTableRecord
100
AcDbRegAppTableRecord
  2
ACADM_DIM_EDIT
 70
     0
  0
APPID
  5
112
330
9
100
AcDbSymbolTableRecord
100
AcDbRegAppTableRecord
  2
AMDT_DM_ADJ
 70
     0
  0
APPID
  5
243
330
9
100
AcDbSymbolTableRecord
100
AcDbRegAppTableRecord
  2
ACAD_DSTYLE_DIMTEXT_FILL
 70
     0
  0
APPID
  5
3B4
330
9
100
AcDbSymbolTableRecord
100
AcDbRegAppTableRecord
  2
ACAD_PSEXT
 70
     0
  0
APPID
  5
442
330
9
100
AcDbSymbolTableRecord
100
AcDbRegAppTableRecord
  2
GENIUS_GENODEF_13
 70
     0
  0
APPID
  5
443
330
9
100
AcDbSymbolTableRecord
100
AcDbRegAppTableRecord
  2
GENIUS_GENOBJ-N-CEN_13
 70
     0
  0
APPID
  5
444
330
9
100
AcDbSymbolTableRecord
100
AcDbRegAppTableRecord
  2
GENIUS_GENDTOL_13
 70
     0
  0
APPID
  5
445
330
9
100
AcDbSymbolTableRecord
100
AcDbRegAppTableRecord
  2
GENIUS_GENCEN_19
 70
     0
  0
APPID
  5
660
330
9
100
AcDbSymbolTableRecord
100
AcDbRegAppTableRecord
  2
AcAecLayerStandard
 70
     0
  0
APPID
  5
855
330
9
100
AcDbSymbolTableRecord
100
AcDbRegAppTableRecord
  2
ACAD_DIMASSOC_DIMLFAC
 70
     0
  0
APPID
  5
856
330
9
100
AcDbSymbolTableRecord
100
AcDbRegAppTableRecord
  2
ACAD_DIMASSOC_CALC_DIMLFAC
 70
     0
  0
APPID
  5
857
330
9
100
AcDbSymbolTableRecord
100
AcDbRegAppTableRecord
  2
ACAD_DIMASSOC_OVERRIDDEN_DIMLFAC
 70
     0
  0
ENDTAB
  0
TABLE
  2
DIMSTYLE
  5
A
330
0
100
AcDbSymbolTable
 70
    17
100
AcDbDimStyleTable
 71
     2
340
216
340
81
  0
DIMSTYLE
105
81
330
A
100
AcDbSymbolTableRecord
100
AcDbDimStyleTableRecord
  2
AM_ISO
 70
     0
  4
"
 41
2.5
 42
1.0
 43
10.0
 44
1.0
 47
0.1
 48
0.1
 73
     0
 74
     0
 77
     1
 78
     8
 79
     2
140
3.5
141
0.0
143
0.0393701
146
0.71
147
1.5
172
     1
176
   256
177
   256
178
     2
271
     2
272
     3
274
     4
283
     0
284
     8
340
11
371
    -1
372
    -1
  0
DIMSTYLE
105
82
330
A
100
AcDbSymbolTableRecord
100
AcDbDimStyleTableRecord
  2
AM_ISO$3
 70
     0
  4
"
 41
2.5
 42
1.0
 43
10.0
 44
1.0
 47
0.1
 48
0.1
 73
     0
 77
     1
 78
     8
 79
     2
140
3.5
141
0.0
143
0.0393701
146
0.71
147
1.5
176
   256
177
   256
178
     2
271
     2
272
     3
274
     4
283
     0
284
     8
288
     1
289
     0
340
11
371
    -1
372
    -1
  0
DIMSTYLE
105
83
330
A
100
AcDbSymbolTableRecord
100
AcDbDimStyleTableRecord
  2
AM_ISO$4
 70
     0
  4
"
 41
2.5
 42
1.0
 43
10.0
 44
1.0
 47
0.1
 48
0.1
 73
     0
 77
     1
 78
     8
 79
     2
140
3.5
141
0.0
143
0.0393701
146
0.71
147
1.5
176
   256
177
   256
178
     2
271
     2
272
     3
274
     4
283
     0
284
     8
288
     1
289
     0
340
11
371
    -1
372
    -1
  0
DIMSTYLE
105
84
330
A
100
AcDbSymbolTableRecord
100
AcDbDimStyleTableRecord
  2
AM_ISO$6
 70
     0
  4
"
 41
2.5
 42
1.0
 43
10.0
 44
1.0
 47
0.1
 48
0.1
 73
     0
 74
     0
 78
     8
 79
     2
140
3.5
141
0.0
143
0.0393701
146
0.71
147
1.5
172
     1
176
   256
177
   256
178
     2
271
     2
272
     3
274
     4
283
     0
284
     8
340
11
371
    -1
372
    -1
  0
DIMSTYLE
105
85
330
A
100
AcDbSymbolTableRecord
100
AcDbDimStyleTableRecord
  2
AM_ISO$7
 70
     0
  4
"
 41
2.5
 42
1.0
 43
10.0
 44
1.0
 47
0.1
 48
0.1
 73
     0
 74
     0
 77
     1
 78
     8
 79
     2
140
5.0
141
0.0
143
0.0393701
146
0.71
147
1.5
172
     1
176
   256
177
   256
178
     2
271
     2
272
     3
274
     4
283
     0
284
     8
340
11
371
    -1
372
    -1
  0
DIMSTYLE
105
86
330
A
100
AcDbSymbolTableRecord
100
AcDbDimStyleTableRecord
  2
AM_ISO$SF
 70
     0
  4
"
 41
2.5
 42
1.0
 43
10.0
 44
1.0
 47
0.1
 48
0.1
 73
     0
 74
     0
 75
     1
 76
     1
 77
     1
 78
     8
 79
     2
140
3.5
141
0.0
143
0.0393701
146
0.71
147
1.5
172
     1
176
   256
177
   256
178
     2
271
     2
272
     3
274
     4
283
     0
284
     8
340
11
371
    -1
372
    -1
  0
DIMSTYLE
105
8B
330
A
100
AcDbSymbolTableRecord
100
AcDbDimStyleTableRecord
  2
AM_ISO$SH
 70
     0
  4
"
 41
2.5
 42
1.0
 43
10.0
 44
1.0
 47
0.1
 48
0.1
 73
     0
 74
     0
 75
     1
 76
     1
 77
     1
 78
     8
 79
     2
140
3.5
141
0.0
143
0.0393701
144
2.0
146
0.71
147
1.5
172
     1
173
     1
176
   256
177
   256
178
     2
271
     2
272
     3
274
     4
283
     0
284
     8
340
11
343
87
371
    -1
372
    -1
  0
DIMSTYLE
105
216
330
A
100
AcDbSymbolTableRecord
100
AcDbDimStyleTableRecord
  2
AM_JIS
 70
     0
  4
"
 41
2.5
 42
1.0
 43
10.0
 44
1.0
 47
0.1
 48
0.1000000001
 73
     0
 74
     0
 77
     3
 78
     8
 79
     2
140
3.799999999999999
141
0.0
143
0.0393701
146
0.71
147
1.5
172
     1
176
   256
177
   256
178
     2
271
     2
272
     2
275
     1
283
     0
284
     8
340
11
341
217
342
217
371
    -1
372
    -1
  0
DIMSTYLE
105
21D
330
A
100
AcDbSymbolTableRecord
100
AcDbDimStyleTableRecord
  2
AM_JIS$3
 70
     0
  4
"
 41
2.5
 42
1.0
 43
10.0
 44
1.0
 47
0.1
 48
0.1000000001
 73
     0
 77
     3
 78
     8
 79
     2
140
3.799999999999999
141
0.0
143
0.0393701
146
0.71
147
1.5
176
   256
177
   256
178
     2
271
     2
272
     2
275
     1
283
     0
284
     8
288
     1
289
     0
340
11
341
217
342
217
371
    -1
372
    -1
  0
DIMSTYLE
105
21E
330
A
100
AcDbSymbolTableRecord
100
AcDbDimStyleTableRecord
  2
AM_JIS$4
 70
     0
  4
"
 41
2.5
 42
1.0
 43
10.0
 44
1.0
 47
0.1
 48
0.1000000001
 73
     0
 77
     3
 78
     8
 79
     2
140
3.799999999999999
141
0.0
143
0.0393701
146
0.71
147
1.5
176
   256
177
   256
178
     2
271
     2
272
     2
275
     1
283
     0
284
     8
288
     1
289
     0
340
11
341
217
342
217
371
    -1
372
    -1
  0
DIMSTYLE
105
21F
330
A
100
AcDbSymbolTableRecord
100
AcDbDimStyleTableRecord
  2
AM_JIS$6
 70
     0
  4
"
 41
2.5
 42
1.0
 43
10.0
 44
1.0
 47
0.1
 48
0.1000000001
 73
     0
 74
     0
 78
     8
 79
     2
140
3.799999999999999
141
0.0
143
0.0393701
146
0.71
147
1.5
172
     1
176
   256
177
   256
178
     2
271
     2
272
     2
275
     1
283
     0
284
     8
340
11
341
217
342
217
371
    -1
372
    -1
  0
DIMSTYLE
105
220
330
A
100
AcDbSymbolTableRecord
100
AcDbDimStyleTableRecord
  2
AM_JIS$7
 70
     0
  4
"
 41
2.5
 42
1.0
 43
10.0
 44
1.0
 47
0.1
 48
0.1000000001
 73
     0
 74
     0
 77
     3
 78
     8
 79
     2
140
5.0
141
0.0
143
0.0393701
146
0.71
147
1.5
172
     1
176
   256
177
   256
178
     2
271
     2
272
     2
275
     1
283
     0
284
     8
340
11
341
217
342
217
371
    -1
372
    -1
  0
DIMSTYLE
105
221
330
A
100
AcDbSymbolTableRecord
100
AcDbDimStyleTableRecord
  2
AM_JIS$SF
 70
     0
  4
"
 41
2.5
 42
1.0
 43
10.0
 44
1.0
 47
0.1
 48
0.1
 73
     0
 74
     0
 75
     1
 76
     1
 77
     3
 78
     8
 79
     2
140
3.5
141
0.0
143
0.0393701
146
0.71
147
1.5
172
     1
176
   256
177
   256
178
     2
271
     2
272
     3
274
     4
283
     0
284
     8
340
11
341
217
342
217
343
217
344
217
371
    -1
372
    -1
  0
DIMSTYLE
105
222
330
A
100
AcDbSymbolTableRecord
100
AcDbDimStyleTableRecord
  2
AM_JIS$SH
 70
     0
  4
"
 41
2.5
 42
1.0
 43
10.0
 44
1.0
 47
0.1
 48
0.1
 73
     0
 74
     0
 75
     1
 76
     1
 77
     3
 78
     8
 79
     2
140
3.5
141
0.0
143
0.0393701
144
2.0
146
0.71
147
1.5
172
     1
173
     1
176
   256
177
   256
178
     2
271
     2
272
     3
274
     4
283
     0
284
     8
340
11
341
217
342
217
343
87
344
217
371
    -1
372
    -1
  0
DIMSTYLE
105
441
102
{ACAD_REACTORS
330
479
330
47C
330
47F
330
482
330
485
330
488
330
48B
330
48E
330
491
330
AE7
330
C72
330
C75
330
C78
330
C7B
330
C7E
330
C81
330
C84
330
C87
330
107A
102
}
330
A
100
AcDbSymbolTableRecord
100
AcDbDimStyleTableRecord
  2
AM_JIS$0
 70
     0
  4
"
 41
2.5
 42
0.0
 43
10.0
 44
1.0
 48
0.000000001
 73
     0
 74
     0
 77
     3
 78
     1
 79
     2
140
3.799999999999999
141
0.0
143
0.0393701
146
0.71
147
1.5
172
     1
176
   256
177
   256
178
     2
179
     1
271
     3
272
     3
275
     1
283
     0
284
     8
340
11
341
217
342
217
371
    -1
372
    -1
  0
DIMSTYLE
105
854
102
{ACAD_REACTORS
330
880
330
88A
330
B03
102
}
330
A
100
AcDbSymbolTableRecord
100
AcDbDimStyleTableRecord
  2
AM_JIS$2
 70
     0
  4
"
 41
1.8
 42
0.0
 43
10.0
 44
1.0
 47
0.1
 48
0.1000000001
 73
     0
 74
     0
 77
     3
 78
     1
 79
     2
140
3.799999999999999
141
0.0
143
0.0393701
146
0.71
147
0.9999999999999996
172
     1
176
   256
177
   256
178
     2
179
     1
271
     3
272
     3
275
     1
283
     0
284
     8
340
11
341
217
342
217
371
    -1
372
    -1
  0
ENDTAB
  0
TABLE
  2
BLOCK_RECORD
  5
1
330
0
100
AcDbSymbolTable
 70
    99
  0
BLOCK_RECORD
  5
1F
102
{ACAD_XDICTIONARY
360
8F
102
}
330
1
100
AcDbSymbolTableRecord
100
AcDbBlockTableRecord
  2
*Model_Space
340
22
  0
BLOCK_RECORD
  5
1B
330
1
100
AcDbSymbolTableRecord
100
AcDbBlockTableRecord
  2
*Paper_Space
340
1E
  0
BLOCK_RECORD
  5
23
330
1
100
AcDbSymbolTableRecord
100
AcDbBlockTableRecord
  2
*Paper_Space0
340
26
  0
BLOCK_RECORD
  5
87
330
1
100
AcDbSymbolTableRecord
100
AcDbBlockTableRecord
  2
GENAXEH
340
0
  0
BLOCK_RECORD
  5
217
330
1
100
AcDbSymbolTableRecord
100
AcDbBlockTableRecord
  2
_Open30
340
0
102
{BLKREFS
331
3E0
331
3EA
331
3F4
331
3FE
331
409
331
40A
331
415
331
416
331
420
331
42B
331
42C
331
437
331
438
331
5BB
331
5C3
331
5CB
331
5D3
331
5DC
331
5DD
331
5E6
331
5E7
331
5EF
331
5F8
331
5F9
331
602
331
603
331
620
331
621
331
62B
331
636
331
637
331
642
331
643
331
64E
331
64F
331
659
331
7CA
331
7CB
331
7D2
331
7EC
331
7ED
331
7F5
331
80C
331
80D
331
819
331
81A
331
826
331
827
331
834
331
83B
331
845
331
84E
331
906
331
907
331
94F
331
956
331
95D
331
95E
331
967
331
968
331
972
331
976
331
9B4
331
9B5
331
9BE
331
9BF
331
A2F
331
AAD
331
AB7
331
AB8
331
B34
331
B3E
331
B48
331
B53
331
B54
331
B5F
331
B60
331
B6A
331
B75
331
B76
331
B81
331
B82
331
D65
331
D70
331
D71
331
D5B
331
E30
331
E31
331
E3B
331
E46
331
E47
331
E54
331
E5C
331
E66
331
E6E
331
E26
331
E27
331
F4E
331
F4F
331
F55
331
F56
331
FA5
331
FA6
331
FAF
331
FB6
331
FBB
331
FC2
331
FEA
331
10E4
331
10F5
331
10FC
331
1103
331
110B
331
110C
331
1114
331
1115
331
111C
331
1124
331
1125
331
112D
331
112E
331
1136
331
1137
331
113E
331
113F
102
}
  0
BLOCK_RECORD
  5
B07
330
1
100
AcDbSymbolTableRecord
100
AcDbBlockTableRecord
  2
*D56
340
0
  0
BLOCK_RECORD
  5
B16
330
1
100
AcDbSymbolTableRecord
100
AcDbBlockTableRecord
  2
*D57
340
0
  0
BLOCK_RECORD
  5
CF3
330
1
100
AcDbSymbolTableRecord
100
AcDbBlockTableRecord
  2
*D67
340
0
  0
BLOCK_RECORD
  5
CFB
330
1
100
AcDbSymbolTableRecord
100
AcDbBlockTableRecord
  2
*D68
340
0
  0
BLOCK_RECORD
  5
D03
330
1
100
AcDbSymbolTableRecord
100
AcDbBlockTableRecord
  2
*D69
340
0
  0
BLOCK_RECORD
  5
D0B
330
1
100
AcDbSymbolTableRecord
100
AcDbBlockTableRecord
  2
*D70
340
0
  0
BLOCK_RECORD
  5
D15
330
1
100
AcDbSymbolTableRecord
100
AcDbBlockTableRecord
  2
*D71
340
0
  0
BLOCK_RECORD
  5
D1F
330
1
100
AcDbSymbolTableRecord
100
AcDbBlockTableRecord
  2
*D72
340
0
  0
BLOCK_RECORD
  5
D27
330
1
100
AcDbSymbolTableRecord
100
AcDbBlockTableRecord
  2
*D73
340
0
  0
BLOCK_RECORD
  5
D31
330
1
100
AcDbSymbolTableRecord
100
AcDbBlockTableRecord
  2
*D74
340
0
  0
BLOCK_RECORD
  5
D4C
330
1
100
AcDbSymbolTableRecord
100
AcDbBlockTableRecord
  2
ym
340
0
102
{BLKREFS
331
E09
331
E0A
331
E13
331
E9E
102
}
  0
BLOCK_RECORD
  5
D57
330
1
100
AcDbSymbolTableRecord
100
AcDbBlockTableRecord
  2
*D76
340
0
  0
BLOCK_RECORD
  5
D61
330
1
100
AcDbSymbolTableRecord
100
AcDbBlockTableRecord
  2
*D77
340
0
  0
BLOCK_RECORD
  5
D6B
330
1
100
AcDbSymbolTableRecord
100
AcDbBlockTableRecord
  2
*D78
340
0
  0
BLOCK_RECORD
  5
107B
330
1
100
AcDbSymbolTableRecord
100
AcDbBlockTableRecord
  2
*D97
340
0
  0
ENDTAB
  0
ENDSEC
  0
SECTION
  2
BLOCKS
  0
BLOCK
  5
20
330
1F
100
AcDbEntity
  8
0
100
AcDbBlockBegin
  2
*Model_Space
 70
     0
 10
0.0
 20
0.0
 30
0.0
  3
*Model_Space
  1

  0
ENDBLK
  5
21
330
1F
100
AcDbEntity
  8
0
100
AcDbBlockEnd
  0
BLOCK
  5
1C
330
1B
100
AcDbEntity
 67
     1
  8
0
100
AcDbBlockBegin
  2
*Paper_Space
 70
     0
 10
0.0
 20
0.0
 30
0.0
  3
*Paper_Space
  1

  0
ENDBLK
  5
1D
330
1B
100
AcDbEntity
 67
     1
  8
0
100
AcDbBlockEnd
  0
BLOCK
  5
24
330
23
100
AcDbEntity
  8
0
100
AcDbBlockBegin
  2
*Paper_Space0
 70
     0
 10
0.0
 20
0.0
 30
0.0
  3
*Paper_Space0
  1

  0
ENDBLK
  5
25
330
23
100
AcDbEntity
  8
0
100
AcDbBlockEnd
  0
BLOCK
  5
89
330
87
100
AcDbEntity
  8
0
100
AcDbBlockBegin
  2
GENAXEH
 70
     0
 10
0.0
 20
0.0
 30
0.0
  3
GENAXEH
  1

  0
LINE
  5
88
330
87
100
AcDbEntity
  8
0
100
AcDbLine
 10
-1.0
 20
0.0
 30
0.0
 11
1.0
 21
0.0
 31
0.0
  0
ENDBLK
  5
8A
330
87
100
AcDbEntity
  8
0
100
AcDbBlockEnd
  0
BLOCK
  5
21B
330
217
100
AcDbEntity
  8
0
100
AcDbBlockBegin
  2
_Open30
 70
     0
 10
0.0
 20
0.0
 30
0.0
  3
_Open30
  1

  0
LINE
  5
218
330
217
100
AcDbEntity
  8
0
  6
ByBlock
 62
     0
370
    -2
100
AcDbLine
 10
-1.0
 20
0.26794919
 30
0.0
 11
0.0
 21
0.0
 31
0.0
  0
LINE
  5
219
330
217
100
AcDbEntity
  8
0
  6
ByBlock
 62
     0
370
    -2
100
AcDbLine
 10
0.0
 20
0.0
 30
0.0
 11
-1.0
 21
-0.26794919
 31
0.0
  0
LINE
  5
21A
330
217
100
AcDbEntity
  8
0
  6
ByBlock
 62
     0
370
    -2
100
AcDbLine
 10
0.0
 20
0.0
 30
0.0
 11
-1.0
 21
0.0
 31
0.0
  0
ENDBLK
  5
21C
330
217
100
AcDbEntity
  8
0
100
AcDbBlockEnd
  0
BLOCK
  5
B21
330
B07
100
AcDbEntity
  8
0
100
AcDbBlockBegin
  2
*D56
 70
     1
 10
0.0
 20
0.0
 30
0.0
  3
*D56
  1

  0
LINE
  5
10E2
330
B07
100
AcDbEntity
  8
AM_5
100
AcDbLine
 10
2.531477507714328
 20
99.99999999999994
 30
0.0
 11
34.94392296080869
 21
99.99999999999992
 31
0.0
  0
LINE
  5
10E3
330
B07
100
AcDbEntity
  8
AM_5
100
AcDbLine
 10
33.94392296080869
 20
97.49999999999992
 30
0.0
 11
33.94392296080866
 21
-5.789045008944516
 31
0.0
  0
INSERT
  5
10E4
330
B07
100
AcDbEntity
  8
AM_5
100
AcDbBlockReference
  2
_Open30
 10
33.94392296080869
 20
99.99999999999992
 30
0.0
 41
2.5
 42
2.5
 43
2.5
 50
90.0
  0
MTEXT
  5
10E5
330
B07
100
AcDbEntity
  8
AM_5
 62
     2
100
AcDbMText
 10
30.54354894506063
 20
0.8424510540476152
 30
0.0
 40
3.799999999999999
 41
0.0
 71
     5
 72
     1
  1
%%c200
 11
0.0000000000000001
 21
1.0
 31
0.0
 73
     1
 44
1.0
1001
ACAD
1000
MTEXTBEGIN
1070
    73
1070
     1
1070
    44
1040
1.0
1070
    74
1070
     0
1000
MTEXTEND
  0
POINT
  5
10E6
330
B07
100
AcDbEntity
  8
Defpoints
 62
     0
100
AcDbPoint
 10
2.531477507714328
 20
99.99999999999994
 30
0.0
  0
POINT
  5
10E7
330
B07
100
AcDbEntity
  8
Defpoints
 62
     0
100
AcDbPoint
 10
6.262464375569948
 20
0.0
 30
0.0
  0
POINT
  5
10E8
330
B07
100
AcDbEntity
  8
Defpoints
 62
     0
100
AcDbPoint
 10
33.94392296080866
 20
-0.0000000000000078
 30
0.0
  0
ENDBLK
  5
B22
330
B07
100
AcDbEntity
  8
0
100
AcDbBlockEnd
  0
BLOCK
  5
B23
330
B16
100
AcDbEntity
  8
0
100
AcDbBlockBegin
  2
*D57
 70
     1
 10
0.0
 20
0.0
 30
0.0
  3
*D57
  1

  0
LINE
  5
113C
330
B16
100
AcDbEntity
  8
AM_5
100
AcDbLine
 10
-12.55780243184126
 20
100.5261956630709
 30
0.0
 11
-20.10357894079197
 21
100.7896999851766
 31
0.0
  0
ARC
  5
113D
330
B16
100
AcDbEntity
  8
AM_5
100
AcDbCircle
 10
2.510469852201204
 20
100.0000000000001
 30
0.0
 40
21.62783305750827
100
AcDbArc
 50
94.76988105380806
 51
173.2301189461887
  0
INSERT
  5
113E
330
B16
100
AcDbEntity
  8
AM_5
100
AcDbBlockReference
  2
_Open30
 10
2.510469852201211
 20
121.6278330575084
 30
0.0
 41
1.8
 42
1.8
 43
1.8
 50
2.38494052690403
  0
INSERT
  5
113F
330
B16
100
AcDbEntity
  8
AM_5
100
AcDbBlockReference
  2
_Open30
 10
-19.10418811377288
 20
100.754800488474
 30
0.0
 41
1.8
 42
1.8
 43
1.8
 50
265.6150594730928
  0
MTEXT
  5
1140
330
B16
100
AcDbEntity
  8
AM_5
 62
     2
100
AcDbMText
 10
-14.52799469041734
 20
117.6438465343283
 30
0.0
 40
3.799999999999999
 41
0.0
 71
     5
 72
     1
  1
88°
 11
0.7193398003386707
 21
0.6946583704589773
 31
0.0
 73
     1
 44
1.0
1001
ACAD
1000
MTEXTBEGIN
1070
    73
1070
     1
1070
    44
1040
1.0
1070
    74
1070
     0
1000
MTEXTEND
  0
POINT
  5
1141
330
B16
100
AcDbEntity
  8
Defpoints
 62
     0
100
AcDbPoint
 10
-8.084783190441555
 20
118.8548077615716
 30
0.0
  0
POINT
  5
1142
330
B16
100
AcDbEntity
  8
Defpoints
 62
     0
100
AcDbPoint
 10
-12.55780243184126
 20
100.5261956630709
 30
0.0
  0
POINT
  5
1143
330
B16
100
AcDbEntity
  8
Defpoints
 62
     0
100
AcDbPoint
 10
2.510469852201211
 20
100.0
 30
0.0
  0
POINT
  5
1144
330
B16
100
AcDbEntity
  8
Defpoints
 62
     0
100
AcDbPoint
 10
2.510469852201225
 20
400.0
 30
0.0
  0
POINT
  5
1145
330
B16
100
AcDbEntity
  8
Defpoints
 62
     0
100
AcDbPoint
 10
1.552264890900289
 20
100.0334612545796
 30
0.0
  0
ENDBLK
  5
B24
330
B16
100
AcDbEntity
  8
0
100
AcDbBlockEnd
  0
BLOCK
  5
D3B
330
CF3
100
AcDbEntity
  8
0
100
AcDbBlockBegin
  2
*D67
 70
     1
 10
0.0
 20
0.0
 30
0.0
  3
*D67
  1

  0
LINE
  5
10F3
330
CF3
100
AcDbEntity
  8
AM_5
100
AcDbLine
 10
-14.91566983338896
 20
64.99999999999997
 30
0.0
 11
24.45124154932945
 21
64.99999999999997
 31
0.0
  0
LINE
  5
10F4
330
CF3
100
AcDbEntity
  8
AM_5
100
AcDbLine
 10
23.45124154932945
 20
62.49999999999996
 30
0.0
 11
23.45124154932944
 21
-5.466361114514809
 31
0.0
  0
INSERT
  5
10F5
330
CF3
100
AcDbEntity
  8
AM_5
100
AcDbBlockReference
  2
_Open30
 10
23.45124154932945
 20
64.99999999999997
 30
0.0
 41
2.5
 42
2.5
 43
2.5
 50
90.0
  0
MTEXT
  5
10F6
330
CF3
100
AcDbEntity
  8
AM_5
 62
     2
100
AcDbMText
 10
20.05124154932944
 20
0.7851349484773214
 30
0.0
 40
3.799999999999999
 41
0.0
 71
     5
 72
     1
  1
%%c130
 11
0.0000000000000001
 21
1.0
 31
0.0
 73
     1
 44
1.0
1001
ACAD
1000
MTEXTBEGIN
1070
    73
1070
     1
1070
    44
1040
1.0
1070
    74
1070
     0
1000
MTEXTEND
  0
POINT
  5
10F7
330
CF3
100
AcDbEntity
  8
Defpoints
 62
     0
100
AcDbPoint
 10
-14.91566983338896
 20
64.99999999999997
 30
0.0
  0
POINT
  5
10F8
330
CF3
100
AcDbEntity
  8
Defpoints
 62
     0
100
AcDbPoint
 10
6.262464375569948
 20
0.0
 30
0.0
  0
POINT
  5
10F9
330
CF3
100
AcDbEntity
  8
Defpoints
 62
     0
100
AcDbPoint
 10
23.45124154932944
 20
-0.0000000000000049
 30
0.0
  0
ENDBLK
  5
D3C
330
CF3
100
AcDbEntity
  8
0
100
AcDbBlockEnd
  0
BLOCK
  5
D3D
330
CFB
100
AcDbEntity
  8
0
100
AcDbBlockBegin
  2
*D68
 70
     1
 10
0.0
 20
0.0
 30
0.0
  3
*D68
  1

  0
LINE
  5
10FA
330
CFB
100
AcDbEntity
  8
AM_5
100
AcDbLine
 10
-22.69553014779865
 20
50.79999999999995
 30
0.0
 11
15.2511753872035
 21
50.79999999999994
 31
0.0
  0
LINE
  5
10FB
330
CFB
100
AcDbEntity
  8
AM_5
100
AcDbLine
 10
14.2511753872035
 20
48.29999999999994
 30
0.0
 11
14.25117538720348
 21
-9.029295653411168
 31
0.0
  0
INSERT
  5
10FC
330
CFB
100
AcDbEntity
  8
AM_5
100
AcDbBlockReference
  2
_Open30
 10
14.2511753872035
 20
50.79999999999994
 30
0.0
 41
2.5
 42
2.5
 43
2.5
 50
90.0
  0
MTEXT
  5
10FD
330
CFB
100
AcDbEntity
  8
AM_5
 62
     2
100
AcDbMText
 10
10.82474880086355
 20
3.204956315092772
 30
0.0
 40
3.799999999999999
 41
0.0
 71
     5
 72
     1
  1
P.C.D.101.6
 11
0.0000000000000001
 21
1.0
 31
0.0
 73
     1
 44
1.0
1001
ACAD
1000
MTEXTBEGIN
1070
    73
1070
     1
1070
    44
1040
1.0
1070
    74
1070
     0
1000
MTEXTEND
  0
POINT
  5
10FE
330
CFB
100
AcDbEntity
  8
Defpoints
 62
     0
100
AcDbPoint
 10
-22.69553014779865
 20
50.79999999999995
 30
0.0
  0
POINT
  5
10FF
330
CFB
100
AcDbEntity
  8
Defpoints
 62
     0
100
AcDbPoint
 10
6.262464375569948
 20
0.0
 30
0.0
  0
POINT
  5
1100
330
CFB
100
AcDbEntity
  8
Defpoints
 62
     0
100
AcDbPoint
 10
14.25117538720349
 20
-0.0000000000000023
 30
0.0
  0
ENDBLK
  5
D3E
330
CFB
100
AcDbEntity
  8
0
100
AcDbBlockEnd
  0
BLOCK
  5
D3F
330
D03
100
AcDbEntity
  8
0
100
AcDbBlockBegin
  2
*D69
 70
     1
 10
0.0
 20
0.0
 30
0.0
  3
*D69
  1

  0
LINE
  5
1101
330
D03
100
AcDbEntity
  8
AM_5
100
AcDbLine
 10
-56.48953014779874
 20
74.99999999999994
 30
0.0
 11
-99.37603520671984
 21
74.99999999999996
 31
0.0
  0
LINE
  5
1102
330
D03
100
AcDbEntity
  8
AM_5
100
AcDbLine
 10
-98.37603520671983
 20
72.49999999999996
 30
0.0
 11
-98.37603520671985
 21
-5.516926608998879
 31
0.0
  0
INSERT
  5
1103
330
D03
100
AcDbEntity
  8
AM_5
100
AcDbBlockReference
  2
_Open30
 10
-98.37603520671983
 20
74.99999999999996
 30
0.0
 41
2.5
 42
2.5
 43
2.5
 50
90.0
  0
MTEXT
  5
1104
330
D03
100
AcDbEntity
  8
AM_5
 62
     2
100
AcDbMText
 10
-101.7760352067198
 20
0.7345694539932315
 30
0.0
 40
3.799999999999999
 41
0.0
 71
     5
 72
     1
  1
%%c150
 11
0.0000000000000001
 21
1.0
 31
0.0
 73
     1
 44
1.0
1001
ACAD
1000
MTEXTBEGIN
1070
    73
1070
     1
1070
    44
1040
1.0
1070
    74
1070
     0
1000
MTEXTEND
  0
POINT
  5
1105
330
D03
100
AcDbEntity
  8
Defpoints
 62
     0
100
AcDbPoint
 10
-56.48953014779874
 20
74.99999999999994
 30
0.0
  0
POINT
  5
1106
330
D03
100
AcDbEntity
  8
Defpoints
 62
     0
100
AcDbPoint
 10
-66.7212302529073
 20
0.0000000000000568
 30
0.0
  0
POINT
  5
1107
330
D03
100
AcDbEntity
  8
Defpoints
 62
     0
100
AcDbPoint
 10
-98.37603520671985
 20
0.0000000000000658
 30
0.0
  0
ENDBLK
  5
D40
330
D03
100
AcDbEntity
  8
0
100
AcDbBlockEnd
  0
BLOCK
  5
D41
330
D0B
100
AcDbEntity
  8
0
100
AcDbBlockBegin
  2
*D70
 70
     1
 10
0.0
 20
0.0
 30
0.0
  3
*D70
  1

  0
LINE
  5
1108
330
D0B
100
AcDbEntity
  8
AM_5
100
AcDbLine
 10
-59.48953014779897
 20
12.6999999999999
 30
0.0
 11
-67.7212302529073
 21
12.6999999999999
 31
0.0
  0
LINE
  5
1109
330
D0B
100
AcDbEntity
  8
AM_5
100
AcDbLine
 10
-59.48953014779874
 20
-12.70000000000002
 30
0.0
 11
-67.7212302529073
 21
-12.70000000000001
 31
0.0
  0
LINE
  5
110A
330
D0B
100
AcDbEntity
  8
AM_5
100
AcDbLine
 10
-66.7212302529073
 20
10.1999999999999
 30
0.0
 11
-66.7212302529073
 21
-10.20000000000001
 31
0.0
  0
INSERT
  5
110B
330
D0B
100
AcDbEntity
  8
AM_5
100
AcDbBlockReference
  2
_Open30
 10
-66.7212302529073
 20
12.6999999999999
 30
0.0
 41
2.5
 42
2.5
 43
2.5
 50
90.0
  0
INSERT
  5
110C
330
D0B
100
AcDbEntity
  8
AM_5
100
AcDbBlockReference
  2
_Open30
 10
-66.7212302529073
 20
-12.70000000000001
 30
0.0
 41
2.5
 42
2.5
 43
2.5
 50
270.0
  0
MTEXT
  5
110D
330
D0B
100
AcDbEntity
  8
AM_5
 62
     2
100
AcDbMText
 10
-70.12160426865533
 20
-0.0000000000000648
 30
0.0
 40
3.799999999999999
 41
0.0
 71
     5
 72
     1
  1
25.4
 11
0.0000000000000001
 21
1.0
 31
0.0
 73
     1
 44
1.0
1001
ACAD
1000
MTEXTBEGIN
1070
    73
1070
     1
1070
    44
1040
1.0
1070
    74
1070
     0
1000
MTEXTEND
  0
POINT
  5
110E
330
D0B
100
AcDbEntity
  8
Defpoints
 62
     0
100
AcDbPoint
 10
-59.48953014779897
 20
12.6999999999999
 30
0.0
  0
POINT
  5
110F
330
D0B
100
AcDbEntity
  8
Defpoints
 62
     0
100
AcDbPoint
 10
-59.48953014779874
 20
-12.70000000000002
 30
0.0
  0
POINT
  5
1110
330
D0B
100
AcDbEntity
  8
Defpoints
 62
     0
100
AcDbPoint
 10
-66.7212302529073
 20
-12.70000000000001
 30
0.0
  0
ENDBLK
  5
D42
330
D0B
100
AcDbEntity
  8
0
100
AcDbBlockEnd
  0
BLOCK
  5
D43
330
D15
100
AcDbEntity
  8
0
100
AcDbBlockBegin
  2
*D71
 70
     1
 10
0.0
 20
0.0
 30
0.0
  3
*D71
  1

  0
LINE
  5
1111
330
D15
100
AcDbEntity
  8
AM_5
100
AcDbLine
 10
-58.98953014779869
 20
23.81249999999992
 30
0.0
 11
-77.72123025290705
 21
23.81249999999992
 31
0.0
  0
LINE
  5
1112
330
D15
100
AcDbEntity
  8
AM_5
100
AcDbLine
 10
-58.98953014779874
 20
-23.81249999999995
 30
0.0
 11
-77.72123025290705
 21
-23.81249999999995
 31
0.0
  0
LINE
  5
1113
330
D15
100
AcDbEntity
  8
AM_5
100
AcDbLine
 10
-76.72123025290705
 20
21.31249999999992
 30
0.0
 11
-76.72123025290705
 21
-21.31249999999995
 31
0.0
  0
INSERT
  5
1114
330
D15
100
AcDbEntity
  8
AM_5
100
AcDbBlockReference
  2
_Open30
 10
-76.72123025290705
 20
23.81249999999992
 30
0.0
 41
2.5
 42
2.5
 43
2.5
 50
90.0
  0
INSERT
  5
1115
330
D15
100
AcDbEntity
  8
AM_5
100
AcDbBlockReference
  2
_Open30
 10
-76.72123025290705
 20
-23.81249999999995
 30
0.0
 41
2.5
 42
2.5
 43
2.5
 50
270.0
  0
MTEXT
  5
1116
330
D15
100
AcDbEntity
  8
AM_5
 62
     2
100
AcDbMText
 10
-80.12160426865508
 20
-0.0000000000000269
 30
0.0
 40
3.799999999999999
 41
0.0
 71
     5
 72
     1
  1
%%c47.625
 11
0.0000000000000001
 21
1.0
 31
0.0
 73
     1
 44
1.0
1001
ACAD
1000
MTEXTBEGIN
1070
    73
1070
     1
1070
    44
1040
1.0
1070
    74
1070
     0
1000
MTEXTEND
  0
POINT
  5
1117
330
D15
100
AcDbEntity
  8
Defpoints
 62
     0
100
AcDbPoint
 10
-58.98953014779869
 20
23.81249999999992
 30
0.0
  0
POINT
  5
1118
330
D15
100
AcDbEntity
  8
Defpoints
 62
     0
100
AcDbPoint
 10
-58.98953014779874
 20
-23.81249999999995
 30
0.0
  0
POINT
  5
1119
330
D15
100
AcDbEntity
  8
Defpoints
 62
     0
100
AcDbPoint
 10
-76.72123025290705
 20
-23.81249999999995
 30
0.0
  0
ENDBLK
  5
D44
330
D15
100
AcDbEntity
  8
0
100
AcDbBlockEnd
  0
BLOCK
  5
D45
330
D1F
100
AcDbEntity
  8
0
100
AcDbBlockBegin
  2
*D72
 70
     1
 10
0.0
 20
0.0
 30
0.0
  3
*D72
  1

  0
LINE
  5
111A
330
D1F
100
AcDbEntity
  8
AM_5
100
AcDbLine
 10
-60.4895301477988
 20
64.99999999999989
 30
0.0
 11
-88.85087009876007
 21
64.99999999999989
 31
0.0
  0
LINE
  5
111B
330
D1F
100
AcDbEntity
  8
AM_5
100
AcDbLine
 10
-87.85087009876006
 20
62.49999999999989
 30
0.0
 11
-87.85087009876008
 21
-5.705816075907103
 31
0.0
  0
INSERT
  5
111C
330
D1F
100
AcDbEntity
  8
AM_5
100
AcDbBlockReference
  2
_Open30
 10
-87.85087009876006
 20
64.99999999999989
 30
0.0
 41
2.5
 42
2.5
 43
2.5
 50
90.0
  0
MTEXT
  5
111D
330
D1F
100
AcDbEntity
  8
AM_5
 62
     2
100
AcDbMText
 10
-91.25087009876009
 20
0.5456799870850096
 30
0.0
 40
3.799999999999999
 41
0.0
 71
     5
 72
     1
  1
%%c130
 11
0.0000000000000001
 21
1.0
 31
0.0
 73
     1
 44
1.0
1001
ACAD
1000
MTEXTBEGIN
1070
    73
1070
     1
1070
    44
1040
1.0
1070
    74
1070
     0
1000
MTEXTEND
  0
POINT
  5
111E
330
D1F
100
AcDbEntity
  8
Defpoints
 62
     0
100
AcDbPoint
 10
-60.4895301477988
 20
64.99999999999989
 30
0.0
  0
POINT
  5
111F
330
D1F
100
AcDbEntity
  8
Defpoints
 62
     0
100
AcDbPoint
 10
-66.7212302529073
 20
0.0000000000000568
 30
0.0
  0
POINT
  5
1120
330
D1F
100
AcDbEntity
  8
Defpoints
 62
     0
100
AcDbPoint
 10
-87.85087009876008
 20
0.0000000000000628
 30
0.0
  0
ENDBLK
  5
D46
330
D1F
100
AcDbEntity
  8
0
100
AcDbBlockEnd
  0
BLOCK
  5
D47
330
D27
100
AcDbEntity
  8
0
100
AcDbBlockBegin
  2
*D73
 70
     1
 10
0.0
 20
0.0
 30
0.0
  3
*D73
  1

  0
LINE
  5
1121
330
D27
100
AcDbEntity
  8
AM_5
100
AcDbLine
 10
-60.47532974699629
 20
-65.01420040080247
 30
0.0
 11
-60.47532974699629
 21
-78.01420140080245
 31
0.0
  0
LINE
  5
1122
330
D27
100
AcDbEntity
  8
AM_5
100
AcDbLine
 10
-46.48953014779874
 20
-12.70000000000004
 30
0.0
 11
-46.48953014779875
 21
-78.01420140080245
 31
0.0
  0
LINE
  5
1123
330
D27
100
AcDbEntity
  8
AM_5
100
AcDbLine
 10
-57.97532974699629
 20
-77.01420140080244
 30
0.0
 11
-48.98953014779875
 21
-77.01420140080244
 31
0.0
  0
INSERT
  5
1124
330
D27
100
AcDbEntity
  8
AM_5
100
AcDbBlockReference
  2
_Open30
 10
-60.47532974699629
 20
-77.01420140080244
 30
0.0
 41
2.5
 42
2.5
 43
2.5
 50
180.0
  0
INSERT
  5
1125
330
D27
100
AcDbEntity
  8
AM_5
100
AcDbBlockReference
  2
_Open30
 10
-46.48953014779875
 20
-77.01420140080244
 30
0.0
 41
2.5
 42
2.5
 43
2.5
  0
MTEXT
  5
1126
330
D27
100
AcDbEntity
  8
AM_5
 62
     2
100
AcDbMText
 10
-53.48242994739752
 20
-73.61420140080245
 30
0.0
 40
3.799999999999999
 41
0.0
 71
     5
 72
     1
  1
14
 73
     1
 44
1.0
1001
ACAD
1000
MTEXTBEGIN
1070
    73
1070
     1
1070
    44
1040
1.0
1070
    74
1070
     0
1000
MTEXTEND
  0
POINT
  5
1127
330
D27
100
AcDbEntity
  8
Defpoints
 62
     0
100
AcDbPoint
 10
-60.47532974699629
 20
-65.01420040080247
 30
0.0
  0
POINT
  5
1128
330
D27
100
AcDbEntity
  8
Defpoints
 62
     0
100
AcDbPoint
 10
-46.48953014779874
 20
-12.70000000000004
 30
0.0
  0
POINT
  5
1129
330
D27
100
AcDbEntity
  8
Defpoints
 62
     0
100
AcDbPoint
 10
-46.48953014779875
 20
-77.01420140080244
 30
0.0
  0
ENDBLK
  5
D48
330
D27
100
AcDbEntity
  8
0
100
AcDbBlockEnd
  0
BLOCK
  5
D49
330
D31
100
AcDbEntity
  8
0
100
AcDbBlockBegin
  2
*D74
 70
     1
 10
0.0
 20
0.0
 30
0.0
  3
*D74
  1

  0
LINE
  5
112A
330
D31
100
AcDbEntity
  8
AM_5
100
AcDbLine
 10
-60.47532974699629
 20
-65.01420040080247
 30
0.0
 11
-60.47532974699629
 21
-87.28793564373626
 31
0.0
  0
LINE
  5
112B
330
D31
100
AcDbEntity
  8
AM_5
100
AcDbLine
 10
-25.48953014779875
 20
-35.88749650718757
 30
0.0
 11
-25.48953014779875
 21
-87.28793564373626
 31
0.0
  0
LINE
  5
112C
330
D31
100
AcDbEntity
  8
AM_5
100
AcDbLine
 10
-57.97532974699629
 20
-86.28793564373626
 30
0.0
 11
-27.98953014779875
 21
-86.28793564373626
 31
0.0
  0
INSERT
  5
112D
330
D31
100
AcDbEntity
  8
AM_5
100
AcDbBlockReference
  2
_Open30
 10
-60.47532974699629
 20
-86.28793564373626
 30
0.0
 41
2.5
 42
2.5
 43
2.5
 50
180.0
  0
INSERT
  5
112E
330
D31
100
AcDbEntity
  8
AM_5
100
AcDbBlockReference
  2
_Open30
 10
-25.48953014779875
 20
-86.28793564373626
 30
0.0
 41
2.5
 42
2.5
 43
2.5
  0
MTEXT
  5
112F
330
D31
100
AcDbEntity
  8
AM_5
 62
     2
100
AcDbMText
 10
-42.98242994739752
 20
-82.88793564373625
 30
0.0
 40
3.799999999999999
 41
0.0
 71
     5
 72
     1
  1
35
 73
     1
 44
1.0
1001
ACAD
1000
MTEXTBEGIN
1070
    73
1070
     1
1070
    44
1040
1.0
1070
    74
1070
     0
1000
MTEXTEND
  0
POINT
  5
1130
330
D31
100
AcDbEntity
  8
Defpoints
 62
     0
100
AcDbPoint
 10
-60.47532974699629
 20
-65.01420040080247
 30
0.0
  0
POINT
  5
1131
330
D31
100
AcDbEntity
  8
Defpoints
 62
     0
100
AcDbPoint
 10
-25.48953014779875
 20
-35.88749650718757
 30
0.0
  0
POINT
  5
1132
330
D31
100
AcDbEntity
  8
Defpoints
 62
     0
100
AcDbPoint
 10
-25.48953014779875
 20
-86.28793564373626
 30
0.0
  0
ENDBLK
  5
D4A
330
D31
100
AcDbEntity
  8
0
100
AcDbBlockEnd
  0
BLOCK
  5
D4D
330
D4C
100
AcDbEntity
  8
0
100
AcDbBlockBegin
  2
ym
 70
     0
 10
0.0
 20
0.0
 30
0.0
  3
ym
  1

  0
LINE
  5
D4E
330
D4C
100
AcDbEntity
  8
6
100
AcDbLine
 10
2.399999999999977
 20
4.000000000000005
 30
0.0
 11
12.0
 21
4.0
 31
0.0
  0
LINE
  5
D4F
330
D4C
100
AcDbEntity
  8
6
100
AcDbLine
 10
-2.399999999999977
 20
3.999999999999994
 30
0.0
 11
2.399999999999977
 21
4.000000000000005
 31
0.0
  0
LINE
  5
D50
330
D4C
100
AcDbEntity
  8
6
100
AcDbLine
 10
-2.399999999999977
 20
3.999999999999994
 30
0.0
 11
0.0
 21
0.0
 31
0.0
  0
LINE
  5
D51
330
D4C
100
AcDbEntity
  8
6
100
AcDbLine
 10
0.0
 20
0.0
 30
0.0
 11
2.399999999999977
 21
4.000000000000005
 31
0.0
  0
LINE
  5
D52
330
D4C
100
AcDbEntity
  8
6
100
AcDbLine
 10
2.399999999999977
 20
4.000000000000005
 30
0.0
 11
4.800000000000011
 21
-0.0000000000000044
 31
0.0
  0
LINE
  5
D53
330
D4C
100
AcDbEntity
  8
6
100
AcDbLine
 10
7.199999999999988
 20
4.000000000000001
 30
0.0
 11
4.800000000000011
 21
-0.0000000000000044
 31
0.0
  0
LINE
  5
D54
330
D4C
100
AcDbEntity
  8
6
100
AcDbLine
 10
9.600000000000022
 20
0.0
 30
0.0
 11
7.199999999999988
 21
4.000000000000001
 31
0.0
  0
LINE
  5
D55
330
D4C
100
AcDbEntity
  8
6
100
AcDbLine
 10
12.0
 20
4.0
 30
0.0
 11
9.600000000000022
 21
0.0
 31
0.0
  0
ENDBLK
  5
D56
330
D4C
100
AcDbEntity
  8
0
100
AcDbBlockEnd
  0
BLOCK
  5
D58
330
D57
100
AcDbEntity
  8
0
100
AcDbBlockBegin
  2
*D76
 70
     1
 10
0.0
 20
0.0
 30
0.0
  3
*D76
  1

  0
LINE
  5
D59
330
D57
100
AcDbEntity
  8
AM_5
100
AcDbLine
 10
131.9427128891612
 20
181.6668033487945
 30
0.0
 11
162.5840521352732
 21
181.6668033487945
 31
0.0
  0
LINE
  5
D5A
330
D57
100
AcDbEntity
  8
AM_5
100
AcDbLine
 10
161.5840521352732
 20
179.1668033487945
 30
0.0
 11
161.5840521352732
 21
72.24956493683207
 31
0.0
  0
INSERT
  5
D5B
330
D57
100
AcDbEntity
  8
AM_5
100
AcDbBlockReference
  2
_Open30
 10
161.5840521352732
 20
181.6668033487945
 30
0.0
 41
2.5
 42
2.5
 43
2.5
 50
90.0
  0
MTEXT
  5
D5C
330
D57
100
AcDbEntity
  8
AM_5
 62
     2
100
AcDbMText
 10
158.1836781195251
 20
81.72706493683211
 30
0.0
 40
3.799999999999999
 41
0.0
 71
     5
 72
     1
  1
%%c200\H2.5;\A2;%%p0.1
 11
0.0000000000000001
 21
1.0
 31
0.0
 73
     1
 44
1.0
1001
ACAD
1000
MTEXTBEGIN
1070
    73
1070
     1
1070
    44
1040
1.0
1070
    74
1070
     0
1000
MTEXTEND
  0
POINT
  5
D5D
330
D57
100
AcDbEntity
  8
Defpoints
 62
     0
100
AcDbPoint
 10
131.9427128891612
 20
181.6668033487945
 30
0.0
  0
POINT
  5
D5E
330
D57
100
AcDbEntity
  8
Defpoints
 62
     0
100
AcDbPoint
 10
135.6794204125298
 20
81.66787482768995
 30
0.0
  0
POINT
  5
D5F
330
D57
100
AcDbEntity
  8
Defpoints
 62
     0
100
AcDbPoint
 10
161.5840521352732
 20
81.66787482768993
 30
0.0
  0
ENDBLK
  5
D60
330
D57
100
AcDbEntity
  8
0
100
AcDbBlockEnd
  0
BLOCK
  5
D62
330
D61
100
AcDbEntity
  8
0
100
AcDbBlockBegin
  2
*D77
 70
     1
 10
0.0
 20
0.0
 30
0.0
  3
*D77
  1

  0
LINE
  5
D63
330
D61
100
AcDbEntity
  8
AM_5
100
AcDbLine
 10
106.7214258891613
 20
132.4678748276899
 30
0.0
 11
144.6681314241635
 21
132.4678748276899
 31
0.0
  0
LINE
  5
D64
330
D61
100
AcDbEntity
  8
AM_5
100
AcDbLine
 10
143.6681314241635
 20
129.9678748276899
 30
0.0
 11
143.6681314241635
 21
72.63857917427877
 31
0.0
  0
INSERT
  5
D65
330
D61
100
AcDbEntity
  8
AM_5
100
AcDbBlockReference
  2
_Open30
 10
143.6681314241635
 20
132.4678748276899
 30
0.0
 41
2.5
 42
2.5
 43
2.5
 50
90.0
  0
MTEXT
  5
D66
330
D61
100
AcDbEntity
  8
AM_5
 62
     2
100
AcDbMText
 10
140.2417048378235
 20
84.87283114278273
 30
0.0
 40
3.799999999999999
 41
0.0
 71
     5
 72
     1
  1
P.C.D.101.6
 11
0.0000000000000001
 21
1.0
 31
0.0
 73
     1
 44
1.0
1001
ACAD
1000
MTEXTBEGIN
1070
    73
1070
     1
1070
    44
1040
1.0
1070
    74
1070
     0
1000
MTEXTEND
  0
POINT
  5
D67
330
D61
100
AcDbEntity
  8
Defpoints
 62
     0
100
AcDbPoint
 10
106.7214258891613
 20
132.4678748276899
 30
0.0
  0
POINT
  5
D68
330
D61
100
AcDbEntity
  8
Defpoints
 62
     0
100
AcDbPoint
 10
135.6794204125298
 20
81.66787482768995
 30
0.0
  0
POINT
  5
D69
330
D61
100
AcDbEntity
  8
Defpoints
 62
     0
100
AcDbPoint
 10
143.6681314241635
 20
81.66787482768995
 30
0.0
  0
ENDBLK
  5
D6A
330
D61
100
AcDbEntity
  8
0
100
AcDbBlockEnd
  0
BLOCK
  5
D6C
330
D6B
100
AcDbEntity
  8
0
100
AcDbBlockBegin
  2
*D78
 70
     1
 10
0.0
 20
0.0
 30
0.0
  3
*D78
  1

  0
LINE
  5
D6D
330
D6B
100
AcDbEntity
  8
AM_5
100
AcDbLine
 10
68.92742588916116
 20
145.2749310406056
 30
0.0
 11
68.92742588916116
 21
173.8227499739353
 31
0.0
  0
LINE
  5
D6E
330
D6B
100
AcDbEntity
  8
AM_5
100
AcDbLine
 10
83.92742588916116
 20
156.6678748276898
 30
0.0
 11
83.92742588916116
 21
173.8227499739353
 31
0.0
  0
LINE
  5
D6F
330
D6B
100
AcDbEntity
  8
AM_5
100
AcDbLine
 10
71.42742588916116
 20
172.8227499739353
 30
0.0
 11
81.42742588916116
 21
172.8227499739353
 31
0.0
  0
INSERT
  5
D70
330
D6B
100
AcDbEntity
  8
AM_5
100
AcDbBlockReference
  2
_Open30
 10
68.92742588916116
 20
172.8227499739353
 30
0.0
 41
2.5
 42
2.5
 43
2.5
 50
180.0
  0
INSERT
  5
D71
330
D6B
100
AcDbEntity
  8
AM_5
100
AcDbBlockReference
  2
_Open30
 10
83.92742588916116
 20
172.8227499739353
 30
0.0
 41
2.5
 42
2.5
 43
2.5
  0
MTEXT
  5
D72
330
D6B
100
AcDbEntity
  8
AM_5
 62
     2
100
AcDbMText
 10
76.9072381478993
 20
176.4127499739353
 30
0.0
 40
3.799999999999999
 41
0.0
 71
     5
 72
     1
  1
(15)
 73
     1
 44
1.0
1001
ACAD
1000
MTEXTBEGIN
1070
    73
1070
     1
1070
    44
1040
1.0
1070
    74
1070
     0
1000
MTEXTEND
  0
POINT
  5
D73
330
D6B
100
AcDbEntity
  8
Defpoints
 62
     0
100
AcDbPoint
 10
68.92742588916116
 20
145.2749310406056
 30
0.0
  0
POINT
  5
D74
330
D6B
100
AcDbEntity
  8
Defpoints
 62
     0
100
AcDbPoint
 10
83.92742588916116
 20
156.6678748276898
 30
0.0
  0
POINT
  5
D75
330
D6B
100
AcDbEntity
  8
Defpoints
 62
     0
100
AcDbPoint
 10
83.92742588916116
 20
172.8227499739353
 30
0.0
  0
ENDBLK
  5
D76
330
D6B
100
AcDbEntity
  8
0
100
AcDbBlockEnd
  0
BLOCK
  5
10A5
330
107B
100
AcDbEntity
  8
0
100
AcDbBlockBegin
  2
*D97
 70
     1
 10
0.0
 20
0.0
 30
0.0
  3
*D97
  1

  0
LINE
  5
1133
330
107B
100
AcDbEntity
  8
AM_5
100
AcDbLine
 10
-60.4895301477988
 20
64.99999999999989
 30
0.0
 11
-60.48953014779879
 21
127.1600053761874
 31
0.0
  0
LINE
  5
1134
330
107B
100
AcDbEntity
  8
AM_5
100
AcDbLine
 10
2.510469852201197
 20
100.0
 30
0.0
 11
2.510469852201199
 21
127.1600053761874
 31
0.0
  0
LINE
  5
1135
330
107B
100
AcDbEntity
  8
AM_5
100
AcDbLine
 10
-57.98953014779879
 20
126.1600053761874
 30
0.0
 11
0.010469852201199
 21
126.1600053761874
 31
0.0
  0
INSERT
  5
1136
330
107B
100
AcDbEntity
  8
AM_5
100
AcDbBlockReference
  2
_Open30
 10
-60.48953014779879
 20
126.1600053761874
 30
0.0
 41
2.5
 42
2.5
 43
2.5
 50
180.0
  0
INSERT
  5
1137
330
107B
100
AcDbEntity
  8
AM_5
100
AcDbBlockReference
  2
_Open30
 10
2.510469852201199
 20
126.1600053761874
 30
0.0
 41
2.5
 42
2.5
 43
2.5
  0
MTEXT
  5
1138
330
107B
100
AcDbEntity
  8
AM_5
 62
     2
100
AcDbMText
 10
-28.9895301477988
 20
129.5600053761874
 30
0.0
 40
3.799999999999999
 41
0.0
 71
     5
 72
     1
  1
63
 73
     1
 44
1.0
1001
ACAD
1000
MTEXTBEGIN
1070
    73
1070
     1
1070
    44
1040
1.0
1070
    74
1070
     0
1000
MTEXTEND
  0
POINT
  5
1139
330
107B
100
AcDbEntity
  8
Defpoints
 62
     0
100
AcDbPoint
 10
-60.4895301477988
 20
64.99999999999989
 30
0.0
  0
POINT
  5
113A
330
107B
100
AcDbEntity
  8
Defpoints
 62
     0
100
AcDbPoint
 10
2.510469852201197
 20
100.0
 30
0.0
  0
POINT
  5
113B
330
107B
100
AcDbEntity
  8
Defpoints
 62
     0
100
AcDbPoint
 10
2.510469852201199
 20
126.1600053761874
 30
0.0
  0
ENDBLK
  5
10A6
330
107B
100
AcDbEntity
  8
0
100
AcDbBlockEnd
  0
ENDSEC
  0
SECTION
  2
ENTITIES
  0
DIMENSION
  5
AE7
330
1F
100
AcDbEntity
  8
AM_5
100
AcDbDimension
  2
*D56
 10
33.94392296080866
 20
-0.0000000000000078
 30
0.0
 11
33.94392296080866
 21
0.8424510540476148
 31
0.0
 70
   160
  1
%%c<>
 71
     5
 42
199.9999999999999
  3
AM_JIS$0
100
AcDbAlignedDimension
 13
2.531477507714328
 23
99.99999999999994
 33
0.0
 14
6.262464375569948
 24
0.0
 34
0.0
 50
90.0
100
AcDbRotatedDimension
1001
ACAD
1000
DSTYLE
1002
{
1070
    47
1040
0.4
1070
    48
1040
0.2
1070
    76
1070
     1
1070
   144
1040
2.0
1070
   179
1070
     0
1070
   271
1070
     0
1070
   282
1070
     1
1002
}
  0
LINE
  5
AE8
330
1F
100
AcDbEntity
  8
0
100
AcDbLine
 10
-12.79386080331113
 20
94.29024868268902
 30
0.0
 11
-5.660036803311129
 21
93.98917368268895
 31
0.0
  0
LINE
  5
AE9
330
1F
100
AcDbEntity
  8
0
100
AcDbLine
 10
-5.660036803311129
 20
93.98917368268895
 30
0.0
 11
1.473787196688874
 21
93.68809968268896
 31
0.0
  0
LINE
  5
AEA
330
1F
100
AcDbEntity
  8
0
100
AcDbLine
 10
-13.36487819317762
 20
99.74947631987356
 30
0.0
 11
-13.37721780331111
 21
99.60115668268919
 31
0.0
  0
LINE
  5
AEB
330
1F
100
AcDbEntity
  8
0
100
AcDbLine
 10
-13.37721780331111
 20
99.60115668268919
 30
0.0
 11
-13.53394180331105
 21
97.56854368268887
 31
0.0
  0
LINE
  5
AEC
330
1F
100
AcDbEntity
  8
0
100
AcDbLine
 10
-13.53394180331105
 20
97.56854368268887
 30
0.0
 11
-13.53619980331103
 21
97.53926268268902
 31
0.0
  0
LINE
  5
AED
330
1F
100
AcDbEntity
  8
0
100
AcDbLine
 10
-13.53619980331103
 20
97.53926268268902
 30
0.0
 11
-13.53926280331114
 21
97.49953368268917
 31
0.0
  0
LINE
  5
AEE
330
1F
100
AcDbEntity
  8
0
100
AcDbLine
 10
-13.5570678033111
 20
95.09522668268891
 30
0.0
 11
-13.53977280331099
 21
97.43077168268905
 31
0.0
  0
LINE
  5
AEF
330
1F
100
AcDbEntity
  8
0
100
AcDbLine
 10
-13.53977280331099
 20
97.43077168268905
 30
0.0
 11
-13.53957980331114
 21
97.45676568268891
 31
0.0
  0
LINE
  5
AF0
330
1F
100
AcDbEntity
  8
0
100
AcDbLine
 10
-13.53957980331114
 20
97.45676568268891
 30
0.0
 11
-13.53926280331114
 21
97.49953368268917
 31
0.0
  0
SPLINE
  5
AF1
330
1F
100
AcDbEntity
  8
0
100
AcDbSpline
210
0.0
220
0.0
230
1.0
 70
     8
 71
     3
 72
    11
 73
     7
 74
     5
 42
0.0000000001
 43
0.0000000001
 44
0.0000000001
 40
0.0
 40
0.0
 40
0.0
 40
0.0
 40
0.0407986572448416
 40
0.0814906228524067
 40
0.1221807014957446
 40
0.1629738636678083
 40
0.1629738636678083
 40
0.1629738636678083
 40
0.1629738636678083
 10
-13.5570678033111
 20
95.09522668268891
 30
0.0
 10
-13.55696959573703
 20
95.08162420682984
 30
0.0
 10
-13.55677343740939
 20
95.05445482663578
 30
0.0
 10
-13.55383320197501
 20
95.01381145307055
 30
0.0
 10
-13.54911957873622
 20
94.9733371834335
 30
0.0
 10
-13.54422845768675
 20
94.94661345223418
 30
0.0
 10
-13.54177980331104
 20
94.9332346826891
 30
0.0
 11
-13.5570678033111
 21
95.09522668268891
 31
0.0
 11
-13.55633080331125
 21
95.05443468268913
 31
0.0
 11
-13.55353780331069
 21
95.01383868268908
 31
0.0
 11
-13.54868780331134
 21
94.97343868268899
 31
0.0
 11
-13.54177980331104
 21
94.9332346826891
 31
0.0
  0
SPLINE
  5
AF2
330
1F
100
AcDbEntity
  8
0
100
AcDbSpline
210
0.0
220
0.0
230
1.0
 70
     8
 71
     3
 72
    11
 73
     7
 74
     5
 42
0.0000000001
 43
0.0000000001
 44
0.0000000001
 40
0.0
 40
0.0
 40
0.0
 40
0.0
 40
0.2650406375671344
 40
0.5297807496789189
 40
0.794200791449689
 40
1.058417038130242
 40
1.058417038130242
 40
1.058417038130242
 40
1.058417038130242
 10
-13.54177980331104
 20
94.9332346826891
 30
0.0
 10
-13.51612039236369
 20
94.84775527436836
 30
0.0
 10
-13.46483066527588
 20
94.67689338149808
 30
0.0
 10
-13.28737076544945
 20
94.47189921291471
 30
0.0
 10
-13.05829087986689
 20
94.32724596902545
 30
0.0
 10
-12.88198150576358
 20
94.30257794153607
 30
0.0
 10
-12.79386080331113
 20
94.29024868268902
 30
0.0
 11
-13.54177980331104
 21
94.9332346826891
 31
0.0
 11
-13.44801080331098
 21
94.68533568268913
 31
0.0
 11
-13.27865080331111
 21
94.48185468268912
 31
0.0
 11
-13.05230980331106
 21
94.345151682689
 31
0.0
 11
-12.79386080331113
 21
94.29024868268902
 31
0.0
  0
SPLINE
  5
AF3
330
1F
100
AcDbEntity
  8
0
100
AcDbSpline
210
0.0
220
0.0
230
1.0
 70
     8
 71
     3
 72
    11
 73
     7
 74
     5
 42
0.0000000001
 43
0.0000000001
 44
0.0000000001
 40
0.0
 40
0.0
 40
0.0
 40
0.0
 40
0.2650406375671344
 40
0.5297807496789189
 40
0.7942007914495714
 40
1.05750352189121
 40
1.05750352189121
 40
1.05750352189121
 40
1.05750352189121
 10
2.489462196688975
 20
99.38946568268921
 30
0.0
 10
2.463809577250628
 20
99.47497831954672
 30
0.0
 10
2.412533425479921
 20
99.64590663181326
 30
0.0
 10
2.234971840261835
 20
99.85040328845954
 30
0.0
 10
2.006541043562776
 20
99.99677521264167
 30
0.0
 10
1.829620735803416
 20
100.0168447891025
 30
0.0
 10
1.7413478725569
 20
100.0268583313623
 30
0.0
 11
2.489462196688975
 21
99.38946568268921
 31
0.0
 11
2.39569319668891
 21
99.63736468268917
 31
0.0
 11
2.22633319668904
 21
99.84084568268919
 31
0.0
 11
1.999992196688992
 21
99.97754868268907
 31
0.0
 11
1.7413478725569
 21
100.0268583313623
 31
0.0
  0
SPLINE
  5
AF4
330
1F
100
AcDbEntity
  8
0
100
AcDbSpline
210
0.0
220
0.0
230
1.0
 70
     8
 71
     3
 72
    11
 73
     7
 74
     5
 42
0.0000000001
 43
0.0000000001
 44
0.0000000001
 40
0.0
 40
0.0
 40
0.0
 40
0.0
 40
0.0407986391932297
 40
0.0814906734503863
 40
0.1221807520938326
 40
0.1629737449358624
 40
0.1629737449358624
 40
0.1629737449358624
 40
0.1629737449358624
 10
2.504749196689147
 20
99.22747368268893
 30
0.0
 10
2.504651518813432
 20
99.24107616693753
 30
0.0
 10
2.504456418289748
 20
99.26824559277958
 30
0.0
 10
2.501514240077597
 20
99.30888887563916
 30
0.0
 10
2.496800827180379
 20
99.34936308788236
 30
0.0
 10
2.491910465716557
 20
99.37608690024394
 30
0.0
 10
2.489462196688975
 20
99.38946568268921
 30
0.0
 11
2.504749196689147
 21
99.22747368268893
 31
0.0
 11
2.504013196689186
 21
99.26826568268916
 31
0.0
 11
2.501219196689191
 21
99.30886168268898
 31
0.0
 11
2.496369196688931
 21
99.34926168268908
 31
0.0
 11
2.489462196688975
 21
99.38946568268921
 31
0.0
  0
SPLINE
  5
AF5
330
1F
100
AcDbEntity
  8
0
100
AcDbSpline
210
0.0
220
0.0
230
1.0
 70
     8
 71
     3
 72
    11
 73
     7
 74
     5
 42
0.0000000001
 43
0.0000000001
 44
0.0000000001
 40
0.0
 40
0.0
 40
0.0
 40
0.0
 40
0.0407919769564545
 40
0.0814824091609861
 40
0.1221741315623207
 40
0.1629728995096463
 40
0.1629728995096463
 40
0.1629728995096463
 40
0.1629728995096463
 10
2.273223196688661
 20
94.26578168268907
 30
0.0
 10
2.276790031099437
 20
94.2789062498079
 30
0.0
 10
2.283914820888014
 20
94.30512271264763
 30
0.0
 10
2.292022128597693
 20
94.34505546862769
 30
0.0
 10
2.298377208850695
 20
94.3853065474615
 30
0.0
 10
2.300861446315309
 20
94.41236279062636
 30
0.0
 10
2.302105196689183
 20
94.42590868268917
 30
0.0
 11
2.273223196688661
 21
94.26578168268907
 31
0.0
 11
2.28349319668888
 21
94.30525968268922
 31
0.0
 11
2.291730196688888
 21
94.34510768268911
 31
0.0
 11
2.297934196688686
 21
94.38532368268898
 31
0.0
 11
2.302105196689183
 21
94.42590868268917
 31
0.0
  0
SPLINE
  5
AF6
330
1F
100
AcDbEntity
  8
0
100
AcDbSpline
210
0.0
220
0.0
230
1.0
 70
     8
 71
     3
 72
    11
 73
     7
 74
     5
 42
0.0000000001
 43
0.0000000001
 44
0.0000000001
 40
0.0
 40
0.0
 40
0.0
 40
0.0
 40
0.2642162354911864
 40
0.5286359477520017
 40
0.793376672901661
 40
1.058417590531351
 40
1.058417590531351
 40
1.058417590531351
 40
1.058417590531351
 10
1.473787196688874
 20
93.68809968268896
 30
0.0
 10
1.562633411496051
 20
93.69296003160688
 30
0.0
 10
1.740394262873962
 20
93.70268447246814
 30
0.0
 10
1.980847544371101
 20
93.82752217881279
 30
0.0
 10
2.174948904020595
 20
94.01683506618775
 30
0.0
 10
2.240452726893806
 20
94.18276813606254
 30
0.0
 10
2.273223196688661
 20
94.26578168268907
 30
0.0
 11
1.473787196688874
 21
93.68809968268896
 31
0.0
 11
1.735943196689106
 21
93.72103068268916
 31
0.0
 11
1.972997196689277
 21
93.83817668268921
 31
0.0
 11
2.158900196688875
 21
94.02666468268899
 31
0.0
 11
2.273223196688661
 21
94.26578168268907
 31
0.0
  0
LINE
  5
AF7
330
1F
100
AcDbEntity
  8
0
100
AcDbLine
 10
2.504749196689147
 20
99.22747368268893
 30
0.0
 11
2.487454196689043
 21
96.89192968268891
 31
0.0
  0
LINE
  5
AF8
330
1F
100
AcDbEntity
  8
0
100
AcDbLine
 10
2.487454196689043
 20
96.89192968268891
 30
0.0
 11
2.487262196689073
 21
96.86593468268894
 31
0.0
  0
LINE
  5
AF9
330
1F
100
AcDbEntity
  8
0
100
AcDbLine
 10
2.487262196689073
 20
96.86593468268894
 30
0.0
 11
2.486945196689077
 21
96.82316668268914
 31
0.0
  0
LINE
  5
AFA
330
1F
100
AcDbEntity
  8
0
100
AcDbLine
 10
2.483882196688966
 20
96.78343768268906
 30
0.0
 11
2.486945196689077
 21
96.82316668268914
 31
0.0
  0
LINE
  5
AFB
330
1F
100
AcDbEntity
  8
0
100
AcDbLine
 10
2.481624196688983
 20
96.75415668268897
 30
0.0
 11
2.483882196688966
 21
96.78343768268906
 31
0.0
  0
LINE
  5
AFC
330
1F
100
AcDbEntity
  8
0
100
AcDbLine
 10
2.324900196689043
 20
94.72154368268911
 30
0.0
 11
2.481624196688983
 21
96.75415668268897
 31
0.0
  0
LINE
  5
AFD
330
1F
100
AcDbEntity
  8
0
100
AcDbLine
 10
2.302621196689244
 20
94.43260368268921
 30
0.0
 11
2.324900196689043
 21
94.72154368268911
 31
0.0
  0
LINE
  5
AFE
330
1F
100
AcDbEntity
  8
0
100
AcDbLine
 10
2.302105196689183
 20
94.42590868268917
 30
0.0
 11
2.302621196689244
 21
94.43260368268921
 31
0.0
  0
LINE
  5
AFF
330
1F
100
AcDbEntity
  8
AM_5
100
AcDbLine
 10
1.552264890900289
 20
100.0334612545796
 30
0.0
 11
2.510469852201197
 21
100.0
 31
0.0
  0
LINE
  5
B00
330
1F
100
AcDbEntity
  8
AM_5
100
AcDbLine
 10
2.510469852201197
 20
100.0
 30
0.0
 11
2.502740644207108
 21
98.9562355967023
 31
0.0
  0
LINE
  5
B01
102
{ACAD_REACTORS
330
1086
102
}
330
1F
100
AcDbEntity
  8
AM_5
100
AcDbLine
 10
2.510469852201197
 20
100.0
 30
0.0
 11
2.510469852201197
 21
103.4527015165809
 31
0.0
  0
LINE
  5
B02
102
{ACAD_REACTORS
330
B05
102
}
330
1F
100
AcDbEntity
  8
0
100
AcDbLine
 10
-12.55780243184125
 20
100.5261956630709
 30
0.0
 11
1.552264890900289
 21
100.0334612545796
 31
0.0
  0
DIMENSION
  5
B03
102
{ACAD_XDICTIONARY
360
B04
102
}
102
{ACAD_REACTORS
330
B05
102
}
330
1F
100
AcDbEntity
  8
AM_5
100
AcDbDimension
  2
*D57
 10
1.552264890900289
 20
100.0334612545796
 30
0.0
 11
-14.52799469041734
 21
117.6438465343283
 31
0.0
 70
    34
 71
     5
 42
1.535889741754954
  3
AM_JIS$2
100
AcDb2LineAngularDimension
 13
2.510469852201197
 23
100.0
 33
0.0
 14
2.510469852201197
 24
400.0
 34
0.0
 15
-12.55780243184125
 25
100.5261956630709
 35
0.0
 16
-8.084783190441555
 26
118.8548077615716
 36
0.0
1001
ACAD_DIMASSOC_DIMLFAC
1040
1.0
1001
ACAD_DIMASSOC_CALC_DIMLFAC
1040
1.0
1001
ACAD_DIMASSOC_OVERRIDDEN_DIMLFAC
1040
1.0
1001
ACAD
1000
DSTYLE
1002
{
1070
   144
1040
1.0
1070
    75
1070
     0
1070
    76
1070
     0
1070
   179
1070
     0
1002
}
  0
ARC
  5
B06
330
1F
100
AcDbEntity
  8
0
100
AcDbCircle
 10
-12.56508834946743
 20
99.7260973659902
 30
0.0
 40
0.8001314701891699
100
AcDbArc
 50
89.47826311720815
 51
178.3256425840169
  0
LINE
  5
C41
330
1F
100
AcDbEntity
  8
AM_0
100
AcDbLine
 10
-59.48953014779874
 20
65.99999999999994
 30
0.0
 11
-59.48953014779874
 21
72.99999999999991
 31
0.0
  0
LINE
  5
C42
330
1F
100
AcDbEntity
  8
AM_0
100
AcDbLine
 10
-56.48953014779874
 20
74.99999999999994
 30
0.0
 11
-47.81568316089362
 21
74.99999999999994
 31
0.0
  0
LINE
  5
C43
102
{ACAD_REACTORS
330
C74
102
}
330
1F
100
AcDbEntity
  8
AM_0
100
AcDbLine
 10
-25.48953014779875
 20
64.99999999999994
 30
0.0
 11
-14.91566983338896
 21
64.99999999999997
 31
0.0
  0
LINE
  5
C44
330
1F
100
AcDbEntity
  8
AM_0
100
AcDbLine
 10
-25.48953014779875
 20
64.99999999999994
 30
0.0
 11
-25.48953014779875
 21
50.79999999999998
 31
0.0
  0
LINE
  5
C45
330
1F
100
AcDbEntity
  8
AM_5
  6
ACISOTGB
 62
     6
100
AcDbLine
 10
-25.98953014779875
 20
59.79999999999995
 30
0.0
 11
-25.48953014779875
 21
60.29999999999995
 31
0.0
  0
LINE
  5
C47
330
1F
100
AcDbEntity
  8
AM_0
100
AcDbLine
 10
-60.4895301477988
 20
40.59999999999985
 30
0.0
 11
-60.4895301477988
 21
64.99999999999989
 31
0.0
  0
LINE
  5
C48
330
1F
100
AcDbEntity
  8
AM_5
  6
ACISOTGB
 62
     6
100
AcDbLine
 10
-59.48953014779874
 20
59.79999999999998
 30
0.0
 11
-60.4895301477988
 21
60.79999999999998
 31
0.0
  0
LINE
  5
C49
330
1F
100
AcDbEntity
  8
AM_0
100
AcDbLine
 10
-59.48953014779897
 20
12.6999999999999
 30
0.0
 11
-60.48953014779903
 21
13.69999999999972
 31
0.0
  0
LINE
  5
C4A
330
1F
100
AcDbEntity
  8
AM_0
100
AcDbLine
 10
-58.98953014779869
 20
23.81250000000007
 30
0.0
 11
-60.48953014779886
 21
25.31250000000077
 31
0.0
  0
LINE
  5
C4B
102
{ACAD_REACTORS
330
C83
330
1086
102
}
330
1F
100
AcDbEntity
  8
AM_0
100
AcDbLine
 10
-59.48953014779874
 20
65.99999999999994
 30
0.0
 11
-60.4895301477988
 21
64.99999999999989
 31
0.0
  0
LINE
  5
C4C
330
1F
100
AcDbEntity
  8
AM_0
100
AcDbLine
 10
-46.48953014779874
 20
-12.70000000000004
 30
0.0
 11
-46.48953014779874
 21
12.69999999999993
 31
0.0
  0
LINE
  5
C4D
102
{ACAD_REACTORS
330
C7D
102
}
330
1F
100
AcDbEntity
  8
AM_0
100
AcDbLine
 10
-46.48953014779874
 20
12.69999999999993
 30
0.0
 11
-59.48953014779897
 21
12.6999999999999
 31
0.0
  0
LINE
  5
C4E
102
{ACAD_REACTORS
330
C86
102
}
330
1F
100
AcDbEntity
  8
AM_0
100
AcDbLine
 10
-46.48953014779874
 20
-12.70000000000004
 30
0.0
 11
-59.48953014779874
 21
-12.70000000000002
 31
0.0
  0
LINE
  5
C4F
102
{ACAD_REACTORS
330
C7D
102
}
330
1F
100
AcDbEntity
  8
AM_0
100
AcDbLine
 10
-60.48953014779854
 20
-13.70000000000027
 30
0.0
 11
-59.48953014779874
 21
-12.70000000000002
 31
0.0
  0
LINE
  5
C51
102
{ACAD_REACTORS
330
C74
330
C77
330
C7A
102
}
330
1F
100
AcDbEntity
  8
AM_7
100
AcDbLine
 10
-66.7212302529073
 20
0.0000000000000568
 30
0.0
 11
6.262464375569948
 21
0.0
 31
0.0
1001
GENIUS_GENOBJ-N-CEN_13
1002
{
1000
OWNER
1000
GEN
1002
}
1001
GENIUS_GENODEF_13
1002
{
1000
HIER
1070
     0
1002
}
1002
{
1000
MANEDIT
1070
     0
1002
}
1002
{
1000
NOSEL
1070
     0
1002
}
1002
{
1000
BEHIND
1070
     0
1002
}
1002
{
1000
OTHER
1070
     0
1002
}
1002
{
1000
REACTOR
1002
}
1001
GENIUS_GENCEN_19
1002
{
1040
2.794
1002
}
  0
LINE
  5
C52
102
{ACAD_REACTORS
330
C74
330
C77
330
C7A
102
}
330
1F
100
AcDbEntity
  8
AM_0
100
AcDbLine
 10
-58.98953014779874
 20
-23.81249999999995
 30
0.0
 11
-26.48953014779875
 21
-23.81249999999997
 31
0.0
1001
GENIUS_GENOBJ-N-CEN_13
1002
{
1000
OWNER
1000
GEN
1002
}
1001
GENIUS_GENODEF_13
1002
{
1000
HIER
1070
     0
1002
}
1002
{
1000
MANEDIT
1070
     0
1002
}
1002
{
1000
NOSEL
1070
     0
1002
}
1002
{
1000
BEHIND
1070
     0
1002
}
1002
{
1000
OTHER
1070
     0
1002
}
1002
{
1000
REACTOR
1002
}
1001
GENIUS_GENCEN_19
1002
{
1040
2.794
1002
}
  0
LINE
  5
C53
330
1F
100
AcDbEntity
  8
AM_0
100
AcDbLine
 10
-58.98953014779869
 20
23.81250000000007
 30
0.0
 11
-26.48953014779875
 21
23.81250000000001
 31
0.0
1001
GENIUS_GENOBJ-N-CEN_13
1002
{
1000
OWNER
1000
GEN
1002
}
1001
GENIUS_GENODEF_13
1002
{
1000
HIER
1070
     0
1002
}
1002
{
1000
MANEDIT
1070
     0
1002
}
1002
{
1000
NOSEL
1070
     0
1002
}
1002
{
1000
BEHIND
1070
     0
1002
}
1002
{
1000
OTHER
1070
     0
1002
}
1002
{
1000
REACTOR
1002
}
1001
GENIUS_GENCEN_19
1002
{
1040
2.794
1002
}
  0
LINE
  5
C54
102
{ACAD_REACTORS
330
C86
330
C89
102
}
330
1F
100
AcDbEntity
  8
AM_0
100
AcDbLine
 10
-60.48953014779854
 20
-13.70000000000027
 30
0.0
 11
-60.47532974699629
 21
-65.01420040080247
 31
0.0
  0
LINE
  5
C55
330
1F
100
AcDbEntity
  8
AM_0
100
AcDbLine
 10
-58.98953014779869
 20
23.81250000000007
 30
0.0
 11
-58.98953014779852
 21
12.69999999999987
 31
0.0
  0
LINE
  5
C57
330
1F
100
AcDbEntity
  8
AM_0
100
AcDbLine
 10
-58.98953014779874
 20
-23.81249999999995
 30
0.0
 11
-60.48953014779877
 21
-25.31250000000009
 31
0.0
  0
LINE
  5
C59
330
1F
100
AcDbEntity
  8
AM_0
100
AcDbLine
 10
-58.98953014779874
 20
-23.81249999999995
 30
0.0
 11
-58.98953014779852
 21
-12.69999999999993
 31
0.0
  0
LINE
  5
C5A
330
1F
100
AcDbEntity
  8
AM_0
100
AcDbLine
 10
-45.65779561097985
 20
23.81250000000012
 30
0.0
 11
-45.65779561097985
 21
-23.81249999999996
 31
0.0
  0
LINE
  5
C5B
102
{ACAD_REACTORS
330
C77
102
}
330
1F
100
AcDbEntity
  8
AM_7
100
AcDbLine
 10
-63.48353014779888
 20
50.79999999999995
 30
0.0
 11
-22.69553014779865
 21
50.79999999999995
 31
0.0
1001
GENIUS_GENODEF_13
1002
{
1000
HIER
1070
     0
1002
}
1002
{
1000
MANEDIT
1070
     0
1002
}
1002
{
1000
NOSEL
1070
     0
1002
}
1002
{
1000
BEHIND
1070
     0
1002
}
1002
{
1000
OTHER
1070
     0
1002
}
1002
{
1000
REACTOR
1002
}
1001
GENIUS_GENOBJ-N-CEN_13
1002
{
1000
OWNER
1000
GEN
1002
}
1001
GENIUS_GENCEN_19
1002
{
1040
2.794
1002
}
  0
LINE
  5
C5C
330
1F
100
AcDbEntity
  8
AM_5
  6
ACISOTGB
 62
     6
100
AcDbLine
 10
-59.48953014779874
 20
41.79999999999995
 30
0.0
 11
-25.98953014779875
 21
41.79999999999995
 31
0.0
1001
GENIUS_GENODEF_13
1002
{
1000
HIER
1070
     0
1002
}
1002
{
1000
MANEDIT
1070
     0
1002
}
1002
{
1000
NOSEL
1070
     0
1002
}
1002
{
1000
BEHIND
1070
     0
1002
}
1002
{
1000
OTHER
1070
     0
1002
}
1002
{
1000
REACTOR
1002
}
1001
GENIUS_GENOBJ-N-CEN_13
1002
{
1000
OWNER
1000
GEN
1002
}
1001
GENIUS_GENCEN_19
1002
{
1040
2.794
1002
}
  0
LINE
  5
C5D
330
1F
100
AcDbEntity
  8
AM_5
  6
ACISOTGB
 62
     6
100
AcDbLine
 10
-60.4895301477988
 20
40.79999999999995
 30
0.0
 11
-59.48953014779874
 21
41.79999999999995
 31
0.0
1001
GENIUS_GENODEF_13
1002
{
1000
HIER
1070
     0
1002
}
1002
{
1000
MANEDIT
1070
     0
1002
}
1002
{
1000
NOSEL
1070
     0
1002
}
1002
{
1000
BEHIND
1070
     0
1002
}
1002
{
1000
OTHER
1070
     0
1002
}
1002
{
1000
REACTOR
1002
}
1001
GENIUS_GENOBJ-N-CEN_13
1002
{
1000
OWNER
1000
GEN
1002
}
1001
GENIUS_GENCEN_19
1002
{
1040
2.794
1002
}
  0
LINE
  5
C5E
330
1F
100
AcDbEntity
  8
AM_5
  6
ACISOTGB
 62
     6
100
AcDbLine
 10
-59.48953014779874
 20
59.79999999999998
 30
0.0
 11
-25.98953014779875
 21
59.79999999999995
 31
0.0
1001
GENIUS_GENODEF_13
1002
{
1000
HIER
1070
     0
1002
}
1002
{
1000
MANEDIT
1070
     0
1002
}
1002
{
1000
NOSEL
1070
     0
1002
}
1002
{
1000
BEHIND
1070
     0
1002
}
1002
{
1000
OTHER
1070
     0
1002
}
1002
{
1000
REACTOR
1002
}
1001
GENIUS_GENOBJ-N-CEN_13
1002
{
1000
OWNER
1000
GEN
1002
}
1001
GENIUS_GENCEN_19
1002
{
1040
2.794
1002
}
  0
LINE
  5
C5F
330
1F
100
AcDbEntity
  8
AM_0
100
AcDbLine
 10
-60.48953014779903
 20
13.6999999999997
 30
0.0
 11
-60.4895301477988
 21
40.59999999999996
 31
0.0
  0
LINE
  5
C60
330
1F
100
AcDbEntity
  8
AM_5
  6
ACISOTGB
 62
     6
100
AcDbLine
 10
-59.48953014779874
 20
59.79999999999998
 30
0.0
 11
-59.48953014779897
 21
41.79999999999992
 31
0.0
  0
LINE
  5
C61
102
{ACAD_REACTORS
330
C89
102
}
330
1F
100
AcDbEntity
  8
AM_0
100
AcDbLine
 10
-25.48953014779875
 20
-35.88749650718757
 30
0.0
 11
-25.48953014779875
 21
-0.0000000000000284
 31
0.0
  0
ARC
  5
C62
330
1F
100
AcDbEntity
  8
AM_0
100
AcDbCircle
 10
-26.48953014779875
 20
-24.81249999999999
 30
0.0
 40
1.0
100
AcDbArc
 50
0.0
 51
90.0
  0
LINE
  5
C63
330
1F
100
AcDbEntity
  8
AM_0
100
AcDbLine
 10
-25.48953014779875
 20
-0.0000000000000284
 30
0.0
 11
-25.48953014779875
 21
50.79999999999998
 31
0.0
  0
ARC
  5
C64
330
1F
100
AcDbEntity
  8
AM_0
100
AcDbCircle
 10
-26.48953014779875
 20
24.81250000000005
 30
0.0
 40
1.0
100
AcDbArc
 50
270.0
 51
0.0
  0
LINE
  5
C65
330
1F
100
AcDbEntity
  8
AM_5
  6
ACISOTGB
 62
     6
100
AcDbLine
 10
-25.98953014779875
 20
41.79999999999995
 30
0.0
 11
-25.48953014779875
 21
41.29999999999995
 31
0.0
  0
LINE
  5
C66
330
1F
100
AcDbEntity
  8
AM_5
  6
ACISOTGB
 62
     6
100
AcDbLine
 10
-25.98953014779875
 20
59.79999999999995
 30
0.0
 11
-25.98953014779875
 21
41.79999999999995
 31
0.0
  0
LINE
  5
C67
330
1F
100
AcDbEntity
  8
AM_0
100
AcDbLine
 10
-15.93569082949113
 20
99.09999999999991
 30
0.0
 11
-14.50998246538512
 21
99.09999999999989
 31
0.0
  0
LINE
  5
C68
330
1F
100
AcDbEntity
  8
AM_0
100
AcDbLine
 10
-0.4384060266432926
 20
86.24588056108922
 30
0.0
 11
-0.1761012314697155
 21
93.75730482217647
 31
0.0
  0
ARC
  5
C69
330
1F
100
AcDbEntity
  8
AM_0
100
AcDbCircle
 10
-5.435360159882634
 20
86.42037809775496
 30
0.0
 40
5.0
100
AcDbArc
 50
330.0000001084155
 51
357.9999993905374
  0
LINE
  5
C6A
330
1F
100
AcDbEntity
  8
AM_0
100
AcDbLine
 10
-1.105233136229912
 20
83.92037810594851
 30
0.0
 11
-10.58554280973621
 21
67.50000000819352
 31
0.0
  0
ARC
  5
C6B
330
1F
100
AcDbEntity
  8
AM_0
100
AcDbCircle
 10
-14.91566983338896
 20
69.99999999999997
 30
0.0
 40
5.0
100
AcDbArc
 50
270.0
 51
330.0000001084163
  0
LINE
  5
C6C
330
1F
100
AcDbEntity
  8
AM_0
100
AcDbLine
 10
0.0
 20
93.74987269290556
 30
0.0
 11
-0.0000000000000284
 21
-98.80018275200864
 31
0.0
  0
DIMENSION
  5
C72
102
{ACAD_XDICTIONARY
360
C73
102
}
102
{ACAD_REACTORS
330
C74
102
}
330
1F
100
AcDbEntity
  8
AM_5
100
AcDbDimension
  2
*D67
 10
23.45124154932944
 20
-0.0000000000000049
 30
0.0
 11
23.45124154932944
 21
0.7851349484773209
 31
0.0
 70
   160
  1
%%c<>
 71
     5
 42
129.9999999999999
  3
AM_JIS$0
100
AcDbAlignedDimension
 13
-14.91566983338896
 23
64.99999999999997
 33
0.0
 14
6.262464375569948
 24
0.0
 34
0.0
 50
90.0
100
AcDbRotatedDimension
1001
ACAD
1000
DSTYLE
1002
{
1070
    47
1040
0.4
1070
    48
1040
-0.1
1070
    76
1070
     1
1070
   144
1040
2.0
1070
   179
1070
     0
1070
   271
1070
     0
1070
   282
1070
     1
1002
}
  0
DIMENSION
  5
C75
102
{ACAD_XDICTIONARY
360
C76
102
}
102
{ACAD_REACTORS
330
C77
102
}
330
1F
100
AcDbEntity
  8
AM_5
100
AcDbDimension
  2
*D68
 10
14.25117538720349
 20
-0.0000000000000023
 30
0.0
 11
14.25117538720349
 21
3.204956315092772
 31
0.0
 70
   160
  1
P.C.D.<>
 71
     5
 42
101.5999999999999
  3
AM_JIS$0
100
AcDbAlignedDimension
 13
-22.69553014779865
 23
50.79999999999995
 33
0.0
 14
6.262464375569948
 24
0.0
 34
0.0
 50
90.0
100
AcDbRotatedDimension
1001
ACAD
1000
DSTYLE
1002
{
1070
    47
1040
0.4
1070
    48
1040
-0.1
1070
    76
1070
     1
1070
   144
1040
2.0
1070
   172
1070
     0
1070
   179
1070
     0
1070
   271
1070
     1
1070
   282
1070
     1
1002
}
  0
DIMENSION
  5
C78
102
{ACAD_XDICTIONARY
360
C79
102
}
102
{ACAD_REACTORS
330
C7A
102
}
330
1F
100
AcDbEntity
  8
AM_5
100
AcDbDimension
  2
*D69
 10
-98.37603520671985
 20
0.0000000000000658
 30
0.0
 11
-98.37603520671985
 21
0.7345694539932311
 31
0.0
 70
   160
  1
%%c<>
 71
     5
 42
149.9999999999998
  3
AM_JIS$0
100
AcDbAlignedDimension
 13
-56.48953014779874
 23
74.99999999999994
 33
0.0
 14
-66.7212302529073
 24
0.0000000000000568
 34
0.0
 50
90.0
100
AcDbRotatedDimension
1001
ACAD
1000
DSTYLE
1002
{
1070
    47
1040
0.4
1070
    48
1040
-0.1
1070
    76
1070
     1
1070
   144
1040
2.0
1070
   172
1070
     0
1070
   179
1070
     0
1070
   271
1070
     0
1070
   282
1070
     1
1002
}
  0
DIMENSION
  5
C7B
102
{ACAD_XDICTIONARY
360
C7C
102
}
102
{ACAD_REACTORS
330
C7D
102
}
330
1F
100
AcDbEntity
  8
AM_5
100
AcDbDimension
  2
*D70
 10
-66.7212302529073
 20
-12.70000000000001
 30
0.0
 11
-70.12160426865533
 21
-0.0000000000000648
 31
0.0
 70
    32
  1
<>
 71
     5
 42
25.39999999999992
  3
AM_JIS$0
100
AcDbAlignedDimension
 13
-59.48953014779897
 23
12.6999999999999
 33
0.0
 14
-59.48953014779874
 24
-12.70000000000002
 34
0.0
 50
90.0
100
AcDbRotatedDimension
1001
ACAD
1000
DSTYLE
1002
{
1070
    47
1040
0.4
1070
    48
1040
-0.1
1070
   179
1070
     0
1070
   271
1070
     1
1002
}
  0
DIMENSION
  5
C7E
330
1F
100
AcDbEntity
  8
AM_5
100
AcDbDimension
  2
*D71
 10
-76.72123025290705
 20
-23.81249999999995
 30
0.0
 11
-80.12160426865508
 21
-0.0000000000000269
 31
0.0
 70
    32
  1
%%c<>
 71
     5
 42
47.62499999999986
  3
AM_JIS$0
100
AcDbAlignedDimension
 13
-58.98953014779869
 23
23.81249999999992
 33
0.0
 14
-58.98953014779874
 24
-23.81249999999995
 34
0.0
 50
90.0
100
AcDbRotatedDimension
1001
ACAD
1000
DSTYLE
1002
{
1070
    47
1040
0.025
1070
    48
1040
0.0
1070
   179
1070
     0
1002
}
  0
DIMENSION
  5
C81
102
{ACAD_XDICTIONARY
360
C82
102
}
102
{ACAD_REACTORS
330
C83
102
}
330
1F
100
AcDbEntity
  8
AM_5
100
AcDbDimension
  2
*D72
 10
-87.85087009876008
 20
0.0000000000000628
 30
0.0
 11
-87.85087009876008
 21
0.5456799870850091
 31
0.0
 70
   160
  1
%%c<>
 71
     5
 42
129.9999999999996
  3
AM_JIS$0
100
AcDbAlignedDimension
 13
-60.4895301477988
 23
64.99999999999989
 33
0.0
 14
-66.7212302529073
 24
0.0000000000000568
 34
0.0
 50
90.0
100
AcDbRotatedDimension
1001
ACAD
1000
DSTYLE
1002
{
1070
    47
1040
0.4
1070
    48
1040
-0.1
1070
    76
1070
     1
1070
   144
1040
2.0
1070
   172
1070
     0
1070
   179
1070
     0
1070
   271
1070
     0
1070
   282
1070
     1
1002
}
  0
DIMENSION
  5
C84
102
{ACAD_XDICTIONARY
360
C85
102
}
102
{ACAD_REACTORS
330
C86
102
}
330
1F
100
AcDbEntity
  8
AM_5
100
AcDbDimension
  2
*D73
 10
-46.48953014779875
 20
-77.01420140080244
 30
0.0
 11
-53.48242994739752
 21
-73.61420140080245
 31
0.0
 70
    32
 71
     5
 42
13.98579959919755
  3
AM_JIS$0
100
AcDbAlignedDimension
 13
-60.47532974699629
 23
-65.01420040080247
 33
0.0
 14
-46.48953014779874
 24
-12.70000000000004
 34
0.0
100
AcDbRotatedDimension
1001
ACAD
1000
DSTYLE
1002
{
1070
    47
1040
0.4
1070
    48
1040
-0.1
1070
   179
1070
     0
1070
   271
1070
     0
1002
}
  0
DIMENSION
  5
C87
102
{ACAD_XDICTIONARY
360
C88
102
}
102
{ACAD_REACTORS
330
C89
102
}
330
1F
100
AcDbEntity
  8
AM_5
100
AcDbDimension
  2
*D74
 10
-25.48953014779875
 20
-86.28793564373626
 30
0.0
 11
-42.98242994739752
 21
-82.88793564373625
 31
0.0
 70
    32
 71
     5
 42
34.98579959919755
  3
AM_JIS$0
100
AcDbAlignedDimension
 13
-60.47532974699629
 23
-65.01420040080247
 33
0.0
 14
-25.48953014779875
 24
-35.88749650718757
 34
0.0
100
AcDbRotatedDimension
1001
ACAD
1000
DSTYLE
1002
{
1070
    47
1040
0.4
1070
    48
1040
-0.1
1070
   179
1070
     0
1070
   271
1070
     0
1002
}
  0
LINE
  5
CEB
330
1F
100
AcDbEntity
  8
AM_0
100
AcDbLine
 10
-56.48953014779874
 20
74.99999999999994
 30
0.0
 11
-46.81568316089363
 21
74.99999999999994
 31
0.0
  0
LINE
  5
CED
330
1F
100
AcDbEntity
  8
AM_0
100
AcDbLine
 10
-57.48953014779875
 20
74.99999999999992
 30
0.0
 11
-42.98558390234179
 21
74.99999999999992
 31
0.0
  0
ARC
  5
CEE
330
1F
100
AcDbEntity
  8
AM_0
100
AcDbCircle
 10
-57.48953014779875
 20
72.99999999999991
 30
0.0
 40
2.0
100
AcDbArc
 50
90.0
 51
180.0
  0
LINE
  5
CEF
330
1F
100
AcDbEntity
  8
AM_0
100
AcDbLine
 10
-29.39096719152662
 20
83.66072587073048
 30
0.0
 11
-23.53770279988939
 21
96.21309137642311
 31
0.0
  0
ARC
  5
CF0
330
1F
100
AcDbEntity
  8
AM_0
100
AcDbCircle
 10
-42.98558390234179
 20
89.99999999999991
 30
0.0
 40
15.0
100
AcDbArc
 50
270.0
 51
334.999999143768
  0
LINE
  5
CF1
330
1F
100
AcDbEntity
  8
AM_0
100
AcDbLine
 10
-19.00616389628433
 20
99.09999999999996
 30
0.0
 11
-13.41585933514119
 21
99.09999999999996
 31
0.0
  0
ARC
  5
CF2
330
1F
100
AcDbEntity
  8
AM_0
100
AcDbCircle
 10
-19.00616389628433
 20
94.09999999999996
 30
0.0
 40
5.0
100
AcDbArc
 50
90.0
 51
154.999999143768
  0
LINE
  5
FEE
330
1F
100
AcDbEntity
  8
AM_0
100
AcDbLine
 10
-59.48953014779886
 20
-65.99999999999991
 30
0.0
 11
-59.48953014779886
 21
-72.99999999999991
 31
0.0
  0
LINE
  5
FEF
330
1F
100
AcDbEntity
  8
AM_0
100
AcDbLine
 10
-56.48953014779886
 20
-74.99999999999992
 30
0.0
 11
-46.81568316089374
 21
-74.99999999999992
 31
0.0
  0
LINE
  5
FF0
330
1F
100
AcDbEntity
  8
AM_0
100
AcDbLine
 10
-25.48953014779886
 20
-64.99999999999996
 30
0.0
 11
-14.91566983338907
 21
-64.99999999999999
 31
0.0
  0
LINE
  5
FF1
330
1F
100
AcDbEntity
  8
AM_0
100
AcDbLine
 10
-25.48953014779886
 20
-64.99999999999996
 30
0.0
 11
-25.48953014779886
 21
-50.8
 31
0.0
  0
LINE
  5
FF2
330
1F
100
AcDbEntity
  8
AM_5
  6
ACISOTGB
 62
     6
100
AcDbLine
 10
-25.98953014779886
 20
-59.79999999999996
 30
0.0
 11
-25.48953014779886
 21
-60.29999999999997
 31
0.0
  0
LINE
  5
FF4
330
1F
100
AcDbEntity
  8
AM_5
  6
ACISOTGB
 62
     6
100
AcDbLine
 10
-59.48953014779886
 20
-59.79999999999995
 30
0.0
 11
-60.47649956692438
 21
-60.78696941912543
 31
0.0
  0
LINE
  5
FF5
330
1F
100
AcDbEntity
  8
AM_0
100
AcDbLine
 10
-59.48953014779886
 20
-65.99999999999991
 30
0.0
 11
-60.47532974699629
 21
-65.01420040080247
 31
0.0
  0
LINE
  5
FF6
330
1F
100
AcDbEntity
  8
AM_7
100
AcDbLine
 10
-63.483530147799
 20
-50.79999999999992
 30
0.0
 11
-22.69553014779877
 21
-50.79999999999997
 31
0.0
1001
GENIUS_GENODEF_13
1002
{
1000
HIER
1070
     0
1002
}
1002
{
1000
MANEDIT
1070
     0
1002
}
1002
{
1000
NOSEL
1070
     0
1002
}
1002
{
1000
BEHIND
1070
     0
1002
}
1002
{
1000
OTHER
1070
     0
1002
}
1002
{
1000
REACTOR
1002
}
1001
GENIUS_GENOBJ-N-CEN_13
1002
{
1000
OWNER
1000
GEN
1002
}
1001
GENIUS_GENCEN_19
1002
{
1040
2.794
1002
}
  0
LINE
  5
FF7
330
1F
100
AcDbEntity
  8
AM_5
  6
ACISOTGB
 62
     6
100
AcDbLine
 10
-59.4895301477988
 20
-41.79999999999994
 30
0.0
 11
-25.9895301477988
 21
-41.79999999999998
 31
0.0
1001
GENIUS_GENODEF_13
1002
{
1000
HIER
1070
     0
1002
}
1002
{
1000
MANEDIT
1070
     0
1002
}
1002
{
1000
NOSEL
1070
     0
1002
}
1002
{
1000
BEHIND
1070
     0
1002
}
1002
{
1000
OTHER
1070
     0
1002
}
1002
{
1000
REACTOR
1002
}
1001
GENIUS_GENOBJ-N-CEN_13
1002
{
1000
OWNER
1000
GEN
1002
}
1001
GENIUS_GENCEN_19
1002
{
1040
2.794
1002
}
  0
LINE
  5
FF8
330
1F
100
AcDbEntity
  8
AM_5
  6
ACISOTGB
 62
     6
100
AcDbLine
 10
-60.48202857154629
 20
-40.8075015762525
 30
0.0
 11
-59.4895301477988
 21
-41.79999999999994
 31
0.0
1001
GENIUS_GENODEF_13
1002
{
1000
HIER
1070
     0
1002
}
1002
{
1000
MANEDIT
1070
     0
1002
}
1002
{
1000
NOSEL
1070
     0
1002
}
1002
{
1000
BEHIND
1070
     0
1002
}
1002
{
1000
OTHER
1070
     0
1002
}
1002
{
1000
REACTOR
1002
}
1001
GENIUS_GENOBJ-N-CEN_13
1002
{
1000
OWNER
1000
GEN
1002
}
1001
GENIUS_GENCEN_19
1002
{
1040
2.794
1002
}
  0
LINE
  5
FF9
330
1F
100
AcDbEntity
  8
AM_5
  6
ACISOTGB
 62
     6
100
AcDbLine
 10
-59.48953014779886
 20
-59.79999999999995
 30
0.0
 11
-25.98953014779886
 21
-59.79999999999996
 31
0.0
1001
GENIUS_GENODEF_13
1002
{
1000
HIER
1070
     0
1002
}
1002
{
1000
MANEDIT
1070
     0
1002
}
1002
{
1000
NOSEL
1070
     0
1002
}
1002
{
1000
BEHIND
1070
     0
1002
}
1002
{
1000
OTHER
1070
     0
1002
}
1002
{
1000
REACTOR
1002
}
1001
GENIUS_GENOBJ-N-CEN_13
1002
{
1000
OWNER
1000
GEN
1002
}
1001
GENIUS_GENCEN_19
1002
{
1040
2.794
1002
}
  0
LINE
  5
FFA
330
1F
100
AcDbEntity
  8
AM_5
  6
ACISOTGB
 62
     6
100
AcDbLine
 10
-59.48953014779886
 20
-59.79999999999995
 30
0.0
 11
-59.48953014779903
 21
-41.79999999999991
 31
0.0
  0
LINE
  5
FFB
330
1F
100
AcDbEntity
  8
AM_5
  6
ACISOTGB
 62
     6
100
AcDbLine
 10
-25.9895301477988
 20
-41.79999999999998
 30
0.0
 11
-25.4895301477988
 21
-41.29999999999998
 31
0.0
  0
LINE
  5
FFC
330
1F
100
AcDbEntity
  8
AM_5
  6
ACISOTGB
 62
     6
100
AcDbLine
 10
-25.98953014779886
 20
-59.79999999999996
 30
0.0
 11
-25.9895301477988
 21
-41.79999999999998
 31
0.0
  0
LINE
  5
FFD
330
1F
100
AcDbEntity
  8
AM_0
100
AcDbLine
 10
-14.93569082949125
 20
-99.09999999999994
 30
0.0
 11
-0.2895301478001784
 21
-99.09999999999996
 31
0.0
  0
LINE
  5
FFE
330
1F
100
AcDbEntity
  8
AM_0
100
AcDbLine
 10
-0.4384060266434063
 20
-86.24588056108924
 30
0.0
 11
-0.0000000000001137
 21
-98.80018275200562
 31
0.0
  0
ARC
  5
FFF
330
1F
100
AcDbEntity
  8
AM_0
100
AcDbCircle
 10
-5.435360159882748
 20
-86.420378097755
 30
0.0
 40
5.0
100
AcDbArc
 50
2.00000060946261
 51
29.99999989158454
  0
LINE
  5
1000
330
1F
100
AcDbEntity
  8
AM_0
100
AcDbLine
 10
-0.2895301478001784
 20
-99.09999999999996
 30
0.0
 11
-0.0000000000001137
 21
-98.80018275200562
 31
0.0
  0
LINE
  5
1001
330
1F
100
AcDbEntity
  8
AM_0
100
AcDbLine
 10
-1.105233136230026
 20
-83.92037810594855
 30
0.0
 11
-10.58554280973629
 21
-67.50000000819355
 31
0.0
  0
ARC
  5
1002
330
1F
100
AcDbEntity
  8
AM_0
100
AcDbCircle
 10
-14.91566983338907
 20
-69.99999999999999
 30
0.0
 40
5.0
100
AcDbArc
 50
29.99999989158454
 51
89.99999999999996
  0
LINE
  5
1003
330
1F
100
AcDbEntity
  8
AM_0
100
AcDbLine
 10
-57.48953014779885
 20
-74.99999999999992
 30
0.0
 11
-42.98558390234188
 21
-74.9999999999999
 31
0.0
  0
ARC
  5
1004
330
1F
100
AcDbEntity
  8
AM_0
100
AcDbCircle
 10
-57.48953014779885
 20
-72.99999999999993
 30
0.0
 40
2.0
100
AcDbArc
 50
179.9999999999999
 51
269.9999999999999
  0
LINE
  5
1005
330
1F
100
AcDbEntity
  8
AM_0
100
AcDbLine
 10
-29.39096719152673
 20
-83.66072587073048
 30
0.0
 11
-23.53770279988953
 21
-96.21309137642311
 31
0.0
  0
ARC
  5
1006
330
1F
100
AcDbEntity
  8
AM_0
100
AcDbCircle
 10
-42.98558390234188
 20
-89.99999999999991
 30
0.0
 40
15.0
100
AcDbArc
 50
25.00000085623228
 51
89.99999999999996
  0
LINE
  5
1007
330
1F
100
AcDbEntity
  8
AM_0
100
AcDbLine
 10
-19.00616389628442
 20
-99.1
 30
0.0
 11
-0.2895301478001784
 21
-99.09999999999996
 31
0.0
  0
ARC
  5
1008
330
1F
100
AcDbEntity
  8
AM_0
100
AcDbCircle
 10
-19.00616389628442
 20
-94.1
 30
0.0
 40
5.0
100
AcDbArc
 50
205.0000008562323
 51
269.9999999999999
  0
DIMENSION
  5
107A
102
{ACAD_XDICTIONARY
360
1085
102
}
102
{ACAD_REACTORS
330
1086
102
}
330
1F
100
AcDbEntity
  8
AM_5
100
AcDbDimension
  2
*D97
 10
2.510469852201199
 20
126.1600053761874
 30
0.0
 11
-28.9895301477988
 21
129.5600053761874
 31
0.0
 70
    32
 71
     5
 42
63.0
  3
AM_JIS$0
100
AcDbAlignedDimension
 13
-60.4895301477988
 23
64.99999999999989
 33
0.0
 14
2.510469852201197
 24
100.0
 34
0.0
100
AcDbRotatedDimension
1001
ACAD
1000
DSTYLE
1002
{
1070
   179
1070
     0
1070
   271
1070
     0
1002
}
  0
TEXT
  5
10E0
330
1F
100
AcDbEntity
  8
0
370
    -3
100
AcDbText
 10
-45.96366708751418
 20
-117.49985315843
 30
0.0
 40
3.799999999999999
  1
PWC(F)4200R
  7
ACISOTS
100
AcDbText
  0
ENDSEC
  0
SECTION
  2
OBJECTS
  0
DICTIONARY
  5
C
330
0
100
AcDbDictionary
281
     1
  3
ACAD_COLOR
350
BE
  3
ACAD_GROUP
350
D
  3
ACAD_LAYOUT
350
1A
  3
ACAD_MATERIAL
350
BD
  3
ACAD_MLINESTYLE
350
17
  3
ACAD_PLOTSETTINGS
350
19
  3
ACAD_PLOTSTYLENAME
350
E
  3
ACAD_TABLESTYLE
350
11A
  3
ACDBHEADERROUNDTRIPXREC
350
1159
  3
AcDbVariableDictionary
350
94
  3
AcmDictionary
350
5B
  3
AMG
350
41
  3
AMGSNAPSETTINGS
350
1B8
  3
DWGPROPS
350
1158
  0
DICTIONARY
  5
34B
330
2
100
AcDbDictionary
280
     1
281
     1
  3
ACAD_LAYERSTATES
360
446
  3
AMLAYER_GROUPCOLORS
360
34C
  0
DICTIONARY
  5
8F
330
1F
100
AcDbDictionary
280
     1
281
     1
  0
DICTIONARY
  5
B04
330
B03
100
AcDbDictionary
280
     1
281
     1
  3
ACAD_DIMASSOC
360
B05
  0
DICTIONARY
  5
C73
330
C72
100
AcDbDictionary
280
     1
281
     1
  3
ACAD_DIMASSOC
360
C74
  0
DICTIONARY
  5
C76
330
C75
100
AcDbDictionary
280
     1
281
     1
  3
ACAD_DIMASSOC
360
C77
  0
DICTIONARY
  5
C79
330
C78
100
AcDbDictionary
280
     1
281
     1
  3
ACAD_DIMASSOC
360
C7A
  0
DICTIONARY
  5
C7C
330
C7B
100
AcDbDictionary
280
     1
281
     1
  3
ACAD_DIMASSOC
360
C7D
  0
DICTIONARY
  5
C82
330
C81
100
AcDbDictionary
280
     1
281
     1
  3
ACAD_DIMASSOC
360
C83
  0
DICTIONARY
  5
C85
330
C84
100
AcDbDictionary
280
     1
281
     1
  3
ACAD_DIMASSOC
360
C86
  0
DICTIONARY
  5
C88
330
C87
100
AcDbDictionary
280
     1
281
     1
  3
ACAD_DIMASSOC
360
C89
  0
DICTIONARY
  5
1085
330
107A
100
AcDbDictionary
280
     1
281
     1
  3
ACAD_DIMASSOC
360
1086
  0
DICTIONARY
  5
BE
102
{ACAD_REACTORS
330
C
102
}
330
C
100
AcDbDictionary
281
     1
  0
DICTIONARY
  5
D
102
{ACAD_REACTORS
330
C
102
}
330
C
100
AcDbDictionary
281
     1
  0
DICTIONARY
  5
1A
102
{ACAD_REACTORS
330
C
102
}
330
C
100
AcDbDictionary
281
     1
  3
Model
350
22
  3
レイアウト1
350
1E
  3
レイアウト2
350
26
  0
DICTIONARY
  5
BD
102
{ACAD_REACTORS
330
C
102
}
330
C
100
AcDbDictionary
281
     1
  0
DICTIONARY
  5
17
102
{ACAD_REACTORS
330
C
102
}
330
C
100
AcDbDictionary
281
     1
  3
Standard
350
18
  0
DICTIONARY
  5
19
102
{ACAD_REACTORS
330
C
102
}
330
C
100
AcDbDictionary
281
     1
  0
ACDBDICTIONARYWDFLT
  5
E
102
{ACAD_REACTORS
330
C
102
}
330
C
100
AcDbDictionary
281
     1
  3
Normal
350
F
100
AcDbDictionaryWithDefault
340
F
  0
DICTIONARY
  5
11A
102
{ACAD_REACTORS
330
C
102
}
330
C
100
AcDbDictionary
281
     1
  3
Standard
350
11B
  0
DICTIONARY
  5
1159
102
{ACAD_REACTORS
330
C
102
}
330
C
100
AcDbDictionary
281
     1
  0
DICTIONARY
  5
94
102
{ACAD_REACTORS
330
C
102
}
330
C
100
AcDbDictionary
281
     1
  3
CTABLESTYLE
350
138
  3
DIMASSOC
350
96
  3
INDEXCTL
350
95
  3
PROJECTNAME
350
1156
  0
DICTIONARY
  5
5B
102
{ACAD_REACTORS
330
C
102
}
330
C
100
AcDbDictionary
281
     1
  3
AcmBOM
350
1B5
  3
AcmStdDictionary
350
61
  3
AMDTSECTSYM_ARROWCOLOR
350
123
  0
DICTIONARY
  5
41
102
{ACAD_REACTORS
330
C
102
}
330
C
100
AcDbDictionary
281
     1
  0
DICTIONARY
  5
1B8
102
{ACAD_REACTORS
330
C
102
}
330
C
100
AcDbDictionary
281
     1
  0
XRECORD
  5
1158
102
{ACAD_REACTORS
330
C
102
}
330
C
100
AcDbXrecord
280
     1
  1
DWGPROPS COOKIE
  2

  3

  4

  6

  7

  8

  9

300
AmdtFileType=84
301
=
302
=
303
=
304
=
305
=
306
=
307
=
308
=
309
=
 40
0.0177926157407408
 41
2455540.353399699
 42
2455540.371191759
  1

 90
        1
  0
DICTIONARY
  5
446
102
{ACAD_REACTORS
330
34B
102
}
330
34B
100
AcDbDictionary
281
     1
  0
DICTIONARY
  5
34C
102
{ACAD_REACTORS
330
34B
102
}
330
34B
100
AcDbDictionary
280
     1
281
     1
  0
DIMASSOC
  5
B05
102
{ACAD_REACTORS
330
B04
102
}
330
B04
100
AcDbDimAssoc
330
B03
 90
       12
 70
     1
 71
     0
  1
AcDbOsnapPointRef
 72
    13
331
B02
 73
     2
 91
        0
 40
0.0
 10
0.0
 20
0.0
 30
2.000000000000000E+50
 75
     0
  1
AcDbOsnapPointRef
 72
     1
331
B02
 73
     2
 91
        0
 40
0.0
 10
0.0
 20
0.0
 30
2.000000000000000E+50
 75
     0
  0
DIMASSOC
  5
C74
102
{ACAD_REACTORS
330
C73
102
}
330
C73
100
AcDbDimAssoc
330
C72
 90
        3
 70
     0
 71
     0
  1
AcDbOsnapPointRef
 72
     1
331
C43
 73
     0
 91
        0
 40
0.0
 10
0.0
 20
0.0
 30
2.000000000000000E+50
 75
     0
  1
AcDbOsnapPointRef
 72
     1
331
C51
 73
     0
 91
        0
 40
0.0
 10
0.0
 20
0.0
 30
2.000000000000000E+50
 75
     0
  0
DIMASSOC
  5
C77
102
{ACAD_REACTORS
330
C76
102
}
330
C76
100
AcDbDimAssoc
330
C75
 90
        3
 70
     0
 71
     0
  1
AcDbOsnapPointRef
 72
     1
331
C5B
 73
     0
 91
        0
 40
0.0
 10
0.0
 20
0.0
 30
2.000000000000000E+50
 75
     0
  1
AcDbOsnapPointRef
 72
     1
331
C51
 73
     0
 91
        0
 40
0.0
 10
0.0
 20
0.0
 30
2.000000000000000E+50
 75
     0
  0
DIMASSOC
  5
C7A
102
{ACAD_REACTORS
330
C79
102
}
330
C79
100
AcDbDimAssoc
330
C78
 90
        2
 70
     0
 71
     0
  1
AcDbOsnapPointRef
 72
    13
331
C51
 73
     0
 91
        0
 40
0.0
 10
0.0
 20
0.0
 30
2.000000000000000E+50
 75
     0
  0
DIMASSOC
  5
C7D
102
{ACAD_REACTORS
330
C7C
102
}
330
C7C
100
AcDbDimAssoc
330
C7B
 90
        3
 70
     0
 71
     0
  1
AcDbOsnapPointRef
 72
     1
331
C4D
 73
     0
 91
        0
 40
0.0
 10
0.0
 20
0.0
 30
2.000000000000000E+50
 75
     0
  1
AcDbOsnapPointRef
 72
     1
331
C4F
 73
     0
 91
        0
 40
0.0
 10
0.0
 20
0.0
 30
2.000000000000000E+50
 75
     0
  0
DIMASSOC
  5
C83
102
{ACAD_REACTORS
330
C82
102
}
330
C82
100
AcDbDimAssoc
330
C81
 90
        1
 70
     0
 71
     0
  1
AcDbOsnapPointRef
 72
     1
331
C4B
 73
     0
 91
        0
 40
0.0
 10
0.0
 20
0.0
 30
2.000000000000000E+50
 75
     0
  0
DIMASSOC
  5
C86
102
{ACAD_REACTORS
330
C85
102
}
330
C85
100
AcDbDimAssoc
330
C84
 90
        3
 70
     0
 71
     0
  1
AcDbOsnapPointRef
 72
     1
331
C54
 73
     0
 91
        0
 40
0.0
 10
0.0
 20
0.0
 30
2.000000000000000E+50
 75
     0
  1
AcDbOsnapPointRef
 72
    13
331
C4E
 73
     0
 91
        0
 40
0.0
 10
0.0
 20
0.0
 30
2.000000000000000E+50
 75
     0
  0
DIMASSOC
  5
C89
102
{ACAD_REACTORS
330
C88
102
}
330
C88
100
AcDbDimAssoc
330
C87
 90
        3
 70
     0
 71
     0
  1
AcDbOsnapPointRef
 72
     1
331
C54
 73
     0
 91
        0
 40
0.0
 10
0.0
 20
0.0
 30
2.000000000000000E+50
 75
     0
  1
AcDbOsnapPointRef
 72
    13
331
C61
 73
     0
 91
        0
 40
0.0
 10
0.0
 20
0.0
 30
2.000000000000000E+50
 75
     0
  0
DIMASSOC
  5
1086
102
{ACAD_REACTORS
330
1085
102
}
330
1085
100
AcDbDimAssoc
330
107A
 90
        3
 70
     0
 71
     0
  1
AcDbOsnapPointRef
 72
     1
331
C4B
 73
     0
 91
        0
 40
0.0
 10
0.0
 20
0.0
 30
2.000000000000000E+50
 75
     0
  1
AcDbOsnapPointRef
 72
    13
331
B01
 73
     0
 91
        0
 40
0.0
 10
0.0
 20
0.0
 30
2.000000000000000E+50
 75
     0
  0
LAYOUT
  5
22
102
{ACAD_XDICTIONARY
360
115C
102
}
102
{ACAD_REACTORS
330
1A
102
}
330
1A
100
AcDbPlotSettings
  1

  2
SII LP-2150 (D-SCAN C2)
  4
User119
  6

 40
3.174999952316284
 41
3.174999952316284
 42
3.175003051757812
 43
3.17498779296875
 44
210.0579986572266
 45
296.9259948730469
 46
0.0
 47
0.0
 48
0.0
 49
0.0
140
0.0
141
0.0
142
1.0
143
1.580715189147934
 70
 11952
 72
     1
 73
     1
 74
     0
  7
sei_cad.ctb
 75
     0
147
0.6326250338234799
148
19.65895403440572
149
1.143774069319647
100
AcDbLayout
  1
Model
 70
     1
 71
     0
 10
0.0
 20
0.0
 11
12.0
 21
9.0
 12
0.0
 22
0.0
 32
0.0
 14
0.0
 24
0.0
 34
0.0
 15
0.0
 25
0.0
 35
0.0
146
0.0
 13
0.0
 23
0.0
 33
0.0
 16
1.0
 26
0.0
 36
0.0
 17
0.0
 27
1.0
 37
0.0
 76
     0
330
1F
1001
ACAD_PSEXT
1000
SII LP-2150 (D-SCAN C2)
1000
SII LP-2150 (D-SCAN C2)
1000
133.153.16.130#3000
1000

1070
     0
  0
LAYOUT
  5
1E
102
{ACAD_XDICTIONARY
360
115A
102
}
102
{ACAD_REACTORS
330
1A
102
}
330
1A
100
AcDbPlotSettings
  1

  2

  4

  6

 40
0.0
 41
0.0
 42
0.0
 43
0.0
 44
0.0
 45
0.0
 46
0.0
 47
0.0
 48
0.0
 49
0.0
140
0.0
141
0.0
142
1.0
143
1.0
 70
   688
 72
     0
 73
     0
 74
     5
  7
sei_cad.ctb
 75
    16
147
1.0
148
0.0
149
0.0
100
AcDbLayout
  1
レイアウト1
 70
     1
 71
     1
 10
0.0
 20
0.0
 11
420.0
 21
297.0
 12
0.0
 22
0.0
 32
0.0
 14
1.000000000000000E+20
 24
1.000000000000000E+20
 34
1.000000000000000E+20
 15
-1.000000000000000E+20
 25
-1.000000000000000E+20
 35
-1.000000000000000E+20
146
0.0
 13
0.0
 23
0.0
 33
0.0
 16
1.0
 26
0.0
 36
0.0
 17
0.0
 27
1.0
 37
0.0
 76
     0
330
1B
  0
LAYOUT
  5
26
102
{ACAD_XDICTIONARY
360
115E
102
}
102
{ACAD_REACTORS
330
1A
102
}
330
1A
100
AcDbPlotSettings
  1

  2

  4

  6

 40
0.0
 41
0.0
 42
0.0
 43
0.0
 44
0.0
 45
0.0
 46
0.0
 47
0.0
 48
0.0
 49
0.0
140
0.0
141
0.0
142
1.0
143
1.0
 70
   688
 72
     0
 73
     0
 74
     5
  7
sei_cad.ctb
 75
    16
147
1.0
148
0.0
149
0.0
100
AcDbLayout
  1
レイアウト2
 70
     1
 71
     2
 10
0.0
 20
0.0
 11
12.0
 21
9.0
 12
0.0
 22
0.0
 32
0.0
 14
0.0
 24
0.0
 34
0.0
 15
0.0
 25
0.0
 35
0.0
146
0.0
 13
0.0
 23
0.0
 33
0.0
 16
1.0
 26
0.0
 36
0.0
 17
0.0
 27
1.0
 37
0.0
 76
     0
330
23
  0
MLINESTYLE
  5
18
102
{ACAD_REACTORS
330
17
102
}
330
17
100
AcDbMlineStyle
  2
STANDARD
 70
     0
  3

 62
   256
 51
90.0
 52
90.0
 71
     2
 49
0.5
 62
   256
  6
BYLAYER
 49
-0.5
 62
   256
  6
BYLAYER
  0
ACDBPLACEHOLDER
  5
F
102
{ACAD_REACTORS
330
E
102
}
330
E
  0
TABLESTYLE
  5
11B
102
{ACAD_REACTORS
330
11A
102
}
330
11A
100
AcDbTableStyle
  3
Standard
 70
     0
 71
     0
 40
1.5
 41
1.5
280
     0
281
     0
  7
STANDARD
140
4.5
170
     2
 62
     0
 63
     7
283
     0
274
    -2
284
     1
 64
     0
275
    -2
285
     1
 65
     0
276
    -2
286
     1
 66
     0
277
    -2
287
     1
 67
     0
278
    -2
288
     1
 68
     0
279
    -2
289
     1
 69
     0
  7
STANDARD
140
6.0
170
     5
 62
     0
 63
     7
283
     0
274
    -2
284
     1
 64
     0
275
    -2
285
     1
 65
     0
276
    -2
286
     1
 66
     0
277
    -2
287
     1
 67
     0
278
    -2
288
     1
 68
     0
279
    -2
289
     1
 69
     0
  7
STANDARD
140
4.5
170
     5
 62
     0
 63
     7
283
     0
274
    -2
284
     1
 64
     0
275
    -2
285
     1
 65
     0
276
    -2
286
     1
 66
     0
277
    -2
287
     1
 67
     0
278
    -2
288
     1
 68
     0
279
    -2
289
     1
 69
     0
  0
DICTIONARYVAR
  5
138
102
{ACAD_REACTORS
330
94
102
}
330
94
100
DictionaryVariables
280
     0
  1
STANDARD
  0
DICTIONARYVAR
  5
96
102
{ACAD_REACTORS
330
94
102
}
330
94
100
DictionaryVariables
280
     0
  1
2
  0
DICTIONARYVAR
  5
95
102
{ACAD_REACTORS
330
94
102
}
330
94
100
DictionaryVariables
280
     0
  1
0
  0
DICTIONARYVAR
  5
1156
102
{ACAD_REACTORS
330
94
102
}
330
94
100
DictionaryVariables
280
     0
  1

  0
DICTIONARY
  5
1B5
102
{ACAD_REACTORS
330
5B
102
}
330
5B
100
AcDbDictionary
281
     1
  0
DICTIONARY
  5
61
102
{ACAD_REACTORS
330
5B
102
}
330
5B
100
AcDbDictionary
281
     1
  0
XRECORD
  5
123
102
{ACAD_REACTORS
330
5B
102
}
330
5B
100
AcDbXrecord
280
     1
 90
-1023410169
  0
DICTIONARY
  5
115C
330
22
100
AcDbDictionary
280
     1
281
     1
  3
ACAD_XREC_ROUNDTRIP
360
115D
  0
DICTIONARY
  5
115A
330
1E
100
AcDbDictionary
280
     1
281
     1
  3
ACAD_XREC_ROUNDTRIP
360
115B
  0
DICTIONARY
  5
115E
330
26
100
AcDbDictionary
280
     1
281
     1
  3
ACAD_XREC_ROUNDTRIP
360
115F
  0
XRECORD
  5
115D
102
{ACAD_REACTORS
330
115C
102
}
330
115C
100
AcDbXrecord
280
     1
102
SHADEPLOT
 70
     0
102
SHADEPLOTRESLEVEL
 70
     2
102
SHADEPLOTCUSTOMDPI
 70
   300
  0
XRECORD
  5
115B
102
{ACAD_REACTORS
330
115A
102
}
330
115A
100
AcDbXrecord
280
     1
102
SHADEPLOT
 70
     0
102
SHADEPLOTRESLEVEL
 70
     2
102
SHADEPLOTCUSTOMDPI
 70
   300
  0
XRECORD
  5
115F
102
{ACAD_REACTORS
330
115E
102
}
330
115E
100
AcDbXrecord
280
     1
102
SHADEPLOT
 70
     0
102
SHADEPLOTRESLEVEL
 70
     2
102
SHADEPLOTCUSTOMDPI
 70
   300
  0
ENDSEC
  0
EOF
