  0
SECTION
  2
HEADER
  9
$ACADVER
  1
AC1014
  9
$ACADMAINTVER
 70
     9
  9
$DWGCODEPAGE
  3
ANSI_932
  9
$INSBASE
 10
0.0
 20
0.0
 30
0.0
  9
$EXTMIN
 10
-87.70000000000001
 20
-106.50000101
 30
-0.00000001
  9
$EXTMAX
 10
35.02336723027853
 20
50.00000000000003
 30
0.00000001
  9
$LIMMIN
 10
-109.9281250599365
 20
-131.02745668326
  9
$LIMMAX
 10
168.5524148193719
 20
84.33097232254807
  9
$ORTHOMODE
 70
     0
  9
$REGENMODE
 70
     1
  9
$FILLMODE
 70
     1
  9
$QTEXTMODE
 70
     0
  9
$MIRRTEXT
 70
     0
  9
$DRAGMODE
 70
     2
  9
$LTSCALE
 40
1.0
  9
$OSMODE
 70
    55
  9
$ATTMODE
 70
     1
  9
$TEXTSIZE
 40
2.5
  9
$TRACEWID
 40
1.0
  9
$TEXTSTYLE
  7
STANDARD
  9
$CLAYER
  8
AM_5
  9
$CELTYPE
  6
BYLAYER
  9
$CECOLOR
 62
   256
  9
$CELTSCALE
 40
1.0
  9
$DELOBJ
 70
     1
  9
$DISPSILH
 70
     0
  9
$DIMSCALE
 40
1.0
  9
$DIMASZ
 40
2.5
  9
$DIMEXO
 40
1.0
  9
$DIMDLI
 40
12.0
  9
$DIMRND
 40
0.0
  9
$DIMDLE
 40
0.0
  9
$DIMEXE
 40
1.0
  9
$DIMTP
 40
0.1
  9
$DIMTM
 40
0.1
  9
$DIMTXT
 40
3.2
  9
$DIMCEN
 40
0.0
  9
$DIMTSZ
 40
0.0
  9
$DIMTOL
 70
     0
  9
$DIMLIM
 70
     0
  9
$DIMTIH
 70
     0
  9
$DIMTOH
 70
     0
  9
$DIMSE1
 70
     0
  9
$DIMSE2
 70
     0
  9
$DIMTAD
 70
     3
  9
$DIMZIN
 70
     8
  9
$DIMBLK
  1
OPEN30
  9
$DIMASO
 70
     1
  9
$DIMSHO
 70
     1
  9
$DIMPOST
  1

  9
$DIMAPOST
  1
"
  9
$DIMALT
 70
     0
  9
$DIMALTD
 70
     2
  9
$DIMALTF
 40
0.0393701
  9
$DIMLFAC
 40
1.0
  9
$DIMTOFL
 70
     1
  9
$DIMTVP
 40
0.0
  9
$DIMTIX
 70
     0
  9
$DIMSOXD
 70
     0
  9
$DIMSAH
 70
     0
  9
$DIMBLK1
  1

  9
$DIMBLK2
  1

  9
$DIMSTYLE
  2
AM_JIS
  9
$DIMCLRD
 70
   256
  9
$DIMCLRE
 70
   256
  9
$DIMCLRT
 70
     2
  9
$DIMTFAC
 40
0.71
  9
$DIMGAP
 40
1.5
  9
$DIMJUST
 70
     0
  9
$DIMSD1
 70
     0
  9
$DIMSD2
 70
     0
  9
$DIMTOLJ
 70
     0
  9
$DIMTZIN
 70
     0
  9
$DIMALTZ
 70
     0
  9
$DIMALTTZ
 70
     0
  9
$DIMFIT
 70
     3
  9
$DIMUPT
 70
     0
  9
$DIMUNIT
 70
     2
  9
$DIMDEC
 70
     3
  9
$DIMTDEC
 70
     3
  9
$DIMALTU
 70
     2
  9
$DIMALTTD
 70
     2
  9
$DIMTXSTY
  7
ASAMI
  9
$DIMAUNIT
 70
     0
  9
$LUNITS
 70
     2
  9
$LUPREC
 70
     2
  9
$SKETCHINC
 40
1.0
  9
$FILLETRAD
 40
2.5
  9
$AUNITS
 70
     0
  9
$AUPREC
 70
     0
  9
$MENU
  1
.
  9
$ELEVATION
 40
0.0
  9
$PELEVATION
 40
0.0
  9
$THICKNESS
 40
0.0
  9
$LIMCHECK
 70
     0
  9
$BLIPMODE
 70
     0
  9
$CHAMFERA
 40
0.5
  9
$CHAMFERB
 40
0.5
  9
$CHAMFERC
 40
20.0
  9
$CHAMFERD
 40
0.0
  9
$SKPOLY
 70
     0
  9
$TDCREATE
 40
2452836.771637361
  9
$TDUPDATE
 40
2453152.365153264
  9
$TDINDWG
 40
0.4150472222
  9
$TDUSRTIMER
 40
0.4150472222
  9
$USRTIMER
 70
     1
  9
$ANGBASE
 50
0.0
  9
$ANGDIR
 70
     0
  9
$PDMODE
 70
     0
  9
$PDSIZE
 40
0.0
  9
$PLINEWID
 40
0.0
  9
$COORDS
 70
     1
  9
$SPLFRAME
 70
     0
  9
$SPLINETYPE
 70
     6
  9
$SPLINESEGS
 70
     8
  9
$ATTDIA
 70
     1
  9
$ATTREQ
 70
     1
  9
$HANDLING
 70
 12289
  9
$HANDSEED
  5
985A
  9
$SURFTAB1
 70
     6
  9
$SURFTAB2
 70
     6
  9
$SURFTYPE
 70
     6
  9
$SURFU
 70
     6
  9
$SURFV
 70
     6
  9
$UCSNAME
  2

  9
$UCSORG
 10
0.0
 20
0.0
 30
0.0
  9
$UCSXDIR
 10
1.0
 20
0.0
 30
0.0
  9
$UCSYDIR
 10
0.0
 20
1.0
 30
0.0
  9
$PUCSNAME
  2

  9
$PUCSORG
 10
0.0
 20
0.0
 30
0.0
  9
$PUCSXDIR
 10
1.0
 20
0.0
 30
0.0
  9
$PUCSYDIR
 10
0.0
 20
1.0
 30
0.0
  9
$USERI1
 70
     0
  9
$USERI2
 70
     0
  9
$USERI3
 70
     0
  9
$USERI4
 70
     0
  9
$USERI5
 70
     0
  9
$USERR1
 40
0.0
  9
$USERR2
 40
0.0
  9
$USERR3
 40
0.0
  9
$USERR4
 40
0.0
  9
$USERR5
 40
0.0
  9
$WORLDVIEW
 70
     1
  9
$SHADEDGE
 70
     3
  9
$SHADEDIF
 70
    70
  9
$TILEMODE
 70
     1
  9
$MAXACTVP
 70
    64
  9
$PINSBASE
 10
0.0
 20
0.0
 30
0.0
  9
$PLIMCHECK
 70
     0
  9
$PEXTMIN
 10
1.000000000000000E+20
 20
1.000000000000000E+20
 30
1.000000000000000E+20
  9
$PEXTMAX
 10
-1.000000000000000E+20
 20
-1.000000000000000E+20
 30
-1.000000000000000E+20
  9
$PLIMMIN
 10
0.0
 20
0.0
  9
$PLIMMAX
 10
841.0
 20
594.0
  9
$UNITMODE
 70
     0
  9
$VISRETAIN
 70
     1
  9
$PLINEGEN
 70
     0
  9
$PSLTSCALE
 70
     0
  9
$TREEDEPTH
 70
  3020
  9
$PICKSTYLE
 70
     0
  9
$CMLSTYLE
  2
STANDARD
  9
$CMLJUST
 70
     0
  9
$CMLSCALE
 40
20.0
  9
$PROXYGRAPHICS
 70
     1
  9
$MEASUREMENT
 70
     1
  0
ENDSEC
  0
SECTION
  2
CLASSES
  0
CLASS
  1
ACDBDICTIONARYWDFLT
  2
AcDbDictionaryWithDefault
  3
AutoCAD 2000
 90
        0
280
     0
281
     0
  0
CLASS
  1
ACDBPLACEHOLDER
  2
AcDbPlaceHolder
  3
AutoCAD 2000
 90
        0
280
     0
281
     0
  0
CLASS
  1
LAYOUT
  2
AcDbLayout
  3
AutoCAD 2000
 90
        0
280
     0
281
     0
  0
CLASS
  1
AMGSETTINGSOBJ
  2
AmgSettingsObj
  3
"AcadM|Product Description: AutoCAD Mechanical 2000|Company: Autodesk"
 90
        0
280
     0
281
     0
  0
CLASS
  1
ACME_DOCUMENT
  2
AcMeDbDoc
  3
AcMeServices
 90
        0
280
     0
281
     0
  0
CLASS
  1
ACMESCOPE
  2
AcMeScope
  3
AcMeServices
 90
        0
280
     0
281
     0
  0
CLASS
  1
ACMECOMMANDHISTORY
  2
AcMeCommandHistory
  3
AcMeServices
 90
        0
280
     0
281
     0
  0
CLASS
  1
DICTIONARYVAR
  2
AcDbDictionaryVar
  3
AutoCAD 2000
 90
        0
280
     0
281
     0
  0
CLASS
  1
ACIMSYSVARMAN
  2
AcImSysVarManager
  3
AcMeServices
 90
        0
280
     0
281
     0
  0
CLASS
  1
ACIMREALSYSVAR
  2
AcImRealSysVar
  3
AcMeServices
 90
        0
280
     0
281
     0
  0
CLASS
  1
ACIMINTSYSVAR
  2
AcImIntSysVar
  3
AcMeServices
 90
        0
280
     0
281
     0
  0
CLASS
  1
ACMEDRAWINGMAN
  2
AcMeDrawingMan
  3
AcMeServices
 90
        0
280
     0
281
     0
  0
CLASS
  1
ACMEVIEW
  2
AcMeView
  3
AcMeServices
 90
        0
280
     0
281
     0
  0
CLASS
  1
ACDBENTITYCACHE
  2
AcMeEntityCache
  3
AcMeServices
 90
        0
280
     0
281
     0
  0
CLASS
  1
GSMANAGER
  2
AcMeGSManager
  3
AcMeServices
 90
        0
280
     0
281
     0
  0
CLASS
  1
AmdtInternalReactor
  2
AmdtInternalReactor
  3
AcMeServices
 90
        0
280
     0
281
     0
  0
CLASS
  1
ACMESTATEMGR
  2
AcMeStateMgr
  3
AcMeServices
 90
        0
280
     0
281
     0
  0
CLASS
  1
ACME_DATABASE
  2
AcMeDbDatabase
  3
AcMeServices
 90
        0
280
     0
281
     0
  0
CLASS
  1
ACRFINSADJUSTERMGR
  2
AcRfInsAdjusterMgr
  3
AcMeServices
 90
        0
280
     0
281
     0
  0
CLASS
  1
ACMDATADICTIONARY
  2
AcmDataDictionary
  3
"AcmSymBB|Product Description: AutoCAD Mechanical 2000|Company: Autodesk"
 90
        0
280
     0
281
     0
  0
CLASS
  1
ACMDATAENTRYBLOCK
  2
AcmDataEntryBlock
  3
"AcmSymBB|Product Description: AutoCAD Mechanical 2000|Company: Autodesk"
 90
        0
280
     0
281
     0
  0
CLASS
  1
AMGOBJPROPCFG
  2
AmgObjPropCfg
  3
"AmgLay|Product Description: AutoCAD Mechanical 2000|Company: Autodesk"
 90
        1
280
     0
281
     0
  0
CLASS
  1
ACAMGFILTERDAT
  2
AcAmgFilterDat
  3
"AcadM|Product Description: AutoCAD Mechanical 2000|Company: Autodesk"
 90
        0
280
     0
281
     0
  0
CLASS
  1
LAYER_INDEX
  2
AcDbLayerIndex
  3
AutoCAD 2000
 90
        0
280
     0
281
     0
  0
CLASS
  1
IDBUFFER
  2
AcDbIdBuffer
  3
AutoCAD 2000
 90
        0
280
     0
281
     0
  0
CLASS
  1
ACIMSTRSYSVAR
  2
AcImStrSysVar
  3
AcMeServices
 90
        0
280
     0
281
     0
  0
CLASS
  1
ACMSTANDARDJIS
  2
AcmStandardJIS
  3
"AcmSymBB|Product Description: AutoCAD Mechanical 2000|Company: Autodesk"
 90
        0
280
     0
281
     0
  0
CLASS
  1
ACMSURFSTANDARDJIS
  2
AcmSurfTextStdJIS
  3
"AcmSymBB|Product Description: AutoCAD Mechanical 2000|Company: Autodesk"
 90
        0
280
     0
281
     0
  0
CLASS
  1
ACMFCFSTANDARDJIS
  2
AcmFCFStdJIS
  3
"AcmSymBB|Product Description: AutoCAD Mechanical 2000|Company: Autodesk"
 90
        0
280
     0
281
     0
  0
CLASS
  1
ACMWELDSTANDARDJIS
  2
AcmWeldingStdJIS
  3
"AcmSymBB|Product Description: AutoCAD Mechanical 2000|Company: Autodesk"
 90
        0
280
     0
281
     0
  0
CLASS
  1
ACMIDSTANDARDJIS
  2
AcmIdStdJIS
  3
"AcmSymBB|Product Description: AutoCAD Mechanical 2000|Company: Autodesk"
 90
        0
280
     0
281
     0
  0
CLASS
  1
ACMDATUMSTANDARDJIS
  2
AcmDatumStdJIS
  3
"AcmSymBB|Product Description: AutoCAD Mechanical 2000|Company: Autodesk"
 90
        0
280
     0
281
     0
  0
CLASS
  1
ACMBOMSTANDARDJIS
  2
AcmBOMStdJIS
  3
"AcmSymBB|Product Description: AutoCAD Mechanical 2000|Company: Autodesk"
 90
        0
280
     0
281
     0
  0
CLASS
  1
ACMSTANDARDANSI
  2
AcmStandardANSI
  3
"AcmSymBB|Product Description: AutoCAD Mechanical 2000|Company: Autodesk"
 90
        0
280
     0
281
     0
  0
CLASS
  1
ACMSURFSTANDARDANSI
  2
AcmSurfTextStdANSI
  3
"AcmSymBB|Product Description: AutoCAD Mechanical 2000|Company: Autodesk"
 90
        0
280
     0
281
     0
  0
CLASS
  1
ACMFCFSTANDARDANSI
  2
AcmFCFStdANSI
  3
"AcmSymBB|Product Description: AutoCAD Mechanical 2000|Company: Autodesk"
 90
        0
280
     0
281
     0
  0
CLASS
  1
ACMWELDSTANDARDANSI
  2
AcmWeldingStdANSI
  3
"AcmSymBB|Product Description: AutoCAD Mechanical 2000|Company: Autodesk"
 90
        0
280
     0
281
     0
  0
CLASS
  1
ACMIDSTANDARDANSI
  2
AcmIdStdANSI
  3
"AcmSymBB|Product Description: AutoCAD Mechanical 2000|Company: Autodesk"
 90
        0
280
     0
281
     0
  0
CLASS
  1
ACMDATUMSTANDARDANSI
  2
AcmDatumStdANSI
  3
"AcmSymBB|Product Description: AutoCAD Mechanical 2000|Company: Autodesk"
 90
        0
280
     0
281
     0
  0
CLASS
  1
ACMBOMSTANDARDANSI
  2
AcmBOMStdANSI
  3
"AcmSymBB|Product Description: AutoCAD Mechanical 2000|Company: Autodesk"
 90
        0
280
     0
281
     0
  0
CLASS
  1
ACMSTANDARDBSI
  2
AcmStandardBSI
  3
"AcmSymBB|Product Description: AutoCAD Mechanical 2000|Company: Autodesk"
 90
        0
280
     0
281
     0
  0
CLASS
  1
ACMSURFSTANDARDBSI
  2
AcmSurfTextStdBSI
  3
"AcmSymBB|Product Description: AutoCAD Mechanical 2000|Company: Autodesk"
 90
        0
280
     0
281
     0
  0
CLASS
  1
ACMFCFSTANDARDBSI
  2
AcmFCFStdBSI
  3
"AcmSymBB|Product Description: AutoCAD Mechanical 2000|Company: Autodesk"
 90
        0
280
     0
281
     0
  0
CLASS
  1
ACMWELDSTANDARDBSI
  2
AcmWeldingStdBSI
  3
"AcmSymBB|Product Description: AutoCAD Mechanical 2000|Company: Autodesk"
 90
        0
280
     0
281
     0
  0
CLASS
  1
ACMIDSTANDARDBSI
  2
AcmIdStdBSI
  3
"AcmSymBB|Product Description: AutoCAD Mechanical 2000|Company: Autodesk"
 90
        0
280
     0
281
     0
  0
CLASS
  1
ACMDATUMSTANDARDBSI
  2
AcmDatumStdBSI
  3
"AcmSymBB|Product Description: AutoCAD Mechanical 2000|Company: Autodesk"
 90
        0
280
     0
281
     0
  0
CLASS
  1
ACMBOMSTANDARDBSI
  2
AcmBOMStdBSI
  3
"AcmSymBB|Product Description: AutoCAD Mechanical 2000|Company: Autodesk"
 90
        0
280
     0
281
     0
  0
CLASS
  1
LONG_TRANSACTION
  2
AcDbLongTransaction
  3
AutoCAD 2000
 90
        0
280
     0
281
     0
  0
CLASS
  1
LWPOLYLINE
  2
AcDbPolyline
  3
AutoCAD 2000
 90
        0
280
     0
281
     1
  0
CLASS
  1
HATCH
  2
AcDbHatch
  3
AutoCAD 2000
 90
        0
280
     0
281
     1
  0
CLASS
  1
XRECORD
  2
AcDbXrecord
  3
AutoCAD 2000
 90
        0
280
     0
281
     0
  0
ENDSEC
  0
SECTION
  2
TABLES
  0
TABLE
  2
VPORT
  5
8
330
0
100
AcDbSymbolTable
 70
     3
  0
VPORT
  5
97E7
330
8
100
AcDbSymbolTableRecord
100
AcDbViewportTableRecord
  2
*ACTIVE
 70
     0
 10
0.0
 20
0.0
 11
1.0
 21
1.0
 12
-26.07639522411742
 22
-28.58823611937557
 13
0.0
 23
0.0
 14
2.5
 24
2.5
 15
10.0
 25
10.0
 16
0.0
 26
0.0
 36
1.0
 17
0.0
 27
0.0
 37
0.0
 40
163.3730700005826
 41
1.56570841889117
 42
50.0
 43
0.0
 44
0.0
 50
0.0
 51
0.0
 71
     0
 72
   100
 73
     1
 74
     3
 75
     0
 76
     0
 77
     0
 78
     0
  0
ENDTAB
  0
TABLE
  2
LTYPE
  5
5
330
0
100
AcDbSymbolTable
 70
    10
  0
LTYPE
  5
14
330
5
100
AcDbSymbolTableRecord
100
AcDbLinetypeTableRecord
  2
BYBLOCK
 70
     0
  3

 72
    65
 73
     0
 40
0.0
  0
LTYPE
  5
15
330
5
100
AcDbSymbolTableRecord
100
AcDbLinetypeTableRecord
  2
BYLAYER
 70
     0
  3

 72
    65
 73
     0
 40
0.0
  0
LTYPE
  5
16
330
5
100
AcDbSymbolTableRecord
100
AcDbLinetypeTableRecord
  2
CONTINUOUS
 70
     0
  3
Solid line
 72
    65
 73
     0
 40
0.0
  0
LTYPE
  5
4B
330
5
100
AcDbSymbolTableRecord
100
AcDbLinetypeTableRecord
  2
AM_ISO02W050
 70
     0
  3
__ __ __ __ __ __ __ __ __ __ __ __ __ __ __
 72
    65
 73
     2
 40
7.5
 49
6.0
 74
     0
 49
-1.5
 74
     0
  0
LTYPE
  5
4C
330
5
100
AcDbSymbolTableRecord
100
AcDbLinetypeTableRecord
  2
AM_ISO08W050
 70
     0
  3
____ . ____ . ____ . ____ . ____ . ____ . ____
 72
    65
 73
     4
 40
18.0
 49
12.0
 74
     0
 49
-1.5
 74
     0
 49
3.0
 74
     0
 49
-1.5
 74
     0
  0
LTYPE
  5
4D
330
5
100
AcDbSymbolTableRecord
100
AcDbLinetypeTableRecord
  2
AM_ISO09W050
 70
     0
  3
_____ . . _____ . . _____ . . ____ .. ____
 72
    65
 73
     6
 40
22.5
 49
12.0
 74
     0
 49
-1.5
 74
     0
 49
3.0
 74
     0
 49
-1.5
 74
     0
 49
3.0
 74
     0
 49
-1.5
 74
     0
  0
LTYPE
  5
4E
330
5
100
AcDbSymbolTableRecord
100
AcDbLinetypeTableRecord
  2
AMCONSTR
 70
     0
  3
_______________________
 72
    65
 73
     2
 40
9999.0
 49
9999.0
 74
     0
 49
0.0
 74
     0
  0
LTYPE
  5
4F
330
5
100
AcDbSymbolTableRecord
100
AcDbLinetypeTableRecord
  2
AM_ISO02W050X2
 70
     0
  3
 _ _ _ _ _ _ _ _ _ _ _ _
 72
    65
 73
     2
 40
3.75
 49
3.0
 74
     0
 49
-0.75
 74
     0
  0
LTYPE
  5
50
330
5
100
AcDbSymbolTableRecord
100
AcDbLinetypeTableRecord
  2
AM_ISO08W050X2
 70
     0
  3
__ . __ . __ . __ . __ . __
 72
    65
 73
     4
 40
9.0
 49
6.0
 74
     0
 49
-0.75
 74
     0
 49
1.5
 74
     0
 49
-0.75
 74
     0
  0
LTYPE
  5
53
330
5
100
AcDbSymbolTableRecord
100
AcDbLinetypeTableRecord
  2
AMZIGZAG
 70
     0
  3
/\/-/\/-/\/-/\/-/\/-/\/
 72
    65
 73
     2
 40
11.00009999999999
 49
0.0001
 74
     4
 75
   135
340
52
 46
0.04
 50
0.0
 44
0.0
 45
0.0
 49
-11.0
 74
     0
  0
LTYPE
  5
166
330
5
100
AcDbSymbolTableRecord
100
AcDbLinetypeTableRecord
  2
ACJISTGL
 70
     0
  3
_ _ _ _ _
 72
    65
 73
     2
 40
3.0
 49
2.0
 74
     0
 49
-1.0
 74
     0
  0
LTYPE
  5
26A
330
5
100
AcDbSymbolTableRecord
100
AcDbLinetypeTableRecord
  2
ACJISTGB
 70
     0
  3
__ . . __ . .
 72
    65
 73
     6
 40
9.0
 49
4.0
 74
     0
 49
-1.0
 74
     0
 49
1.0
 74
     0
 49
-1.0
 74
     0
 49
1.0
 74
     0
 49
-1.0
 74
     0
  0
ENDTAB
  0
TABLE
  2
LAYER
  5
2
330
0
100
AcDbSymbolTable
 70
     7
  0
LAYER
  5
10
330
2
100
AcDbSymbolTableRecord
100
AcDbLayerTableRecord
  2
0
 70
     0
 62
     7
  6
CONTINUOUS
  0
LAYER
  5
BD4
330
2
100
AcDbSymbolTableRecord
100
AcDbLayerTableRecord
  2
AM_11
 70
     0
 62
     3
  6
AM_ISO09W050
  0
LAYER
  5
BD5
330
2
100
AcDbSymbolTableRecord
100
AcDbLayerTableRecord
  2
AM_7
 70
     0
 62
     4
  6
AM_ISO08W050
  0
LAYER
  5
BD6
330
2
100
AcDbSymbolTableRecord
100
AcDbLayerTableRecord
  2
AM_5
 70
     0
 62
     3
  6
CONTINUOUS
  0
LAYER
  5
BD7
330
2
100
AcDbSymbolTableRecord
100
AcDbLayerTableRecord
  2
DEFPOINTS
 70
     0
 62
     7
  6
CONTINUOUS
  0
LAYER
  5
E59
330
2
100
AcDbSymbolTableRecord
100
AcDbLayerTableRecord
  2
AM_6
 70
     0
 62
     2
  6
CONTINUOUS
  0
LAYER
  5
5BEF
330
2
100
AcDbSymbolTableRecord
100
AcDbLayerTableRecord
  2
AM_0
 70
     0
 62
     7
  6
CONTINUOUS
  0
ENDTAB
  0
TABLE
  2
STYLE
  5
3
330
0
100
AcDbSymbolTable
 70
     5
  0
STYLE
  5
11
330
3
100
AcDbSymbolTableRecord
100
AcDbTextStyleTableRecord
  2
STANDARD
 70
     0
 40
0.0
 41
1.0
 50
0.0
 71
     0
 42
2.5
  3
simplex.shx
  4
EXTFONT.SHX
  0
STYLE
  5
52
330
3
100
AcDbSymbolTableRecord
100
AcDbTextStyleTableRecord
  2

 70
     1
 40
0.0
 41
1.0
 50
0.0
 71
     0
 42
2.5
  3
ltypeshp.shx
  4

  0
STYLE
  5
6B
330
3
100
AcDbSymbolTableRecord
100
AcDbTextStyleTableRecord
  2
ASAMI
 70
     0
 40
0.0
 41
1.0
 50
0.0
 71
     0
 42
2.5
  3
simplex.shx
  4
EXTFONT.SHX
  0
STYLE
  5
262
330
3
100
AcDbSymbolTableRecord
100
AcDbTextStyleTableRecord
  2
ACJISTS
 70
     0
 40
1.0
 41
1.0
 50
0.0
 71
     0
 42
2.5
  3
simplex.shx
  4
bigfont.shx
  0
STYLE
  5
269
330
3
100
AcDbSymbolTableRecord
100
AcDbTextStyleTableRecord
  2
ACJISGDT
 70
     0
 40
0.0
 41
1.0
 50
0.0
 71
     0
 42
2.5
  3
amgdtans.shx
  4

  0
ENDTAB
  0
TABLE
  2
VIEW
  5
6
330
0
100
AcDbSymbolTable
 70
     0
  0
ENDTAB
  0
TABLE
  2
UCS
  5
7
330
0
100
AcDbSymbolTable
 70
     0
  0
ENDTAB
  0
TABLE
  2
APPID
  5
9
330
0
100
AcDbSymbolTable
 70
    12
  0
APPID
  5
12
330
9
100
AcDbSymbolTableRecord
100
AcDbRegAppTableRecord
  2
ACAD
 70
     0
  0
APPID
  5
30
330
9
100
AcDbSymbolTableRecord
100
AcDbRegAppTableRecord
  2
MCAD_NO_VIS
 70
     0
  0
APPID
  5
31
330
9
100
AcDbSymbolTableRecord
100
AcDbRegAppTableRecord
  2
ACAD_TEMP_GRAPHIC
 70
     0
  0
APPID
  5
2C2
330
9
100
AcDbSymbolTableRecord
100
AcDbRegAppTableRecord
  2
GENIUS_GENDTOL_13
 70
     0
  0
APPID
  5
339
330
9
100
AcDbSymbolTableRecord
100
AcDbRegAppTableRecord
  2
GENIUS_GENODEF_13
 70
     0
  0
APPID
  5
33A
330
9
100
AcDbSymbolTableRecord
100
AcDbRegAppTableRecord
  2
GENIUS_GENOBJ-N-RSBK_13
 70
     0
  0
APPID
  5
33B
330
9
100
AcDbSymbolTableRecord
100
AcDbRegAppTableRecord
  2
GENIUS_GENOBJ-N-LIB_13
 70
     0
  0
APPID
  5
33C
330
9
100
AcDbSymbolTableRecord
100
AcDbRegAppTableRecord
  2
GENIUS_GENSCALE_13
 70
     0
  0
APPID
  5
378
330
9
100
AcDbSymbolTableRecord
100
AcDbRegAppTableRecord
  2
GENIUS_GENDIMSH_14
 70
     0
  0
APPID
  5
BD8
330
9
100
AcDbSymbolTableRecord
100
AcDbRegAppTableRecord
  2
GENIUS_GENOBJ-N-CEN_13
 70
     0
  0
APPID
  5
BD9
330
9
100
AcDbSymbolTableRecord
100
AcDbRegAppTableRecord
  2
GENIUS_GENFIL_13
 70
     0
  0
APPID
  5
BDA
330
9
100
AcDbSymbolTableRecord
100
AcDbRegAppTableRecord
  2
GENIUS_GENOBJ-N-CHA_13
 70
     0
  0
ENDTAB
  0
TABLE
  2
DIMSTYLE
  5
A
330
0
100
AcDbSymbolTable
 70
     9
  0
DIMSTYLE
105
58
330
A
100
AcDbSymbolTableRecord
100
AcDbDimStyleTableRecord
  2
AM_JIS
 70
     0
  3

  4
"
  5
OPEN30
  6

  7

 40
1.0
 41
2.5
 42
1.0
 43
12.0
 44
1.0
 45
0.0
 46
0.0
 47
0.1
 48
0.1
140
3.2
141
0.0
142
0.0
143
0.0393701
144
1.0
145
0.0
146
0.71
147
1.5
 71
     0
 72
     0
 73
     0
 74
     0
 75
     0
 76
     0
 77
     3
 78
     8
170
     0
171
     2
172
     1
173
     0
174
     0
175
     0
176
   256
177
   256
178
     2
270
     2
271
     3
272
     3
273
     2
274
     2
340
6B
275
     0
280
     0
281
     0
282
     0
283
     0
284
     0
285
     0
286
     0
287
     3
288
     0
  0
DIMSTYLE
105
5F
330
A
100
AcDbSymbolTableRecord
100
AcDbDimStyleTableRecord
  2
AM_JIS$3
 70
     0
  3

  4
"
  5
OPEN30
  6

  7

 40
1.0
 41
2.5
 42
1.0
 43
10.0
 44
1.0
 45
0.0
 46
0.0
 47
0.1
 48
0.1
140
3.2
141
0.0
142
0.0
143
0.0393701
144
1.0
145
0.0
146
0.71
147
1.5
 71
     0
 72
     0
 73
     0
 74
     1
 75
     0
 76
     0
 77
     3
 78
     8
170
     0
171
     2
172
     0
173
     0
174
     0
175
     0
176
   256
177
   256
178
     2
270
     2
271
     2
272
     3
273
     2
274
     2
340
6B
275
     0
280
     0
281
     0
282
     0
283
     0
284
     0
285
     0
286
     0
287
     0
288
     1
  0
DIMSTYLE
105
60
330
A
100
AcDbSymbolTableRecord
100
AcDbDimStyleTableRecord
  2
AM_JIS$4
 70
     0
  3

  4
"
  5
OPEN30
  6

  7

 40
1.0
 41
2.5
 42
1.0
 43
10.0
 44
1.0
 45
0.0
 46
0.0
 47
0.1
 48
0.1
140
3.2
141
0.0
142
0.0
143
0.0393701
144
1.0
145
0.0
146
0.71
147
1.5
 71
     0
 72
     0
 73
     0
 74
     1
 75
     0
 76
     0
 77
     3
 78
     8
170
     0
171
     2
172
     0
173
     0
174
     0
175
     0
176
   256
177
   256
178
     2
270
     2
271
     2
272
     3
273
     2
274
     2
340
6B
275
     0
280
     0
281
     0
282
     0
283
     0
284
     0
285
     0
286
     0
287
     0
288
     1
  0
DIMSTYLE
105
61
330
A
100
AcDbSymbolTableRecord
100
AcDbDimStyleTableRecord
  2
AM_JIS$6
 70
     0
  3

  4
"
  5
OPEN30
  6

  7

 40
1.0
 41
2.5
 42
1.0
 43
10.0
 44
1.0
 45
0.0
 46
0.0
 47
0.1
 48
0.1
140
3.2
141
0.0
142
0.0
143
0.0393701
144
1.0
145
0.0
146
0.71
147
1.5
 71
     0
 72
     0
 73
     0
 74
     0
 75
     0
 76
     0
 77
     0
 78
     8
170
     0
171
     2
172
     1
173
     0
174
     0
175
     0
176
   256
177
   256
178
     2
270
     2
271
     2
272
     2
273
     2
274
     2
340
6B
275
     0
280
     0
281
     0
282
     0
283
     0
284
     0
285
     0
286
     0
287
     3
288
     0
  0
DIMSTYLE
105
62
330
A
100
AcDbSymbolTableRecord
100
AcDbDimStyleTableRecord
  2
AM_JIS$7
 70
     0
  3

  4
"
  5
OPEN30
  6

  7

 40
1.0
 41
2.5
 42
1.0
 43
10.0
 44
1.0
 45
0.0
 46
0.0
 47
0.1
 48
0.1
140
3.2
141
0.0
142
0.0
143
0.0393701
144
1.0
145
0.0
146
0.71
147
1.5
 71
     0
 72
     0
 73
     0
 74
     0
 75
     0
 76
     0
 77
     3
 78
     8
170
     0
171
     2
172
     1
173
     0
174
     0
175
     0
176
   256
177
   256
178
     2
270
     2
271
     2
272
     3
273
     2
274
     2
340
6B
275
     0
280
     0
281
     0
282
     0
283
     0
284
     0
285
     0
286
     0
287
     3
288
     0
  0
DIMSTYLE
105
63
330
A
100
AcDbSymbolTableRecord
100
AcDbDimStyleTableRecord
  2
AM_JIS$SF
 70
     0
  3

  4
"
  5
OPEN30
  6

  7

 40
1.0
 41
2.5
 42
1.0
 43
10.0
 44
1.0
 45
0.0
 46
0.0
 47
0.1
 48
0.1
140
3.2
141
0.0
142
0.0
143
0.0393701
144
1.0
145
0.0
146
0.71
147
1.5
 71
     0
 72
     0
 73
     0
 74
     0
 75
     1
 76
     1
 77
     3
 78
     8
170
     0
171
     2
172
     1
173
     0
174
     0
175
     0
176
   256
177
   256
178
     2
270
     2
271
     2
272
     2
273
     2
274
     2
340
6B
275
     0
280
     0
281
     0
282
     0
283
     0
284
     0
285
     0
286
     0
287
     3
288
     0
  0
DIMSTYLE
105
68
330
A
100
AcDbSymbolTableRecord
100
AcDbDimStyleTableRecord
  2
AM_JIS$SH
 70
     0
  3

  4
"
  5

  6
GENAXEH
  7
OPEN30
 40
1.0
 41
2.5
 42
1.0
 43
10.0
 44
1.0
 45
0.0
 46
0.0
 47
0.1
 48
0.1
140
3.2
141
0.0
142
0.0
143
0.0393701
144
2.0
145
0.0
146
0.71
147
1.5
 71
     0
 72
     0
 73
     0
 74
     0
 75
     1
 76
     1
 77
     3
 78
     8
170
     0
171
     2
172
     1
173
     1
174
     0
175
     0
176
   256
177
   256
178
     2
270
     2
271
     2
272
     2
273
     2
274
     2
340
6B
275
     0
280
     0
281
     0
282
     0
283
     0
284
     0
285
     0
286
     0
287
     3
288
     0
  0
DIMSTYLE
105
B34
102
{ACAD_REACTORS
330
9558
102
}
330
A
100
AcDbSymbolTableRecord
100
AcDbDimStyleTableRecord
  2
AM_JIS$2
 70
     0
  3

  4
"
  5
OPEN30
  6

  7

 40
1.0
 41
2.5
 42
1.0
 43
12.0
 44
1.0
 45
0.0
 46
0.0
 47
0.1
 48
0.1
140
3.2
141
0.0
142
0.0
143
0.0393701
144
1.0
145
0.0
146
0.71
147
1.5
 71
     0
 72
     0
 73
     0
 74
     0
 75
     0
 76
     0
 77
     3
 78
     8
170
     0
171
     2
172
     1
173
     0
174
     0
175
     0
176
   256
177
   256
178
     2
270
     2
271
     3
272
     3
273
     2
274
     2
340
6B
275
     0
280
     0
281
     0
282
     0
283
     0
284
     0
285
     0
286
     0
287
     3
288
     0
  0
DIMSTYLE
105
1AB6
102
{ACAD_REACTORS
330
928D
330
928E
330
928F
330
9291
330
9290
330
9293
330
9292
330
965D
102
}
330
A
100
AcDbSymbolTableRecord
100
AcDbDimStyleTableRecord
  2
AM_JIS$0
 70
     0
  3

  4
"
  5
OPEN30
  6

  7

 40
1.0
 41
2.5
 42
0.0
 43
10.0
 44
1.0
 45
0.0
 46
0.0
 47
0.1
 48
0.1000000001
140
3.799999999999999
141
0.0
142
0.0
143
0.0393701
144
1.0
145
0.0
146
0.71
147
1.5
 71
     0
 72
     0
 73
     0
 74
     0
 75
     0
 76
     0
 77
     3
 78
     1
170
     0
171
     2
172
     1
173
     0
174
     0
175
     0
176
     3
177
     3
178
     2
270
     2
271
     2
272
     2
273
     2
274
     2
340
11
275
     1
280
     0
281
     0
282
     0
283
     0
284
     8
285
     0
286
     0
287
     0
288
     0
  0
ENDTAB
  0
TABLE
  2
BLOCK_RECORD
  5
1
330
0
100
AcDbSymbolTable
 70
    14
  0
BLOCK_RECORD
  5
1F
102
{ACAD_XDICTIONARY
360
74
102
}
330
1
100
AcDbSymbolTableRecord
100
AcDbBlockTableRecord
  2
*MODEL_SPACE
  0
BLOCK_RECORD
  5
101
102
{ACAD_XDICTIONARY
360
9810
102
}
330
1
100
AcDbSymbolTableRecord
100
AcDbBlockTableRecord
  2
*PAPER_SPACE
  0
BLOCK_RECORD
  5
59
330
1
100
AcDbSymbolTableRecord
100
AcDbBlockTableRecord
  2
_OPEN30
  0
BLOCK_RECORD
  5
64
330
1
100
AcDbSymbolTableRecord
100
AcDbBlockTableRecord
  2
GENAXEH
  0
BLOCK_RECORD
  5
92A0
330
1
100
AcDbSymbolTableRecord
100
AcDbBlockTableRecord
  2
*D5
  0
BLOCK_RECORD
  5
92AC
330
1
100
AcDbSymbolTableRecord
100
AcDbBlockTableRecord
  2
*D6
  0
BLOCK_RECORD
  5
92B8
330
1
100
AcDbSymbolTableRecord
100
AcDbBlockTableRecord
  2
*D7
  0
BLOCK_RECORD
  5
92C4
330
1
100
AcDbSymbolTableRecord
100
AcDbBlockTableRecord
  2
*D8
  0
BLOCK_RECORD
  5
92D0
330
1
100
AcDbSymbolTableRecord
100
AcDbBlockTableRecord
  2
*D9
  0
BLOCK_RECORD
  5
92DC
330
1
100
AcDbSymbolTableRecord
100
AcDbBlockTableRecord
  2
*D10
  0
BLOCK_RECORD
  5
92E8
330
1
100
AcDbSymbolTableRecord
100
AcDbBlockTableRecord
  2
*D11
  0
BLOCK_RECORD
  5
9559
330
1
100
AcDbSymbolTableRecord
100
AcDbBlockTableRecord
  2
*D12
  0
BLOCK_RECORD
  5
965E
330
1
100
AcDbSymbolTableRecord
100
AcDbBlockTableRecord
  2
*D13
  0
ENDTAB
  0
ENDSEC
  0
SECTION
  2
BLOCKS
  0
BLOCK
  5
20
330
1F
100
AcDbEntity
  8
0
100
AcDbBlockBegin
  2
*MODEL_SPACE
 70
     0
 10
0.0
 20
0.0
 30
0.0
  3
*MODEL_SPACE
  1

  0
ENDBLK
  5
21
330
1F
100
AcDbEntity
  8
0
100
AcDbBlockEnd
  0
BLOCK
  5
103
330
101
100
AcDbEntity
 67
     1
  8
0
100
AcDbBlockBegin
  2
*PAPER_SPACE
 70
     0
 10
0.0
 20
0.0
 30
0.0
  3
*PAPER_SPACE
  1

  0
ENDBLK
  5
104
330
101
100
AcDbEntity
 67
     1
  8
0
100
AcDbBlockEnd
  0
BLOCK
  5
5D
330
59
100
AcDbEntity
  8
0
100
AcDbBlockBegin
  2
_OPEN30
 70
     0
 10
0.0
 20
0.0
 30
0.0
  3
_OPEN30
  1

  0
LINE
  5
5A
330
59
100
AcDbEntity
  8
0
 62
     0
100
AcDbLine
 10
-1.0
 20
0.26794919
 30
0.0
 11
0.0
 21
0.0
 31
0.0
  0
LINE
  5
5B
330
59
100
AcDbEntity
  8
0
 62
     0
100
AcDbLine
 10
0.0
 20
0.0
 30
0.0
 11
-1.0
 21
-0.26794919
 31
0.0
  0
LINE
  5
5C
330
59
100
AcDbEntity
  8
0
 62
     0
100
AcDbLine
 10
0.0
 20
0.0
 30
0.0
 11
-1.0
 21
0.0
 31
0.0
  0
ENDBLK
  5
5E
330
59
100
AcDbEntity
  8
0
100
AcDbBlockEnd
  0
BLOCK
  5
66
330
64
100
AcDbEntity
  8
0
100
AcDbBlockBegin
  2
GENAXEH
 70
     0
 10
0.0
 20
0.0
 30
0.0
  3
GENAXEH
  1

  0
LINE
  5
65
330
64
100
AcDbEntity
  8
0
100
AcDbLine
 10
-1.0
 20
0.0
 30
0.0
 11
1.0
 21
0.0
 31
0.0
  0
ENDBLK
  5
67
330
64
100
AcDbEntity
  8
0
100
AcDbBlockEnd
  0
BLOCK
  5
92AA
330
92A0
100
AcDbEntity
  8
0
100
AcDbBlockBegin
  2
*D5
 70
     1
 10
0.0
 20
0.0
 30
0.0
  3
*D5
  1

  0
LINE
  5
9812
330
92A0
100
AcDbEntity
  8
AM_5
100
AcDbLine
 10
-49.5
 20
15.875
 30
0.0
 11
-74.0
 21
15.875
 31
0.0
  0
LINE
  5
9813
330
92A0
100
AcDbEntity
  8
AM_5
100
AcDbLine
 10
-49.5
 20
-15.875
 30
0.0
 11
-74.0
 21
-15.87499999999999
 31
0.0
  0
LINE
  5
9814
330
92A0
100
AcDbEntity
  8
AM_5
100
AcDbLine
 10
-73.0
 20
13.375
 30
0.0
 11
-73.0
 21
-13.37499999999999
 31
0.0
  0
INSERT
  5
9815
330
92A0
100
AcDbEntity
  8
AM_5
100
AcDbBlockReference
  2
_OPEN30
 10
-73.0
 20
15.875
 30
0.0
 41
2.5
 42
2.5
 43
2.5
 50
90.0
  0
INSERT
  5
9816
330
92A0
100
AcDbEntity
  8
AM_5
100
AcDbBlockReference
  2
_OPEN30
 10
-73.0
 20
-15.87499999999999
 30
0.0
 41
2.5
 42
2.5
 43
2.5
 50
270.0
  0
MTEXT
  5
9817
330
92A0
100
AcDbEntity
  8
AM_5
 62
     2
100
AcDbMText
 10
-76.09999999999999
 20
-0.000000000000004
 30
0.0
 40
3.2
 41
0.0
 71
     5
 72
     1
  1
%%c31.75
  7
ASAMI
 11
0.0000000000000001
 21
1.0
 31
0.0
  0
POINT
  5
9818
330
92A0
100
AcDbEntity
  8
DEFPOINTS
 62
     0
100
AcDbPoint
 10
-48.5
 20
15.875
 30
0.0
  0
POINT
  5
9819
330
92A0
100
AcDbEntity
  8
DEFPOINTS
 62
     0
100
AcDbPoint
 10
-48.5
 20
-15.875
 30
0.0
  0
POINT
  5
981A
330
92A0
100
AcDbEntity
  8
DEFPOINTS
 62
     0
100
AcDbPoint
 10
-73.0
 20
-15.87499999999999
 30
0.0
  0
ENDBLK
  5
92AB
330
92A0
100
AcDbEntity
  8
0
100
AcDbBlockEnd
  0
BLOCK
  5
92B6
330
92AC
100
AcDbEntity
  8
0
100
AcDbBlockBegin
  2
*D6
 70
     1
 10
0.0
 20
0.0
 30
0.0
  3
*D6
  1

  0
LINE
  5
981B
330
92AC
100
AcDbEntity
  8
AM_5
100
AcDbLine
 10
-48.50000010927863
 20
35.0
 30
0.0
 11
-83.99999999999998
 21
35.00000000000001
 31
0.0
  0
LINE
  5
981C
330
92AC
100
AcDbEntity
  8
AM_5
100
AcDbLine
 10
-48.50000010927863
 20
-34.99999999999999
 30
0.0
 11
-84.00000000000002
 21
-34.99999999999998
 31
0.0
  0
LINE
  5
981D
330
92AC
100
AcDbEntity
  8
AM_5
100
AcDbLine
 10
-82.99999999999998
 20
32.50000000000001
 30
0.0
 11
-83.00000000000002
 21
-32.49999999999998
 31
0.0
  0
INSERT
  5
981E
330
92AC
100
AcDbEntity
  8
AM_5
100
AcDbBlockReference
  2
_OPEN30
 10
-82.99999999999998
 20
35.00000000000001
 30
0.0
 41
2.5
 42
2.5
 43
2.5
 50
90.0
  0
INSERT
  5
981F
330
92AC
100
AcDbEntity
  8
AM_5
100
AcDbBlockReference
  2
_OPEN30
 10
-83.00000000000002
 20
-34.99999999999998
 30
0.0
 41
2.5
 42
2.5
 43
2.5
 50
270.0
  0
MTEXT
  5
9820
330
92AC
100
AcDbEntity
  8
AM_5
 62
     2
100
AcDbMText
 10
-86.09999999999999
 20
-0.0000000000000016
 30
0.0
 40
3.2
 41
0.0
 71
     5
 72
     1
  1
%%c70
  7
ASAMI
 11
0.0000000000000001
 21
1.0
 31
0.0
  0
POINT
  5
9821
330
92AC
100
AcDbEntity
  8
DEFPOINTS
 62
     0
100
AcDbPoint
 10
-47.50000010927863
 20
35.0
 30
0.0
  0
POINT
  5
9822
330
92AC
100
AcDbEntity
  8
DEFPOINTS
 62
     0
100
AcDbPoint
 10
-47.50000010927863
 20
-35.0
 30
0.0
  0
POINT
  5
9823
330
92AC
100
AcDbEntity
  8
DEFPOINTS
 62
     0
100
AcDbPoint
 10
-83.00000000000002
 20
-34.99999999999998
 30
0.0
  0
ENDBLK
  5
92B7
330
92AC
100
AcDbEntity
  8
0
100
AcDbBlockEnd
  0
BLOCK
  5
92C2
330
92B8
100
AcDbEntity
  8
0
100
AcDbBlockBegin
  2
*D7
 70
     1
 10
0.0
 20
0.0
 30
0.0
  3
*D7
  1

  0
LINE
  5
9824
330
92B8
100
AcDbEntity
  8
AM_5
100
AcDbLine
 10
-50.00000000000051
 20
-33.49999978144296
 30
0.0
 11
-50.00000000000051
 21
-65.00000101000002
 31
0.0
  0
LINE
  5
9825
330
92B8
100
AcDbEntity
  8
AM_5
100
AcDbLine
 10
-42.0
 20
-7.349999999999999
 30
0.0
 11
-42.00000000000001
 21
-65.00000101000002
 31
0.0
  0
LINE
  5
9826
330
92B8
100
AcDbEntity
  8
AM_5
100
AcDbLine
 10
-47.50000000000051
 20
-64.00000101000002
 30
0.0
 11
-44.5
 21
-64.00000101000002
 31
0.0
  0
INSERT
  5
9827
330
92B8
100
AcDbEntity
  8
AM_5
100
AcDbBlockReference
  2
_OPEN30
 10
-50.00000000000051
 20
-64.00000101000002
 30
0.0
 41
2.5
 42
2.5
 43
2.5
 50
180.0
  0
INSERT
  5
9828
330
92B8
100
AcDbEntity
  8
AM_5
100
AcDbBlockReference
  2
_OPEN30
 10
-42.0
 20
-64.00000101000002
 30
0.0
 41
2.5
 42
2.5
 43
2.5
  0
MTEXT
  5
9829
330
92B8
100
AcDbEntity
  8
AM_5
 62
     2
100
AcDbMText
 10
-46.00000000000025
 20
-60.90000101000001
 30
0.0
 40
3.2
 41
0.0
 71
     5
 72
     1
  1
8
  7
ASAMI
  0
POINT
  5
982A
330
92B8
100
AcDbEntity
  8
DEFPOINTS
 62
     0
100
AcDbPoint
 10
-50.00000000000051
 20
-32.49999978144296
 30
0.0
  0
POINT
  5
982B
330
92B8
100
AcDbEntity
  8
DEFPOINTS
 62
     0
100
AcDbPoint
 10
-42.0
 20
-6.349999999999999
 30
0.0
  0
POINT
  5
982C
330
92B8
100
AcDbEntity
  8
DEFPOINTS
 62
     0
100
AcDbPoint
 10
-42.0
 20
-64.00000101000002
 30
0.0
  0
ENDBLK
  5
92C3
330
92B8
100
AcDbEntity
  8
0
100
AcDbBlockEnd
  0
BLOCK
  5
92CE
330
92C4
100
AcDbEntity
  8
0
100
AcDbBlockBegin
  2
*D8
 70
     1
 10
0.0
 20
0.0
 30
0.0
  3
*D8
  1

  0
LINE
  5
9836
330
92C4
100
AcDbEntity
  8
AM_5
100
AcDbLine
 10
-50.0
 20
-33.49999978144302
 30
0.0
 11
-50.0
 21
-85.00000101000003
 31
0.0
  0
LINE
  5
9837
330
92C4
100
AcDbEntity
  8
AM_5
100
AcDbLine
 10
-0.0000000000000001
 20
-51.0
 30
0.0
 11
-0.0000000000000021
 21
-85.00000101000003
 31
0.0
  0
LINE
  5
9838
330
92C4
100
AcDbEntity
  8
AM_5
100
AcDbLine
 10
-47.5
 20
-84.00000101000001
 30
0.0
 11
-2.500000000000002
 21
-84.00000101000001
 31
0.0
  0
INSERT
  5
9839
330
92C4
100
AcDbEntity
  8
AM_5
100
AcDbBlockReference
  2
_OPEN30
 10
-50.0
 20
-84.00000101000001
 30
0.0
 41
2.5
 42
2.5
 43
2.5
 50
180.0
  0
INSERT
  5
983A
330
92C4
100
AcDbEntity
  8
AM_5
100
AcDbBlockReference
  2
_OPEN30
 10
-0.0000000000000021
 20
-84.00000101000001
 30
0.0
 41
2.5
 42
2.5
 43
2.5
  0
MTEXT
  5
983B
330
92C4
100
AcDbEntity
  8
AM_5
 62
     2
100
AcDbMText
 10
-25.0
 20
-80.90000101000002
 30
0.0
 40
3.2
 41
0.0
 71
     5
 72
     1
  1
50
  7
ASAMI
  0
POINT
  5
983C
330
92C4
100
AcDbEntity
  8
DEFPOINTS
 62
     0
100
AcDbPoint
 10
-50.0
 20
-32.49999978144302
 30
0.0
  0
POINT
  5
983D
330
92C4
100
AcDbEntity
  8
DEFPOINTS
 62
     0
100
AcDbPoint
 10
0.0
 20
-50.0
 30
0.0
  0
POINT
  5
983E
330
92C4
100
AcDbEntity
  8
DEFPOINTS
 62
     0
100
AcDbPoint
 10
-0.0000000000000021
 20
-84.00000101000001
 30
0.0
  0
ENDBLK
  5
92CF
330
92C4
100
AcDbEntity
  8
0
100
AcDbBlockEnd
  0
BLOCK
  5
92DA
330
92D0
100
AcDbEntity
  8
0
100
AcDbBlockBegin
  2
*D9
 70
     1
 10
0.0
 20
0.0
 30
0.0
  3
*D9
  1

  0
LINE
  5
982D
330
92D0
100
AcDbEntity
  8
AM_5
100
AcDbLine
 10
-50.00000000000051
 20
-33.49999978144296
 30
0.0
 11
-50.00000000000051
 21
-75.00000101000002
 31
0.0
  0
LINE
  5
982E
330
92D0
100
AcDbEntity
  8
AM_5
100
AcDbLine
 10
-18.0
 20
-24.0
 30
0.0
 11
-18.0
 21
-75.00000101000002
 31
0.0
  0
LINE
  5
982F
330
92D0
100
AcDbEntity
  8
AM_5
100
AcDbLine
 10
-47.50000000000051
 20
-74.00000101000002
 30
0.0
 11
-20.5
 21
-74.00000101000002
 31
0.0
  0
INSERT
  5
9830
330
92D0
100
AcDbEntity
  8
AM_5
100
AcDbBlockReference
  2
_OPEN30
 10
-50.00000000000051
 20
-74.00000101000002
 30
0.0
 41
2.5
 42
2.5
 43
2.5
 50
180.0
  0
INSERT
  5
9831
330
92D0
100
AcDbEntity
  8
AM_5
100
AcDbBlockReference
  2
_OPEN30
 10
-18.0
 20
-74.00000101000002
 30
0.0
 41
2.5
 42
2.5
 43
2.5
  0
MTEXT
  5
9832
330
92D0
100
AcDbEntity
  8
AM_5
 62
     2
100
AcDbMText
 10
-34.00000000000025
 20
-70.90000101000002
 30
0.0
 40
3.2
 41
0.0
 71
     5
 72
     1
  1
32
  7
ASAMI
  0
POINT
  5
9833
330
92D0
100
AcDbEntity
  8
DEFPOINTS
 62
     0
100
AcDbPoint
 10
-50.00000000000051
 20
-32.49999978144296
 30
0.0
  0
POINT
  5
9834
330
92D0
100
AcDbEntity
  8
DEFPOINTS
 62
     0
100
AcDbPoint
 10
-18.0
 20
-23.0
 30
0.0
  0
POINT
  5
9835
330
92D0
100
AcDbEntity
  8
DEFPOINTS
 62
     0
100
AcDbPoint
 10
-18.0
 20
-74.00000101000002
 30
0.0
  0
ENDBLK
  5
92DB
330
92D0
100
AcDbEntity
  8
0
100
AcDbBlockEnd
  0
BLOCK
  5
92E6
330
92DC
100
AcDbEntity
  8
0
100
AcDbBlockBegin
  2
*D10
 70
     1
 10
0.0
 20
0.0
 30
0.0
  3
*D10
  1

  0
LINE
  5
9848
330
92DC
100
AcDbEntity
  8
AM_5
100
AcDbLine
 10
-6.108032357694355
 20
-23.0
 30
0.0
 11
17.09896950585996
 21
-23.0
 31
0.0
  0
LINE
  5
9849
330
92DC
100
AcDbEntity
  8
AM_5
100
AcDbLine
 10
-6.108032357694355
 20
23.0
 30
0.0
 11
17.09896950585996
 21
22.99999999999999
 31
0.0
  0
LINE
  5
984A
330
92DC
100
AcDbEntity
  8
AM_5
100
AcDbLine
 10
16.09896950585996
 20
-20.5
 30
0.0
 11
16.09896950585997
 21
20.49999999999999
 31
0.0
  0
INSERT
  5
984B
330
92DC
100
AcDbEntity
  8
AM_5
100
AcDbBlockReference
  2
_OPEN30
 10
16.09896950585996
 20
-23.0
 30
0.0
 41
2.5
 42
2.5
 43
2.5
 50
270.0
  0
INSERT
  5
984C
330
92DC
100
AcDbEntity
  8
AM_5
100
AcDbBlockReference
  2
_OPEN30
 10
16.09896950585997
 20
22.99999999999999
 30
0.0
 41
2.5
 42
2.5
 43
2.5
 50
90.0
  0
MTEXT
  5
984D
330
92DC
100
AcDbEntity
  8
AM_5
 62
     2
100
AcDbMText
 10
12.99896950585996
 20
-0.0000000000000006
 30
0.0
 40
3.2
 41
0.0
 71
     5
 72
     1
  1
%%c46
  7
ASAMI
 11
0.0000000000000001
 21
1.0
 31
0.0
  0
POINT
  5
984E
330
92DC
100
AcDbEntity
  8
DEFPOINTS
 62
     0
100
AcDbPoint
 10
-7.108032357694355
 20
-23.0
 30
0.0
  0
POINT
  5
984F
330
92DC
100
AcDbEntity
  8
DEFPOINTS
 62
     0
100
AcDbPoint
 10
-7.108032357694355
 20
23.0
 30
0.0
  0
POINT
  5
9850
330
92DC
100
AcDbEntity
  8
DEFPOINTS
 62
     0
100
AcDbPoint
 10
16.09896950585997
 20
22.99999999999999
 30
0.0
  0
ENDBLK
  5
92E7
330
92DC
100
AcDbEntity
  8
0
100
AcDbBlockEnd
  0
BLOCK
  5
92F2
330
92E8
100
AcDbEntity
  8
0
100
AcDbBlockBegin
  2
*D11
 70
     1
 10
0.0
 20
0.0
 30
0.0
  3
*D11
  1

  0
LINE
  5
983F
330
92E8
100
AcDbEntity
  8
AM_5
100
AcDbLine
 10
1.0
 20
50.00000000000003
 30
0.0
 11
35.02336723027853
 21
50.00000000000002
 31
0.0
  0
LINE
  5
9840
330
92E8
100
AcDbEntity
  8
AM_5
100
AcDbLine
 10
1.0
 20
-50.0
 30
0.0
 11
35.0233672302785
 21
-50.0
 31
0.0
  0
LINE
  5
9841
330
92E8
100
AcDbEntity
  8
AM_5
100
AcDbLine
 10
34.02336723027852
 20
47.50000000000002
 30
0.0
 11
34.0233672302785
 21
-47.5
 31
0.0
  0
INSERT
  5
9842
330
92E8
100
AcDbEntity
  8
AM_5
100
AcDbBlockReference
  2
_OPEN30
 10
34.02336723027853
 20
50.00000000000002
 30
0.0
 41
2.5
 42
2.5
 43
2.5
 50
90.0
  0
INSERT
  5
9843
330
92E8
100
AcDbEntity
  8
AM_5
100
AcDbBlockReference
  2
_OPEN30
 10
34.0233672302785
 20
-50.0
 30
0.0
 41
2.5
 42
2.5
 43
2.5
 50
270.0
  0
MTEXT
  5
9844
330
92E8
100
AcDbEntity
  8
AM_5
 62
     2
100
AcDbMText
 10
30.92336723027851
 20
0.0000000000000125
 30
0.0
 40
3.2
 41
0.0
 71
     5
 72
     1
  1
%%c100
  7
ASAMI
 11
0.0000000000000001
 21
1.0
 31
0.0
  0
POINT
  5
9845
330
92E8
100
AcDbEntity
  8
DEFPOINTS
 62
     0
100
AcDbPoint
 10
0.0
 20
50.00000000000003
 30
0.0
  0
POINT
  5
9846
330
92E8
100
AcDbEntity
  8
DEFPOINTS
 62
     0
100
AcDbPoint
 10
0.0
 20
-50.0
 30
0.0
  0
POINT
  5
9847
330
92E8
100
AcDbEntity
  8
DEFPOINTS
 62
     0
100
AcDbPoint
 10
34.0233672302785
 20
-50.0
 30
0.0
  0
ENDBLK
  5
92F3
330
92E8
100
AcDbEntity
  8
0
100
AcDbBlockEnd
  0
BLOCK
  5
9568
330
9559
100
AcDbEntity
  8
0
100
AcDbBlockBegin
  2
*D12
 70
     1
 10
0.0
 20
0.0
 30
0.0
  3
*D12
  1

  0
LINE
  5
961C
330
9559
100
AcDbEntity
  8
AM_5
100
AcDbLine
 10
0.0
 20
-50.99999999999999
 30
0.0
 11
0.0
 21
-85.0233672302785
 31
0.0
  0
LINE
  5
961D
330
9559
100
AcDbEntity
  8
AM_5
100
AcDbLine
 10
0.9999999999999964
 20
-50.0
 30
0.0
 11
35.0233672302785
 21
-50.0
 31
0.0
  0
ARC
  5
961E
330
9559
100
AcDbEntity
  8
AM_5
100
AcDbCircle
 10
-0.0000000000000036
 20
-50.0
 30
0.0
 40
34.0233672302785
100
AcDbArc
 50
274.2109792134154
 51
355.7890207865844
  0
INSERT
  5
961F
330
9559
100
AcDbEntity
  8
AM_5
100
AcDbBlockReference
  2
_OPEN30
 10
-0.0000000000000071
 20
-84.02336723027849
 30
0.0
 41
2.5
 42
2.5
 43
2.5
 50
182.1054896067077
  0
INSERT
  5
9620
330
9559
100
AcDbEntity
  8
AM_5
100
AcDbBlockReference
  2
_OPEN30
 10
34.0233672302785
 20
-50.0
 30
0.0
 41
2.5
 42
2.5
 43
2.5
 50
87.89451039329231
  0
MTEXT
  5
9621
330
9559
100
AcDbEntity
  8
AM_5
 62
     2
100
AcDbMText
 10
21.86612266565178
 20
-71.8661226656518
 30
0.0
 40
3.2
 41
0.0
 71
     5
 72
     1
  1
90°
  7
ASAMI
 11
0.7071067811865476
 21
0.7071067811865475
 31
0.0
1001
ACAD
1000
MTEXTBEGIN
1070
    73
1070
     1
1070
    44
1040
1.0
1070
    74
1070
     0
1000
MTEXTEND
  0
POINT
  5
9622
330
9559
100
AcDbEntity
  8
DEFPOINTS
 62
     0
100
AcDbPoint
 10
17.01168361513925
 20
-79.46510034370817
 30
0.0
  0
POINT
  5
9623
330
9559
100
AcDbEntity
  8
DEFPOINTS
 62
     0
100
AcDbPoint
 10
-0.0000000000000036
 20
-50.0
 30
0.0
  0
POINT
  5
9624
330
9559
100
AcDbEntity
  8
DEFPOINTS
 62
     0
100
AcDbPoint
 10
0.0
 20
50.00000000000003
 30
0.0
  0
POINT
  5
9625
330
9559
100
AcDbEntity
  8
DEFPOINTS
 62
     0
100
AcDbPoint
 10
-0.0000000000000036
 20
-50.0
 30
0.0
  0
POINT
  5
9626
330
9559
100
AcDbEntity
  8
DEFPOINTS
 62
     0
100
AcDbPoint
 10
-14.97875976562
 20
-50.0
 30
0.0
  0
ENDBLK
  5
9569
330
9559
100
AcDbEntity
  8
0
100
AcDbBlockEnd
  0
BLOCK
  5
9668
330
965E
100
AcDbEntity
  8
0
100
AcDbBlockBegin
  2
*D13
 70
     1
 10
0.0
 20
0.0
 30
0.0
  3
*D13
  1

  0
LINE
  5
9851
330
965E
100
AcDbEntity
  8
AM_5
100
AcDbLine
 10
-50.0
 20
6.349999999999994
 30
0.0
 11
-63.99999999999999
 21
6.349999999999998
 31
0.0
  0
LINE
  5
9852
330
965E
100
AcDbEntity
  8
AM_5
100
AcDbLine
 10
-50.0
 20
-6.349999999999999
 30
0.0
 11
-63.99999999999999
 21
-6.349999999999995
 31
0.0
  0
LINE
  5
9853
330
965E
100
AcDbEntity
  8
AM_5
100
AcDbLine
 10
-62.99999999999999
 20
3.849999999999998
 30
0.0
 11
-62.99999999999999
 21
-3.849999999999995
 31
0.0
  0
INSERT
  5
9854
330
965E
100
AcDbEntity
  8
AM_5
100
AcDbBlockReference
  2
_OPEN30
 10
-62.99999999999999
 20
6.349999999999998
 30
0.0
 41
2.5
 42
2.5
 43
2.5
 50
90.0
  0
INSERT
  5
9855
330
965E
100
AcDbEntity
  8
AM_5
100
AcDbBlockReference
  2
_OPEN30
 10
-62.99999999999999
 20
-6.349999999999995
 30
0.0
 41
2.5
 42
2.5
 43
2.5
 50
270.0
  0
MTEXT
  5
9856
330
965E
100
AcDbEntity
  8
AM_5
 62
     2
100
AcDbMText
 10
-66.09999999999999
 20
-0.0000000000000082
 30
0.0
 40
3.2
 41
0.0
 71
     5
 72
     1
  1
12.7
  7
ASAMI
 11
0.0000000000000001
 21
1.0
 31
0.0
  0
POINT
  5
9857
330
965E
100
AcDbEntity
  8
DEFPOINTS
 62
     0
100
AcDbPoint
 10
-49.0
 20
6.349999999999994
 30
0.0
  0
POINT
  5
9858
330
965E
100
AcDbEntity
  8
DEFPOINTS
 62
     0
100
AcDbPoint
 10
-49.0
 20
-6.349999999999999
 30
0.0
  0
POINT
  5
9859
330
965E
100
AcDbEntity
  8
DEFPOINTS
 62
     0
100
AcDbPoint
 10
-62.99999999999999
 20
-6.349999999999995
 30
0.0
  0
ENDBLK
  5
9669
330
965E
100
AcDbEntity
  8
0
100
AcDbBlockEnd
  0
ENDSEC
  0
SECTION
  2
ENTITIES
  0
TEXT
  5
E5A
330
1F
100
AcDbEntity
  8
AM_6
100
AcDbText
 10
-43.57142857142856
 20
-106.50000101
 30
0.0
 40
5.0
  1
WFM5100R
 72
     4
 11
-24.99999999999998
 21
-104.00000101
 31
0.0
100
AcDbText
  0
SPLINE
  5
9105
330
1F
100
AcDbEntity
  8
AM_0
  6
CONTINUOUS
 48
0.5
100
AcDbSpline
210
0.0
220
0.0
230
1.0
 70
     8
 71
     3
 72
    11
 73
     7
 74
     5
 42
0.0000000001
 43
0.0000000001
 44
0.0000000001
 40
0.0
 40
0.0
 40
0.0
 40
0.0
 40
0.3703255381462747
 40
0.7309046287472319
 40
1.081769724946503
 40
1.423125903594942
 40
1.423125903594942
 40
1.423125903594942
 40
1.423125903594942
 10
-13.27758789061999
 20
45.72954100370913
 30
0.0
 10
-13.3727478662795
 20
45.80817937604981
 30
0.0
 10
-13.56056334081892
 20
45.96338646932419
 30
0.0
 10
-13.83174557949179
 20
46.20111093039973
 30
0.0
 10
-14.09101840915929
 20
46.43768133427771
 30
0.0
 10
-14.25635696157806
 20
46.59864906075705
 30
0.0
 10
-14.337890625
 20
46.67802733182912
 30
0.0
 11
-13.27758789061999
 21
45.72954100370913
 31
0.0
 11
-13.56188964842999
 21
45.96684569120912
 31
0.0
 11
-13.83337402342999
 21
46.20415037870913
 31
0.0
 11
-14.09204101561999
 21
46.44121092557912
 31
0.0
 11
-14.337890625
 21
46.67802733182912
 31
0.0
  0
SPLINE
  5
9106
330
1F
100
AcDbEntity
  8
AM_0
  6
CONTINUOUS
 48
0.5
100
AcDbSpline
210
0.0
220
0.0
230
1.0
 70
     8
 71
     3
 72
    11
 73
     7
 74
     5
 42
0.0000000001
 43
0.0000000001
 44
0.0000000001
 40
0.0
 40
0.0
 40
0.0
 40
0.0
 40
0.5349072761327197
 40
1.053436934015609
 40
1.570067628727081
 40
2.099689680682192
 40
2.099689680682192
 40
2.099689680682192
 40
2.099689680682192
 10
-1.437744140619997
 20
46.67570799589912
 30
0.0
 10
-1.543092425881418
 20
46.5313078614685
 30
0.0
 10
-1.750563476624905
 20
46.24692878929395
 30
0.0
 10
-1.96590603609266
 20
45.76647577315738
 30
0.0
 10
-2.105633460426044
 20
45.26057048232826
 30
0.0
 10
-2.125542162576501
 20
44.911495006373
 30
0.0
 10
-2.135620117179996
 20
44.73479002714912
 30
0.0
 11
-1.437744140619997
 21
46.67570799589912
 31
0.0
 11
-1.737548828119997
 21
46.23271483182913
 31
0.0
 11
-1.953735351559998
 21
45.76140135526912
 31
0.0
 11
-2.086547851559998
 21
45.26213377714912
 31
0.0
 11
-2.135620117179996
 21
44.73479002714912
 31
0.0
  0
SPLINE
  5
9107
330
1F
100
AcDbEntity
  8
AM_0
  6
CONTINUOUS
 48
0.5
100
AcDbSpline
210
0.0
220
0.0
230
1.0
 70
     8
 71
     3
 72
    11
 73
     7
 74
     5
 42
0.0000000001
 43
0.0000000001
 44
0.0000000001
 40
0.0
 40
0.0
 40
0.0
 40
0.0
 40
0.5361740152060682
 40
1.054925592786956
 40
1.571581207225527
 40
2.101999808154658
 40
2.101999808154658
 40
2.101999808154658
 40
2.101999808154658
 10
-14.337890625
 20
46.67802733182912
 30
0.0
 10
-14.23175388189313
 20
46.53366648879013
 30
0.0
 10
-14.02292920284661
 20
46.24963566372374
 30
0.0
 10
-13.80716137698647
 20
45.76864094372469
 30
0.0
 10
-13.6702072944208
 20
45.26142309561997
 30
0.0
 10
-13.65373177892669
 20
44.91186593677961
 30
0.0
 10
-13.64538574217999
 20
44.73479002714912
 30
0.0
 11
-14.337890625
 21
46.67802733182912
 31
0.0
 11
-14.03601074217999
 21
46.23491209745913
 31
0.0
 11
-13.81982421875
 21
45.76335448026912
 31
0.0
 11
-13.68969726561999
 21
45.26335448026912
 31
0.0
 11
-13.64538574217999
 21
44.73479002714912
 31
0.0
  0
SPLINE
  5
9108
330
1F
100
AcDbEntity
  8
AM_0
  6
CONTINUOUS
 48
0.5
100
AcDbSpline
210
0.0
220
0.0
230
1.0
 70
     8
 71
     3
 72
    11
 73
     7
 74
     5
 42
0.0000000001
 43
0.0000000001
 44
0.0000000001
 40
0.0
 40
0.0
 40
0.0
 40
0.0
 40
0.976034357306538
 40
1.95698392242954
 40
2.934688066204705
 40
3.912881475174806
 40
3.912881475174806
 40
3.912881475174806
 40
3.912881475174806
 10
-1.75146484375
 20
44.73479002714912
 30
0.0
 10
-1.712455212285666
 20
45.06364792083116
 30
0.0
 10
-1.634239500897931
 20
45.7230198024479
 30
0.0
 10
-1.056042894220134
 20
46.5315038966287
 30
0.0
 10
-0.6701650510800175
 20
47.45952379550454
 30
0.0
 10
-0.7289986790151767
 20
48.11824010759517
 30
0.0
 10
-0.7584228515599989
 20
48.44768065214913
 30
0.0
 11
-1.75146484375
 21
44.73479002714912
 31
0.0
 11
-1.557983398429996
 21
45.69145506620913
 31
0.0
 11
-1.087646484369997
 21
46.55229490995913
 31
0.0
 11
-0.7491455078099989
 21
47.46953123807912
 31
0.0
 11
-0.7584228515599989
 21
48.44768065214913
 31
0.0
  0
SPLINE
  5
9109
330
1F
100
AcDbEntity
  8
AM_0
  6
CONTINUOUS
 48
0.5
100
AcDbSpline
210
0.0
220
0.0
230
1.0
 70
     8
 71
     3
 72
    11
 73
     7
 74
     5
 42
0.0000000001
 43
0.0000000001
 44
0.0000000001
 40
0.0
 40
0.0
 40
0.0
 40
0.0
 40
0.977701377533514
 40
1.960099044461408
 40
2.937949574430628
 40
3.918099555422582
 40
3.918099555422582
 40
3.918099555422582
 40
3.918099555422582
 10
-14.02722167967999
 20
44.73479002714912
 30
0.0
 10
-14.05763325423274
 20
45.06627490077014
 30
0.0
 10
-14.11860248225181
 20
45.73083690197861
 30
0.0
 10
-14.71859005034948
 20
46.5301633728067
 30
0.0
 10
-15.11035516516985
 20
47.45786009924073
 30
0.0
 10
-15.0503990204225
 20
48.11748225054388
 30
0.0
 10
-15.02038574217999
 20
48.44768065214913
 30
0.0
 11
-14.02722167967999
 21
44.73479002714912
 31
0.0
 11
-14.20288085936999
 21
45.69658201932912
 31
0.0
 11
-14.6845703125
 21
46.55278319120912
 31
0.0
 11
-15.03002929686999
 21
47.46757811307912
 31
0.0
 11
-15.02038574217999
 21
48.44768065214913
 31
0.0
  0
SPLINE
  5
910A
330
1F
100
AcDbEntity
  8
AM_0
  6
CONTINUOUS
 48
0.5
100
AcDbSpline
210
0.0
220
0.0
230
1.0
 70
     8
 71
     3
 72
    11
 73
     7
 74
     5
 42
0.0000000001
 43
0.0000000001
 44
0.0000000001
 40
0.0
 40
0.0
 40
0.0
 40
0.0
 40
0.5013671898801274
 40
1.0017301845116
 40
1.501596190216595
 40
2.001764247071755
 40
2.001764247071755
 40
2.001764247071755
 40
2.001764247071755
 10
-13.60583496092999
 20
42.11064451932912
 30
0.0
 10
-13.69631688002113
 20
42.25231751613582
 30
0.0
 10
-13.87709949072168
 20
42.53537975095301
 30
0.0
 10
-13.98908181419275
 20
43.03437723762685
 30
0.0
 10
-13.93936553068694
 20
43.54133879748981
 30
0.0
 10
-13.80540421103313
 20
43.84825389924873
 30
0.0
 10
-13.73840332030999
 20
44.00175780057913
 30
0.0
 11
-13.60583496092999
 21
42.11064451932912
 31
0.0
 11
-13.85070800780999
 21
42.54814451932912
 31
0.0
 11
-13.96215820311999
 21
43.03593748807912
 31
0.0
 11
-13.91418457030999
 21
43.53349608182912
 31
0.0
 11
-13.73840332030999
 21
44.00175780057913
 31
0.0
  0
SPLINE
  5
910B
330
1F
100
AcDbEntity
  8
AM_0
  6
CONTINUOUS
 48
0.5
100
AcDbSpline
210
0.0
220
0.0
230
1.0
 70
     8
 71
     3
 72
    11
 73
     7
 74
     5
 42
0.0000000001
 43
0.0000000001
 44
0.0000000001
 40
0.0
 40
0.0
 40
0.0
 40
0.0
 40
0.4990769598406131
 40
0.9972549384524207
 40
1.488504764602036
 40
1.998478591560721
 40
1.998478591560721
 40
1.998478591560721
 40
1.998478591560721
 10
-2.1728515625
 20
42.11064451932912
 30
0.0
 10
-2.082675832738273
 20
42.25203261644913
 30
0.0
 10
-1.90248680565485
 20
42.53455413003762
 30
0.0
 10
-1.805341157587898
 20
43.03063010934661
 30
0.0
 10
-1.833247272163821
 20
43.53804556673359
 30
0.0
 10
-1.968960386770541
 20
43.84575715374043
 30
0.0
 10
-2.0380859375
 20
44.00249022245913
 30
0.0
 11
-2.1728515625
 21
42.11064451932912
 31
0.0
 11
-1.93115234375
 21
42.54729002714912
 31
0.0
 11
-1.825927734369997
 21
43.03422850370913
 31
0.0
 11
-1.861083984369997
 21
43.52421873807912
 31
0.0
 11
-2.0380859375
 21
44.00249022245913
 31
0.0
  0
SPLINE
  5
910C
330
1F
100
AcDbEntity
  8
AM_0
  6
CONTINUOUS
 48
0.5
100
AcDbSpline
210
0.0
220
0.0
230
1.0
 70
     8
 71
     3
 72
    11
 73
     7
 74
     5
 42
0.0000000001
 43
0.0000000001
 44
0.0000000001
 40
0.0
 40
0.0
 40
0.0
 40
0.0
 40
0.4991837633989799
 40
0.9973875398562446
 40
1.488646117055324
 40
1.998505463912627
 40
1.998505463912627
 40
1.998505463912627
 40
1.998505463912627
 10
-13.60583496092999
 20
42.11064451932912
 30
0.0
 10
-13.6959921990802
 20
41.9692116675007
 30
0.0
 10
-13.87612968060921
 20
41.68662362180887
 30
0.0
 10
-13.97355308468142
 20
41.1905518990018
 30
0.0
 10
-13.94540149182174
 20
40.68315838460544
 30
0.0
 10
-13.80970794983535
 20
40.37549082661
 30
0.0
 10
-13.74060058592999
 20
40.21879881620913
 30
0.0
 11
-13.60583496092999
 21
42.11064451932912
 31
0.0
 11
-13.84753417967999
 21
41.67387694120913
 31
0.0
 11
-13.95288085936999
 21
41.18693846464913
 31
0.0
 11
-13.91760253905999
 21
40.69694823026913
 31
0.0
 11
-13.74060058592999
 21
40.21879881620913
 31
0.0
  0
SPLINE
  5
910D
330
1F
100
AcDbEntity
  8
AM_0
  6
CONTINUOUS
 48
0.5
100
AcDbSpline
210
0.0
220
0.0
230
1.0
 70
     8
 71
     3
 72
    11
 73
     7
 74
     5
 42
0.0000000001
 43
0.0000000001
 44
0.0000000001
 40
0.0
 40
0.0
 40
0.0
 40
0.0
 40
0.5014141172268487
 40
1.001804315789448
 40
1.501791828457704
 40
2.001959885312865
 40
2.001959885312865
 40
2.001959885312865
 40
2.001959885312865
 10
-2.1728515625
 20
42.11064451932912
 30
0.0
 10
-2.082434828177396
 20
41.96892099377284
 30
0.0
 10
-1.901785996100352
 20
41.68576335087194
 30
0.0
 10
-1.789551948332444
 20
41.18677430938332
 30
0.0
 10
-1.839317201741766
 20
40.67974002571008
 30
0.0
 10
-1.973286474790174
 20
40.37278987669114
 30
0.0
 10
-2.040283203119997
 20
40.21928709745913
 30
0.0
 11
-2.1728515625
 21
42.11064451932912
 31
0.0
 11
-1.928100585929996
 21
41.67302244901913
 31
0.0
 11
-1.816528320309998
 21
41.18522948026913
 31
0.0
 11
-1.864501953119997
 21
40.68754881620913
 31
0.0
 11
-2.040283203119997
 21
40.21928709745913
 31
0.0
  0
SPLINE
  5
910E
330
1F
100
AcDbEntity
  8
AM_0
  6
CONTINUOUS
 48
0.5
100
AcDbSpline
210
0.0
220
0.0
230
1.0
 70
     8
 71
     3
 72
    11
 73
     7
 74
     5
 42
0.0000000001
 43
0.0000000001
 44
0.0000000001
 40
0.0
 40
0.0
 40
0.0
 40
0.0
 40
0.1852772007841732
 40
0.3701626329590637
 40
0.5549069670113883
 40
0.7401783770088955
 40
0.7401783770088955
 40
0.7401783770088955
 40
0.7401783770088955
 10
-2.135620117179996
 20
44.73479002714912
 30
0.0
 10
-2.132484707634928
 20
44.67309806264009
 30
0.0
 10
-2.126220518367737
 20
44.5498445812704
 30
0.0
 10
-2.105914257208345
 20
44.36591051147778
 30
0.0
 10
-2.078571193072629
 20
44.18288964252868
 30
0.0
 10
-2.053057980697311
 20
44.06219239105874
 30
0.0
 10
-2.040283203119997
 20
44.00175780057913
 30
0.0
 11
-2.135620117179996
 21
44.73479002714912
 31
0.0
 11
-2.124389648429996
 21
44.54985350370913
 31
0.0
 11
-2.104736328119997
 21
44.36601561307912
 31
0.0
 11
-2.076782226559998
 21
44.18339842557912
 31
0.0
 11
-2.040283203119997
 21
44.00175780057913
 31
0.0
  0
SPLINE
  5
910F
330
1F
100
AcDbEntity
  8
AM_0
  6
CONTINUOUS
 48
0.5
100
AcDbSpline
210
0.0
220
0.0
230
1.0
 70
     8
 71
     3
 72
    11
 73
     7
 74
     5
 42
0.0000000001
 43
0.0000000001
 44
0.0000000001
 40
0.0
 40
0.0
 40
0.0
 40
0.0
 40
0.1851479910718603
 40
0.3700464391601614
 40
0.5547907732124859
 40
0.7400381736515016
 40
0.7400381736515016
 40
0.7400381736515016
 40
0.7400381736515016
 10
-13.64318847655999
 20
39.48637694120913
 30
0.0
 10
-13.6462606512477
 20
39.54803011011654
 30
0.0
 10
-13.65240085993741
 20
39.67125335161676
 30
0.0
 10
-13.67293680201716
 20
39.85512663436422
 30
0.0
 10
-13.70025453263756
 20
40.03814235982266
 30
0.0
 10
-13.72567553636677
 20
40.15885081039054
 30
0.0
 10
-13.73840332030999
 20
40.21928709745913
 30
0.0
 11
-13.64318847655999
 21
39.48637694120913
 31
0.0
 11
-13.654296875
 21
39.67119139432913
 31
0.0
 11
-13.67407226561999
 21
39.85502928495913
 31
0.0
 11
-13.70202636717999
 21
40.03764647245913
 31
0.0
 11
-13.73840332030999
 21
40.21928709745913
 31
0.0
  0
SPLINE
  5
9110
330
1F
100
AcDbEntity
  8
AM_0
  6
CONTINUOUS
 48
0.5
100
AcDbSpline
210
0.0
220
0.0
230
1.0
 70
     8
 71
     3
 72
    11
 73
     7
 74
     5
 42
0.0000000001
 43
0.0000000001
 44
0.0000000001
 40
0.0
 40
0.0
 40
0.0
 40
0.0
 40
0.1854199427006307
 40
0.3701434254148722
 40
0.5550140271936656
 40
0.7404215129967282
 40
0.7404215129967282
 40
0.7404215129967282
 40
0.7404215129967282
 10
-2.133422851559998
 20
39.48637694120913
 30
0.0
 10
-2.132052446129949
 20
39.54819126009089
 30
0.0
 10
-2.129316782680281
 20
39.67158771571124
 30
0.0
 10
-2.110392512919283
 20
39.85577748098348
 30
0.0
 10
-2.081652782284436
 20
40.03869416103846
 30
0.0
 10
-2.052622250016897
 20
40.15870592753971
 30
0.0
 10
-2.0380859375
 20
40.21879881620913
 30
0.0
 11
-2.133422851559998
 21
39.48637694120913
 31
0.0
 11
-2.126831054679996
 21
39.67167967557912
 31
0.0
 11
-2.108764648429996
 21
39.85551756620913
 31
0.0
 11
-2.079223632809998
 21
40.03801268339913
 31
0.0
 11
-2.0380859375
 21
40.21879881620913
 31
0.0
  0
SPLINE
  5
9111
330
1F
100
AcDbEntity
  8
AM_0
  6
CONTINUOUS
 48
0.5
100
AcDbSpline
210
0.0
220
0.0
230
1.0
 70
     8
 71
     3
 72
    11
 73
     7
 74
     5
 42
0.0000000001
 43
0.0000000001
 44
0.0000000001
 40
0.0
 40
0.0
 40
0.0
 40
0.0
 40
0.1855376391900459
 40
0.3702611219042875
 40
0.5550307809166286
 40
0.7402921772547338
 40
0.7402921772547338
 40
0.7402921772547338
 40
0.7402921772547338
 10
-13.64538574217999
 20
44.73479002714912
 30
0.0
 10
-13.64670809544972
 20
44.67293537289728
 30
0.0
 10
-13.64934699937961
 20
44.54949748838895
 30
0.0
 10
-13.66824324945799
 20
44.36529172773804
 30
0.0
 10
-13.69722316735034
 20
44.1825008795665
 30
0.0
 10
-13.72612864216203
 20
44.06254691076822
 30
0.0
 10
-13.74060058592999
 20
44.00249022245913
 30
0.0
 11
-13.64538574217999
 21
44.73479002714912
 31
0.0
 11
-13.65185546875
 21
44.54936522245913
 31
0.0
 11
-13.669921875
 21
44.36552733182913
 31
0.0
 11
-13.69958496092999
 21
44.18315428495913
 31
0.0
 11
-13.74060058592999
 21
44.00249022245913
 31
0.0
  0
SPLINE
  5
9112
330
1F
100
AcDbEntity
  8
AM_0
  6
CONTINUOUS
 48
0.5
100
AcDbSpline
210
0.0
220
0.0
230
1.0
 70
     8
 71
     3
 72
    11
 73
     7
 74
     5
 42
0.0000000001
 43
0.0000000001
 44
0.0000000001
 40
0.0
 40
0.0
 40
0.0
 40
0.0
 40
0.5361418870954079
 40
1.055004432011854
 40
1.571660046447906
 40
2.102078647387005
 40
2.102078647387005
 40
2.102078647387005
 40
2.102078647387005
 10
-1.440795898429996
 20
37.54313963651913
 30
0.0
 10
-1.546990385875798
 20
37.68744927645512
 30
0.0
 10
-1.755956813620348
 20
37.97141759413188
 30
0.0
 10
-1.971609702776278
 20
38.45250489128421
 30
0.0
 10
-2.108608455152634
 20
38.95974006112163
 30
0.0
 10
-2.125079220901638
 20
39.30929974995344
 30
0.0
 10
-2.133422851559998
 20
39.48637694120913
 30
0.0
 11
-1.440795898429996
 21
37.54313963651913
 31
0.0
 11
-1.742797851559998
 21
37.98613280057912
 31
0.0
 11
-1.958984375
 21
38.45781248807913
 31
0.0
 11
-2.089111328119997
 21
38.95781248807912
 31
0.0
 11
-2.133422851559998
 21
39.48637694120913
 31
0.0
  0
SPLINE
  5
9113
330
1F
100
AcDbEntity
  8
AM_0
  6
CONTINUOUS
 48
0.5
100
AcDbSpline
210
0.0
220
0.0
230
1.0
 70
     8
 71
     3
 72
    11
 73
     7
 74
     5
 42
0.0000000001
 43
0.0000000001
 44
0.0000000001
 40
0.0
 40
0.0
 40
0.0
 40
0.0
 40
0.4897093982577138
 40
0.9660524244562354
 40
1.441002801939763
 40
1.926601052021908
 40
1.926601052021908
 40
1.926601052021908
 40
1.926601052021908
 10
-0.7584228515599989
 20
35.77348631620913
 30
0.0
 10
-0.7748097490736914
 20
35.93625769672601
 30
0.0
 10
-0.8071362719640841
 20
36.25735769468373
 30
0.0
 10
-0.9483771889970604
 20
36.71912618289747
 30
0.0
 10
-1.1530279496808
 20
37.15506156988638
 30
0.0
 10
-1.344166977466154
 20
37.41282781759888
 30
0.0
 10
-1.440795898429996
 20
37.54313963651913
 30
0.0
 11
-0.7584228515599989
 21
35.77348631620913
 31
0.0
 11
-0.8236083984299966
 21
36.25883787870913
 31
0.0
 11
-0.9591064453099988
 21
36.71550291776913
 31
0.0
 11
-1.164794921869997
 21
37.14360350370913
 31
0.0
 11
-1.440795898429996
 21
37.54313963651913
 31
0.0
  0
SPLINE
  5
9114
330
1F
100
AcDbEntity
  8
AM_0
  6
CONTINUOUS
 48
0.5
100
AcDbSpline
210
0.0
220
0.0
230
1.0
 70
     8
 71
     3
 72
    11
 73
     7
 74
     5
 42
0.0000000001
 43
0.0000000001
 44
0.0000000001
 40
0.0
 40
0.0
 40
0.0
 40
0.0
 40
0.488329419612927
 40
0.9647172401312541
 40
1.439886919308866
 40
1.924607533709027
 40
1.924607533709027
 40
1.924607533709027
 40
1.924607533709027
 10
-1.55224609375
 20
34.97954100370913
 30
0.0
 10
-1.714307454721732
 20
34.99787394083535
 30
0.0
 10
-2.034467130975703
 20
35.03409150176361
 30
0.0
 10
-2.495383153100457
 20
35.17592942970388
 30
0.0
 10
-2.932080743473941
 20
35.37784152079394
 30
0.0
 10
-3.192641884282557
 20
35.56465049747277
 30
0.0
 10
-3.32421875
 20
35.65898436307913
 30
0.0
 11
-1.55224609375
 21
34.97954100370913
 31
0.0
 11
-2.035522460929996
 21
35.04960936307913
 31
0.0
 11
-2.491943359369997
 21
35.18608397245913
 31
0.0
 11
-2.921508789059998
 21
35.38920897245913
 31
0.0
 11
-3.32421875
 21
35.65898436307913
 31
0.0
  0
SPLINE
  5
9115
330
1F
100
AcDbEntity
  8
AM_0
  6
CONTINUOUS
 48
0.5
100
AcDbSpline
210
0.0
220
0.0
230
1.0
 70
     8
 71
     3
 72
    11
 73
     7
 74
     5
 42
0.0000000001
 43
0.0000000001
 44
0.0000000001
 40
0.0
 40
0.0
 40
0.0
 40
0.0
 40
0.489604682314511
 40
0.9660300367251588
 40
1.441033292382527
 40
1.926631542470359
 40
1.926631542470359
 40
1.926631542470359
 40
1.926631542470359
 10
-14.22644042967999
 20
34.97954100370913
 30
0.0
 10
-14.0637183348856
 20
34.99600318819632
 30
0.0
 10
-13.74265434818696
 20
35.0284844230766
 30
0.0
 10
-13.28077591406313
 20
35.16939512788444
 30
0.0
 10
-12.8449005356993
 20
35.37430811539943
 30
0.0
 10
-12.58710603654513
 20
35.5654241449889
 30
0.0
 10
-12.45678710936999
 20
35.66203612089913
 30
0.0
 11
-14.22644042967999
 21
34.97954100370913
 31
0.0
 11
-13.7412109375
 21
35.04484862089913
 31
0.0
 11
-13.28442382811999
 21
35.18022459745913
 31
0.0
 11
-12.85632324217999
 21
35.38603514432912
 31
0.0
 11
-12.45678710936999
 21
35.66203612089913
 31
0.0
  0
SPLINE
  5
9116
330
1F
100
AcDbEntity
  8
AM_0
  6
CONTINUOUS
 48
0.5
100
AcDbSpline
210
0.0
220
0.0
230
1.0
 70
     8
 71
     3
 72
    11
 73
     7
 74
     5
 42
0.0000000001
 43
0.0000000001
 44
0.0000000001
 40
0.0
 40
0.0
 40
0.0
 40
0.0
 40
0.5350083752407534
 40
1.053477997353712
 40
1.570077324398488
 40
2.099699376353599
 40
2.099699376353599
 40
2.099699376353599
 40
2.099699376353599
 10
-14.34106445311999
 20
37.54545897245913
 30
0.0
 10
-14.23574048935251
 20
37.68991113126228
 30
0.0
 10
-14.02834844923127
 20
37.97434998869302
 30
0.0
 10
-13.81268091499226
 20
38.45466287689179
 30
0.0
 10
-13.67322839602516
 20
38.96062438777438
 30
0.0
 10
-13.65328453272597
 20
39.30967782205743
 30
0.0
 10
-13.64318847655999
 20
39.48637694120913
 30
0.0
 11
-14.34106445311999
 21
37.54545897245913
 31
0.0
 11
-14.04125976561999
 21
37.98857420682912
 31
0.0
 11
-13.82495117186999
 21
38.45976561307912
 31
0.0
 11
-13.69226074217999
 21
38.95903319120913
 31
0.0
 11
-13.64318847655999
 21
39.48637694120913
 31
0.0
  0
SPLINE
  5
9117
330
1F
100
AcDbEntity
  8
AM_0
  6
CONTINUOUS
 48
0.5
100
AcDbSpline
210
0.0
220
0.0
230
1.0
 70
     8
 71
     3
 72
    11
 73
     7
 74
     5
 42
0.0000000001
 43
0.0000000001
 44
0.0000000001
 40
0.0
 40
0.0
 40
0.0
 40
0.0
 40
0.4883119192049583
 40
0.9647347245218092
 40
1.439904403699421
 40
1.924557089438915
 40
1.924557089438915
 40
1.924557089438915
 40
1.924557089438915
 10
-15.02038574217999
 20
35.77348631620913
 30
0.0
 10
-15.002116484102
 20
35.93555275061551
 30
0.0
 10
-14.96602277644115
 20
36.25573972701748
 30
0.0
 10
-14.82395929957088
 20
36.71660324233144
 30
0.0
 10
-14.62208607054177
 20
37.15328950102947
 30
0.0
 10
-14.43535329637306
 20
37.41387761526848
 30
0.0
 10
-14.34106445311999
 20
37.54545897245913
 30
0.0
 11
-15.02038574217999
 21
35.77348631620913
 31
0.0
 11
-14.95043945311999
 21
36.25676268339913
 31
0.0
 11
-14.81384277342999
 21
36.71318358182912
 31
0.0
 11
-14.61071777342999
 21
37.14274901151913
 31
0.0
 11
-14.34106445311999
 21
37.54545897245913
 31
0.0
  0
SPLINE
  5
9118
330
1F
100
AcDbEntity
  8
AM_0
  6
CONTINUOUS
 48
0.5
100
AcDbSpline
210
0.0
220
0.0
230
1.0
 70
     8
 71
     3
 72
    11
 73
     7
 74
     5
 42
0.0000000001
 43
0.0000000001
 44
0.0000000001
 40
0.0
 40
0.0
 40
0.0
 40
0.0
 40
0.9760585629167481
 40
1.956949604710056
 40
2.934653748485221
 40
3.912846007326846
 40
3.912846007326846
 40
3.912846007326846
 40
3.912846007326846
 10
-5.26513671875
 20
35.97270506620913
 30
0.0
 10
-4.93628612441578
 20
35.93363601457231
 30
0.0
 10
-4.276956792097932
 20
35.85530447990641
 30
0.0
 10
-3.46838451028773
 20
35.27730855359838
 30
0.0
 10
-2.540408564737831
 20
34.89142759187906
 30
0.0
 10
-1.881688380990783
 20
34.95016498024927
 30
0.0
 10
-1.55224609375
 20
34.97954100370913
 30
0.0
 11
-5.26513671875
 21
35.97270506620913
 31
0.0
 11
-4.308471679679996
 21
35.77910155057912
 31
0.0
 11
-3.447631835929996
 21
35.30888670682912
 31
0.0
 11
-2.530395507809998
 21
34.97038573026912
 31
0.0
 11
-1.55224609375
 21
34.97954100370913
 31
0.0
  0
SPLINE
  5
9119
330
1F
100
AcDbEntity
  8
AM_0
  6
CONTINUOUS
 48
0.5
100
AcDbSpline
210
0.0
220
0.0
230
1.0
 70
     8
 71
     3
 72
    11
 73
     7
 74
     5
 42
0.0000000001
 43
0.0000000001
 44
0.0000000001
 40
0.0
 40
0.0
 40
0.0
 40
0.0
 40
0.7218059176497789
 40
1.450700878430752
 40
2.171117389268143
 40
2.897023629031242
 40
2.897023629031242
 40
2.897023629031242
 40
2.897023629031242
 10
-7.889404296869997
 20
36.39409178495913
 30
0.0
 10
-7.733083599658522
 20
36.20889587640043
 30
0.0
 10
-7.418906939123544
 20
35.83668520223105
 30
0.0
 10
-6.672521261744212
 20
35.57878368329765
 30
0.0
 10
-5.980922862981318
 20
35.87035616040532
 30
0.0
 10
-5.504335086297113
 20
35.93850254442828
 30
0.0
 10
-5.26513671875
 20
35.97270506620913
 30
0.0
 11
-7.889404296869997
 21
36.39409178495913
 31
0.0
 11
-7.374755859369997
 21
35.88798826932912
 31
0.0
 11
-6.679077148429996
 21
35.67045897245913
 31
0.0
 11
-5.978515625
 21
35.83842772245913
 31
0.0
 11
-5.26513671875
 21
35.97270506620913
 31
0.0
  0
SPLINE
  5
911A
330
1F
100
AcDbEntity
  8
AM_0
  6
CONTINUOUS
 48
0.5
100
AcDbSpline
210
0.0
220
0.0
230
1.0
 70
     8
 71
     3
 72
    11
 73
     7
 74
     5
 42
0.0000000001
 43
0.0000000001
 44
0.0000000001
 40
0.0
 40
0.0
 40
0.0
 40
0.0
 40
0.7261150684695729
 40
1.455858962135238
 40
2.173991877273042
 40
2.896614350948829
 40
2.896614350948829
 40
2.896614350948829
 40
2.896614350948829
 10
-2.1728515625
 20
42.11064451932912
 30
0.0
 10
-1.989176424265509
 20
41.95145429531101
 30
0.0
 10
-1.620908214815291
 20
41.63227827984892
 30
0.0
 10
-1.349442321916303
 20
40.88838535646869
 30
0.0
 10
-1.65417152015288
 20
40.1999277179523
 30
0.0
 10
-1.71896643309834
 20
39.72472079982202
 30
0.0
 10
-1.75146484375
 20
39.48637694120913
 30
0.0
 11
-2.1728515625
 21
42.11064451932912
 31
0.0
 11
-1.668212890619997
 21
41.58854979276912
 31
0.0
 11
-1.445556640619997
 21
40.89360350370912
 31
0.0
 11
-1.619384765619997
 21
40.19682615995913
 31
0.0
 11
-1.75146484375
 21
39.48637694120913
 31
0.0
  0
SPLINE
  5
911B
330
1F
100
AcDbEntity
  8
AM_0
  6
CONTINUOUS
 48
0.5
100
AcDbSpline
210
0.0
220
0.0
230
1.0
 70
     8
 71
     3
 72
    11
 73
     7
 74
     5
 42
0.0000000001
 43
0.0000000001
 44
0.0000000001
 40
0.0
 40
0.0
 40
0.0
 40
0.0
 40
0.9778214617426936
 40
1.960112741040466
 40
2.938077470711199
 40
3.918106596075904
 40
3.918106596075904
 40
3.918106596075904
 40
3.918106596075904
 10
-1.75146484375
 20
39.48637694120913
 30
0.0
 10
-1.721067454212956
 20
39.15484498706011
 30
0.0
 10
-1.660133722589047
 20
38.49026557986305
 30
0.0
 10
-1.060038929792337
 20
37.6909536999231
 30
0.0
 10
-0.6683291049427293
 20
36.76325300986556
 30
0.0
 10
-0.728370501293451
 20
36.10364036659273
 30
0.0
 10
-0.7584228515599989
 20
35.77348631620913
 30
0.0
 11
-1.75146484375
 21
39.48637694120913
 31
0.0
 11
-1.575805664059998
 21
38.52446287870913
 31
0.0
 11
-1.094116210929996
 21
37.66838377714913
 31
0.0
 11
-0.7486572265599989
 21
36.75346678495913
 31
0.0
 11
-0.7584228515599989
 21
35.77348631620913
 31
0.0
  0
SPLINE
  5
911C
330
1F
100
AcDbEntity
  8
AM_0
  6
CONTINUOUS
 48
0.5
100
AcDbSpline
210
0.0
220
0.0
230
1.0
 70
     8
 71
     3
 72
    11
 73
     7
 74
     5
 42
0.0000000001
 43
0.0000000001
 44
0.0000000001
 40
0.0
 40
0.0
 40
0.0
 40
0.0
 40
0.7215462588474346
 40
1.45055772801981
 40
2.170974238866929
 40
2.896857908110292
 40
2.896857908110292
 40
2.896857908110292
 40
2.896857908110292
 10
-2.1728515625
 20
42.11064451932912
 30
0.0
 10
-1.987698374620002
 20
42.26688635301495
 30
0.0
 10
-1.615476380182884
 20
42.58098651847762
 30
0.0
 10
-1.357668898703393
 20
43.32738076130513
 30
0.0
 10
-1.649259891696716
 20
44.01898805874426
 30
0.0
 10
-1.717310780025591
 20
44.49558883824576
 30
0.0
 10
-1.75146484375
 20
44.73479002714912
 30
0.0
 11
-2.1728515625
 21
42.11064451932912
 31
0.0
 11
-1.666870117179996
 21
42.62504881620913
 31
0.0
 11
-1.449340820309998
 21
43.32084959745913
 31
0.0
 11
-1.617309570309998
 21
44.02141112089913
 31
0.0
 11
-1.75146484375
 21
44.73479002714912
 31
0.0
  0
SPLINE
  5
911D
330
1F
100
AcDbEntity
  8
AM_0
  6
CONTINUOUS
 48
0.5
100
AcDbSpline
210
0.0
220
0.0
230
1.0
 70
     8
 71
     3
 72
    11
 73
     7
 74
     5
 42
0.0000000001
 43
0.0000000001
 44
0.0000000001
 40
0.0
 40
0.0
 40
0.0
 40
0.0
 40
0.7260273018485553
 40
1.45577119551422
 40
2.173904110652025
 40
2.896526584327812
 40
2.896526584327812
 40
2.896526584327812
 40
2.896526584327812
 10
-7.889404296869997
 20
36.39409178495913
 30
0.0
 10
-8.048551204348221
 20
36.21041394911357
 30
0.0
 10
-8.367659705050709
 20
35.8421180158924
 30
0.0
 10
-9.111546321468534
 20
35.57068765203927
 30
0.0
 10
-9.799997794233636
 20
35.87541046498027
 30
0.0
 10
-10.27520553397929
 20
35.94020622879642
 30
0.0
 10
-10.51354980467999
 20
35.97270506620913
 30
0.0
 11
-7.889404296869997
 21
36.39409178495913
 31
0.0
 11
-8.411376953119997
 21
35.88945311307913
 31
0.0
 11
-9.106323242179996
 21
35.66679686307912
 31
0.0
 11
-9.803100585929996
 21
35.84062498807913
 31
0.0
 11
-10.51354980467999
 21
35.97270506620913
 31
0.0
  0
SPLINE
  5
911E
330
1F
100
AcDbEntity
  8
AM_0
  6
CONTINUOUS
 48
0.5
100
AcDbSpline
210
0.0
220
0.0
230
1.0
 70
     8
 71
     3
 72
    11
 73
     7
 74
     5
 42
0.0000000001
 43
0.0000000001
 44
0.0000000001
 40
0.0
 40
0.0
 40
0.0
 40
0.0
 40
0.9778214617426936
 40
1.960112741044279
 40
2.937963271017034
 40
3.918113251998984
 40
3.918113251998984
 40
3.918113251998984
 40
3.918113251998984
 10
-10.51354980467999
 20
35.97270506620913
 30
0.0
 10
-10.84508143136379
 20
35.94230760518566
 30
0.0
 10
-11.5096601821348
 20
35.88137373026199
 30
0.0
 10
-12.30894592674464
 20
35.28130333934552
 30
0.0
 10
-13.23662257630545
 20
34.88957638019816
 30
0.0
 10
-13.89624292862511
 20
34.9495293265451
 30
0.0
 10
-14.22644042967999
 20
34.97954100370913
 30
0.0
 11
-10.51354980467999
 21
35.97270506620913
 31
0.0
 11
-11.47546386717999
 21
35.79704588651912
 31
0.0
 11
-12.33154296875
 21
35.31535643339913
 31
0.0
 11
-13.24633789061999
 21
34.96989744901913
 31
0.0
 11
-14.22644042967999
 21
34.97954100370913
 31
0.0
  0
SPLINE
  5
911F
330
1F
100
AcDbEntity
  8
AM_0
  6
CONTINUOUS
 48
0.5
100
AcDbSpline
210
0.0
220
0.0
230
1.0
 70
     8
 71
     3
 72
    11
 73
     7
 74
     5
 42
0.0000000001
 43
0.0000000001
 44
0.0000000001
 40
0.0
 40
0.0
 40
0.0
 40
0.0
 40
0.7261121543734697
 40
1.455818811751946
 40
2.173951726889751
 40
2.896574200565538
 40
2.896574200565538
 40
2.896574200565538
 40
2.896574200565538
 10
-13.60583496092999
 20
42.11064451932912
 30
0.0
 10
-13.7895747858918
 20
42.26977912470633
 30
0.0
 10
-14.15796401066415
 20
42.58883610607412
 30
0.0
 10
-14.42919407410667
 20
43.33281429439693
 30
0.0
 10
-14.12452623470632
 20
44.02123402947376
 30
0.0
 10
-14.05972384191074
 20
44.49644442461391
 30
0.0
 10
-14.02722167967999
 20
44.73479002714912
 30
0.0
 11
-13.60583496092999
 21
42.11064451932912
 31
0.0
 11
-14.11059570311999
 21
42.63261717557912
 31
0.0
 11
-14.33312988281
 21
43.32756346464913
 31
0.0
 11
-14.15930175780999
 21
44.02434080839912
 31
0.0
 11
-14.02722167967999
 21
44.73479002714912
 31
0.0
  0
SPLINE
  5
9120
330
1F
100
AcDbEntity
  8
AM_0
  6
CONTINUOUS
 48
0.5
100
AcDbSpline
210
0.0
220
0.0
230
1.0
 70
     8
 71
     3
 72
    11
 73
     7
 74
     5
 42
0.0000000001
 43
0.0000000001
 44
0.0000000001
 40
0.0
 40
0.0
 40
0.0
 40
0.0
 40
0.9760585629069424
 40
1.957115253525056
 40
2.934777140793862
 40
3.91284733467283
 40
3.91284733467283
 40
3.91284733467283
 40
3.91284733467283
 10
-14.02722167967999
 20
39.48637694120913
 30
0.0
 10
-14.06628455274691
 20
39.15752317132144
 30
0.0
 10
-14.14461032912051
 20
38.49813166174889
 30
0.0
 10
-14.72276271491948
 20
37.68958852033911
 30
0.0
 10
-15.10844915075882
 20
36.76153675722688
 30
0.0
 10
-15.04974429706132
 20
36.10288229992436
 30
0.0
 10
-15.02038574217999
 20
35.77348631620913
 30
0.0
 11
-14.02722167967999
 21
39.48637694120913
 31
0.0
 11
-14.22082519531
 21
38.52971190214913
 31
0.0
 11
-14.69116210936999
 21
37.66874998807912
 31
0.0
 11
-15.02954101561999
 21
36.75151365995913
 31
0.0
 11
-15.02038574217999
 21
35.77348631620913
 31
0.0
  0
SPLINE
  5
9121
330
1F
100
AcDbEntity
  8
AM_0
  6
CONTINUOUS
 48
0.5
100
AcDbSpline
210
0.0
220
0.0
230
1.0
 70
     8
 71
     3
 72
    11
 73
     7
 74
     5
 42
0.0000000001
 43
0.0000000001
 44
0.0000000001
 40
0.0
 40
0.0
 40
0.0
 40
0.0
 40
0.7217203317278175
 40
1.4506517321192
 40
2.171096714055409
 40
2.896980383298772
 40
2.896980383298772
 40
2.896980383298772
 40
2.896980383298772
 10
-13.60583496092999
 20
42.11064451932912
 30
0.0
 10
-13.79096479291271
 20
41.95431247552239
 30
0.0
 10
-14.16307418158648
 20
41.64008639629993
 30
0.0
 10
-14.42124021100252
 20
40.89376760826012
 30
0.0
 10
-14.12937164367922
 20
40.20219107240103
 30
0.0
 10
-14.06135692050507
 20
39.7255790593265
 30
0.0
 10
-14.02722167967999
 20
39.48637694120913
 30
0.0
 11
-13.60583496092999
 21
42.11064451932912
 31
0.0
 11
-14.11181640625
 21
41.59599608182912
 31
0.0
 11
-14.32946777342999
 21
40.90031737089913
 31
0.0
 11
-14.16137695311999
 21
40.19975584745913
 31
0.0
 11
-14.02722167967999
 21
39.48637694120913
 31
0.0
  0
SPLINE
  5
9122
330
1F
100
AcDbEntity
  8
AM_0
  6
CONTINUOUS
 48
0.5
100
AcDbSpline
210
0.0
220
0.0
230
1.0
 70
     8
 71
     3
 72
    11
 73
     7
 74
     5
 42
0.0000000001
 43
0.0000000001
 44
0.0000000001
 40
0.0
 40
0.0
 40
0.0
 40
0.0
 40
0.1366460334277115
 40
0.2482719757163628
 40
0.3573220394217211
 40
0.4878983081580153
 40
0.4878983081580153
 40
0.4878983081580153
 40
0.4878983081580153
 10
-13.60583496092999
 20
36.69694823026913
 30
0.0
 10
-13.60222475509377
 20
36.65113611420328
 30
0.0
 10
-13.59566537745784
 20
36.5679001483863
 30
0.0
 10
-13.53386799862601
 20
36.46021280950957
 30
0.0
 10
-13.42771208987292
 20
36.3989267991957
 30
0.0
 10
-13.34697400527961
 20
36.3957971703786
 30
0.0
 10
-13.30297851561999
 20
36.39409178495913
 30
0.0
 11
-13.60583496092999
 21
36.69694823026913
 31
0.0
 11
-13.583984375
 21
36.56206053495913
 31
0.0
 11
-13.52612304686999
 21
36.46660155057912
 31
0.0
 11
-13.43249511717999
 21
36.41069334745913
 31
0.0
 11
-13.30297851561999
 21
36.39409178495913
 31
0.0
  0
SPLINE
  5
9123
330
1F
100
AcDbEntity
  8
AM_0
  6
CONTINUOUS
 48
0.5
100
AcDbSpline
210
0.0
220
0.0
230
1.0
 70
     8
 71
     3
 72
    11
 73
     7
 74
     5
 42
0.0000000001
 43
0.0000000001
 44
0.0000000001
 40
0.0
 40
0.0
 40
0.0
 40
0.0
 40
0.1366460334293113
 40
0.2482719757127767
 40
0.3573220394181351
 40
0.4878983081544293
 40
0.4878983081544293
 40
0.4878983081544293
 40
0.4878983081544293
 10
-2.475708007809998
 20
36.39409178495913
 30
0.0
 10
-2.42989589174493
 20
36.39770199080059
 30
0.0
 10
-2.346659925931541
 20
36.40426136844587
 30
0.0
 10
-2.238972587047796
 20
36.4660587472615
 30
0.0
 10
-2.177686576737105
 20
36.57221465601718
 30
0.0
 10
-2.174556947919657
 20
36.65295274060984
 30
0.0
 10
-2.1728515625
 20
36.69694823026913
 30
0.0
 11
-2.475708007809998
 21
36.39409178495913
 31
0.0
 11
-2.3408203125
 21
36.41594237089913
 31
0.0
 11
-2.245361328119997
 21
36.47380369901913
 31
0.0
 11
-2.189453125
 21
36.56743162870913
 31
0.0
 11
-2.1728515625
 21
36.69694823026913
 31
0.0
  0
SPLINE
  5
9124
330
1F
100
AcDbEntity
  8
AM_0
  6
CONTINUOUS
 48
0.5
100
AcDbSpline
210
0.0
220
0.0
230
1.0
 70
     8
 71
     3
 72
    11
 73
     7
 74
     5
 42
0.0000000001
 43
0.0000000001
 44
0.0000000001
 40
0.0
 40
0.0
 40
0.0
 40
0.0
 40
0.3071674268233919
 40
0.6145861375957037
 40
0.9136572323391474
 40
1.233002362308752
 40
1.233002362308752
 40
1.233002362308752
 40
1.233002362308752
 10
-1.55224609375
 20
34.97954100370913
 30
0.0
 10
-1.44931195394635
 20
34.9927332854452
 30
0.0
 10
-1.243359467177516
 20
35.01912864110546
 30
0.0
 10
-0.9863757636849104
 20
35.20060421866732
 30
0.0
 10
-0.8020082257431262
 20
35.45954158158005
 30
0.0
 10
-0.7732654092254242
 20
35.66657561703948
 30
0.0
 10
-0.7584228515599989
 20
35.77348631620913
 30
0.0
 11
-1.55224609375
 21
34.97954100370913
 31
0.0
 11
-1.251708984369997
 21
35.04301756620913
 31
0.0
 11
-0.9968261718699977
 21
35.21489256620913
 31
0.0
 11
-0.828125
 21
35.46184080839913
 31
0.0
 11
-0.7584228515599989
 21
35.77348631620913
 31
0.0
  0
SPLINE
  5
9125
330
1F
100
AcDbEntity
  8
AM_0
  6
CONTINUOUS
 48
0.5
100
AcDbSpline
210
0.0
220
0.0
230
1.0
 70
     8
 71
     3
 72
    11
 73
     7
 74
     5
 42
0.0000000001
 43
0.0000000001
 44
0.0000000001
 40
0.0
 40
0.0
 40
0.0
 40
0.0
 40
0.3071674268233919
 40
0.6145861375957037
 40
0.9136572323308865
 40
1.233029028312365
 40
1.233029028312365
 40
1.233029028312365
 40
1.233029028312365
 10
-15.02038574217999
 20
35.77348631620913
 30
0.0
 10
-15.00719330626759
 20
35.67055285072614
 30
0.0
 10
-14.98079764212856
 20
35.46460171315026
 30
0.0
 10
-14.79932435865043
 20
35.20760797603823
 30
0.0
 10
-14.5403708562381
 20
35.02327309842732
 30
0.0
 10
-14.33334910317933
 20
34.9944339221399
 30
0.0
 10
-14.22644042967999
 20
34.97954100370913
 30
0.0
 11
-15.02038574217999
 21
35.77348631620913
 31
0.0
 11
-14.95690917967999
 21
35.47294920682912
 31
0.0
 11
-14.78503417967999
 21
35.21806639432913
 31
0.0
 11
-14.5380859375
 21
35.04936522245913
 31
0.0
 11
-14.22644042967999
 21
34.97954100370913
 31
0.0
  0
SPLINE
  5
9126
330
1F
100
AcDbEntity
  8
AM_0
  6
CONTINUOUS
 48
0.5
100
AcDbSpline
210
0.0
220
0.0
230
1.0
 70
     8
 71
     3
 72
    11
 73
     7
 74
     5
 42
0.0000000001
 43
0.0000000001
 44
0.0000000001
 40
0.0
 40
0.0
 40
0.0
 40
0.0
 40
0.7216332902047517
 40
1.450528250985725
 40
2.170944761823116
 40
2.89682843106463
 40
2.89682843106463
 40
2.89682843106463
 40
2.89682843106463
 10
-7.889404296869997
 20
47.82707518339913
 30
0.0
 10
-8.045689602683085
 20
48.01222381794175
 30
0.0
 10
-8.359832886221884
 20
48.38438420560805
 30
0.0
 10
-9.106168358802605
 20
48.64226816802905
 30
0.0
 10
-9.797750150887466
 20
48.35066034407425
 30
0.0
 10
-10.27434938925508
 20
48.28261379036917
 30
0.0
 10
-10.51354980467999
 20
48.24846190214913
 30
0.0
 11
-7.889404296869997
 21
47.82707518339913
 31
0.0
 11
-8.403930664059998
 21
48.33305662870913
 31
0.0
 11
-9.099609375
 21
48.55058592557913
 31
0.0
 11
-9.800170898429996
 21
48.38261717557912
 31
0.0
 11
-10.51354980467999
 21
48.24846190214913
 31
0.0
  0
SPLINE
  5
9127
330
1F
100
AcDbEntity
  8
AM_0
  6
CONTINUOUS
 48
0.5
100
AcDbSpline
210
0.0
220
0.0
230
1.0
 70
     8
 71
     3
 72
    11
 73
     7
 74
     5
 42
0.0000000001
 43
0.0000000001
 44
0.0000000001
 40
0.0
 40
0.0
 40
0.0
 40
0.0
 40
0.4883119192049583
 40
0.9647347245313936
 40
1.439904403709006
 40
1.924557089440186
 40
1.924557089440186
 40
1.924557089440186
 40
1.924557089440186
 10
-0.7584228515599989
 20
48.44768065214913
 30
0.0
 10
-0.7766921096383415
 20
48.28561421774283
 30
0.0
 10
-0.8127858173002366
 20
47.96542724133785
 30
0.0
 10
-0.9548492941672884
 20
47.50456372601973
 30
0.0
 10
-1.156722523195931
 20
47.06787746732048
 30
0.0
 10
-1.343455297366698
 20
46.80728935308625
 30
0.0
 10
-1.437744140619997
 20
46.67570799589912
 30
0.0
 11
-0.7584228515599989
 21
48.44768065214913
 31
0.0
 11
-0.8283691406199977
 21
47.96440428495913
 31
0.0
 11
-0.9649658203099988
 21
47.50798338651913
 31
0.0
 11
-1.168090820309998
 21
47.07841795682912
 31
0.0
 11
-1.437744140619997
 21
46.67570799589912
 31
0.0
  0
SPLINE
  5
9128
330
1F
100
AcDbEntity
  8
AM_0
  6
CONTINUOUS
 48
0.5
100
AcDbSpline
210
0.0
220
0.0
230
1.0
 70
     8
 71
     3
 72
    11
 73
     7
 74
     5
 42
0.0000000001
 43
0.0000000001
 44
0.0000000001
 40
0.0
 40
0.0
 40
0.0
 40
0.0
 40
0.7261999107324795
 40
1.455906568101428
 40
2.174039483239233
 40
2.896661956913191
 40
2.896661956913191
 40
2.896661956913191
 40
2.896661956913191
 10
-7.889404296869997
 20
47.82707518339913
 30
0.0
 10
-7.730226374727187
 20
48.01081231334119
 30
0.0
 10
-7.411101876197982
 20
48.37917382142367
 30
0.0
 10
-6.667117384045433
 20
48.65043940413962
 30
0.0
 10
-5.978691482572145
 20
48.34576517952632
 30
0.0
 10
-5.503481909147083
 20
48.28096363761298
 30
0.0
 10
-5.26513671875
 20
48.24846190214913
 30
0.0
 11
-7.889404296869997
 21
47.82707518339913
 31
0.0
 11
-7.367309570309998
 21
48.33183592557912
 31
0.0
 11
-6.67236328125
 21
48.55437010526912
 31
0.0
 11
-5.9755859375
 21
48.38054198026913
 31
0.0
 11
-5.26513671875
 21
48.24846190214913
 31
0.0
  0
SPLINE
  5
9129
330
1F
100
AcDbEntity
  8
AM_0
  6
CONTINUOUS
 48
0.5
100
AcDbSpline
210
0.0
220
0.0
230
1.0
 70
     8
 71
     3
 72
    11
 73
     7
 74
     5
 42
0.0000000001
 43
0.0000000001
 44
0.0000000001
 40
0.0
 40
0.0
 40
0.0
 40
0.0
 40
0.1366460334375873
 40
0.2483763843128454
 40
0.3574264480233329
 40
0.4879872527944885
 40
0.4879872527944885
 40
0.4879872527944885
 40
0.4879872527944885
 10
-2.1728515625
 20
47.52421873807913
 30
0.0
 10
-2.17647166036515
 20
47.57002595790119
 30
0.0
 10
-2.183051776860192
 20
47.65328802814653
 30
0.0
 10
-2.24477401773711
 20
47.76105876936871
 30
0.0
 10
-2.350970495242236
 20
47.82238413141778
 30
0.0
 10
-2.431712664020207
 20
47.82542063345336
 30
0.0
 10
-2.475708007809998
 20
47.82707518339913
 30
0.0
 11
-2.1728515625
 21
47.52421873807913
 31
0.0
 11
-2.194702148429996
 21
47.65910643339913
 31
0.0
 11
-2.252563476559998
 21
47.75468748807912
 31
0.0
 11
-2.34619140625
 21
47.81059569120913
 31
0.0
 11
-2.475708007809998
 21
47.82707518339913
 31
0.0
  0
SPLINE
  5
912A
330
1F
100
AcDbEntity
  8
AM_0
  6
CONTINUOUS
 48
0.5
100
AcDbSpline
210
0.0
220
0.0
230
1.0
 70
     8
 71
     3
 72
    11
 73
     7
 74
     5
 42
0.0000000001
 43
0.0000000001
 44
0.0000000001
 40
0.0
 40
0.0
 40
0.0
 40
0.0
 40
0.4896046823230915
 40
0.966030036736582
 40
1.44114331220753
 40
1.926641131342515
 40
1.926641131342515
 40
1.926641131342515
 40
1.926641131342515
 10
-15.02038574217999
 20
48.44768065214913
 30
0.0
 10
-15.00392555958828
 20
48.28495752308639
 30
0.0
 10
-14.97144827461153
 20
47.96389149569365
 30
0.0
 10
-14.83049782475261
 20
47.501992773997
 30
0.0
 10
-14.62568604753823
 20
47.06606050235953
 30
0.0
 10
-14.4345113211811
 20
46.80830054725188
 30
0.0
 10
-14.337890625
 20
46.67802733182912
 30
0.0
 11
-15.02038574217999
 21
48.44768065214913
 31
0.0
 11
-14.955078125
 21
47.96245115995913
 31
0.0
 11
-14.81970214842999
 21
47.50566405057912
 31
0.0
 11
-14.61389160156
 21
47.07744139432913
 31
0.0
 11
-14.337890625
 21
46.67802733182912
 31
0.0
  0
SPLINE
  5
912B
330
1F
100
AcDbEntity
  8
AM_0
  6
CONTINUOUS
 48
0.5
100
AcDbSpline
210
0.0
220
0.0
230
1.0
 70
     8
 71
     3
 72
    11
 73
     7
 74
     5
 42
0.0000000001
 43
0.0000000001
 44
0.0000000001
 40
0.0
 40
0.0
 40
0.0
 40
0.0
 40
0.1366460334293113
 40
0.2483763843131279
 40
0.3574264480150258
 40
0.4879872527948432
 40
0.4879872527948432
 40
0.4879872527948432
 40
0.4879872527948432
 10
-13.30297851561999
 20
47.82707518339913
 30
0.0
 10
-13.3487857354382
 20
47.82345508552848
 30
0.0
 10
-13.43204780568168
 20
47.81687496902306
 30
0.0
 10
-13.53981854690447
 20
47.75515272815701
 30
0.0
 10
-13.60114390896443
 20
47.64895625065237
 30
0.0
 10
-13.60418041098971
 20
47.56821408187273
 30
0.0
 10
-13.60583496092999
 20
47.52421873807913
 30
0.0
 11
-13.30297851561999
 21
47.82707518339913
 31
0.0
 11
-13.43786621092999
 21
47.80522459745912
 31
0.0
 11
-13.53344726561999
 21
47.74736326932912
 31
0.0
 11
-13.58935546875
 21
47.65373533964913
 31
0.0
 11
-13.60583496092999
 21
47.52421873807913
 31
0.0
  0
LINE
  5
912E
330
1F
100
AcDbEntity
  8
AM_0
  6
CONTINUOUS
100
AcDbLine
 10
-1.0
 20
31.72509765625
 30
0.0
 11
-1.0
 21
-33.06982421875
 31
0.0
  0
LINE
  5
912F
330
1F
100
AcDbEntity
  8
AM_0
  6
CONTINUOUS
 48
0.5
100
AcDbLine
 10
-42.0
 20
-6.349999999999999
 30
0.0
 11
-42.0
 21
6.349999999999994
 31
0.0
  0
LINE
  5
9130
330
1F
100
AcDbEntity
  8
AM_0
  6
CONTINUOUS
100
AcDbLine
 10
-18.0
 20
-23.0
 30
0.0
 11
-18.0
 21
23.0
 31
0.0
  0
LINE
  5
9131
330
1F
100
AcDbEntity
  8
AM_0
  6
CONTINUOUS
 48
0.5
100
AcDbLine
 10
-48.5
 20
-15.875
 30
0.0
 11
-19.0
 21
-15.875
 31
0.0
  0
LINE
  5
9132
330
1F
100
AcDbEntity
  8
AM_7
  6
AM_ISO08W050
100
AcDbLine
 10
-52.2802734375
 20
0.0
 30
0.0
 11
2.09896850586
 21
0.0
 31
0.0
  0
LINE
  5
9133
330
1F
100
AcDbEntity
  8
AM_0
  6
CONTINUOUS
 48
0.5
100
AcDbLine
 10
-50.0
 20
-7.349999999999999
 30
0.0
 11
-50.0
 21
-32.5
 31
0.0
  0
LINE
  5
9134
330
1F
100
AcDbEntity
  8
AM_0
  6
CONTINUOUS
 48
0.5
100
AcDbLine
 10
-48.5
 20
-6.349999999999999
 30
0.0
 11
-48.5
 21
-15.875
 31
0.0
  0
LINE
  5
9135
330
1F
100
AcDbEntity
  8
AM_0
  6
CONTINUOUS
 48
0.5
100
AcDbLine
 10
-50.00012207031
 20
-17.375
 30
0.0
 11
-48.5
 21
-15.875
 31
0.0
  0
LINE
  5
9136
330
1F
100
AcDbEntity
  8
AM_0
  6
CONTINUOUS
 48
0.5
100
AcDbLine
 10
-50.0
 20
-17.375
 30
0.0
 11
-50.0
 21
-17.22607421875
 31
0.0
  0
LINE
  5
9137
330
1F
100
AcDbEntity
  8
AM_0
  6
CONTINUOUS
 48
0.5
100
AcDbLine
 10
-49.0
 20
-6.349999999999999
 30
0.0
 11
-42.0
 21
-6.349999999999999
 31
0.0
  0
LINE
  5
9138
330
1F
100
AcDbEntity
  8
AM_0
  6
CONTINUOUS
 48
0.5
100
AcDbLine
 10
-49.99993896483999
 20
-7.350061035160001
 30
0.0
 11
-48.99993896484
 21
-6.350061035160001
 31
0.0
  0
LINE
  5
913A
330
1F
100
AcDbEntity
  8
AM_0
  6
CONTINUOUS
 48
0.5
100
AcDbLine
 10
-18.0
 20
-23.0
 30
0.0
 11
-7.108032226559998
 21
-23.0
 31
0.0
  0
LINE
  5
913B
330
1F
100
AcDbEntity
  8
AM_0
  6
CONTINUOUS
 48
0.5
100
AcDbLine
 10
-1.0
 20
-31.72509765625
 30
0.0
 11
-1.0
 21
-32.85284423829
 31
0.0
  0
ARC
  5
913D
330
1F
100
AcDbEntity
  8
AM_0
  6
CONTINUOUS
 48
0.5
100
AcDbCircle
 10
-19.0
 20
-16.875
 30
0.0
 40
1.0
100
AcDbArc
 50
359.9999453584866
 51
89.99992737239434
  0
LINE
  5
913E
330
1F
100
AcDbEntity
  8
AM_0
  6
CONTINUOUS
 48
0.5
100
AcDbLine
 10
-24.04553222656
 20
36.64458006620913
 30
0.0
 11
-19.6936340332
 21
36.64458006620913
 31
0.0
  0
LINE
  5
913F
330
1F
100
AcDbEntity
  8
AM_0
  6
CONTINUOUS
 48
0.5
100
AcDbLine
 10
-24.04553222656
 20
40.64458006620912
 30
0.0
 11
-19.51525878905999
 21
40.64458006620912
 31
0.0
  0
LINE
  5
9140
330
1F
100
AcDbEntity
  8
AM_0
  6
CONTINUOUS
 48
0.5
100
AcDbLine
 10
-23.54553222655999
 20
36.14458006620913
 30
0.0
 11
-19.6936340332
 21
36.14458006620913
 31
0.0
  0
LINE
  5
9141
330
1F
100
AcDbEntity
  8
AM_0
  6
CONTINUOUS
 48
0.5
100
AcDbLine
 10
-23.54553222655999
 20
41.14458006620913
 30
0.0
 11
-19.39636230467999
 21
41.14458006620913
 31
0.0
  0
LINE
  5
9142
330
1F
100
AcDbEntity
  8
AM_7
  6
AM_ISO08W050
 48
0.5
100
AcDbLine
 10
-33.96069335936999
 20
38.64458006620913
 30
0.0
 11
-16.94625854492
 21
38.64458006620913
 31
0.0
  0
LINE
  5
9143
330
1F
100
AcDbEntity
  8
AM_0
  6
CONTINUOUS
 48
0.5
100
AcDbLine
 10
-25.0
 20
47.99992674589913
 30
0.0
 11
-15.77868652342999
 21
47.99992674589913
 31
0.0
  0
LINE
  5
9144
330
1F
100
AcDbEntity
  8
AM_0
  6
CONTINUOUS
 48
0.5
100
AcDbLine
 10
-48.5
 20
15.875
 30
0.0
 11
-19.0
 21
15.875
 31
0.0
  0
LINE
  5
9145
330
1F
100
AcDbEntity
  8
AM_0
  6
CONTINUOUS
 48
0.5
100
AcDbLine
 10
-50.0
 20
7.349999999999994
 30
0.0
 11
-50.0
 21
32.5
 31
0.0
  0
LINE
  5
9146
330
1F
100
AcDbEntity
  8
AM_0
  6
CONTINUOUS
 48
0.5
100
AcDbLine
 10
-48.5
 20
6.349999999999994
 30
0.0
 11
-48.5
 21
15.875
 31
0.0
  0
LINE
  5
9147
330
1F
100
AcDbEntity
  8
AM_0
  6
CONTINUOUS
 48
0.5
100
AcDbLine
 10
-49.0
 20
6.349999999999994
 30
0.0
 11
-42.0
 21
6.349999999999994
 31
0.0
  0
LINE
  5
9148
330
1F
100
AcDbEntity
  8
AM_0
  6
CONTINUOUS
 48
0.5
100
AcDbLine
 10
-50.0
 20
7.349999999999994
 30
0.0
 11
-49.0
 21
6.349999999999994
 31
0.0
  0
LINE
  5
9149
330
1F
100
AcDbEntity
  8
AM_0
  6
CONTINUOUS
 48
0.5
100
AcDbLine
 10
-50.00006103515
 20
17.37506103514999
 30
0.0
 11
-48.5
 21
15.875
 31
0.0
  0
LINE
  5
914A
330
1F
100
AcDbEntity
  8
AM_0
  6
CONTINUOUS
 48
0.5
100
AcDbLine
 10
-50.0
 20
17.375
 30
0.0
 11
-50.0
 21
17.22607421875
 31
0.0
  0
LINE
  5
914B
330
1F
100
AcDbEntity
  8
AM_0
  6
CONTINUOUS
 48
0.5
100
AcDbLine
 10
-47.5
 20
35.0
 30
0.0
 11
-36.0
 21
35.0
 31
0.0
  0
ARC
  5
914C
330
1F
100
AcDbEntity
  8
AM_0
  6
CONTINUOUS
 48
0.5
100
AcDbCircle
 10
-47.5
 20
32.5
 30
0.0
 40
2.5
100
AcDbArc
 50
90.00000250448172
 51
180.0000050089569
  0
ARC
  5
914D
330
1F
100
AcDbEntity
  8
AM_0
  6
CONTINUOUS
 48
0.5
100
AcDbCircle
 10
-36.0
 20
43.0
 30
0.0
 40
8.0
100
AcDbArc
 50
270.0000179860923
 51
0.0
  0
LINE
  5
914E
330
1F
100
AcDbEntity
  8
AM_0
  6
CONTINUOUS
 48
0.5
100
AcDbLine
 10
-23.54553222655999
 20
41.14458006620913
 30
0.0
 11
-23.54553222655999
 21
36.14458006620913
 31
0.0
  0
LINE
  5
914F
330
1F
100
AcDbEntity
  8
AM_0
  6
CONTINUOUS
 48
0.5
100
AcDbLine
 10
-24.04553222656
 20
40.64458006620912
 30
0.0
 11
-24.04553222656
 21
36.64458006620913
 31
0.0
  0
LINE
  5
9150
330
1F
100
AcDbEntity
  8
AM_0
  6
CONTINUOUS
 48
0.5
100
AcDbLine
 10
-24.04553222656
 20
36.64458006620913
 30
0.0
 11
-23.54553222655999
 21
36.14458006620913
 31
0.0
  0
LINE
  5
9151
330
1F
100
AcDbEntity
  8
AM_0
  6
CONTINUOUS
 48
0.5
100
AcDbLine
 10
-28.0
 20
43.0
 30
0.0
 11
-28.0
 21
45.0
 31
0.0
  0
LINE
  5
9152
330
1F
100
AcDbEntity
  8
AM_0
  6
CONTINUOUS
 48
0.5
100
AcDbLine
 10
-23.54553222655999
 20
41.14458006620913
 30
0.0
 11
-24.04553222656
 21
40.64458006620912
 31
0.0
  0
ARC
  5
9153
330
1F
100
AcDbEntity
  8
AM_0
  6
CONTINUOUS
 48
0.5
100
AcDbCircle
 10
-25.0
 20
45.0
 30
0.0
 40
3.0
100
AcDbArc
 50
89.99998201390772
 51
179.9999640278219
  0
LINE
  5
9156
330
1F
100
AcDbEntity
  8
AM_0
  6
CONTINUOUS
 48
0.5
100
AcDbLine
 10
-18.0
 20
23.0
 30
0.0
 11
-7.108032226559998
 21
23.0
 31
0.0
  0
ARC
  5
9157
330
1F
100
AcDbEntity
  8
AM_0
  6
CONTINUOUS
 48
0.5
100
AcDbCircle
 10
-19.0
 20
16.875
 30
0.0
 40
1.0
100
AcDbArc
 50
270.0000179860923
 51
0.0
  0
ARC
  5
9158
330
1F
100
AcDbEntity
  8
AM_0
  6
CONTINUOUS
 48
0.5
100
AcDbCircle
 10
-5.246215820309998
 20
50.87651365995913
 30
0.0
 40
3.012139081955
100
AcDbArc
 50
244.3321670851761
 51
311.2082055696514
  0
ARC
  5
9159
330
1F
100
AcDbEntity
  8
AM_0
  6
CONTINUOUS
 48
0.5
100
AcDbCircle
 10
-5.253662109369997
 20
33.31962889432912
 30
0.0
 40
3.0323553085327
100
AcDbArc
 50
50.28686478305577
 51
104.2013113361991
  0
ARC
  5
915A
330
1F
100
AcDbEntity
  8
AM_0
  6
CONTINUOUS
 48
0.5
100
AcDbCircle
 10
-5.182556152339998
 20
57.55168455839913
 30
0.0
 40
10.09431266784599
100
AcDbArc
 50
254.4456008684605
 51
285.5530417451274
  0
ARC
  5
915B
330
1F
100
AcDbEntity
  8
AM_0
  6
CONTINUOUS
 48
0.5
100
AcDbCircle
 10
-5.182556152339998
 20
26.66777342557912
 30
0.0
 40
10.09591865539499
100
AcDbArc
 50
74.4497996135728
 51
105.5518104898367
  0
CIRCLE
  5
915C
330
1F
100
AcDbEntity
  8
AM_0
  6
CONTINUOUS
 48
0.5
100
AcDbCircle
 10
-7.889404296869997
 20
42.11064451932912
 30
0.0
 40
3.9000000953674
  0
LINE
  5
915D
330
1F
100
AcDbEntity
  8
AM_0
  6
CONTINUOUS
 48
0.5
100
AcDbLine
 10
-14.97875976561999
 20
34.22124022245913
 30
0.0
 11
-0.8000488281199977
 21
34.22124022245913
 31
0.0
  0
LINE
  5
915E
330
1F
100
AcDbEntity
  8
AM_0
  6
CONTINUOUS
 48
0.5
100
AcDbLine
 10
-0.99853515625
 20
34.41972655057913
 30
0.0
 11
-14.7802734375
 21
34.41972655057913
 31
0.0
  0
ARC
  5
915F
330
1F
100
AcDbEntity
  8
AM_0
  6
CONTINUOUS
 48
0.5
100
AcDbCircle
 10
-23.33044433592999
 20
39.40385740995913
 30
0.0
 40
10.09431266784599
100
AcDbArc
 50
344.4468123164227
 51
15.55418147610001
  0
LINE
  5
9160
330
1F
100
AcDbEntity
  8
AM_0
  6
CONTINUOUS
 48
0.5
100
AcDbLine
 10
-18.54553222655999
 20
41.14458006620913
 30
0.0
 11
-18.54553222655999
 21
36.14458006620913
 31
0.0
  0
LINE
  5
9161
330
1F
100
AcDbEntity
  8
AM_0
  6
CONTINUOUS
 48
0.5
100
AcDbLine
 10
-18.04553222655999
 20
40.64458006620912
 30
0.0
 11
-18.04553222655999
 21
36.64458006620913
 31
0.0
  0
LINE
  5
9162
330
1F
100
AcDbEntity
  8
AM_0
  6
CONTINUOUS
 48
0.5
100
AcDbLine
 10
-18.04556274413999
 20
41.08641356229912
 30
0.0
 11
-18.04556274413999
 21
35.20268553495913
 31
0.0
  0
ARC
  5
9163
330
1F
100
AcDbEntity
  8
AM_0
  6
CONTINUOUS
 48
0.5
100
AcDbCircle
 10
-10.59619140624999
 20
26.66777342557912
 30
0.0
 40
10.09591865539499
100
AcDbArc
 50
74.44820817948841
 51
105.5505537350365
  0
LINE
  5
9164
330
1F
100
AcDbEntity
  8
AM_0
  6
CONTINUOUS
 48
0.5
100
AcDbLine
 10
-18.04556274413999
 20
35.20268553495913
 30
0.0
 11
-15.97775268553999
 21
35.20268553495913
 31
0.0
  0
LINE
  5
9165
330
1F
100
AcDbEntity
  8
AM_0
  6
CONTINUOUS
 48
0.5
100
AcDbLine
 10
-19.84225463867
 20
36.64458006620913
 30
0.0
 11
-18.04556274413999
 21
36.64458006620913
 31
0.0
  0
LINE
  5
9166
330
1F
100
AcDbEntity
  8
AM_0
  6
CONTINUOUS
 48
0.5
100
AcDbLine
 10
-20.16925048827999
 20
36.14458006620913
 30
0.0
 11
-18.54553222655999
 21
36.14458006620913
 31
0.0
  0
LINE
  5
9167
330
1F
100
AcDbEntity
  8
AM_0
  6
CONTINUOUS
 48
0.5
100
AcDbLine
 10
-18.54553222655999
 20
36.14458006620913
 30
0.0
 11
-18.04553222655999
 21
36.64458006620913
 31
0.0
  0
ARC
  5
9168
330
1F
100
AcDbEntity
  8
AM_0
  6
CONTINUOUS
 48
0.5
100
AcDbCircle
 10
-14.97875976561999
 20
35.02128905057912
 30
0.0
 40
0.8000000119209
100
AcDbArc
 50
179.9999776882002
 51
270.0000280039996
  0
ARC
  5
9169
330
1F
100
AcDbEntity
  8
AM_0
  6
CONTINUOUS
 48
0.5
100
AcDbCircle
 10
-14.7802734375
 20
35.21977537870913
 30
0.0
 40
0.8000000119209
100
AcDbArc
 50
179.9999776882002
 51
270.0000280039996
  0
LINE
  5
916A
330
1F
100
AcDbEntity
  8
AM_0
  6
CONTINUOUS
 48
0.5
100
AcDbLine
 10
-15.97775268553999
 20
35.66148680448913
 30
0.0
 11
-15.97775268553999
 21
35.20268553495913
 31
0.0
  0
LINE
  5
916B
330
1F
100
AcDbEntity
  8
AM_0
  6
CONTINUOUS
 48
0.5
100
AcDbLine
 10
-15.97775268553999
 20
35.66148680448913
 30
0.0
 11
-15.77868652342999
 21
35.66148680448913
 31
0.0
  0
LINE
  5
916C
330
1F
100
AcDbEntity
  8
AM_0
  6
CONTINUOUS
 48
0.5
100
AcDbLine
 10
-15.02035522459999
 20
35.77354735135912
 30
0.0
 11
-13.60586547850999
 21
36.69707030057912
 31
0.0
  0
LINE
  5
916D
330
1F
100
AcDbEntity
  8
AM_0
  6
CONTINUOUS
 48
0.5
100
AcDbLine
 10
-13.30316162108999
 20
36.39409178495913
 30
0.0
 11
-14.22659301756999
 21
34.97966307401913
 31
0.0
  0
LINE
  5
916E
330
1F
100
AcDbEntity
  8
AM_0
  6
CONTINUOUS
 48
0.5
100
AcDbLine
 10
-15.77883911131999
 20
35.01475828885912
 30
0.0
 11
-15.02044677734
 21
35.77360838651912
 31
0.0
  0
LINE
  5
916F
330
1F
100
AcDbEntity
  8
AM_0
  6
CONTINUOUS
 48
0.5
100
AcDbLine
 10
-14.22662353514999
 20
34.97972410917913
 30
0.0
 11
-14.98550415039
 21
34.22130125760912
 31
0.0
  0
ARC
  5
9170
330
1F
100
AcDbEntity
  8
AM_0
  6
CONTINUOUS
 48
0.5
100
AcDbCircle
 10
-8.932922363279999
 20
37.72441405057913
 30
0.0
 40
1.690773367881799
100
AcDbArc
 50
239.9066962766346
 51
308.1109914037059
  0
ARC
  5
9171
330
1F
100
AcDbEntity
  8
AM_0
  6
CONTINUOUS
 48
0.5
100
AcDbCircle
 10
-10.52673339842999
 20
33.31901854276912
 30
0.0
 40
3.0356278419495
100
AcDbArc
 50
75.77320340677164
 51
129.4803332280415
  0
LINE
  5
9172
330
1F
100
AcDbEntity
  8
AM_0
  6
CONTINUOUS
 48
0.5
100
AcDbLine
 10
-11.50836181639999
 20
36.72233885526912
 30
0.0
 11
-12.45681762694999
 21
35.66203612089913
 31
0.0
  0
LINE
  5
9173
330
1F
100
AcDbEntity
  8
AM_0
  6
CONTINUOUS
 48
0.5
100
AcDbLine
 10
-10.51354980467999
 20
36.35673826932912
 30
0.0
 11
-10.51354980467999
 21
35.97270506620913
 31
0.0
  0
LINE
  5
9174
330
1F
100
AcDbEntity
  8
AM_0
  6
CONTINUOUS
 48
0.5
100
AcDbLine
 10
-9.833862304679996
 20
36.27464598417913
 30
0.0
 11
-9.684631347649997
 21
36.72258299589913
 31
0.0
  0
ARC
  5
9175
330
1F
100
AcDbEntity
  8
AM_0
  6
CONTINUOUS
 48
0.5
100
AcDbCircle
 10
-6.839477539059998
 20
37.78618162870913
 30
0.0
 40
1.7435697317123
100
AcDbArc
 50
232.9764584956611
 51
298.870899758652
  0
LINE
  5
9176
330
1F
100
AcDbEntity
  8
AM_0
  6
CONTINUOUS
 48
0.5
100
AcDbLine
 10
-5.26513671875
 20
36.35673826932912
 30
0.0
 11
-5.26513671875
 21
35.97270506620913
 31
0.0
  0
LINE
  5
9177
330
1F
100
AcDbEntity
  8
AM_0
  6
CONTINUOUS
 48
0.5
100
AcDbLine
 10
-6.094665527339998
 20
36.72246092557912
 30
0.0
 11
-5.944702148429996
 21
36.27220457792913
 31
0.0
  0
LINE
  5
9178
330
1F
100
AcDbEntity
  8
AM_0
  6
CONTINUOUS
 48
0.5
100
AcDbLine
 10
-7.889404296869997
 20
34.22124022245913
 30
0.0
 11
-7.889404296869997
 21
36.39409178495913
 31
0.0
  0
ARC
  5
9179
330
1F
100
AcDbEntity
  8
AM_0
  6
CONTINUOUS
 48
0.5
100
AcDbCircle
 10
-10.59619140624999
 20
57.55168455839913
 30
0.0
 40
10.09431266784599
100
AcDbArc
 50
254.4470215478102
 51
285.5543941225836
  0
ARC
  5
917A
330
1F
100
AcDbEntity
  8
AM_0
  6
CONTINUOUS
 48
0.5
100
AcDbCircle
 10
-23.33044433592999
 20
44.81743162870913
 30
0.0
 40
10.09431266784599
100
AcDbArc
 50
344.44544627859
 51
15.55280007034636
  0
LINE
  5
917B
330
1F
100
AcDbEntity
  8
AM_0
  6
CONTINUOUS
 48
0.5
100
AcDbLine
 10
-18.04556274413999
 20
41.08641356229912
 30
0.0
 11
-15.97775268553999
 21
41.08641356229912
 31
0.0
  0
LINE
  5
917C
330
1F
100
AcDbEntity
  8
AM_0
  6
CONTINUOUS
 48
0.5
100
AcDbLine
 10
-19.93145751952999
 20
41.14458006620913
 30
0.0
 11
-18.54553222655999
 21
41.14458006620913
 31
0.0
  0
LINE
  5
917D
330
1F
100
AcDbEntity
  8
AM_0
  6
CONTINUOUS
 48
0.5
100
AcDbLine
 10
-19.99090576170999
 20
40.64458006620912
 30
0.0
 11
-18.04550170897999
 21
40.64458006620912
 31
0.0
  0
LINE
  5
917E
330
1F
100
AcDbEntity
  8
AM_0
  6
CONTINUOUS
 48
0.5
100
AcDbLine
 10
-18.54550170897999
 20
41.14458006620913
 30
0.0
 11
-18.04553222655999
 21
40.64458006620912
 31
0.0
  0
LINE
  5
917F
330
1F
100
AcDbEntity
  8
AM_0
  6
CONTINUOUS
 48
0.5
100
AcDbLine
 10
-15.97775268553999
 20
40.59886473417913
 30
0.0
 11
-15.77868652342999
 21
40.59886473417913
 31
0.0
  0
LINE
  5
9180
330
1F
100
AcDbEntity
  8
AM_0
  6
CONTINUOUS
 48
0.5
100
AcDbLine
 10
-15.97775268553999
 20
41.08641356229912
 30
0.0
 11
-15.97775268553999
 21
40.59886473417913
 31
0.0
  0
LINE
  5
9181
330
1F
100
AcDbEntity
  8
AM_0
  6
CONTINUOUS
 48
0.5
100
AcDbLine
 10
-13.27792358397999
 20
38.49132078885912
 30
0.0
 11
-14.30126953125
 21
37.59715574979912
 31
0.0
  0
LINE
  5
9182
330
1F
100
AcDbEntity
  8
AM_0
  6
CONTINUOUS
 48
0.5
100
AcDbLine
 10
-14.02722167967999
 20
39.48637694120913
 30
0.0
 11
-13.64318847655999
 21
39.48637694120913
 31
0.0
  0
LINE
  5
9183
330
1F
100
AcDbEntity
  8
AM_0
  6
CONTINUOUS
 48
0.5
100
AcDbLine
 10
-13.74063110350999
 20
40.21873778104913
 30
0.0
 11
-13.27758789061999
 21
40.31590574979913
 31
0.0
  0
LINE
  5
9184
330
1F
100
AcDbEntity
  8
AM_0
  6
CONTINUOUS
 48
0.5
100
AcDbLine
 10
-15.77868652342999
 20
42.11064451932912
 30
0.0
 11
-13.60583496092999
 21
42.11064451932912
 31
0.0
  0
LINE
  5
9185
330
1F
100
AcDbEntity
  8
AM_0
  6
CONTINUOUS
 48
0.5
100
AcDbLine
 10
-13.74050903319999
 20
44.00236815214912
 30
0.0
 11
-13.27746582030999
 21
43.90513914823912
 31
0.0
  0
LINE
  5
9186
330
1F
100
AcDbEntity
  8
AM_0
  6
CONTINUOUS
 48
0.5
100
AcDbLine
 10
-14.02722167967999
 20
44.73479002714912
 30
0.0
 11
-13.64318847655999
 21
44.73479002714912
 31
0.0
  0
LINE
  5
9187
330
1F
100
AcDbEntity
  8
AM_0
  6
CONTINUOUS
 48
0.5
100
AcDbLine
 10
-15.02041625975999
 20
48.44780272245913
 30
0.0
 11
-13.60586547850999
 21
47.52427977323913
 31
0.0
  0
ARC
  5
9188
330
1F
100
AcDbEntity
  8
AM_0
  6
CONTINUOUS
 48
0.5
100
AcDbCircle
 10
-8.939208984369997
 20
46.43522948026912
 30
0.0
 40
1.743403911590599
100
AcDbArc
 50
52.97204095713108
 51
118.8810271079564
  0
ARC
  5
9189
330
1F
100
AcDbEntity
  8
AM_0
  6
CONTINUOUS
 48
0.5
100
AcDbCircle
 10
-10.53765869139999
 20
50.84526365995913
 30
0.0
 40
2.981073141097999
100
AcDbArc
 50
229.6777230133559
 51
284.6980386648223
  0
LINE
  5
918A
330
1F
100
AcDbEntity
  8
AM_0
  6
CONTINUOUS
 48
0.5
100
AcDbLine
 10
-10.51354980467999
 20
48.24846190214913
 30
0.0
 11
-10.51354980467999
 21
47.86430662870913
 31
0.0
  0
LINE
  5
918B
330
1F
100
AcDbEntity
  8
AM_0
  6
CONTINUOUS
 48
0.5
100
AcDbLine
 10
-12.45690917967999
 20
48.55919188260912
 30
0.0
 11
-11.50863647459999
 21
47.49901121854913
 31
0.0
  0
LINE
  5
918C
330
1F
100
AcDbEntity
  8
AM_0
  6
CONTINUOUS
 48
0.5
100
AcDbLine
 10
-9.833892822259997
 20
47.94865721464913
 30
0.0
 11
-9.684020996089998
 21
47.49870604276913
 31
0.0
  0
ARC
  5
918D
330
1F
100
AcDbEntity
  8
AM_0
  6
CONTINUOUS
 48
0.5
100
AcDbCircle
 10
-6.845825195309998
 20
46.49638670682913
 30
0.0
 40
1.6910666227341
100
AcDbArc
 50
79.95937853775069
 51
128.1041320725512
  0
LINE
  5
918E
330
1F
100
AcDbEntity
  8
AM_0
  6
CONTINUOUS
 48
0.5
100
AcDbLine
 10
-5.26513671875
 20
48.24846190214913
 30
0.0
 11
-5.26513671875
 21
47.86430662870913
 31
0.0
  0
LINE
  5
918F
330
1F
100
AcDbEntity
  8
AM_0
  6
CONTINUOUS
 48
0.5
100
AcDbLine
 10
-6.094390869139999
 20
47.49876707792913
 30
0.0
 11
-5.945190429679996
 21
47.94664305448913
 31
0.0
  0
ARC
  5
9190
330
1F
100
AcDbEntity
  8
AM_0
  6
CONTINUOUS
 48
0.5
100
AcDbCircle
 10
7.5517578125
 20
39.40385740995913
 30
0.0
 40
10.09431266784599
100
AcDbArc
 50
164.445792797007
 51
195.5530970698885
  0
ARC
  5
9191
330
1F
100
AcDbEntity
  8
AM_0
  6
CONTINUOUS
 48
0.5
100
AcDbCircle
 10
-0.99853515625
 20
35.21977537870913
 30
0.0
 40
0.8000000119209
100
AcDbArc
 50
270.0000179860923
 51
0.0
  0
ARC
  5
9192
330
1F
100
AcDbEntity
  8
AM_0
  6
CONTINUOUS
 48
0.5
100
AcDbCircle
 10
-0.8000488281199977
 20
35.02128905057912
 30
0.0
 40
0.8000000119209
100
AcDbArc
 50
270.0000179860923
 51
0.0
  0
LINE
  5
9193
330
1F
100
AcDbEntity
  8
AM_0
  6
CONTINUOUS
 48
0.5
100
AcDbLine
 10
0.0
 20
35.02116698026913
 30
0.0
 11
-0.7584838867099962
 21
35.77354735135912
 31
0.0
  0
LINE
  5
9194
330
1F
100
AcDbEntity
  8
AM_0
  6
CONTINUOUS
 48
0.5
100
AcDbLine
 10
-0.7584838867099962
 20
35.77336424589913
 30
0.0
 11
-2.172912597649997
 21
36.69682615995913
 31
0.0
  0
LINE
  5
9195
330
1F
100
AcDbEntity
  8
AM_0
  6
CONTINUOUS
 48
0.5
100
AcDbLine
 10
-2.475677490229998
 20
36.39409178495913
 30
0.0
 11
-1.55224609375
 21
34.97966307401913
 31
0.0
  0
LINE
  5
9196
330
1F
100
AcDbEntity
  8
AM_0
  6
CONTINUOUS
 48
0.5
100
AcDbLine
 10
-4.270294189449998
 20
36.72239989042913
 30
0.0
 11
-3.324249267569996
 21
35.65892332792913
 31
0.0
  0
LINE
  5
9197
330
1F
100
AcDbEntity
  8
AM_0
  6
CONTINUOUS
 48
0.5
100
AcDbLine
 10
-1.0
 20
31.72509765625
 30
0.0
 11
-1.0
 21
34.22124022245913
 31
0.0
  0
ARC
  5
9198
330
1F
100
AcDbEntity
  8
AM_0
  6
CONTINUOUS
 48
0.5
100
AcDbCircle
 10
7.5517578125
 20
44.81743162870913
 30
0.0
 40
10.09431266784599
100
AcDbArc
 50
164.4472134763516
 51
195.555952088958
  0
LINE
  5
9199
330
1F
100
AcDbEntity
  8
AM_0
  6
CONTINUOUS
 48
0.5
100
AcDbLine
 10
0.0
 20
42.11064451932912
 30
0.0
 11
-2.1728515625
 21
42.11064451932912
 31
0.0
  0
LINE
  5
919A
330
1F
100
AcDbEntity
  8
AM_0
  6
CONTINUOUS
 48
0.5
100
AcDbLine
 10
-2.135620117179996
 20
39.48637694120913
 30
0.0
 11
-1.75146484375
 21
39.48637694120913
 31
0.0
  0
LINE
  5
919B
330
1F
100
AcDbEntity
  8
AM_0
  6
CONTINUOUS
 48
0.5
100
AcDbLine
 10
-2.501251220699998
 20
40.31590574979913
 30
0.0
 11
-2.038055419919999
 21
40.21873778104913
 31
0.0
  0
LINE
  5
919C
330
1F
100
AcDbEntity
  8
AM_0
  6
CONTINUOUS
 48
0.5
100
AcDbLine
 10
-2.501098632809998
 20
38.49156492948912
 30
0.0
 11
-1.440765380849995
 21
37.54307860135912
 31
0.0
  0
LINE
  5
919D
330
1F
100
AcDbEntity
  8
AM_0
  6
CONTINUOUS
 48
0.5
100
AcDbLine
 10
-2.038116455069996
 20
44.00255125760913
 30
0.0
 11
-2.501159667959996
 21
43.90532225370913
 31
0.0
  0
LINE
  5
919E
330
1F
100
AcDbEntity
  8
AM_0
  6
CONTINUOUS
 48
0.5
100
AcDbLine
 10
-2.135620117179996
 20
44.73479002714912
 30
0.0
 11
-1.75146484375
 21
44.73479002714912
 31
0.0
  0
LINE
  5
919F
330
1F
100
AcDbEntity
  8
AM_0
  6
CONTINUOUS
 48
0.5
100
AcDbLine
 10
-2.500762939449998
 20
45.72984617948913
 30
0.0
 11
-1.440765380849995
 21
46.67796629667913
 31
0.0
  0
LINE
  5
91A0
330
1F
100
AcDbEntity
  8
AM_0
  6
CONTINUOUS
 48
0.5
100
AcDbLine
 10
-3.322082519529999
 20
48.55931395292913
 30
0.0
 11
-4.270538330069996
 21
47.49895018339913
 31
0.0
  0
LINE
  5
91A1
330
1F
100
AcDbEntity
  8
AM_0
  6
CONTINUOUS
 48
0.5
100
AcDbLine
 10
-2.172973632809998
 20
47.52440184354912
 30
0.0
 11
-0.7584838867099962
 21
48.44786375760913
 31
0.0
  0
SPLINE
  5
91A2
330
1F
100
AcDbEntity
  8
AM_0
  6
CONTINUOUS
 48
0.5
100
AcDbSpline
210
0.0
220
0.0
230
1.0
 70
     8
 71
     3
 72
    11
 73
     7
 74
     5
 42
0.0000000001
 43
0.0000000001
 44
0.0000000001
 40
0.0
 40
0.0
 40
0.0
 40
0.0
 40
0.4897093982577138
 40
0.9660524244562354
 40
1.441112833999462
 40
1.926610653134448
 40
1.926610653134448
 40
1.926610653134448
 40
1.926610653134448
 10
-1.55224609375
 20
49.24150389432913
 30
0.0
 10
-1.715018508063764
 20
49.22511899834079
 30
0.0
 10
-2.036120545398272
 20
49.19279642387049
 30
0.0
 10
-2.497909331184616
 20
49.05151575390368
 30
0.0
 10
-2.933901587375388
 20
48.84696619924813
 30
0.0
 10
-3.191633302335381
 20
48.65576848178514
 30
0.0
 10
-3.321899414059998
 20
48.55913084745913
 30
0.0
 11
-1.55224609375
 21
49.24150389432913
 31
0.0
 11
-2.03759765625
 21
49.17631834745913
 31
0.0
 11
-2.494262695309998
 21
49.04082030057913
 31
0.0
 11
-2.922485351559998
 21
48.83513182401912
 31
0.0
 11
-3.321899414059998
 21
48.55913084745913
 31
0.0
  0
SPLINE
  5
91A3
330
1F
100
AcDbEntity
  8
AM_0
  6
CONTINUOUS
 48
0.5
100
AcDbSpline
210
0.0
220
0.0
230
1.0
 70
     8
 71
     3
 72
    11
 73
     7
 74
     5
 42
0.0000000001
 43
0.0000000001
 44
0.0000000001
 40
0.0
 40
0.0
 40
0.0
 40
0.0
 40
0.9778214617408963
 40
1.960112741047388
 40
2.937963271016609
 40
3.918114460631505
 40
3.918114460631505
 40
3.918114460631505
 40
3.918114460631505
 10
-5.26513671875
 20
48.24846190214913
 30
0.0
 10
-4.933605084743268
 20
48.2788600859941
 30
0.0
 10
-4.269026319290635
 20
48.3397954098651
 30
0.0
 10
-3.469740684994324
 20
48.93985491199035
 30
0.0
 10
-2.542063236047644
 20
49.3316233004097
 30
0.0
 10
-1.882443493104799
 20
49.2715672183994
 30
0.0
 10
-1.55224609375
 20
49.24150389432913
 30
0.0
 11
-5.26513671875
 21
48.24846190214913
 31
0.0
 11
-4.30322265625
 21
48.42412108182912
 31
0.0
 11
-3.447143554679996
 21
48.90581053495913
 31
0.0
 11
-2.532348632809998
 21
49.25126951932913
 31
0.0
 11
-1.55224609375
 21
49.24150389432913
 31
0.0
  0
SPLINE
  5
91A4
330
1F
100
AcDbEntity
  8
AM_0
  6
CONTINUOUS
 48
0.5
100
AcDbSpline
210
0.0
220
0.0
230
1.0
 70
     8
 71
     3
 72
    11
 73
     7
 74
     5
 42
0.0000000001
 43
0.0000000001
 44
0.0000000001
 40
0.0
 40
0.0
 40
0.0
 40
0.0
 40
0.3071422240414478
 40
0.6145609348137594
 40
0.9136320295545857
 40
1.23297715953177
 40
1.23297715953177
 40
1.23297715953177
 40
1.23297715953177
 10
-0.7584228515599989
 20
48.44768065214913
 30
0.0
 10
-0.7715649624677184
 20
48.55061666342601
 30
0.0
 10
-0.7978610146959014
 20
48.75658134807252
 30
0.0
 10
-0.9793723617255228
 20
49.01354918039402
 30
0.0
 10
-1.238299127338535
 20
49.19791900085424
 30
0.0
 10
-1.445334634568362
 20
49.22666150036387
 30
0.0
 10
-1.55224609375
 20
49.24150389432913
 30
0.0
 11
-0.7584228515599989
 21
48.44768065214913
 31
0.0
 11
-0.82177734375
 21
48.74821776151913
 31
0.0
 11
-0.99365234375
 21
49.00310057401913
 31
0.0
 11
-1.240600585929996
 21
49.17180174589913
 31
0.0
 11
-1.55224609375
 21
49.24150389432913
 31
0.0
  0
SPLINE
  5
91A5
330
1F
100
AcDbEntity
  8
AM_0
  6
CONTINUOUS
 48
0.5
100
AcDbSpline
210
0.0
220
0.0
230
1.0
 70
     8
 71
     3
 72
    11
 73
     7
 74
     5
 42
0.0000000001
 43
0.0000000001
 44
0.0000000001
 40
0.0
 40
0.0
 40
0.0
 40
0.0
 40
0.488294448666727
 40
0.9647522675073252
 40
1.439921946684937
 40
1.924506724991953
 40
1.924506724991953
 40
1.924506724991953
 40
1.924506724991953
 10
-14.22644042967999
 20
49.24150389432913
 30
0.0
 10
-14.06436892255951
 20
49.22329830987334
 30
0.0
 10
-13.74415464525253
 20
49.1873284582132
 30
0.0
 10
-13.28334365103735
 20
49.04503944902034
 30
0.0
 10
-12.8466687030225
 20
48.8432050487572
 30
0.0
 10
-12.58605361961399
 20
48.65654849426778
 30
0.0
 10
-12.45446777342999
 20
48.56230467557913
 30
0.0
 11
-14.22644042967999
 21
49.24150389432913
 31
0.0
 11
-13.7431640625
 21
49.17167967557912
 31
0.0
 11
-13.28674316405999
 21
49.03496092557912
 31
0.0
 11
-12.85717773436999
 21
48.83183592557912
 31
0.0
 11
-12.45446777342999
 21
48.56230467557913
 31
0.0
  0
SPLINE
  5
91A6
330
1F
100
AcDbEntity
  8
AM_0
  6
CONTINUOUS
 48
0.5
100
AcDbSpline
210
0.0
220
0.0
230
1.0
 70
     8
 71
     3
 72
    11
 73
     7
 74
     5
 42
0.0000000001
 43
0.0000000001
 44
0.0000000001
 40
0.0
 40
0.0
 40
0.0
 40
0.0
 40
0.9760343573143607
 40
1.957149576560452
 40
2.934811463829257
 40
3.912882807970234
 40
3.912882807970234
 40
3.912882807970234
 40
3.912882807970234
 10
-10.51354980467999
 20
48.24846190214913
 30
0.0
 10
-10.84241087271444
 20
48.28746535910709
 30
0.0
 10
-11.50184493384918
 20
48.36567531011711
 30
0.0
 10
-12.31029988643233
 20
48.9440283645727
 30
0.0
 10
-13.23839560146938
 20
49.32971169862155
 30
0.0
 10
-13.89704618806863
 20
49.27091059933838
 30
0.0
 10
-14.22644042967999
 20
49.24150389432913
 30
0.0
 11
-10.51354980467999
 21
48.24846190214913
 31
0.0
 11
-11.47021484374999
 21
48.44194334745913
 31
0.0
 11
-12.33117675781
 21
48.91240233182912
 31
0.0
 11
-13.24841308592999
 21
49.25078123807913
 31
0.0
 11
-14.22644042967999
 21
49.24150389432913
 31
0.0
  0
SPLINE
  5
91A7
330
1F
100
AcDbEntity
  8
AM_0
  6
CONTINUOUS
 48
0.5
100
AcDbSpline
210
0.0
220
0.0
230
1.0
 70
     8
 71
     3
 72
    11
 73
     7
 74
     5
 42
0.0000000001
 43
0.0000000001
 44
0.0000000001
 40
0.0
 40
0.0
 40
0.0
 40
0.0
 40
0.3071422240491735
 40
0.614629199881605
 40
0.9135995069529062
 40
1.232971302924623
 40
1.232971302924623
 40
1.232971302924623
 40
1.232971302924623
 10
-14.22644042967999
 20
49.24150389432913
 30
0.0
 10
-14.32938324967365
 20
49.22837117866194
 30
0.0
 10
-14.53538443782723
 20
49.20209100651113
 30
0.0
 10
-14.79223632350819
 20
49.02043047603442
 30
0.0
 10
-14.97668946893159
 20
48.76160391271582
 30
0.0
 10
-15.00550342329864
 20
48.55459837580645
 30
0.0
 10
-15.02038574217999
 20
48.44768065214913
 30
0.0
 11
-14.22644042967999
 21
49.24150389432913
 31
0.0
 11
-14.52697753905999
 21
49.17814940214913
 31
0.0
 11
-14.78186035155999
 21
49.00615233182913
 31
0.0
 11
-14.95056152342999
 21
48.75932615995913
 31
0.0
 11
-15.02038574217999
 21
48.44768065214913
 31
0.0
  0
ARC
  5
91A8
330
1F
100
AcDbEntity
  8
AM_0
  6
CONTINUOUS
 48
0.5
100
AcDbCircle
 10
-0.99853515625
 20
49.00151365995913
 30
0.0
 40
0.8000000119209
100
AcDbArc
 50
0.0
 51
89.99998201390772
  0
ARC
  5
91A9
330
1F
100
AcDbEntity
  8
AM_0
  6
CONTINUOUS
 48
0.5
100
AcDbCircle
 10
-14.7802734375
 20
49.00151365995913
 30
0.0
 40
0.8000000119209
100
AcDbArc
 50
89.99998201390772
 51
179.9999640278219
  0
LINE
  5
91AA
330
1F
100
AcDbEntity
  8
AM_0
  6
CONTINUOUS
 48
0.5
100
AcDbLine
 10
-15.02035522459999
 20
48.44780272245913
 30
0.0
 11
-15.77868652342999
 21
49.19999998807913
 31
0.0
  0
LINE
  5
91AB
330
1F
100
AcDbEntity
  8
AM_0
  6
CONTINUOUS
 48
0.5
100
AcDbLine
 10
-14.22647094725999
 20
49.24156492948913
 30
0.0
 11
-13.30300903319999
 21
47.82707518339913
 31
0.0
  0
LINE
  5
91AC
330
1F
100
AcDbEntity
  8
AM_0
  6
CONTINUOUS
 48
0.5
100
AcDbLine
 10
-0.7586975097599975
 20
48.44798582792913
 30
0.0
 11
-0.0003356933499958
 21
49.20024412870913
 31
0.0
  0
LINE
  5
91AD
330
1F
100
AcDbEntity
  8
AM_0
  6
CONTINUOUS
 48
0.5
100
AcDbLine
 10
-1.552062988279999
 20
49.24174803495913
 30
0.0
 11
-2.475708007809998
 21
47.82707518339913
 31
0.0
  0
LINE
  5
91AE
330
1F
100
AcDbEntity
  8
AM_0
  6
CONTINUOUS
 48
0.5
100
AcDbLine
 10
-15.77868652342999
 20
35.02128905057912
 30
0.0
 11
-15.77868652342999
 21
49.19999998807913
 31
0.0
  0
LINE
  5
91AF
330
1F
100
AcDbEntity
  8
AM_0
  6
CONTINUOUS
 48
0.5
100
AcDbLine
 10
0.0
 20
49.19999998807913
 30
0.0
 11
0.0
 21
35.02128905057912
 31
0.0
  0
LINE
  5
91B0
330
1F
100
AcDbEntity
  8
AM_0
  6
CONTINUOUS
 48
0.5
100
AcDbLine
 10
-7.889404296869997
 20
49.99992674589913
 30
0.0
 11
-7.889404296869997
 21
47.82707518339913
 31
0.0
  0
LINE
  5
91B1
330
1F
100
AcDbEntity
  8
AM_0
  6
CONTINUOUS
 48
0.5
100
AcDbLine
 10
-15.58020019530999
 20
49.00151365995913
 30
0.0
 11
-15.58020019530999
 21
35.21977537870913
 31
0.0
  0
LINE
  5
91B2
330
1F
100
AcDbEntity
  8
AM_0
  6
CONTINUOUS
 48
0.5
100
AcDbLine
 10
-0.1984863281199978
 20
35.21977537870913
 30
0.0
 11
-0.1984863281199978
 21
49.00151365995913
 31
0.0
  0
LINE
  5
91B3
330
1F
100
AcDbEntity
  8
AM_0
  6
CONTINUOUS
 48
0.5
100
AcDbLine
 10
-14.7802734375
 20
49.80144041776913
 30
0.0
 11
-0.99853515625
 21
49.80144041776913
 31
0.0
  0
LINE
  5
91B4
330
1F
100
AcDbEntity
  8
AM_0
  6
CONTINUOUS
 48
0.5
100
AcDbLine
 10
-14.97875976561999
 20
49.99992674589913
 30
0.0
 11
-0.8000488281199977
 21
49.99992674589913
 31
0.0
  0
ARC
  5
91B5
330
1F
100
AcDbEntity
  8
AM_0
  6
CONTINUOUS
 48
0.5
100
AcDbCircle
 10
-14.97875976561999
 20
49.19999998807913
 30
0.0
 40
0.8000000119209
100
AcDbArc
 50
89.99998201390772
 51
179.9999640278219
  0
LINE
  5
91B6
330
1F
100
AcDbEntity
  8
AM_0
  6
CONTINUOUS
 48
0.5
100
AcDbLine
 10
-14.97869873045999
 20
49.99998778104913
 30
0.0
 11
-14.22650146484
 21
49.24162596464913
 31
0.0
  0
ARC
  5
91B7
330
1F
100
AcDbEntity
  8
AM_0
  6
CONTINUOUS
 48
0.5
100
AcDbCircle
 10
-0.8000488281199977
 20
49.19999998807913
 30
0.0
 40
0.8000000119209
100
AcDbArc
 50
0.0
 51
89.99998201390772
  0
LINE
  5
91B8
330
1F
100
AcDbEntity
  8
AM_0
  6
CONTINUOUS
 48
0.5
100
AcDbLine
 10
-0.8001403808499958
 20
49.99992674589913
 30
0.0
 11
-1.552215576169999
 21
49.24180907010913
 31
0.0
  0
SPLINE
  5
91E8
330
1F
100
AcDbEntity
  8
AM_0
  6
CONTINUOUS
 48
0.5
100
AcDbSpline
210
0.0
220
0.0
230
1.0
 70
     8
 71
     3
 72
    11
 73
     7
 74
     5
 42
0.0000000001
 43
0.0000000001
 44
0.0000000001
 40
0.0
 40
0.0
 40
0.0
 40
0.0
 40
0.3071422240491735
 40
0.614629199881605
 40
0.9135995069529062
 40
1.232971302924623
 40
1.232971302924623
 40
1.232971302924623
 40
1.232971302924623
 10
-14.22644042967999
 20
-49.24150389432913
 30
0.0
 10
-14.32938324967365
 20
-49.22837117866194
 30
0.0
 10
-14.53538443782723
 20
-49.20209100651113
 30
0.0
 10
-14.79223632350819
 20
-49.02043047603442
 30
0.0
 10
-14.97668946893159
 20
-48.76160391271582
 30
0.0
 10
-15.00550342329864
 20
-48.55459837580645
 30
0.0
 10
-15.02038574217999
 20
-48.44768065214913
 30
0.0
 11
-14.22644042967999
 21
-49.24150389432913
 31
0.0
 11
-14.52697753905999
 21
-49.17814940214913
 31
0.0
 11
-14.78186035155999
 21
-49.00615233182913
 31
0.0
 11
-14.95056152342999
 21
-48.75932615995913
 31
0.0
 11
-15.02038574217999
 21
-48.44768065214913
 31
0.0
  0
SPLINE
  5
91E9
330
1F
100
AcDbEntity
  8
AM_0
  6
CONTINUOUS
 48
0.5
100
AcDbSpline
210
0.0
220
0.0
230
1.0
 70
     8
 71
     3
 72
    11
 73
     7
 74
     5
 42
0.0000000001
 43
0.0000000001
 44
0.0000000001
 40
0.0
 40
0.0
 40
0.0
 40
0.0
 40
0.9760343573143607
 40
1.957149576560452
 40
2.934811463829257
 40
3.912882807970234
 40
3.912882807970234
 40
3.912882807970234
 40
3.912882807970234
 10
-10.51354980467999
 20
-48.24846190214913
 30
0.0
 10
-10.84241087271444
 20
-48.28746535910709
 30
0.0
 10
-11.50184493384918
 20
-48.36567531011711
 30
0.0
 10
-12.31029988643233
 20
-48.9440283645727
 30
0.0
 10
-13.23839560146938
 20
-49.32971169862155
 30
0.0
 10
-13.89704618806863
 20
-49.27091059933838
 30
0.0
 10
-14.22644042967999
 20
-49.24150389432913
 30
0.0
 11
-10.51354980467999
 21
-48.24846190214913
 31
0.0
 11
-11.47021484374999
 21
-48.44194334745913
 31
0.0
 11
-12.33117675781
 21
-48.91240233182912
 31
0.0
 11
-13.24841308592999
 21
-49.25078123807913
 31
0.0
 11
-14.22644042967999
 21
-49.24150389432913
 31
0.0
  0
SPLINE
  5
91EA
330
1F
100
AcDbEntity
  8
AM_0
  6
CONTINUOUS
 48
0.5
100
AcDbSpline
210
0.0
220
0.0
230
1.0
 70
     8
 71
     3
 72
    11
 73
     7
 74
     5
 42
0.0000000001
 43
0.0000000001
 44
0.0000000001
 40
0.0
 40
0.0
 40
0.0
 40
0.0
 40
0.488294448666727
 40
0.9647522675073252
 40
1.439921946684937
 40
1.924506724991953
 40
1.924506724991953
 40
1.924506724991953
 40
1.924506724991953
 10
-14.22644042967999
 20
-49.24150389432913
 30
0.0
 10
-14.06436892255951
 20
-49.22329830987334
 30
0.0
 10
-13.74415464525253
 20
-49.1873284582132
 30
0.0
 10
-13.28334365103735
 20
-49.04503944902034
 30
0.0
 10
-12.8466687030225
 20
-48.8432050487572
 30
0.0
 10
-12.58605361961399
 20
-48.65654849426778
 30
0.0
 10
-12.45446777342999
 20
-48.56230467557913
 30
0.0
 11
-14.22644042967999
 21
-49.24150389432913
 31
0.0
 11
-13.7431640625
 21
-49.17167967557912
 31
0.0
 11
-13.28674316405999
 21
-49.03496092557912
 31
0.0
 11
-12.85717773436999
 21
-48.83183592557912
 31
0.0
 11
-12.45446777342999
 21
-48.56230467557913
 31
0.0
  0
SPLINE
  5
91EB
330
1F
100
AcDbEntity
  8
AM_0
  6
CONTINUOUS
 48
0.5
100
AcDbSpline
210
0.0
220
0.0
230
1.0
 70
     8
 71
     3
 72
    11
 73
     7
 74
     5
 42
0.0000000001
 43
0.0000000001
 44
0.0000000001
 40
0.0
 40
0.0
 40
0.0
 40
0.0
 40
0.3071422240414478
 40
0.6145609348137594
 40
0.9136320295545857
 40
1.23297715953177
 40
1.23297715953177
 40
1.23297715953177
 40
1.23297715953177
 10
-0.7584228515599989
 20
-48.44768065214913
 30
0.0
 10
-0.7715649624677184
 20
-48.55061666342601
 30
0.0
 10
-0.7978610146959014
 20
-48.75658134807252
 30
0.0
 10
-0.9793723617255228
 20
-49.01354918039402
 30
0.0
 10
-1.238299127338535
 20
-49.19791900085424
 30
0.0
 10
-1.445334634568362
 20
-49.22666150036387
 30
0.0
 10
-1.55224609375
 20
-49.24150389432913
 30
0.0
 11
-0.7584228515599989
 21
-48.44768065214913
 31
0.0
 11
-0.82177734375
 21
-48.74821776151913
 31
0.0
 11
-0.99365234375
 21
-49.00310057401913
 31
0.0
 11
-1.240600585929996
 21
-49.17180174589913
 31
0.0
 11
-1.55224609375
 21
-49.24150389432913
 31
0.0
  0
SPLINE
  5
91EC
330
1F
100
AcDbEntity
  8
AM_0
  6
CONTINUOUS
 48
0.5
100
AcDbSpline
210
0.0
220
0.0
230
1.0
 70
     8
 71
     3
 72
    11
 73
     7
 74
     5
 42
0.0000000001
 43
0.0000000001
 44
0.0000000001
 40
0.0
 40
0.0
 40
0.0
 40
0.0
 40
0.9778214617408963
 40
1.960112741047388
 40
2.937963271016609
 40
3.918114460631505
 40
3.918114460631505
 40
3.918114460631505
 40
3.918114460631505
 10
-5.26513671875
 20
-48.24846190214913
 30
0.0
 10
-4.933605084743268
 20
-48.2788600859941
 30
0.0
 10
-4.269026319290635
 20
-48.3397954098651
 30
0.0
 10
-3.469740684994324
 20
-48.93985491199035
 30
0.0
 10
-2.542063236047644
 20
-49.3316233004097
 30
0.0
 10
-1.882443493104799
 20
-49.2715672183994
 30
0.0
 10
-1.55224609375
 20
-49.24150389432913
 30
0.0
 11
-5.26513671875
 21
-48.24846190214913
 31
0.0
 11
-4.30322265625
 21
-48.42412108182912
 31
0.0
 11
-3.447143554679996
 21
-48.90581053495913
 31
0.0
 11
-2.532348632809998
 21
-49.25126951932913
 31
0.0
 11
-1.55224609375
 21
-49.24150389432913
 31
0.0
  0
SPLINE
  5
91ED
330
1F
100
AcDbEntity
  8
AM_0
  6
CONTINUOUS
 48
0.5
100
AcDbSpline
210
0.0
220
0.0
230
1.0
 70
     8
 71
     3
 72
    11
 73
     7
 74
     5
 42
0.0000000001
 43
0.0000000001
 44
0.0000000001
 40
0.0
 40
0.0
 40
0.0
 40
0.0
 40
0.4897093982577138
 40
0.9660524244562354
 40
1.441112833999462
 40
1.926610653134448
 40
1.926610653134448
 40
1.926610653134448
 40
1.926610653134448
 10
-1.55224609375
 20
-49.24150389432913
 30
0.0
 10
-1.715018508063764
 20
-49.22511899834079
 30
0.0
 10
-2.036120545398272
 20
-49.19279642387049
 30
0.0
 10
-2.497909331184616
 20
-49.05151575390368
 30
0.0
 10
-2.933901587375388
 20
-48.84696619924813
 30
0.0
 10
-3.191633302335381
 20
-48.65576848178514
 30
0.0
 10
-3.321899414059998
 20
-48.55913084745913
 30
0.0
 11
-1.55224609375
 21
-49.24150389432913
 31
0.0
 11
-2.03759765625
 21
-49.17631834745913
 31
0.0
 11
-2.494262695309998
 21
-49.04082030057913
 31
0.0
 11
-2.922485351559998
 21
-48.83513182401912
 31
0.0
 11
-3.321899414059998
 21
-48.55913084745913
 31
0.0
  0
SPLINE
  5
91EE
330
1F
100
AcDbEntity
  8
AM_0
  6
CONTINUOUS
 48
0.5
100
AcDbSpline
210
0.0
220
0.0
230
1.0
 70
     8
 71
     3
 72
    11
 73
     7
 74
     5
 42
0.0000000001
 43
0.0000000001
 44
0.0000000001
 40
0.0
 40
0.0
 40
0.0
 40
0.0
 40
0.1366460334293113
 40
0.2483763843131279
 40
0.3574264480150258
 40
0.4879872527948432
 40
0.4879872527948432
 40
0.4879872527948432
 40
0.4879872527948432
 10
-13.30297851561999
 20
-47.82707518339913
 30
0.0
 10
-13.3487857354382
 20
-47.82345508552848
 30
0.0
 10
-13.43204780568168
 20
-47.81687496902306
 30
0.0
 10
-13.53981854690447
 20
-47.75515272815701
 30
0.0
 10
-13.60114390896443
 20
-47.64895625065237
 30
0.0
 10
-13.60418041098971
 20
-47.56821408187273
 30
0.0
 10
-13.60583496092999
 20
-47.52421873807913
 30
0.0
 11
-13.30297851561999
 21
-47.82707518339913
 31
0.0
 11
-13.43786621092999
 21
-47.80522459745912
 31
0.0
 11
-13.53344726561999
 21
-47.74736326932912
 31
0.0
 11
-13.58935546875
 21
-47.65373533964913
 31
0.0
 11
-13.60583496092999
 21
-47.52421873807913
 31
0.0
  0
SPLINE
  5
91EF
330
1F
100
AcDbEntity
  8
AM_0
  6
CONTINUOUS
 48
0.5
100
AcDbSpline
210
0.0
220
0.0
230
1.0
 70
     8
 71
     3
 72
    11
 73
     7
 74
     5
 42
0.0000000001
 43
0.0000000001
 44
0.0000000001
 40
0.0
 40
0.0
 40
0.0
 40
0.0
 40
0.4896046823230915
 40
0.966030036736582
 40
1.44114331220753
 40
1.926641131342515
 40
1.926641131342515
 40
1.926641131342515
 40
1.926641131342515
 10
-15.02038574217999
 20
-48.44768065214913
 30
0.0
 10
-15.00392555958828
 20
-48.28495752308639
 30
0.0
 10
-14.97144827461153
 20
-47.96389149569365
 30
0.0
 10
-14.83049782475261
 20
-47.501992773997
 30
0.0
 10
-14.62568604753823
 20
-47.06606050235953
 30
0.0
 10
-14.4345113211811
 20
-46.80830054725188
 30
0.0
 10
-14.337890625
 20
-46.67802733182912
 30
0.0
 11
-15.02038574217999
 21
-48.44768065214913
 31
0.0
 11
-14.955078125
 21
-47.96245115995913
 31
0.0
 11
-14.81970214842999
 21
-47.50566405057912
 31
0.0
 11
-14.61389160156
 21
-47.07744139432913
 31
0.0
 11
-14.337890625
 21
-46.67802733182912
 31
0.0
  0
SPLINE
  5
91F0
330
1F
100
AcDbEntity
  8
AM_0
  6
CONTINUOUS
 48
0.5
100
AcDbSpline
210
0.0
220
0.0
230
1.0
 70
     8
 71
     3
 72
    11
 73
     7
 74
     5
 42
0.0000000001
 43
0.0000000001
 44
0.0000000001
 40
0.0
 40
0.0
 40
0.0
 40
0.0
 40
0.1366460334375873
 40
0.2483763843128454
 40
0.3574264480233329
 40
0.4879872527944885
 40
0.4879872527944885
 40
0.4879872527944885
 40
0.4879872527944885
 10
-2.1728515625
 20
-47.52421873807913
 30
0.0
 10
-2.17647166036515
 20
-47.57002595790119
 30
0.0
 10
-2.183051776860192
 20
-47.65328802814653
 30
0.0
 10
-2.24477401773711
 20
-47.76105876936871
 30
0.0
 10
-2.350970495242236
 20
-47.82238413141778
 30
0.0
 10
-2.431712664020207
 20
-47.82542063345336
 30
0.0
 10
-2.475708007809998
 20
-47.82707518339913
 30
0.0
 11
-2.1728515625
 21
-47.52421873807913
 31
0.0
 11
-2.194702148429996
 21
-47.65910643339913
 31
0.0
 11
-2.252563476559998
 21
-47.75468748807912
 31
0.0
 11
-2.34619140625
 21
-47.81059569120913
 31
0.0
 11
-2.475708007809998
 21
-47.82707518339913
 31
0.0
  0
SPLINE
  5
91F1
330
1F
100
AcDbEntity
  8
AM_0
  6
CONTINUOUS
 48
0.5
100
AcDbSpline
210
0.0
220
0.0
230
1.0
 70
     8
 71
     3
 72
    11
 73
     7
 74
     5
 42
0.0000000001
 43
0.0000000001
 44
0.0000000001
 40
0.0
 40
0.0
 40
0.0
 40
0.0
 40
0.7261999107324795
 40
1.455906568101428
 40
2.174039483239233
 40
2.896661956913191
 40
2.896661956913191
 40
2.896661956913191
 40
2.896661956913191
 10
-7.889404296869997
 20
-47.82707518339913
 30
0.0
 10
-7.730226374727187
 20
-48.01081231334119
 30
0.0
 10
-7.411101876197982
 20
-48.37917382142367
 30
0.0
 10
-6.667117384045433
 20
-48.65043940413962
 30
0.0
 10
-5.978691482572145
 20
-48.34576517952632
 30
0.0
 10
-5.503481909147083
 20
-48.28096363761298
 30
0.0
 10
-5.26513671875
 20
-48.24846190214913
 30
0.0
 11
-7.889404296869997
 21
-47.82707518339913
 31
0.0
 11
-7.367309570309998
 21
-48.33183592557912
 31
0.0
 11
-6.67236328125
 21
-48.55437010526912
 31
0.0
 11
-5.9755859375
 21
-48.38054198026913
 31
0.0
 11
-5.26513671875
 21
-48.24846190214913
 31
0.0
  0
SPLINE
  5
91F2
330
1F
100
AcDbEntity
  8
AM_0
  6
CONTINUOUS
 48
0.5
100
AcDbSpline
210
0.0
220
0.0
230
1.0
 70
     8
 71
     3
 72
    11
 73
     7
 74
     5
 42
0.0000000001
 43
0.0000000001
 44
0.0000000001
 40
0.0
 40
0.0
 40
0.0
 40
0.0
 40
0.4883119192049583
 40
0.9647347245313936
 40
1.439904403709006
 40
1.924557089440186
 40
1.924557089440186
 40
1.924557089440186
 40
1.924557089440186
 10
-0.7584228515599989
 20
-48.44768065214913
 30
0.0
 10
-0.7766921096383415
 20
-48.28561421774283
 30
0.0
 10
-0.8127858173002366
 20
-47.96542724133785
 30
0.0
 10
-0.9548492941672884
 20
-47.50456372601973
 30
0.0
 10
-1.156722523195931
 20
-47.06787746732048
 30
0.0
 10
-1.343455297366698
 20
-46.80728935308625
 30
0.0
 10
-1.437744140619997
 20
-46.67570799589912
 30
0.0
 11
-0.7584228515599989
 21
-48.44768065214913
 31
0.0
 11
-0.8283691406199977
 21
-47.96440428495913
 31
0.0
 11
-0.9649658203099988
 21
-47.50798338651913
 31
0.0
 11
-1.168090820309998
 21
-47.07841795682912
 31
0.0
 11
-1.437744140619997
 21
-46.67570799589912
 31
0.0
  0
SPLINE
  5
91F3
330
1F
100
AcDbEntity
  8
AM_0
  6
CONTINUOUS
 48
0.5
100
AcDbSpline
210
0.0
220
0.0
230
1.0
 70
     8
 71
     3
 72
    11
 73
     7
 74
     5
 42
0.0000000001
 43
0.0000000001
 44
0.0000000001
 40
0.0
 40
0.0
 40
0.0
 40
0.0
 40
0.7216332902047517
 40
1.450528250985725
 40
2.170944761823116
 40
2.89682843106463
 40
2.89682843106463
 40
2.89682843106463
 40
2.89682843106463
 10
-7.889404296869997
 20
-47.82707518339913
 30
0.0
 10
-8.045689602683085
 20
-48.01222381794175
 30
0.0
 10
-8.359832886221884
 20
-48.38438420560805
 30
0.0
 10
-9.106168358802605
 20
-48.64226816802905
 30
0.0
 10
-9.797750150887466
 20
-48.35066034407425
 30
0.0
 10
-10.27434938925508
 20
-48.28261379036917
 30
0.0
 10
-10.51354980467999
 20
-48.24846190214913
 30
0.0
 11
-7.889404296869997
 21
-47.82707518339913
 31
0.0
 11
-8.403930664059998
 21
-48.33305662870913
 31
0.0
 11
-9.099609375
 21
-48.55058592557913
 31
0.0
 11
-9.800170898429996
 21
-48.38261717557912
 31
0.0
 11
-10.51354980467999
 21
-48.24846190214913
 31
0.0
  0
SPLINE
  5
91F4
330
1F
100
AcDbEntity
  8
AM_0
  6
CONTINUOUS
 48
0.5
100
AcDbSpline
210
0.0
220
0.0
230
1.0
 70
     8
 71
     3
 72
    11
 73
     7
 74
     5
 42
0.0000000001
 43
0.0000000001
 44
0.0000000001
 40
0.0
 40
0.0
 40
0.0
 40
0.0
 40
0.3071674268233919
 40
0.6145861375957037
 40
0.9136572323308865
 40
1.233029028312365
 40
1.233029028312365
 40
1.233029028312365
 40
1.233029028312365
 10
-15.02038574217999
 20
-35.77348631620913
 30
0.0
 10
-15.00719330626759
 20
-35.67055285072614
 30
0.0
 10
-14.98079764212856
 20
-35.46460171315026
 30
0.0
 10
-14.79932435865043
 20
-35.20760797603823
 30
0.0
 10
-14.5403708562381
 20
-35.02327309842732
 30
0.0
 10
-14.33334910317933
 20
-34.9944339221399
 30
0.0
 10
-14.22644042967999
 20
-34.97954100370913
 30
0.0
 11
-15.02038574217999
 21
-35.77348631620913
 31
0.0
 11
-14.95690917967999
 21
-35.47294920682912
 31
0.0
 11
-14.78503417967999
 21
-35.21806639432913
 31
0.0
 11
-14.5380859375
 21
-35.04936522245913
 31
0.0
 11
-14.22644042967999
 21
-34.97954100370913
 31
0.0
  0
SPLINE
  5
91F5
330
1F
100
AcDbEntity
  8
AM_0
  6
CONTINUOUS
 48
0.5
100
AcDbSpline
210
0.0
220
0.0
230
1.0
 70
     8
 71
     3
 72
    11
 73
     7
 74
     5
 42
0.0000000001
 43
0.0000000001
 44
0.0000000001
 40
0.0
 40
0.0
 40
0.0
 40
0.0
 40
0.3071674268233919
 40
0.6145861375957037
 40
0.9136572323391474
 40
1.233002362308752
 40
1.233002362308752
 40
1.233002362308752
 40
1.233002362308752
 10
-1.55224609375
 20
-34.97954100370913
 30
0.0
 10
-1.44931195394635
 20
-34.9927332854452
 30
0.0
 10
-1.243359467177516
 20
-35.01912864110546
 30
0.0
 10
-0.9863757636849104
 20
-35.20060421866732
 30
0.0
 10
-0.8020082257431262
 20
-35.45954158158005
 30
0.0
 10
-0.7732654092254242
 20
-35.66657561703948
 30
0.0
 10
-0.7584228515599989
 20
-35.77348631620913
 30
0.0
 11
-1.55224609375
 21
-34.97954100370913
 31
0.0
 11
-1.251708984369997
 21
-35.04301756620913
 31
0.0
 11
-0.9968261718699977
 21
-35.21489256620913
 31
0.0
 11
-0.828125
 21
-35.46184080839913
 31
0.0
 11
-0.7584228515599989
 21
-35.77348631620913
 31
0.0
  0
SPLINE
  5
91F6
330
1F
100
AcDbEntity
  8
AM_0
  6
CONTINUOUS
 48
0.5
100
AcDbSpline
210
0.0
220
0.0
230
1.0
 70
     8
 71
     3
 72
    11
 73
     7
 74
     5
 42
0.0000000001
 43
0.0000000001
 44
0.0000000001
 40
0.0
 40
0.0
 40
0.0
 40
0.0
 40
0.1366460334293113
 40
0.2482719757127767
 40
0.3573220394181351
 40
0.4878983081544293
 40
0.4878983081544293
 40
0.4878983081544293
 40
0.4878983081544293
 10
-2.475708007809998
 20
-36.39409178495913
 30
0.0
 10
-2.42989589174493
 20
-36.39770199080059
 30
0.0
 10
-2.346659925931541
 20
-36.40426136844587
 30
0.0
 10
-2.238972587047796
 20
-36.4660587472615
 30
0.0
 10
-2.177686576737105
 20
-36.57221465601718
 30
0.0
 10
-2.174556947919657
 20
-36.65295274060984
 30
0.0
 10
-2.1728515625
 20
-36.69694823026913
 30
0.0
 11
-2.475708007809998
 21
-36.39409178495913
 31
0.0
 11
-2.3408203125
 21
-36.41594237089913
 31
0.0
 11
-2.245361328119997
 21
-36.47380369901913
 31
0.0
 11
-2.189453125
 21
-36.56743162870913
 31
0.0
 11
-2.1728515625
 21
-36.69694823026913
 31
0.0
  0
SPLINE
  5
91F7
330
1F
100
AcDbEntity
  8
AM_0
  6
CONTINUOUS
 48
0.5
100
AcDbSpline
210
0.0
220
0.0
230
1.0
 70
     8
 71
     3
 72
    11
 73
     7
 74
     5
 42
0.0000000001
 43
0.0000000001
 44
0.0000000001
 40
0.0
 40
0.0
 40
0.0
 40
0.0
 40
0.1366460334277115
 40
0.2482719757163628
 40
0.3573220394217211
 40
0.4878983081580153
 40
0.4878983081580153
 40
0.4878983081580153
 40
0.4878983081580153
 10
-13.60583496092999
 20
-36.69694823026913
 30
0.0
 10
-13.60222475509377
 20
-36.65113611420328
 30
0.0
 10
-13.59566537745784
 20
-36.5679001483863
 30
0.0
 10
-13.53386799862601
 20
-36.46021280950957
 30
0.0
 10
-13.42771208987292
 20
-36.3989267991957
 30
0.0
 10
-13.34697400527961
 20
-36.3957971703786
 30
0.0
 10
-13.30297851561999
 20
-36.39409178495913
 30
0.0
 11
-13.60583496092999
 21
-36.69694823026913
 31
0.0
 11
-13.583984375
 21
-36.56206053495913
 31
0.0
 11
-13.52612304686999
 21
-36.46660155057912
 31
0.0
 11
-13.43249511717999
 21
-36.41069334745913
 31
0.0
 11
-13.30297851561999
 21
-36.39409178495913
 31
0.0
  0
SPLINE
  5
91F8
330
1F
100
AcDbEntity
  8
AM_0
  6
CONTINUOUS
 48
0.5
100
AcDbSpline
210
0.0
220
0.0
230
1.0
 70
     8
 71
     3
 72
    11
 73
     7
 74
     5
 42
0.0000000001
 43
0.0000000001
 44
0.0000000001
 40
0.0
 40
0.0
 40
0.0
 40
0.0
 40
0.7217203317278175
 40
1.4506517321192
 40
2.171096714055409
 40
2.896980383298772
 40
2.896980383298772
 40
2.896980383298772
 40
2.896980383298772
 10
-13.60583496092999
 20
-42.11064451932912
 30
0.0
 10
-13.79096479291271
 20
-41.95431247552239
 30
0.0
 10
-14.16307418158648
 20
-41.64008639629993
 30
0.0
 10
-14.42124021100252
 20
-40.89376760826012
 30
0.0
 10
-14.12937164367922
 20
-40.20219107240103
 30
0.0
 10
-14.06135692050507
 20
-39.7255790593265
 30
0.0
 10
-14.02722167967999
 20
-39.48637694120913
 30
0.0
 11
-13.60583496092999
 21
-42.11064451932912
 31
0.0
 11
-14.11181640625
 21
-41.59599608182912
 31
0.0
 11
-14.32946777342999
 21
-40.90031737089913
 31
0.0
 11
-14.16137695311999
 21
-40.19975584745913
 31
0.0
 11
-14.02722167967999
 21
-39.48637694120913
 31
0.0
  0
SPLINE
  5
91F9
330
1F
100
AcDbEntity
  8
AM_0
  6
CONTINUOUS
 48
0.5
100
AcDbSpline
210
0.0
220
0.0
230
1.0
 70
     8
 71
     3
 72
    11
 73
     7
 74
     5
 42
0.0000000001
 43
0.0000000001
 44
0.0000000001
 40
0.0
 40
0.0
 40
0.0
 40
0.0
 40
0.9760585629069424
 40
1.957115253525056
 40
2.934777140793862
 40
3.91284733467283
 40
3.91284733467283
 40
3.91284733467283
 40
3.91284733467283
 10
-14.02722167967999
 20
-39.48637694120913
 30
0.0
 10
-14.06628455274691
 20
-39.15752317132144
 30
0.0
 10
-14.14461032912051
 20
-38.49813166174889
 30
0.0
 10
-14.72276271491948
 20
-37.68958852033911
 30
0.0
 10
-15.10844915075882
 20
-36.76153675722688
 30
0.0
 10
-15.04974429706132
 20
-36.10288229992436
 30
0.0
 10
-15.02038574217999
 20
-35.77348631620913
 30
0.0
 11
-14.02722167967999
 21
-39.48637694120913
 31
0.0
 11
-14.22082519531
 21
-38.52971190214913
 31
0.0
 11
-14.69116210936999
 21
-37.66874998807912
 31
0.0
 11
-15.02954101561999
 21
-36.75151365995913
 31
0.0
 11
-15.02038574217999
 21
-35.77348631620913
 31
0.0
  0
SPLINE
  5
91FA
330
1F
100
AcDbEntity
  8
AM_0
  6
CONTINUOUS
 48
0.5
100
AcDbSpline
210
0.0
220
0.0
230
1.0
 70
     8
 71
     3
 72
    11
 73
     7
 74
     5
 42
0.0000000001
 43
0.0000000001
 44
0.0000000001
 40
0.0
 40
0.0
 40
0.0
 40
0.0
 40
0.7261121543734697
 40
1.455818811751946
 40
2.173951726889751
 40
2.896574200565538
 40
2.896574200565538
 40
2.896574200565538
 40
2.896574200565538
 10
-13.60583496092999
 20
-42.11064451932912
 30
0.0
 10
-13.7895747858918
 20
-42.26977912470633
 30
0.0
 10
-14.15796401066415
 20
-42.58883610607412
 30
0.0
 10
-14.42919407410667
 20
-43.33281429439693
 30
0.0
 10
-14.12452623470632
 20
-44.02123402947376
 30
0.0
 10
-14.05972384191074
 20
-44.49644442461391
 30
0.0
 10
-14.02722167967999
 20
-44.73479002714912
 30
0.0
 11
-13.60583496092999
 21
-42.11064451932912
 31
0.0
 11
-14.11059570311999
 21
-42.63261717557912
 31
0.0
 11
-14.33312988281
 21
-43.32756346464913
 31
0.0
 11
-14.15930175780999
 21
-44.02434080839912
 31
0.0
 11
-14.02722167967999
 21
-44.73479002714912
 31
0.0
  0
SPLINE
  5
91FB
330
1F
100
AcDbEntity
  8
AM_0
  6
CONTINUOUS
 48
0.5
100
AcDbSpline
210
0.0
220
0.0
230
1.0
 70
     8
 71
     3
 72
    11
 73
     7
 74
     5
 42
0.0000000001
 43
0.0000000001
 44
0.0000000001
 40
0.0
 40
0.0
 40
0.0
 40
0.0
 40
0.9778214617426936
 40
1.960112741044279
 40
2.937963271017034
 40
3.918113251998984
 40
3.918113251998984
 40
3.918113251998984
 40
3.918113251998984
 10
-10.51354980467999
 20
-35.97270506620913
 30
0.0
 10
-10.84508143136379
 20
-35.94230760518566
 30
0.0
 10
-11.5096601821348
 20
-35.88137373026199
 30
0.0
 10
-12.30894592674464
 20
-35.28130333934552
 30
0.0
 10
-13.23662257630545
 20
-34.88957638019816
 30
0.0
 10
-13.89624292862511
 20
-34.9495293265451
 30
0.0
 10
-14.22644042967999
 20
-34.97954100370913
 30
0.0
 11
-10.51354980467999
 21
-35.97270506620913
 31
0.0
 11
-11.47546386717999
 21
-35.79704588651912
 31
0.0
 11
-12.33154296875
 21
-35.31535643339913
 31
0.0
 11
-13.24633789061999
 21
-34.96989744901913
 31
0.0
 11
-14.22644042967999
 21
-34.97954100370913
 31
0.0
  0
SPLINE
  5
91FC
330
1F
100
AcDbEntity
  8
AM_0
  6
CONTINUOUS
 48
0.5
100
AcDbSpline
210
0.0
220
0.0
230
1.0
 70
     8
 71
     3
 72
    11
 73
     7
 74
     5
 42
0.0000000001
 43
0.0000000001
 44
0.0000000001
 40
0.0
 40
0.0
 40
0.0
 40
0.0
 40
0.7260273018485553
 40
1.45577119551422
 40
2.173904110652025
 40
2.896526584327812
 40
2.896526584327812
 40
2.896526584327812
 40
2.896526584327812
 10
-7.889404296869997
 20
-36.39409178495913
 30
0.0
 10
-8.048551204348221
 20
-36.21041394911357
 30
0.0
 10
-8.367659705050709
 20
-35.8421180158924
 30
0.0
 10
-9.111546321468534
 20
-35.57068765203927
 30
0.0
 10
-9.799997794233636
 20
-35.87541046498027
 30
0.0
 10
-10.27520553397929
 20
-35.94020622879642
 30
0.0
 10
-10.51354980467999
 20
-35.97270506620913
 30
0.0
 11
-7.889404296869997
 21
-36.39409178495913
 31
0.0
 11
-8.411376953119997
 21
-35.88945311307913
 31
0.0
 11
-9.106323242179996
 21
-35.66679686307912
 31
0.0
 11
-9.803100585929996
 21
-35.84062498807913
 31
0.0
 11
-10.51354980467999
 21
-35.97270506620913
 31
0.0
  0
SPLINE
  5
91FD
330
1F
100
AcDbEntity
  8
AM_0
  6
CONTINUOUS
 48
0.5
100
AcDbSpline
210
0.0
220
0.0
230
1.0
 70
     8
 71
     3
 72
    11
 73
     7
 74
     5
 42
0.0000000001
 43
0.0000000001
 44
0.0000000001
 40
0.0
 40
0.0
 40
0.0
 40
0.0
 40
0.7215462588474346
 40
1.45055772801981
 40
2.170974238866929
 40
2.896857908110292
 40
2.896857908110292
 40
2.896857908110292
 40
2.896857908110292
 10
-2.1728515625
 20
-42.11064451932912
 30
0.0
 10
-1.987698374620002
 20
-42.26688635301495
 30
0.0
 10
-1.615476380182884
 20
-42.58098651847762
 30
0.0
 10
-1.357668898703393
 20
-43.32738076130513
 30
0.0
 10
-1.649259891696716
 20
-44.01898805874426
 30
0.0
 10
-1.717310780025591
 20
-44.49558883824576
 30
0.0
 10
-1.75146484375
 20
-44.73479002714912
 30
0.0
 11
-2.1728515625
 21
-42.11064451932912
 31
0.0
 11
-1.666870117179996
 21
-42.62504881620913
 31
0.0
 11
-1.449340820309998
 21
-43.32084959745913
 31
0.0
 11
-1.617309570309998
 21
-44.02141112089913
 31
0.0
 11
-1.75146484375
 21
-44.73479002714912
 31
0.0
  0
SPLINE
  5
91FE
330
1F
100
AcDbEntity
  8
AM_0
  6
CONTINUOUS
 48
0.5
100
AcDbSpline
210
0.0
220
0.0
230
1.0
 70
     8
 71
     3
 72
    11
 73
     7
 74
     5
 42
0.0000000001
 43
0.0000000001
 44
0.0000000001
 40
0.0
 40
0.0
 40
0.0
 40
0.0
 40
0.9778214617426936
 40
1.960112741040466
 40
2.938077470711199
 40
3.918106596075904
 40
3.918106596075904
 40
3.918106596075904
 40
3.918106596075904
 10
-1.75146484375
 20
-39.48637694120913
 30
0.0
 10
-1.721067454212956
 20
-39.15484498706011
 30
0.0
 10
-1.660133722589047
 20
-38.49026557986305
 30
0.0
 10
-1.060038929792337
 20
-37.6909536999231
 30
0.0
 10
-0.6683291049427293
 20
-36.76325300986556
 30
0.0
 10
-0.728370501293451
 20
-36.10364036659273
 30
0.0
 10
-0.7584228515599989
 20
-35.77348631620913
 30
0.0
 11
-1.75146484375
 21
-39.48637694120913
 31
0.0
 11
-1.575805664059998
 21
-38.52446287870913
 31
0.0
 11
-1.094116210929996
 21
-37.66838377714913
 31
0.0
 11
-0.7486572265599989
 21
-36.75346678495913
 31
0.0
 11
-0.7584228515599989
 21
-35.77348631620913
 31
0.0
  0
SPLINE
  5
91FF
330
1F
100
AcDbEntity
  8
AM_0
  6
CONTINUOUS
 48
0.5
100
AcDbSpline
210
0.0
220
0.0
230
1.0
 70
     8
 71
     3
 72
    11
 73
     7
 74
     5
 42
0.0000000001
 43
0.0000000001
 44
0.0000000001
 40
0.0
 40
0.0
 40
0.0
 40
0.0
 40
0.7261150684695729
 40
1.455858962135238
 40
2.173991877273042
 40
2.896614350948829
 40
2.896614350948829
 40
2.896614350948829
 40
2.896614350948829
 10
-2.1728515625
 20
-42.11064451932912
 30
0.0
 10
-1.989176424265509
 20
-41.95145429531101
 30
0.0
 10
-1.620908214815291
 20
-41.63227827984892
 30
0.0
 10
-1.349442321916303
 20
-40.88838535646869
 30
0.0
 10
-1.65417152015288
 20
-40.1999277179523
 30
0.0
 10
-1.71896643309834
 20
-39.72472079982202
 30
0.0
 10
-1.75146484375
 20
-39.48637694120913
 30
0.0
 11
-2.1728515625
 21
-42.11064451932912
 31
0.0
 11
-1.668212890619997
 21
-41.58854979276912
 31
0.0
 11
-1.445556640619997
 21
-40.89360350370912
 31
0.0
 11
-1.619384765619997
 21
-40.19682615995913
 31
0.0
 11
-1.75146484375
 21
-39.48637694120913
 31
0.0
  0
SPLINE
  5
9200
330
1F
100
AcDbEntity
  8
AM_0
  6
CONTINUOUS
 48
0.5
100
AcDbSpline
210
0.0
220
0.0
230
1.0
 70
     8
 71
     3
 72
    11
 73
     7
 74
     5
 42
0.0000000001
 43
0.0000000001
 44
0.0000000001
 40
0.0
 40
0.0
 40
0.0
 40
0.0
 40
0.7218059176497789
 40
1.450700878430752
 40
2.171117389268143
 40
2.897023629031242
 40
2.897023629031242
 40
2.897023629031242
 40
2.897023629031242
 10
-7.889404296869997
 20
-36.39409178495913
 30
0.0
 10
-7.733083599658522
 20
-36.20889587640043
 30
0.0
 10
-7.418906939123544
 20
-35.83668520223105
 30
0.0
 10
-6.672521261744212
 20
-35.57878368329765
 30
0.0
 10
-5.980922862981318
 20
-35.87035616040532
 30
0.0
 10
-5.504335086297113
 20
-35.93850254442828
 30
0.0
 10
-5.26513671875
 20
-35.97270506620913
 30
0.0
 11
-7.889404296869997
 21
-36.39409178495913
 31
0.0
 11
-7.374755859369997
 21
-35.88798826932912
 31
0.0
 11
-6.679077148429996
 21
-35.67045897245913
 31
0.0
 11
-5.978515625
 21
-35.83842772245913
 31
0.0
 11
-5.26513671875
 21
-35.97270506620913
 31
0.0
  0
SPLINE
  5
9201
330
1F
100
AcDbEntity
  8
AM_0
  6
CONTINUOUS
 48
0.5
100
AcDbSpline
210
0.0
220
0.0
230
1.0
 70
     8
 71
     3
 72
    11
 73
     7
 74
     5
 42
0.0000000001
 43
0.0000000001
 44
0.0000000001
 40
0.0
 40
0.0
 40
0.0
 40
0.0
 40
0.9760585629167481
 40
1.956949604710056
 40
2.934653748485221
 40
3.912846007326846
 40
3.912846007326846
 40
3.912846007326846
 40
3.912846007326846
 10
-5.26513671875
 20
-35.97270506620913
 30
0.0
 10
-4.93628612441578
 20
-35.93363601457231
 30
0.0
 10
-4.276956792097932
 20
-35.85530447990641
 30
0.0
 10
-3.46838451028773
 20
-35.27730855359838
 30
0.0
 10
-2.540408564737831
 20
-34.89142759187906
 30
0.0
 10
-1.881688380990783
 20
-34.95016498024927
 30
0.0
 10
-1.55224609375
 20
-34.97954100370913
 30
0.0
 11
-5.26513671875
 21
-35.97270506620913
 31
0.0
 11
-4.308471679679996
 21
-35.77910155057912
 31
0.0
 11
-3.447631835929996
 21
-35.30888670682912
 31
0.0
 11
-2.530395507809998
 21
-34.97038573026912
 31
0.0
 11
-1.55224609375
 21
-34.97954100370913
 31
0.0
  0
SPLINE
  5
9202
330
1F
100
AcDbEntity
  8
AM_0
  6
CONTINUOUS
 48
0.5
100
AcDbSpline
210
0.0
220
0.0
230
1.0
 70
     8
 71
     3
 72
    11
 73
     7
 74
     5
 42
0.0000000001
 43
0.0000000001
 44
0.0000000001
 40
0.0
 40
0.0
 40
0.0
 40
0.0
 40
0.4883119192049583
 40
0.9647347245218092
 40
1.439904403699421
 40
1.924557089438915
 40
1.924557089438915
 40
1.924557089438915
 40
1.924557089438915
 10
-15.02038574217999
 20
-35.77348631620913
 30
0.0
 10
-15.002116484102
 20
-35.93555275061551
 30
0.0
 10
-14.96602277644115
 20
-36.25573972701748
 30
0.0
 10
-14.82395929957088
 20
-36.71660324233144
 30
0.0
 10
-14.62208607054177
 20
-37.15328950102947
 30
0.0
 10
-14.43535329637306
 20
-37.41387761526848
 30
0.0
 10
-14.34106445311999
 20
-37.54545897245913
 30
0.0
 11
-15.02038574217999
 21
-35.77348631620913
 31
0.0
 11
-14.95043945311999
 21
-36.25676268339913
 31
0.0
 11
-14.81384277342999
 21
-36.71318358182912
 31
0.0
 11
-14.61071777342999
 21
-37.14274901151913
 31
0.0
 11
-14.34106445311999
 21
-37.54545897245913
 31
0.0
  0
SPLINE
  5
9203
330
1F
100
AcDbEntity
  8
AM_0
  6
CONTINUOUS
 48
0.5
100
AcDbSpline
210
0.0
220
0.0
230
1.0
 70
     8
 71
     3
 72
    11
 73
     7
 74
     5
 42
0.0000000001
 43
0.0000000001
 44
0.0000000001
 40
0.0
 40
0.0
 40
0.0
 40
0.0
 40
0.5350083752407534
 40
1.053477997353712
 40
1.570077324398488
 40
2.099699376353599
 40
2.099699376353599
 40
2.099699376353599
 40
2.099699376353599
 10
-14.34106445311999
 20
-37.54545897245913
 30
0.0
 10
-14.23574048935251
 20
-37.68991113126228
 30
0.0
 10
-14.02834844923127
 20
-37.97434998869302
 30
0.0
 10
-13.81268091499226
 20
-38.45466287689179
 30
0.0
 10
-13.67322839602516
 20
-38.96062438777438
 30
0.0
 10
-13.65328453272597
 20
-39.30967782205743
 30
0.0
 10
-13.64318847655999
 20
-39.48637694120913
 30
0.0
 11
-14.34106445311999
 21
-37.54545897245913
 31
0.0
 11
-14.04125976561999
 21
-37.98857420682912
 31
0.0
 11
-13.82495117186999
 21
-38.45976561307912
 31
0.0
 11
-13.69226074217999
 21
-38.95903319120913
 31
0.0
 11
-13.64318847655999
 21
-39.48637694120913
 31
0.0
  0
SPLINE
  5
9204
330
1F
100
AcDbEntity
  8
AM_0
  6
CONTINUOUS
 48
0.5
100
AcDbSpline
210
0.0
220
0.0
230
1.0
 70
     8
 71
     3
 72
    11
 73
     7
 74
     5
 42
0.0000000001
 43
0.0000000001
 44
0.0000000001
 40
0.0
 40
0.0
 40
0.0
 40
0.0
 40
0.489604682314511
 40
0.9660300367251588
 40
1.441033292382527
 40
1.926631542470359
 40
1.926631542470359
 40
1.926631542470359
 40
1.926631542470359
 10
-14.22644042967999
 20
-34.97954100370913
 30
0.0
 10
-14.0637183348856
 20
-34.99600318819632
 30
0.0
 10
-13.74265434818696
 20
-35.0284844230766
 30
0.0
 10
-13.28077591406313
 20
-35.16939512788444
 30
0.0
 10
-12.8449005356993
 20
-35.37430811539943
 30
0.0
 10
-12.58710603654513
 20
-35.5654241449889
 30
0.0
 10
-12.45678710936999
 20
-35.66203612089913
 30
0.0
 11
-14.22644042967999
 21
-34.97954100370913
 31
0.0
 11
-13.7412109375
 21
-35.04484862089913
 31
0.0
 11
-13.28442382811999
 21
-35.18022459745913
 31
0.0
 11
-12.85632324217999
 21
-35.38603514432912
 31
0.0
 11
-12.45678710936999
 21
-35.66203612089913
 31
0.0
  0
SPLINE
  5
9205
330
1F
100
AcDbEntity
  8
AM_0
  6
CONTINUOUS
 48
0.5
100
AcDbSpline
210
0.0
220
0.0
230
1.0
 70
     8
 71
     3
 72
    11
 73
     7
 74
     5
 42
0.0000000001
 43
0.0000000001
 44
0.0000000001
 40
0.0
 40
0.0
 40
0.0
 40
0.0
 40
0.488329419612927
 40
0.9647172401312541
 40
1.439886919308866
 40
1.924607533709027
 40
1.924607533709027
 40
1.924607533709027
 40
1.924607533709027
 10
-1.55224609375
 20
-34.97954100370913
 30
0.0
 10
-1.714307454721732
 20
-34.99787394083535
 30
0.0
 10
-2.034467130975703
 20
-35.03409150176361
 30
0.0
 10
-2.495383153100457
 20
-35.17592942970388
 30
0.0
 10
-2.932080743473941
 20
-35.37784152079394
 30
0.0
 10
-3.192641884282557
 20
-35.56465049747277
 30
0.0
 10
-3.32421875
 20
-35.65898436307913
 30
0.0
 11
-1.55224609375
 21
-34.97954100370913
 31
0.0
 11
-2.035522460929996
 21
-35.04960936307913
 31
0.0
 11
-2.491943359369997
 21
-35.18608397245913
 31
0.0
 11
-2.921508789059998
 21
-35.38920897245913
 31
0.0
 11
-3.32421875
 21
-35.65898436307913
 31
0.0
  0
SPLINE
  5
9206
330
1F
100
AcDbEntity
  8
AM_0
  6
CONTINUOUS
 48
0.5
100
AcDbSpline
210
0.0
220
0.0
230
1.0
 70
     8
 71
     3
 72
    11
 73
     7
 74
     5
 42
0.0000000001
 43
0.0000000001
 44
0.0000000001
 40
0.0
 40
0.0
 40
0.0
 40
0.0
 40
0.4897093982577138
 40
0.9660524244562354
 40
1.441002801939763
 40
1.926601052021908
 40
1.926601052021908
 40
1.926601052021908
 40
1.926601052021908
 10
-0.7584228515599989
 20
-35.77348631620913
 30
0.0
 10
-0.7748097490736914
 20
-35.93625769672601
 30
0.0
 10
-0.8071362719640841
 20
-36.25735769468373
 30
0.0
 10
-0.9483771889970604
 20
-36.71912618289747
 30
0.0
 10
-1.1530279496808
 20
-37.15506156988638
 30
0.0
 10
-1.344166977466154
 20
-37.41282781759888
 30
0.0
 10
-1.440795898429996
 20
-37.54313963651913
 30
0.0
 11
-0.7584228515599989
 21
-35.77348631620913
 31
0.0
 11
-0.8236083984299966
 21
-36.25883787870913
 31
0.0
 11
-0.9591064453099988
 21
-36.71550291776913
 31
0.0
 11
-1.164794921869997
 21
-37.14360350370913
 31
0.0
 11
-1.440795898429996
 21
-37.54313963651913
 31
0.0
  0
SPLINE
  5
9207
330
1F
100
AcDbEntity
  8
AM_0
  6
CONTINUOUS
 48
0.5
100
AcDbSpline
210
0.0
220
0.0
230
1.0
 70
     8
 71
     3
 72
    11
 73
     7
 74
     5
 42
0.0000000001
 43
0.0000000001
 44
0.0000000001
 40
0.0
 40
0.0
 40
0.0
 40
0.0
 40
0.5361418870954079
 40
1.055004432011854
 40
1.571660046447906
 40
2.102078647387005
 40
2.102078647387005
 40
2.102078647387005
 40
2.102078647387005
 10
-1.440795898429996
 20
-37.54313963651913
 30
0.0
 10
-1.546990385875798
 20
-37.68744927645512
 30
0.0
 10
-1.755956813620348
 20
-37.97141759413188
 30
0.0
 10
-1.971609702776278
 20
-38.45250489128421
 30
0.0
 10
-2.108608455152634
 20
-38.95974006112163
 30
0.0
 10
-2.125079220901638
 20
-39.30929974995344
 30
0.0
 10
-2.133422851559998
 20
-39.48637694120913
 30
0.0
 11
-1.440795898429996
 21
-37.54313963651913
 31
0.0
 11
-1.742797851559998
 21
-37.98613280057912
 31
0.0
 11
-1.958984375
 21
-38.45781248807913
 31
0.0
 11
-2.089111328119997
 21
-38.95781248807912
 31
0.0
 11
-2.133422851559998
 21
-39.48637694120913
 31
0.0
  0
SPLINE
  5
9208
330
1F
100
AcDbEntity
  8
AM_0
  6
CONTINUOUS
 48
0.5
100
AcDbSpline
210
0.0
220
0.0
230
1.0
 70
     8
 71
     3
 72
    11
 73
     7
 74
     5
 42
0.0000000001
 43
0.0000000001
 44
0.0000000001
 40
0.0
 40
0.0
 40
0.0
 40
0.0
 40
0.1855376391900459
 40
0.3702611219042875
 40
0.5550307809166286
 40
0.7402921772547338
 40
0.7402921772547338
 40
0.7402921772547338
 40
0.7402921772547338
 10
-13.64538574217999
 20
-44.73479002714912
 30
0.0
 10
-13.64670809544972
 20
-44.67293537289728
 30
0.0
 10
-13.64934699937961
 20
-44.54949748838895
 30
0.0
 10
-13.66824324945799
 20
-44.36529172773804
 30
0.0
 10
-13.69722316735034
 20
-44.1825008795665
 30
0.0
 10
-13.72612864216203
 20
-44.06254691076822
 30
0.0
 10
-13.74060058592999
 20
-44.00249022245913
 30
0.0
 11
-13.64538574217999
 21
-44.73479002714912
 31
0.0
 11
-13.65185546875
 21
-44.54936522245913
 31
0.0
 11
-13.669921875
 21
-44.36552733182913
 31
0.0
 11
-13.69958496092999
 21
-44.18315428495913
 31
0.0
 11
-13.74060058592999
 21
-44.00249022245913
 31
0.0
  0
SPLINE
  5
9209
330
1F
100
AcDbEntity
  8
AM_0
  6
CONTINUOUS
 48
0.5
100
AcDbSpline
210
0.0
220
0.0
230
1.0
 70
     8
 71
     3
 72
    11
 73
     7
 74
     5
 42
0.0000000001
 43
0.0000000001
 44
0.0000000001
 40
0.0
 40
0.0
 40
0.0
 40
0.0
 40
0.1854199427006307
 40
0.3701434254148722
 40
0.5550140271936656
 40
0.7404215129967282
 40
0.7404215129967282
 40
0.7404215129967282
 40
0.7404215129967282
 10
-2.133422851559998
 20
-39.48637694120913
 30
0.0
 10
-2.132052446129949
 20
-39.54819126009089
 30
0.0
 10
-2.129316782680281
 20
-39.67158771571124
 30
0.0
 10
-2.110392512919283
 20
-39.85577748098348
 30
0.0
 10
-2.081652782284436
 20
-40.03869416103846
 30
0.0
 10
-2.052622250016897
 20
-40.15870592753971
 30
0.0
 10
-2.0380859375
 20
-40.21879881620913
 30
0.0
 11
-2.133422851559998
 21
-39.48637694120913
 31
0.0
 11
-2.126831054679996
 21
-39.67167967557912
 31
0.0
 11
-2.108764648429996
 21
-39.85551756620913
 31
0.0
 11
-2.079223632809998
 21
-40.03801268339913
 31
0.0
 11
-2.0380859375
 21
-40.21879881620913
 31
0.0
  0
SPLINE
  5
920A
330
1F
100
AcDbEntity
  8
AM_0
  6
CONTINUOUS
 48
0.5
100
AcDbSpline
210
0.0
220
0.0
230
1.0
 70
     8
 71
     3
 72
    11
 73
     7
 74
     5
 42
0.0000000001
 43
0.0000000001
 44
0.0000000001
 40
0.0
 40
0.0
 40
0.0
 40
0.0
 40
0.1851479910718603
 40
0.3700464391601614
 40
0.5547907732124859
 40
0.7400381736515016
 40
0.7400381736515016
 40
0.7400381736515016
 40
0.7400381736515016
 10
-13.64318847655999
 20
-39.48637694120913
 30
0.0
 10
-13.6462606512477
 20
-39.54803011011654
 30
0.0
 10
-13.65240085993741
 20
-39.67125335161676
 30
0.0
 10
-13.67293680201716
 20
-39.85512663436422
 30
0.0
 10
-13.70025453263756
 20
-40.03814235982266
 30
0.0
 10
-13.72567553636677
 20
-40.15885081039054
 30
0.0
 10
-13.73840332030999
 20
-40.21928709745913
 30
0.0
 11
-13.64318847655999
 21
-39.48637694120913
 31
0.0
 11
-13.654296875
 21
-39.67119139432913
 31
0.0
 11
-13.67407226561999
 21
-39.85502928495913
 31
0.0
 11
-13.70202636717999
 21
-40.03764647245913
 31
0.0
 11
-13.73840332030999
 21
-40.21928709745913
 31
0.0
  0
SPLINE
  5
920B
330
1F
100
AcDbEntity
  8
AM_0
  6
CONTINUOUS
 48
0.5
100
AcDbSpline
210
0.0
220
0.0
230
1.0
 70
     8
 71
     3
 72
    11
 73
     7
 74
     5
 42
0.0000000001
 43
0.0000000001
 44
0.0000000001
 40
0.0
 40
0.0
 40
0.0
 40
0.0
 40
0.1852772007841732
 40
0.3701626329590637
 40
0.5549069670113883
 40
0.7401783770088955
 40
0.7401783770088955
 40
0.7401783770088955
 40
0.7401783770088955
 10
-2.135620117179996
 20
-44.73479002714912
 30
0.0
 10
-2.132484707634928
 20
-44.67309806264009
 30
0.0
 10
-2.126220518367737
 20
-44.5498445812704
 30
0.0
 10
-2.105914257208345
 20
-44.36591051147778
 30
0.0
 10
-2.078571193072629
 20
-44.18288964252868
 30
0.0
 10
-2.053057980697311
 20
-44.06219239105874
 30
0.0
 10
-2.040283203119997
 20
-44.00175780057913
 30
0.0
 11
-2.135620117179996
 21
-44.73479002714912
 31
0.0
 11
-2.124389648429996
 21
-44.54985350370913
 31
0.0
 11
-2.104736328119997
 21
-44.36601561307912
 31
0.0
 11
-2.076782226559998
 21
-44.18339842557912
 31
0.0
 11
-2.040283203119997
 21
-44.00175780057913
 31
0.0
  0
SPLINE
  5
920C
330
1F
100
AcDbEntity
  8
AM_0
  6
CONTINUOUS
 48
0.5
100
AcDbSpline
210
0.0
220
0.0
230
1.0
 70
     8
 71
     3
 72
    11
 73
     7
 74
     5
 42
0.0000000001
 43
0.0000000001
 44
0.0000000001
 40
0.0
 40
0.0
 40
0.0
 40
0.0
 40
0.5014141172268487
 40
1.001804315789448
 40
1.501791828457704
 40
2.001959885312865
 40
2.001959885312865
 40
2.001959885312865
 40
2.001959885312865
 10
-2.1728515625
 20
-42.11064451932912
 30
0.0
 10
-2.082434828177396
 20
-41.96892099377284
 30
0.0
 10
-1.901785996100352
 20
-41.68576335087194
 30
0.0
 10
-1.789551948332444
 20
-41.18677430938332
 30
0.0
 10
-1.839317201741766
 20
-40.67974002571008
 30
0.0
 10
-1.973286474790174
 20
-40.37278987669114
 30
0.0
 10
-2.040283203119997
 20
-40.21928709745913
 30
0.0
 11
-2.1728515625
 21
-42.11064451932912
 31
0.0
 11
-1.928100585929996
 21
-41.67302244901913
 31
0.0
 11
-1.816528320309998
 21
-41.18522948026913
 31
0.0
 11
-1.864501953119997
 21
-40.68754881620913
 31
0.0
 11
-2.040283203119997
 21
-40.21928709745913
 31
0.0
  0
SPLINE
  5
920D
330
1F
100
AcDbEntity
  8
AM_0
  6
CONTINUOUS
 48
0.5
100
AcDbSpline
210
0.0
220
0.0
230
1.0
 70
     8
 71
     3
 72
    11
 73
     7
 74
     5
 42
0.0000000001
 43
0.0000000001
 44
0.0000000001
 40
0.0
 40
0.0
 40
0.0
 40
0.0
 40
0.4991837633989799
 40
0.9973875398562446
 40
1.488646117055324
 40
1.998505463912627
 40
1.998505463912627
 40
1.998505463912627
 40
1.998505463912627
 10
-13.60583496092999
 20
-42.11064451932912
 30
0.0
 10
-13.6959921990802
 20
-41.9692116675007
 30
0.0
 10
-13.87612968060921
 20
-41.68662362180887
 30
0.0
 10
-13.97355308468142
 20
-41.1905518990018
 30
0.0
 10
-13.94540149182174
 20
-40.68315838460544
 30
0.0
 10
-13.80970794983535
 20
-40.37549082661
 30
0.0
 10
-13.74060058592999
 20
-40.21879881620913
 30
0.0
 11
-13.60583496092999
 21
-42.11064451932912
 31
0.0
 11
-13.84753417967999
 21
-41.67387694120913
 31
0.0
 11
-13.95288085936999
 21
-41.18693846464913
 31
0.0
 11
-13.91760253905999
 21
-40.69694823026913
 31
0.0
 11
-13.74060058592999
 21
-40.21879881620913
 31
0.0
  0
SPLINE
  5
920E
330
1F
100
AcDbEntity
  8
AM_0
  6
CONTINUOUS
 48
0.5
100
AcDbSpline
210
0.0
220
0.0
230
1.0
 70
     8
 71
     3
 72
    11
 73
     7
 74
     5
 42
0.0000000001
 43
0.0000000001
 44
0.0000000001
 40
0.0
 40
0.0
 40
0.0
 40
0.0
 40
0.4990769598406131
 40
0.9972549384524207
 40
1.488504764602036
 40
1.998478591560721
 40
1.998478591560721
 40
1.998478591560721
 40
1.998478591560721
 10
-2.1728515625
 20
-42.11064451932912
 30
0.0
 10
-2.082675832738273
 20
-42.25203261644913
 30
0.0
 10
-1.90248680565485
 20
-42.53455413003762
 30
0.0
 10
-1.805341157587898
 20
-43.03063010934661
 30
0.0
 10
-1.833247272163821
 20
-43.53804556673359
 30
0.0
 10
-1.968960386770541
 20
-43.84575715374043
 30
0.0
 10
-2.0380859375
 20
-44.00249022245913
 30
0.0
 11
-2.1728515625
 21
-42.11064451932912
 31
0.0
 11
-1.93115234375
 21
-42.54729002714912
 31
0.0
 11
-1.825927734369997
 21
-43.03422850370913
 31
0.0
 11
-1.861083984369997
 21
-43.52421873807912
 31
0.0
 11
-2.0380859375
 21
-44.00249022245913
 31
0.0
  0
SPLINE
  5
920F
330
1F
100
AcDbEntity
  8
AM_0
  6
CONTINUOUS
 48
0.5
100
AcDbSpline
210
0.0
220
0.0
230
1.0
 70
     8
 71
     3
 72
    11
 73
     7
 74
     5
 42
0.0000000001
 43
0.0000000001
 44
0.0000000001
 40
0.0
 40
0.0
 40
0.0
 40
0.0
 40
0.5013671898801274
 40
1.0017301845116
 40
1.501596190216595
 40
2.001764247071755
 40
2.001764247071755
 40
2.001764247071755
 40
2.001764247071755
 10
-13.60583496092999
 20
-42.11064451932912
 30
0.0
 10
-13.69631688002113
 20
-42.25231751613582
 30
0.0
 10
-13.87709949072168
 20
-42.53537975095301
 30
0.0
 10
-13.98908181419275
 20
-43.03437723762685
 30
0.0
 10
-13.93936553068694
 20
-43.54133879748981
 30
0.0
 10
-13.80540421103313
 20
-43.84825389924873
 30
0.0
 10
-13.73840332030999
 20
-44.00175780057913
 30
0.0
 11
-13.60583496092999
 21
-42.11064451932912
 31
0.0
 11
-13.85070800780999
 21
-42.54814451932912
 31
0.0
 11
-13.96215820311999
 21
-43.03593748807912
 31
0.0
 11
-13.91418457030999
 21
-43.53349608182912
 31
0.0
 11
-13.73840332030999
 21
-44.00175780057913
 31
0.0
  0
SPLINE
  5
9210
330
1F
100
AcDbEntity
  8
AM_0
  6
CONTINUOUS
 48
0.5
100
AcDbSpline
210
0.0
220
0.0
230
1.0
 70
     8
 71
     3
 72
    11
 73
     7
 74
     5
 42
0.0000000001
 43
0.0000000001
 44
0.0000000001
 40
0.0
 40
0.0
 40
0.0
 40
0.0
 40
0.977701377533514
 40
1.960099044461408
 40
2.937949574430628
 40
3.918099555422582
 40
3.918099555422582
 40
3.918099555422582
 40
3.918099555422582
 10
-14.02722167967999
 20
-44.73479002714912
 30
0.0
 10
-14.05763325423274
 20
-45.06627490077014
 30
0.0
 10
-14.11860248225181
 20
-45.73083690197861
 30
0.0
 10
-14.71859005034948
 20
-46.5301633728067
 30
0.0
 10
-15.11035516516985
 20
-47.45786009924073
 30
0.0
 10
-15.0503990204225
 20
-48.11748225054388
 30
0.0
 10
-15.02038574217999
 20
-48.44768065214913
 30
0.0
 11
-14.02722167967999
 21
-44.73479002714912
 31
0.0
 11
-14.20288085936999
 21
-45.69658201932912
 31
0.0
 11
-14.6845703125
 21
-46.55278319120912
 31
0.0
 11
-15.03002929686999
 21
-47.46757811307912
 31
0.0
 11
-15.02038574217999
 21
-48.44768065214913
 31
0.0
  0
SPLINE
  5
9211
330
1F
100
AcDbEntity
  8
AM_0
  6
CONTINUOUS
 48
0.5
100
AcDbSpline
210
0.0
220
0.0
230
1.0
 70
     8
 71
     3
 72
    11
 73
     7
 74
     5
 42
0.0000000001
 43
0.0000000001
 44
0.0000000001
 40
0.0
 40
0.0
 40
0.0
 40
0.0
 40
0.976034357306538
 40
1.95698392242954
 40
2.934688066204705
 40
3.912881475174806
 40
3.912881475174806
 40
3.912881475174806
 40
3.912881475174806
 10
-1.75146484375
 20
-44.73479002714912
 30
0.0
 10
-1.712455212285666
 20
-45.06364792083116
 30
0.0
 10
-1.634239500897931
 20
-45.7230198024479
 30
0.0
 10
-1.056042894220134
 20
-46.5315038966287
 30
0.0
 10
-0.6701650510800175
 20
-47.45952379550454
 30
0.0
 10
-0.7289986790151767
 20
-48.11824010759517
 30
0.0
 10
-0.7584228515599989
 20
-48.44768065214913
 30
0.0
 11
-1.75146484375
 21
-44.73479002714912
 31
0.0
 11
-1.557983398429996
 21
-45.69145506620913
 31
0.0
 11
-1.087646484369997
 21
-46.55229490995913
 31
0.0
 11
-0.7491455078099989
 21
-47.46953123807912
 31
0.0
 11
-0.7584228515599989
 21
-48.44768065214913
 31
0.0
  0
SPLINE
  5
9212
330
1F
100
AcDbEntity
  8
AM_0
  6
CONTINUOUS
 48
0.5
100
AcDbSpline
210
0.0
220
0.0
230
1.0
 70
     8
 71
     3
 72
    11
 73
     7
 74
     5
 42
0.0000000001
 43
0.0000000001
 44
0.0000000001
 40
0.0
 40
0.0
 40
0.0
 40
0.0
 40
0.5361740152060682
 40
1.054925592786956
 40
1.571581207225527
 40
2.101999808154658
 40
2.101999808154658
 40
2.101999808154658
 40
2.101999808154658
 10
-14.337890625
 20
-46.67802733182912
 30
0.0
 10
-14.23175388189313
 20
-46.53366648879013
 30
0.0
 10
-14.02292920284661
 20
-46.24963566372374
 30
0.0
 10
-13.80716137698647
 20
-45.76864094372469
 30
0.0
 10
-13.6702072944208
 20
-45.26142309561997
 30
0.0
 10
-13.65373177892669
 20
-44.91186593677961
 30
0.0
 10
-13.64538574217999
 20
-44.73479002714912
 30
0.0
 11
-14.337890625
 21
-46.67802733182912
 31
0.0
 11
-14.03601074217999
 21
-46.23491209745913
 31
0.0
 11
-13.81982421875
 21
-45.76335448026912
 31
0.0
 11
-13.68969726561999
 21
-45.26335448026912
 31
0.0
 11
-13.64538574217999
 21
-44.73479002714912
 31
0.0
  0
SPLINE
  5
9213
330
1F
100
AcDbEntity
  8
AM_0
  6
CONTINUOUS
 48
0.5
100
AcDbSpline
210
0.0
220
0.0
230
1.0
 70
     8
 71
     3
 72
    11
 73
     7
 74
     5
 42
0.0000000001
 43
0.0000000001
 44
0.0000000001
 40
0.0
 40
0.0
 40
0.0
 40
0.0
 40
0.5349072761327197
 40
1.053436934015609
 40
1.570067628727081
 40
2.099689680682192
 40
2.099689680682192
 40
2.099689680682192
 40
2.099689680682192
 10
-1.437744140619997
 20
-46.67570799589912
 30
0.0
 10
-1.543092425881418
 20
-46.5313078614685
 30
0.0
 10
-1.750563476624905
 20
-46.24692878929395
 30
0.0
 10
-1.96590603609266
 20
-45.76647577315738
 30
0.0
 10
-2.105633460426044
 20
-45.26057048232826
 30
0.0
 10
-2.125542162576501
 20
-44.911495006373
 30
0.0
 10
-2.135620117179996
 20
-44.73479002714912
 30
0.0
 11
-1.437744140619997
 21
-46.67570799589912
 31
0.0
 11
-1.737548828119997
 21
-46.23271483182913
 31
0.0
 11
-1.953735351559998
 21
-45.76140135526912
 31
0.0
 11
-2.086547851559998
 21
-45.26213377714912
 31
0.0
 11
-2.135620117179996
 21
-44.73479002714912
 31
0.0
  0
SPLINE
  5
9214
330
1F
100
AcDbEntity
  8
AM_0
  6
CONTINUOUS
 48
0.5
100
AcDbSpline
210
0.0
220
0.0
230
1.0
 70
     8
 71
     3
 72
    11
 73
     7
 74
     5
 42
0.0000000001
 43
0.0000000001
 44
0.0000000001
 40
0.0
 40
0.0
 40
0.0
 40
0.0
 40
0.3703255381462747
 40
0.7309046287472319
 40
1.081769724946503
 40
1.423125903594942
 40
1.423125903594942
 40
1.423125903594942
 40
1.423125903594942
 10
-13.27758789061999
 20
-45.72954100370913
 30
0.0
 10
-13.3727478662795
 20
-45.80817937604981
 30
0.0
 10
-13.56056334081892
 20
-45.96338646932419
 30
0.0
 10
-13.83174557949179
 20
-46.20111093039973
 30
0.0
 10
-14.09101840915929
 20
-46.43768133427771
 30
0.0
 10
-14.25635696157806
 20
-46.59864906075705
 30
0.0
 10
-14.337890625
 20
-46.67802733182912
 30
0.0
 11
-13.27758789061999
 21
-45.72954100370913
 31
0.0
 11
-13.56188964842999
 21
-45.96684569120912
 31
0.0
 11
-13.83337402342999
 21
-46.20415037870913
 31
0.0
 11
-14.09204101561999
 21
-46.44121092557912
 31
0.0
 11
-14.337890625
 21
-46.67802733182912
 31
0.0
  0
LINE
  5
9215
330
1F
100
AcDbEntity
  8
AM_0
  6
CONTINUOUS
 48
0.5
100
AcDbLine
 10
-0.1984863281199978
 20
-35.21977537870913
 30
0.0
 11
-0.1984863281199978
 21
-49.00151365995913
 31
0.0
  0
LINE
  5
9216
330
1F
100
AcDbEntity
  8
AM_0
  6
CONTINUOUS
 48
0.5
100
AcDbLine
 10
-15.58020019530999
 20
-49.00151365995913
 30
0.0
 11
-15.58020019530999
 21
-35.21977537870913
 31
0.0
  0
LINE
  5
9217
330
1F
100
AcDbEntity
  8
AM_0
  6
CONTINUOUS
 48
0.5
100
AcDbLine
 10
0.0
 20
-49.19999998807913
 30
0.0
 11
0.0
 21
-35.02128905057912
 31
0.0
  0
LINE
  5
9218
330
1F
100
AcDbEntity
  8
AM_0
  6
CONTINUOUS
 48
0.5
100
AcDbLine
 10
-15.77868652342999
 20
-35.02128905057912
 30
0.0
 11
-15.77868652342999
 21
-49.19999998807913
 31
0.0
  0
ARC
  5
9219
330
1F
100
AcDbEntity
  8
AM_0
  6
CONTINUOUS
 48
0.5
100
AcDbCircle
 10
7.5517578125
 20
-44.81743162870913
 30
0.0
 40
10.09431266784599
100
AcDbArc
 50
164.4440479110419
 51
195.5527865236483
  0
ARC
  5
921A
330
1F
100
AcDbEntity
  8
AM_0
  6
CONTINUOUS
 48
0.5
100
AcDbCircle
 10
-23.33044433592999
 20
-44.81743162870913
 30
0.0
 40
10.09431266784599
100
AcDbArc
 50
344.4471999296536
 51
15.55455372140997
  0
CIRCLE
  5
921B
330
1F
100
AcDbEntity
  8
AM_0
  6
CONTINUOUS
 48
0.5
100
AcDbCircle
 10
-7.889404296869997
 20
-42.11064451932912
 30
0.0
 40
3.9000000953674
  0
ARC
  5
921C
330
1F
100
AcDbEntity
  8
AM_0
  6
CONTINUOUS
 48
0.5
100
AcDbCircle
 10
-36.0
 20
-43.0
 30
0.0
 40
8.0
100
AcDbArc
 50
0.0
 51
89.99998201390772
  0
LINE
  5
921D
330
1F
100
AcDbEntity
  8
AM_0
  6
CONTINUOUS
 48
0.5
100
AcDbLine
 10
-23.54553222655999
 20
-41.14458006620913
 30
0.0
 11
-19.39636230467999
 21
-41.14458006620913
 31
0.0
  0
LINE
  5
921E
330
1F
100
AcDbEntity
  8
AM_0
  6
CONTINUOUS
 48
0.5
100
AcDbLine
 10
-23.54553222655999
 20
-36.14458006620913
 30
0.0
 11
-19.6936340332
 21
-36.14458006620913
 31
0.0
  0
LINE
  5
921F
330
1F
100
AcDbEntity
  8
AM_0
  6
CONTINUOUS
 48
0.5
100
AcDbLine
 10
-24.04553222656
 20
-40.64458006620912
 30
0.0
 11
-19.51525878905999
 21
-40.64458006620912
 31
0.0
  0
LINE
  5
9220
330
1F
100
AcDbEntity
  8
AM_0
  6
CONTINUOUS
 48
0.5
100
AcDbLine
 10
-24.04553222656
 20
-36.64458006620913
 30
0.0
 11
-19.6936340332
 21
-36.64458006620913
 31
0.0
  0
LINE
  5
9221
330
1F
100
AcDbEntity
  8
AM_7
  6
AM_ISO08W050
 48
0.5
100
AcDbLine
 10
-33.96069335936999
 20
-38.64465332031
 30
0.0
 11
-16.94625854492
 21
-38.64465332031
 31
0.0
  0
LINE
  5
9222
330
1F
100
AcDbEntity
  8
AM_0
  6
CONTINUOUS
 48
0.5
100
AcDbLine
 10
-47.5
 20
-35.0
 30
0.0
 11
-36.0
 21
-35.0
 31
0.0
  0
ARC
  5
9223
330
1F
100
AcDbEntity
  8
AM_0
  6
CONTINUOUS
 48
0.5
100
AcDbCircle
 10
-47.5
 20
-32.5
 30
0.0
 40
2.5
100
AcDbArc
 50
179.999994991043
 51
269.9999974955182
  0
LINE
  5
9224
330
1F
100
AcDbEntity
  8
AM_0
  6
CONTINUOUS
 48
0.5
100
AcDbLine
 10
-23.54553222655999
 20
-41.14458006620913
 30
0.0
 11
-24.04553222656
 21
-40.64458006620912
 31
0.0
  0
LINE
  5
9225
330
1F
100
AcDbEntity
  8
AM_0
  6
CONTINUOUS
 48
0.5
100
AcDbLine
 10
-24.04553222656
 20
-36.64458006620913
 30
0.0
 11
-23.54553222655999
 21
-36.14458006620913
 31
0.0
  0
LINE
  5
9226
330
1F
100
AcDbEntity
  8
AM_0
  6
CONTINUOUS
 48
0.5
100
AcDbLine
 10
-24.04553222656
 20
-40.64458006620912
 30
0.0
 11
-24.04553222656
 21
-36.64458006620913
 31
0.0
  0
LINE
  5
9227
330
1F
100
AcDbEntity
  8
AM_0
  6
CONTINUOUS
 48
0.5
100
AcDbLine
 10
-23.54553222655999
 20
-41.14458006620913
 30
0.0
 11
-23.54553222655999
 21
-36.14458006620913
 31
0.0
  0
LINE
  5
9228
330
1F
100
AcDbEntity
  8
AM_0
  6
CONTINUOUS
 48
0.5
100
AcDbLine
 10
-0.99853515625
 20
-34.41972655057913
 30
0.0
 11
-14.7802734375
 21
-34.41972655057913
 31
0.0
  0
LINE
  5
9229
330
1F
100
AcDbEntity
  8
AM_0
  6
CONTINUOUS
 48
0.5
100
AcDbLine
 10
-14.97875976561999
 20
-34.22124022245913
 30
0.0
 11
-0.8000488281199977
 21
-34.22124022245913
 31
0.0
  0
ARC
  5
922A
330
1F
100
AcDbEntity
  8
AM_0
  6
CONTINUOUS
 48
0.5
100
AcDbCircle
 10
-5.182556152339998
 20
-26.66777342557912
 30
0.0
 40
10.09591865539499
100
AcDbArc
 50
254.4481895101632
 51
285.5502003864271
  0
ARC
  5
922B
330
1F
100
AcDbEntity
  8
AM_0
  6
CONTINUOUS
 48
0.5
100
AcDbCircle
 10
-5.253662109369997
 20
-33.31962889432912
 30
0.0
 40
3.0323553085327
100
AcDbArc
 50
255.7986886638008
 51
309.7131352169442
  0
ARC
  5
922C
330
1F
100
AcDbEntity
  8
AM_0
  6
CONTINUOUS
 48
0.5
100
AcDbCircle
 10
-7.108032226559998
 20
-26.0
 30
0.0
 40
3.0
100
AcDbArc
 50
25.00097172091758
 51
90.00000250448174
  0
LINE
  5
922D
330
1F
100
AcDbEntity
  8
AM_0
  6
CONTINUOUS
 48
0.5
100
AcDbLine
 10
-18.0
 20
-23.0
 30
0.0
 11
-7.108032226559998
 21
-23.0
 31
0.0
  0
LINE
  5
922E
330
1F
100
AcDbEntity
  8
AM_0
  6
CONTINUOUS
 48
0.5
100
AcDbLine
 10
-15.77868652342999
 20
-42.11064451932912
 30
0.0
 11
-13.60583496092999
 21
-42.11064451932912
 31
0.0
  0
LINE
  5
922F
330
1F
100
AcDbEntity
  8
AM_0
  6
CONTINUOUS
 48
0.5
100
AcDbLine
 10
-13.74063110350999
 20
-40.21873778104913
 30
0.0
 11
-13.27758789061999
 21
-40.31590574979913
 31
0.0
  0
LINE
  5
9230
330
1F
100
AcDbEntity
  8
AM_0
  6
CONTINUOUS
 48
0.5
100
AcDbLine
 10
-13.27792358397999
 20
-38.49132078885912
 30
0.0
 11
-14.30126953125
 21
-37.59715574979912
 31
0.0
  0
LINE
  5
9231
330
1F
100
AcDbEntity
  8
AM_0
  6
CONTINUOUS
 48
0.5
100
AcDbLine
 10
-13.30316162108999
 20
-36.39409178495913
 30
0.0
 11
-14.22659301756999
 21
-34.97966307401913
 31
0.0
  0
LINE
  5
9232
330
1F
100
AcDbEntity
  8
AM_0
  6
CONTINUOUS
 48
0.5
100
AcDbLine
 10
-15.02035522459999
 20
-35.77354735135912
 30
0.0
 11
-13.60586547850999
 21
-36.69707030057912
 31
0.0
  0
LINE
  5
9233
330
1F
100
AcDbEntity
  8
AM_0
  6
CONTINUOUS
 48
0.5
100
AcDbLine
 10
-14.02722167967999
 20
-39.48637694120913
 30
0.0
 11
-13.64318847655999
 21
-39.48637694120913
 31
0.0
  0
LINE
  5
9234
330
1F
100
AcDbEntity
  8
AM_0
  6
CONTINUOUS
 48
0.5
100
AcDbLine
 10
-15.97775268553999
 20
-41.08641356229912
 30
0.0
 11
-15.97775268553999
 21
-40.59886473417913
 31
0.0
  0
LINE
  5
9235
330
1F
100
AcDbEntity
  8
AM_0
  6
CONTINUOUS
 48
0.5
100
AcDbLine
 10
-15.97775268553999
 20
-40.59886473417913
 30
0.0
 11
-15.77868652342999
 21
-40.59886473417913
 31
0.0
  0
LINE
  5
9236
330
1F
100
AcDbEntity
  8
AM_0
  6
CONTINUOUS
 48
0.5
100
AcDbLine
 10
-14.22662353514999
 20
-34.97972410917913
 30
0.0
 11
-14.98550415039
 21
-34.22130125760912
 31
0.0
  0
LINE
  5
9237
330
1F
100
AcDbEntity
  8
AM_0
  6
CONTINUOUS
 48
0.5
100
AcDbLine
 10
-15.77883911131999
 20
-35.01475828885912
 30
0.0
 11
-15.02044677734
 21
-35.77360838651912
 31
0.0
  0
LINE
  5
9238
330
1F
100
AcDbEntity
  8
AM_0
  6
CONTINUOUS
 48
0.5
100
AcDbLine
 10
-15.97775268553999
 20
-35.66148680448913
 30
0.0
 11
-15.77868652342999
 21
-35.66148680448913
 31
0.0
  0
LINE
  5
9239
330
1F
100
AcDbEntity
  8
AM_0
  6
CONTINUOUS
 48
0.5
100
AcDbLine
 10
-15.97775268553999
 20
-35.66148680448913
 30
0.0
 11
-15.97775268553999
 21
-35.20268553495913
 31
0.0
  0
ARC
  5
923A
330
1F
100
AcDbEntity
  8
AM_0
  6
CONTINUOUS
 48
0.5
100
AcDbCircle
 10
-14.7802734375
 20
-35.21977537870913
 30
0.0
 40
0.8000000119209
100
AcDbArc
 50
89.99997199600034
 51
180.0000223117997
  0
ARC
  5
923B
330
1F
100
AcDbEntity
  8
AM_0
  6
CONTINUOUS
 48
0.5
100
AcDbCircle
 10
-14.97875976561999
 20
-35.02128905057912
 30
0.0
 40
0.8000000119209
100
AcDbArc
 50
89.99997199600034
 51
180.0000223117997
  0
LINE
  5
923C
330
1F
100
AcDbEntity
  8
AM_0
  6
CONTINUOUS
 48
0.5
100
AcDbLine
 10
-18.54550170897999
 20
-41.14458006620913
 30
0.0
 11
-18.04553222655999
 21
-40.64458006620912
 31
0.0
  0
LINE
  5
923D
330
1F
100
AcDbEntity
  8
AM_0
  6
CONTINUOUS
 48
0.5
100
AcDbLine
 10
-19.99090576170999
 20
-40.64458006620912
 30
0.0
 11
-18.04550170897999
 21
-40.64458006620912
 31
0.0
  0
LINE
  5
923E
330
1F
100
AcDbEntity
  8
AM_0
  6
CONTINUOUS
 48
0.5
100
AcDbLine
 10
-19.93145751952999
 20
-41.14458006620913
 30
0.0
 11
-18.54553222655999
 21
-41.14458006620913
 31
0.0
  0
LINE
  5
923F
330
1F
100
AcDbEntity
  8
AM_0
  6
CONTINUOUS
 48
0.5
100
AcDbLine
 10
-18.04556274413999
 20
-41.08641356229912
 30
0.0
 11
-15.97775268553999
 21
-41.08641356229912
 31
0.0
  0
LINE
  5
9240
330
1F
100
AcDbEntity
  8
AM_0
  6
CONTINUOUS
 48
0.5
100
AcDbLine
 10
-18.54553222655999
 20
-36.14458006620913
 30
0.0
 11
-18.04553222655999
 21
-36.64458006620913
 31
0.0
  0
LINE
  5
9241
330
1F
100
AcDbEntity
  8
AM_0
  6
CONTINUOUS
 48
0.5
100
AcDbLine
 10
-20.16925048827999
 20
-36.14458006620913
 30
0.0
 11
-18.54553222655999
 21
-36.14458006620913
 31
0.0
  0
LINE
  5
9242
330
1F
100
AcDbEntity
  8
AM_0
  6
CONTINUOUS
 48
0.5
100
AcDbLine
 10
-19.84225463867
 20
-36.64458006620913
 30
0.0
 11
-18.04556274413999
 21
-36.64458006620913
 31
0.0
  0
LINE
  5
9243
330
1F
100
AcDbEntity
  8
AM_0
  6
CONTINUOUS
 48
0.5
100
AcDbLine
 10
-18.04556274413999
 20
-35.20268553495913
 30
0.0
 11
-15.97775268553999
 21
-35.20268553495913
 31
0.0
  0
LINE
  5
9244
330
1F
100
AcDbEntity
  8
AM_0
  6
CONTINUOUS
 48
0.5
100
AcDbLine
 10
-18.04556274413999
 20
-41.08641356229912
 30
0.0
 11
-18.04556274413999
 21
-35.20268553495913
 31
0.0
  0
LINE
  5
9245
330
1F
100
AcDbEntity
  8
AM_0
  6
CONTINUOUS
 48
0.5
100
AcDbLine
 10
-18.04553222655999
 20
-40.64458006620912
 30
0.0
 11
-18.04553222655999
 21
-36.64458006620913
 31
0.0
  0
LINE
  5
9246
330
1F
100
AcDbEntity
  8
AM_0
  6
CONTINUOUS
 48
0.5
100
AcDbLine
 10
-18.54553222655999
 20
-41.14458006620913
 30
0.0
 11
-18.54553222655999
 21
-36.14458006620913
 31
0.0
  0
LINE
  5
9247
330
1F
100
AcDbEntity
  8
AM_0
  6
CONTINUOUS
 48
0.5
100
AcDbLine
 10
-7.889404296869997
 20
-34.22124022245913
 30
0.0
 11
-7.889404296869997
 21
-36.39409178495913
 31
0.0
  0
LINE
  5
9248
330
1F
100
AcDbEntity
  8
AM_0
  6
CONTINUOUS
 48
0.5
100
AcDbLine
 10
-6.094665527339998
 20
-36.72246092557912
 30
0.0
 11
-5.944702148429996
 21
-36.27220457792913
 31
0.0
  0
ARC
  5
9249
330
1F
100
AcDbEntity
  8
AM_0
  6
CONTINUOUS
 48
0.5
100
AcDbCircle
 10
-6.839477539059998
 20
-37.78618162870913
 30
0.0
 40
1.7435697317123
100
AcDbArc
 50
61.12910024134794
 51
127.0235415043388
  0
LINE
  5
924A
330
1F
100
AcDbEntity
  8
AM_0
  6
CONTINUOUS
 48
0.5
100
AcDbLine
 10
-9.833862304679996
 20
-36.27464598417913
 30
0.0
 11
-9.684631347649997
 21
-36.72258299589913
 31
0.0
  0
LINE
  5
924B
330
1F
100
AcDbEntity
  8
AM_0
  6
CONTINUOUS
 48
0.5
100
AcDbLine
 10
-10.51354980467999
 20
-36.35673826932912
 30
0.0
 11
-10.51354980467999
 21
-35.97270506620913
 31
0.0
  0
LINE
  5
924C
330
1F
100
AcDbEntity
  8
AM_0
  6
CONTINUOUS
 48
0.5
100
AcDbLine
 10
-11.50836181639999
 20
-36.72233885526912
 30
0.0
 11
-12.45681762694999
 21
-35.66203612089913
 31
0.0
  0
ARC
  5
924D
330
1F
100
AcDbEntity
  8
AM_0
  6
CONTINUOUS
 48
0.5
100
AcDbCircle
 10
-10.52673339842999
 20
-33.31901854276912
 30
0.0
 40
3.0356278419495
100
AcDbArc
 50
230.5196667719584
 51
284.2267965932283
  0
ARC
  5
924E
330
1F
100
AcDbEntity
  8
AM_0
  6
CONTINUOUS
 48
0.5
100
AcDbCircle
 10
-8.932922363279999
 20
-37.72441405057913
 30
0.0
 40
1.690773367881799
100
AcDbArc
 50
51.88900859629409
 51
120.0933037233653
  0
ARC
  5
924F
330
1F
100
AcDbEntity
  8
AM_0
  6
CONTINUOUS
 48
0.5
100
AcDbCircle
 10
-10.59619140624999
 20
-26.66777342557912
 30
0.0
 40
10.09591865539499
100
AcDbArc
 50
254.4494462649635
 51
285.5517918205115
  0
ARC
  5
9250
330
1F
100
AcDbEntity
  8
AM_0
  6
CONTINUOUS
 48
0.5
100
AcDbCircle
 10
-23.33044433592999
 20
-39.40385740995913
 30
0.0
 40
10.09431266784599
100
AcDbArc
 50
344.4458185239
 51
15.5531876835773
  0
LINE
  5
9251
330
1F
100
AcDbEntity
  8
AM_0
  6
CONTINUOUS
 48
0.5
100
AcDbLine
 10
-1.0
 20
-31.72509765625
 30
0.0
 11
-1.0
 21
-34.22124022245913
 31
0.0
  0
LINE
  5
9252
330
1F
100
AcDbEntity
  8
AM_0
  6
CONTINUOUS
 48
0.5
100
AcDbLine
 10
-4.389130368315193
 20
-24.73209910275571
 30
0.0
 11
-1.0
 21
-31.72508412177801
 31
0.0
  0
LINE
  5
9253
330
1F
100
AcDbEntity
  8
AM_0
  6
CONTINUOUS
 48
0.5
100
AcDbLine
 10
-2.501098632809998
 20
-38.49156492948912
 30
0.0
 11
-1.440765380849995
 21
-37.54307860135912
 31
0.0
  0
LINE
  5
9254
330
1F
100
AcDbEntity
  8
AM_0
  6
CONTINUOUS
 48
0.5
100
AcDbLine
 10
-2.501251220699998
 20
-40.31590574979913
 30
0.0
 11
-2.038055419919999
 21
-40.21873778104913
 31
0.0
  0
LINE
  5
9255
330
1F
100
AcDbEntity
  8
AM_0
  6
CONTINUOUS
 48
0.5
100
AcDbLine
 10
-2.135620117179996
 20
-39.48637694120913
 30
0.0
 11
-1.75146484375
 21
-39.48637694120913
 31
0.0
  0
LINE
  5
9256
330
1F
100
AcDbEntity
  8
AM_0
  6
CONTINUOUS
 48
0.5
100
AcDbLine
 10
0.0
 20
-42.11064451932912
 30
0.0
 11
-2.1728515625
 21
-42.11064451932912
 31
0.0
  0
LINE
  5
9257
330
1F
100
AcDbEntity
  8
AM_0
  6
CONTINUOUS
 48
0.5
100
AcDbLine
 10
-4.270294189449998
 20
-36.72239989042913
 30
0.0
 11
-3.324249267569996
 21
-35.65892332792913
 31
0.0
  0
LINE
  5
9258
330
1F
100
AcDbEntity
  8
AM_0
  6
CONTINUOUS
 48
0.5
100
AcDbLine
 10
-2.475677490229998
 20
-36.39409178495913
 30
0.0
 11
-1.55224609375
 21
-34.97966307401913
 31
0.0
  0
LINE
  5
9259
330
1F
100
AcDbEntity
  8
AM_0
  6
CONTINUOUS
 48
0.5
100
AcDbLine
 10
-0.7584838867099962
 20
-35.77336424589913
 30
0.0
 11
-2.172912597649997
 21
-36.69682615995913
 31
0.0
  0
LINE
  5
925A
330
1F
100
AcDbEntity
  8
AM_0
  6
CONTINUOUS
 48
0.5
100
AcDbLine
 10
0.0
 20
-35.02116698026913
 30
0.0
 11
-0.7584838867099962
 21
-35.77354735135912
 31
0.0
  0
ARC
  5
925B
330
1F
100
AcDbEntity
  8
AM_0
  6
CONTINUOUS
 48
0.5
100
AcDbCircle
 10
-0.8000488281199977
 20
-35.02128905057912
 30
0.0
 40
0.8000000119209
100
AcDbArc
 50
0.0
 51
89.99998201390772
  0
ARC
  5
925C
330
1F
100
AcDbEntity
  8
AM_0
  6
CONTINUOUS
 48
0.5
100
AcDbCircle
 10
-0.99853515625
 20
-35.21977537870913
 30
0.0
 40
0.8000000119209
100
AcDbArc
 50
0.0
 51
89.99998201390772
  0
ARC
  5
925D
330
1F
100
AcDbEntity
  8
AM_0
  6
CONTINUOUS
 48
0.5
100
AcDbCircle
 10
7.5517578125
 20
-39.40385740995913
 30
0.0
 40
10.09431266784599
100
AcDbArc
 50
164.4469029301114
 51
195.5542072029929
  0
LINE
  5
925E
330
1F
100
AcDbEntity
  8
AM_0
  6
CONTINUOUS
 48
0.5
100
AcDbLine
 10
-5.26513671875
 20
-36.35673826932912
 30
0.0
 11
-5.26513671875
 21
-35.97270506620913
 31
0.0
  0
LINE
  5
925F
330
1F
100
AcDbEntity
  8
AM_0
  6
CONTINUOUS
 48
0.5
100
AcDbLine
 10
-25.0
 20
-47.99992674589913
 30
0.0
 11
-15.77868652342999
 21
-47.99992674589913
 31
0.0
  0
ARC
  5
9260
330
1F
100
AcDbEntity
  8
AM_0
  6
CONTINUOUS
 48
0.5
100
AcDbCircle
 10
-25.0
 20
-45.0
 30
0.0
 40
3.0
100
AcDbArc
 50
180.000035972178
 51
270.0000179860923
  0
LINE
  5
9261
330
1F
100
AcDbEntity
  8
AM_0
  6
CONTINUOUS
 48
0.5
100
AcDbLine
 10
-28.0
 20
-43.0
 30
0.0
 11
-28.0
 21
-45.0
 31
0.0
  0
LINE
  5
9262
330
1F
100
AcDbEntity
  8
AM_0
  6
CONTINUOUS
 48
0.5
100
AcDbLine
 10
-14.97875976561999
 20
-49.99992674589913
 30
0.0
 11
-0.8000488281199977
 21
-49.99992674589913
 31
0.0
  0
LINE
  5
9263
330
1F
100
AcDbEntity
  8
AM_0
  6
CONTINUOUS
 48
0.5
100
AcDbLine
 10
-14.7802734375
 20
-49.80144041776913
 30
0.0
 11
-0.99853515625
 21
-49.80144041776913
 31
0.0
  0
ARC
  5
9264
330
1F
100
AcDbEntity
  8
AM_0
  6
CONTINUOUS
 48
0.5
100
AcDbCircle
 10
-5.182556152339998
 20
-57.55168455839913
 30
0.0
 40
10.09431266784599
100
AcDbArc
 50
74.4469582548726
 51
105.5543991315394
  0
ARC
  5
9265
330
1F
100
AcDbEntity
  8
AM_0
  6
CONTINUOUS
 48
0.5
100
AcDbCircle
 10
-5.246215820309998
 20
-50.87651365995913
 30
0.0
 40
3.012139081955
100
AcDbArc
 50
48.79179443034864
 51
115.6678329148238
  0
LINE
  5
9266
330
1F
100
AcDbEntity
  8
AM_0
  6
CONTINUOUS
 48
0.5
100
AcDbLine
 10
-14.22647094725999
 20
-49.24156492948913
 30
0.0
 11
-13.30300903319999
 21
-47.82707518339913
 31
0.0
  0
LINE
  5
9267
330
1F
100
AcDbEntity
  8
AM_0
  6
CONTINUOUS
 48
0.5
100
AcDbLine
 10
-15.02041625975999
 20
-48.44780272245913
 30
0.0
 11
-13.60586547850999
 21
-47.52427977323913
 31
0.0
  0
LINE
  5
9268
330
1F
100
AcDbEntity
  8
AM_0
  6
CONTINUOUS
 48
0.5
100
AcDbLine
 10
-13.74050903319999
 20
-44.00236815214912
 30
0.0
 11
-13.27746582030999
 21
-43.90513914823912
 31
0.0
  0
LINE
  5
9269
330
1F
100
AcDbEntity
  8
AM_0
  6
CONTINUOUS
 48
0.5
100
AcDbLine
 10
-14.97869873045999
 20
-49.99998778104913
 30
0.0
 11
-14.22650146484
 21
-49.24162596464913
 31
0.0
  0
ARC
  5
926A
330
1F
100
AcDbEntity
  8
AM_0
  6
CONTINUOUS
 48
0.5
100
AcDbCircle
 10
-14.97875976561999
 20
-49.19999998807913
 30
0.0
 40
0.8000000119209
100
AcDbArc
 50
180.000035972178
 51
270.0000179860923
  0
LINE
  5
926B
330
1F
100
AcDbEntity
  8
AM_0
  6
CONTINUOUS
 48
0.5
100
AcDbLine
 10
-15.02035522459999
 20
-48.44780272245913
 30
0.0
 11
-15.77868652342999
 21
-49.19999998807913
 31
0.0
  0
ARC
  5
926C
330
1F
100
AcDbEntity
  8
AM_0
  6
CONTINUOUS
 48
0.5
100
AcDbCircle
 10
-14.7802734375
 20
-49.00151365995913
 30
0.0
 40
0.8000000119209
100
AcDbArc
 50
180.000035972178
 51
270.0000179860923
  0
LINE
  5
926D
330
1F
100
AcDbEntity
  8
AM_0
  6
CONTINUOUS
 48
0.5
100
AcDbLine
 10
-14.02722167967999
 20
-44.73479002714912
 30
0.0
 11
-13.64318847655999
 21
-44.73479002714912
 31
0.0
  0
LINE
  5
926E
330
1F
100
AcDbEntity
  8
AM_0
  6
CONTINUOUS
 48
0.5
100
AcDbLine
 10
-7.889404296869997
 20
-49.99992674589913
 30
0.0
 11
-7.889404296869997
 21
-47.82707518339913
 31
0.0
  0
LINE
  5
926F
330
1F
100
AcDbEntity
  8
AM_0
  6
CONTINUOUS
 48
0.5
100
AcDbLine
 10
-6.094390869139999
 20
-47.49876707792913
 30
0.0
 11
-5.945190429679996
 21
-47.94664305448913
 31
0.0
  0
ARC
  5
9270
330
1F
100
AcDbEntity
  8
AM_0
  6
CONTINUOUS
 48
0.5
100
AcDbCircle
 10
-6.845825195309998
 20
-46.49638670682913
 30
0.0
 40
1.6910666227341
100
AcDbArc
 50
231.8958679274488
 51
280.0406214622493
  0
LINE
  5
9271
330
1F
100
AcDbEntity
  8
AM_0
  6
CONTINUOUS
 48
0.5
100
AcDbLine
 10
-9.833892822259997
 20
-47.94865721464913
 30
0.0
 11
-9.684020996089998
 21
-47.49870604276913
 31
0.0
  0
LINE
  5
9272
330
1F
100
AcDbEntity
  8
AM_0
  6
CONTINUOUS
 48
0.5
100
AcDbLine
 10
-12.45690917967999
 20
-48.55919188260912
 30
0.0
 11
-11.50863647459999
 21
-47.49901121854913
 31
0.0
  0
LINE
  5
9273
330
1F
100
AcDbEntity
  8
AM_0
  6
CONTINUOUS
 48
0.5
100
AcDbLine
 10
-10.51354980467999
 20
-48.24846190214913
 30
0.0
 11
-10.51354980467999
 21
-47.86430662870913
 31
0.0
  0
ARC
  5
9274
330
1F
100
AcDbEntity
  8
AM_0
  6
CONTINUOUS
 48
0.5
100
AcDbCircle
 10
-10.53765869139999
 20
-50.84526365995913
 30
0.0
 40
2.981073141097999
100
AcDbArc
 50
75.30196133517769
 51
130.322276986644
  0
ARC
  5
9275
330
1F
100
AcDbEntity
  8
AM_0
  6
CONTINUOUS
 48
0.5
100
AcDbCircle
 10
-8.939208984369997
 20
-46.43522948026912
 30
0.0
 40
1.743403911590599
100
AcDbArc
 50
241.1189728920435
 51
307.0279590428689
  0
ARC
  5
9276
330
1F
100
AcDbEntity
  8
AM_0
  6
CONTINUOUS
 48
0.5
100
AcDbCircle
 10
-10.59619140624999
 20
-57.55168455839913
 30
0.0
 40
10.09431266784599
100
AcDbArc
 50
74.44560587741638
 51
105.5529784521898
  0
LINE
  5
9277
330
1F
100
AcDbEntity
  8
AM_0
  6
CONTINUOUS
 48
0.5
100
AcDbLine
 10
-0.8001403808499958
 20
-49.99992674589913
 30
0.0
 11
-1.552215576169999
 21
-49.24180907010913
 31
0.0
  0
ARC
  5
9278
330
1F
100
AcDbEntity
  8
AM_0
  6
CONTINUOUS
 48
0.5
100
AcDbCircle
 10
-0.8000488281199977
 20
-49.19999998807913
 30
0.0
 40
0.8000000119209
100
AcDbArc
 50
270.0000179860923
 51
0.0
  0
LINE
  5
9279
330
1F
100
AcDbEntity
  8
AM_0
  6
CONTINUOUS
 48
0.5
100
AcDbLine
 10
-1.552062988279999
 20
-49.24174803495913
 30
0.0
 11
-2.475708007809998
 21
-47.82707518339913
 31
0.0
  0
LINE
  5
927A
330
1F
100
AcDbEntity
  8
AM_0
  6
CONTINUOUS
 48
0.5
100
AcDbLine
 10
-0.7586975097599975
 20
-48.44798582792913
 30
0.0
 11
-0.0003356933499958
 21
-49.20024412870913
 31
0.0
  0
ARC
  5
927B
330
1F
100
AcDbEntity
  8
AM_0
  6
CONTINUOUS
 48
0.5
100
AcDbCircle
 10
-0.99853515625
 20
-49.00151365995913
 30
0.0
 40
0.8000000119209
100
AcDbArc
 50
270.0000179860923
 51
0.0
  0
LINE
  5
927C
330
1F
100
AcDbEntity
  8
AM_0
  6
CONTINUOUS
 48
0.5
100
AcDbLine
 10
-2.172973632809998
 20
-47.52440184354912
 30
0.0
 11
-0.7584838867099962
 21
-48.44786375760913
 31
0.0
  0
LINE
  5
927D
330
1F
100
AcDbEntity
  8
AM_0
  6
CONTINUOUS
 48
0.5
100
AcDbLine
 10
-3.322082519529999
 20
-48.55931395292913
 30
0.0
 11
-4.270538330069996
 21
-47.49895018339913
 31
0.0
  0
LINE
  5
927E
330
1F
100
AcDbEntity
  8
AM_0
  6
CONTINUOUS
 48
0.5
100
AcDbLine
 10
-2.500762939449998
 20
-45.72984617948913
 30
0.0
 11
-1.440765380849995
 21
-46.67796629667913
 31
0.0
  0
LINE
  5
927F
330
1F
100
AcDbEntity
  8
AM_0
  6
CONTINUOUS
 48
0.5
100
AcDbLine
 10
-2.135620117179996
 20
-44.73479002714912
 30
0.0
 11
-1.75146484375
 21
-44.73479002714912
 31
0.0
  0
LINE
  5
9280
330
1F
100
AcDbEntity
  8
AM_0
  6
CONTINUOUS
 48
0.5
100
AcDbLine
 10
-2.038116455069996
 20
-44.00255125760913
 30
0.0
 11
-2.501159667959996
 21
-43.90532225370913
 31
0.0
  0
LINE
  5
9281
330
1F
100
AcDbEntity
  8
AM_0
  6
CONTINUOUS
 48
0.5
100
AcDbLine
 10
-5.26513671875
 20
-48.24846190214913
 30
0.0
 11
-5.26513671875
 21
-47.86430662870913
 31
0.0
  0
LINE
  5
9289
330
1F
100
AcDbEntity
  8
AM_0
  6
CONTINUOUS
 48
0.5
100
AcDbLine
 10
-4.389130368315193
 20
24.73209910275571
 30
0.0
 11
-1.0
 21
31.72508412177802
 31
0.0
  0
LINE
  5
928A
330
1F
100
AcDbEntity
  8
AM_0
  6
CONTINUOUS
 48
0.5
100
AcDbLine
 10
-1.0
 20
31.72509765625
 30
0.0
 11
-1.0
 21
32.85284423829
 31
0.0
  0
ARC
  5
928B
330
1F
100
AcDbEntity
  8
AM_0
  6
CONTINUOUS
 48
0.5
100
AcDbCircle
 10
-7.108032226559998
 20
26.0
 30
0.0
 40
3.0
100
AcDbArc
 50
269.9999974955182
 51
334.9990282790824
  0
DIMENSION
  5
928D
330
1F
100
AcDbEntity
  8
AM_5
100
AcDbDimension
  2
*D5
 10
-73.0
 20
-15.87499999999999
 30
0.0
 11
-76.09999999999999
 21
-0.000000000000004
 31
0.0
 70
    32
  1
%%c<>
  3
AM_JIS$0
100
AcDbAlignedDimension
 13
-48.5
 23
15.875
 33
0.0
 14
-48.5
 24
-15.875
 34
0.0
 50
270.0
100
AcDbRotatedDimension
1001
GENIUS_GENDTOL_13
1000

1000
h7
1000

1040
0.0
1001
ACAD
1000
DSTYLE
1002
{
1070
   287
1070
     5
1070
    42
1040
1.0
1070
    43
1040
12.0
1070
    48
1040
0.1
1070
    78
1070
     8
1070
   140
1040
3.2
1070
   176
1070
   256
1070
   177
1070
   256
1070
   271
1070
     3
1070
   272
1070
     3
1070
   275
1070
     0
1070
   279
1070
     2
1070
   284
1070
     0
1070
   289
1070
     3
1070
   340
1005
6B
1070
   371
1070
    -1
1070
   372
1070
    -1
1002
}
  0
DIMENSION
  5
928E
330
1F
100
AcDbEntity
  8
AM_5
100
AcDbDimension
  2
*D6
 10
-83.00000000000002
 20
-34.99999999999998
 30
0.0
 11
-86.09999999999999
 21
-0.0000000000000016
 31
0.0
 70
    32
  1
%%c<>
  3
AM_JIS$0
100
AcDbAlignedDimension
 13
-47.50000010927863
 23
35.0
 33
0.0
 14
-47.50000010927863
 24
-35.0
 34
0.0
 50
270.0
100
AcDbRotatedDimension
1001
GENIUS_GENDTOL_13
1000

1000
h7
1000

1040
0.0
1001
ACAD
1000
DSTYLE
1002
{
1070
   287
1070
     5
1070
    42
1040
1.0
1070
    43
1040
12.0
1070
    48
1040
0.1
1070
    78
1070
     8
1070
   140
1040
3.2
1070
   176
1070
   256
1070
   177
1070
   256
1070
   271
1070
     3
1070
   272
1070
     3
1070
   275
1070
     0
1070
   279
1070
     2
1070
   284
1070
     0
1070
   289
1070
     3
1070
   340
1005
6B
1070
   371
1070
    -1
1070
   372
1070
    -1
1002
}
  0
DIMENSION
  5
928F
330
1F
100
AcDbEntity
  8
AM_5
100
AcDbDimension
  2
*D7
 10
-42.0
 20
-64.00000101000002
 30
0.0
 11
-46.00000000000025
 21
-60.90000101000001
 31
0.0
 70
    32
  1
<>
  3
AM_JIS$0
100
AcDbAlignedDimension
 13
-50.00000000000051
 23
-32.49999978144296
 33
0.0
 14
-42.0
 24
-6.349999999999999
 34
0.0
100
AcDbRotatedDimension
1001
GENIUS_GENDTOL_13
1000

1000
h7
1000

1040
0.0
1001
ACAD
1000
DSTYLE
1002
{
1070
   287
1070
     5
1070
    42
1040
1.0
1070
    43
1040
12.0
1070
    48
1040
0.1
1070
    78
1070
     8
1070
   140
1040
3.2
1070
   176
1070
   256
1070
   177
1070
   256
1070
   271
1070
     3
1070
   272
1070
     3
1070
   275
1070
     0
1070
   279
1070
     2
1070
   284
1070
     0
1070
   289
1070
     3
1070
   340
1005
6B
1070
   371
1070
    -1
1070
   372
1070
    -1
1002
}
  0
DIMENSION
  5
9290
330
1F
100
AcDbEntity
  8
AM_5
100
AcDbDimension
  2
*D9
 10
-18.0
 20
-74.00000101000002
 30
0.0
 11
-34.00000000000025
 21
-70.90000101000002
 31
0.0
 70
    32
  1
<>
  3
AM_JIS$0
100
AcDbAlignedDimension
 13
-50.00000000000051
 23
-32.49999978144296
 33
0.0
 14
-18.0
 24
-23.0
 34
0.0
100
AcDbRotatedDimension
1001
GENIUS_GENDTOL_13
1000

1000
h7
1000

1040
0.0
1001
ACAD
1000
DSTYLE
1002
{
1070
   287
1070
     5
1070
    42
1040
1.0
1070
    43
1040
12.0
1070
    48
1040
0.1
1070
    78
1070
     8
1070
   140
1040
3.2
1070
   176
1070
   256
1070
   177
1070
   256
1070
   271
1070
     3
1070
   272
1070
     3
1070
   275
1070
     0
1070
   279
1070
     2
1070
   284
1070
     0
1070
   289
1070
     3
1070
   340
1005
6B
1070
   371
1070
    -1
1070
   372
1070
    -1
1002
}
  0
DIMENSION
  5
9291
330
1F
100
AcDbEntity
  8
AM_5
100
AcDbDimension
  2
*D8
 10
-0.0000000000000021
 20
-84.00000101000001
 30
0.0
 11
-25.0
 21
-80.90000101000002
 31
0.0
 70
    32
  1
<>
  3
AM_JIS$0
100
AcDbAlignedDimension
 13
-50.0
 23
-32.49999978144302
 33
0.0
 14
0.0
 24
-50.0
 34
0.0
100
AcDbRotatedDimension
1001
GENIUS_GENDTOL_13
1000

1000
h7
1000

1040
0.0
1001
ACAD
1000
DSTYLE
1002
{
1070
   287
1070
     5
1070
    42
1040
1.0
1070
    43
1040
12.0
1070
    48
1040
0.1
1070
    78
1070
     8
1070
   140
1040
3.2
1070
   176
1070
   256
1070
   177
1070
   256
1070
   271
1070
     3
1070
   272
1070
     3
1070
   275
1070
     0
1070
   279
1070
     2
1070
   284
1070
     0
1070
   289
1070
     3
1070
   340
1005
6B
1070
   371
1070
    -1
1070
   372
1070
    -1
1002
}
  0
DIMENSION
  5
9292
330
1F
100
AcDbEntity
  8
AM_5
100
AcDbDimension
  2
*D11
 10
34.0233672302785
 20
-50.0
 30
0.0
 11
30.92336723027851
 21
0.0000000000000125
 31
0.0
 70
    32
  1
%%c<>
  3
AM_JIS$0
100
AcDbAlignedDimension
 13
0.0
 23
50.00000000000003
 33
0.0
 14
0.0
 24
-50.0
 34
0.0
 50
90.0
100
AcDbRotatedDimension
1001
GENIUS_GENDTOL_13
1000

1000
h7
1000

1040
0.0
1001
ACAD
1000
DSTYLE
1002
{
1070
   287
1070
     5
1070
    42
1040
1.0
1070
    43
1040
12.0
1070
    48
1040
0.1
1070
    78
1070
     8
1070
   140
1040
3.2
1070
   176
1070
   256
1070
   177
1070
   256
1070
   271
1070
     3
1070
   272
1070
     3
1070
   275
1070
     0
1070
   279
1070
     2
1070
   284
1070
     0
1070
   289
1070
     3
1070
   340
1005
6B
1070
   371
1070
    -1
1070
   372
1070
    -1
1002
}
  0
DIMENSION
  5
9293
330
1F
100
AcDbEntity
  8
AM_5
100
AcDbDimension
  2
*D10
 10
16.09896950585997
 20
22.99999999999999
 30
0.0
 11
12.99896950585996
 21
-0.0000000000000006
 31
0.0
 70
    32
  1
%%c<>
  3
AM_JIS$0
100
AcDbAlignedDimension
 13
-7.108032357694355
 23
-23.0
 33
0.0
 14
-7.108032357694355
 24
23.0
 34
0.0
 50
90.0
100
AcDbRotatedDimension
1001
GENIUS_GENDTOL_13
1000

1000
h7
1000

1040
0.0
1001
ACAD
1000
DSTYLE
1002
{
1070
   287
1070
     5
1070
    42
1040
1.0
1070
    43
1040
12.0
1070
    48
1040
0.1
1070
    78
1070
     8
1070
   140
1040
3.2
1070
   176
1070
   256
1070
   177
1070
   256
1070
   271
1070
     3
1070
   272
1070
     3
1070
   275
1070
     0
1070
   279
1070
     2
1070
   284
1070
     0
1070
   289
1070
     3
1070
   340
1005
6B
1070
   371
1070
    -1
1070
   372
1070
    -1
1002
}
  0
LINE
  5
93ED
330
1F
100
AcDbEntity
  8
AM_11
100
AcDbLine
 10
0.0
 20
50.0
 30
0.0
 11
-0.8000488281199977
 21
49.99992674589913
 31
0.0
  0
LINE
  5
93F7
330
1F
100
AcDbEntity
  8
AM_11
100
AcDbLine
 10
0.0
 20
50.00000000000003
 30
0.0
 11
0.0
 21
-50.0
 31
0.0
  0
LINE
  5
93FE
330
1F
100
AcDbEntity
  8
AM_11
100
AcDbLine
 10
0.0
 20
-50.0
 30
0.0
 11
-0.8001403808499958
 21
-49.99992674589913
 31
0.0
  0
DIMENSION
  5
9558
330
1F
100
AcDbEntity
  8
AM_5
100
AcDbDimension
  2
*D12
 10
-14.97875976561999
 20
-50.0
 30
0.0
 11
21.8661226656518
 21
-71.8661226656518
 31
0.0
 70
    34
  1
<>
  3
AM_JIS$2
100
AcDb2LineAngularDimension
 13
0.0
 23
50.00000000000003
 33
0.0
 14
0.0
 24
-50.0
 34
0.0
 15
0.0
 25
-50.0
 35
0.0
 16
17.01168361513925
 26
-79.46510034370817
 36
0.0
1001
ACAD
1000
DSTYLE
1002
{
1070
   179
1070
     3
1002
}
1001
GENIUS_GENDTOL_13
1000

1000
h7
1000

1040
0.0
  0
DIMENSION
  5
965D
330
1F
100
AcDbEntity
  8
AM_5
100
AcDbDimension
  2
*D13
 10
-62.99999999999999
 20
-6.349999999999995
 30
0.0
 11
-66.09999999999999
 21
-0.0000000000000082
 31
0.0
 70
    32
  1
<>
  3
AM_JIS$0
100
AcDbAlignedDimension
 13
-49.0
 23
6.349999999999994
 33
0.0
 14
-49.0
 24
-6.349999999999999
 34
0.0
 50
270.0
100
AcDbRotatedDimension
1001
GENIUS_GENDTOL_13
1000

1000
h7
1000

1040
0.0
1001
ACAD
1000
DSTYLE
1002
{
1070
   287
1070
     5
1070
    42
1040
1.0
1070
    43
1040
12.0
1070
    48
1040
0.1
1070
    78
1070
     8
1070
   140
1040
3.2
1070
   176
1070
   256
1070
   177
1070
   256
1070
   271
1070
     3
1070
   272
1070
     3
1070
   275
1070
     0
1070
   279
1070
     2
1070
   284
1070
     0
1070
   289
1070
     3
1070
   340
1005
6B
1070
   371
1070
    -1
1070
   372
1070
    -1
1002
}
  0
VIEWPORT
  5
110
330
101
100
AcDbEntity
 67
     1
  8
0
100
AcDbViewport
 10
420.5
 20
297.0
 30
0.0
 40
948.9782706766916
 41
628.452
 68
     1
 69
     1
1001
ACAD
1000
MVIEW
1002
{
1070
    16
1010
0.0
1020
0.0
1030
0.0
1010
0.0
1020
0.0
1030
1.0
1040
0.0
1040
628.452
1040
420.5
1040
297.0
1040
50.0
1040
0.0
1040
0.0
1070
     0
1070
   100
1070
     1
1070
     1
1070
     0
1070
     0
1070
     0
1070
     0
1040
0.0
1040
0.0
1040
0.0
1040
10.0
1040
10.0
1040
10.0
1040
10.0
1070
     0
1002
{
1002
}
1002
}
  0
ENDSEC
  0
SECTION
  2
OBJECTS
  0
DICTIONARY
  5
C
330
0
100
AcDbDictionary
  3
ACAD_GROUP
350
D
  3
ACAD_LAYOUT
350
1A
  3
ACAD_MLINESTYLE
350
17
  3
ACAD_PLOTSETTINGS
350
19
  3
ACAD_PLOTSTYLENAME
350
E
  3
ACDBVARIABLEDICTIONARY
350
34
  3
ACMDICTIONARY
350
43
  3
AMG
350
2B
  3
AMGSNAPSETTINGS
350
6E
  3
DWGPROPS
350
97DC
  3
ACDBHEADERROUNDTRIPXREC
350
97E8
  0
DICTIONARY
  5
74
330
1F
100
AcDbDictionary
280
     1
  3
ACAD_INDEX
360
97DE
  3
ACAD_LAYOUTSELFREF
360
980B
  0
DICTIONARY
  5
9810
330
101
100
AcDbDictionary
280
     1
  3
ACAD_LAYOUTSELFREF
360
9811
  0
DICTIONARY
  5
D
102
{ACAD_REACTORS
330
C
102
}
330
C
100
AcDbDictionary
  0
DICTIONARY
  5
1A
102
{ACAD_REACTORS
330
C
102
}
330
C
100
AcDbDictionary
  0
DICTIONARY
  5
17
102
{ACAD_REACTORS
330
C
102
}
330
C
100
AcDbDictionary
  3
STANDARD
350
18
  0
DICTIONARY
  5
19
102
{ACAD_REACTORS
330
C
102
}
330
C
100
AcDbDictionary
  0
ACDBDICTIONARYWDFLT
  5
E
102
{ACAD_REACTORS
330
C
102
}
330
C
100
AcDbDictionary
281
     1
  3
Normal
350
F
100
AcDbDictionaryWithDefault
340
F
  0
DICTIONARY
  5
34
102
{ACAD_REACTORS
330
C
102
}
330
C
100
AcDbDictionary
  3
INDEXCTL
350
35
  3
SORTENTS
350
B5E
  0
DICTIONARY
  5
43
102
{ACAD_REACTORS
330
C
102
}
330
C
100
AcDbDictionary
  3
ACMSTDDICTIONARY
350
260
  0
DICTIONARY
  5
2B
102
{ACAD_REACTORS
330
C
102
}
330
C
100
AcDbDictionary
  3
ACMGSETTINGS
350
2C
  0
DICTIONARY
  5
6E
102
{ACAD_REACTORS
330
C
102
}
330
C
100
AcDbDictionary
  0
XRECORD
  5
97DC
102
{ACAD_REACTORS
330
C
102
}
330
C
100
AcDbXrecord
  1
DWGPROPS COOKIE
  2

  3

  4

  6

  7

  8

  9

300
AmdtFileType=82
301
=
302
=
303
=
304
=
305
=
306
=
307
=
308
=
309
=
 40
0.4149920601851852
 41
2452836.771637361
 42
2453076.571006215
  1

 90
        1
  0
DICTIONARY
  5
97E8
102
{ACAD_REACTORS
330
C
102
}
330
C
100
AcDbDictionary
  3
TSTACKALIGN
350
97E9
  3
TSTACKSIZE
350
97EA
  3
HYPERLINKBASE
350
97EB
  3
STYLESHEET
350
97EC
  3
LAYOUTDICT
350
97ED
  3
PLOTSETDICT
350
97EE
  3
PLOTSTYLNAMDICT
350
97EF
  3
LWETCUNION
350
97F0
  3
INSUNITS
350
97F1
  3
CEPSNTYPE
350
97F2
  3
FINGERPRINTGUID
350
97F3
  3
VERSIONGUID
350
97F4
  3
PSVPSCALE
350
97F5
  3
DIMSTYLEDATA
350
97F6
  3
PUCSORTHOREF
350
97F7
  3
PUCSORTHOVIEW
350
97F8
  3
PUCSBASE
350
97F9
  3
PUCSORGTOP
350
97FA
  3
PUCSORGBOTTOM
350
97FB
  3
PUCSORGLEFT
350
97FC
  3
PUCSORGRIGHT
350
97FD
  3
PUCSORGFRONT
350
97FE
  3
PUCSORGBACK
350
97FF
  3
UCSORTHOREF
350
9800
  3
UCSORTHOVIEW
350
9801
  3
UCSBASE
350
9802
  3
UCSORGTOP
350
9803
  3
UCSORGBOTTOM
350
9804
  3
UCSORGLEFT
350
9805
  3
UCSORGRIGHT
350
9806
  3
UCSORGFRONT
350
9807
  3
UCSORGBACK
350
9808
  0
DICTIONARY
  5
97DE
102
{ACAD_REACTORS
330
74
102
}
330
74
100
AcDbDictionary
  3
*A1
350
97DF
  0
XRECORD
  5
980B
102
{ACAD_REACTORS
330
74
102
}
330
74
100
AcDbXrecord
340
1F
  0
XRECORD
  5
9811
102
{ACAD_REACTORS
330
9810
102
}
330
9810
100
AcDbXrecord
340
101
  0
MLINESTYLE
  5
18
102
{ACAD_REACTORS
330
17
102
}
330
17
100
AcDbMlineStyle
  2
STANDARD
 70
     0
  3

 62
   256
 51
90.0
 52
90.0
 71
     2
 49
0.5
 62
   256
  6
BYLAYER
 49
-0.5
 62
   256
  6
BYLAYER
  0
ACDBPLACEHOLDER
  5
F
102
{ACAD_REACTORS
330
E
102
}
330
E
100
AcDbPlaceHolder
280
     0
  0
DICTIONARYVAR
  5
35
102
{ACAD_REACTORS
330
34
102
}
330
34
100
DictionaryVariables
280
     0
  1
1
  0
DICTIONARYVAR
  5
B5E
102
{ACAD_REACTORS
330
34
102
}
330
34
100
DictionaryVariables
280
     0
  1
96
  0
DICTIONARY
  5
260
102
{ACAD_REACTORS
330
43
102
}
330
43
100
AcDbDictionary
  0
DICTIONARY
  5
2C
102
{ACAD_REACTORS
330
2B
102
}
330
2B
100
AcDbDictionary
  3
DWGSETTINGS
350
2D
  0
XRECORD
  5
97E9
102
{ACAD_REACTORS
330
97E8
102
}
330
97E8
100
AcDbXrecord
 90
        1
  0
XRECORD
  5
97EA
102
{ACAD_REACTORS
330
97E8
102
}
330
97E8
100
AcDbXrecord
 90
       70
  0
XRECORD
  5
97EB
102
{ACAD_REACTORS
330
97E8
102
}
330
97E8
100
AcDbXrecord
  1

  0
XRECORD
  5
97EC
102
{ACAD_REACTORS
330
97E8
102
}
330
97E8
100
AcDbXrecord
  1
ASAMI.ctb
  0
XRECORD
  5
97ED
102
{ACAD_REACTORS
330
97E8
102
}
330
97E8
100
AcDbXrecord
340
1A
  0
XRECORD
  5
97EE
102
{ACAD_REACTORS
330
97E8
102
}
330
97E8
100
AcDbXrecord
340
19
  0
XRECORD
  5
97EF
102
{ACAD_REACTORS
330
97E8
102
}
330
97E8
100
AcDbXrecord
340
E
  0
XRECORD
  5
97F0
102
{ACAD_REACTORS
330
97E8
102
}
330
97E8
100
AcDbXrecord
 90
    10781
  0
XRECORD
  5
97F1
102
{ACAD_REACTORS
330
97E8
102
}
330
97E8
100
AcDbXrecord
 90
        4
  0
XRECORD
  5
97F2
102
{ACAD_REACTORS
330
97E8
102
}
330
97E8
100
AcDbXrecord
 90
        0
  0
XRECORD
  5
97F3
102
{ACAD_REACTORS
330
97E8
102
}
330
97E8
100
AcDbXrecord
  1
{AFB28963-8C59-40AE-9337-C84526B81ACE}
  0
XRECORD
  5
97F4
102
{ACAD_REACTORS
330
97E8
102
}
330
97E8
100
AcDbXrecord
  1
{35234894-9104-4B01-B812-483FFD985F3A}
  0
XRECORD
  5
97F5
102
{ACAD_REACTORS
330
97E8
102
}
330
97E8
100
AcDbXrecord
 40
0.0
  0
XRECORD
  5
97F6
102
{ACAD_REACTORS
330
97E8
102
}
330
97E8
100
AcDbXrecord
1000
DSTYLE
1002
{
1070
    79
 70
     2
1070
   341
340
59
1070
   342
340
59
1070
   371
 70
    -1
1070
   372
 70
    -1
1002
}
  0
XRECORD
  5
97F7
102
{ACAD_REACTORS
330
97E8
102
}
330
97E8
100
AcDbXrecord
340
0
  0
XRECORD
  5
97F8
102
{ACAD_REACTORS
330
97E8
102
}
330
97E8
100
AcDbXrecord
 70
     0
  0
XRECORD
  5
97F9
102
{ACAD_REACTORS
330
97E8
102
}
330
97E8
100
AcDbXrecord
340
0
  0
XRECORD
  5
97FA
102
{ACAD_REACTORS
330
97E8
102
}
330
97E8
100
AcDbXrecord
 10
0.0
 20
0.0
 30
0.0
  0
XRECORD
  5
97FB
102
{ACAD_REACTORS
330
97E8
102
}
330
97E8
100
AcDbXrecord
 10
0.0
 20
0.0
 30
0.0
  0
XRECORD
  5
97FC
102
{ACAD_REACTORS
330
97E8
102
}
330
97E8
100
AcDbXrecord
 10
0.0
 20
0.0
 30
0.0
  0
XRECORD
  5
97FD
102
{ACAD_REACTORS
330
97E8
102
}
330
97E8
100
AcDbXrecord
 10
0.0
 20
0.0
 30
0.0
  0
XRECORD
  5
97FE
102
{ACAD_REACTORS
330
97E8
102
}
330
97E8
100
AcDbXrecord
 10
0.0
 20
0.0
 30
0.0
  0
XRECORD
  5
97FF
102
{ACAD_REACTORS
330
97E8
102
}
330
97E8
100
AcDbXrecord
 10
0.0
 20
0.0
 30
0.0
  0
XRECORD
  5
9800
102
{ACAD_REACTORS
330
97E8
102
}
330
97E8
100
AcDbXrecord
340
0
  0
XRECORD
  5
9801
102
{ACAD_REACTORS
330
97E8
102
}
330
97E8
100
AcDbXrecord
 70
     0
  0
XRECORD
  5
9802
102
{ACAD_REACTORS
330
97E8
102
}
330
97E8
100
AcDbXrecord
340
0
  0
XRECORD
  5
9803
102
{ACAD_REACTORS
330
97E8
102
}
330
97E8
100
AcDbXrecord
 10
0.0
 20
0.0
 30
0.0
  0
XRECORD
  5
9804
102
{ACAD_REACTORS
330
97E8
102
}
330
97E8
100
AcDbXrecord
 10
0.0
 20
0.0
 30
0.0
  0
XRECORD
  5
9805
102
{ACAD_REACTORS
330
97E8
102
}
330
97E8
100
AcDbXrecord
 10
0.0
 20
0.0
 30
0.0
  0
XRECORD
  5
9806
102
{ACAD_REACTORS
330
97E8
102
}
330
97E8
100
AcDbXrecord
 10
0.0
 20
0.0
 30
0.0
  0
XRECORD
  5
9807
102
{ACAD_REACTORS
330
97E8
102
}
330
97E8
100
AcDbXrecord
 10
0.0
 20
0.0
 30
0.0
  0
XRECORD
  5
9808
102
{ACAD_REACTORS
330
97E8
102
}
330
97E8
100
AcDbXrecord
 10
0.0
 20
0.0
 30
0.0
  0
LAYER_INDEX
  5
97DF
102
{ACAD_REACTORS
330
97DE
102
}
330
97DE
100
AcDbIndex
 40
2453152.365153264
100
AcDbLayerIndex
  8
0
360
97E0
 90
        0
  8
AM_11
360
97E1
 90
        3
  8
AM_7
360
97E2
 90
        3
  8
AM_5
360
97E3
 90
        9
  8
Defpoints
360
97E4
 90
        0
  8
AM_6
360
97E5
 90
        1
  8
AM_0
360
97E6
 90
      328
  0
XRECORD
  5
2D
102
{ACAD_REACTORS
330
2C
102
}
330
2C
100
AcDbXrecord
  1
VERSION
140
15.0
  1
PRODUCT
  2
AutoCAD Mechanical 2000
  0
IDBUFFER
  5
97E0
330
0
100
AcDbIdBuffer
  0
IDBUFFER
  5
97E1
330
0
100
AcDbIdBuffer
330
93ED
330
93F7
330
93FE
  0
IDBUFFER
  5
97E2
330
0
100
AcDbIdBuffer
330
9132
330
9142
330
9221
  0
IDBUFFER
  5
97E3
330
0
100
AcDbIdBuffer
330
928D
330
928E
330
928F
330
9290
330
9291
330
9292
330
9293
330
9558
330
965D
  0
IDBUFFER
  5
97E4
330
0
100
AcDbIdBuffer
  0
IDBUFFER
  5
97E5
330
0
100
AcDbIdBuffer
330
E5A
  0
IDBUFFER
  5
97E6
330
0
100
AcDbIdBuffer
330
922D
330
922E
330
922F
330
9230
330
9231
330
9232
330
9233
330
9234
330
9235
330
9236
330
9237
330
9238
330
9239
330
923A
330
923B
330
923C
330
923D
330
923E
330
923F
330
9240
330
9241
330
9242
330
9243
330
9244
330
9245
330
9246
330
9247
330
9248
330
9249
330
924A
330
924B
330
924C
330
924D
330
924E
330
924F
330
9250
330
9251
330
9252
330
9253
330
9254
330
9255
330
9256
330
9257
330
9258
330
9259
330
925A
330
925B
330
925C
330
925D
330
925E
330
925F
330
9260
330
9261
330
9262
330
9263
330
9264
330
9265
330
9266
330
9267
330
9268
330
9269
330
926A
330
926B
330
926C
330
926D
330
926E
330
926F
330
9270
330
9271
330
9272
330
9273
330
9274
330
9275
330
9276
330
9277
330
9278
330
9279
330
927A
330
927B
330
927C
330
927D
330
927E
330
927F
330
9280
330
9281
330
9289
330
928A
330
928B
330
9105
330
9106
330
9107
330
9108
330
9109
330
910A
330
910B
330
910C
330
910D
330
910E
330
910F
330
9110
330
9111
330
9112
330
9113
330
9114
330
9115
330
9116
330
9117
330
9118
330
9119
330
911A
330
911B
330
911C
330
911D
330
911E
330
911F
330
9120
330
9121
330
9122
330
9123
330
9124
330
9125
330
9126
330
9127
330
9128
330
9129
330
912A
330
912B
330
912E
330
912F
330
9130
330
9131
330
9133
330
9134
330
9135
330
9136
330
9137
330
9138
330
913A
330
913B
330
913D
330
913E
330
913F
330
9140
330
9141
330
9143
330
9144
330
9145
330
9146
330
9147
330
9148
330
9149
330
914A
330
914B
330
914C
330
914D
330
914E
330
914F
330
9150
330
9151
330
9152
330
9153
330
9156
330
9157
330
9158
330
9159
330
915A
330
915B
330
915C
330
915D
330
915E
330
915F
330
9160
330
9161
330
9162
330
9163
330
9164
330
9165
330
9166
330
9167
330
9168
330
9169
330
916A
330
916B
330
916C
330
916D
330
916E
330
916F
330
9170
330
9171
330
9172
330
9173
330
9174
330
9175
330
9176
330
9177
330
9178
330
9179
330
917A
330
917B
330
917C
330
917D
330
917E
330
917F
330
9180
330
9181
330
9182
330
9183
330
9184
330
9185
330
9186
330
9187
330
9188
330
9189
330
918A
330
918B
330
918C
330
918D
330
918E
330
918F
330
9190
330
9191
330
9192
330
9193
330
9194
330
9195
330
9196
330
9197
330
9198
330
9199
330
919A
330
919B
330
919C
330
919D
330
919E
330
919F
330
91A0
330
91A1
330
91A2
330
91A3
330
91A4
330
91A5
330
91A6
330
91A7
330
91A8
330
91A9
330
91AA
330
91AB
330
91AC
330
91AD
330
91AE
330
91AF
330
91B0
330
91B1
330
91B2
330
91B3
330
91B4
330
91B5
330
91B6
330
91B7
330
91B8
330
91E8
330
91E9
330
91EA
330
91EB
330
91EC
330
91ED
330
91EE
330
91EF
330
91F0
330
91F1
330
91F2
330
91F3
330
91F4
330
91F5
330
91F6
330
91F7
330
91F8
330
91F9
330
91FA
330
91FB
330
91FC
330
91FD
330
91FE
330
91FF
330
9200
330
9201
330
9202
330
9203
330
9204
330
9205
330
9206
330
9207
330
9208
330
9209
330
920A
330
920B
330
920C
330
920D
330
920E
330
920F
330
9210
330
9211
330
9212
330
9213
330
9214
330
9215
330
9216
330
9217
330
9218
330
9219
330
921A
330
921B
330
921C
330
921D
330
921E
330
921F
330
9220
330
9222
330
9223
330
9224
330
9225
330
9226
330
9227
330
9228
330
9229
330
922A
330
922B
330
922C
  0
ENDSEC
  0
EOF
