  0
SECTION
  2
HEADER
  9
$ACADVER
  1
AC1014
  9
$ACADMAINTVER
 70
     9
  9
$DWGCODEPAGE
  3
ANSI_932
  9
$INSBASE
 10
0.0
 20
0.0
 30
0.0
  9
$EXTMIN
 10
-119.9869129040262
 20
-156.5000010100001
 30
-0.00000001
  9
$EXTMAX
 10
35.00843415966857
 20
100.0
 30
0.00000001
  9
$LIMMIN
 10
-149.426180433348
 20
-192.4580378878099
  9
$LIMMAX
 10
279.2833621522218
 20
142.8964365428594
  9
$ORTHOMODE
 70
     0
  9
$REGENMODE
 70
     1
  9
$FILLMODE
 70
     1
  9
$QTEXTMODE
 70
     0
  9
$MIRRTEXT
 70
     0
  9
$DRAGMODE
 70
     2
  9
$LTSCALE
 40
1.0
  9
$OSMODE
 70
    55
  9
$ATTMODE
 70
     1
  9
$TEXTSIZE
 40
2.5
  9
$TRACEWID
 40
1.0
  9
$TEXTSTYLE
  7
STANDARD
  9
$CLAYER
  8
AM_5
  9
$CELTYPE
  6
BYLAYER
  9
$CECOLOR
 62
   256
  9
$CELTSCALE
 40
1.0
  9
$DELOBJ
 70
     1
  9
$DISPSILH
 70
     0
  9
$DIMSCALE
 40
1.0
  9
$DIMASZ
 40
2.5
  9
$DIMEXO
 40
1.0
  9
$DIMDLI
 40
12.0
  9
$DIMRND
 40
0.0
  9
$DIMDLE
 40
0.0
  9
$DIMEXE
 40
1.0
  9
$DIMTP
 40
0.1
  9
$DIMTM
 40
0.1
  9
$DIMTXT
 40
3.2
  9
$DIMCEN
 40
0.0
  9
$DIMTSZ
 40
0.0
  9
$DIMTOL
 70
     0
  9
$DIMLIM
 70
     0
  9
$DIMTIH
 70
     0
  9
$DIMTOH
 70
     0
  9
$DIMSE1
 70
     0
  9
$DIMSE2
 70
     0
  9
$DIMTAD
 70
     3
  9
$DIMZIN
 70
     8
  9
$DIMBLK
  1
OPEN30
  9
$DIMASO
 70
     1
  9
$DIMSHO
 70
     1
  9
$DIMPOST
  1

  9
$DIMAPOST
  1
"
  9
$DIMALT
 70
     0
  9
$DIMALTD
 70
     2
  9
$DIMALTF
 40
0.0393701
  9
$DIMLFAC
 40
1.0
  9
$DIMTOFL
 70
     1
  9
$DIMTVP
 40
0.0
  9
$DIMTIX
 70
     0
  9
$DIMSOXD
 70
     0
  9
$DIMSAH
 70
     0
  9
$DIMBLK1
  1

  9
$DIMBLK2
  1

  9
$DIMSTYLE
  2
AM_JIS
  9
$DIMCLRD
 70
   256
  9
$DIMCLRE
 70
   256
  9
$DIMCLRT
 70
     2
  9
$DIMTFAC
 40
0.71
  9
$DIMGAP
 40
1.5
  9
$DIMJUST
 70
     0
  9
$DIMSD1
 70
     0
  9
$DIMSD2
 70
     0
  9
$DIMTOLJ
 70
     0
  9
$DIMTZIN
 70
     0
  9
$DIMALTZ
 70
     0
  9
$DIMALTTZ
 70
     0
  9
$DIMFIT
 70
     3
  9
$DIMUPT
 70
     0
  9
$DIMUNIT
 70
     2
  9
$DIMDEC
 70
     3
  9
$DIMTDEC
 70
     3
  9
$DIMALTU
 70
     2
  9
$DIMALTTD
 70
     2
  9
$DIMTXSTY
  7
ASAMI
  9
$DIMAUNIT
 70
     0
  9
$LUNITS
 70
     2
  9
$LUPREC
 70
     2
  9
$SKETCHINC
 40
1.0
  9
$FILLETRAD
 40
2.5
  9
$AUNITS
 70
     0
  9
$AUPREC
 70
     0
  9
$MENU
  1
.
  9
$ELEVATION
 40
0.0
  9
$PELEVATION
 40
0.0
  9
$THICKNESS
 40
0.0
  9
$LIMCHECK
 70
     0
  9
$BLIPMODE
 70
     0
  9
$CHAMFERA
 40
0.5
  9
$CHAMFERB
 40
0.5
  9
$CHAMFERC
 40
20.0
  9
$CHAMFERD
 40
0.0
  9
$SKPOLY
 70
     0
  9
$TDCREATE
 40
2452836.771637361
  9
$TDUPDATE
 40
2453152.365407175
  9
$TDINDWG
 40
0.4343010532
  9
$TDUSRTIMER
 40
0.4343012384
  9
$USRTIMER
 70
     1
  9
$ANGBASE
 50
0.0
  9
$ANGDIR
 70
     0
  9
$PDMODE
 70
     0
  9
$PDSIZE
 40
0.0
  9
$PLINEWID
 40
0.0
  9
$COORDS
 70
     1
  9
$SPLFRAME
 70
     0
  9
$SPLINETYPE
 70
     6
  9
$SPLINESEGS
 70
     8
  9
$ATTDIA
 70
     1
  9
$ATTREQ
 70
     1
  9
$HANDLING
 70
 12289
  9
$HANDSEED
  5
B4BA
  9
$SURFTAB1
 70
     6
  9
$SURFTAB2
 70
     6
  9
$SURFTYPE
 70
     6
  9
$SURFU
 70
     6
  9
$SURFV
 70
     6
  9
$UCSNAME
  2

  9
$UCSORG
 10
0.0
 20
0.0
 30
0.0
  9
$UCSXDIR
 10
1.0
 20
0.0
 30
0.0
  9
$UCSYDIR
 10
0.0
 20
1.0
 30
0.0
  9
$PUCSNAME
  2

  9
$PUCSORG
 10
0.0
 20
0.0
 30
0.0
  9
$PUCSXDIR
 10
1.0
 20
0.0
 30
0.0
  9
$PUCSYDIR
 10
0.0
 20
1.0
 30
0.0
  9
$USERI1
 70
     0
  9
$USERI2
 70
     0
  9
$USERI3
 70
     0
  9
$USERI4
 70
     0
  9
$USERI5
 70
     0
  9
$USERR1
 40
0.0
  9
$USERR2
 40
0.0
  9
$USERR3
 40
0.0
  9
$USERR4
 40
0.0
  9
$USERR5
 40
0.0
  9
$WORLDVIEW
 70
     1
  9
$SHADEDGE
 70
     3
  9
$SHADEDIF
 70
    70
  9
$TILEMODE
 70
     1
  9
$MAXACTVP
 70
    64
  9
$PINSBASE
 10
0.0
 20
0.0
 30
0.0
  9
$PLIMCHECK
 70
     0
  9
$PEXTMIN
 10
1.000000000000000E+20
 20
1.000000000000000E+20
 30
1.000000000000000E+20
  9
$PEXTMAX
 10
-1.000000000000000E+20
 20
-1.000000000000000E+20
 30
-1.000000000000000E+20
  9
$PLIMMIN
 10
0.0
 20
0.0
  9
$PLIMMAX
 10
841.0
 20
594.0
  9
$UNITMODE
 70
     0
  9
$VISRETAIN
 70
     1
  9
$PLINEGEN
 70
     0
  9
$PSLTSCALE
 70
     0
  9
$TREEDEPTH
 70
  3020
  9
$PICKSTYLE
 70
     0
  9
$CMLSTYLE
  2
STANDARD
  9
$CMLJUST
 70
     0
  9
$CMLSCALE
 40
20.0
  9
$PROXYGRAPHICS
 70
     1
  9
$MEASUREMENT
 70
     1
  0
ENDSEC
  0
SECTION
  2
CLASSES
  0
CLASS
  1
ACDBDICTIONARYWDFLT
  2
AcDbDictionaryWithDefault
  3
AutoCAD 2000
 90
        0
280
     0
281
     0
  0
CLASS
  1
ACDBPLACEHOLDER
  2
AcDbPlaceHolder
  3
AutoCAD 2000
 90
        0
280
     0
281
     0
  0
CLASS
  1
LAYOUT
  2
AcDbLayout
  3
AutoCAD 2000
 90
        0
280
     0
281
     0
  0
CLASS
  1
AMGSETTINGSOBJ
  2
AmgSettingsObj
  3
"AcadM|Product Description: AutoCAD Mechanical 2000|Company: Autodesk"
 90
        0
280
     0
281
     0
  0
CLASS
  1
ACME_DOCUMENT
  2
AcMeDbDoc
  3
AcMeServices
 90
        0
280
     0
281
     0
  0
CLASS
  1
ACMESCOPE
  2
AcMeScope
  3
AcMeServices
 90
        0
280
     0
281
     0
  0
CLASS
  1
ACMECOMMANDHISTORY
  2
AcMeCommandHistory
  3
AcMeServices
 90
        0
280
     0
281
     0
  0
CLASS
  1
DICTIONARYVAR
  2
AcDbDictionaryVar
  3
AutoCAD 2000
 90
        0
280
     0
281
     0
  0
CLASS
  1
ACIMSYSVARMAN
  2
AcImSysVarManager
  3
AcMeServices
 90
        0
280
     0
281
     0
  0
CLASS
  1
ACIMREALSYSVAR
  2
AcImRealSysVar
  3
AcMeServices
 90
        0
280
     0
281
     0
  0
CLASS
  1
ACIMINTSYSVAR
  2
AcImIntSysVar
  3
AcMeServices
 90
        0
280
     0
281
     0
  0
CLASS
  1
ACMEDRAWINGMAN
  2
AcMeDrawingMan
  3
AcMeServices
 90
        0
280
     0
281
     0
  0
CLASS
  1
ACMEVIEW
  2
AcMeView
  3
AcMeServices
 90
        0
280
     0
281
     0
  0
CLASS
  1
ACDBENTITYCACHE
  2
AcMeEntityCache
  3
AcMeServices
 90
        0
280
     0
281
     0
  0
CLASS
  1
GSMANAGER
  2
AcMeGSManager
  3
AcMeServices
 90
        0
280
     0
281
     0
  0
CLASS
  1
AmdtInternalReactor
  2
AmdtInternalReactor
  3
AcMeServices
 90
        0
280
     0
281
     0
  0
CLASS
  1
ACMESTATEMGR
  2
AcMeStateMgr
  3
AcMeServices
 90
        0
280
     0
281
     0
  0
CLASS
  1
ACME_DATABASE
  2
AcMeDbDatabase
  3
AcMeServices
 90
        0
280
     0
281
     0
  0
CLASS
  1
ACRFINSADJUSTERMGR
  2
AcRfInsAdjusterMgr
  3
AcMeServices
 90
        0
280
     0
281
     0
  0
CLASS
  1
ACMDATADICTIONARY
  2
AcmDataDictionary
  3
"AcmSymBB|Product Description: AutoCAD Mechanical 2000|Company: Autodesk"
 90
        0
280
     0
281
     0
  0
CLASS
  1
ACMDATAENTRYBLOCK
  2
AcmDataEntryBlock
  3
"AcmSymBB|Product Description: AutoCAD Mechanical 2000|Company: Autodesk"
 90
        0
280
     0
281
     0
  0
CLASS
  1
AMGOBJPROPCFG
  2
AmgObjPropCfg
  3
"AmgLay|Product Description: AutoCAD Mechanical 2000|Company: Autodesk"
 90
        1
280
     0
281
     0
  0
CLASS
  1
ACAMGFILTERDAT
  2
AcAmgFilterDat
  3
"AcadM|Product Description: AutoCAD Mechanical 2000|Company: Autodesk"
 90
        0
280
     0
281
     0
  0
CLASS
  1
LAYER_INDEX
  2
AcDbLayerIndex
  3
AutoCAD 2000
 90
        0
280
     0
281
     0
  0
CLASS
  1
IDBUFFER
  2
AcDbIdBuffer
  3
AutoCAD 2000
 90
        0
280
     0
281
     0
  0
CLASS
  1
ACIMSTRSYSVAR
  2
AcImStrSysVar
  3
AcMeServices
 90
        0
280
     0
281
     0
  0
CLASS
  1
ACMSTANDARDJIS
  2
AcmStandardJIS
  3
"AcmSymBB|Product Description: AutoCAD Mechanical 2000|Company: Autodesk"
 90
        0
280
     0
281
     0
  0
CLASS
  1
ACMSURFSTANDARDJIS
  2
AcmSurfTextStdJIS
  3
"AcmSymBB|Product Description: AutoCAD Mechanical 2000|Company: Autodesk"
 90
        0
280
     0
281
     0
  0
CLASS
  1
ACMFCFSTANDARDJIS
  2
AcmFCFStdJIS
  3
"AcmSymBB|Product Description: AutoCAD Mechanical 2000|Company: Autodesk"
 90
        0
280
     0
281
     0
  0
CLASS
  1
ACMWELDSTANDARDJIS
  2
AcmWeldingStdJIS
  3
"AcmSymBB|Product Description: AutoCAD Mechanical 2000|Company: Autodesk"
 90
        0
280
     0
281
     0
  0
CLASS
  1
ACMIDSTANDARDJIS
  2
AcmIdStdJIS
  3
"AcmSymBB|Product Description: AutoCAD Mechanical 2000|Company: Autodesk"
 90
        0
280
     0
281
     0
  0
CLASS
  1
ACMDATUMSTANDARDJIS
  2
AcmDatumStdJIS
  3
"AcmSymBB|Product Description: AutoCAD Mechanical 2000|Company: Autodesk"
 90
        0
280
     0
281
     0
  0
CLASS
  1
ACMBOMSTANDARDJIS
  2
AcmBOMStdJIS
  3
"AcmSymBB|Product Description: AutoCAD Mechanical 2000|Company: Autodesk"
 90
        0
280
     0
281
     0
  0
CLASS
  1
ACMSTANDARDANSI
  2
AcmStandardANSI
  3
"AcmSymBB|Product Description: AutoCAD Mechanical 2000|Company: Autodesk"
 90
        0
280
     0
281
     0
  0
CLASS
  1
ACMSURFSTANDARDANSI
  2
AcmSurfTextStdANSI
  3
"AcmSymBB|Product Description: AutoCAD Mechanical 2000|Company: Autodesk"
 90
        0
280
     0
281
     0
  0
CLASS
  1
ACMFCFSTANDARDANSI
  2
AcmFCFStdANSI
  3
"AcmSymBB|Product Description: AutoCAD Mechanical 2000|Company: Autodesk"
 90
        0
280
     0
281
     0
  0
CLASS
  1
ACMWELDSTANDARDANSI
  2
AcmWeldingStdANSI
  3
"AcmSymBB|Product Description: AutoCAD Mechanical 2000|Company: Autodesk"
 90
        0
280
     0
281
     0
  0
CLASS
  1
ACMIDSTANDARDANSI
  2
AcmIdStdANSI
  3
"AcmSymBB|Product Description: AutoCAD Mechanical 2000|Company: Autodesk"
 90
        0
280
     0
281
     0
  0
CLASS
  1
ACMDATUMSTANDARDANSI
  2
AcmDatumStdANSI
  3
"AcmSymBB|Product Description: AutoCAD Mechanical 2000|Company: Autodesk"
 90
        0
280
     0
281
     0
  0
CLASS
  1
ACMBOMSTANDARDANSI
  2
AcmBOMStdANSI
  3
"AcmSymBB|Product Description: AutoCAD Mechanical 2000|Company: Autodesk"
 90
        0
280
     0
281
     0
  0
CLASS
  1
ACMSTANDARDBSI
  2
AcmStandardBSI
  3
"AcmSymBB|Product Description: AutoCAD Mechanical 2000|Company: Autodesk"
 90
        0
280
     0
281
     0
  0
CLASS
  1
ACMSURFSTANDARDBSI
  2
AcmSurfTextStdBSI
  3
"AcmSymBB|Product Description: AutoCAD Mechanical 2000|Company: Autodesk"
 90
        0
280
     0
281
     0
  0
CLASS
  1
ACMFCFSTANDARDBSI
  2
AcmFCFStdBSI
  3
"AcmSymBB|Product Description: AutoCAD Mechanical 2000|Company: Autodesk"
 90
        0
280
     0
281
     0
  0
CLASS
  1
ACMWELDSTANDARDBSI
  2
AcmWeldingStdBSI
  3
"AcmSymBB|Product Description: AutoCAD Mechanical 2000|Company: Autodesk"
 90
        0
280
     0
281
     0
  0
CLASS
  1
ACMIDSTANDARDBSI
  2
AcmIdStdBSI
  3
"AcmSymBB|Product Description: AutoCAD Mechanical 2000|Company: Autodesk"
 90
        0
280
     0
281
     0
  0
CLASS
  1
ACMDATUMSTANDARDBSI
  2
AcmDatumStdBSI
  3
"AcmSymBB|Product Description: AutoCAD Mechanical 2000|Company: Autodesk"
 90
        0
280
     0
281
     0
  0
CLASS
  1
ACMBOMSTANDARDBSI
  2
AcmBOMStdBSI
  3
"AcmSymBB|Product Description: AutoCAD Mechanical 2000|Company: Autodesk"
 90
        0
280
     0
281
     0
  0
CLASS
  1
LONG_TRANSACTION
  2
AcDbLongTransaction
  3
AutoCAD 2000
 90
        0
280
     0
281
     0
  0
CLASS
  1
LWPOLYLINE
  2
AcDbPolyline
  3
AutoCAD 2000
 90
        0
280
     0
281
     1
  0
CLASS
  1
HATCH
  2
AcDbHatch
  3
AutoCAD 2000
 90
        0
280
     0
281
     1
  0
CLASS
  1
XRECORD
  2
AcDbXrecord
  3
AutoCAD 2000
 90
        0
280
     0
281
     0
  0
ENDSEC
  0
SECTION
  2
TABLES
  0
TABLE
  2
VPORT
  5
8
330
0
100
AcDbSymbolTable
 70
     3
  0
VPORT
  5
B43C
330
8
100
AcDbSymbolTableRecord
100
AcDbViewportTableRecord
  2
*ACTIVE
 70
     0
 10
0.0
 20
0.0
 11
1.0
 21
1.0
 12
-29.32011675534951
 22
-30.63865772605311
 13
0.0
 23
0.0
 14
2.5
 24
2.5
 15
10.0
 25
10.0
 16
0.0
 26
0.0
 36
1.0
 17
0.0
 27
0.0
 37
0.0
 40
271.1571181737931
 41
1.56570841889117
 42
50.0
 43
0.0
 44
0.0
 50
0.0
 51
0.0
 71
     0
 72
   100
 73
     1
 74
     3
 75
     0
 76
     0
 77
     0
 78
     0
  0
ENDTAB
  0
TABLE
  2
LTYPE
  5
5
330
0
100
AcDbSymbolTable
 70
    10
  0
LTYPE
  5
14
330
5
100
AcDbSymbolTableRecord
100
AcDbLinetypeTableRecord
  2
BYBLOCK
 70
     0
  3

 72
    65
 73
     0
 40
0.0
  0
LTYPE
  5
15
330
5
100
AcDbSymbolTableRecord
100
AcDbLinetypeTableRecord
  2
BYLAYER
 70
     0
  3

 72
    65
 73
     0
 40
0.0
  0
LTYPE
  5
16
330
5
100
AcDbSymbolTableRecord
100
AcDbLinetypeTableRecord
  2
CONTINUOUS
 70
     0
  3
Solid line
 72
    65
 73
     0
 40
0.0
  0
LTYPE
  5
4B
330
5
100
AcDbSymbolTableRecord
100
AcDbLinetypeTableRecord
  2
AM_ISO02W050
 70
     0
  3
__ __ __ __ __ __ __ __ __ __ __ __ __ __ __
 72
    65
 73
     2
 40
7.5
 49
6.0
 74
     0
 49
-1.5
 74
     0
  0
LTYPE
  5
4C
330
5
100
AcDbSymbolTableRecord
100
AcDbLinetypeTableRecord
  2
AM_ISO08W050
 70
     0
  3
____ . ____ . ____ . ____ . ____ . ____ . ____
 72
    65
 73
     4
 40
18.0
 49
12.0
 74
     0
 49
-1.5
 74
     0
 49
3.0
 74
     0
 49
-1.5
 74
     0
  0
LTYPE
  5
4D
330
5
100
AcDbSymbolTableRecord
100
AcDbLinetypeTableRecord
  2
AM_ISO09W050
 70
     0
  3
_____ . . _____ . . _____ . . ____ .. ____
 72
    65
 73
     6
 40
22.5
 49
12.0
 74
     0
 49
-1.5
 74
     0
 49
3.0
 74
     0
 49
-1.5
 74
     0
 49
3.0
 74
     0
 49
-1.5
 74
     0
  0
LTYPE
  5
4E
330
5
100
AcDbSymbolTableRecord
100
AcDbLinetypeTableRecord
  2
AMCONSTR
 70
     0
  3
_______________________
 72
    65
 73
     2
 40
9999.0
 49
9999.0
 74
     0
 49
0.0
 74
     0
  0
LTYPE
  5
4F
330
5
100
AcDbSymbolTableRecord
100
AcDbLinetypeTableRecord
  2
AM_ISO02W050X2
 70
     0
  3
 _ _ _ _ _ _ _ _ _ _ _ _
 72
    65
 73
     2
 40
3.75
 49
3.0
 74
     0
 49
-0.75
 74
     0
  0
LTYPE
  5
50
330
5
100
AcDbSymbolTableRecord
100
AcDbLinetypeTableRecord
  2
AM_ISO08W050X2
 70
     0
  3
__ . __ . __ . __ . __ . __
 72
    65
 73
     4
 40
9.0
 49
6.0
 74
     0
 49
-0.75
 74
     0
 49
1.5
 74
     0
 49
-0.75
 74
     0
  0
LTYPE
  5
53
330
5
100
AcDbSymbolTableRecord
100
AcDbLinetypeTableRecord
  2
AMZIGZAG
 70
     0
  3
/\/-/\/-/\/-/\/-/\/-/\/
 72
    65
 73
     2
 40
11.00009999999999
 49
0.0001
 74
     4
 75
   135
340
52
 46
0.04
 50
0.0
 44
0.0
 45
0.0
 49
-11.0
 74
     0
  0
LTYPE
  5
166
330
5
100
AcDbSymbolTableRecord
100
AcDbLinetypeTableRecord
  2
ACJISTGL
 70
     0
  3
_ _ _ _ _
 72
    65
 73
     2
 40
3.0
 49
2.0
 74
     0
 49
-1.0
 74
     0
  0
LTYPE
  5
26A
330
5
100
AcDbSymbolTableRecord
100
AcDbLinetypeTableRecord
  2
ACJISTGB
 70
     0
  3
__ . . __ . .
 72
    65
 73
     6
 40
9.0
 49
4.0
 74
     0
 49
-1.0
 74
     0
 49
1.0
 74
     0
 49
-1.0
 74
     0
 49
1.0
 74
     0
 49
-1.0
 74
     0
  0
ENDTAB
  0
TABLE
  2
LAYER
  5
2
330
0
100
AcDbSymbolTable
 70
     7
  0
LAYER
  5
10
330
2
100
AcDbSymbolTableRecord
100
AcDbLayerTableRecord
  2
0
 70
     0
 62
     7
  6
CONTINUOUS
  0
LAYER
  5
BD4
330
2
100
AcDbSymbolTableRecord
100
AcDbLayerTableRecord
  2
AM_11
 70
     0
 62
     3
  6
AM_ISO09W050
  0
LAYER
  5
BD5
330
2
100
AcDbSymbolTableRecord
100
AcDbLayerTableRecord
  2
AM_7
 70
     0
 62
     4
  6
AM_ISO08W050
  0
LAYER
  5
BD6
330
2
100
AcDbSymbolTableRecord
100
AcDbLayerTableRecord
  2
AM_5
 70
     0
 62
     3
  6
CONTINUOUS
  0
LAYER
  5
BD7
330
2
100
AcDbSymbolTableRecord
100
AcDbLayerTableRecord
  2
DEFPOINTS
 70
     0
 62
     7
  6
CONTINUOUS
  0
LAYER
  5
E59
330
2
100
AcDbSymbolTableRecord
100
AcDbLayerTableRecord
  2
AM_6
 70
     0
 62
     2
  6
CONTINUOUS
  0
LAYER
  5
5BEF
330
2
100
AcDbSymbolTableRecord
100
AcDbLayerTableRecord
  2
AM_0
 70
     0
 62
     7
  6
CONTINUOUS
  0
ENDTAB
  0
TABLE
  2
STYLE
  5
3
330
0
100
AcDbSymbolTable
 70
     5
  0
STYLE
  5
11
330
3
100
AcDbSymbolTableRecord
100
AcDbTextStyleTableRecord
  2
STANDARD
 70
     0
 40
0.0
 41
1.0
 50
0.0
 71
     0
 42
2.5
  3
simplex.shx
  4
EXTFONT.SHX
  0
STYLE
  5
52
330
3
100
AcDbSymbolTableRecord
100
AcDbTextStyleTableRecord
  2

 70
     1
 40
0.0
 41
1.0
 50
0.0
 71
     0
 42
2.5
  3
ltypeshp.shx
  4

  0
STYLE
  5
6B
330
3
100
AcDbSymbolTableRecord
100
AcDbTextStyleTableRecord
  2
ASAMI
 70
     0
 40
0.0
 41
1.0
 50
0.0
 71
     0
 42
2.5
  3
simplex.shx
  4
EXTFONT.SHX
  0
STYLE
  5
262
330
3
100
AcDbSymbolTableRecord
100
AcDbTextStyleTableRecord
  2
ACJISTS
 70
     0
 40
1.0
 41
1.0
 50
0.0
 71
     0
 42
2.5
  3
simplex.shx
  4
bigfont.shx
  0
STYLE
  5
269
330
3
100
AcDbSymbolTableRecord
100
AcDbTextStyleTableRecord
  2
ACJISGDT
 70
     0
 40
0.0
 41
1.0
 50
0.0
 71
     0
 42
2.5
  3
amgdtans.shx
  4

  0
ENDTAB
  0
TABLE
  2
VIEW
  5
6
330
0
100
AcDbSymbolTable
 70
     0
  0
ENDTAB
  0
TABLE
  2
UCS
  5
7
330
0
100
AcDbSymbolTable
 70
     0
  0
ENDTAB
  0
TABLE
  2
APPID
  5
9
330
0
100
AcDbSymbolTable
 70
    12
  0
APPID
  5
12
330
9
100
AcDbSymbolTableRecord
100
AcDbRegAppTableRecord
  2
ACAD
 70
     0
  0
APPID
  5
30
330
9
100
AcDbSymbolTableRecord
100
AcDbRegAppTableRecord
  2
MCAD_NO_VIS
 70
     0
  0
APPID
  5
31
330
9
100
AcDbSymbolTableRecord
100
AcDbRegAppTableRecord
  2
ACAD_TEMP_GRAPHIC
 70
     0
  0
APPID
  5
2C2
330
9
100
AcDbSymbolTableRecord
100
AcDbRegAppTableRecord
  2
GENIUS_GENDTOL_13
 70
     0
  0
APPID
  5
339
330
9
100
AcDbSymbolTableRecord
100
AcDbRegAppTableRecord
  2
GENIUS_GENODEF_13
 70
     0
  0
APPID
  5
33A
330
9
100
AcDbSymbolTableRecord
100
AcDbRegAppTableRecord
  2
GENIUS_GENOBJ-N-RSBK_13
 70
     0
  0
APPID
  5
33B
330
9
100
AcDbSymbolTableRecord
100
AcDbRegAppTableRecord
  2
GENIUS_GENOBJ-N-LIB_13
 70
     0
  0
APPID
  5
33C
330
9
100
AcDbSymbolTableRecord
100
AcDbRegAppTableRecord
  2
GENIUS_GENSCALE_13
 70
     0
  0
APPID
  5
378
330
9
100
AcDbSymbolTableRecord
100
AcDbRegAppTableRecord
  2
GENIUS_GENDIMSH_14
 70
     0
  0
APPID
  5
BD8
330
9
100
AcDbSymbolTableRecord
100
AcDbRegAppTableRecord
  2
GENIUS_GENOBJ-N-CEN_13
 70
     0
  0
APPID
  5
BD9
330
9
100
AcDbSymbolTableRecord
100
AcDbRegAppTableRecord
  2
GENIUS_GENFIL_13
 70
     0
  0
APPID
  5
BDA
330
9
100
AcDbSymbolTableRecord
100
AcDbRegAppTableRecord
  2
GENIUS_GENOBJ-N-CHA_13
 70
     0
  0
ENDTAB
  0
TABLE
  2
DIMSTYLE
  5
A
330
0
100
AcDbSymbolTable
 70
     9
  0
DIMSTYLE
105
58
330
A
100
AcDbSymbolTableRecord
100
AcDbDimStyleTableRecord
  2
AM_JIS
 70
     0
  3

  4
"
  5
OPEN30
  6

  7

 40
1.0
 41
2.5
 42
1.0
 43
12.0
 44
1.0
 45
0.0
 46
0.0
 47
0.1
 48
0.1
140
3.2
141
0.0
142
0.0
143
0.0393701
144
1.0
145
0.0
146
0.71
147
1.5
 71
     0
 72
     0
 73
     0
 74
     0
 75
     0
 76
     0
 77
     3
 78
     8
170
     0
171
     2
172
     1
173
     0
174
     0
175
     0
176
   256
177
   256
178
     2
270
     2
271
     3
272
     3
273
     2
274
     2
340
6B
275
     0
280
     0
281
     0
282
     0
283
     0
284
     0
285
     0
286
     0
287
     3
288
     0
  0
DIMSTYLE
105
5F
330
A
100
AcDbSymbolTableRecord
100
AcDbDimStyleTableRecord
  2
AM_JIS$3
 70
     0
  3

  4
"
  5
OPEN30
  6

  7

 40
1.0
 41
2.5
 42
1.0
 43
10.0
 44
1.0
 45
0.0
 46
0.0
 47
0.1
 48
0.1
140
3.2
141
0.0
142
0.0
143
0.0393701
144
1.0
145
0.0
146
0.71
147
1.5
 71
     0
 72
     0
 73
     0
 74
     1
 75
     0
 76
     0
 77
     3
 78
     8
170
     0
171
     2
172
     0
173
     0
174
     0
175
     0
176
   256
177
   256
178
     2
270
     2
271
     2
272
     3
273
     2
274
     2
340
6B
275
     0
280
     0
281
     0
282
     0
283
     0
284
     0
285
     0
286
     0
287
     0
288
     1
  0
DIMSTYLE
105
60
330
A
100
AcDbSymbolTableRecord
100
AcDbDimStyleTableRecord
  2
AM_JIS$4
 70
     0
  3

  4
"
  5
OPEN30
  6

  7

 40
1.0
 41
2.5
 42
1.0
 43
10.0
 44
1.0
 45
0.0
 46
0.0
 47
0.1
 48
0.1
140
3.2
141
0.0
142
0.0
143
0.0393701
144
1.0
145
0.0
146
0.71
147
1.5
 71
     0
 72
     0
 73
     0
 74
     1
 75
     0
 76
     0
 77
     3
 78
     8
170
     0
171
     2
172
     0
173
     0
174
     0
175
     0
176
   256
177
   256
178
     2
270
     2
271
     2
272
     3
273
     2
274
     2
340
6B
275
     0
280
     0
281
     0
282
     0
283
     0
284
     0
285
     0
286
     0
287
     0
288
     1
  0
DIMSTYLE
105
61
330
A
100
AcDbSymbolTableRecord
100
AcDbDimStyleTableRecord
  2
AM_JIS$6
 70
     0
  3

  4
"
  5
OPEN30
  6

  7

 40
1.0
 41
2.5
 42
1.0
 43
10.0
 44
1.0
 45
0.0
 46
0.0
 47
0.1
 48
0.1
140
3.2
141
0.0
142
0.0
143
0.0393701
144
1.0
145
0.0
146
0.71
147
1.5
 71
     0
 72
     0
 73
     0
 74
     0
 75
     0
 76
     0
 77
     0
 78
     8
170
     0
171
     2
172
     1
173
     0
174
     0
175
     0
176
   256
177
   256
178
     2
270
     2
271
     2
272
     2
273
     2
274
     2
340
6B
275
     0
280
     0
281
     0
282
     0
283
     0
284
     0
285
     0
286
     0
287
     3
288
     0
  0
DIMSTYLE
105
62
330
A
100
AcDbSymbolTableRecord
100
AcDbDimStyleTableRecord
  2
AM_JIS$7
 70
     0
  3

  4
"
  5
OPEN30
  6

  7

 40
1.0
 41
2.5
 42
1.0
 43
10.0
 44
1.0
 45
0.0
 46
0.0
 47
0.1
 48
0.1
140
3.2
141
0.0
142
0.0
143
0.0393701
144
1.0
145
0.0
146
0.71
147
1.5
 71
     0
 72
     0
 73
     0
 74
     0
 75
     0
 76
     0
 77
     3
 78
     8
170
     0
171
     2
172
     1
173
     0
174
     0
175
     0
176
   256
177
   256
178
     2
270
     2
271
     2
272
     3
273
     2
274
     2
340
6B
275
     0
280
     0
281
     0
282
     0
283
     0
284
     0
285
     0
286
     0
287
     3
288
     0
  0
DIMSTYLE
105
63
330
A
100
AcDbSymbolTableRecord
100
AcDbDimStyleTableRecord
  2
AM_JIS$SF
 70
     0
  3

  4
"
  5
OPEN30
  6

  7

 40
1.0
 41
2.5
 42
1.0
 43
10.0
 44
1.0
 45
0.0
 46
0.0
 47
0.1
 48
0.1
140
3.2
141
0.0
142
0.0
143
0.0393701
144
1.0
145
0.0
146
0.71
147
1.5
 71
     0
 72
     0
 73
     0
 74
     0
 75
     1
 76
     1
 77
     3
 78
     8
170
     0
171
     2
172
     1
173
     0
174
     0
175
     0
176
   256
177
   256
178
     2
270
     2
271
     2
272
     2
273
     2
274
     2
340
6B
275
     0
280
     0
281
     0
282
     0
283
     0
284
     0
285
     0
286
     0
287
     3
288
     0
  0
DIMSTYLE
105
68
330
A
100
AcDbSymbolTableRecord
100
AcDbDimStyleTableRecord
  2
AM_JIS$SH
 70
     0
  3

  4
"
  5

  6
GENAXEH
  7
OPEN30
 40
1.0
 41
2.5
 42
1.0
 43
10.0
 44
1.0
 45
0.0
 46
0.0
 47
0.1
 48
0.1
140
3.2
141
0.0
142
0.0
143
0.0393701
144
2.0
145
0.0
146
0.71
147
1.5
 71
     0
 72
     0
 73
     0
 74
     0
 75
     1
 76
     1
 77
     3
 78
     8
170
     0
171
     2
172
     1
173
     1
174
     0
175
     0
176
   256
177
   256
178
     2
270
     2
271
     2
272
     2
273
     2
274
     2
340
6B
275
     0
280
     0
281
     0
282
     0
283
     0
284
     0
285
     0
286
     0
287
     3
288
     0
  0
DIMSTYLE
105
B34
102
{ACAD_REACTORS
330
B233
102
}
330
A
100
AcDbSymbolTableRecord
100
AcDbDimStyleTableRecord
  2
AM_JIS$2
 70
     0
  3

  4
"
  5
OPEN30
  6

  7

 40
1.0
 41
2.5
 42
1.0
 43
12.0
 44
1.0
 45
0.0
 46
0.0
 47
0.1
 48
0.1
140
3.2
141
0.0
142
0.0
143
0.0393701
144
1.0
145
0.0
146
0.71
147
1.5
 71
     0
 72
     0
 73
     0
 74
     0
 75
     0
 76
     0
 77
     3
 78
     8
170
     0
171
     2
172
     1
173
     0
174
     0
175
     0
176
   256
177
   256
178
     2
270
     2
271
     3
272
     3
273
     2
274
     2
340
6B
275
     0
280
     0
281
     0
282
     0
283
     0
284
     0
285
     0
286
     0
287
     3
288
     0
  0
DIMSTYLE
105
1AB6
102
{ACAD_REACTORS
330
AD98
330
AD97
330
AD96
330
AD9B
330
AD9A
330
AD99
330
AD9D
330
AD9C
330
AEF8
102
}
330
A
100
AcDbSymbolTableRecord
100
AcDbDimStyleTableRecord
  2
AM_JIS$0
 70
     0
  3

  4
"
  5
OPEN30
  6

  7

 40
1.0
 41
2.5
 42
0.0
 43
10.0
 44
1.0
 45
0.0
 46
0.0
 47
0.1
 48
0.1000000001
140
3.799999999999999
141
0.0
142
0.0
143
0.0393701
144
1.0
145
0.0
146
0.71
147
1.5
 71
     0
 72
     0
 73
     0
 74
     0
 75
     0
 76
     0
 77
     3
 78
     1
170
     0
171
     2
172
     1
173
     0
174
     0
175
     0
176
     3
177
     3
178
     2
270
     2
271
     2
272
     2
273
     2
274
     2
340
11
275
     1
280
     0
281
     0
282
     0
283
     0
284
     8
285
     0
286
     0
287
     0
288
     0
  0
ENDTAB
  0
TABLE
  2
BLOCK_RECORD
  5
1
330
0
100
AcDbSymbolTable
 70
    15
  0
BLOCK_RECORD
  5
1F
102
{ACAD_XDICTIONARY
360
74
102
}
330
1
100
AcDbSymbolTableRecord
100
AcDbBlockTableRecord
  2
*MODEL_SPACE
  0
BLOCK_RECORD
  5
101
102
{ACAD_XDICTIONARY
360
B465
102
}
330
1
100
AcDbSymbolTableRecord
100
AcDbBlockTableRecord
  2
*PAPER_SPACE
  0
BLOCK_RECORD
  5
59
330
1
100
AcDbSymbolTableRecord
100
AcDbBlockTableRecord
  2
_OPEN30
  0
BLOCK_RECORD
  5
64
330
1
100
AcDbSymbolTableRecord
100
AcDbBlockTableRecord
  2
GENAXEH
  0
BLOCK_RECORD
  5
AD9E
330
1
100
AcDbSymbolTableRecord
100
AcDbBlockTableRecord
  2
*D5
  0
BLOCK_RECORD
  5
ADAA
330
1
100
AcDbSymbolTableRecord
100
AcDbBlockTableRecord
  2
*D6
  0
BLOCK_RECORD
  5
ADB6
330
1
100
AcDbSymbolTableRecord
100
AcDbBlockTableRecord
  2
*D7
  0
BLOCK_RECORD
  5
ADC2
330
1
100
AcDbSymbolTableRecord
100
AcDbBlockTableRecord
  2
*D8
  0
BLOCK_RECORD
  5
ADCE
330
1
100
AcDbSymbolTableRecord
100
AcDbBlockTableRecord
  2
*D9
  0
BLOCK_RECORD
  5
ADDA
330
1
100
AcDbSymbolTableRecord
100
AcDbBlockTableRecord
  2
*D10
  0
BLOCK_RECORD
  5
ADE6
330
1
100
AcDbSymbolTableRecord
100
AcDbBlockTableRecord
  2
*D11
  0
BLOCK_RECORD
  5
ADF2
330
1
100
AcDbSymbolTableRecord
100
AcDbBlockTableRecord
  2
*D12
  0
BLOCK_RECORD
  5
AEF9
330
1
100
AcDbSymbolTableRecord
100
AcDbBlockTableRecord
  2
*D13
  0
BLOCK_RECORD
  5
B234
330
1
100
AcDbSymbolTableRecord
100
AcDbBlockTableRecord
  2
*D14
  0
ENDTAB
  0
ENDSEC
  0
SECTION
  2
BLOCKS
  0
BLOCK
  5
20
330
1F
100
AcDbEntity
  8
0
100
AcDbBlockBegin
  2
*MODEL_SPACE
 70
     0
 10
0.0
 20
0.0
 30
0.0
  3
*MODEL_SPACE
  1

  0
ENDBLK
  5
21
330
1F
100
AcDbEntity
  8
0
100
AcDbBlockEnd
  0
BLOCK
  5
103
330
101
100
AcDbEntity
 67
     1
  8
0
100
AcDbBlockBegin
  2
*PAPER_SPACE
 70
     0
 10
0.0
 20
0.0
 30
0.0
  3
*PAPER_SPACE
  1

  0
ENDBLK
  5
104
330
101
100
AcDbEntity
 67
     1
  8
0
100
AcDbBlockEnd
  0
BLOCK
  5
5D
330
59
100
AcDbEntity
  8
0
100
AcDbBlockBegin
  2
_OPEN30
 70
     0
 10
0.0
 20
0.0
 30
0.0
  3
_OPEN30
  1

  0
LINE
  5
5A
330
59
100
AcDbEntity
  8
0
 62
     0
100
AcDbLine
 10
-1.0
 20
0.26794919
 30
0.0
 11
0.0
 21
0.0
 31
0.0
  0
LINE
  5
5B
330
59
100
AcDbEntity
  8
0
 62
     0
100
AcDbLine
 10
0.0
 20
0.0
 30
0.0
 11
-1.0
 21
-0.26794919
 31
0.0
  0
LINE
  5
5C
330
59
100
AcDbEntity
  8
0
 62
     0
100
AcDbLine
 10
0.0
 20
0.0
 30
0.0
 11
-1.0
 21
0.0
 31
0.0
  0
ENDBLK
  5
5E
330
59
100
AcDbEntity
  8
0
100
AcDbBlockEnd
  0
BLOCK
  5
66
330
64
100
AcDbEntity
  8
0
100
AcDbBlockBegin
  2
GENAXEH
 70
     0
 10
0.0
 20
0.0
 30
0.0
  3
GENAXEH
  1

  0
LINE
  5
65
330
64
100
AcDbEntity
  8
0
100
AcDbLine
 10
-1.0
 20
0.0
 30
0.0
 11
1.0
 21
0.0
 31
0.0
  0
ENDBLK
  5
67
330
64
100
AcDbEntity
  8
0
100
AcDbBlockEnd
  0
BLOCK
  5
ADA8
330
AD9E
100
AcDbEntity
  8
0
100
AcDbBlockBegin
  2
*D5
 70
     1
 10
0.0
 20
0.0
 30
0.0
  3
*D5
  1

  0
LINE
  5
B479
330
AD9E
100
AcDbEntity
  8
AM_5
100
AcDbLine
 10
-64.0
 20
65.0
 30
0.0
 11
-105.6869129040261
 21
65.00000000000001
 31
0.0
  0
LINE
  5
B47A
330
AD9E
100
AcDbEntity
  8
AM_5
100
AcDbLine
 10
-64.0
 20
-65.0
 30
0.0
 11
-105.6869129040261
 21
-64.99999999999999
 31
0.0
  0
LINE
  5
B47B
330
AD9E
100
AcDbEntity
  8
AM_5
100
AcDbLine
 10
-104.6869129040261
 20
62.5
 30
0.0
 11
-104.6869129040261
 21
-62.5
 31
0.0
  0
INSERT
  5
B47C
330
AD9E
100
AcDbEntity
  8
AM_5
100
AcDbBlockReference
  2
_OPEN30
 10
-104.6869129040261
 20
65.00000000000001
 30
0.0
 41
2.5
 42
2.5
 43
2.5
 50
90.0
  0
INSERT
  5
B47D
330
AD9E
100
AcDbEntity
  8
AM_5
100
AcDbBlockReference
  2
_OPEN30
 10
-104.6869129040261
 20
-64.99999999999999
 30
0.0
 41
2.5
 42
2.5
 43
2.5
 50
270.0
  0
MTEXT
  5
B47E
330
AD9E
100
AcDbEntity
  8
AM_5
 62
     2
100
AcDbMText
 10
-107.7869129040261
 20
-0.0000000000000074
 30
0.0
 40
3.2
 41
0.0
 71
     5
 72
     1
  1
%%c130
  7
ASAMI
 11
0.0000000000000001
 21
1.0
 31
0.0
  0
POINT
  5
B47F
330
AD9E
100
AcDbEntity
  8
DEFPOINTS
 62
     0
100
AcDbPoint
 10
-63.0
 20
65.0
 30
0.0
  0
POINT
  5
B480
330
AD9E
100
AcDbEntity
  8
DEFPOINTS
 62
     0
100
AcDbPoint
 10
-63.0
 20
-65.0
 30
0.0
  0
POINT
  5
B481
330
AD9E
100
AcDbEntity
  8
DEFPOINTS
 62
     0
100
AcDbPoint
 10
-104.6869129040261
 20
-64.99999999999999
 30
0.0
  0
ENDBLK
  5
ADA9
330
AD9E
100
AcDbEntity
  8
0
100
AcDbBlockEnd
  0
BLOCK
  5
ADB4
330
ADAA
100
AcDbEntity
  8
0
100
AcDbBlockBegin
  2
*D6
 70
     1
 10
0.0
 20
0.0
 30
0.0
  3
*D6
  1

  0
LINE
  5
B470
330
ADAA
100
AcDbEntity
  8
AM_5
100
AcDbLine
 10
-62.2496332999155
 20
23.8125
 30
0.0
 11
-95.68691290402615
 21
23.8125
 31
0.0
  0
LINE
  5
B471
330
ADAA
100
AcDbEntity
  8
AM_5
100
AcDbLine
 10
-62.2496306570157
 20
-23.8125
 30
0.0
 11
-95.68691290402615
 21
-23.81249999999999
 31
0.0
  0
LINE
  5
B472
330
ADAA
100
AcDbEntity
  8
AM_5
100
AcDbLine
 10
-94.68691290402615
 20
21.3125
 30
0.0
 11
-94.68691290402615
 21
-21.31249999999999
 31
0.0
  0
INSERT
  5
B473
330
ADAA
100
AcDbEntity
  8
AM_5
100
AcDbBlockReference
  2
_OPEN30
 10
-94.68691290402615
 20
23.8125
 30
0.0
 41
2.5
 42
2.5
 43
2.5
 50
90.0
  0
INSERT
  5
B474
330
ADAA
100
AcDbEntity
  8
AM_5
100
AcDbBlockReference
  2
_OPEN30
 10
-94.68691290402615
 20
-23.81249999999999
 30
0.0
 41
2.5
 42
2.5
 43
2.5
 50
270.0
  0
MTEXT
  5
B475
330
ADAA
100
AcDbEntity
  8
AM_5
 62
     2
100
AcDbMText
 10
-97.78691290402614
 20
-0.0000000000000045
 30
0.0
 40
3.2
 41
0.0
 71
     5
 72
     1
  1
%%c47.625
  7
ASAMI
 11
0.0000000000000001
 21
1.0
 31
0.0
  0
POINT
  5
B476
330
ADAA
100
AcDbEntity
  8
DEFPOINTS
 62
     0
100
AcDbPoint
 10
-61.2496332999155
 20
23.8125
 30
0.0
  0
POINT
  5
B477
330
ADAA
100
AcDbEntity
  8
DEFPOINTS
 62
     0
100
AcDbPoint
 10
-61.2496306570157
 20
-23.8125
 30
0.0
  0
POINT
  5
B478
330
ADAA
100
AcDbEntity
  8
DEFPOINTS
 62
     0
100
AcDbPoint
 10
-94.68691290402615
 20
-23.81249999999999
 30
0.0
  0
ENDBLK
  5
ADB5
330
ADAA
100
AcDbEntity
  8
0
100
AcDbBlockEnd
  0
BLOCK
  5
ADC0
330
ADB6
100
AcDbEntity
  8
0
100
AcDbBlockBegin
  2
*D7
 70
     1
 10
0.0
 20
0.0
 30
0.0
  3
*D7
  1

  0
LINE
  5
B467
330
ADB6
100
AcDbEntity
  8
AM_5
100
AcDbLine
 10
-62.99996948242
 20
12.69999999999998
 30
0.0
 11
-83.20092934940545
 21
12.69999999999999
 31
0.0
  0
LINE
  5
B468
330
ADB6
100
AcDbEntity
  8
AM_5
100
AcDbLine
 10
-63.0
 20
-12.69999999999998
 30
0.0
 11
-83.20092934940545
 21
-12.69999999999998
 31
0.0
  0
LINE
  5
B469
330
ADB6
100
AcDbEntity
  8
AM_5
100
AcDbLine
 10
-82.20092934940543
 20
10.19999999999999
 30
0.0
 11
-82.20092934940543
 21
-10.19999999999998
 31
0.0
  0
MTEXT
  5
B46A
330
ADB6
100
AcDbEntity
  8
AM_5
 62
     2
100
AcDbMText
 10
-85.39238577951199
 20
0.2255046377527776
 30
0.0
 40
3.2
 41
0.0
 71
     5
 72
     1
  1
25.4
  7
ASAMI
 11
0.0000000000000001
 21
1.0
 31
0.0
  0
INSERT
  5
B46B
330
ADB6
100
AcDbEntity
  8
AM_5
100
AcDbBlockReference
  2
_OPEN30
 10
-82.20092934940543
 20
12.69999999999999
 30
0.0
 41
2.5
 42
2.5
 43
2.5
 50
90.0
  0
INSERT
  5
B46C
330
ADB6
100
AcDbEntity
  8
AM_5
100
AcDbBlockReference
  2
_OPEN30
 10
-82.20092934940543
 20
-12.69999999999998
 30
0.0
 41
2.5
 42
2.5
 43
2.5
 50
270.0
  0
POINT
  5
B46D
330
ADB6
100
AcDbEntity
  8
DEFPOINTS
 62
     0
100
AcDbPoint
 10
-61.99996948242
 20
12.69999999999998
 30
0.0
  0
POINT
  5
B46E
330
ADB6
100
AcDbEntity
  8
DEFPOINTS
 62
     0
100
AcDbPoint
 10
-62.0
 20
-12.69999999999998
 30
0.0
  0
POINT
  5
B46F
330
ADB6
100
AcDbEntity
  8
DEFPOINTS
 62
     0
100
AcDbPoint
 10
-82.20092934940543
 20
-12.69999999999998
 30
0.0
  0
ENDBLK
  5
ADC1
330
ADB6
100
AcDbEntity
  8
0
100
AcDbBlockEnd
  0
BLOCK
  5
ADCC
330
ADC2
100
AcDbEntity
  8
0
100
AcDbBlockBegin
  2
*D8
 70
     1
 10
0.0
 20
0.0
 30
0.0
  3
*D8
  1

  0
LINE
  5
B494
330
ADC2
100
AcDbEntity
  8
AM_5
100
AcDbLine
 10
-63.0
 20
-66.0
 30
0.0
 11
-63.0
 21
-135.00000101
 31
0.0
  0
LINE
  5
B495
330
ADC2
100
AcDbEntity
  8
AM_5
100
AcDbLine
 10
-0.0000000000000001
 20
-100.9999999999999
 30
0.0
 11
-0.0000000000000021
 21
-135.00000101
 31
0.0
  0
LINE
  5
B496
330
ADC2
100
AcDbEntity
  8
AM_5
100
AcDbLine
 10
-60.5
 20
-134.00000101
 30
0.0
 11
-2.500000000000002
 21
-134.00000101
 31
0.0
  0
INSERT
  5
B497
330
ADC2
100
AcDbEntity
  8
AM_5
100
AcDbBlockReference
  2
_OPEN30
 10
-63.0
 20
-134.00000101
 30
0.0
 41
2.5
 42
2.5
 43
2.5
 50
180.0
  0
INSERT
  5
B498
330
ADC2
100
AcDbEntity
  8
AM_5
100
AcDbBlockReference
  2
_OPEN30
 10
-0.0000000000000021
 20
-134.00000101
 30
0.0
 41
2.5
 42
2.5
 43
2.5
  0
MTEXT
  5
B499
330
ADC2
100
AcDbEntity
  8
AM_5
 62
     2
100
AcDbMText
 10
-31.5
 20
-130.90000101
 30
0.0
 40
3.2
 41
0.0
 71
     5
 72
     1
  1
63
  7
ASAMI
  0
POINT
  5
B49A
330
ADC2
100
AcDbEntity
  8
DEFPOINTS
 62
     0
100
AcDbPoint
 10
-63.0
 20
-65.0
 30
0.0
  0
POINT
  5
B49B
330
ADC2
100
AcDbEntity
  8
DEFPOINTS
 62
     0
100
AcDbPoint
 10
0.0
 20
-99.99999999999998
 30
0.0
  0
POINT
  5
B49C
330
ADC2
100
AcDbEntity
  8
DEFPOINTS
 62
     0
100
AcDbPoint
 10
-0.0000000000000021
 20
-134.00000101
 30
0.0
  0
ENDBLK
  5
ADCD
330
ADC2
100
AcDbEntity
  8
0
100
AcDbBlockEnd
  0
BLOCK
  5
ADD8
330
ADCE
100
AcDbEntity
  8
0
100
AcDbBlockBegin
  2
*D9
 70
     1
 10
0.0
 20
0.0
 30
0.0
  3
*D9
  1

  0
LINE
  5
B48B
330
ADCE
100
AcDbEntity
  8
AM_5
100
AcDbLine
 10
-63.00000000000051
 20
-65.99999999999994
 30
0.0
 11
-63.00000000000051
 21
-115.0000132289529
 31
0.0
  0
LINE
  5
B48C
330
ADCE
100
AcDbEntity
  8
AM_5
100
AcDbLine
 10
-49.0
 20
-13.69999999999998
 30
0.0
 11
-49.00000000000001
 21
-115.0000132289529
 31
0.0
  0
LINE
  5
B48D
330
ADCE
100
AcDbEntity
  8
AM_5
100
AcDbLine
 10
-60.50000000000051
 20
-114.0000132289529
 30
0.0
 11
-51.50000000000001
 21
-114.0000132289529
 31
0.0
  0
MTEXT
  5
B48E
330
ADCE
100
AcDbEntity
  8
AM_5
 62
     2
100
AcDbMText
 10
-56.00000000000022
 20
-110.90000101
 30
0.0
 40
3.2
 41
0.0
 71
     5
 72
     1
  1
14
  7
ASAMI
  0
INSERT
  5
B48F
330
ADCE
100
AcDbEntity
  8
AM_5
100
AcDbBlockReference
  2
_OPEN30
 10
-63.00000000000051
 20
-114.0000132289529
 30
0.0
 41
2.5
 42
2.5
 43
2.5
 50
180.0
  0
INSERT
  5
B490
330
ADCE
100
AcDbEntity
  8
AM_5
100
AcDbBlockReference
  2
_OPEN30
 10
-49.00000000000001
 20
-114.0000132289529
 30
0.0
 41
2.5
 42
2.5
 43
2.5
  0
POINT
  5
B491
330
ADCE
100
AcDbEntity
  8
DEFPOINTS
 62
     0
100
AcDbPoint
 10
-63.00000000000051
 20
-64.99999999999994
 30
0.0
  0
POINT
  5
B492
330
ADCE
100
AcDbEntity
  8
DEFPOINTS
 62
     0
100
AcDbPoint
 10
-49.0
 20
-12.69999999999998
 30
0.0
  0
POINT
  5
B493
330
ADCE
100
AcDbEntity
  8
DEFPOINTS
 62
     0
100
AcDbPoint
 10
-49.00000000000001
 20
-114.0000132289529
 30
0.0
  0
ENDBLK
  5
ADD9
330
ADCE
100
AcDbEntity
  8
0
100
AcDbBlockEnd
  0
BLOCK
  5
ADE4
330
ADDA
100
AcDbEntity
  8
0
100
AcDbBlockBegin
  2
*D10
 70
     1
 10
0.0
 20
0.0
 30
0.0
  3
*D10
  1

  0
LINE
  5
B482
330
ADDA
100
AcDbEntity
  8
AM_5
100
AcDbLine
 10
-63.00000000000051
 20
-65.99999999999994
 30
0.0
 11
-63.00000000000052
 21
-125.00000101
 31
0.0
  0
LINE
  5
B483
330
ADDA
100
AcDbEntity
  8
AM_5
100
AcDbLine
 10
-28.0
 20
-66.0
 30
0.0
 11
-28.0
 21
-125.00000101
 31
0.0
  0
LINE
  5
B484
330
ADDA
100
AcDbEntity
  8
AM_5
100
AcDbLine
 10
-60.50000000000052
 20
-124.00000101
 30
0.0
 11
-30.5
 21
-124.00000101
 31
0.0
  0
INSERT
  5
B485
330
ADDA
100
AcDbEntity
  8
AM_5
100
AcDbBlockReference
  2
_OPEN30
 10
-63.00000000000052
 20
-124.00000101
 30
0.0
 41
2.5
 42
2.5
 43
2.5
 50
180.0
  0
INSERT
  5
B486
330
ADDA
100
AcDbEntity
  8
AM_5
100
AcDbBlockReference
  2
_OPEN30
 10
-28.0
 20
-124.00000101
 30
0.0
 41
2.5
 42
2.5
 43
2.5
  0
MTEXT
  5
B487
330
ADDA
100
AcDbEntity
  8
AM_5
 62
     2
100
AcDbMText
 10
-45.50000000000026
 20
-120.90000101
 30
0.0
 40
3.2
 41
0.0
 71
     5
 72
     1
  1
35
  7
ASAMI
  0
POINT
  5
B488
330
ADDA
100
AcDbEntity
  8
DEFPOINTS
 62
     0
100
AcDbPoint
 10
-63.00000000000051
 20
-64.99999999999994
 30
0.0
  0
POINT
  5
B489
330
ADDA
100
AcDbEntity
  8
DEFPOINTS
 62
     0
100
AcDbPoint
 10
-28.0
 20
-65.0
 30
0.0
  0
POINT
  5
B48A
330
ADDA
100
AcDbEntity
  8
DEFPOINTS
 62
     0
100
AcDbPoint
 10
-28.0
 20
-124.00000101
 30
0.0
  0
ENDBLK
  5
ADE5
330
ADDA
100
AcDbEntity
  8
0
100
AcDbBlockEnd
  0
BLOCK
  5
ADF0
330
ADE6
100
AcDbEntity
  8
0
100
AcDbBlockBegin
  2
*D11
 70
     1
 10
0.0
 20
0.0
 30
0.0
  3
*D11
  1

  0
LINE
  5
B4A6
330
ADE6
100
AcDbEntity
  8
AM_5
100
AcDbLine
 10
-14.06484671435527
 20
-65.00000000000048
 30
0.0
 11
17.94812111717996
 21
-65.00000000000048
 31
0.0
  0
LINE
  5
B4A7
330
ADE6
100
AcDbEntity
  8
AM_5
100
AcDbLine
 10
-15.37818908691997
 20
65.0
 30
0.0
 11
17.94812111717999
 21
65.0
 31
0.0
  0
LINE
  5
B4A8
330
ADE6
100
AcDbEntity
  8
AM_5
100
AcDbLine
 10
16.94812111717996
 20
-62.50000000000049
 30
0.0
 11
16.94812111717999
 21
62.5
 31
0.0
  0
INSERT
  5
B4A9
330
ADE6
100
AcDbEntity
  8
AM_5
100
AcDbBlockReference
  2
_OPEN30
 10
16.94812111717996
 20
-65.00000000000048
 30
0.0
 41
2.5
 42
2.5
 43
2.5
 50
270.0
  0
INSERT
  5
B4AA
330
ADE6
100
AcDbEntity
  8
AM_5
100
AcDbBlockReference
  2
_OPEN30
 10
16.94812111717999
 20
65.0
 30
0.0
 41
2.5
 42
2.5
 43
2.5
 50
90.0
  0
MTEXT
  5
B4AB
330
ADE6
100
AcDbEntity
  8
AM_5
 62
     2
100
AcDbMText
 10
13.84812111717997
 20
-0.0000000000002422
 30
0.0
 40
3.2
 41
0.0
 71
     5
 72
     1
  1
%%c130
  7
ASAMI
 11
0.0000000000000001
 21
1.0
 31
0.0
  0
POINT
  5
B4AC
330
ADE6
100
AcDbEntity
  8
DEFPOINTS
 62
     0
100
AcDbPoint
 10
-15.06484671435527
 20
-65.00000000000048
 30
0.0
  0
POINT
  5
B4AD
330
ADE6
100
AcDbEntity
  8
DEFPOINTS
 62
     0
100
AcDbPoint
 10
-16.37818908691997
 20
65.0
 30
0.0
  0
POINT
  5
B4AE
330
ADE6
100
AcDbEntity
  8
DEFPOINTS
 62
     0
100
AcDbPoint
 10
16.94812111717999
 20
65.0
 30
0.0
  0
ENDBLK
  5
ADF1
330
ADE6
100
AcDbEntity
  8
0
100
AcDbBlockEnd
  0
BLOCK
  5
ADFC
330
ADF2
100
AcDbEntity
  8
0
100
AcDbBlockBegin
  2
*D12
 70
     1
 10
0.0
 20
0.0
 30
0.0
  3
*D12
  1

  0
LINE
  5
B49D
330
ADF2
100
AcDbEntity
  8
AM_5
100
AcDbLine
 10
1.0
 20
100.0
 30
0.0
 11
35.00843415966857
 21
100.0
 31
0.0
  0
LINE
  5
B49E
330
ADF2
100
AcDbEntity
  8
AM_5
100
AcDbLine
 10
1.0
 20
-99.99999999999998
 30
0.0
 11
35.00843415966853
 21
-100.0
 31
0.0
  0
LINE
  5
B49F
330
ADF2
100
AcDbEntity
  8
AM_5
100
AcDbLine
 10
34.00843415966857
 20
97.5
 30
0.0
 11
34.00843415966853
 21
-97.5
 31
0.0
  0
INSERT
  5
B4A0
330
ADF2
100
AcDbEntity
  8
AM_5
100
AcDbBlockReference
  2
_OPEN30
 10
34.00843415966857
 20
100.0
 30
0.0
 41
2.5
 42
2.5
 43
2.5
 50
90.0
  0
INSERT
  5
B4A1
330
ADF2
100
AcDbEntity
  8
AM_5
100
AcDbBlockReference
  2
_OPEN30
 10
34.00843415966853
 20
-100.0
 30
0.0
 41
2.5
 42
2.5
 43
2.5
 50
270.0
  0
MTEXT
  5
B4A2
330
ADF2
100
AcDbEntity
  8
AM_5
 62
     2
100
AcDbMText
 10
30.90843415966855
 20
0.0000000000000125
 30
0.0
 40
3.2
 41
0.0
 71
     5
 72
     1
  1
%%c200
  7
ASAMI
 11
0.0000000000000001
 21
1.0
 31
0.0
  0
POINT
  5
B4A3
330
ADF2
100
AcDbEntity
  8
DEFPOINTS
 62
     0
100
AcDbPoint
 10
0.0
 20
100.0
 30
0.0
  0
POINT
  5
B4A4
330
ADF2
100
AcDbEntity
  8
DEFPOINTS
 62
     0
100
AcDbPoint
 10
0.0
 20
-99.99999999999998
 30
0.0
  0
POINT
  5
B4A5
330
ADF2
100
AcDbEntity
  8
DEFPOINTS
 62
     0
100
AcDbPoint
 10
34.00843415966853
 20
-100.0
 30
0.0
  0
ENDBLK
  5
ADFD
330
ADF2
100
AcDbEntity
  8
0
100
AcDbBlockEnd
  0
BLOCK
  5
AF03
330
AEF9
100
AcDbEntity
  8
0
100
AcDbBlockBegin
  2
*D13
 70
     1
 10
0.0
 20
0.0
 30
0.0
  3
*D13
  1

  0
LINE
  5
B378
330
AEF9
100
AcDbEntity
  8
AM_5
 62
     3
100
AcDbLine
 10
-59.99999937216705
 20
-74.99999999999992
 30
0.0
 11
-115.6869129040262
 21
-74.9999999999999
 31
0.0
  0
LINE
  5
B379
330
AEF9
100
AcDbEntity
  8
AM_5
 62
     3
100
AcDbLine
 10
-59.99999937216705
 20
74.99999999999989
 30
0.0
 11
-115.6869129040262
 21
74.9999999999999
 31
0.0
  0
LINE
  5
B37A
330
AEF9
100
AcDbEntity
  8
AM_5
 62
     3
100
AcDbLine
 10
-114.6869129040262
 20
-72.4999999999999
 30
0.0
 11
-114.6869129040262
 21
72.4999999999999
 31
0.0
  0
INSERT
  5
B37B
330
AEF9
100
AcDbEntity
  8
AM_5
 62
     3
100
AcDbBlockReference
  2
_OPEN30
 10
-114.6869129040262
 20
-74.9999999999999
 30
0.0
 41
2.5
 42
2.5
 43
2.5
 50
270.0
  0
INSERT
  5
B37C
330
AEF9
100
AcDbEntity
  8
AM_5
 62
     3
100
AcDbBlockReference
  2
_OPEN30
 10
-114.6869129040262
 20
74.9999999999999
 30
0.0
 41
2.5
 42
2.5
 43
2.5
 50
90.0
  0
MTEXT
  5
B37D
330
AEF9
100
AcDbEntity
  8
AM_5
 62
     2
100
AcDbMText
 10
-118.0869129040262
 20
-0.000000000000021
 30
0.0
 40
3.799999999999999
 41
0.0
 71
     5
 72
     1
  1
%%c150
 11
0.0000000000000001
 21
1.0
 31
0.0
1001
ACAD
1000
MTEXTBEGIN
1070
    73
1070
     1
1070
    44
1040
1.0
1070
    74
1070
     0
1000
MTEXTEND
  0
POINT
  5
B37E
330
AEF9
100
AcDbEntity
  8
DEFPOINTS
 62
     0
100
AcDbPoint
 10
-59.99999937216705
 20
-74.99999999999992
 30
0.0
  0
POINT
  5
B37F
330
AEF9
100
AcDbEntity
  8
DEFPOINTS
 62
     0
100
AcDbPoint
 10
-59.99999937216705
 20
74.99999999999989
 30
0.0
  0
POINT
  5
B380
330
AEF9
100
AcDbEntity
  8
DEFPOINTS
 62
     0
100
AcDbPoint
 10
-114.6869129040262
 20
74.9999999999999
 30
0.0
  0
ENDBLK
  5
AF04
330
AEF9
100
AcDbEntity
  8
0
100
AcDbBlockEnd
  0
BLOCK
  5
B244
330
B234
100
AcDbEntity
  8
0
100
AcDbBlockBegin
  2
*D14
 70
     1
 10
0.0
 20
0.0
 30
0.0
  3
*D14
  1

  0
LINE
  5
B4AF
330
B234
100
AcDbEntity
  8
AM_5
100
AcDbLine
 10
-0.0000000000000071
 20
-100.9999999999999
 30
0.0
 11
-0.0000000000000142
 21
-135.0084341596685
 31
0.0
  0
LINE
  5
B4B0
330
B234
100
AcDbEntity
  8
AM_5
100
AcDbLine
 10
1.0
 20
-99.99999999999998
 30
0.0
 11
35.00843415966853
 21
-100.0
 31
0.0
  0
ARC
  5
B4B1
330
B234
100
AcDbEntity
  8
AM_5
100
AcDbCircle
 10
-0.0000000000000284
 20
-99.99999999999998
 30
0.0
 40
34.00843415966853
100
AcDbArc
 50
274.2128290836322
 51
355.7871709163677
  0
INSERT
  5
B4B2
330
B234
100
AcDbEntity
  8
AM_5
100
AcDbBlockReference
  2
_OPEN30
 10
-0.0000000000000142
 20
-134.0084341596685
 30
0.0
 41
2.5
 42
2.5
 43
2.5
 50
182.1064145418161
  0
INSERT
  5
B4B3
330
B234
100
AcDbEntity
  8
AM_5
100
AcDbBlockReference
  2
_OPEN30
 10
34.00843415966853
 20
-100.0
 30
0.0
 41
2.5
 42
2.5
 43
2.5
 50
87.89358545818387
  0
MTEXT
  5
B4B4
330
B234
100
AcDbEntity
  8
AM_5
 62
     2
100
AcDbMText
 10
21.8555633901595
 20
-121.8555633901595
 30
0.0
 40
3.2
 41
0.0
 71
     5
 72
     1
  1
90°
  7
ASAMI
 11
0.7071067811865476
 21
0.7071067811865475
 31
0.0
  0
POINT
  5
B4B5
330
B234
100
AcDbEntity
  8
DEFPOINTS
 62
     0
100
AcDbPoint
 10
17.00421707983425
 20
-129.4521679252034
 30
0.0
  0
POINT
  5
B4B6
330
B234
100
AcDbEntity
  8
DEFPOINTS
 62
     0
100
AcDbPoint
 10
-14.9787595144968
 20
-99.99999999999998
 30
0.0
  0
POINT
  5
B4B7
330
B234
100
AcDbEntity
  8
DEFPOINTS
 62
     0
100
AcDbPoint
 10
0.0000000000000071
 20
100.0
 30
0.0
  0
POINT
  5
B4B8
330
B234
100
AcDbEntity
  8
DEFPOINTS
 62
     0
100
AcDbPoint
 10
0.0
 20
-99.99999999999998
 30
0.0
  0
POINT
  5
B4B9
330
B234
100
AcDbEntity
  8
DEFPOINTS
 62
     0
100
AcDbPoint
 10
0.0
 20
-99.99999999999998
 30
0.0
  0
ENDBLK
  5
B245
330
B234
100
AcDbEntity
  8
0
100
AcDbBlockEnd
  0
ENDSEC
  0
SECTION
  2
ENTITIES
  0
TEXT
  5
E5A
330
1F
100
AcDbEntity
  8
AM_6
100
AcDbText
 10
-50.54761904761903
 20
-156.50000101
 30
0.0
 40
5.0
  1
WFM5200R
 72
     4
 11
-31.49999999999999
 21
-154.0000010099999
 31
0.0
100
AcDbText
  0
SPLINE
  5
AA9B
330
1F
100
AcDbEntity
  8
AM_0
 48
0.5
100
AcDbSpline
210
0.0
220
0.0
230
1.0
 70
     8
 71
     3
 72
    11
 73
     7
 74
     5
 42
0.0000000001
 43
0.0000000001
 44
0.0000000001
 40
0.0
 40
0.0
 40
0.0
 40
0.0
 40
0.3703646524519371
 40
0.7309035774609818
 40
1.081813672814617
 40
1.42316985145585
 40
1.42316985145585
 40
1.42316985145585
 40
1.42316985145585
 10
-13.27758789063
 20
95.72960203886015
 30
0.0
 10
-13.37274257071822
 20
95.80826700651289
 30
0.0
 10
-13.56052748925243
 20
95.96350997016397
 30
0.0
 10
-13.83176894043471
 20
96.20118772081617
 30
0.0
 10
-14.0910747340382
 20
96.43772549868179
 30
0.0
 10
-14.2564199907572
 20
96.59870798007306
 30
0.0
 10
-14.33795166016
 20
96.67808836698515
 30
0.0
 11
-13.27758789063
 21
95.72960203886015
 31
0.0
 11
-13.56188964844
 21
95.96696776151611
 31
0.0
 11
-13.83337402344
 21
96.20421141386016
 31
0.0
 11
-14.09210205079
 21
96.44127196073515
 31
0.0
 11
-14.33795166016
 21
96.67808836698515
 31
0.0
  0
SPLINE
  5
AA9C
330
1F
100
AcDbEntity
  8
AM_0
 48
0.5
100
AcDbSpline
210
0.0
220
0.0
230
1.0
 70
     8
 71
     3
 72
    11
 73
     7
 74
     5
 42
0.0000000001
 43
0.0000000001
 44
0.0000000001
 40
0.0
 40
0.0
 40
0.0
 40
0.0
 40
0.5349578245915146
 40
1.053457458273335
 40
1.570072465785335
 40
2.099694517740446
 40
2.099694517740446
 40
2.099694517740446
 40
2.099694517740446
 10
-1.437744140630002
 20
96.67576903104714
 30
0.0
 10
-1.543080267292169
 20
96.53134288599375
 30
0.0
 10
-1.750511812652999
 20
96.24693392386229
 30
0.0
 10
-1.966016859269665
 20
95.76655096609185
 30
0.0
 10
-2.10560683027564
 20
95.26061756516325
 30
0.0
 10
-2.125533112275484
 20
94.9115531114073
 30
0.0
 10
-2.135620117190001
 20
94.73485106229714
 30
0.0
 11
-1.437744140630002
 21
96.67576903104714
 31
0.0
 11
-1.737548828130002
 21
96.23271483182913
 31
0.0
 11
-1.95379638672
 21
95.76146239042214
 31
0.0
 11
-2.086547851570003
 21
95.26219481229714
 31
0.0
 11
-2.135620117190001
 21
94.73485106229714
 31
0.0
  0
SPLINE
  5
AA9D
330
1F
100
AcDbEntity
  8
AM_0
 48
0.5
100
AcDbSpline
210
0.0
220
0.0
230
1.0
 70
     8
 71
     3
 72
    11
 73
     7
 74
     5
 42
0.0000000001
 43
0.0000000001
 44
0.0000000001
 40
0.0
 40
0.0
 40
0.0
 40
0.0
 40
0.5362083819559125
 40
1.054959959539161
 40
1.571615573975212
 40
2.102034174909328
 40
2.102034174909328
 40
2.102034174909328
 40
2.102034174909328
 10
-14.33795166016
 20
96.67808836698515
 30
0.0
 10
-14.2317902784234
 20
96.53373041105083
 30
0.0
 10
-14.02292370574331
 20
96.24971421795045
 30
0.0
 10
-13.80716404846497
 20
95.76870014805578
 30
0.0
 10
-13.67020660692696
 20
95.26148460193288
 30
0.0
 10
-13.65373154776938
 20
94.91192713035367
 30
0.0
 10
-13.64538574219
 20
94.73485106229714
 30
0.0
 11
-14.33795166016
 21
96.67808836698515
 31
0.0
 11
-14.03601074219
 21
96.23497313261015
 31
0.0
 11
-13.81982421875
 21
95.76341551542213
 31
0.0
 11
-13.68969726563
 21
95.26341551542214
 31
0.0
 11
-13.64538574219
 21
94.73485106229714
 31
0.0
  0
SPLINE
  5
AA9E
330
1F
100
AcDbEntity
  8
AM_0
 48
0.5
100
AcDbSpline
210
0.0
220
0.0
230
1.0
 70
     8
 71
     3
 72
    11
 73
     7
 74
     5
 42
0.0000000001
 43
0.0000000001
 44
0.0000000001
 40
0.0
 40
0.0
 40
0.0
 40
0.0
 40
0.9759866351735372
 40
1.957043325784617
 40
2.934726339636161
 40
3.912858139188359
 40
3.912858139188359
 40
3.912858139188359
 40
3.912858139188359
 10
-1.751525878910001
 20
94.73485106229714
 30
0.0
 10
-1.712482822556797
 20
95.06368365610313
 30
0.0
 10
-1.63419388897864
 20
95.72305706329542
 30
0.0
 10
-1.056061027279302
 20
96.53159049328984
 30
0.0
 10
-0.670259848712947
 20
97.45963673689567
 30
0.0
 10
-0.7290306887209268
 20
98.1183229892831
 30
0.0
 10
-0.7584228515700034
 20
98.44774168729713
 30
0.0
 11
-1.751525878910001
 21
94.73485106229714
 31
0.0
 11
-1.557983398440001
 21
95.69145506620413
 31
0.0
 11
-1.087646484380002
 21
96.55241698026612
 31
0.0
 11
-0.7492065429700006
 21
97.46965330839111
 31
0.0
 11
-0.7584228515700034
 21
98.44774168729713
 31
0.0
  0
SPLINE
  5
AA9F
330
1F
100
AcDbEntity
  8
AM_0
 48
0.5
100
AcDbSpline
210
0.0
220
0.0
230
1.0
 70
     8
 71
     3
 72
    11
 73
     7
 74
     5
 42
0.0000000001
 43
0.0000000001
 44
0.0000000001
 40
0.0
 40
0.0
 40
0.0
 40
0.0
 40
0.9777614195805325
 40
1.960052698876025
 40
2.937960328462792
 40
3.918110911863074
 40
3.918110911863074
 40
3.918110911863074
 40
3.918110911863074
 10
-14.02728271485
 20
94.73485106229714
 30
0.0
 10
-14.0576835715767
 20
95.06636135967028
 30
0.0
 10
-14.11862612881206
 20
95.73091780468752
 30
0.0
 10
-14.71869726592228
 20
96.53019946941366
 30
0.0
 10
-15.11042022603044
 20
97.45790801808636
 30
0.0
 10
-15.05042014681463
 20
98.11754525961674
 30
0.0
 10
-15.02038574219
 20
98.44774168729713
 30
0.0
 11
-14.02728271485
 21
94.73485106229714
 31
0.0
 11
-14.20294189454
 21
95.69670408964112
 31
0.0
 11
-14.68463134766
 21
96.55278319120412
 31
0.0
 11
-15.03009033204
 21
97.46763914823516
 31
0.0
 11
-15.02038574219
 21
98.44774168729713
 31
0.0
  0
SPLINE
  5
AAA0
330
1F
100
AcDbEntity
  8
AM_0
 48
0.5
100
AcDbSpline
210
0.0
220
0.0
230
1.0
 70
     8
 71
     3
 72
    11
 73
     7
 74
     5
 42
0.0000000001
 43
0.0000000001
 44
0.0000000001
 40
0.0
 40
0.0
 40
0.0
 40
0.0
 40
0.5013906466710401
 40
1.001753641302512
 40
1.501613792973964
 40
2.001838991937021
 40
2.001838991937021
 40
2.001838991937021
 40
2.001838991937021
 10
-13.6058959961
 20
92.11064451932912
 30
0.0
 10
-13.69635333457006
 20
92.25234132002745
 30
0.0
 10
-13.8770826098299
 20
92.53544449916111
 30
0.0
 10
-13.98906713885277
 20
93.03443194578496
 30
0.0
 10
-13.93943634543155
 20
93.54142120614389
 30
0.0
 10
-13.80547131858939
 20
93.84835630388748
 30
0.0
 10
-13.73846435547
 20
94.00187987089111
 30
0.0
 11
-13.6058959961
 21
92.11064451932912
 31
0.0
 11
-13.85070800782
 21
92.54820555448516
 31
0.0
 11
-13.96215820313
 21
93.03599852323515
 31
0.0
 11
-13.91424560547
 21
93.53355711698515
 31
0.0
 11
-13.73846435547
 21
94.00187987089111
 31
0.0
  0
SPLINE
  5
AAA1
330
1F
100
AcDbEntity
  8
AM_0
 48
0.5
100
AcDbSpline
210
0.0
220
0.0
230
1.0
 70
     8
 71
     3
 72
    11
 73
     7
 74
     5
 42
0.0000000001
 43
0.0000000001
 44
0.0000000001
 40
0.0
 40
0.0
 40
0.0
 40
0.0
 40
0.4991303607429943
 40
0.9973212347075863
 40
1.488575432610167
 40
1.998470835796685
 40
1.998470835796685
 40
1.998470835796685
 40
1.998470835796685
 10
-2.172912597660001
 20
92.11064451932912
 30
0.0
 10
-2.082746407087475
 20
92.25205488288505
 30
0.0
 10
-1.902583741012001
 20
92.53460944072058
 30
0.0
 10
-1.805294829513077
 20
93.03068493848762
 30
0.0
 10
-1.83333993702142
 20
93.53807601309032
 30
0.0
 10
-1.968995312025942
 20
93.84577571702308
 30
0.0
 10
-2.0380859375
 20
94.00249022245413
 30
0.0
 11
-2.172912597660001
 21
92.11064451932912
 31
0.0
 11
-1.931213378910001
 21
92.54735106229714
 31
0.0
 11
-1.825927734380002
 21
93.03428953886015
 31
0.0
 11
-1.861145019540003
 21
93.52427977323515
 31
0.0
 11
-2.0380859375
 21
94.00249022245413
 31
0.0
  0
SPLINE
  5
AAA2
330
1F
100
AcDbEntity
  8
AM_0
 48
0.5
100
AcDbSpline
210
0.0
220
0.0
230
1.0
 70
     8
 71
     3
 72
    11
 73
     7
 74
     5
 42
0.0000000001
 43
0.0000000001
 44
0.0000000001
 40
0.0
 40
0.0
 40
0.0
 40
0.0
 40
0.4991303607438398
 40
0.9973212347084318
 40
1.488575432611012
 40
1.99849201907353
 40
1.99849201907353
 40
1.99849201907353
 40
1.99849201907353
 10
-13.6058959961
 20
92.11064451932912
 30
0.0
 10
-13.6960624811404
 20
91.96923404528904
 30
0.0
 10
-13.8762257355972
 20
91.68667926669332
 30
0.0
 10
-13.97351026104157
 20
91.19060541456651
 30
0.0
 10
-13.94548140141569
 20
90.68320092649754
 30
0.0
 10
-13.80977807672981
 20
90.37551135539841
 30
0.0
 10
-13.7406616211
 20
90.21879881620412
 30
0.0
 11
-13.6058959961
 21
92.11064451932912
 31
0.0
 11
-13.84759521485
 21
91.67393797636014
 31
0.0
 11
-13.95288085938
 21
91.18699949979713
 31
0.0
 11
-13.91766357422
 21
90.69700926542214
 31
0.0
 11
-13.7406616211
 21
90.21879881620412
 31
0.0
  0
SPLINE
  5
AAA3
330
1F
100
AcDbEntity
  8
AM_0
 48
0.5
100
AcDbSpline
210
0.0
220
0.0
230
1.0
 70
     8
 71
     3
 72
    11
 73
     7
 74
     5
 42
0.0000000001
 43
0.0000000001
 44
0.0000000001
 40
0.0
 40
0.0
 40
0.0
 40
0.0
 40
0.5013906466718834
 40
1.001767239732422
 40
1.501693998886716
 40
2.001919197849773
 40
2.001919197849773
 40
2.001919197849773
 40
2.001919197849773
 10
-2.172912597660001
 20
92.11064451932912
 30
0.0
 10
-2.082463425069995
 20
91.96894631358
 30
0.0
 10
-1.901748011723108
 20
91.68583648416742
 30
0.0
 10
-1.789637520706919
 20
91.18684238756737
 30
0.0
 10
-1.839388944314021
 20
90.67982831760131
 30
0.0
 10
-1.973345816301613
 20
90.37287205895678
 30
0.0
 10
-2.040344238290003
 20
90.21934813261015
 30
0.0
 11
-2.172912597660001
 21
92.11064451932912
 31
0.0
 11
-1.928100585940001
 21
91.67308348417213
 31
0.0
 11
-1.81658935547
 21
91.18529051542214
 31
0.0
 11
-1.864562988290003
 21
90.68767088651611
 31
0.0
 11
-2.040344238290003
 21
90.21934813261015
 31
0.0
  0
SPLINE
  5
AAA4
330
1F
100
AcDbEntity
  8
AM_0
 48
0.5
100
AcDbSpline
210
0.0
220
0.0
230
1.0
 70
     8
 71
     3
 72
    11
 73
     7
 74
     5
 42
0.0000000001
 43
0.0000000001
 44
0.0000000001
 40
0.0
 40
0.0
 40
0.0
 40
0.0
 40
0.1852125870827032
 40
0.3701045172501581
 40
0.5548488513024826
 40
0.74010824685446
 40
0.74010824685446
 40
0.74010824685446
 40
0.74010824685446
 10
-2.135620117190001
 20
94.73485106229714
 30
0.0
 10
-2.132516329686256
 20
94.67317849554737
 30
0.0
 10
-2.126314128238644
 20
94.54994013521764
 30
0.0
 10
-2.105893025516146
 20
94.36603645097285
 30
0.0
 10
-2.078562629259126
 20
94.18301816688279
 30
0.0
 10
-2.053095519059668
 20
94.0623153107869
 30
0.0
 10
-2.040344238290003
 20
94.00187987089111
 30
0.0
 11
-2.135620117190001
 21
94.73485106229714
 31
0.0
 11
-2.124450683600002
 21
94.54997557401611
 31
0.0
 11
-2.104736328130002
 21
94.36613768339112
 31
0.0
 11
-2.076782226570003
 21
94.18352049589111
 31
0.0
 11
-2.040344238290003
 21
94.00187987089111
 31
0.0
  0
SPLINE
  5
AAA5
330
1F
100
AcDbEntity
  8
AM_0
 48
0.5
100
AcDbSpline
210
0.0
220
0.0
230
1.0
 70
     8
 71
     3
 72
    11
 73
     7
 74
     5
 42
0.0000000001
 43
0.0000000001
 44
0.0000000001
 40
0.0
 40
0.0
 40
0.0
 40
0.0
 40
0.1852125870826465
 40
0.3701045172501013
 40
0.5548488513024259
 40
0.740048404319762
 40
0.740048404319762
 40
0.740048404319762
 40
0.740048404319762
 10
-13.64318847657
 20
89.48643797636014
 30
0.0
 10
-13.64629218703591
 20
89.54811055845125
 30
0.0
 10
-13.65249423454122
 20
89.67134894943709
 30
0.0
 10
-13.67291648999188
 20
89.85525240412716
 30
0.0
 10
-13.70023955979737
 20
90.03825182271075
 30
0.0
 10
-13.72571230877079
 20
90.15893319617282
 30
0.0
 10
-13.73846435547
 20
90.21934813261015
 30
0.0
 11
-13.64318847657
 21
89.48643797636014
 31
0.0
 11
-13.65435791016
 21
89.67131346464112
 31
0.0
 11
-13.67407226563
 21
89.85515135526611
 31
0.0
 11
-13.70202636719
 21
90.03776854276612
 31
0.0
 11
-13.73846435547
 21
90.21934813261015
 31
0.0
  0
SPLINE
  5
AAA6
330
1F
100
AcDbEntity
  8
AM_0
 48
0.5
100
AcDbSpline
210
0.0
220
0.0
230
1.0
 70
     8
 71
     3
 72
    11
 73
     7
 74
     5
 42
0.0000000001
 43
0.0000000001
 44
0.0000000001
 40
0.0
 40
0.0
 40
0.0
 40
0.0
 40
0.1854809392925219
 40
0.3702044220017853
 40
0.5550147731468521
 40
0.7403627456185509
 40
0.7403627456185509
 40
0.7403627456185509
 40
0.7403627456185509
 10
-2.133422851570003
 20
89.48643797636014
 30
0.0
 10
-2.132052806437668
 20
89.54827263806643
 30
0.0
 10
-2.129318311085925
 20
89.67168944458022
 30
0.0
 10
-2.110397293693365
 20
89.85587993460221
 30
0.0
 10
-2.081652261470885
 20
90.03875555356154
 30
0.0
 10
-2.052622100047404
 20
90.15872631311465
 30
0.0
 10
-2.0380859375
 20
90.21879881620412
 30
0.0
 11
-2.133422851570003
 21
89.48643797636014
 31
0.0
 11
-2.126831054690001
 21
89.67180174589111
 31
0.0
 11
-2.108764648440001
 21
89.85563963651612
 31
0.0
 11
-2.079223632820003
 21
90.03807371854714
 31
0.0
 11
-2.0380859375
 21
90.21879881620412
 31
0.0
  0
SPLINE
  5
AAA7
330
1F
100
AcDbEntity
  8
AM_0
 48
0.5
100
AcDbSpline
210
0.0
220
0.0
230
1.0
 70
     8
 71
     3
 72
    11
 73
     7
 74
     5
 42
0.0000000001
 43
0.0000000001
 44
0.0000000001
 40
0.0
 40
0.0
 40
0.0
 40
0.0
 40
0.1854787801970713
 40
0.3702022629063346
 40
0.5550223800388125
 40
0.7403568154054739
 40
0.7403568154054739
 40
0.7403568154054739
 40
0.7403568154054739
 10
-13.64538574219
 20
94.73485106229714
 30
0.0
 10
-13.64673212047197
 20
94.6730165740837
 30
0.0
 10
-13.64941939438106
 20
94.54959939699238
 30
0.0
 10
-13.66832967629199
 20
94.36540165379978
 30
0.0
 10
-13.69718949188857
 20
94.18254787327478
 30
0.0
 10
-13.72615749465
 20
94.06256501021276
 30
0.0
 10
-13.7406616211
 20
94.00249022245413
 30
0.0
 11
-13.64538574219
 21
94.73485106229714
 31
0.0
 11
-13.65191650391
 21
94.54948729276612
 31
0.0
 11
-13.66998291016
 21
94.36564940214111
 31
0.0
 11
-13.69958496094
 21
94.18321532011015
 31
0.0
 11
-13.7406616211
 21
94.00249022245413
 31
0.0
  0
SPLINE
  5
AAA8
330
1F
100
AcDbEntity
  8
AM_0
 48
0.5
100
AcDbSpline
210
0.0
220
0.0
230
1.0
 70
     8
 71
     3
 72
    11
 73
     7
 74
     5
 42
0.0000000001
 43
0.0000000001
 44
0.0000000001
 40
0.0
 40
0.0
 40
0.0
 40
0.0
 40
0.5361579444437394
 40
1.054909522022818
 40
1.571624204233621
 40
2.102042805167736
 40
2.102042805167736
 40
2.102042805167736
 40
2.102042805167736
 10
-1.440856933600002
 20
87.54320067167213
 30
0.0
 10
-1.547019760460911
 20
87.68753708067825
 30
0.0
 10
-1.755898838167432
 20
87.97152401738792
 30
0.0
 10
-1.97165479635321
 20
88.45254629285838
 30
0.0
 10
-2.108595220364441
 20
88.95978590637882
 30
0.0
 10
-2.125075083397389
 20
89.30936230806819
 30
0.0
 10
-2.133422851570003
 20
89.48643797636014
 30
0.0
 11
-1.440856933600002
 21
87.54320067167213
 31
0.0
 11
-1.742797851570003
 21
87.98625487089111
 31
0.0
 11
-1.958984375
 21
88.45781248807913
 31
0.0
 11
-2.089111328130002
 21
88.95787352323514
 31
0.0
 11
-2.133422851570003
 21
89.48643797636014
 31
0.0
  0
SPLINE
  5
AAA9
330
1F
100
AcDbEntity
  8
AM_0
 48
0.5
100
AcDbSpline
210
0.0
220
0.0
230
1.0
 70
     8
 71
     3
 72
    11
 73
     7
 74
     5
 42
0.0000000001
 43
0.0000000001
 44
0.0000000001
 40
0.0
 40
0.0
 40
0.0
 40
0.0
 40
0.4896570354813593
 40
0.9660412197425914
 40
1.441073045361508
 40
1.926621078731392
 40
1.926621078731392
 40
1.926621078731392
 40
1.926621078731392
 10
-0.7584228515700034
 20
85.77354735136015
 30
0.0
 10
-0.7748463948876456
 20
85.93629460495794
 30
0.0
 10
-0.8072482979941201
 20
86.25737761609205
 30
0.0
 10
-0.9483439841150003
 20
86.71921122636726
 30
0.0
 10
-1.153075253705303
 20
87.15514504929757
 30
0.0
 10
-1.344232126450446
 20
87.4129081537851
 30
0.0
 10
-1.440856933600002
 20
87.54320067167213
 30
0.0
 11
-0.7584228515700034
 21
85.77354735136015
 31
0.0
 11
-0.8236694336000027
 21
86.25883787870412
 31
0.0
 11
-0.9591064453200033
 21
86.71556395292213
 31
0.0
 11
-1.164855957040003
 21
87.14372557401611
 31
0.0
 11
-1.440856933600002
 21
87.54320067167213
 31
0.0
  0
SPLINE
  5
AAAA
330
1F
100
AcDbEntity
  8
AM_0
 48
0.5
100
AcDbSpline
210
0.0
220
0.0
230
1.0
 70
     8
 71
     3
 72
    11
 73
     7
 74
     5
 42
0.0000000001
 43
0.0000000001
 44
0.0000000001
 40
0.0
 40
0.0
 40
0.0
 40
0.0
 40
0.4883119192053898
 40
0.9647347245309614
 40
1.439904403699529
 40
1.924557089440699
 40
1.924557089440699
 40
1.924557089440699
 40
1.924557089440699
 10
-1.552307128910001
 20
84.97966307401611
 30
0.0
 10
-1.714373563316094
 20
84.99793233209619
 30
0.0
 10
-2.034560539720235
 20
85.03402603976146
 30
0.0
 10
-2.495424055037961
 20
85.17608951661973
 30
0.0
 10
-2.932110313732954
 20
85.37796274565753
 30
0.0
 10
-3.192698427969258
 20
85.56469551982543
 30
0.0
 10
-3.324279785160001
 20
85.65898436307913
 30
0.0
 11
-1.552307128910001
 21
84.97966307401611
 31
0.0
 11
-2.035583496100002
 21
85.04960936307913
 31
0.0
 11
-2.492004394540003
 21
85.18620604276611
 31
0.0
 11
-2.92156982422
 21
85.38933104276612
 31
0.0
 11
-3.324279785160001
 21
85.65898436307913
 31
0.0
  0
SPLINE
  5
AAAB
330
1F
100
AcDbEntity
  8
AM_0
 48
0.5
100
AcDbSpline
210
0.0
220
0.0
230
1.0
 70
     8
 71
     3
 72
    11
 73
     7
 74
     5
 42
0.0000000001
 43
0.0000000001
 44
0.0000000001
 40
0.0
 40
0.0
 40
0.0
 40
0.0
 40
0.4896570354874673
 40
0.9660412197407243
 40
1.441073045364653
 40
1.926621078730711
 40
1.926621078730711
 40
1.926621078730711
 40
1.926621078730711
 10
-14.22650146485
 20
84.97966307401611
 30
0.0
 10
-14.06375421125008
 20
84.9960866173337
 30
0.0
 10
-13.74267120011636
 20
85.02848852043959
 30
0.0
 10
-13.2808375898417
 20
85.16958420656454
 30
0.0
 10
-12.84490376690976
 20
85.37431547614664
 30
0.0
 10
-12.58714066242464
 20
85.56547234889622
 30
0.0
 10
-12.45684814454
 20
85.66209715604713
 30
0.0
 11
-14.22650146485
 21
84.97966307401611
 31
0.0
 11
-13.7412109375
 21
85.04490965604714
 31
0.0
 11
-13.28448486329
 21
85.18034666776612
 31
0.0
 11
-12.85632324219
 21
85.38609617948514
 31
0.0
 11
-12.45684814454
 21
85.66209715604713
 31
0.0
  0
SPLINE
  5
AAAC
330
1F
100
AcDbEntity
  8
AM_0
 48
0.5
100
AcDbSpline
210
0.0
220
0.0
230
1.0
 70
     8
 71
     3
 72
    11
 73
     7
 74
     5
 42
0.0000000001
 43
0.0000000001
 44
0.0000000001
 40
0.0
 40
0.0
 40
0.0
 40
0.0
 40
0.5349578245923149
 40
1.053482916811813
 40
1.570082243851754
 40
2.099704295806865
 40
2.099704295806865
 40
2.099704295806865
 40
2.099704295806865
 10
-14.34106445313
 20
87.54552000761014
 30
0.0
 10
-14.23573624650825
 20
87.68994945497007
 30
0.0
 10
-14.02831528501658
 20
87.97437179348658
 30
0.0
 10
-13.81269707644391
 20
88.45471154080767
 30
0.0
 10
-13.6732255134542
 20
88.96068399272783
 30
0.0
 10
-13.65328356393517
 20
89.30973837653569
 30
0.0
 10
-13.64318847657
 20
89.48643797636014
 30
0.0
 11
-14.34106445313
 21
87.54552000761014
 31
0.0
 11
-14.04125976563
 21
87.98857420682912
 31
0.0
 11
-13.82495117188
 21
88.45982664823514
 31
0.0
 11
-13.69226074219
 21
88.95909422636014
 31
0.0
 11
-13.64318847657
 21
89.48643797636014
 31
0.0
  0
SPLINE
  5
AAAD
330
1F
100
AcDbEntity
  8
AM_0
 48
0.5
100
AcDbSpline
210
0.0
220
0.0
230
1.0
 70
     8
 71
     3
 72
    11
 73
     7
 74
     5
 42
0.0000000001
 43
0.0000000001
 44
0.0000000001
 40
0.0
 40
0.0
 40
0.0
 40
0.0
 40
0.4883119192019766
 40
0.9647347245265061
 40
1.439904403701395
 40
1.924557089439235
 40
1.924557089439235
 40
1.924557089439235
 40
1.924557089439235
 10
-15.02038574219
 20
85.77354735136015
 30
0.0
 10
-15.00211648411158
 20
85.93561378576541
 30
0.0
 10
-14.96602277644951
 20
86.25580076216872
 30
0.0
 10
-14.8239592995833
 20
86.7166642774846
 30
0.0
 10
-14.62208607055121
 20
87.15335053618266
 30
0.0
 10
-14.43535329638294
 20
87.41393865042013
 30
0.0
 10
-14.34106445313
 20
87.54552000761014
 30
0.0
 11
-15.02038574219
 21
85.77354735136015
 31
0.0
 11
-14.95043945313
 21
86.25682371854713
 31
0.0
 11
-14.81384277344
 21
86.71324461698516
 31
0.0
 11
-14.61071777344
 21
87.14281004667213
 31
0.0
 11
-14.34106445313
 21
87.54552000761014
 31
0.0
  0
SPLINE
  5
AAAE
330
1F
100
AcDbEntity
  8
AM_0
 48
0.5
100
AcDbSpline
210
0.0
220
0.0
230
1.0
 70
     8
 71
     3
 72
    11
 73
     7
 74
     5
 42
0.0000000001
 43
0.0000000001
 44
0.0000000001
 40
0.0
 40
0.0
 40
0.0
 40
0.0
 40
0.9760464582722359
 40
1.957049585707295
 40
2.934732599553103
 40
3.912864399109223
 40
3.912864399109223
 40
3.912864399109223
 40
3.912864399109223
 10
-5.265197753910001
 20
85.97276610136015
 30
0.0
 10
-4.936341922131889
 20
85.93372984863037
 30
0.0
 10
-4.276960225815875
 20
85.85545910487129
 30
0.0
 10
-3.468446608500127
 20
85.27728461241967
 30
0.0
 10
-2.540410777593288
 20
84.89150246930888
 30
0.0
 10
-1.881725392952685
 20
84.95027171067249
 30
0.0
 10
-1.552307128910001
 20
84.97966307401611
 30
0.0
 11
-5.265197753910001
 21
85.97276610136015
 31
0.0
 11
-4.308532714850002
 21
85.77922362089111
 31
0.0
 11
-3.447631835940001
 21
85.30888670682912
 31
0.0
 11
-2.530395507820003
 21
84.97044676542214
 31
0.0
 11
-1.552307128910001
 21
84.97966307401611
 31
0.0
  0
SPLINE
  5
AAAF
330
1F
100
AcDbEntity
  8
AM_0
 48
0.5
100
AcDbSpline
210
0.0
220
0.0
230
1.0
 70
     8
 71
     3
 72
    11
 73
     7
 74
     5
 42
0.0000000001
 43
0.0000000001
 44
0.0000000001
 40
0.0
 40
0.0
 40
0.0
 40
0.0
 40
0.7217196039226593
 40
1.450614564705125
 40
2.171031075552245
 40
2.896926027577023
 40
2.896926027577023
 40
2.896926027577023
 40
2.896926027577023
 10
-7.889404296880002
 20
86.39415282011015
 30
0.0
 10
-7.733101295343836
 20
86.20898054866634
 30
0.0
 10
-7.418941323378067
 20
85.83679501778153
 30
0.0
 10
-6.672580748243416
 20
85.57890227704854
 30
0.0
 10
-5.980990654307204
 20
85.87049242682555
 30
0.0
 10
-5.504397145611558
 20
85.93858889630238
 30
0.0
 10
-5.265197753910001
 20
85.97276610136015
 30
0.0
 11
-7.889404296880002
 21
86.39415282011015
 31
0.0
 11
-7.374816894540003
 21
85.88811033964111
 31
0.0
 11
-6.679138183600002
 21
85.67058104276611
 31
0.0
 11
-5.978576660160001
 21
85.83854979276612
 31
0.0
 11
-5.265197753910001
 21
85.97276610136015
 31
0.0
  0
SPLINE
  5
AAB0
330
1F
100
AcDbEntity
  8
AM_0
 48
0.5
100
AcDbSpline
210
0.0
220
0.0
230
1.0
 70
     8
 71
     3
 72
    11
 73
     7
 74
     5
 42
0.0000000001
 43
0.0000000001
 44
0.0000000001
 40
0.0
 40
0.0
 40
0.0
 40
0.0
 40
0.7261136062904859
 40
1.455838879493143
 40
2.173971794630948
 40
2.896594268304906
 40
2.896594268304906
 40
2.896594268304906
 40
2.896594268304906
 10
-2.172912597660001
 20
92.11064451932912
 30
0.0
 10
-1.989205116203454
 20
91.95148210429938
 30
0.0
 10
-1.620876397885493
 20
91.63236560524614
 30
0.0
 10
-1.349528420560847
 20
90.88843004919231
 30
0.0
 10
-1.654226939809408
 20
90.19999136365205
 30
0.0
 10
-1.719025592539346
 20
89.72478270696161
 30
0.0
 10
-1.751525878910001
 20
89.48643797636014
 30
0.0
 11
-2.172912597660001
 21
92.11064451932912
 31
0.0
 11
-1.668212890630002
 21
91.58861082792213
 31
0.0
 11
-1.445617675790003
 21
90.89366453886015
 31
0.0
 11
-1.619445800790003
 21
90.19688719511014
 31
0.0
 11
-1.751525878910001
 21
89.48643797636014
 31
0.0
  0
SPLINE
  5
AAB1
330
1F
100
AcDbEntity
  8
AM_0
 48
0.5
100
AcDbSpline
210
0.0
220
0.0
230
1.0
 70
     8
 71
     3
 72
    11
 73
     7
 74
     5
 42
0.0000000001
 43
0.0000000001
 44
0.0000000001
 40
0.0
 40
0.0
 40
0.0
 40
0.0
 40
0.9778214617426936
 40
1.960112741038186
 40
2.938020370624954
 40
3.918109921861178
 40
3.918109921861178
 40
3.918109921861178
 40
3.918109921861178
 10
-1.751525878910001
 20
89.48643797636014
 30
0.0
 10
-1.721128453698105
 20
89.15490618593512
 30
0.0
 10
-1.660194650561481
 20
88.49032710693519
 30
0.0
 10
-1.060112057735506
 20
87.69102829480699
 30
0.0
 10
-0.668393669853653
 20
86.76333962552773
 30
0.0
 10
-0.7283908381022798
 20
86.10372312705145
 30
0.0
 10
-0.7584228515700034
 20
85.77354735136015
 30
0.0
 11
-1.751525878910001
 21
89.48643797636014
 31
0.0
 11
-1.57586669922
 21
88.52452391386014
 31
0.0
 11
-1.094177246100002
 21
87.66844481229714
 31
0.0
 11
-0.7487182617200006
 21
86.75358885526611
 31
0.0
 11
-0.7584228515700034
 21
85.77354735136015
 31
0.0
  0
SPLINE
  5
AAB2
330
1F
100
AcDbEntity
  8
AM_0
 48
0.5
100
AcDbSpline
210
0.0
220
0.0
230
1.0
 70
     8
 71
     3
 72
    11
 73
     7
 74
     5
 42
0.0000000001
 43
0.0000000001
 44
0.0000000001
 40
0.0
 40
0.0
 40
0.0
 40
0.0
 40
0.7216760870161007
 40
1.450571047795175
 40
2.171046911780902
 40
2.896941863804934
 40
2.896941863804934
 40
2.896941863804934
 40
2.896941863804934
 10
-2.172912597660001
 20
92.11064451932912
 30
0.0
 10
-1.987738378157084
 20
92.26692598104563
 30
0.0
 10
-1.615537654810951
 20
92.58105217665006
 30
0.0
 10
-1.357666023891563
 20
93.32742844461954
 30
0.0
 10
-1.6492437670432
 20
94.01903916283108
 30
0.0
 10
-1.717346788220895
 20
94.49565185745425
 30
0.0
 10
-1.751525878910001
 20
94.73485106229714
 30
0.0
 11
-2.172912597660001
 21
92.11064451932912
 31
0.0
 11
-1.666870117190001
 21
92.62517088651611
 31
0.0
 11
-1.449340820320003
 21
93.32084959745413
 31
0.0
 11
-1.617309570320003
 21
94.02147215604713
 31
0.0
 11
-1.751525878910001
 21
94.73485106229714
 31
0.0
  0
SPLINE
  5
AAB3
330
1F
100
AcDbEntity
  8
AM_0
 48
0.5
100
AcDbSpline
210
0.0
220
0.0
230
1.0
 70
     8
 71
     3
 72
    11
 73
     7
 74
     5
 42
0.0000000001
 43
0.0000000001
 44
0.0000000001
 40
0.0
 40
0.0
 40
0.0
 40
0.0
 40
0.726113606293363
 40
1.45583887949534
 40
2.173971794633144
 40
2.896594268308017
 40
2.896594268308017
 40
2.896594268308017
 40
2.896594268308017
 10
-7.889404296880002
 20
86.39415282011015
 30
0.0
 10
-8.048566711910904
 20
86.2104453386537
 30
0.0
 10
-8.36768321096566
 20
85.84211662033679
 30
0.0
 10
-9.111618767017406
 20
85.57076864300483
 30
0.0
 10
-9.800057452558796
 20
85.87546716225379
 30
0.0
 10
-10.27526610924868
 20
85.94026581498756
 30
0.0
 10
-10.51361083985
 20
85.97276610136015
 30
0.0
 11
-7.889404296880002
 21
86.39415282011015
 31
0.0
 11
-8.411437988290003
 21
85.88945311307913
 31
0.0
 11
-9.106384277350002
 21
85.66685789823514
 31
0.0
 11
-9.803161621100002
 21
85.84068602323515
 31
0.0
 11
-10.51361083985
 21
85.97276610136015
 31
0.0
  0
SPLINE
  5
AAB4
330
1F
100
AcDbEntity
  8
AM_0
 48
0.5
100
AcDbSpline
210
0.0
220
0.0
230
1.0
 70
     8
 71
     3
 72
    11
 73
     7
 74
     5
 42
0.0000000001
 43
0.0000000001
 44
0.0000000001
 40
0.0
 40
0.0
 40
0.0
 40
0.0
 40
0.9777614195762607
 40
1.960052698871581
 40
2.937960328464983
 40
3.918110911863216
 40
3.918110911863216
 40
3.918110911863216
 40
3.918110911863216
 10
-10.51361083985
 20
85.97276610136015
 30
0.0
 10
-10.84512113722218
 20
85.94236524463486
 30
0.0
 10
-11.50967758223884
 20
85.88142268740217
 30
0.0
 10
-12.30895924695941
 20
85.2813515502787
 30
0.0
 10
-13.23666779563954
 20
84.88962859018656
 30
0.0
 10
-13.89630503717069
 20
84.9496286693952
 30
0.0
 10
-14.22650146485
 20
84.97966307401611
 30
0.0
 11
-10.51361083985
 21
85.97276610136015
 31
0.0
 11
-11.47546386719
 21
85.79710692167214
 31
0.0
 11
-12.33154296875
 21
85.31541746854713
 31
0.0
 11
-13.24639892579
 21
84.96995848417213
 31
0.0
 11
-14.22650146485
 21
84.97966307401611
 31
0.0
  0
SPLINE
  5
AAB5
330
1F
100
AcDbEntity
  8
AM_0
 48
0.5
100
AcDbSpline
210
0.0
220
0.0
230
1.0
 70
     8
 71
     3
 72
    11
 73
     7
 74
     5
 42
0.0000000001
 43
0.0000000001
 44
0.0000000001
 40
0.0
 40
0.0
 40
0.0
 40
0.0
 40
0.7261136062897911
 40
1.455838879492449
 40
2.173971794630253
 40
2.896594268304212
 40
2.896594268304212
 40
2.896594268304212
 40
2.896594268304212
 10
-13.6058959961
 20
92.11064451932912
 30
0.0
 10
-13.78960347755657
 20
92.26980693435853
 30
0.0
 10
-14.15793219587475
 20
92.58892343341125
 30
0.0
 10
-14.42928017319911
 20
93.33285898946497
 30
0.0
 10
-14.1245816539506
 20
94.02129767500525
 30
0.0
 10
-14.05978300122066
 20
94.49650633169566
 30
0.0
 10
-14.02728271485
 20
94.73485106229714
 30
0.0
 11
-13.6058959961
 21
92.11064451932912
 31
0.0
 11
-14.11059570313
 21
92.63267821073515
 31
0.0
 11
-14.33319091797
 21
93.32762449979714
 31
0.0
 11
-14.15936279297
 21
94.02440184354714
 31
0.0
 11
-14.02728271485
 21
94.73485106229714
 31
0.0
  0
SPLINE
  5
AAB6
330
1F
100
AcDbEntity
  8
AM_0
 48
0.5
100
AcDbSpline
210
0.0
220
0.0
230
1.0
 70
     8
 71
     3
 72
    11
 73
     7
 74
     5
 42
0.0000000001
 43
0.0000000001
 44
0.0000000001
 40
0.0
 40
0.0
 40
0.0
 40
0.0
 40
0.9760464582753805
 40
1.957049585705994
 40
2.934711472979492
 40
3.912842699340588
 40
3.912842699340588
 40
3.912842699340588
 40
3.912842699340588
 10
-14.02728271485
 20
89.48643797636014
 30
0.0
 10
-14.0663169618479
 20
89.15758153919346
 30
0.0
 10
-14.14458368395717
 20
88.49819862902847
 30
0.0
 10
-14.72278425962685
 20
87.68969996097156
 30
0.0
 10
-15.1084509385497
 20
86.76163765245272
 30
0.0
 10
-15.04974550356515
 20
86.10296347323757
 30
0.0
 10
-15.02038574219
 20
85.77354735136015
 30
0.0
 11
-14.02728271485
 21
89.48643797636014
 31
0.0
 11
-14.22082519532
 21
88.52977293729713
 31
0.0
 11
-14.69116210938
 21
87.66887205839111
 31
0.0
 11
-15.02954101563
 21
86.75163573026612
 31
0.0
 11
-15.02038574219
 21
85.77354735136015
 31
0.0
  0
SPLINE
  5
AAB7
330
1F
100
AcDbEntity
  8
AM_0
 48
0.5
100
AcDbSpline
210
0.0
220
0.0
230
1.0
 70
     8
 71
     3
 72
    11
 73
     7
 74
     5
 42
0.0000000001
 43
0.0000000001
 44
0.0000000001
 40
0.0
 40
0.0
 40
0.0
 40
0.0
 40
0.7216768096933128
 40
1.450589987956196
 40
2.171020731898949
 40
2.896904401142312
 40
2.896904401142312
 40
2.896904401142312
 40
2.896904401142312
 10
-13.6058959961
 20
92.11064451932912
 30
0.0
 10
-13.79103522980396
 20
91.95433584471578
 30
0.0
 10
-14.16317011786136
 20
91.6401511634578
 30
0.0
 10
-14.42119511370983
 20
90.89382403327734
 30
0.0
 10
-14.12945691673399
 20
90.2022448674262
 30
0.0
 10
-14.06142627899614
 20
89.72563924292952
 30
0.0
 10
-14.02728271485
 20
89.48643797636014
 30
0.0
 11
-13.6058959961
 21
92.11064451932912
 31
0.0
 11
-14.11187744141
 21
91.59605711698516
 31
0.0
 11
-14.32946777344
 21
90.90037840604713
 31
0.0
 11
-14.16143798829
 21
90.19981688261015
 31
0.0
 11
-14.02728271485
 21
89.48643797636014
 31
0.0
  0
SPLINE
  5
AAB8
330
1F
100
AcDbEntity
  8
AM_0
 48
0.5
100
AcDbSpline
210
0.0
220
0.0
230
1.0
 70
     8
 71
     3
 72
    11
 73
     7
 74
     5
 42
0.0000000001
 43
0.0000000001
 44
0.0000000001
 40
0.0
 40
0.0
 40
0.0
 40
0.0
 40
0.1366558066304169
 40
0.24830233813708
 40
0.357352401845003
 40
0.4879209245618829
 40
0.4879209245618829
 40
0.4879209245618829
 40
0.4879209245618829
 10
-13.6058959961
 20
86.69700926542214
 30
0.0
 10
-13.60224884299815
 20
86.65120433965704
 30
0.0
 10
-13.59562199950674
 20
86.56797721271596
 30
0.0
 10
-13.53396116604368
 20
86.46020535087368
 30
0.0
 10
-13.42776916724882
 20
86.39891911397214
 30
0.0
 10
-13.34703287567328
 20
86.39583393739661
 30
0.0
 10
-13.30303955079
 20
86.39415282011015
 30
0.0
 11
-13.6058959961
 21
86.69700926542214
 31
0.0
 11
-13.583984375
 21
86.56212157011015
 31
0.0
 11
-13.52618408204
 21
86.46660155057913
 31
0.0
 11
-13.43255615235
 21
86.41069334745413
 31
0.0
 11
-13.30303955079
 21
86.39415282011015
 31
0.0
  0
SPLINE
  5
AAB9
330
1F
100
AcDbEntity
  8
AM_0
 48
0.5
100
AcDbSpline
210
0.0
220
0.0
230
1.0
 70
     8
 71
     3
 72
    11
 73
     7
 74
     5
 42
0.0000000001
 43
0.0000000001
 44
0.0000000001
 40
0.0
 40
0.0
 40
0.0
 40
0.0
 40
0.1366460334288296
 40
0.248324175531035
 40
0.3573218403206347
 40
0.4879509066960402
 40
0.4879509066960402
 40
0.4879509066960402
 40
0.4879509066960402
 10
-2.47576904297
 20
86.39415282011015
 30
0.0
 10
-2.429958574166709
 20
86.39776754575498
 30
0.0
 10
-2.346708101314951
 20
86.40433651627681
 30
0.0
 10
-2.239004192054318
 20
86.46609225233023
 30
0.0
 10
-2.177651217733328
 20
86.57224128265374
 30
0.0
 10
-2.174584418925727
 20
86.65299017048601
 30
0.0
 10
-2.172912597660001
 20
86.69700926542214
 30
0.0
 11
-2.47576904297
 21
86.39415282011015
 31
0.0
 11
-2.340881347660001
 21
86.41600340604714
 31
0.0
 11
-2.245361328130002
 21
86.47386473417213
 31
0.0
 11
-2.189453125
 21
86.56743162870412
 31
0.0
 11
-2.172912597660001
 21
86.69700926542214
 31
0.0
  0
SPLINE
  5
AABA
330
1F
100
AcDbEntity
  8
AM_0
 48
0.5
100
AcDbSpline
210
0.0
220
0.0
230
1.0
 70
     8
 71
     3
 72
    11
 73
     7
 74
     5
 42
0.0000000001
 43
0.0000000001
 44
0.0000000001
 40
0.0
 40
0.0
 40
0.0
 40
0.0
 40
0.3071548196216298
 40
0.6145735303939415
 40
0.9136446251405409
 40
1.233003082558912
 40
1.233003082558912
 40
1.233003082558912
 40
1.233003082558912
 10
-1.552307128910001
 20
84.97966307401611
 30
0.0
 10
-1.449372390083789
 20
84.99283034762582
 30
0.0
 10
-1.243414476356333
 20
85.01917620746921
 30
0.0
 10
-0.9864336947820467
 20
85.20066852090293
 30
0.0
 10
-0.8020813474279224
 20
85.45960865207101
 30
0.0
 10
-0.7732905079570647
 20
85.66663728458136
 30
0.0
 10
-0.7584228515700034
 20
85.77354735136015
 30
0.0
 11
-1.552307128910001
 21
84.97966307401611
 31
0.0
 11
-1.251770019540003
 21
85.04307860136014
 31
0.0
 11
-0.9968872070400038
 21
85.21495360136015
 31
0.0
 11
-0.8281860351600016
 21
85.46190184354713
 31
0.0
 11
-0.7584228515700034
 21
85.77354735136015
 31
0.0
  0
SPLINE
  5
AABB
330
1F
100
AcDbEntity
  8
AM_0
 48
0.5
100
AcDbSpline
210
0.0
220
0.0
230
1.0
 70
     8
 71
     3
 72
    11
 73
     7
 74
     5
 42
0.0000000001
 43
0.0000000001
 44
0.0000000001
 40
0.0
 40
0.0
 40
0.0
 40
0.0
 40
0.307154819625691
 40
0.6146076587643979
 40
0.9136283576918668
 40
1.232986815108179
 40
1.232986815108179
 40
1.232986815108179
 40
1.232986815108179
 10
-15.02038574219
 20
85.77354735136015
 30
0.0
 10
-15.0072232445103
 20
85.67060887091173
 30
0.0
 10
-14.98088547812828
 20
85.46463203309988
 30
0.0
 10
-14.79931742164791
 20
85.20771423876462
 30
0.0
 10
-14.54043546267799
 20
85.02330390390005
 30
0.0
 10
-14.33341567603843
 20
84.99452551304768
 30
0.0
 10
-14.22650146485
 20
84.97966307401611
 30
0.0
 11
-15.02038574219
 21
85.77354735136015
 31
0.0
 11
-14.95697021485
 21
85.47301024198516
 31
0.0
 11
-14.78503417969
 21
85.21812742948515
 31
0.0
 11
-14.53814697266
 21
85.04942625761016
 31
0.0
 11
-14.22650146485
 21
84.97966307401611
 31
0.0
  0
SPLINE
  5
AABC
330
1F
100
AcDbEntity
  8
AM_0
 48
0.5
100
AcDbSpline
210
0.0
220
0.0
230
1.0
 70
     8
 71
     3
 72
    11
 73
     7
 74
     5
 42
0.0000000001
 43
0.0000000001
 44
0.0000000001
 40
0.0
 40
0.0
 40
0.0
 40
0.0
 40
0.7216332902068641
 40
1.450546468462387
 40
2.171036564382361
 40
2.896920233625356
 40
2.896920233625356
 40
2.896920233625356
 40
2.896920233625356
 10
-7.889404296880002
 20
97.82713621854714
 30
0.0
 10
-8.045691431822417
 20
98.01227740129446
 30
0.0
 10
-8.359842337460149
 20
98.38442748423206
 30
0.0
 10
-9.106185157634154
 20
98.64243136727361
 30
0.0
 10
-9.797784950653541
 20
98.35070557616303
 30
0.0
 10
-10.27440976047556
 20
98.28266838785841
 30
0.0
 10
-10.51361083985
 20
98.24852293729714
 30
0.0
 11
-7.889404296880002
 21
97.82713621854714
 31
0.0
 11
-8.403930664070003
 21
98.33311766386016
 31
0.0
 11
-9.099609375
 21
98.55070799589112
 31
0.0
 11
-9.800231933600002
 21
98.38267821073515
 31
0.0
 11
-10.51361083985
 21
98.24852293729714
 31
0.0
  0
SPLINE
  5
AABD
330
1F
100
AcDbEntity
  8
AM_0
 48
0.5
100
AcDbSpline
210
0.0
220
0.0
230
1.0
 70
     8
 71
     3
 72
    11
 73
     7
 74
     5
 42
0.0000000001
 43
0.0000000001
 44
0.0000000001
 40
0.0
 40
0.0
 40
0.0
 40
0.0
 40
0.4896570354775445
 40
0.9660412197404093
 40
1.441073045364314
 40
1.926621078730372
 40
1.926621078730372
 40
1.926621078730372
 40
1.926621078730372
 10
-1.552307128910001
 20
99.24162596464112
 30
0.0
 10
-1.71505438250644
 20
99.22520242132293
 30
0.0
 10
-2.036137393639678
 20
99.19280051821516
 30
0.0
 10
-2.497971003915607
 20
99.05170483209488
 30
0.0
 10
-2.933904826850191
 20
98.84697356251038
 30
0.0
 10
-3.191667931335341
 20
98.65581668976101
 30
0.0
 10
-3.32196044922
 20
98.55919188261015
 30
0.0
 11
-1.552307128910001
 21
99.24162596464112
 31
0.0
 11
-2.03759765625
 21
99.17637938261016
 31
0.0
 11
-2.49432373047
 21
99.04094237089111
 31
0.0
 11
-2.922485351570003
 21
98.83519285917214
 31
0.0
 11
-3.32196044922
 21
98.55919188261015
 31
0.0
  0
SPLINE
  5
AABE
330
1F
100
AcDbEntity
  8
AM_0
 48
0.5
100
AcDbSpline
210
0.0
220
0.0
230
1.0
 70
     8
 71
     3
 72
    11
 73
     7
 74
     5
 42
0.0000000001
 43
0.0000000001
 44
0.0000000001
 40
0.0
 40
0.0
 40
0.0
 40
0.0
 40
0.4883119192019766
 40
0.9647347245265061
 40
1.439904403701395
 40
1.924557089439235
 40
1.924557089439235
 40
1.924557089439235
 40
1.924557089439235
 10
-0.7584228515700034
 20
98.44774168729713
 30
0.0
 10
-0.7766921096484183
 20
98.28567525289187
 30
0.0
 10
-0.8127858173104939
 20
97.96548827648861
 30
0.0
 10
-0.9548492941767038
 20
97.50462476117267
 30
0.0
 10
-1.156722523208791
 20
97.06793850247462
 30
0.0
 10
-1.343455297377057
 20
96.80735038823716
 30
0.0
 10
-1.437744140630002
 20
96.67576903104714
 30
0.0
 11
-0.7584228515700034
 21
98.44774168729713
 31
0.0
 11
-0.8283691406300022
 21
97.96446532011016
 31
0.0
 11
-0.9649658203200033
 21
97.50804442167215
 31
0.0
 11
-1.168090820320003
 21
97.07847899198515
 31
0.0
 11
-1.437744140630002
 21
96.67576903104714
 31
0.0
  0
SPLINE
  5
AABF
330
1F
100
AcDbEntity
  8
AM_0
 48
0.5
100
AcDbSpline
210
0.0
220
0.0
230
1.0
 70
     8
 71
     3
 72
    11
 73
     7
 74
     5
 42
0.0000000001
 43
0.0000000001
 44
0.0000000001
 40
0.0
 40
0.0
 40
0.0
 40
0.0
 40
0.7261136062940347
 40
1.455838879495716
 40
2.173971794633521
 40
2.896594268308393
 40
2.896594268308393
 40
2.896594268308393
 40
2.896594268308393
 10
-7.889404296880002
 20
97.82713621854714
 30
0.0
 10
-7.730241881849197
 20
98.0108437000041
 30
0.0
 10
-7.411125382794846
 20
98.37917241832171
 30
0.0
 10
-6.667189826742379
 20
98.6505203956521
 30
0.0
 10
-5.978751141201239
 20
98.34582187640361
 30
0.0
 10
-5.503542484511333
 20
98.28102322366978
 30
0.0
 10
-5.265197753910001
 20
98.24852293729714
 30
0.0
 11
-7.889404296880002
 21
97.82713621854714
 31
0.0
 11
-7.36737060547
 21
98.33183592557913
 31
0.0
 11
-6.672424316410001
 21
98.55443114042214
 31
0.0
 11
-5.975646972660001
 21
98.38060301542213
 31
0.0
 11
-5.265197753910001
 21
98.24852293729714
 31
0.0
  0
SPLINE
  5
AAC0
330
1F
100
AcDbEntity
  8
AM_0
 48
0.5
100
AcDbSpline
210
0.0
220
0.0
230
1.0
 70
     8
 71
     3
 72
    11
 73
     7
 74
     5
 42
0.0000000001
 43
0.0000000001
 44
0.0000000001
 40
0.0
 40
0.0
 40
0.0
 40
0.0
 40
0.9778214617423362
 40
1.960112741037656
 40
2.938020370621699
 40
3.9181099218619
 40
3.9181099218619
 40
3.9181099218619
 40
3.9181099218619
 10
-5.265197753910001
 20
98.24852293729714
 30
0.0
 10
-4.933665963484574
 20
98.27892036250746
 30
0.0
 10
-4.269086884483805
 20
98.33985416564095
 30
0.0
 10
-3.469788072362152
 20
98.93993675847811
 30
0.0
 10
-2.542099403078668
 20
99.33165514634836
 30
0.0
 10
-1.882482904602421
 20
99.27165797810587
 30
0.0
 10
-1.552307128910001
 20
99.24162596464112
 30
0.0
 11
-5.265197753910001
 21
98.24852293729714
 31
0.0
 11
-4.303283691410001
 21
98.42418211698515
 31
0.0
 11
-3.447204589850002
 21
98.90587157011015
 31
0.0
 11
-2.532348632820003
 21
99.25133055448515
 31
0.0
 11
-1.552307128910001
 21
99.24162596464112
 31
0.0
  0
SPLINE
  5
AAC1
330
1F
100
AcDbEntity
  8
AM_0
 48
0.5
100
AcDbSpline
210
0.0
220
0.0
230
1.0
 70
     8
 71
     3
 72
    11
 73
     7
 74
     5
 42
0.0000000001
 43
0.0000000001
 44
0.0000000001
 40
0.0
 40
0.0
 40
0.0
 40
0.0
 40
0.1366460334312753
 40
0.2483241755325907
 40
0.3573218403179167
 40
0.4879509066956772
 40
0.4879509066956772
 40
0.4879509066956772
 40
0.4879509066956772
 10
-2.172912597660001
 20
97.52427977323515
 30
0.0
 10
-2.17652732330676
 20
97.57009024203853
 30
0.0
 10
-2.18309629383205
 20
97.65334071488943
 30
0.0
 10
-2.244852029875122
 20
97.76104462415602
 30
0.0
 10
-2.351001060202973
 20
97.82239759846934
 30
0.0
 10
-2.431749948033626
 20
97.8254643972798
 30
0.0
 10
-2.47576904297
 20
97.82713621854714
 30
0.0
 11
-2.172912597660001
 21
97.52427977323515
 31
0.0
 11
-2.194763183600002
 21
97.65916746854713
 31
0.0
 11
-2.25262451172
 21
97.75468748807913
 31
0.0
 11
-2.34619140625
 21
97.81059569120413
 31
0.0
 11
-2.47576904297
 21
97.82713621854714
 31
0.0
  0
SPLINE
  5
AAC2
330
1F
100
AcDbEntity
  8
AM_0
 48
0.5
100
AcDbSpline
210
0.0
220
0.0
230
1.0
 70
     8
 71
     3
 72
    11
 73
     7
 74
     5
 42
0.0000000001
 43
0.0000000001
 44
0.0000000001
 40
0.0
 40
0.0
 40
0.0
 40
0.0
 40
0.307154819625691
 40
0.6145735303980027
 40
0.9136446251442682
 40
1.233003082560568
 40
1.233003082560568
 40
1.233003082560568
 40
1.233003082560568
 10
-0.7584228515700034
 20
98.44774168729713
 30
0.0
 10
-0.7715901251778715
 20
98.550676426125
 30
0.0
 10
-0.7979359850174321
 20
98.75663433985437
 30
0.0
 10
-0.9794282984517291
 20
99.01361512143198
 30
0.0
 10
-1.238368429624721
 20
99.19796746877608
 30
0.0
 10
-1.445397062132702
 20
99.22675830825166
 30
0.0
 10
-1.552307128910001
 20
99.24162596464112
 30
0.0
 11
-0.7584228515700034
 21
98.44774168729713
 31
0.0
 11
-0.8218383789100016
 21
98.74827879667215
 31
0.0
 11
-0.9937133789100016
 21
99.00316160917213
 31
0.0
 11
-1.240661621100002
 21
99.17186278104715
 31
0.0
 11
-1.552307128910001
 21
99.24162596464112
 31
0.0
  0
SPLINE
  5
AAC3
330
1F
100
AcDbEntity
  8
AM_0
 48
0.5
100
AcDbSpline
210
0.0
220
0.0
230
1.0
 70
     8
 71
     3
 72
    11
 73
     7
 74
     5
 42
0.0000000001
 43
0.0000000001
 44
0.0000000001
 40
0.0
 40
0.0
 40
0.0
 40
0.0
 40
0.4883119192052433
 40
0.9647347245311081
 40
1.439904403699676
 40
1.924557089440277
 40
1.924557089440277
 40
1.924557089440277
 40
1.924557089440277
 10
-14.22650146485
 20
99.24162596464112
 30
0.0
 10
-14.06443503044387
 20
99.2233567065616
 30
0.0
 10
-13.7442480540395
 20
99.18726299889733
 30
0.0
 10
-13.28338453872221
 20
99.0451995220372
 30
0.0
 10
-12.84669828002731
 20
98.84332629299974
 30
0.0
 10
-12.58611016579078
 20
98.65659351883246
 30
0.0
 10
-12.4545288086
 20
98.56230467557914
 30
0.0
 11
-14.22650146485
 21
99.24162596464112
 31
0.0
 11
-13.74322509766
 21
99.17167967557913
 31
0.0
 11
-13.28680419922
 21
99.03508299589113
 31
0.0
 11
-12.85723876954
 21
98.83195799589111
 31
0.0
 11
-12.4545288086
 21
98.56230467557914
 31
0.0
  0
SPLINE
  5
AAC4
330
1F
100
AcDbEntity
  8
AM_0
 48
0.5
100
AcDbSpline
210
0.0
220
0.0
230
1.0
 70
     8
 71
     3
 72
    11
 73
     7
 74
     5
 42
0.0000000001
 43
0.0000000001
 44
0.0000000001
 40
0.0
 40
0.0
 40
0.0
 40
0.0
 40
0.4896570354804016
 40
0.9660412197425603
 40
1.441073045361528
 40
1.926621078731365
 40
1.926621078731365
 40
1.926621078731365
 40
1.926621078731365
 10
-15.02038574219
 20
98.44774168729713
 30
0.0
 10
-15.00396219887229
 20
98.2849944336997
 30
0.0
 10
-14.97156029576563
 20
97.96391142256567
 30
0.0
 10
-14.8304646096452
 20
97.50207781229025
 30
0.0
 10
-14.62573334005471
 20
97.06614398935968
 30
0.0
 10
-14.43457646730955
 20
96.8083808848722
 30
0.0
 10
-14.33795166016
 20
96.67808836698515
 30
0.0
 11
-15.02038574219
 21
98.44774168729713
 31
0.0
 11
-14.95513916016
 21
97.96245115995413
 31
0.0
 11
-14.81970214844
 21
97.50572508573515
 31
0.0
 11
-14.61395263672
 21
97.07756346464112
 31
0.0
 11
-14.33795166016
 21
96.67808836698515
 31
0.0
  0
SPLINE
  5
AAC5
330
1F
100
AcDbEntity
  8
AM_0
 48
0.5
100
AcDbSpline
210
0.0
220
0.0
230
1.0
 70
     8
 71
     3
 72
    11
 73
     7
 74
     5
 42
0.0000000001
 43
0.0000000001
 44
0.0000000001
 40
0.0
 40
0.0
 40
0.0
 40
0.0
 40
0.9759866351664813
 40
1.95704332578604
 40
2.934705213054845
 40
3.912836439419958
 40
3.912836439419958
 40
3.912836439419958
 40
3.912836439419958
 10
-10.51361083985
 20
98.24852293729714
 30
0.0
 10
-10.84244403898336
 20
98.28756398810288
 30
0.0
 10
-11.50181865998015
 20
98.3658489001683
 30
0.0
 10
-12.31033714025168
 20
98.94400784649022
 30
0.0
 10
-13.23840986200614
 20
99.3296935592606
 30
0.0
 10
-13.89708490898508
 20
99.27098652556418
 30
0.0
 10
-14.22650146485
 20
99.24162596464112
 30
0.0
 11
-10.51361083985
 21
98.24852293729714
 31
0.0
 11
-11.47021484374999
 21
98.44206541776612
 31
0.0
 11
-12.33117675782
 21
98.91240233182912
 31
0.0
 11
-13.24841308594
 21
99.25078123807914
 31
0.0
 11
-14.22650146485
 21
99.24162596464112
 31
0.0
  0
SPLINE
  5
AAC6
330
1F
100
AcDbEntity
  8
AM_0
 48
0.5
100
AcDbSpline
210
0.0
220
0.0
230
1.0
 70
     8
 71
     3
 72
    11
 73
     7
 74
     5
 42
0.0000000001
 43
0.0000000001
 44
0.0000000001
 40
0.0
 40
0.0
 40
0.0
 40
0.0
 40
0.1366558066273321
 40
0.2483023381377695
 40
0.3573524018414197
 40
0.4879209245610364
 40
0.4879209245610364
 40
0.4879209245610364
 40
0.4879209245610364
 10
-13.30303955079
 20
97.82713621854714
 30
0.0
 10
-13.34884447655495
 20
97.82348906544903
 30
0.0
 10
-13.43207160349792
 20
97.81686222196428
 30
0.0
 10
-13.53984346533342
 20
97.75520138848861
 30
0.0
 10
-13.60112970223071
 20
97.64900938969377
 30
0.0
 10
-13.60421487881096
 20
97.56827309811912
 30
0.0
 10
-13.6058959961
 20
97.52427977323515
 30
0.0
 11
-13.30303955079
 21
97.82713621854714
 31
0.0
 11
-13.4379272461
 21
97.80522459745412
 31
0.0
 11
-13.53344726563
 21
97.74742430448515
 31
0.0
 11
-13.58935546875
 21
97.65379637479714
 31
0.0
 11
-13.6058959961
 21
97.52427977323515
 31
0.0
  0
SPLINE
  5
AAC7
330
1F
100
AcDbEntity
  8
AM_0
 48
0.5
100
AcDbSpline
210
0.0
220
0.0
230
1.0
 70
     8
 71
     3
 72
    11
 73
     7
 74
     5
 42
0.0000000001
 43
0.0000000001
 44
0.0000000001
 40
0.0
 40
0.0
 40
0.0
 40
0.0
 40
0.3071548196216181
 40
0.6146076587580998
 40
0.9136787535046993
 40
1.232977650129078
 40
1.232977650129078
 40
1.232977650129078
 40
1.232977650129078
 10
-14.22650146485
 20
99.24162596464112
 30
0.0
 10
-14.3294391882017
 20
99.2284629777886
 30
0.0
 10
-14.53541451108614
 20
99.20212423258625
 30
0.0
 10
-14.79235774405325
 20
99.02055344060132
 30
0.0
 10
-14.97671731166001
 20
98.76164027653627
 30
0.0
 10
-15.00551558720879
 20
98.55463173609706
 30
0.0
 10
-15.02038574219
 20
98.44774168729713
 30
0.0
 11
-14.22650146485
 21
99.24162596464112
 31
0.0
 11
-14.52703857422
 21
99.17821043729714
 31
0.0
 11
-14.78192138672
 21
99.00627440214112
 31
0.0
 11
-14.9506225586
 21
98.75932615995413
 31
0.0
 11
-15.02038574219
 21
98.44774168729713
 31
0.0
  0
ELLIPSE
  5
AAC8
330
1F
100
AcDbEntity
  8
AM_0
 48
0.5
100
AcDbEllipse
 10
-16.94177246094
 20
87.35084837675117
 30
0.0
 11
-0.0093382522500178
 21
5.172882234298
 31
0.0
210
0.0
220
0.0
230
0.9999999999999998
 40
0.1691395493024
 41
4.283268405642169
 42
4.379396196941963
  0
ELLIPSE
  5
AAC9
330
1F
100
AcDbEntity
  8
AM_0
 48
0.5
100
AcDbEllipse
 10
-13.24926757813
 20
86.36326903104714
 30
0.0
 11
19.04028287776
 21
0.0342712400359986
 31
0.0
210
0.0
220
0.0
230
1.0
 40
0.0370693334848
 41
4.561430208672464
 42
4.579143294499141
  0
LINE
  5
AACA
330
1F
100
AcDbEntity
  8
AM_11
100
AcDbLine
 10
-62.0
 20
59.80000305175798
 30
0.0
 11
-28.5
 21
59.80000305175798
 31
0.0
  0
LINE
  5
AACB
330
1F
100
AcDbEntity
  8
AM_11
100
AcDbLine
 10
-62.0
 20
41.80000305175798
 30
0.0
 11
-28.5
 21
41.80000305175798
 31
0.0
  0
LINE
  5
AACC
330
1F
100
AcDbEntity
  8
AM_7
100
AcDbLine
 10
-70.5
 20
50.80000305175798
 30
0.0
 11
-20.50006103516
 21
50.80000305175798
 31
0.0
  0
LINE
  5
AACD
330
1F
100
AcDbEntity
  8
AM_0
100
AcDbLine
 10
-61.5
 20
23.8125
 30
0.0
 11
-29.0
 21
23.8125
 31
0.0
  0
LINE
  5
AACE
330
1F
100
AcDbEntity
  8
AM_0
100
AcDbLine
 10
-61.5
 20
-23.8125
 30
0.0
 11
-29.0
 21
-23.8125
 31
0.0
  0
LINE
  5
AACF
330
1F
100
AcDbEntity
  8
AM_0
 48
0.5
100
AcDbLine
 10
-61.99996948242
 20
12.69999999999998
 30
0.0
 11
-49.0
 21
12.69999999999998
 31
0.0
  0
LINE
  5
AAD0
330
1F
100
AcDbEntity
  8
AM_0
 48
0.5
100
AcDbLine
 10
-62.0
 20
-12.69999999999998
 30
0.0
 11
-49.0
 21
-12.69999999999998
 31
0.0
  0
LINE
  5
AAD1
330
1F
100
AcDbEntity
  8
AM_0
 48
0.5
100
AcDbLine
 10
-60.0
 20
75.0
 30
0.0
 11
-53.0
 21
75.0
 31
0.0
  0
LINE
  5
AAD2
330
1F
100
AcDbEntity
  8
AM_7
100
AcDbLine
 10
-70.68691190402614
 20
0.0
 30
0.0
 11
2.948120117179996
 21
0.0
 31
0.0
  0
LINE
  5
AAD5
330
1F
100
AcDbEntity
  8
AM_0
 48
0.5
100
AcDbLine
 10
-61.5
 20
-12.69999999999998
 30
0.0
 11
-61.5
 21
-23.8125
 31
0.0
  0
LINE
  5
AAD6
330
1F
100
AcDbEntity
  8
AM_0
 48
0.5
100
AcDbLine
 10
-63.0
 20
-13.69999999999998
 30
0.0
 11
-63.0
 21
-40.80000305175798
 31
0.0
  0
LINE
  5
AAD8
330
1F
100
AcDbEntity
  8
AM_0
 48
0.5
100
AcDbLine
 10
-61.50003051758
 20
-23.8125
 30
0.0
 11
-63.00003051758
 21
-25.3125
 31
0.0
  0
LINE
  5
AAD9
330
1F
100
AcDbEntity
  8
AM_11
100
AcDbLine
 10
-62.0
 20
59.80000305175798
 30
0.0
 11
-62.0
 21
41.80000305175798
 31
0.0
  0
LINE
  5
AADA
330
1F
100
AcDbEntity
  8
AM_0
 48
0.5
100
AcDbLine
 10
-63.0
 20
65.0
 30
0.0
 11
-63.0
 21
40.80000305175798
 31
0.0
  0
LINE
  5
AADB
330
1F
100
AcDbEntity
  8
AM_0
 48
0.5
100
AcDbLine
 10
-63.0
 20
40.80000305175798
 30
0.0
 11
-63.0
 21
13.69999999999998
 31
0.0
  0
LINE
  5
AADC
330
1F
100
AcDbEntity
  8
AM_0
 48
0.5
100
AcDbLine
 10
-61.5
 20
23.8125
 30
0.0
 11
-61.5
 21
12.69999999999998
 31
0.0
  0
LINE
  5
AADE
330
1F
100
AcDbEntity
  8
AM_0
 48
0.5
100
AcDbLine
 10
-62.0
 20
-12.69999999999998
 30
0.0
 11
-63.0
 21
-13.69998474120998
 31
0.0
  0
LINE
  5
AADF
330
1F
100
AcDbEntity
  8
AM_0
 48
0.5
100
AcDbLine
 10
-62.99996948242
 20
13.70000762938997
 30
0.0
 11
-61.99996948242
 21
12.69999999999998
 31
0.0
  0
LINE
  5
AAE0
330
1F
100
AcDbEntity
  8
AM_0
 48
0.5
100
AcDbLine
 10
-61.5
 20
23.81250762939498
 30
0.0
 11
-63.0
 21
25.31251525878997
 31
0.0
  0
LINE
  5
AAE1
330
1F
100
AcDbEntity
  8
AM_11
100
AcDbLine
 10
-62.0
 20
41.80001068115302
 30
0.0
 11
-63.0
 21
40.80001068115302
 31
0.0
  0
LINE
  5
AAE4
330
1F
100
AcDbEntity
  8
AM_0
 48
0.5
100
AcDbLine
 10
-62.0
 20
73.0
 30
0.0
 11
-62.0
 21
66.0
 31
0.0
  0
LINE
  5
AAE5
330
1F
100
AcDbEntity
  8
AM_11
100
AcDbLine
 10
-63.0
 20
60.799999237061
 30
0.0
 11
-62.0
 21
59.799999237061
 31
0.0
  0
LINE
  5
AAE6
330
1F
100
AcDbEntity
  8
AM_0
 48
0.5
100
AcDbLine
 10
-63.0
 20
65.0
 30
0.0
 11
-61.99996948242
 21
65.99998092651401
 31
0.0
  0
ARC
  5
AAE7
330
1F
100
AcDbEntity
  8
AM_0
 48
0.5
100
AcDbCircle
 10
-60.0
 20
73.0
 30
0.0
 40
2.0
100
AcDbArc
 50
89.99998201391097
 51
179.9999640278186
  0
LINE
  5
AAE8
330
1F
100
AcDbEntity
  8
AM_0
100
AcDbLine
 10
-28.0
 20
65.0
 30
0.0
 11
-28.0
 21
-24.8125
 31
0.0
  0
LINE
  5
AAE9
330
1F
100
AcDbEntity
  8
AM_0
100
AcDbLine
 10
-1.000061035160001
 20
84.22130125761015
 30
0.0
 11
-1.000061035160001
 21
-84.22131347656298
 31
0.0
  0
LINE
  5
AAEC
330
1F
100
AcDbEntity
  8
AM_0
 48
0.5
100
AcDbLine
 10
-28.0
 20
-24.8125
 30
0.0
 11
-28.0
 21
-65.0
 31
0.0
  0
ARC
  5
AAED
330
1F
100
AcDbEntity
  8
AM_0
 48
0.5
100
AcDbCircle
 10
-29.0
 20
-24.8125
 30
0.0
 40
1.0
100
AcDbArc
 50
0.0
 51
89.99998201391097
  0
LINE
  5
AAEE
330
1F
100
AcDbEntity
  8
AM_11
100
AcDbLine
 10
-28.5
 20
59.80000305175798
 30
0.0
 11
-28.5
 21
41.80000305175798
 31
0.0
  0
LINE
  5
AAEF
330
1F
100
AcDbEntity
  8
AM_0
 48
0.5
100
AcDbLine
 10
-49.0
 20
12.69999999999998
 30
0.0
 11
-49.0
 21
-12.69999999999998
 31
0.0
  0
ARC
  5
AAF0
330
1F
100
AcDbEntity
  8
AM_0
 48
0.5
100
AcDbCircle
 10
-29.0
 20
24.8125
 30
0.0
 40
1.0
100
AcDbArc
 50
270.000017986089
 51
0.0
  0
LINE
  5
AAF1
330
1F
100
AcDbEntity
  8
AM_11
100
AcDbLine
 10
-28.5
 20
41.80000305175798
 30
0.0
 11
-28.0
 21
41.30000305175798
 31
0.0
  0
ARC
  5
AAF2
330
1F
100
AcDbEntity
  8
AM_0
 48
0.5
100
AcDbCircle
 10
-15.06484985352
 20
75.0
 30
0.0
 40
10.0
100
AcDbArc
 50
270.000017986089
 51
334.9999759678329
  0
ARC
  5
AAF3
330
1F
100
AcDbEntity
  8
AM_0
 48
0.5
100
AcDbCircle
 10
-10.53765869141
 20
100.8453857302661
 30
0.0
 40
2.981073141097999
100
AcDbArc
 50
229.6777230133534
 51
284.6980386648224
  0
ARC
  5
AAF4
330
1F
100
AcDbEntity
  8
AM_0
 48
0.5
100
AcDbCircle
 10
-10.5267944336
 20
83.31907957792214
 30
0.0
 40
3.0356278419495
100
AcDbArc
 50
75.77320340677501
 51
129.4803332280379
  0
ARC
  5
AAF5
330
1F
100
AcDbEntity
  8
AM_0
 48
0.5
100
AcDbCircle
 10
-10.59625244141
 20
107.5517455935471
 30
0.0
 40
10.09431266784599
100
AcDbArc
 50
254.4470215478133
 51
285.5543941225803
  0
ARC
  5
AAF6
330
1F
100
AcDbEntity
  8
AM_0
 48
0.5
100
AcDbCircle
 10
-10.59625244141
 20
76.66783446073515
 30
0.0
 40
10.09591865539499
100
AcDbArc
 50
74.44820817949177
 51
105.5505537350365
  0
CIRCLE
  5
AAF7
330
1F
100
AcDbEntity
  8
AM_0
 48
0.5
100
AcDbCircle
 10
-7.889404296880002
 20
92.11064451932912
 30
0.0
 40
3.9000000953674
  0
LINE
  5
AAF8
330
1F
100
AcDbEntity
  8
AM_0
 48
0.5
100
AcDbLine
 10
-14.97875976563
 20
84.22130125761015
 30
0.0
 11
-0.8000488281300022
 21
84.22130125761015
 31
0.0
  0
LINE
  5
AAF9
330
1F
100
AcDbEntity
  8
AM_0
 48
0.5
100
AcDbLine
 10
-0.99853515625
 20
84.41978758573515
 30
0.0
 11
-14.7802734375
 21
84.41978758573515
 31
0.0
  0
LINE
  5
AAFA
330
1F
100
AcDbEntity
  8
AM_0
 48
0.5
100
AcDbLine
 10
-14.7802734375
 20
99.80150145292213
 30
0.0
 11
-0.99853515625
 21
99.80150145292213
 31
0.0
  0
LINE
  5
AAFB
330
1F
100
AcDbEntity
  8
AM_0
 48
0.5
100
AcDbLine
 10
-14.97875976563
 20
99.99998778104714
 30
0.0
 11
-0.8000488281300022
 21
99.99998778104714
 31
0.0
  0
ARC
  5
AAFC
330
1F
100
AcDbEntity
  8
AM_0
100
AcDbCircle
 10
-53.0
 20
95.0
 30
0.0
 40
20.0
100
AcDbArc
 50
270.000017986089
 51
0.0
  0
LINE
  5
AAFD
330
1F
100
AcDbEntity
  8
AM_0
 48
0.5
100
AcDbLine
 10
-28.0
 20
65.0
 30
0.0
 11
-15.06484985352
 21
65.0
 31
0.0
  0
LINE
  5
AAFE
330
1F
100
AcDbEntity
  8
AM_11
100
AcDbLine
 10
-28.0
 20
60.299999237061
 30
0.0
 11
-28.5
 21
59.799999237061
 31
0.0
  0
ARC
  5
AAFF
330
1F
100
AcDbEntity
  8
AM_0
 48
0.5
100
AcDbCircle
 10
-31.0
 20
95.5
 30
0.0
 40
2.0
100
AcDbArc
 50
89.99998201391097
 51
179.9999640278186
  0
LINE
  5
AB00
330
1F
100
AcDbEntity
  8
AM_7
 48
0.5
100
AcDbLine
 10
-36.58206176758
 20
88.64284056425118
 30
0.0
 11
-17.05828857422
 21
88.64284056425118
 31
0.0
  0
LINE
  5
AB01
330
1F
100
AcDbEntity
  8
AM_0
 48
0.5
100
AcDbLine
 10
-15.02047729493
 20
98.44785422086715
 30
0.0
 11
-15.77877807618
 21
99.20008391141914
 31
0.0
  0
LINE
  5
AB02
330
1F
100
AcDbEntity
  8
AM_0
 48
0.5
100
AcDbLine
 10
-14.22654724121002
 20
99.24159353971413
 30
0.0
 11
-13.30307006836
 21
97.82708662748314
 31
0.0
  0
LINE
  5
AB03
330
1F
100
AcDbEntity
  8
AM_0
 48
0.5
100
AcDbLine
 10
-15.7787475586
 20
85.02128905057913
 30
0.0
 11
-15.7787475586
 21
99.19999998807913
 31
0.0
  0
LINE
  5
AB04
330
1F
100
AcDbEntity
  8
AM_0
 48
0.5
100
AcDbLine
 10
-15.58026123047
 20
99.00151365995412
 30
0.0
 11
-15.58026123047
 21
85.21977537870412
 31
0.0
  0
LINE
  5
AB05
330
1F
100
AcDbEntity
  8
AM_0
 48
0.5
100
AcDbLine
 10
-18.54608154297
 20
86.64174193143811
 30
0.0
 11
-24.04608154297
 21
86.64174193143811
 31
0.0
  0
LINE
  5
AB06
330
1F
100
AcDbEntity
  8
AM_0
 48
0.5
100
AcDbLine
 10
-31.0
 20
97.5
 30
0.0
 11
-15.7787475586
 21
97.5
 31
0.0
  0
LINE
  5
AB07
330
1F
100
AcDbEntity
  8
AM_0
 48
0.5
100
AcDbLine
 10
-24.04608154297
 20
90.6439391970631
 30
0.0
 11
-18.54608154297
 21
90.6439391970631
 31
0.0
  0
LINE
  5
AB08
330
1F
100
AcDbEntity
  8
AM_0
 48
0.5
100
AcDbLine
 10
-23.54608154297
 20
91.14284056425118
 30
0.0
 11
-18.54608154297
 21
91.14284056425118
 31
0.0
  0
LINE
  5
AB09
330
1F
100
AcDbEntity
  8
AM_0
 48
0.5
100
AcDbLine
 10
-23.54608154297
 20
86.14284056425118
 30
0.0
 11
-18.54608154297
 21
86.14284056425118
 31
0.0
  0
LINE
  5
AB0A
330
1F
100
AcDbEntity
  8
AM_0
 48
0.5
100
AcDbLine
 10
-23.54333496094
 20
91.14284056425118
 30
0.0
 11
-23.54333496094
 21
86.14284056425118
 31
0.0
  0
LINE
  5
AB0B
330
1F
100
AcDbEntity
  8
AM_0
 48
0.5
100
AcDbLine
 10
-24.04608154297
 20
90.64284056425117
 30
0.0
 11
-24.04608154297
 21
86.64284056425117
 31
0.0
  0
LINE
  5
AB0C
330
1F
100
AcDbEntity
  8
AM_0
 48
0.5
100
AcDbLine
 10
-24.04605102539
 20
86.64282149076417
 30
0.0
 11
-23.54608154297
 21
86.14283293485613
 31
0.0
  0
LINE
  5
AB0D
330
1F
100
AcDbEntity
  8
AM_0
 48
0.5
100
AcDbLine
 10
-33.0
 20
95.5
 30
0.0
 11
-33.0
 21
95.0
 31
0.0
  0
LINE
  5
AB0E
330
1F
100
AcDbEntity
  8
AM_0
 48
0.5
100
AcDbLine
 10
-24.04598999024
 20
90.64280623197509
 30
0.0
 11
-23.54602050782
 21
91.14279097318615
 31
0.0
  0
ARC
  5
AB0F
330
1F
100
AcDbEntity
  8
AM_0
 48
0.5
100
AcDbCircle
 10
-23.3305053711
 20
89.40385740995413
 30
0.0
 40
10.09431266784599
100
AcDbArc
 50
344.4468123164258
 51
15.55418147610158
  0
LINE
  5
AB10
330
1F
100
AcDbEntity
  8
AM_0
 48
0.5
100
AcDbLine
 10
-18.54608154297
 20
91.14284056425118
 30
0.0
 11
-18.54608154297
 21
86.14284056425118
 31
0.0
  0
LINE
  5
AB11
330
1F
100
AcDbEntity
  8
AM_0
 48
0.5
100
AcDbLine
 10
-18.04608154297
 20
90.64287108182913
 30
0.0
 11
-18.04608154297
 21
86.64281004667214
 31
0.0
  0
LINE
  5
AB12
330
1F
100
AcDbEntity
  8
AM_0
 48
0.5
100
AcDbLine
 10
-18.04608154297
 20
91.08476561307913
 30
0.0
 11
-18.04608154297
 21
85.20091551542213
 31
0.0
  0
LINE
  5
AB13
330
1F
100
AcDbEntity
  8
AM_0
 48
0.5
100
AcDbLine
 10
-15.978515625
 20
91.08474653959218
 30
0.0
 11
-15.98907470704
 21
90.59688490629213
 31
0.0
  0
ARC
  5
AB14
330
1F
100
AcDbEntity
  8
AM_0
 48
0.5
100
AcDbCircle
 10
-14.97875976563
 20
85.02128905057913
 30
0.0
 40
0.8000000119209
100
AcDbArc
 50
179.9999776881986
 51
270.0000280039996
  0
LINE
  5
AB15
330
1F
100
AcDbEntity
  8
AM_0
 48
0.5
100
AcDbLine
 10
-15.77877807618
 20
90.59788054227817
 30
0.0
 11
-15.98910522461
 21
90.59711951017311
 31
0.0
  0
LINE
  5
AB16
330
1F
100
AcDbEntity
  8
AM_0
 48
0.5
100
AcDbLine
 10
-18.54608154297
 20
86.14284628629617
 30
0.0
 11
-18.04608154297
 21
86.64281004667214
 31
0.0
  0
LINE
  5
AB17
330
1F
100
AcDbEntity
  8
AM_0
 48
0.5
100
AcDbLine
 10
-18.04608154297
 20
85.20091551542213
 30
0.0
 11
-16.14221191407
 21
85.20091551542213
 31
0.0
  0
ARC
  5
AB18
330
1F
100
AcDbEntity
  8
AM_0
 48
0.5
100
AcDbCircle
 10
-14.7802734375
 20
85.21977537870412
 30
0.0
 40
0.8000000119209
100
AcDbArc
 50
179.9999776881986
 51
270.0000280039996
  0
LINE
  5
AB19
330
1F
100
AcDbEntity
  8
AM_0
 48
0.5
100
AcDbLine
 10
-13.27790832519997
 20
88.49136275053012
 30
0.0
 11
-14.30125427246002
 21
87.59720724821113
 31
0.0
  0
LINE
  5
AB1A
330
1F
100
AcDbEntity
  8
AM_0
 48
0.5
100
AcDbLine
 10
-14.02728271485
 20
89.48643797636014
 30
0.0
 11
-13.64318847657
 21
89.48643797636014
 31
0.0
  0
LINE
  5
AB1B
330
1F
100
AcDbEntity
  8
AM_0
 48
0.5
100
AcDbLine
 10
-13.74064636231003
 20
90.21877783536911
 30
0.0
 11
-13.27758789063
 21
90.31594389677014
 31
0.0
  0
LINE
  5
AB1C
330
1F
100
AcDbEntity
  8
AM_0
 48
0.5
100
AcDbLine
 10
-15.02041625977
 20
85.7735397219651
 30
0.0
 11
-13.60592651368
 21
86.69706267118414
 31
0.0
  0
LINE
  5
AB1D
330
1F
100
AcDbEntity
  8
AM_0
 48
0.5
100
AcDbLine
 10
-13.30314636231003
 20
86.39422911405517
 30
0.0
 11
-14.22659301758
 21
84.97974699735612
 31
0.0
  0
LINE
  5
AB1E
330
1F
100
AcDbEntity
  8
AM_0
 48
0.5
100
AcDbLine
 10
-15.7787475586
 20
85.01469534635516
 30
0.0
 11
-15.02038574219
 21
85.77355498075418
 31
0.0
  0
LINE
  5
AB1F
330
1F
100
AcDbEntity
  8
AM_0
 48
0.5
100
AcDbLine
 10
-14.22662353516
 20
84.9796954989431
 30
0.0
 11
-14.98544311524
 21
84.22134512662911
 31
0.0
  0
LINE
  5
AB20
330
1F
100
AcDbEntity
  8
AM_0
 48
0.5
100
AcDbLine
 10
-11.50842285157
 20
86.72241896390914
 30
0.0
 11
-12.45684814454
 21
85.66212385892811
 31
0.0
  0
LINE
  5
AB21
330
1F
100
AcDbEntity
  8
AM_0
 48
0.5
100
AcDbLine
 10
-10.51361083985
 20
86.35686033964111
 30
0.0
 11
-10.51361083985
 21
85.97276610136015
 31
0.0
  0
LINE
  5
AB22
330
1F
100
AcDbEntity
  8
AM_0
 48
0.5
100
AcDbLine
 10
-18.54602050782
 20
91.14288824796615
 30
0.0
 11
-18.04602050782
 21
90.64291495084717
 31
0.0
  0
LINE
  5
AB23
330
1F
100
AcDbEntity
  8
AM_0
 48
0.5
100
AcDbLine
 10
-18.04608154297
 20
91.08476561307913
 30
0.0
 11
-15.97857666016
 21
91.08476561307913
 31
0.0
  0
ARC
  5
AB24
330
1F
100
AcDbEntity
  8
AM_0
 48
0.5
100
AcDbCircle
 10
-23.3305053711
 20
94.81749266386016
 30
0.0
 40
10.09431266784599
100
AcDbArc
 50
344.4454462785915
 51
15.55280007034313
  0
LINE
  5
AB25
330
1F
100
AcDbEntity
  8
AM_0
 48
0.5
100
AcDbLine
 10
-13.7406616211
 20
94.00248068571114
 30
0.0
 11
-13.27749633789
 21
93.90524405241013
 31
0.0
  0
LINE
  5
AB26
330
1F
100
AcDbEntity
  8
AM_0
 48
0.5
100
AcDbLine
 10
-14.02728271485
 20
94.73485106229714
 30
0.0
 11
-13.64318847657
 21
94.73485106229714
 31
0.0
  0
LINE
  5
AB27
330
1F
100
AcDbEntity
  8
AM_0
 48
0.5
100
AcDbLine
 10
-10.51361083985
 20
98.24852293729714
 30
0.0
 11
-10.51361083985
 21
97.86442869901613
 31
0.0
  0
LINE
  5
AB28
330
1F
100
AcDbEntity
  8
AM_0
 48
0.5
100
AcDbLine
 10
-12.45683288575003
 20
98.55915373563716
 30
0.0
 11
-11.50865173340003
 21
97.49909514188715
 31
0.0
  0
LINE
  5
AB29
330
1F
100
AcDbEntity
  8
AM_0
 48
0.5
100
AcDbLine
 10
-15.0205078125
 20
98.44776839017811
 30
0.0
 11
-13.60595703125
 21
97.52426069974911
 31
0.0
  0
LINE
  5
AB2A
330
1F
100
AcDbEntity
  8
AM_0
 48
0.5
100
AcDbLine
 10
-15.7787475586
 20
92.11064451932912
 30
0.0
 11
-13.6058959961
 21
92.11064451932912
 31
0.0
  0
ARC
  5
AB2B
330
1F
100
AcDbEntity
  8
AM_0
 48
0.5
100
AcDbCircle
 10
-14.97875976563
 20
99.19999998807913
 30
0.0
 40
0.8000000119209
100
AcDbArc
 50
89.99998201391097
 51
179.9999640278186
  0
ARC
  5
AB2C
330
1F
100
AcDbEntity
  8
AM_0
 48
0.5
100
AcDbCircle
 10
-14.7802734375
 20
99.00151365995412
 30
0.0
 40
0.8000000119209
100
AcDbArc
 50
89.99998201391097
 51
179.9999640278186
  0
LINE
  5
AB2D
330
1F
100
AcDbEntity
  8
AM_0
 48
0.5
100
AcDbLine
 10
-14.97879028321
 20
99.99993914365711
 30
0.0
 11
-14.22653198243
 21
99.24157828092512
 31
0.0
  0
LINE
  5
AB2E
330
1F
100
AcDbEntity
  8
AM_0
 48
0.5
100
AcDbLine
 10
-6.001785278319971
 20
70.77382278442399
 30
0.0
 11
-1.000076293949973
 21
81.50001144409202
 31
0.0
  0
LINE
  5
AB30
330
1F
100
AcDbEntity
  8
AM_0
 48
0.5
100
AcDbLine
 10
-0.7585906982500319
 20
98.44783133268311
 30
0.0
 11
-0.0002136230500014
 21
99.20011061429915
 31
0.0
  0
LINE
  5
AB31
330
1F
100
AcDbEntity
  8
AM_0
 48
0.5
100
AcDbLine
 10
-1.552200317389974
 20
99.24182146787615
 30
0.0
 11
-2.475830078130002
 21
97.82716482877715
 31
0.0
  0
LINE
  5
AB32
330
1F
100
AcDbEntity
  8
AM_0
 48
0.5
100
AcDbLine
 10
-0.1985473632900039
 20
85.21977537870412
 30
0.0
 11
-0.1985473632900039
 21
99.00151365995412
 31
0.0
  0
LINE
  5
AB33
330
1F
100
AcDbEntity
  8
AM_0
 48
0.5
100
AcDbLine
 10
-0.0000610351600017
 20
99.19999998807913
 30
0.0
 11
-0.0000610351600017
 21
85.02128905057913
 31
0.0
  0
LINE
  5
AB34
330
1F
100
AcDbEntity
  8
AM_0
 48
0.5
100
AcDbLine
 10
-7.889404296880002
 20
99.99998778104714
 30
0.0
 11
-7.889404296880002
 21
97.82713621854714
 31
0.0
  0
ARC
  5
AB35
330
1F
100
AcDbEntity
  8
AM_0
 48
0.5
100
AcDbCircle
 10
7.551696777339998
 20
89.40385740995413
 30
0.0
 40
10.09431266784599
100
AcDbArc
 50
164.4457927970038
 51
195.5530970698862
  0
ARC
  5
AB36
330
1F
100
AcDbEntity
  8
AM_0
 48
0.5
100
AcDbCircle
 10
-5.253723144540003
 20
83.31962889432913
 30
0.0
 40
3.0323553085327
100
AcDbArc
 50
50.28686478305525
 51
104.2013113362024
  0
ARC
  5
AB37
330
1F
100
AcDbEntity
  8
AM_0
 48
0.5
100
AcDbCircle
 10
-5.182556152350002
 20
76.66783446073515
 30
0.0
 40
10.09591865539499
100
AcDbArc
 50
74.44979961356967
 51
105.5518104898401
  0
LINE
  5
AB38
330
1F
100
AcDbEntity
  8
AM_0
 48
0.5
100
AcDbLine
 10
-4.270370483400029
 20
86.72243040800116
 30
0.0
 11
-3.324295043949973
 21
85.65893286466609
 31
0.0
  0
ARC
  5
AB39
330
1F
100
AcDbEntity
  8
AM_0
 48
0.5
100
AcDbCircle
 10
-6.839477539070003
 20
87.78618162870413
 30
0.0
 40
1.7435697317123
100
AcDbArc
 50
232.9764584956616
 51
298.8708997586524
  0
ARC
  5
AB3A
330
1F
100
AcDbEntity
  8
AM_0
 48
0.5
100
AcDbCircle
 10
-8.932922363290003
 20
87.72447508573515
 30
0.0
 40
1.690773367881799
100
AcDbArc
 50
239.9066962766346
 51
308.1109914037105
  0
LINE
  5
AB3B
330
1F
100
AcDbEntity
  8
AM_0
 48
0.5
100
AcDbLine
 10
-5.265197753910001
 20
86.35686033964111
 30
0.0
 11
-5.265197753910001
 21
85.97276610136015
 31
0.0
  0
LINE
  5
AB3C
330
1F
100
AcDbEntity
  8
AM_0
 48
0.5
100
AcDbLine
 10
-6.09465026856003
 20
86.72247618436813
 30
0.0
 11
-5.944686889650029
 21
86.27224463224411
 31
0.0
  0
LINE
  5
AB3D
330
1F
100
AcDbEntity
  8
AM_0
 48
0.5
100
AcDbLine
 10
-9.833923339850002
 20
86.27456206083314
 30
0.0
 11
-9.684661865240002
 21
86.72258108854316
 31
0.0
  0
LINE
  5
AB3E
330
1F
100
AcDbEntity
  8
AM_0
 48
0.5
100
AcDbLine
 10
-7.889404296880002
 20
84.22130125761015
 30
0.0
 11
-7.889404296880002
 21
86.39415282011015
 31
0.0
  0
ARC
  5
AB3F
330
1F
100
AcDbEntity
  8
AM_0
 48
0.5
100
AcDbCircle
 10
-0.99853515625
 20
85.21977537870412
 30
0.0
 40
0.8000000119209
100
AcDbArc
 50
270.000017986089
 51
0.0
  0
ARC
  5
AB40
330
1F
100
AcDbEntity
  8
AM_0
 48
0.5
100
AcDbCircle
 10
-0.8000488281300022
 20
85.02128905057913
 30
0.0
 40
0.8000000119209
100
AcDbArc
 50
270.000017986089
 51
0.0
  0
LINE
  5
AB41
330
1F
100
AcDbEntity
  8
AM_0
 48
0.5
100
AcDbLine
 10
-2.135620117190001
 20
89.48643797636014
 30
0.0
 11
-1.751525878910001
 21
89.48643797636014
 31
0.0
  0
LINE
  5
AB42
330
1F
100
AcDbEntity
  8
AM_0
 48
0.5
100
AcDbLine
 10
-2.501281738290003
 20
90.31597441434815
 30
0.0
 11
-2.038101196289971
 21
90.21880835294712
 31
0.0
  0
LINE
  5
AB43
330
1F
100
AcDbEntity
  8
AM_0
 48
0.5
100
AcDbLine
 10
-2.50115966797
 20
88.49158018827415
 30
0.0
 11
-1.440826416020001
 21
87.54313963651611
 31
0.0
  0
LINE
  5
AB44
330
1F
100
AcDbEntity
  8
AM_0
 48
0.5
100
AcDbLine
 10
-0.7584686279300286
 20
85.77352446317616
 30
0.0
 11
-2.172912597660001
 21
86.69697684049618
 31
0.0
  0
LINE
  5
AB45
330
1F
100
AcDbEntity
  8
AM_0
 48
0.5
100
AcDbLine
 10
-0.0000305175800008
 20
85.02122801542213
 30
0.0
 11
-0.7584533691399998
 21
85.77351301908516
 31
0.0
  0
LINE
  5
AB46
330
1F
100
AcDbEntity
  8
AM_0
 48
0.5
100
AcDbLine
 10
-2.47581481934003
 20
86.39411658048613
 30
0.0
 11
-1.552337646490002
 21
84.97960776090611
 31
0.0
  0
ARC
  5
AB47
330
1F
100
AcDbEntity
  8
AM_0
 48
0.5
100
AcDbCircle
 10
-5.24627685547
 20
100.8765136599541
 30
0.0
 40
3.012139081955
100
AcDbArc
 50
244.3321670851798
 51
311.2082055696508
  0
ARC
  5
AB48
330
1F
100
AcDbEntity
  8
AM_0
 48
0.5
100
AcDbCircle
 10
-5.182556152350002
 20
107.5517455935471
 30
0.0
 40
10.09431266784599
100
AcDbArc
 50
254.4456008684603
 51
285.5530417451272
  0
LINE
  5
AB49
330
1F
100
AcDbEntity
  8
AM_0
 48
0.5
100
AcDbLine
 10
-3.322067260750031
 20
98.55923193693115
 30
0.0
 11
-4.270492553710028
 21
97.49886435270315
 31
0.0
  0
ARC
  5
AB4A
330
1F
100
AcDbEntity
  8
AM_0
 48
0.5
100
AcDbCircle
 10
-6.845825195320003
 20
96.49644774198515
 30
0.0
 40
1.6910666227341
100
AcDbArc
 50
79.95937853774748
 51
128.1041320725517
  0
ARC
  5
AB4B
330
1F
100
AcDbEntity
  8
AM_0
 48
0.5
100
AcDbCircle
 10
-8.939270019540003
 20
96.43529051542214
 30
0.0
 40
1.743403911590599
100
AcDbArc
 50
52.97204095713059
 51
118.881027107956
  0
LINE
  5
AB4C
330
1F
100
AcDbEntity
  8
AM_0
 48
0.5
100
AcDbLine
 10
-5.265197753910001
 20
98.24852293729714
 30
0.0
 11
-5.265197753910001
 21
97.86442869901613
 31
0.0
  0
LINE
  5
AB4D
330
1F
100
AcDbEntity
  8
AM_0
 48
0.5
100
AcDbLine
 10
-6.094436645509972
 20
97.49874037504213
 30
0.0
 11
-5.945220947270001
 21
97.94661444425514
 31
0.0
  0
LINE
  5
AB4E
330
1F
100
AcDbEntity
  8
AM_0
 48
0.5
100
AcDbLine
 10
-9.833862304690001
 20
97.9486400485041
 30
0.0
 11
-9.684020996100002
 21
97.49875754117915
 31
0.0
  0
ARC
  5
AB4F
330
1F
100
AcDbEntity
  8
AM_0
 48
0.5
100
AcDbCircle
 10
7.551696777339998
 20
94.81749266386016
 30
0.0
 40
10.09431266784599
100
AcDbArc
 50
164.4472134763493
 51
195.5559520889587
  0
LINE
  5
AB50
330
1F
100
AcDbEntity
  8
AM_0
 48
0.5
100
AcDbLine
 10
-2.038040161139974
 20
94.00256079435314
 30
0.0
 11
-2.501113891609975
 21
93.90533179044712
 31
0.0
  0
LINE
  5
AB51
330
1F
100
AcDbEntity
  8
AM_0
 48
0.5
100
AcDbLine
 10
-2.135620117190001
 20
94.73485106229714
 30
0.0
 11
-1.751525878910001
 21
94.73485106229714
 31
0.0
  0
LINE
  5
AB52
330
1F
100
AcDbEntity
  8
AM_0
 48
0.5
100
AcDbLine
 10
-2.500915527350002
 20
95.72988051176015
 30
0.0
 11
-1.440902709960028
 21
96.67807120084717
 31
0.0
  0
LINE
  5
AB53
330
1F
100
AcDbEntity
  8
AM_0
 48
0.5
100
AcDbLine
 10
-2.173019409180028
 20
97.52435415983212
 30
0.0
 11
-0.7585296630900303
 21
98.44781035184816
 31
0.0
  0
LINE
  5
AB54
330
1F
100
AcDbEntity
  8
AM_0
 48
0.5
100
AcDbLine
 10
-0.0000610351600017
 20
92.11064451932912
 30
0.0
 11
-2.1728515625
 21
92.11064451932912
 31
0.0
  0
ARC
  5
AB55
330
1F
100
AcDbEntity
  8
AM_0
 48
0.5
100
AcDbCircle
 10
-0.99853515625
 20
99.00151365995412
 30
0.0
 40
0.8000000119209
100
AcDbArc
 50
0.0
 51
89.99998201391097
  0
ARC
  5
AB56
330
1F
100
AcDbEntity
  8
AM_0
 48
0.5
100
AcDbCircle
 10
-0.8000488281300022
 20
99.19999998807913
 30
0.0
 40
0.8000000119209
100
AcDbArc
 50
0.0
 51
89.99998201391097
  0
LINE
  5
AB57
330
1F
100
AcDbEntity
  8
AM_0
 48
0.5
100
AcDbLine
 10
-0.8000640869199742
 20
99.99998301267613
 30
0.0
 11
-1.552139282229973
 21
99.24180620908714
 31
0.0
  0
ELLIPSE
  5
ACD8
330
1F
100
AcDbEntity
  8
AM_0
 48
0.5
100
AcDbEllipse
 10
-13.24926757813
 20
-86.36326903104711
 30
0.0
 11
19.04028287776
 21
-0.0342712400359986
 31
0.0
210
0.0
220
0.0
230
-1.0
 40
0.0370693334848
 41
4.561430208672464
 42
4.579143294499141
  0
ELLIPSE
  5
ACD9
330
1F
100
AcDbEntity
  8
AM_0
 48
0.5
100
AcDbEllipse
 10
-16.94177246094
 20
-87.35084837675115
 30
0.0
 11
-0.0093382522500178
 21
-5.172882234298
 31
0.0
210
0.0
220
0.0
230
-0.9999999999999998
 40
0.1691395493024
 41
4.283268405642169
 42
4.379396196941963
  0
SPLINE
  5
ACDA
330
1F
100
AcDbEntity
  8
AM_0
 48
0.5
100
AcDbSpline
210
0.0
220
0.0
230
1.0
 70
     8
 71
     3
 72
    11
 73
     7
 74
     5
 42
0.0000000001
 43
0.0000000001
 44
0.0000000001
 40
0.0
 40
0.0
 40
0.0
 40
0.0
 40
0.307154819625691
 40
0.6146076587643979
 40
0.9136283576918668
 40
1.232986815108179
 40
1.232986815108179
 40
1.232986815108179
 40
1.232986815108179
 10
-15.02038574219
 20
-85.77354735136012
 30
0.0
 10
-15.0072232445103
 20
-85.67060887091171
 30
0.0
 10
-14.98088547812828
 20
-85.46463203309983
 30
0.0
 10
-14.79931742164791
 20
-85.20771423876459
 30
0.0
 10
-14.54043546267799
 20
-85.02330390390005
 30
0.0
 10
-14.33341567603843
 20
-84.99452551304766
 30
0.0
 10
-14.22650146485
 20
-84.97966307401609
 30
0.0
 11
-15.02038574219
 21
-85.77354735136012
 31
0.0
 11
-14.95697021485
 21
-85.47301024198512
 31
0.0
 11
-14.78503417969
 21
-85.21812742948512
 31
0.0
 11
-14.53814697266
 21
-85.04942625761012
 31
0.0
 11
-14.22650146485
 21
-84.97966307401609
 31
0.0
  0
SPLINE
  5
ACDB
330
1F
100
AcDbEntity
  8
AM_0
 48
0.5
100
AcDbSpline
210
0.0
220
0.0
230
1.0
 70
     8
 71
     3
 72
    11
 73
     7
 74
     5
 42
0.0000000001
 43
0.0000000001
 44
0.0000000001
 40
0.0
 40
0.0
 40
0.0
 40
0.0
 40
0.3071548196216298
 40
0.6145735303939415
 40
0.9136446251405409
 40
1.233003082558912
 40
1.233003082558912
 40
1.233003082558912
 40
1.233003082558912
 10
-1.552307128910001
 20
-84.97966307401609
 30
0.0
 10
-1.449372390083789
 20
-84.99283034762578
 30
0.0
 10
-1.243414476356333
 20
-85.01917620746919
 30
0.0
 10
-0.9864336947820467
 20
-85.20066852090289
 30
0.0
 10
-0.8020813474279224
 20
-85.45960865207097
 30
0.0
 10
-0.7732905079570647
 20
-85.66663728458133
 30
0.0
 10
-0.7584228515700034
 20
-85.77354735136012
 30
0.0
 11
-1.552307128910001
 21
-84.97966307401609
 31
0.0
 11
-1.251770019540003
 21
-85.04307860136012
 31
0.0
 11
-0.9968872070400038
 21
-85.21495360136013
 31
0.0
 11
-0.8281860351600016
 21
-85.46190184354712
 31
0.0
 11
-0.7584228515700034
 21
-85.77354735136012
 31
0.0
  0
SPLINE
  5
ACDC
330
1F
100
AcDbEntity
  8
AM_0
 48
0.5
100
AcDbSpline
210
0.0
220
0.0
230
1.0
 70
     8
 71
     3
 72
    11
 73
     7
 74
     5
 42
0.0000000001
 43
0.0000000001
 44
0.0000000001
 40
0.0
 40
0.0
 40
0.0
 40
0.0
 40
0.1366460334288296
 40
0.248324175531035
 40
0.3573218403206347
 40
0.4879509066960402
 40
0.4879509066960402
 40
0.4879509066960402
 40
0.4879509066960402
 10
-2.47576904297
 20
-86.39415282011013
 30
0.0
 10
-2.429958574166709
 20
-86.39776754575494
 30
0.0
 10
-2.346708101314951
 20
-86.40433651627681
 30
0.0
 10
-2.239004192054318
 20
-86.46609225233019
 30
0.0
 10
-2.177651217733328
 20
-86.57224128265371
 30
0.0
 10
-2.174584418925727
 20
-86.65299017048601
 30
0.0
 10
-2.172912597660001
 20
-86.6970092654221
 30
0.0
 11
-2.47576904297
 21
-86.39415282011013
 31
0.0
 11
-2.340881347660001
 21
-86.41600340604711
 31
0.0
 11
-2.245361328130002
 21
-86.47386473417212
 31
0.0
 11
-2.189453125
 21
-86.56743162870411
 31
0.0
 11
-2.172912597660001
 21
-86.6970092654221
 31
0.0
  0
SPLINE
  5
ACDD
330
1F
100
AcDbEntity
  8
AM_0
 48
0.5
100
AcDbSpline
210
0.0
220
0.0
230
1.0
 70
     8
 71
     3
 72
    11
 73
     7
 74
     5
 42
0.0000000001
 43
0.0000000001
 44
0.0000000001
 40
0.0
 40
0.0
 40
0.0
 40
0.0
 40
0.1366558066304169
 40
0.24830233813708
 40
0.357352401845003
 40
0.4879209245618829
 40
0.4879209245618829
 40
0.4879209245618829
 40
0.4879209245618829
 10
-13.6058959961
 20
-86.6970092654221
 30
0.0
 10
-13.60224884299815
 20
-86.65120433965702
 30
0.0
 10
-13.59562199950674
 20
-86.56797721271592
 30
0.0
 10
-13.53396116604368
 20
-86.46020535087362
 30
0.0
 10
-13.42776916724882
 20
-86.39891911397214
 30
0.0
 10
-13.34703287567328
 20
-86.39583393739656
 30
0.0
 10
-13.30303955079
 20
-86.39415282011013
 30
0.0
 11
-13.6058959961
 21
-86.6970092654221
 31
0.0
 11
-13.583984375
 21
-86.56212157011012
 31
0.0
 11
-13.52618408204
 21
-86.4666015505791
 31
0.0
 11
-13.43255615235
 21
-86.41069334745409
 31
0.0
 11
-13.30303955079
 21
-86.39415282011013
 31
0.0
  0
SPLINE
  5
ACDE
330
1F
100
AcDbEntity
  8
AM_0
 48
0.5
100
AcDbSpline
210
0.0
220
0.0
230
1.0
 70
     8
 71
     3
 72
    11
 73
     7
 74
     5
 42
0.0000000001
 43
0.0000000001
 44
0.0000000001
 40
0.0
 40
0.0
 40
0.0
 40
0.0
 40
0.7216768096933128
 40
1.450589987956196
 40
2.171020731898949
 40
2.896904401142312
 40
2.896904401142312
 40
2.896904401142312
 40
2.896904401142312
 10
-13.6058959961
 20
-92.11064451932911
 30
0.0
 10
-13.79103522980396
 20
-91.95433584471578
 30
0.0
 10
-14.16317011786136
 20
-91.64015116345778
 30
0.0
 10
-14.42119511370983
 20
-90.89382403327734
 30
0.0
 10
-14.12945691673399
 20
-90.20224486742616
 30
0.0
 10
-14.06142627899614
 20
-89.72563924292948
 30
0.0
 10
-14.02728271485
 20
-89.48643797636012
 30
0.0
 11
-13.6058959961
 21
-92.11064451932911
 31
0.0
 11
-14.11187744141
 21
-91.59605711698512
 31
0.0
 11
-14.32946777344
 21
-90.90037840604711
 31
0.0
 11
-14.16143798829
 21
-90.19981688261012
 31
0.0
 11
-14.02728271485
 21
-89.48643797636012
 31
0.0
  0
SPLINE
  5
ACDF
330
1F
100
AcDbEntity
  8
AM_0
 48
0.5
100
AcDbSpline
210
0.0
220
0.0
230
1.0
 70
     8
 71
     3
 72
    11
 73
     7
 74
     5
 42
0.0000000001
 43
0.0000000001
 44
0.0000000001
 40
0.0
 40
0.0
 40
0.0
 40
0.0
 40
0.9760464582753805
 40
1.957049585705994
 40
2.934711472979492
 40
3.912842699340588
 40
3.912842699340588
 40
3.912842699340588
 40
3.912842699340588
 10
-14.02728271485
 20
-89.48643797636012
 30
0.0
 10
-14.0663169618479
 20
-89.15758153919343
 30
0.0
 10
-14.14458368395717
 20
-88.49819862902846
 30
0.0
 10
-14.72278425962685
 20
-87.68969996097153
 30
0.0
 10
-15.1084509385497
 20
-86.76163765245268
 30
0.0
 10
-15.04974550356515
 20
-86.10296347323755
 30
0.0
 10
-15.02038574219
 20
-85.77354735136012
 30
0.0
 11
-14.02728271485
 21
-89.48643797636012
 31
0.0
 11
-14.22082519532
 21
-88.52977293729711
 31
0.0
 11
-14.69116210938
 21
-87.66887205839109
 31
0.0
 11
-15.02954101563
 21
-86.75163573026608
 31
0.0
 11
-15.02038574219
 21
-85.77354735136012
 31
0.0
  0
SPLINE
  5
ACE0
330
1F
100
AcDbEntity
  8
AM_0
 48
0.5
100
AcDbSpline
210
0.0
220
0.0
230
1.0
 70
     8
 71
     3
 72
    11
 73
     7
 74
     5
 42
0.0000000001
 43
0.0000000001
 44
0.0000000001
 40
0.0
 40
0.0
 40
0.0
 40
0.0
 40
0.7261136062897911
 40
1.455838879492449
 40
2.173971794630253
 40
2.896594268304212
 40
2.896594268304212
 40
2.896594268304212
 40
2.896594268304212
 10
-13.6058959961
 20
-92.11064451932911
 30
0.0
 10
-13.78960347755657
 20
-92.26980693435852
 30
0.0
 10
-14.15793219587475
 20
-92.58892343341122
 30
0.0
 10
-14.42928017319911
 20
-93.33285898946497
 30
0.0
 10
-14.1245816539506
 20
-94.0212976750052
 30
0.0
 10
-14.05978300122066
 20
-94.49650633169566
 30
0.0
 10
-14.02728271485
 20
-94.73485106229711
 30
0.0
 11
-13.6058959961
 21
-92.11064451932911
 31
0.0
 11
-14.11059570313
 21
-92.63267821073512
 31
0.0
 11
-14.33319091797
 21
-93.32762449979711
 31
0.0
 11
-14.15936279297
 21
-94.02440184354711
 31
0.0
 11
-14.02728271485
 21
-94.73485106229711
 31
0.0
  0
SPLINE
  5
ACE1
330
1F
100
AcDbEntity
  8
AM_0
 48
0.5
100
AcDbSpline
210
0.0
220
0.0
230
1.0
 70
     8
 71
     3
 72
    11
 73
     7
 74
     5
 42
0.0000000001
 43
0.0000000001
 44
0.0000000001
 40
0.0
 40
0.0
 40
0.0
 40
0.0
 40
0.9777614195762607
 40
1.960052698871581
 40
2.937960328464983
 40
3.918110911863216
 40
3.918110911863216
 40
3.918110911863216
 40
3.918110911863216
 10
-10.51361083985
 20
-85.97276610136011
 30
0.0
 10
-10.84512113722218
 20
-85.94236524463482
 30
0.0
 10
-11.50967758223884
 20
-85.88142268740213
 30
0.0
 10
-12.30895924695941
 20
-85.28135155027866
 30
0.0
 10
-13.23666779563954
 20
-84.88962859018652
 30
0.0
 10
-13.89630503717069
 20
-84.94962866939518
 30
0.0
 10
-14.22650146485
 20
-84.97966307401609
 30
0.0
 11
-10.51361083985
 21
-85.97276610136011
 31
0.0
 11
-11.47546386719
 21
-85.79710692167211
 31
0.0
 11
-12.33154296875
 21
-85.31541746854712
 31
0.0
 11
-13.24639892579
 21
-84.96995848417212
 31
0.0
 11
-14.22650146485
 21
-84.97966307401609
 31
0.0
  0
SPLINE
  5
ACE2
330
1F
100
AcDbEntity
  8
AM_0
 48
0.5
100
AcDbSpline
210
0.0
220
0.0
230
1.0
 70
     8
 71
     3
 72
    11
 73
     7
 74
     5
 42
0.0000000001
 43
0.0000000001
 44
0.0000000001
 40
0.0
 40
0.0
 40
0.0
 40
0.0
 40
0.726113606293363
 40
1.45583887949534
 40
2.173971794633144
 40
2.896594268308017
 40
2.896594268308017
 40
2.896594268308017
 40
2.896594268308017
 10
-7.889404296880002
 20
-86.39415282011013
 30
0.0
 10
-8.048566711910904
 20
-86.21044533865367
 30
0.0
 10
-8.36768321096566
 20
-85.84211662033679
 30
0.0
 10
-9.111618767017406
 20
-85.57076864300478
 30
0.0
 10
-9.800057452558796
 20
-85.87546716225375
 30
0.0
 10
-10.27526610924868
 20
-85.94026581498752
 30
0.0
 10
-10.51361083985
 20
-85.97276610136011
 30
0.0
 11
-7.889404296880002
 21
-86.39415282011013
 31
0.0
 11
-8.411437988290003
 21
-85.88945311307909
 31
0.0
 11
-9.106384277350002
 21
-85.66685789823512
 31
0.0
 11
-9.803161621100002
 21
-85.84068602323512
 31
0.0
 11
-10.51361083985
 21
-85.97276610136011
 31
0.0
  0
SPLINE
  5
ACE3
330
1F
100
AcDbEntity
  8
AM_0
 48
0.5
100
AcDbSpline
210
0.0
220
0.0
230
1.0
 70
     8
 71
     3
 72
    11
 73
     7
 74
     5
 42
0.0000000001
 43
0.0000000001
 44
0.0000000001
 40
0.0
 40
0.0
 40
0.0
 40
0.0
 40
0.7216760870161007
 40
1.450571047795175
 40
2.171046911780902
 40
2.896941863804934
 40
2.896941863804934
 40
2.896941863804934
 40
2.896941863804934
 10
-2.172912597660001
 20
-92.11064451932911
 30
0.0
 10
-1.987738378157084
 20
-92.26692598104561
 30
0.0
 10
-1.615537654810951
 20
-92.58105217665002
 30
0.0
 10
-1.357666023891563
 20
-93.32742844461954
 30
0.0
 10
-1.6492437670432
 20
-94.01903916283105
 30
0.0
 10
-1.717346788220895
 20
-94.49565185745418
 30
0.0
 10
-1.751525878910001
 20
-94.73485106229711
 30
0.0
 11
-2.172912597660001
 21
-92.11064451932911
 31
0.0
 11
-1.666870117190001
 21
-92.62517088651609
 31
0.0
 11
-1.449340820320003
 21
-93.3208495974541
 31
0.0
 11
-1.617309570320003
 21
-94.02147215604712
 31
0.0
 11
-1.751525878910001
 21
-94.73485106229711
 31
0.0
  0
SPLINE
  5
ACE4
330
1F
100
AcDbEntity
  8
AM_0
 48
0.5
100
AcDbSpline
210
0.0
220
0.0
230
1.0
 70
     8
 71
     3
 72
    11
 73
     7
 74
     5
 42
0.0000000001
 43
0.0000000001
 44
0.0000000001
 40
0.0
 40
0.0
 40
0.0
 40
0.0
 40
0.9778214617426936
 40
1.960112741038186
 40
2.938020370624954
 40
3.918109921861178
 40
3.918109921861178
 40
3.918109921861178
 40
3.918109921861178
 10
-1.751525878910001
 20
-89.48643797636012
 30
0.0
 10
-1.721128453698105
 20
-89.15490618593508
 30
0.0
 10
-1.660194650561481
 20
-88.49032710693519
 30
0.0
 10
-1.060112057735506
 20
-87.69102829480694
 30
0.0
 10
-0.668393669853653
 20
-86.76333962552769
 30
0.0
 10
-0.7283908381022798
 20
-86.10372312705143
 30
0.0
 10
-0.7584228515700034
 20
-85.77354735136012
 30
0.0
 11
-1.751525878910001
 21
-89.48643797636012
 31
0.0
 11
-1.57586669922
 21
-88.52452391386012
 31
0.0
 11
-1.094177246100002
 21
-87.66844481229711
 31
0.0
 11
-0.7487182617200006
 21
-86.75358885526609
 31
0.0
 11
-0.7584228515700034
 21
-85.77354735136012
 31
0.0
  0
SPLINE
  5
ACE5
330
1F
100
AcDbEntity
  8
AM_0
 48
0.5
100
AcDbSpline
210
0.0
220
0.0
230
1.0
 70
     8
 71
     3
 72
    11
 73
     7
 74
     5
 42
0.0000000001
 43
0.0000000001
 44
0.0000000001
 40
0.0
 40
0.0
 40
0.0
 40
0.0
 40
0.7261136062904859
 40
1.455838879493143
 40
2.173971794630948
 40
2.896594268304906
 40
2.896594268304906
 40
2.896594268304906
 40
2.896594268304906
 10
-2.172912597660001
 20
-92.11064451932911
 30
0.0
 10
-1.989205116203454
 20
-91.95148210429934
 30
0.0
 10
-1.620876397885493
 20
-91.63236560524611
 30
0.0
 10
-1.349528420560847
 20
-90.8884300491923
 30
0.0
 10
-1.654226939809408
 20
-90.199991363652
 30
0.0
 10
-1.719025592539346
 20
-89.72478270696155
 30
0.0
 10
-1.751525878910001
 20
-89.48643797636012
 30
0.0
 11
-2.172912597660001
 21
-92.11064451932911
 31
0.0
 11
-1.668212890630002
 21
-91.58861082792212
 31
0.0
 11
-1.445617675790003
 21
-90.89366453886013
 31
0.0
 11
-1.619445800790003
 21
-90.19688719511012
 31
0.0
 11
-1.751525878910001
 21
-89.48643797636012
 31
0.0
  0
SPLINE
  5
ACE6
330
1F
100
AcDbEntity
  8
AM_0
 48
0.5
100
AcDbSpline
210
0.0
220
0.0
230
1.0
 70
     8
 71
     3
 72
    11
 73
     7
 74
     5
 42
0.0000000001
 43
0.0000000001
 44
0.0000000001
 40
0.0
 40
0.0
 40
0.0
 40
0.0
 40
0.7217196039226593
 40
1.450614564705125
 40
2.171031075552245
 40
2.896926027577023
 40
2.896926027577023
 40
2.896926027577023
 40
2.896926027577023
 10
-7.889404296880002
 20
-86.39415282011013
 30
0.0
 10
-7.733101295343836
 20
-86.2089805486663
 30
0.0
 10
-7.418941323378067
 20
-85.83679501778147
 30
0.0
 10
-6.672580748243416
 20
-85.57890227704854
 30
0.0
 10
-5.980990654307204
 20
-85.87049242682551
 30
0.0
 10
-5.504397145611558
 20
-85.93858889630237
 30
0.0
 10
-5.265197753910001
 20
-85.97276610136011
 30
0.0
 11
-7.889404296880002
 21
-86.39415282011013
 31
0.0
 11
-7.374816894540003
 21
-85.88811033964109
 31
0.0
 11
-6.679138183600002
 21
-85.67058104276609
 31
0.0
 11
-5.978576660160001
 21
-85.83854979276608
 31
0.0
 11
-5.265197753910001
 21
-85.97276610136011
 31
0.0
  0
SPLINE
  5
ACE7
330
1F
100
AcDbEntity
  8
AM_0
 48
0.5
100
AcDbSpline
210
0.0
220
0.0
230
1.0
 70
     8
 71
     3
 72
    11
 73
     7
 74
     5
 42
0.0000000001
 43
0.0000000001
 44
0.0000000001
 40
0.0
 40
0.0
 40
0.0
 40
0.0
 40
0.9760464582722359
 40
1.957049585707295
 40
2.934732599553103
 40
3.912864399109223
 40
3.912864399109223
 40
3.912864399109223
 40
3.912864399109223
 10
-5.265197753910001
 20
-85.97276610136011
 30
0.0
 10
-4.936341922131889
 20
-85.93372984863036
 30
0.0
 10
-4.276960225815875
 20
-85.85545910487125
 30
0.0
 10
-3.468446608500127
 20
-85.27728461241965
 30
0.0
 10
-2.540410777593288
 20
-84.89150246930885
 30
0.0
 10
-1.881725392952685
 20
-84.95027171067247
 30
0.0
 10
-1.552307128910001
 20
-84.97966307401609
 30
0.0
 11
-5.265197753910001
 21
-85.97276610136011
 31
0.0
 11
-4.308532714850002
 21
-85.77922362089109
 31
0.0
 11
-3.447631835940001
 21
-85.30888670682911
 31
0.0
 11
-2.530395507820003
 21
-84.97044676542211
 31
0.0
 11
-1.552307128910001
 21
-84.97966307401609
 31
0.0
  0
SPLINE
  5
ACE8
330
1F
100
AcDbEntity
  8
AM_0
 48
0.5
100
AcDbSpline
210
0.0
220
0.0
230
1.0
 70
     8
 71
     3
 72
    11
 73
     7
 74
     5
 42
0.0000000001
 43
0.0000000001
 44
0.0000000001
 40
0.0
 40
0.0
 40
0.0
 40
0.0
 40
0.4883119192019766
 40
0.9647347245265061
 40
1.439904403701395
 40
1.924557089439235
 40
1.924557089439235
 40
1.924557089439235
 40
1.924557089439235
 10
-15.02038574219
 20
-85.77354735136012
 30
0.0
 10
-15.00211648411158
 20
-85.93561378576538
 30
0.0
 10
-14.96602277644951
 20
-86.25580076216866
 30
0.0
 10
-14.8239592995833
 20
-86.7166642774846
 30
0.0
 10
-14.62208607055121
 20
-87.15335053618264
 30
0.0
 10
-14.43535329638294
 20
-87.41393865042009
 30
0.0
 10
-14.34106445313
 20
-87.54552000761012
 30
0.0
 11
-15.02038574219
 21
-85.77354735136012
 31
0.0
 11
-14.95043945313
 21
-86.25682371854711
 31
0.0
 11
-14.81384277344
 21
-86.71324461698512
 31
0.0
 11
-14.61071777344
 21
-87.14281004667212
 31
0.0
 11
-14.34106445313
 21
-87.54552000761012
 31
0.0
  0
SPLINE
  5
ACE9
330
1F
100
AcDbEntity
  8
AM_0
 48
0.5
100
AcDbSpline
210
0.0
220
0.0
230
1.0
 70
     8
 71
     3
 72
    11
 73
     7
 74
     5
 42
0.0000000001
 43
0.0000000001
 44
0.0000000001
 40
0.0
 40
0.0
 40
0.0
 40
0.0
 40
0.5349578245923149
 40
1.053482916811813
 40
1.570082243851754
 40
2.099704295806865
 40
2.099704295806865
 40
2.099704295806865
 40
2.099704295806865
 10
-14.34106445313
 20
-87.54552000761012
 30
0.0
 10
-14.23573624650825
 20
-87.68994945497004
 30
0.0
 10
-14.02831528501658
 20
-87.97437179348653
 30
0.0
 10
-13.81269707644391
 20
-88.45471154080765
 30
0.0
 10
-13.6732255134542
 20
-88.96068399272781
 30
0.0
 10
-13.65328356393517
 20
-89.30973837653565
 30
0.0
 10
-13.64318847657
 20
-89.48643797636012
 30
0.0
 11
-14.34106445313
 21
-87.54552000761012
 31
0.0
 11
-14.04125976563
 21
-87.9885742068291
 31
0.0
 11
-13.82495117188
 21
-88.45982664823512
 31
0.0
 11
-13.69226074219
 21
-88.95909422636012
 31
0.0
 11
-13.64318847657
 21
-89.48643797636012
 31
0.0
  0
SPLINE
  5
ACEA
330
1F
100
AcDbEntity
  8
AM_0
 48
0.5
100
AcDbSpline
210
0.0
220
0.0
230
1.0
 70
     8
 71
     3
 72
    11
 73
     7
 74
     5
 42
0.0000000001
 43
0.0000000001
 44
0.0000000001
 40
0.0
 40
0.0
 40
0.0
 40
0.0
 40
0.4896570354874673
 40
0.9660412197407243
 40
1.441073045364653
 40
1.926621078730711
 40
1.926621078730711
 40
1.926621078730711
 40
1.926621078730711
 10
-14.22650146485
 20
-84.97966307401609
 30
0.0
 10
-14.06375421125008
 20
-84.99608661733367
 30
0.0
 10
-13.74267120011636
 20
-85.02848852043955
 30
0.0
 10
-13.2808375898417
 20
-85.16958420656449
 30
0.0
 10
-12.84490376690976
 20
-85.37431547614664
 30
0.0
 10
-12.58714066242464
 20
-85.5654723488962
 30
0.0
 10
-12.45684814454
 20
-85.66209715604712
 30
0.0
 11
-14.22650146485
 21
-84.97966307401609
 31
0.0
 11
-13.7412109375
 21
-85.04490965604711
 31
0.0
 11
-13.28448486329
 21
-85.18034666776609
 31
0.0
 11
-12.85632324219
 21
-85.38609617948512
 31
0.0
 11
-12.45684814454
 21
-85.66209715604712
 31
0.0
  0
SPLINE
  5
ACEB
330
1F
100
AcDbEntity
  8
AM_0
 48
0.5
100
AcDbSpline
210
0.0
220
0.0
230
1.0
 70
     8
 71
     3
 72
    11
 73
     7
 74
     5
 42
0.0000000001
 43
0.0000000001
 44
0.0000000001
 40
0.0
 40
0.0
 40
0.0
 40
0.0
 40
0.4883119192053898
 40
0.9647347245309614
 40
1.439904403699529
 40
1.924557089440699
 40
1.924557089440699
 40
1.924557089440699
 40
1.924557089440699
 10
-1.552307128910001
 20
-84.97966307401609
 30
0.0
 10
-1.714373563316094
 20
-84.99793233209617
 30
0.0
 10
-2.034560539720235
 20
-85.03402603976143
 30
0.0
 10
-2.495424055037961
 20
-85.17608951661967
 30
0.0
 10
-2.932110313732954
 20
-85.37796274565749
 30
0.0
 10
-3.192698427969258
 20
-85.56469551982537
 30
0.0
 10
-3.324279785160001
 20
-85.65898436307909
 30
0.0
 11
-1.552307128910001
 21
-84.97966307401609
 31
0.0
 11
-2.035583496100002
 21
-85.04960936307909
 31
0.0
 11
-2.492004394540003
 21
-85.18620604276609
 31
0.0
 11
-2.92156982422
 21
-85.38933104276608
 31
0.0
 11
-3.324279785160001
 21
-85.65898436307909
 31
0.0
  0
SPLINE
  5
ACEC
330
1F
100
AcDbEntity
  8
AM_0
 48
0.5
100
AcDbSpline
210
0.0
220
0.0
230
1.0
 70
     8
 71
     3
 72
    11
 73
     7
 74
     5
 42
0.0000000001
 43
0.0000000001
 44
0.0000000001
 40
0.0
 40
0.0
 40
0.0
 40
0.0
 40
0.4896570354813593
 40
0.9660412197425914
 40
1.441073045361508
 40
1.926621078731392
 40
1.926621078731392
 40
1.926621078731392
 40
1.926621078731392
 10
-0.7584228515700034
 20
-85.77354735136012
 30
0.0
 10
-0.7748463948876456
 20
-85.9362946049579
 30
0.0
 10
-0.8072482979941201
 20
-86.25737761609201
 30
0.0
 10
-0.9483439841150003
 20
-86.71921122636724
 30
0.0
 10
-1.153075253705303
 20
-87.15514504929755
 30
0.0
 10
-1.344232126450446
 20
-87.41290815378505
 30
0.0
 10
-1.440856933600002
 20
-87.54320067167212
 30
0.0
 11
-0.7584228515700034
 21
-85.77354735136012
 31
0.0
 11
-0.8236694336000027
 21
-86.2588378787041
 31
0.0
 11
-0.9591064453200033
 21
-86.71556395292212
 31
0.0
 11
-1.164855957040003
 21
-87.14372557401608
 31
0.0
 11
-1.440856933600002
 21
-87.54320067167212
 31
0.0
  0
SPLINE
  5
ACED
330
1F
100
AcDbEntity
  8
AM_0
 48
0.5
100
AcDbSpline
210
0.0
220
0.0
230
1.0
 70
     8
 71
     3
 72
    11
 73
     7
 74
     5
 42
0.0000000001
 43
0.0000000001
 44
0.0000000001
 40
0.0
 40
0.0
 40
0.0
 40
0.0
 40
0.5361579444437394
 40
1.054909522022818
 40
1.571624204233621
 40
2.102042805167736
 40
2.102042805167736
 40
2.102042805167736
 40
2.102042805167736
 10
-1.440856933600002
 20
-87.54320067167212
 30
0.0
 10
-1.547019760460911
 20
-87.68753708067823
 30
0.0
 10
-1.755898838167432
 20
-87.97152401738788
 30
0.0
 10
-1.97165479635321
 20
-88.45254629285836
 30
0.0
 10
-2.108595220364441
 20
-88.95978590637881
 30
0.0
 10
-2.125075083397389
 20
-89.30936230806818
 30
0.0
 10
-2.133422851570003
 20
-89.48643797636012
 30
0.0
 11
-1.440856933600002
 21
-87.54320067167212
 31
0.0
 11
-1.742797851570003
 21
-87.98625487089109
 31
0.0
 11
-1.958984375
 21
-88.45781248807909
 31
0.0
 11
-2.089111328130002
 21
-88.95787352323512
 31
0.0
 11
-2.133422851570003
 21
-89.48643797636012
 31
0.0
  0
SPLINE
  5
ACEE
330
1F
100
AcDbEntity
  8
AM_0
 48
0.5
100
AcDbSpline
210
0.0
220
0.0
230
1.0
 70
     8
 71
     3
 72
    11
 73
     7
 74
     5
 42
0.0000000001
 43
0.0000000001
 44
0.0000000001
 40
0.0
 40
0.0
 40
0.0
 40
0.0
 40
0.1854787801970713
 40
0.3702022629063346
 40
0.5550223800388125
 40
0.7403568154054739
 40
0.7403568154054739
 40
0.7403568154054739
 40
0.7403568154054739
 10
-13.64538574219
 20
-94.73485106229711
 30
0.0
 10
-13.64673212047197
 20
-94.67301657408368
 30
0.0
 10
-13.64941939438106
 20
-94.54959939699236
 30
0.0
 10
-13.66832967629199
 20
-94.36540165379975
 30
0.0
 10
-13.69718949188857
 20
-94.18254787327477
 30
0.0
 10
-13.72615749465
 20
-94.06256501021275
 30
0.0
 10
-13.7406616211
 20
-94.00249022245409
 30
0.0
 11
-13.64538574219
 21
-94.73485106229711
 31
0.0
 11
-13.65191650391
 21
-94.54948729276608
 31
0.0
 11
-13.66998291016
 21
-94.36564940214109
 31
0.0
 11
-13.69958496094
 21
-94.18321532011011
 31
0.0
 11
-13.7406616211
 21
-94.00249022245409
 31
0.0
  0
SPLINE
  5
ACEF
330
1F
100
AcDbEntity
  8
AM_0
 48
0.5
100
AcDbSpline
210
0.0
220
0.0
230
1.0
 70
     8
 71
     3
 72
    11
 73
     7
 74
     5
 42
0.0000000001
 43
0.0000000001
 44
0.0000000001
 40
0.0
 40
0.0
 40
0.0
 40
0.0
 40
0.1854809392925219
 40
0.3702044220017853
 40
0.5550147731468521
 40
0.7403627456185509
 40
0.7403627456185509
 40
0.7403627456185509
 40
0.7403627456185509
 10
-2.133422851570003
 20
-89.48643797636012
 30
0.0
 10
-2.132052806437668
 20
-89.5482726380664
 30
0.0
 10
-2.129318311085925
 20
-89.67168944458018
 30
0.0
 10
-2.110397293693365
 20
-89.85587993460219
 30
0.0
 10
-2.081652261470885
 20
-90.03875555356149
 30
0.0
 10
-2.052622100047404
 20
-90.15872631311463
 30
0.0
 10
-2.0380859375
 20
-90.2187988162041
 30
0.0
 11
-2.133422851570003
 21
-89.48643797636012
 31
0.0
 11
-2.126831054690001
 21
-89.67180174589108
 31
0.0
 11
-2.108764648440001
 21
-89.85563963651609
 31
0.0
 11
-2.079223632820003
 21
-90.0380737185471
 31
0.0
 11
-2.0380859375
 21
-90.2187988162041
 31
0.0
  0
SPLINE
  5
ACF0
330
1F
100
AcDbEntity
  8
AM_0
 48
0.5
100
AcDbSpline
210
0.0
220
0.0
230
1.0
 70
     8
 71
     3
 72
    11
 73
     7
 74
     5
 42
0.0000000001
 43
0.0000000001
 44
0.0000000001
 40
0.0
 40
0.0
 40
0.0
 40
0.0
 40
0.1852125870826465
 40
0.3701045172501013
 40
0.5548488513024259
 40
0.740048404319762
 40
0.740048404319762
 40
0.740048404319762
 40
0.740048404319762
 10
-13.64318847657
 20
-89.48643797636012
 30
0.0
 10
-13.64629218703591
 20
-89.54811055845121
 30
0.0
 10
-13.65249423454122
 20
-89.67134894943704
 30
0.0
 10
-13.67291648999188
 20
-89.85525240412711
 30
0.0
 10
-13.70023955979737
 20
-90.03825182271075
 30
0.0
 10
-13.72571230877079
 20
-90.15893319617278
 30
0.0
 10
-13.73846435547
 20
-90.21934813261012
 30
0.0
 11
-13.64318847657
 21
-89.48643797636012
 31
0.0
 11
-13.65435791016
 21
-89.67131346464109
 31
0.0
 11
-13.67407226563
 21
-89.85515135526609
 31
0.0
 11
-13.70202636719
 21
-90.03776854276608
 31
0.0
 11
-13.73846435547
 21
-90.21934813261012
 31
0.0
  0
SPLINE
  5
ACF1
330
1F
100
AcDbEntity
  8
AM_0
 48
0.5
100
AcDbSpline
210
0.0
220
0.0
230
1.0
 70
     8
 71
     3
 72
    11
 73
     7
 74
     5
 42
0.0000000001
 43
0.0000000001
 44
0.0000000001
 40
0.0
 40
0.0
 40
0.0
 40
0.0
 40
0.1852125870827032
 40
0.3701045172501581
 40
0.5548488513024826
 40
0.74010824685446
 40
0.74010824685446
 40
0.74010824685446
 40
0.74010824685446
 10
-2.135620117190001
 20
-94.73485106229711
 30
0.0
 10
-2.132516329686256
 20
-94.67317849554735
 30
0.0
 10
-2.126314128238644
 20
-94.5499401352176
 30
0.0
 10
-2.105893025516146
 20
-94.36603645097282
 30
0.0
 10
-2.078562629259126
 20
-94.18301816688275
 30
0.0
 10
-2.053095519059668
 20
-94.06231531078686
 30
0.0
 10
-2.040344238290003
 20
-94.00187987089109
 30
0.0
 11
-2.135620117190001
 21
-94.73485106229711
 31
0.0
 11
-2.124450683600002
 21
-94.54997557401609
 31
0.0
 11
-2.104736328130002
 21
-94.36613768339109
 31
0.0
 11
-2.076782226570003
 21
-94.18352049589108
 31
0.0
 11
-2.040344238290003
 21
-94.00187987089109
 31
0.0
  0
SPLINE
  5
ACF2
330
1F
100
AcDbEntity
  8
AM_0
 48
0.5
100
AcDbSpline
210
0.0
220
0.0
230
1.0
 70
     8
 71
     3
 72
    11
 73
     7
 74
     5
 42
0.0000000001
 43
0.0000000001
 44
0.0000000001
 40
0.0
 40
0.0
 40
0.0
 40
0.0
 40
0.5013906466718834
 40
1.001767239732422
 40
1.501693998886716
 40
2.001919197849773
 40
2.001919197849773
 40
2.001919197849773
 40
2.001919197849773
 10
-2.172912597660001
 20
-92.11064451932911
 30
0.0
 10
-2.082463425069995
 20
-91.96894631357997
 30
0.0
 10
-1.901748011723108
 20
-91.68583648416742
 30
0.0
 10
-1.789637520706919
 20
-91.18684238756733
 30
0.0
 10
-1.839388944314021
 20
-90.67982831760131
 30
0.0
 10
-1.973345816301613
 20
-90.37287205895674
 30
0.0
 10
-2.040344238290003
 20
-90.21934813261012
 30
0.0
 11
-2.172912597660001
 21
-92.11064451932911
 31
0.0
 11
-1.928100585940001
 21
-91.67308348417211
 31
0.0
 11
-1.81658935547
 21
-91.18529051542211
 31
0.0
 11
-1.864562988290003
 21
-90.68767088651609
 31
0.0
 11
-2.040344238290003
 21
-90.21934813261012
 31
0.0
  0
SPLINE
  5
ACF3
330
1F
100
AcDbEntity
  8
AM_0
 48
0.5
100
AcDbSpline
210
0.0
220
0.0
230
1.0
 70
     8
 71
     3
 72
    11
 73
     7
 74
     5
 42
0.0000000001
 43
0.0000000001
 44
0.0000000001
 40
0.0
 40
0.0
 40
0.0
 40
0.0
 40
0.4991303607438398
 40
0.9973212347084318
 40
1.488575432611012
 40
1.99849201907353
 40
1.99849201907353
 40
1.99849201907353
 40
1.99849201907353
 10
-13.6058959961
 20
-92.11064451932911
 30
0.0
 10
-13.6960624811404
 20
-91.96923404528901
 30
0.0
 10
-13.8762257355972
 20
-91.68667926669328
 30
0.0
 10
-13.97351026104157
 20
-91.19060541456649
 30
0.0
 10
-13.94548140141569
 20
-90.6832009264975
 30
0.0
 10
-13.80977807672981
 20
-90.37551135539839
 30
0.0
 10
-13.7406616211
 20
-90.2187988162041
 30
0.0
 11
-13.6058959961
 21
-92.11064451932911
 31
0.0
 11
-13.84759521485
 21
-91.67393797636012
 31
0.0
 11
-13.95288085938
 21
-91.18699949979712
 31
0.0
 11
-13.91766357422
 21
-90.69700926542211
 31
0.0
 11
-13.7406616211
 21
-90.2187988162041
 31
0.0
  0
SPLINE
  5
ACF4
330
1F
100
AcDbEntity
  8
AM_0
 48
0.5
100
AcDbSpline
210
0.0
220
0.0
230
1.0
 70
     8
 71
     3
 72
    11
 73
     7
 74
     5
 42
0.0000000001
 43
0.0000000001
 44
0.0000000001
 40
0.0
 40
0.0
 40
0.0
 40
0.0
 40
0.4991303607429943
 40
0.9973212347075863
 40
1.488575432610167
 40
1.998470835796685
 40
1.998470835796685
 40
1.998470835796685
 40
1.998470835796685
 10
-2.172912597660001
 20
-92.11064451932911
 30
0.0
 10
-2.082746407087475
 20
-92.252054882885
 30
0.0
 10
-1.902583741012001
 20
-92.53460944072052
 30
0.0
 10
-1.805294829513077
 20
-93.0306849384876
 30
0.0
 10
-1.83333993702142
 20
-93.53807601309027
 30
0.0
 10
-1.968995312025942
 20
-93.84577571702306
 30
0.0
 10
-2.0380859375
 20
-94.00249022245409
 30
0.0
 11
-2.172912597660001
 21
-92.11064451932911
 31
0.0
 11
-1.931213378910001
 21
-92.54735106229711
 31
0.0
 11
-1.825927734380002
 21
-93.03428953886012
 31
0.0
 11
-1.861145019540003
 21
-93.52427977323513
 31
0.0
 11
-2.0380859375
 21
-94.00249022245409
 31
0.0
  0
SPLINE
  5
ACF5
330
1F
100
AcDbEntity
  8
AM_0
 48
0.5
100
AcDbSpline
210
0.0
220
0.0
230
1.0
 70
     8
 71
     3
 72
    11
 73
     7
 74
     5
 42
0.0000000001
 43
0.0000000001
 44
0.0000000001
 40
0.0
 40
0.0
 40
0.0
 40
0.0
 40
0.5013906466710401
 40
1.001753641302512
 40
1.501613792973964
 40
2.001838991937021
 40
2.001838991937021
 40
2.001838991937021
 40
2.001838991937021
 10
-13.6058959961
 20
-92.11064451932911
 30
0.0
 10
-13.69635333457006
 20
-92.25234132002743
 30
0.0
 10
-13.8770826098299
 20
-92.53544449916107
 30
0.0
 10
-13.98906713885277
 20
-93.03443194578496
 30
0.0
 10
-13.93943634543155
 20
-93.54142120614383
 30
0.0
 10
-13.80547131858939
 20
-93.84835630388742
 30
0.0
 10
-13.73846435547
 20
-94.00187987089109
 30
0.0
 11
-13.6058959961
 21
-92.11064451932911
 31
0.0
 11
-13.85070800782
 21
-92.54820555448512
 31
0.0
 11
-13.96215820313
 21
-93.03599852323513
 31
0.0
 11
-13.91424560547
 21
-93.53355711698512
 31
0.0
 11
-13.73846435547
 21
-94.00187987089109
 31
0.0
  0
ARC
  5
ACF6
330
1F
100
AcDbEntity
  8
AM_0
100
AcDbCircle
 10
-53.0
 20
-95.0
 30
0.0
 40
20.0
100
AcDbArc
 50
0.0
 51
89.99998201391099
  0
LINE
  5
ACF7
330
1F
100
AcDbEntity
  8
AM_11
100
AcDbLine
 10
-62.0
 20
-41.80000305175798
 30
0.0
 11
-28.5
 21
-41.80000305175798
 31
0.0
  0
LINE
  5
ACF8
330
1F
100
AcDbEntity
  8
AM_11
100
AcDbLine
 10
-62.0
 20
-59.80000305175798
 30
0.0
 11
-28.5
 21
-59.80000305175798
 31
0.0
  0
LINE
  5
ACF9
330
1F
100
AcDbEntity
  8
AM_7
100
AcDbLine
 10
-70.5
 20
-50.80000305175798
 30
0.0
 11
-20.50006103516
 21
-50.80000305175798
 31
0.0
  0
LINE
  5
ACFA
330
1F
100
AcDbEntity
  8
AM_0
 48
0.5
100
AcDbLine
 10
-63.0
 20
-65.0
 30
0.0
 11
-63.0
 21
-40.80000305175798
 31
0.0
  0
LINE
  5
ACFB
330
1F
100
AcDbEntity
  8
AM_11
100
AcDbLine
 10
-62.0
 20
-59.80000305175798
 30
0.0
 11
-62.0
 21
-41.80000305175798
 31
0.0
  0
LINE
  5
ACFC
330
1F
100
AcDbEntity
  8
AM_11
100
AcDbLine
 10
-62.0
 20
-41.80001068115302
 30
0.0
 11
-63.0
 21
-40.80001068115302
 31
0.0
  0
LINE
  5
ACFD
330
1F
100
AcDbEntity
  8
AM_11
100
AcDbLine
 10
-63.0
 20
-60.799999237061
 30
0.0
 11
-62.0
 21
-59.799999237061
 31
0.0
  0
ARC
  5
ACFE
330
1F
100
AcDbEntity
  8
AM_0
 48
0.5
100
AcDbCircle
 10
-60.0
 20
-73.0
 30
0.0
 40
2.0
100
AcDbArc
 50
180.0000359721813
 51
270.000017986089
  0
LINE
  5
ACFF
330
1F
100
AcDbEntity
  8
AM_0
 48
0.5
100
AcDbLine
 10
-62.0
 20
-73.0
 30
0.0
 11
-62.0
 21
-66.0
 31
0.0
  0
LINE
  5
AD00
330
1F
100
AcDbEntity
  8
AM_0
 48
0.5
100
AcDbLine
 10
-63.0
 20
-65.0
 30
0.0
 11
-61.99996948242
 21
-65.99998092651401
 31
0.0
  0
LINE
  5
AD01
330
1F
100
AcDbEntity
  8
AM_0
 48
0.5
100
AcDbLine
 10
-60.0
 20
-75.0
 30
0.0
 11
-53.0
 21
-75.0
 31
0.0
  0
LINE
  5
AD02
330
1F
100
AcDbEntity
  8
AM_11
100
AcDbLine
 10
-28.5
 20
-59.80000305175798
 30
0.0
 11
-28.5
 21
-41.80000305175798
 31
0.0
  0
LINE
  5
AD03
330
1F
100
AcDbEntity
  8
AM_11
100
AcDbLine
 10
-28.5
 20
-41.80000305175798
 30
0.0
 11
-28.0
 21
-41.30000305175798
 31
0.0
  0
ARC
  5
AD04
330
1F
100
AcDbEntity
  8
AM_0
 48
0.5
100
AcDbCircle
 10
-15.06484985352
 20
-75.0
 30
0.0
 40
10.0
100
AcDbArc
 50
25.00002403216704
 51
89.99998201391099
  0
LINE
  5
AD05
330
1F
100
AcDbEntity
  8
AM_11
100
AcDbLine
 10
-28.0
 20
-60.299999237061
 30
0.0
 11
-28.5
 21
-59.799999237061
 31
0.0
  0
LINE
  5
AD06
330
1F
100
AcDbEntity
  8
AM_0
 48
0.5
100
AcDbLine
 10
-28.0
 20
-65.0
 30
0.0
 11
-15.06484985352
 21
-65.0
 31
0.0
  0
LINE
  5
AD07
330
1F
100
AcDbEntity
  8
AM_0
 48
0.5
100
AcDbLine
 10
-6.001785278319971
 20
-70.77382278442399
 30
0.0
 11
-1.000076293949973
 21
-81.50001144409202
 31
0.0
  0
LINE
  5
AD08
330
1F
100
AcDbEntity
  8
AM_7
 48
0.5
100
AcDbLine
 10
-36.58206176758
 20
-88.64284056425114
 30
0.0
 11
-17.05828857422
 21
-88.64284056425114
 31
0.0
  0
LINE
  5
AD09
330
1F
100
AcDbEntity
  8
AM_0
 48
0.5
100
AcDbLine
 10
-0.99853515625
 20
-84.41978758573512
 30
0.0
 11
-14.7802734375
 21
-84.41978758573512
 31
0.0
  0
LINE
  5
AD0A
330
1F
100
AcDbEntity
  8
AM_0
 48
0.5
100
AcDbLine
 10
-14.97875976563
 20
-84.22130125761013
 30
0.0
 11
-0.8000488281300022
 21
-84.22130125761013
 31
0.0
  0
ARC
  5
AD0B
330
1F
100
AcDbEntity
  8
AM_0
 48
0.5
100
AcDbCircle
 10
-10.59625244141
 20
-76.66783446073512
 30
0.0
 40
10.09591865539499
100
AcDbArc
 50
254.4494462649635
 51
285.5517918205082
  0
ARC
  5
AD0C
330
1F
100
AcDbEntity
  8
AM_0
 48
0.5
100
AcDbCircle
 10
-10.5267944336
 20
-83.31907957792211
 30
0.0
 40
3.0356278419495
100
AcDbArc
 50
230.519666771962
 51
284.226796593225
  0
LINE
  5
AD0D
330
1F
100
AcDbEntity
  8
AM_0
 48
0.5
100
AcDbLine
 10
-23.54608154297
 20
-86.14284056425114
 30
0.0
 11
-18.54608154297
 21
-86.14284056425114
 31
0.0
  0
LINE
  5
AD0E
330
1F
100
AcDbEntity
  8
AM_0
 48
0.5
100
AcDbLine
 10
-23.54608154297
 20
-91.14284056425114
 30
0.0
 11
-18.54608154297
 21
-91.14284056425114
 31
0.0
  0
LINE
  5
AD0F
330
1F
100
AcDbEntity
  8
AM_0
 48
0.5
100
AcDbLine
 10
-24.04608154297
 20
-90.64393919706308
 30
0.0
 11
-18.54608154297
 21
-90.64393919706308
 31
0.0
  0
LINE
  5
AD10
330
1F
100
AcDbEntity
  8
AM_0
 48
0.5
100
AcDbLine
 10
-18.54608154297
 20
-86.64174193143807
 30
0.0
 11
-24.04608154297
 21
-86.64174193143807
 31
0.0
  0
LINE
  5
AD11
330
1F
100
AcDbEntity
  8
AM_0
 48
0.5
100
AcDbLine
 10
-24.04598999024
 20
-90.64280623197507
 30
0.0
 11
-23.54602050782
 21
-91.14279097318613
 31
0.0
  0
LINE
  5
AD12
330
1F
100
AcDbEntity
  8
AM_0
 48
0.5
100
AcDbLine
 10
-24.04605102539
 20
-86.64282149076413
 30
0.0
 11
-23.54608154297
 21
-86.14283293485611
 31
0.0
  0
LINE
  5
AD13
330
1F
100
AcDbEntity
  8
AM_0
 48
0.5
100
AcDbLine
 10
-24.04608154297
 20
-90.64284056425114
 30
0.0
 11
-24.04608154297
 21
-86.64284056425115
 31
0.0
  0
LINE
  5
AD14
330
1F
100
AcDbEntity
  8
AM_0
 48
0.5
100
AcDbLine
 10
-23.54333496094
 20
-91.14284056425114
 30
0.0
 11
-23.54333496094
 21
-86.14284056425114
 31
0.0
  0
ARC
  5
AD15
330
1F
100
AcDbEntity
  8
AM_0
 48
0.5
100
AcDbCircle
 10
-23.3305053711
 20
-89.40385740995409
 30
0.0
 40
10.09431266784599
100
AcDbArc
 50
344.4458185238984
 51
15.55318768357414
  0
LINE
  5
AD16
330
1F
100
AcDbEntity
  8
AM_0
 48
0.5
100
AcDbLine
 10
-18.04608154297
 20
-91.08476561307909
 30
0.0
 11
-15.97857666016
 21
-91.08476561307909
 31
0.0
  0
LINE
  5
AD17
330
1F
100
AcDbEntity
  8
AM_0
 48
0.5
100
AcDbLine
 10
-18.54602050782
 20
-91.14288824796611
 30
0.0
 11
-18.04602050782
 21
-90.64291495084715
 31
0.0
  0
LINE
  5
AD18
330
1F
100
AcDbEntity
  8
AM_0
 48
0.5
100
AcDbLine
 10
-18.04608154297
 20
-85.20091551542211
 30
0.0
 11
-16.14221191407
 21
-85.20091551542211
 31
0.0
  0
LINE
  5
AD19
330
1F
100
AcDbEntity
  8
AM_0
 48
0.5
100
AcDbLine
 10
-18.54608154297
 20
-86.14284628629613
 30
0.0
 11
-18.04608154297
 21
-86.64281004667211
 31
0.0
  0
LINE
  5
AD1A
330
1F
100
AcDbEntity
  8
AM_0
 48
0.5
100
AcDbLine
 10
-18.04608154297
 20
-91.08476561307909
 30
0.0
 11
-18.04608154297
 21
-85.20091551542211
 31
0.0
  0
LINE
  5
AD1B
330
1F
100
AcDbEntity
  8
AM_0
 48
0.5
100
AcDbLine
 10
-18.04608154297
 20
-90.64287108182909
 30
0.0
 11
-18.04608154297
 21
-86.64281004667211
 31
0.0
  0
LINE
  5
AD1C
330
1F
100
AcDbEntity
  8
AM_0
 48
0.5
100
AcDbLine
 10
-18.54608154297
 20
-91.14284056425114
 30
0.0
 11
-18.54608154297
 21
-86.14284056425114
 31
0.0
  0
LINE
  5
AD1D
330
1F
100
AcDbEntity
  8
AM_0
 48
0.5
100
AcDbLine
 10
-11.50842285157
 20
-86.72241896390913
 30
0.0
 11
-12.45684814454
 21
-85.66212385892809
 31
0.0
  0
LINE
  5
AD1E
330
1F
100
AcDbEntity
  8
AM_0
 48
0.5
100
AcDbLine
 10
-14.22662353516
 20
-84.97969549894307
 30
0.0
 11
-14.98544311524
 21
-84.22134512662907
 31
0.0
  0
LINE
  5
AD1F
330
1F
100
AcDbEntity
  8
AM_0
 48
0.5
100
AcDbLine
 10
-15.7787475586
 20
-85.01469534635512
 30
0.0
 11
-15.02038574219
 21
-85.77355498075414
 31
0.0
  0
LINE
  5
AD20
330
1F
100
AcDbEntity
  8
AM_0
 48
0.5
100
AcDbLine
 10
-13.30314636231003
 20
-86.39422911405516
 30
0.0
 11
-14.22659301758
 21
-84.9797469973561
 31
0.0
  0
LINE
  5
AD21
330
1F
100
AcDbEntity
  8
AM_0
 48
0.5
100
AcDbLine
 10
-15.02041625977
 20
-85.77353972196508
 30
0.0
 11
-13.60592651368
 21
-86.69706267118412
 31
0.0
  0
LINE
  5
AD22
330
1F
100
AcDbEntity
  8
AM_0
 48
0.5
100
AcDbLine
 10
-13.74064636231003
 20
-90.21877783536908
 30
0.0
 11
-13.27758789063
 21
-90.3159438967701
 31
0.0
  0
LINE
  5
AD23
330
1F
100
AcDbEntity
  8
AM_0
 48
0.5
100
AcDbLine
 10
-14.02728271485
 20
-89.48643797636012
 30
0.0
 11
-13.64318847657
 21
-89.48643797636012
 31
0.0
  0
LINE
  5
AD24
330
1F
100
AcDbEntity
  8
AM_0
 48
0.5
100
AcDbLine
 10
-13.27790832519997
 20
-88.49136275053011
 30
0.0
 11
-14.30125427246002
 21
-87.59720724821111
 31
0.0
  0
ARC
  5
AD25
330
1F
100
AcDbEntity
  8
AM_0
 48
0.5
100
AcDbCircle
 10
-14.7802734375
 20
-85.21977537870411
 30
0.0
 40
0.8000000119209
100
AcDbArc
 50
89.99997199600034
 51
180.0000223118013
  0
LINE
  5
AD26
330
1F
100
AcDbEntity
  8
AM_0
 48
0.5
100
AcDbLine
 10
-15.77877807618
 20
-90.59788054227814
 30
0.0
 11
-15.98910522461
 21
-90.59711951017309
 31
0.0
  0
ARC
  5
AD27
330
1F
100
AcDbEntity
  8
AM_0
 48
0.5
100
AcDbCircle
 10
-14.97875976563
 20
-85.0212890505791
 30
0.0
 40
0.8000000119209
100
AcDbArc
 50
89.99997199600034
 51
180.0000223118013
  0
LINE
  5
AD28
330
1F
100
AcDbEntity
  8
AM_0
 48
0.5
100
AcDbLine
 10
-15.978515625
 20
-91.08474653959214
 30
0.0
 11
-15.98907470704
 21
-90.59688490629211
 31
0.0
  0
LINE
  5
AD29
330
1F
100
AcDbEntity
  8
AM_0
 48
0.5
100
AcDbLine
 10
-15.7787475586
 20
-92.11064451932911
 30
0.0
 11
-13.6058959961
 21
-92.11064451932911
 31
0.0
  0
LINE
  5
AD2A
330
1F
100
AcDbEntity
  8
AM_0
 48
0.5
100
AcDbLine
 10
-14.02728271485
 20
-94.73485106229711
 30
0.0
 11
-13.64318847657
 21
-94.73485106229711
 31
0.0
  0
LINE
  5
AD2B
330
1F
100
AcDbEntity
  8
AM_0
 48
0.5
100
AcDbLine
 10
-13.7406616211
 20
-94.0024806857111
 30
0.0
 11
-13.27749633789
 21
-93.90524405241009
 31
0.0
  0
LINE
  5
AD2C
330
1F
100
AcDbEntity
  8
AM_0
 48
0.5
100
AcDbLine
 10
-0.0000610351600017
 20
-92.11064451932911
 30
0.0
 11
-2.1728515625
 21
-92.11064451932911
 31
0.0
  0
LINE
  5
AD2D
330
1F
100
AcDbEntity
  8
AM_0
 48
0.5
100
AcDbLine
 10
-0.7584686279300286
 20
-85.77352446317613
 30
0.0
 11
-2.172912597660001
 21
-86.69697684049614
 31
0.0
  0
ARC
  5
AD2E
330
1F
100
AcDbEntity
  8
AM_0
 48
0.5
100
AcDbCircle
 10
-0.99853515625
 20
-85.21977537870411
 30
0.0
 40
0.8000000119209
100
AcDbArc
 50
0.0
 51
89.99998201391099
  0
ARC
  5
AD2F
330
1F
100
AcDbEntity
  8
AM_0
 48
0.5
100
AcDbCircle
 10
7.551696777339998
 20
-89.40385740995409
 30
0.0
 40
10.09431266784599
100
AcDbArc
 50
164.4469029301137
 51
195.5542072029961
  0
LINE
  5
AD30
330
1F
100
AcDbEntity
  8
AM_0
 48
0.5
100
AcDbLine
 10
-6.09465026856003
 20
-86.72247618436811
 30
0.0
 11
-5.944686889650029
 21
-86.27224463224408
 31
0.0
  0
ARC
  5
AD31
330
1F
100
AcDbEntity
  8
AM_0
 48
0.5
100
AcDbCircle
 10
-5.182556152350002
 20
-76.66783446073512
 30
0.0
 40
10.09591865539499
100
AcDbArc
 50
254.4481895101598
 51
285.5502003864303
  0
ARC
  5
AD32
330
1F
100
AcDbEntity
  8
AM_0
 48
0.5
100
AcDbCircle
 10
-5.253723144540003
 20
-83.3196288943291
 30
0.0
 40
3.0323553085327
100
AcDbArc
 50
255.7986886637975
 51
309.7131352169447
  0
LINE
  5
AD33
330
1F
100
AcDbEntity
  8
AM_0
 48
0.5
100
AcDbLine
 10
-7.889404296880002
 20
-84.22130125761013
 30
0.0
 11
-7.889404296880002
 21
-86.39415282011013
 31
0.0
  0
LINE
  5
AD34
330
1F
100
AcDbEntity
  8
AM_0
 48
0.5
100
AcDbLine
 10
-9.833923339850002
 20
-86.27456206083312
 30
0.0
 11
-9.684661865240002
 21
-86.72258108854313
 31
0.0
  0
ARC
  5
AD35
330
1F
100
AcDbEntity
  8
AM_0
 48
0.5
100
AcDbCircle
 10
-8.932922363290003
 20
-87.72447508573511
 30
0.0
 40
1.690773367881799
100
AcDbArc
 50
51.88900859628952
 51
120.0933037233653
  0
ARC
  5
AD36
330
1F
100
AcDbEntity
  8
AM_0
 48
0.5
100
AcDbCircle
 10
-6.839477539070003
 20
-87.7861816287041
 30
0.0
 40
1.7435697317123
100
AcDbArc
 50
61.12910024134754
 51
127.0235415043383
  0
LINE
  5
AD37
330
1F
100
AcDbEntity
  8
AM_0
 48
0.5
100
AcDbLine
 10
-10.51361083985
 20
-86.35686033964109
 30
0.0
 11
-10.51361083985
 21
-85.97276610136011
 31
0.0
  0
LINE
  5
AD38
330
1F
100
AcDbEntity
  8
AM_0
 48
0.5
100
AcDbLine
 10
-2.47581481934003
 20
-86.3941165804861
 30
0.0
 11
-1.552337646490002
 21
-84.97960776090607
 31
0.0
  0
LINE
  5
AD39
330
1F
100
AcDbEntity
  8
AM_0
 48
0.5
100
AcDbLine
 10
-2.50115966797
 20
-88.49158018827413
 30
0.0
 11
-1.440826416020001
 21
-87.54313963651609
 31
0.0
  0
LINE
  5
AD3A
330
1F
100
AcDbEntity
  8
AM_0
 48
0.5
100
AcDbLine
 10
-2.501281738290003
 20
-90.31597441434811
 30
0.0
 11
-2.038101196289971
 21
-90.21880835294709
 31
0.0
  0
LINE
  5
AD3B
330
1F
100
AcDbEntity
  8
AM_0
 48
0.5
100
AcDbLine
 10
-2.135620117190001
 20
-89.48643797636012
 30
0.0
 11
-1.751525878910001
 21
-89.48643797636012
 31
0.0
  0
LINE
  5
AD3C
330
1F
100
AcDbEntity
  8
AM_0
 48
0.5
100
AcDbLine
 10
-5.265197753910001
 20
-86.35686033964109
 30
0.0
 11
-5.265197753910001
 21
-85.97276610136011
 31
0.0
  0
LINE
  5
AD3D
330
1F
100
AcDbEntity
  8
AM_0
 48
0.5
100
AcDbLine
 10
-4.270370483400029
 20
-86.72243040800115
 30
0.0
 11
-3.324295043949973
 21
-85.65893286466607
 31
0.0
  0
LINE
  5
AD3E
330
1F
100
AcDbEntity
  8
AM_0
 48
0.5
100
AcDbLine
 10
-2.135620117190001
 20
-94.73485106229711
 30
0.0
 11
-1.751525878910001
 21
-94.73485106229711
 31
0.0
  0
LINE
  5
AD3F
330
1F
100
AcDbEntity
  8
AM_0
 48
0.5
100
AcDbLine
 10
-2.038040161139974
 20
-94.00256079435312
 30
0.0
 11
-2.501113891609975
 21
-93.90533179044709
 31
0.0
  0
LINE
  5
AD40
330
1F
100
AcDbEntity
  8
AM_0
 48
0.5
100
AcDbLine
 10
-0.0000305175800008
 20
-85.02122801542212
 30
0.0
 11
-0.7584533691399998
 21
-85.77351301908512
 31
0.0
  0
ARC
  5
AD41
330
1F
100
AcDbEntity
  8
AM_0
 48
0.5
100
AcDbCircle
 10
-0.8000488281300022
 20
-85.0212890505791
 30
0.0
 40
0.8000000119209
100
AcDbArc
 50
0.0
 51
89.99998201391099
  0
SPLINE
  5
AD42
330
1F
100
AcDbEntity
  8
AM_0
 48
0.5
100
AcDbSpline
210
0.0
220
0.0
230
1.0
 70
     8
 71
     3
 72
    11
 73
     7
 74
     5
 42
0.0000000001
 43
0.0000000001
 44
0.0000000001
 40
0.0
 40
0.0
 40
0.0
 40
0.0
 40
0.3071548196216181
 40
0.6146076587580998
 40
0.9136787535046993
 40
1.232977650129078
 40
1.232977650129078
 40
1.232977650129078
 40
1.232977650129078
 10
-14.22650146485
 20
-99.24162596464109
 30
0.0
 10
-14.3294391882017
 20
-99.22846297778859
 30
0.0
 10
-14.53541451108614
 20
-99.20212423258623
 30
0.0
 10
-14.79235774405325
 20
-99.02055344060132
 30
0.0
 10
-14.97671731166001
 20
-98.76164027653624
 30
0.0
 10
-15.00551558720879
 20
-98.55463173609704
 30
0.0
 10
-15.02038574219
 20
-98.44774168729712
 30
0.0
 11
-14.22650146485
 21
-99.24162596464109
 31
0.0
 11
-14.52703857422
 21
-99.17821043729711
 31
0.0
 11
-14.78192138672
 21
-99.00627440214108
 31
0.0
 11
-14.9506225586
 21
-98.75932615995409
 31
0.0
 11
-15.02038574219
 21
-98.44774168729712
 31
0.0
  0
SPLINE
  5
AD43
330
1F
100
AcDbEntity
  8
AM_0
 48
0.5
100
AcDbSpline
210
0.0
220
0.0
230
1.0
 70
     8
 71
     3
 72
    11
 73
     7
 74
     5
 42
0.0000000001
 43
0.0000000001
 44
0.0000000001
 40
0.0
 40
0.0
 40
0.0
 40
0.0
 40
0.1366558066273321
 40
0.2483023381377695
 40
0.3573524018414197
 40
0.4879209245610364
 40
0.4879209245610364
 40
0.4879209245610364
 40
0.4879209245610364
 10
-13.30303955079
 20
-97.82713621854711
 30
0.0
 10
-13.34884447655495
 20
-97.82348906544903
 30
0.0
 10
-13.43207160349792
 20
-97.81686222196427
 30
0.0
 10
-13.53984346533342
 20
-97.75520138848857
 30
0.0
 10
-13.60112970223071
 20
-97.64900938969375
 30
0.0
 10
-13.60421487881096
 20
-97.5682730981191
 30
0.0
 10
-13.6058959961
 20
-97.52427977323513
 30
0.0
 11
-13.30303955079
 21
-97.82713621854711
 31
0.0
 11
-13.4379272461
 21
-97.80522459745411
 31
0.0
 11
-13.53344726563
 21
-97.74742430448512
 31
0.0
 11
-13.58935546875
 21
-97.65379637479711
 31
0.0
 11
-13.6058959961
 21
-97.52427977323513
 31
0.0
  0
SPLINE
  5
AD44
330
1F
100
AcDbEntity
  8
AM_0
 48
0.5
100
AcDbSpline
210
0.0
220
0.0
230
1.0
 70
     8
 71
     3
 72
    11
 73
     7
 74
     5
 42
0.0000000001
 43
0.0000000001
 44
0.0000000001
 40
0.0
 40
0.0
 40
0.0
 40
0.0
 40
0.9759866351664813
 40
1.95704332578604
 40
2.934705213054845
 40
3.912836439419958
 40
3.912836439419958
 40
3.912836439419958
 40
3.912836439419958
 10
-10.51361083985
 20
-98.24852293729712
 30
0.0
 10
-10.84244403898336
 20
-98.28756398810284
 30
0.0
 10
-11.50181865998015
 20
-98.36584890016826
 30
0.0
 10
-12.31033714025168
 20
-98.94400784649022
 30
0.0
 10
-13.23840986200614
 20
-99.32969355926054
 30
0.0
 10
-13.89708490898508
 20
-99.27098652556415
 30
0.0
 10
-14.22650146485
 20
-99.24162596464109
 30
0.0
 11
-10.51361083985
 21
-98.24852293729712
 31
0.0
 11
-11.47021484374999
 21
-98.44206541776609
 31
0.0
 11
-12.33117675782
 21
-98.91240233182911
 31
0.0
 11
-13.24841308594
 21
-99.2507812380791
 31
0.0
 11
-14.22650146485
 21
-99.24162596464109
 31
0.0
  0
SPLINE
  5
AD45
330
1F
100
AcDbEntity
  8
AM_0
 48
0.5
100
AcDbSpline
210
0.0
220
0.0
230
1.0
 70
     8
 71
     3
 72
    11
 73
     7
 74
     5
 42
0.0000000001
 43
0.0000000001
 44
0.0000000001
 40
0.0
 40
0.0
 40
0.0
 40
0.0
 40
0.4896570354804016
 40
0.9660412197425603
 40
1.441073045361528
 40
1.926621078731365
 40
1.926621078731365
 40
1.926621078731365
 40
1.926621078731365
 10
-15.02038574219
 20
-98.44774168729712
 30
0.0
 10
-15.00396219887229
 20
-98.28499443369969
 30
0.0
 10
-14.97156029576563
 20
-97.96391142256561
 30
0.0
 10
-14.8304646096452
 20
-97.50207781229022
 30
0.0
 10
-14.62573334005471
 20
-97.06614398935967
 30
0.0
 10
-14.43457646730955
 20
-96.80838088487215
 30
0.0
 10
-14.33795166016
 20
-96.67808836698512
 30
0.0
 11
-15.02038574219
 21
-98.44774168729712
 31
0.0
 11
-14.95513916016
 21
-97.96245115995411
 31
0.0
 11
-14.81970214844
 21
-97.50572508573512
 31
0.0
 11
-14.61395263672
 21
-97.07756346464108
 31
0.0
 11
-14.33795166016
 21
-96.67808836698512
 31
0.0
  0
SPLINE
  5
AD46
330
1F
100
AcDbEntity
  8
AM_0
 48
0.5
100
AcDbSpline
210
0.0
220
0.0
230
1.0
 70
     8
 71
     3
 72
    11
 73
     7
 74
     5
 42
0.0000000001
 43
0.0000000001
 44
0.0000000001
 40
0.0
 40
0.0
 40
0.0
 40
0.0
 40
0.4883119192052433
 40
0.9647347245311081
 40
1.439904403699676
 40
1.924557089440277
 40
1.924557089440277
 40
1.924557089440277
 40
1.924557089440277
 10
-14.22650146485
 20
-99.24162596464109
 30
0.0
 10
-14.06443503044387
 20
-99.22335670656156
 30
0.0
 10
-13.7442480540395
 20
-99.1872629988973
 30
0.0
 10
-13.28338453872221
 20
-99.04519952203715
 30
0.0
 10
-12.84669828002731
 20
-98.8433262929997
 30
0.0
 10
-12.58611016579078
 20
-98.65659351883243
 30
0.0
 10
-12.4545288086
 20
-98.5623046755791
 30
0.0
 11
-14.22650146485
 21
-99.24162596464109
 31
0.0
 11
-13.74322509766
 21
-99.1716796755791
 31
0.0
 11
-13.28680419922
 21
-99.03508299589109
 31
0.0
 11
-12.85723876954
 21
-98.8319579958911
 31
0.0
 11
-12.4545288086
 21
-98.5623046755791
 31
0.0
  0
SPLINE
  5
AD47
330
1F
100
AcDbEntity
  8
AM_0
 48
0.5
100
AcDbSpline
210
0.0
220
0.0
230
1.0
 70
     8
 71
     3
 72
    11
 73
     7
 74
     5
 42
0.0000000001
 43
0.0000000001
 44
0.0000000001
 40
0.0
 40
0.0
 40
0.0
 40
0.0
 40
0.307154819625691
 40
0.6145735303980027
 40
0.9136446251442682
 40
1.233003082560568
 40
1.233003082560568
 40
1.233003082560568
 40
1.233003082560568
 10
-0.7584228515700034
 20
-98.44774168729712
 30
0.0
 10
-0.7715901251778715
 20
-98.55067642612496
 30
0.0
 10
-0.7979359850174321
 20
-98.75663433985433
 30
0.0
 10
-0.9794282984517291
 20
-99.01361512143193
 30
0.0
 10
-1.238368429624721
 20
-99.19796746877606
 30
0.0
 10
-1.445397062132702
 20
-99.22675830825163
 30
0.0
 10
-1.552307128910001
 20
-99.24162596464109
 30
0.0
 11
-0.7584228515700034
 21
-98.44774168729712
 31
0.0
 11
-0.8218383789100016
 21
-98.74827879667211
 31
0.0
 11
-0.9937133789100016
 21
-99.00316160917212
 31
0.0
 11
-1.240661621100002
 21
-99.17186278104711
 31
0.0
 11
-1.552307128910001
 21
-99.24162596464109
 31
0.0
  0
SPLINE
  5
AD48
330
1F
100
AcDbEntity
  8
AM_0
 48
0.5
100
AcDbSpline
210
0.0
220
0.0
230
1.0
 70
     8
 71
     3
 72
    11
 73
     7
 74
     5
 42
0.0000000001
 43
0.0000000001
 44
0.0000000001
 40
0.0
 40
0.0
 40
0.0
 40
0.0
 40
0.1366460334312753
 40
0.2483241755325907
 40
0.3573218403179167
 40
0.4879509066956772
 40
0.4879509066956772
 40
0.4879509066956772
 40
0.4879509066956772
 10
-2.172912597660001
 20
-97.52427977323513
 30
0.0
 10
-2.17652732330676
 20
-97.57009024203849
 30
0.0
 10
-2.18309629383205
 20
-97.65334071488942
 30
0.0
 10
-2.244852029875122
 20
-97.76104462415599
 30
0.0
 10
-2.351001060202973
 20
-97.8223975984693
 30
0.0
 10
-2.431749948033626
 20
-97.82546439727978
 30
0.0
 10
-2.47576904297
 20
-97.82713621854711
 30
0.0
 11
-2.172912597660001
 21
-97.52427977323513
 31
0.0
 11
-2.194763183600002
 21
-97.65916746854712
 31
0.0
 11
-2.25262451172
 21
-97.75468748807909
 31
0.0
 11
-2.34619140625
 21
-97.8105956912041
 31
0.0
 11
-2.47576904297
 21
-97.82713621854711
 31
0.0
  0
SPLINE
  5
AD49
330
1F
100
AcDbEntity
  8
AM_0
 48
0.5
100
AcDbSpline
210
0.0
220
0.0
230
1.0
 70
     8
 71
     3
 72
    11
 73
     7
 74
     5
 42
0.0000000001
 43
0.0000000001
 44
0.0000000001
 40
0.0
 40
0.0
 40
0.0
 40
0.0
 40
0.9778214617423362
 40
1.960112741037656
 40
2.938020370621699
 40
3.9181099218619
 40
3.9181099218619
 40
3.9181099218619
 40
3.9181099218619
 10
-5.265197753910001
 20
-98.24852293729712
 30
0.0
 10
-4.933665963484574
 20
-98.27892036250744
 30
0.0
 10
-4.269086884483805
 20
-98.33985416564091
 30
0.0
 10
-3.469788072362152
 20
-98.93993675847807
 30
0.0
 10
-2.542099403078668
 20
-99.33165514634836
 30
0.0
 10
-1.882482904602421
 20
-99.27165797810586
 30
0.0
 10
-1.552307128910001
 20
-99.24162596464109
 30
0.0
 11
-5.265197753910001
 21
-98.24852293729712
 31
0.0
 11
-4.303283691410001
 21
-98.42418211698513
 31
0.0
 11
-3.447204589850002
 21
-98.90587157011012
 31
0.0
 11
-2.532348632820003
 21
-99.25133055448512
 31
0.0
 11
-1.552307128910001
 21
-99.24162596464109
 31
0.0
  0
SPLINE
  5
AD4A
330
1F
100
AcDbEntity
  8
AM_0
 48
0.5
100
AcDbSpline
210
0.0
220
0.0
230
1.0
 70
     8
 71
     3
 72
    11
 73
     7
 74
     5
 42
0.0000000001
 43
0.0000000001
 44
0.0000000001
 40
0.0
 40
0.0
 40
0.0
 40
0.0
 40
0.7261136062940347
 40
1.455838879495716
 40
2.173971794633521
 40
2.896594268308393
 40
2.896594268308393
 40
2.896594268308393
 40
2.896594268308393
 10
-7.889404296880002
 20
-97.82713621854711
 30
0.0
 10
-7.730241881849197
 20
-98.01084370000408
 30
0.0
 10
-7.411125382794846
 20
-98.37917241832165
 30
0.0
 10
-6.667189826742379
 20
-98.6505203956521
 30
0.0
 10
-5.978751141201239
 20
-98.34582187640357
 30
0.0
 10
-5.503542484511333
 20
-98.28102322366973
 30
0.0
 10
-5.265197753910001
 20
-98.24852293729712
 30
0.0
 11
-7.889404296880002
 21
-97.82713621854711
 31
0.0
 11
-7.36737060547
 21
-98.3318359255791
 31
0.0
 11
-6.672424316410001
 21
-98.55443114042211
 31
0.0
 11
-5.975646972660001
 21
-98.38060301542212
 31
0.0
 11
-5.265197753910001
 21
-98.24852293729712
 31
0.0
  0
SPLINE
  5
AD4B
330
1F
100
AcDbEntity
  8
AM_0
 48
0.5
100
AcDbSpline
210
0.0
220
0.0
230
1.0
 70
     8
 71
     3
 72
    11
 73
     7
 74
     5
 42
0.0000000001
 43
0.0000000001
 44
0.0000000001
 40
0.0
 40
0.0
 40
0.0
 40
0.0
 40
0.4883119192019766
 40
0.9647347245265061
 40
1.439904403701395
 40
1.924557089439235
 40
1.924557089439235
 40
1.924557089439235
 40
1.924557089439235
 10
-0.7584228515700034
 20
-98.44774168729712
 30
0.0
 10
-0.7766921096484183
 20
-98.28567525289185
 30
0.0
 10
-0.8127858173104939
 20
-97.96548827648859
 30
0.0
 10
-0.9548492941767038
 20
-97.50462476117263
 30
0.0
 10
-1.156722523208791
 20
-97.06793850247459
 30
0.0
 10
-1.343455297377057
 20
-96.80735038823712
 30
0.0
 10
-1.437744140630002
 20
-96.67576903104711
 30
0.0
 11
-0.7584228515700034
 21
-98.44774168729712
 31
0.0
 11
-0.8283691406300022
 21
-97.96446532011012
 31
0.0
 11
-0.9649658203200033
 21
-97.50804442167211
 31
0.0
 11
-1.168090820320003
 21
-97.07847899198512
 31
0.0
 11
-1.437744140630002
 21
-96.67576903104711
 31
0.0
  0
SPLINE
  5
AD4C
330
1F
100
AcDbEntity
  8
AM_0
 48
0.5
100
AcDbSpline
210
0.0
220
0.0
230
1.0
 70
     8
 71
     3
 72
    11
 73
     7
 74
     5
 42
0.0000000001
 43
0.0000000001
 44
0.0000000001
 40
0.0
 40
0.0
 40
0.0
 40
0.0
 40
0.4896570354775445
 40
0.9660412197404093
 40
1.441073045364314
 40
1.926621078730372
 40
1.926621078730372
 40
1.926621078730372
 40
1.926621078730372
 10
-1.552307128910001
 20
-99.24162596464109
 30
0.0
 10
-1.71505438250644
 20
-99.22520242132289
 30
0.0
 10
-2.036137393639678
 20
-99.19280051821511
 30
0.0
 10
-2.497971003915607
 20
-99.05170483209488
 30
0.0
 10
-2.933904826850191
 20
-98.84697356251038
 30
0.0
 10
-3.191667931335341
 20
-98.65581668976098
 30
0.0
 10
-3.32196044922
 20
-98.55919188261012
 30
0.0
 11
-1.552307128910001
 21
-99.24162596464109
 31
0.0
 11
-2.03759765625
 21
-99.17637938261012
 31
0.0
 11
-2.49432373047
 21
-99.04094237089109
 31
0.0
 11
-2.922485351570003
 21
-98.83519285917211
 31
0.0
 11
-3.32196044922
 21
-98.55919188261012
 31
0.0
  0
SPLINE
  5
AD4D
330
1F
100
AcDbEntity
  8
AM_0
 48
0.5
100
AcDbSpline
210
0.0
220
0.0
230
1.0
 70
     8
 71
     3
 72
    11
 73
     7
 74
     5
 42
0.0000000001
 43
0.0000000001
 44
0.0000000001
 40
0.0
 40
0.0
 40
0.0
 40
0.0
 40
0.7216332902068641
 40
1.450546468462387
 40
2.171036564382361
 40
2.896920233625356
 40
2.896920233625356
 40
2.896920233625356
 40
2.896920233625356
 10
-7.889404296880002
 20
-97.82713621854711
 30
0.0
 10
-8.045691431822417
 20
-98.01227740129441
 30
0.0
 10
-8.359842337460149
 20
-98.38442748423203
 30
0.0
 10
-9.106185157634154
 20
-98.6424313672736
 30
0.0
 10
-9.797784950653541
 20
-98.35070557616299
 30
0.0
 10
-10.27440976047556
 20
-98.2826683878584
 30
0.0
 10
-10.51361083985
 20
-98.24852293729712
 30
0.0
 11
-7.889404296880002
 21
-97.82713621854711
 31
0.0
 11
-8.403930664070003
 21
-98.33311766386012
 31
0.0
 11
-9.099609375
 21
-98.55070799589109
 31
0.0
 11
-9.800231933600002
 21
-98.38267821073513
 31
0.0
 11
-10.51361083985
 21
-98.24852293729712
 31
0.0
  0
SPLINE
  5
AD4E
330
1F
100
AcDbEntity
  8
AM_0
 48
0.5
100
AcDbSpline
210
0.0
220
0.0
230
1.0
 70
     8
 71
     3
 72
    11
 73
     7
 74
     5
 42
0.0000000001
 43
0.0000000001
 44
0.0000000001
 40
0.0
 40
0.0
 40
0.0
 40
0.0
 40
0.9777614195805325
 40
1.960052698876025
 40
2.937960328462792
 40
3.918110911863074
 40
3.918110911863074
 40
3.918110911863074
 40
3.918110911863074
 10
-14.02728271485
 20
-94.73485106229711
 30
0.0
 10
-14.0576835715767
 20
-95.06636135967026
 30
0.0
 10
-14.11862612881206
 20
-95.73091780468752
 30
0.0
 10
-14.71869726592228
 20
-96.53019946941363
 30
0.0
 10
-15.11042022603044
 20
-97.45790801808633
 30
0.0
 10
-15.05042014681463
 20
-98.11754525961674
 30
0.0
 10
-15.02038574219
 20
-98.44774168729712
 30
0.0
 11
-14.02728271485
 21
-94.73485106229711
 31
0.0
 11
-14.20294189454
 21
-95.69670408964109
 31
0.0
 11
-14.68463134766
 21
-96.55278319120411
 31
0.0
 11
-15.03009033204
 21
-97.46763914823512
 31
0.0
 11
-15.02038574219
 21
-98.44774168729712
 31
0.0
  0
SPLINE
  5
AD4F
330
1F
100
AcDbEntity
  8
AM_0
 48
0.5
100
AcDbSpline
210
0.0
220
0.0
230
1.0
 70
     8
 71
     3
 72
    11
 73
     7
 74
     5
 42
0.0000000001
 43
0.0000000001
 44
0.0000000001
 40
0.0
 40
0.0
 40
0.0
 40
0.0
 40
0.9759866351735372
 40
1.957043325784617
 40
2.934726339636161
 40
3.912858139188359
 40
3.912858139188359
 40
3.912858139188359
 40
3.912858139188359
 10
-1.751525878910001
 20
-94.73485106229711
 30
0.0
 10
-1.712482822556797
 20
-95.06368365610311
 30
0.0
 10
-1.63419388897864
 20
-95.72305706329538
 30
0.0
 10
-1.056061027279302
 20
-96.53159049328984
 30
0.0
 10
-0.670259848712947
 20
-97.45963673689566
 30
0.0
 10
-0.7290306887209268
 20
-98.11832298928308
 30
0.0
 10
-0.7584228515700034
 20
-98.44774168729712
 30
0.0
 11
-1.751525878910001
 21
-94.73485106229711
 31
0.0
 11
-1.557983398440001
 21
-95.6914550662041
 31
0.0
 11
-1.087646484380002
 21
-96.55241698026609
 31
0.0
 11
-0.7492065429700006
 21
-97.4696533083911
 31
0.0
 11
-0.7584228515700034
 21
-98.44774168729712
 31
0.0
  0
SPLINE
  5
AD50
330
1F
100
AcDbEntity
  8
AM_0
 48
0.5
100
AcDbSpline
210
0.0
220
0.0
230
1.0
 70
     8
 71
     3
 72
    11
 73
     7
 74
     5
 42
0.0000000001
 43
0.0000000001
 44
0.0000000001
 40
0.0
 40
0.0
 40
0.0
 40
0.0
 40
0.5362083819559125
 40
1.054959959539161
 40
1.571615573975212
 40
2.102034174909328
 40
2.102034174909328
 40
2.102034174909328
 40
2.102034174909328
 10
-14.33795166016
 20
-96.67808836698512
 30
0.0
 10
-14.2317902784234
 20
-96.53373041105078
 30
0.0
 10
-14.02292370574331
 20
-96.24971421795041
 30
0.0
 10
-13.80716404846497
 20
-95.76870014805578
 30
0.0
 10
-13.67020660692696
 20
-95.26148460193287
 30
0.0
 10
-13.65373154776938
 20
-94.91192713035365
 30
0.0
 10
-13.64538574219
 20
-94.73485106229711
 30
0.0
 11
-14.33795166016
 21
-96.67808836698512
 31
0.0
 11
-14.03601074219
 21
-96.23497313261012
 31
0.0
 11
-13.81982421875
 21
-95.76341551542212
 31
0.0
 11
-13.68969726563
 21
-95.26341551542211
 31
0.0
 11
-13.64538574219
 21
-94.73485106229711
 31
0.0
  0
SPLINE
  5
AD51
330
1F
100
AcDbEntity
  8
AM_0
 48
0.5
100
AcDbSpline
210
0.0
220
0.0
230
1.0
 70
     8
 71
     3
 72
    11
 73
     7
 74
     5
 42
0.0000000001
 43
0.0000000001
 44
0.0000000001
 40
0.0
 40
0.0
 40
0.0
 40
0.0
 40
0.5349578245915146
 40
1.053457458273335
 40
1.570072465785335
 40
2.099694517740446
 40
2.099694517740446
 40
2.099694517740446
 40
2.099694517740446
 10
-1.437744140630002
 20
-96.67576903104711
 30
0.0
 10
-1.543080267292169
 20
-96.53134288599371
 30
0.0
 10
-1.750511812652999
 20
-96.24693392386225
 30
0.0
 10
-1.966016859269665
 20
-95.76655096609183
 30
0.0
 10
-2.10560683027564
 20
-95.26061756516321
 30
0.0
 10
-2.125533112275484
 20
-94.91155311140728
 30
0.0
 10
-2.135620117190001
 20
-94.73485106229711
 30
0.0
 11
-1.437744140630002
 21
-96.67576903104711
 31
0.0
 11
-1.737548828130002
 21
-96.23271483182911
 31
0.0
 11
-1.95379638672
 21
-95.76146239042211
 31
0.0
 11
-2.086547851570003
 21
-95.26219481229711
 31
0.0
 11
-2.135620117190001
 21
-94.73485106229711
 31
0.0
  0
SPLINE
  5
AD52
330
1F
100
AcDbEntity
  8
AM_0
 48
0.5
100
AcDbSpline
210
0.0
220
0.0
230
1.0
 70
     8
 71
     3
 72
    11
 73
     7
 74
     5
 42
0.0000000001
 43
0.0000000001
 44
0.0000000001
 40
0.0
 40
0.0
 40
0.0
 40
0.0
 40
0.3703646524519371
 40
0.7309035774609818
 40
1.081813672814617
 40
1.42316985145585
 40
1.42316985145585
 40
1.42316985145585
 40
1.42316985145585
 10
-13.27758789063
 20
-95.72960203886012
 30
0.0
 10
-13.37274257071822
 20
-95.80826700651286
 30
0.0
 10
-13.56052748925243
 20
-95.96350997016395
 30
0.0
 10
-13.83176894043471
 20
-96.20118772081617
 30
0.0
 10
-14.0910747340382
 20
-96.43772549868174
 30
0.0
 10
-14.2564199907572
 20
-96.59870798007302
 30
0.0
 10
-14.33795166016
 20
-96.67808836698512
 30
0.0
 11
-13.27758789063
 21
-95.72960203886012
 31
0.0
 11
-13.56188964844
 21
-95.96696776151608
 31
0.0
 11
-13.83337402344
 21
-96.20421141386012
 31
0.0
 11
-14.09210205079
 21
-96.44127196073512
 31
0.0
 11
-14.33795166016
 21
-96.67808836698512
 31
0.0
  0
ARC
  5
AD53
330
1F
100
AcDbEntity
  8
AM_0
 48
0.5
100
AcDbCircle
 10
-31.0
 20
-95.5
 30
0.0
 40
2.0
100
AcDbArc
 50
180.0000359721813
 51
270.000017986089
  0
LINE
  5
AD54
330
1F
100
AcDbEntity
  8
AM_0
 48
0.5
100
AcDbLine
 10
-33.0
 20
-95.5
 30
0.0
 11
-33.0
 21
-95.0
 31
0.0
  0
LINE
  5
AD55
330
1F
100
AcDbEntity
  8
AM_0
 48
0.5
100
AcDbLine
 10
-14.97875976563
 20
-99.99998778104711
 30
0.0
 11
-0.8000488281300022
 21
-99.99998778104711
 31
0.0
  0
LINE
  5
AD56
330
1F
100
AcDbEntity
  8
AM_0
 48
0.5
100
AcDbLine
 10
-14.7802734375
 20
-99.80150145292212
 30
0.0
 11
-0.99853515625
 21
-99.80150145292212
 31
0.0
  0
CIRCLE
  5
AD57
330
1F
100
AcDbEntity
  8
AM_0
 48
0.5
100
AcDbCircle
 10
-7.889404296880002
 20
-92.11064451932911
 30
0.0
 40
3.9000000953674
  0
ARC
  5
AD58
330
1F
100
AcDbEntity
  8
AM_0
 48
0.5
100
AcDbCircle
 10
-10.59625244141
 20
-107.5517455935471
 30
0.0
 40
10.09431266784599
100
AcDbArc
 50
74.44560587741974
 51
105.5529784521867
  0
ARC
  5
AD59
330
1F
100
AcDbEntity
  8
AM_0
 48
0.5
100
AcDbCircle
 10
-10.53765869141
 20
-100.845385730266
 30
0.0
 40
2.981073141097999
100
AcDbArc
 50
75.30196133517749
 51
130.3222769866465
  0
LINE
  5
AD5A
330
1F
100
AcDbEntity
  8
AM_0
 48
0.5
100
AcDbLine
 10
-31.0
 20
-97.5
 30
0.0
 11
-15.7787475586
 21
-97.5
 31
0.0
  0
LINE
  5
AD5B
330
1F
100
AcDbEntity
  8
AM_0
 48
0.5
100
AcDbLine
 10
-15.58026123047
 20
-99.00151365995411
 30
0.0
 11
-15.58026123047
 21
-85.21977537870411
 31
0.0
  0
LINE
  5
AD5C
330
1F
100
AcDbEntity
  8
AM_0
 48
0.5
100
AcDbLine
 10
-15.7787475586
 20
-85.0212890505791
 30
0.0
 11
-15.7787475586
 21
-99.19999998807909
 31
0.0
  0
LINE
  5
AD5D
330
1F
100
AcDbEntity
  8
AM_0
 48
0.5
100
AcDbLine
 10
-14.97879028321
 20
-99.9999391436571
 30
0.0
 11
-14.22653198243
 21
-99.24157828092511
 31
0.0
  0
ARC
  5
AD5E
330
1F
100
AcDbEntity
  8
AM_0
 48
0.5
100
AcDbCircle
 10
-14.7802734375
 20
-99.00151365995411
 30
0.0
 40
0.8000000119209
100
AcDbArc
 50
180.0000359721813
 51
270.000017986089
  0
ARC
  5
AD5F
330
1F
100
AcDbEntity
  8
AM_0
 48
0.5
100
AcDbCircle
 10
-14.97875976563
 20
-99.19999998807909
 30
0.0
 40
0.8000000119209
100
AcDbArc
 50
180.0000359721813
 51
270.000017986089
  0
LINE
  5
AD60
330
1F
100
AcDbEntity
  8
AM_0
 48
0.5
100
AcDbLine
 10
-15.0205078125
 20
-98.44776839017809
 30
0.0
 11
-13.60595703125
 21
-97.52426069974909
 31
0.0
  0
LINE
  5
AD61
330
1F
100
AcDbEntity
  8
AM_0
 48
0.5
100
AcDbLine
 10
-12.45683288575003
 20
-98.55915373563712
 30
0.0
 11
-11.50865173340003
 21
-97.49909514188713
 31
0.0
  0
ARC
  5
AD62
330
1F
100
AcDbEntity
  8
AM_0
 48
0.5
100
AcDbCircle
 10
-23.3305053711
 20
-94.81749266386012
 30
0.0
 40
10.09431266784599
100
AcDbArc
 50
344.4471999296568
 51
15.55455372140845
  0
LINE
  5
AD63
330
1F
100
AcDbEntity
  8
AM_0
 48
0.5
100
AcDbLine
 10
-14.22654724121002
 20
-99.24159353971411
 30
0.0
 11
-13.30307006836
 21
-97.82708662748312
 31
0.0
  0
LINE
  5
AD64
330
1F
100
AcDbEntity
  8
AM_0
 48
0.5
100
AcDbLine
 10
-15.02047729493
 20
-98.44785422086713
 30
0.0
 11
-15.77877807618
 21
-99.20008391141912
 31
0.0
  0
LINE
  5
AD65
330
1F
100
AcDbEntity
  8
AM_0
 48
0.5
100
AcDbLine
 10
-0.8000640869199742
 20
-99.99998301267609
 30
0.0
 11
-1.552139282229973
 21
-99.24180620908712
 31
0.0
  0
ARC
  5
AD66
330
1F
100
AcDbEntity
  8
AM_0
 48
0.5
100
AcDbCircle
 10
-0.99853515625
 20
-99.00151365995411
 30
0.0
 40
0.8000000119209
100
AcDbArc
 50
270.000017986089
 51
0.0
  0
LINE
  5
AD67
330
1F
100
AcDbEntity
  8
AM_0
 48
0.5
100
AcDbLine
 10
-2.173019409180028
 20
-97.52435415983208
 30
0.0
 11
-0.7585296630900303
 21
-98.44781035184812
 31
0.0
  0
LINE
  5
AD68
330
1F
100
AcDbEntity
  8
AM_0
 48
0.5
100
AcDbLine
 10
-6.094436645509972
 20
-97.49874037504211
 30
0.0
 11
-5.945220947270001
 21
-97.94661444425512
 31
0.0
  0
ARC
  5
AD69
330
1F
100
AcDbEntity
  8
AM_0
 48
0.5
100
AcDbCircle
 10
-5.182556152350002
 20
-107.5517455935471
 30
0.0
 40
10.09431266784599
100
AcDbArc
 50
74.44695825487279
 51
105.5543991315396
  0
ARC
  5
AD6A
330
1F
100
AcDbEntity
  8
AM_0
 48
0.5
100
AcDbCircle
 10
-5.24627685547
 20
-100.876513659954
 30
0.0
 40
3.012139081955
100
AcDbArc
 50
48.7917944303492
 51
115.6678329148202
  0
LINE
  5
AD6B
330
1F
100
AcDbEntity
  8
AM_0
 48
0.5
100
AcDbLine
 10
-9.833862304690001
 20
-97.94864004850408
 30
0.0
 11
-9.684020996100002
 21
-97.49875754117912
 31
0.0
  0
ARC
  5
AD6C
330
1F
100
AcDbEntity
  8
AM_0
 48
0.5
100
AcDbCircle
 10
-8.939270019540003
 20
-96.43529051542211
 30
0.0
 40
1.743403911590599
100
AcDbArc
 50
241.1189728920438
 51
307.0279590428694
  0
ARC
  5
AD6D
330
1F
100
AcDbEntity
  8
AM_0
 48
0.5
100
AcDbCircle
 10
-6.845825195320003
 20
-96.49644774198513
 30
0.0
 40
1.6910666227341
100
AcDbArc
 50
231.8958679274483
 51
280.0406214622525
  0
LINE
  5
AD6E
330
1F
100
AcDbEntity
  8
AM_0
 48
0.5
100
AcDbLine
 10
-7.889404296880002
 20
-99.99998778104711
 30
0.0
 11
-7.889404296880002
 21
-97.82713621854711
 31
0.0
  0
LINE
  5
AD6F
330
1F
100
AcDbEntity
  8
AM_0
 48
0.5
100
AcDbLine
 10
-10.51361083985
 20
-98.24852293729712
 30
0.0
 11
-10.51361083985
 21
-97.86442869901609
 31
0.0
  0
LINE
  5
AD70
330
1F
100
AcDbEntity
  8
AM_0
 48
0.5
100
AcDbLine
 10
-2.500915527350002
 20
-95.72988051176011
 30
0.0
 11
-1.440902709960028
 21
-96.67807120084715
 31
0.0
  0
ARC
  5
AD71
330
1F
100
AcDbEntity
  8
AM_0
 48
0.5
100
AcDbCircle
 10
7.551696777339998
 20
-94.81749266386012
 30
0.0
 40
10.09431266784599
100
AcDbArc
 50
164.4440479110412
 51
195.5527865236506
  0
LINE
  5
AD72
330
1F
100
AcDbEntity
  8
AM_0
 48
0.5
100
AcDbLine
 10
-5.265197753910001
 20
-98.24852293729712
 30
0.0
 11
-5.265197753910001
 21
-97.86442869901609
 31
0.0
  0
LINE
  5
AD73
330
1F
100
AcDbEntity
  8
AM_0
 48
0.5
100
AcDbLine
 10
-3.322067260750031
 20
-98.55923193693113
 30
0.0
 11
-4.270492553710028
 21
-97.49886435270312
 31
0.0
  0
LINE
  5
AD74
330
1F
100
AcDbEntity
  8
AM_0
 48
0.5
100
AcDbLine
 10
-1.552200317389974
 20
-99.24182146787613
 30
0.0
 11
-2.475830078130002
 21
-97.82716482877711
 31
0.0
  0
LINE
  5
AD75
330
1F
100
AcDbEntity
  8
AM_0
 48
0.5
100
AcDbLine
 10
-0.0000610351600017
 20
-99.19999998807909
 30
0.0
 11
-0.0000610351600017
 21
-85.0212890505791
 31
0.0
  0
LINE
  5
AD76
330
1F
100
AcDbEntity
  8
AM_0
 48
0.5
100
AcDbLine
 10
-0.1985473632900039
 20
-85.21977537870411
 30
0.0
 11
-0.1985473632900039
 21
-99.00151365995411
 31
0.0
  0
ARC
  5
AD77
330
1F
100
AcDbEntity
  8
AM_0
 48
0.5
100
AcDbCircle
 10
-0.8000488281300022
 20
-99.19999998807909
 30
0.0
 40
0.8000000119209
100
AcDbArc
 50
270.000017986089
 51
0.0
  0
LINE
  5
AD78
330
1F
100
AcDbEntity
  8
AM_0
 48
0.5
100
AcDbLine
 10
-0.7585906982500319
 20
-98.44783133268308
 30
0.0
 11
-0.0002136230500014
 21
-99.20011061429912
 31
0.0
  0
DIMENSION
  5
AD96
330
1F
100
AcDbEntity
  8
AM_5
100
AcDbDimension
  2
*D7
 10
-82.20092934940543
 20
-12.69999999999998
 30
0.0
 11
-85.39238577951199
 21
0.2255046377527776
 31
0.0
 70
   160
  1
<>
  3
AM_JIS$0
100
AcDbAlignedDimension
 13
-61.99996948242
 23
12.69999999999998
 33
0.0
 14
-62.0
 24
-12.69999999999998
 34
0.0
 50
270.0
100
AcDbRotatedDimension
1001
GENIUS_GENDTOL_13
1000

1000
h7
1000

1040
0.0
1001
ACAD
1000
DSTYLE
1002
{
1070
   287
1070
     5
1070
    42
1040
1.0
1070
    43
1040
12.0
1070
    48
1040
0.1
1070
    78
1070
     8
1070
   140
1040
3.2
1070
   176
1070
   256
1070
   177
1070
   256
1070
   271
1070
     3
1070
   272
1070
     3
1070
   275
1070
     0
1070
   279
1070
     2
1070
   284
1070
     0
1070
   289
1070
     3
1070
   340
1005
6B
1070
   371
1070
    -1
1070
   372
1070
    -1
1002
}
  0
DIMENSION
  5
AD97
330
1F
100
AcDbEntity
  8
AM_5
100
AcDbDimension
  2
*D6
 10
-94.68691290402615
 20
-23.81249999999999
 30
0.0
 11
-97.78691290402614
 21
-0.0000000000000045
 31
0.0
 70
    32
  1
%%c<>
  3
AM_JIS$0
100
AcDbAlignedDimension
 13
-61.2496332999155
 23
23.8125
 33
0.0
 14
-61.2496306570157
 24
-23.8125
 34
0.0
 50
270.0
100
AcDbRotatedDimension
1001
GENIUS_GENDTOL_13
1000

1000
h7
1000

1040
0.0
1001
ACAD
1000
DSTYLE
1002
{
1070
   287
1070
     5
1070
    42
1040
1.0
1070
    43
1040
12.0
1070
    48
1040
0.1
1070
    78
1070
     8
1070
   140
1040
3.2
1070
   176
1070
   256
1070
   177
1070
   256
1070
   271
1070
     3
1070
   272
1070
     3
1070
   275
1070
     0
1070
   279
1070
     2
1070
   284
1070
     0
1070
   289
1070
     3
1070
   340
1005
6B
1070
   371
1070
    -1
1070
   372
1070
    -1
1002
}
  0
DIMENSION
  5
AD98
330
1F
100
AcDbEntity
  8
AM_5
100
AcDbDimension
  2
*D5
 10
-104.6869129040261
 20
-64.99999999999999
 30
0.0
 11
-107.7869129040261
 21
-0.0000000000000074
 31
0.0
 70
    32
  1
%%c<>
  3
AM_JIS$0
100
AcDbAlignedDimension
 13
-63.0
 23
65.0
 33
0.0
 14
-63.0
 24
-65.0
 34
0.0
 50
270.0
100
AcDbRotatedDimension
1001
GENIUS_GENDTOL_13
1000

1000
h7
1000

1040
0.0
1001
ACAD
1000
DSTYLE
1002
{
1070
   287
1070
     5
1070
    42
1040
1.0
1070
    43
1040
12.0
1070
    48
1040
0.1
1070
    78
1070
     8
1070
   140
1040
3.2
1070
   176
1070
   256
1070
   177
1070
   256
1070
   271
1070
     3
1070
   272
1070
     3
1070
   275
1070
     0
1070
   279
1070
     2
1070
   284
1070
     0
1070
   289
1070
     3
1070
   340
1005
6B
1070
   371
1070
    -1
1070
   372
1070
    -1
1002
}
  0
DIMENSION
  5
AD99
330
1F
100
AcDbEntity
  8
AM_5
100
AcDbDimension
  2
*D10
 10
-28.0
 20
-124.00000101
 30
0.0
 11
-45.50000000000026
 21
-120.90000101
 31
0.0
 70
    32
  1
<>
  3
AM_JIS$0
100
AcDbAlignedDimension
 13
-63.00000000000051
 23
-64.99999999999994
 33
0.0
 14
-28.0
 24
-65.0
 34
0.0
100
AcDbRotatedDimension
1001
GENIUS_GENDTOL_13
1000

1000
h7
1000

1040
0.0
1001
ACAD
1000
DSTYLE
1002
{
1070
   287
1070
     5
1070
    42
1040
1.0
1070
    43
1040
12.0
1070
    48
1040
0.1
1070
    78
1070
     8
1070
   140
1040
3.2
1070
   176
1070
   256
1070
   177
1070
   256
1070
   271
1070
     3
1070
   272
1070
     3
1070
   275
1070
     0
1070
   279
1070
     2
1070
   284
1070
     0
1070
   289
1070
     3
1070
   340
1005
6B
1070
   371
1070
    -1
1070
   372
1070
    -1
1002
}
  0
DIMENSION
  5
AD9A
330
1F
100
AcDbEntity
  8
AM_5
100
AcDbDimension
  2
*D9
 10
-49.00000000000001
 20
-114.0000132289529
 30
0.0
 11
-56.00000000000022
 21
-110.90000101
 31
0.0
 70
   160
  1
<>
  3
AM_JIS$0
100
AcDbAlignedDimension
 13
-63.00000000000051
 23
-64.99999999999994
 33
0.0
 14
-49.0
 24
-12.69999999999998
 34
0.0
100
AcDbRotatedDimension
1001
GENIUS_GENDTOL_13
1000

1000
h7
1000

1040
0.0
1001
ACAD
1000
DSTYLE
1002
{
1070
   287
1070
     5
1070
    42
1040
1.0
1070
    43
1040
12.0
1070
    48
1040
0.1
1070
    78
1070
     8
1070
   140
1040
3.2
1070
   176
1070
   256
1070
   177
1070
   256
1070
   271
1070
     3
1070
   272
1070
     3
1070
   275
1070
     0
1070
   279
1070
     2
1070
   284
1070
     0
1070
   289
1070
     3
1070
   340
1005
6B
1070
   371
1070
    -1
1070
   372
1070
    -1
1002
}
  0
DIMENSION
  5
AD9B
330
1F
100
AcDbEntity
  8
AM_5
100
AcDbDimension
  2
*D8
 10
-0.0000000000000021
 20
-134.00000101
 30
0.0
 11
-31.5
 21
-130.90000101
 31
0.0
 70
    32
  1
<>
  3
AM_JIS$0
100
AcDbAlignedDimension
 13
-63.0
 23
-65.0
 33
0.0
 14
0.0
 24
-99.99999999999998
 34
0.0
100
AcDbRotatedDimension
1001
GENIUS_GENDTOL_13
1000

1000
h7
1000

1040
0.0
1001
ACAD
1000
DSTYLE
1002
{
1070
   287
1070
     5
1070
    42
1040
1.0
1070
    43
1040
12.0
1070
    48
1040
0.1
1070
    78
1070
     8
1070
   140
1040
3.2
1070
   176
1070
   256
1070
   177
1070
   256
1070
   271
1070
     3
1070
   272
1070
     3
1070
   275
1070
     0
1070
   279
1070
     2
1070
   284
1070
     0
1070
   289
1070
     3
1070
   340
1005
6B
1070
   371
1070
    -1
1070
   372
1070
    -1
1002
}
  0
DIMENSION
  5
AD9C
330
1F
100
AcDbEntity
  8
AM_5
100
AcDbDimension
  2
*D12
 10
34.00843415966853
 20
-100.0
 30
0.0
 11
30.90843415966855
 21
0.0000000000000125
 31
0.0
 70
    32
  1
%%c<>
  3
AM_JIS$0
100
AcDbAlignedDimension
 13
0.0
 23
100.0
 33
0.0
 14
0.0
 24
-99.99999999999998
 34
0.0
 50
90.0
100
AcDbRotatedDimension
1001
GENIUS_GENDTOL_13
1000

1000
h7
1000

1040
0.0
1001
ACAD
1000
DSTYLE
1002
{
1070
   287
1070
     5
1070
    42
1040
1.0
1070
    43
1040
12.0
1070
    48
1040
0.1
1070
    78
1070
     8
1070
   140
1040
3.2
1070
   176
1070
   256
1070
   177
1070
   256
1070
   271
1070
     3
1070
   272
1070
     3
1070
   275
1070
     0
1070
   279
1070
     2
1070
   284
1070
     0
1070
   289
1070
     3
1070
   340
1005
6B
1070
   371
1070
    -1
1070
   372
1070
    -1
1002
}
  0
DIMENSION
  5
AD9D
330
1F
100
AcDbEntity
  8
AM_5
100
AcDbDimension
  2
*D11
 10
16.94812111717999
 20
65.0
 30
0.0
 11
13.84812111717997
 21
-0.0000000000002422
 31
0.0
 70
    32
  1
%%c<>
  3
AM_JIS$0
100
AcDbAlignedDimension
 13
-15.06484671435527
 23
-65.00000000000048
 33
0.0
 14
-16.37818908691997
 24
65.0
 34
0.0
 50
90.0
100
AcDbRotatedDimension
1001
GENIUS_GENDTOL_13
1000

1000
h7
1000

1040
0.0
1001
ACAD
1000
DSTYLE
1002
{
1070
   287
1070
     5
1070
    42
1040
1.0
1070
    43
1040
12.0
1070
    48
1040
0.1
1070
    78
1070
     8
1070
   140
1040
3.2
1070
   176
1070
   256
1070
   177
1070
   256
1070
   271
1070
     3
1070
   272
1070
     3
1070
   275
1070
     0
1070
   279
1070
     2
1070
   284
1070
     0
1070
   289
1070
     3
1070
   340
1005
6B
1070
   371
1070
    -1
1070
   372
1070
    -1
1002
}
  0
DIMENSION
  5
AEF8
330
1F
100
AcDbEntity
  8
AM_5
100
AcDbDimension
  2
*D13
 10
-114.6869129040262
 20
74.9999999999999
 30
0.0
 11
-118.0869129040262
 21
-0.000000000000021
 31
0.0
 70
    32
  1
%%c<>
  3
AM_JIS$0
100
AcDbAlignedDimension
 13
-59.99999937216705
 23
-74.99999999999992
 33
0.0
 14
-59.99999937216705
 24
74.99999999999989
 34
0.0
 50
270.0
100
AcDbRotatedDimension
1001
ACAD
1000
DSTYLE
1002
{
1070
   271
1070
     0
1002
}
1001
GENIUS_GENDTOL_13
1000

1000
h7
1000

1040
0.0
  0
LINE
  5
AF7F
330
1F
100
AcDbEntity
  8
AM_11
100
AcDbLine
 10
-14.9787595144968
 20
100.0
 30
0.0
 11
0.0
 21
100.0
 31
0.0
  0
LINE
  5
AF80
330
1F
100
AcDbEntity
  8
AM_11
100
AcDbLine
 10
0.0
 20
100.0
 30
0.0
 11
0.0
 21
-99.99999999999998
 31
0.0
  0
LINE
  5
AF81
330
1F
100
AcDbEntity
  8
AM_11
100
AcDbLine
 10
-14.9787595144968
 20
-99.99999999999998
 30
0.0
 11
0.0
 21
-99.99999999999998
 31
0.0
  0
DIMENSION
  5
B233
330
1F
100
AcDbEntity
  8
AM_5
100
AcDbDimension
  2
*D14
 10
0.0
 20
-99.99999999999998
 30
0.0
 11
21.8555633901595
 21
-121.8555633901595
 31
0.0
 70
    34
  1
<>
  3
AM_JIS$2
100
AcDb2LineAngularDimension
 13
0.0
 23
100.0
 33
0.0
 14
0.0
 24
-99.99999999999998
 34
0.0
 15
-14.9787595144968
 25
-99.99999999999998
 35
0.0
 16
17.00421707983425
 26
-129.4521679252034
 36
0.0
1001
GENIUS_GENDTOL_13
1000

1000
h7
1000

1040
0.0
1001
ACAD
1000
DSTYLE
1002
{
1070
   271
1070
     0
1002
}
  0
VIEWPORT
  5
110
330
101
100
AcDbEntity
 67
     1
  8
0
100
AcDbViewport
 10
420.5
 20
297.0
 30
0.0
 40
948.9782706766916
 41
628.452
 68
     1
 69
     1
1001
ACAD
1000
MVIEW
1002
{
1070
    16
1010
0.0
1020
0.0
1030
0.0
1010
0.0
1020
0.0
1030
1.0
1040
0.0
1040
628.452
1040
420.5
1040
297.0
1040
50.0
1040
0.0
1040
0.0
1070
     0
1070
   100
1070
     1
1070
     1
1070
     0
1070
     0
1070
     0
1070
     0
1040
0.0
1040
0.0
1040
0.0
1040
10.0
1040
10.0
1040
10.0
1040
10.0
1070
     0
1002
{
1002
}
1002
}
  0
ENDSEC
  0
SECTION
  2
OBJECTS
  0
DICTIONARY
  5
C
330
0
100
AcDbDictionary
  3
ACAD_GROUP
350
D
  3
ACAD_LAYOUT
350
1A
  3
ACAD_MLINESTYLE
350
17
  3
ACAD_PLOTSETTINGS
350
19
  3
ACAD_PLOTSTYLENAME
350
E
  3
ACDBVARIABLEDICTIONARY
350
34
  3
ACMDICTIONARY
350
43
  3
AMG
350
2B
  3
AMGSNAPSETTINGS
350
6E
  3
DWGPROPS
350
B431
  3
ACDBHEADERROUNDTRIPXREC
350
B43D
  0
DICTIONARY
  5
74
330
1F
100
AcDbDictionary
280
     1
  3
ACAD_INDEX
360
B433
  3
ACAD_LAYOUTSELFREF
360
B460
  0
DICTIONARY
  5
B465
330
101
100
AcDbDictionary
280
     1
  3
ACAD_LAYOUTSELFREF
360
B466
  0
DICTIONARY
  5
D
102
{ACAD_REACTORS
330
C
102
}
330
C
100
AcDbDictionary
  0
DICTIONARY
  5
1A
102
{ACAD_REACTORS
330
C
102
}
330
C
100
AcDbDictionary
  0
DICTIONARY
  5
17
102
{ACAD_REACTORS
330
C
102
}
330
C
100
AcDbDictionary
  3
STANDARD
350
18
  0
DICTIONARY
  5
19
102
{ACAD_REACTORS
330
C
102
}
330
C
100
AcDbDictionary
  0
ACDBDICTIONARYWDFLT
  5
E
102
{ACAD_REACTORS
330
C
102
}
330
C
100
AcDbDictionary
281
     1
  3
Normal
350
F
100
AcDbDictionaryWithDefault
340
F
  0
DICTIONARY
  5
34
102
{ACAD_REACTORS
330
C
102
}
330
C
100
AcDbDictionary
  3
INDEXCTL
350
35
  3
SORTENTS
350
B5E
  0
DICTIONARY
  5
43
102
{ACAD_REACTORS
330
C
102
}
330
C
100
AcDbDictionary
  3
ACMSTDDICTIONARY
350
260
  0
DICTIONARY
  5
2B
102
{ACAD_REACTORS
330
C
102
}
330
C
100
AcDbDictionary
  3
ACMGSETTINGS
350
2C
  0
DICTIONARY
  5
6E
102
{ACAD_REACTORS
330
C
102
}
330
C
100
AcDbDictionary
  0
XRECORD
  5
B431
102
{ACAD_REACTORS
330
C
102
}
330
C
100
AcDbXrecord
  1
DWGPROPS COOKIE
  2

  3

  4

  6

  7

  8

  9

300
AmdtFileType=82
301
=
302
=
303
=
304
=
305
=
306
=
307
=
308
=
309
=
 40
0.4342457175925926
 41
2452836.771637361
 42
2453076.570472361
  1

 90
        1
  0
DICTIONARY
  5
B43D
102
{ACAD_REACTORS
330
C
102
}
330
C
100
AcDbDictionary
  3
TSTACKALIGN
350
B43E
  3
TSTACKSIZE
350
B43F
  3
HYPERLINKBASE
350
B440
  3
STYLESHEET
350
B441
  3
LAYOUTDICT
350
B442
  3
PLOTSETDICT
350
B443
  3
PLOTSTYLNAMDICT
350
B444
  3
LWETCUNION
350
B445
  3
INSUNITS
350
B446
  3
CEPSNTYPE
350
B447
  3
FINGERPRINTGUID
350
B448
  3
VERSIONGUID
350
B449
  3
PSVPSCALE
350
B44A
  3
DIMSTYLEDATA
350
B44B
  3
PUCSORTHOREF
350
B44C
  3
PUCSORTHOVIEW
350
B44D
  3
PUCSBASE
350
B44E
  3
PUCSORGTOP
350
B44F
  3
PUCSORGBOTTOM
350
B450
  3
PUCSORGLEFT
350
B451
  3
PUCSORGRIGHT
350
B452
  3
PUCSORGFRONT
350
B453
  3
PUCSORGBACK
350
B454
  3
UCSORTHOREF
350
B455
  3
UCSORTHOVIEW
350
B456
  3
UCSBASE
350
B457
  3
UCSORGTOP
350
B458
  3
UCSORGBOTTOM
350
B459
  3
UCSORGLEFT
350
B45A
  3
UCSORGRIGHT
350
B45B
  3
UCSORGFRONT
350
B45C
  3
UCSORGBACK
350
B45D
  0
DICTIONARY
  5
B433
102
{ACAD_REACTORS
330
74
102
}
330
74
100
AcDbDictionary
  3
*A1
350
B434
  0
XRECORD
  5
B460
102
{ACAD_REACTORS
330
74
102
}
330
74
100
AcDbXrecord
340
1F
  0
XRECORD
  5
B466
102
{ACAD_REACTORS
330
B465
102
}
330
B465
100
AcDbXrecord
340
101
  0
MLINESTYLE
  5
18
102
{ACAD_REACTORS
330
17
102
}
330
17
100
AcDbMlineStyle
  2
STANDARD
 70
     0
  3

 62
   256
 51
90.0
 52
90.0
 71
     2
 49
0.5
 62
   256
  6
BYLAYER
 49
-0.5
 62
   256
  6
BYLAYER
  0
ACDBPLACEHOLDER
  5
F
102
{ACAD_REACTORS
330
E
102
}
330
E
100
AcDbPlaceHolder
280
     0
  0
DICTIONARYVAR
  5
35
102
{ACAD_REACTORS
330
34
102
}
330
34
100
DictionaryVariables
280
     0
  1
1
  0
DICTIONARYVAR
  5
B5E
102
{ACAD_REACTORS
330
34
102
}
330
34
100
DictionaryVariables
280
     0
  1
96
  0
DICTIONARY
  5
260
102
{ACAD_REACTORS
330
43
102
}
330
43
100
AcDbDictionary
  0
DICTIONARY
  5
2C
102
{ACAD_REACTORS
330
2B
102
}
330
2B
100
AcDbDictionary
  3
DWGSETTINGS
350
2D
  0
XRECORD
  5
B43E
102
{ACAD_REACTORS
330
B43D
102
}
330
B43D
100
AcDbXrecord
 90
        1
  0
XRECORD
  5
B43F
102
{ACAD_REACTORS
330
B43D
102
}
330
B43D
100
AcDbXrecord
 90
       70
  0
XRECORD
  5
B440
102
{ACAD_REACTORS
330
B43D
102
}
330
B43D
100
AcDbXrecord
  1

  0
XRECORD
  5
B441
102
{ACAD_REACTORS
330
B43D
102
}
330
B43D
100
AcDbXrecord
  1
ASAMI.ctb
  0
XRECORD
  5
B442
102
{ACAD_REACTORS
330
B43D
102
}
330
B43D
100
AcDbXrecord
340
1A
  0
XRECORD
  5
B443
102
{ACAD_REACTORS
330
B43D
102
}
330
B43D
100
AcDbXrecord
340
19
  0
XRECORD
  5
B444
102
{ACAD_REACTORS
330
B43D
102
}
330
B43D
100
AcDbXrecord
340
E
  0
XRECORD
  5
B445
102
{ACAD_REACTORS
330
B43D
102
}
330
B43D
100
AcDbXrecord
 90
    10781
  0
XRECORD
  5
B446
102
{ACAD_REACTORS
330
B43D
102
}
330
B43D
100
AcDbXrecord
 90
        4
  0
XRECORD
  5
B447
102
{ACAD_REACTORS
330
B43D
102
}
330
B43D
100
AcDbXrecord
 90
        0
  0
XRECORD
  5
B448
102
{ACAD_REACTORS
330
B43D
102
}
330
B43D
100
AcDbXrecord
  1
{AFB28963-8C59-40AE-9337-C84526B81ACE}
  0
XRECORD
  5
B449
102
{ACAD_REACTORS
330
B43D
102
}
330
B43D
100
AcDbXrecord
  1
{B120CEB7-BECD-4664-8CCF-259D0923A957}
  0
XRECORD
  5
B44A
102
{ACAD_REACTORS
330
B43D
102
}
330
B43D
100
AcDbXrecord
 40
0.0
  0
XRECORD
  5
B44B
102
{ACAD_REACTORS
330
B43D
102
}
330
B43D
100
AcDbXrecord
1000
DSTYLE
1002
{
1070
    79
 70
     2
1070
   341
340
59
1070
   342
340
59
1070
   371
 70
    -1
1070
   372
 70
    -1
1002
}
  0
XRECORD
  5
B44C
102
{ACAD_REACTORS
330
B43D
102
}
330
B43D
100
AcDbXrecord
340
0
  0
XRECORD
  5
B44D
102
{ACAD_REACTORS
330
B43D
102
}
330
B43D
100
AcDbXrecord
 70
     0
  0
XRECORD
  5
B44E
102
{ACAD_REACTORS
330
B43D
102
}
330
B43D
100
AcDbXrecord
340
0
  0
XRECORD
  5
B44F
102
{ACAD_REACTORS
330
B43D
102
}
330
B43D
100
AcDbXrecord
 10
0.0
 20
0.0
 30
0.0
  0
XRECORD
  5
B450
102
{ACAD_REACTORS
330
B43D
102
}
330
B43D
100
AcDbXrecord
 10
0.0
 20
0.0
 30
0.0
  0
XRECORD
  5
B451
102
{ACAD_REACTORS
330
B43D
102
}
330
B43D
100
AcDbXrecord
 10
0.0
 20
0.0
 30
0.0
  0
XRECORD
  5
B452
102
{ACAD_REACTORS
330
B43D
102
}
330
B43D
100
AcDbXrecord
 10
0.0
 20
0.0
 30
0.0
  0
XRECORD
  5
B453
102
{ACAD_REACTORS
330
B43D
102
}
330
B43D
100
AcDbXrecord
 10
0.0
 20
0.0
 30
0.0
  0
XRECORD
  5
B454
102
{ACAD_REACTORS
330
B43D
102
}
330
B43D
100
AcDbXrecord
 10
0.0
 20
0.0
 30
0.0
  0
XRECORD
  5
B455
102
{ACAD_REACTORS
330
B43D
102
}
330
B43D
100
AcDbXrecord
340
0
  0
XRECORD
  5
B456
102
{ACAD_REACTORS
330
B43D
102
}
330
B43D
100
AcDbXrecord
 70
     0
  0
XRECORD
  5
B457
102
{ACAD_REACTORS
330
B43D
102
}
330
B43D
100
AcDbXrecord
340
0
  0
XRECORD
  5
B458
102
{ACAD_REACTORS
330
B43D
102
}
330
B43D
100
AcDbXrecord
 10
0.0
 20
0.0
 30
0.0
  0
XRECORD
  5
B459
102
{ACAD_REACTORS
330
B43D
102
}
330
B43D
100
AcDbXrecord
 10
0.0
 20
0.0
 30
0.0
  0
XRECORD
  5
B45A
102
{ACAD_REACTORS
330
B43D
102
}
330
B43D
100
AcDbXrecord
 10
0.0
 20
0.0
 30
0.0
  0
XRECORD
  5
B45B
102
{ACAD_REACTORS
330
B43D
102
}
330
B43D
100
AcDbXrecord
 10
0.0
 20
0.0
 30
0.0
  0
XRECORD
  5
B45C
102
{ACAD_REACTORS
330
B43D
102
}
330
B43D
100
AcDbXrecord
 10
0.0
 20
0.0
 30
0.0
  0
XRECORD
  5
B45D
102
{ACAD_REACTORS
330
B43D
102
}
330
B43D
100
AcDbXrecord
 10
0.0
 20
0.0
 30
0.0
  0
LAYER_INDEX
  5
B434
102
{ACAD_REACTORS
330
B433
102
}
330
B433
100
AcDbIndex
 40
2453152.365407175
100
AcDbLayerIndex
  8
0
360
B435
 90
        0
  8
AM_11
360
B436
 90
       19
  8
AM_7
360
B437
 90
        5
  8
AM_5
360
B438
 90
       10
  8
Defpoints
360
B439
 90
        0
  8
AM_6
360
B43A
 90
        1
  8
AM_0
360
B43B
 90
      320
  0
XRECORD
  5
2D
102
{ACAD_REACTORS
330
2C
102
}
330
2C
100
AcDbXrecord
  1
VERSION
140
15.0
  1
PRODUCT
  2
AutoCAD Mechanical 2000
  0
IDBUFFER
  5
B435
330
0
100
AcDbIdBuffer
  0
IDBUFFER
  5
B436
330
0
100
AcDbIdBuffer
330
AF7F
330
AF80
330
AF81
330
AACA
330
AACB
330
AAD9
330
AAE1
330
AAE5
330
AAEE
330
AAF1
330
AAFE
330
ACF7
330
ACF8
330
ACFB
330
ACFC
330
ACFD
330
AD02
330
AD03
330
AD05
  0
IDBUFFER
  5
B437
330
0
100
AcDbIdBuffer
330
AACC
330
AAD2
330
AB00
330
ACF9
330
AD08
  0
IDBUFFER
  5
B438
330
0
100
AcDbIdBuffer
330
AD96
330
AD97
330
AD98
330
AD99
330
AD9A
330
AD9B
330
AD9C
330
AD9D
330
AEF8
330
B233
  0
IDBUFFER
  5
B439
330
0
100
AcDbIdBuffer
  0
IDBUFFER
  5
B43A
330
0
100
AcDbIdBuffer
330
E5A
  0
IDBUFFER
  5
B43B
330
0
100
AcDbIdBuffer
330
AD29
330
AD2A
330
AD2B
330
AD2C
330
AD2D
330
AD2E
330
AD2F
330
AD30
330
AD31
330
AD32
330
AD33
330
AD34
330
AD35
330
AD36
330
AD37
330
AD38
330
AD39
330
AD3A
330
AD3B
330
AD3C
330
AD3D
330
AD3E
330
AD3F
330
AD40
330
AD41
330
AD42
330
AD43
330
AD44
330
AD45
330
AD46
330
AD47
330
AD48
330
AD49
330
AD4A
330
AD4B
330
AD4C
330
AD4D
330
AD4E
330
AD4F
330
AD50
330
AD51
330
AD52
330
AD53
330
AD54
330
AD55
330
AD56
330
AD57
330
AD58
330
AD59
330
AD5A
330
AD5B
330
AD5C
330
AD5D
330
AD5E
330
AD5F
330
AD60
330
AD61
330
AD62
330
AD63
330
AD64
330
AD65
330
AD66
330
AD67
330
AD68
330
AD69
330
AD6A
330
AD6B
330
AD6C
330
AD6D
330
AD6E
330
AD6F
330
AD70
330
AD71
330
AD72
330
AD73
330
AD74
330
AD75
330
AD76
330
AD77
330
AD78
330
AA9B
330
AA9C
330
AA9D
330
AA9E
330
AA9F
330
AAA0
330
AAA1
330
AAA2
330
AAA3
330
AAA4
330
AAA5
330
AAA6
330
AAA7
330
AAA8
330
AAA9
330
AAAA
330
AAAB
330
AAAC
330
AAAD
330
AAAE
330
AAAF
330
AAB0
330
AAB1
330
AAB2
330
AAB3
330
AAB4
330
AAB5
330
AAB6
330
AAB7
330
AAB8
330
AAB9
330
AABA
330
AABB
330
AABC
330
AABD
330
AABE
330
AABF
330
AAC0
330
AAC1
330
AAC2
330
AAC3
330
AAC4
330
AAC5
330
AAC6
330
AAC7
330
AAC8
330
AAC9
330
AACD
330
AACE
330
AACF
330
AAD0
330
AAD1
330
AAD5
330
AAD6
330
AAD8
330
AADA
330
AADB
330
AADC
330
AADE
330
AADF
330
AAE0
330
AAE4
330
AAE6
330
AAE7
330
AAE8
330
AAE9
330
AAEC
330
AAED
330
AAEF
330
AAF0
330
AAF2
330
AAF3
330
AAF4
330
AAF5
330
AAF6
330
AAF7
330
AAF8
330
AAF9
330
AAFA
330
AAFB
330
AAFC
330
AAFD
330
AAFF
330
AB01
330
AB02
330
AB03
330
AB04
330
AB05
330
AB06
330
AB07
330
AB08
330
AB09
330
AB0A
330
AB0B
330
AB0C
330
AB0D
330
AB0E
330
AB0F
330
AB10
330
AB11
330
AB12
330
AB13
330
AB14
330
AB15
330
AB16
330
AB17
330
AB18
330
AB19
330
AB1A
330
AB1B
330
AB1C
330
AB1D
330
AB1E
330
AB1F
330
AB20
330
AB21
330
AB22
330
AB23
330
AB24
330
AB25
330
AB26
330
AB27
330
AB28
330
AB29
330
AB2A
330
AB2B
330
AB2C
330
AB2D
330
AB2E
330
AB30
330
AB31
330
AB32
330
AB33
330
AB34
330
AB35
330
AB36
330
AB37
330
AB38
330
AB39
330
AB3A
330
AB3B
330
AB3C
330
AB3D
330
AB3E
330
AB3F
330
AB40
330
AB41
330
AB42
330
AB43
330
AB44
330
AB45
330
AB46
330
AB47
330
AB48
330
AB49
330
AB4A
330
AB4B
330
AB4C
330
AB4D
330
AB4E
330
AB4F
330
AB50
330
AB51
330
AB52
330
AB53
330
AB54
330
AB55
330
AB56
330
AB57
330
ACD8
330
ACD9
330
ACDA
330
ACDB
330
ACDC
330
ACDD
330
ACDE
330
ACDF
330
ACE0
330
ACE1
330
ACE2
330
ACE3
330
ACE4
330
ACE5
330
ACE6
330
ACE7
330
ACE8
330
ACE9
330
ACEA
330
ACEB
330
ACEC
330
ACED
330
ACEE
330
ACEF
330
ACF0
330
ACF1
330
ACF2
330
ACF3
330
ACF4
330
ACF5
330
ACF6
330
ACFA
330
ACFE
330
ACFF
330
AD00
330
AD01
330
AD04
330
AD06
330
AD07
330
AD09
330
AD0A
330
AD0B
330
AD0C
330
AD0D
330
AD0E
330
AD0F
330
AD10
330
AD11
330
AD12
330
AD13
330
AD14
330
AD15
330
AD16
330
AD17
330
AD18
330
AD19
330
AD1A
330
AD1B
330
AD1C
330
AD1D
330
AD1E
330
AD1F
330
AD20
330
AD21
330
AD22
330
AD23
330
AD24
330
AD25
330
AD26
330
AD27
330
AD28
  0
ENDSEC
  0
EOF
