  0
SECTION
  2
HEADER
  9
$ACADVER
  1
AC1015
  9
$ACADMAINTVER
 70
    20
  9
$DWGCODEPAGE
  3
ANSI_932
  9
$INSBASE
 10
0.0
 20
0.0
 30
0.0
  9
$EXTMIN
 10
-80.14472260576658
 20
-59.2780801044726
 30
0.0
  9
$EXTMAX
 10
20.81643615933348
 20
44.19226584945917
 30
0.0
  9
$LIMMIN
 10
0.0
 20
0.0
  9
$LIMMAX
 10
420.0
 20
297.0
  9
$ORTHOMODE
 70
     0
  9
$REGENMODE
 70
     1
  9
$FILLMODE
 70
     1
  9
$QTEXTMODE
 70
     0
  9
$MIRRTEXT
 70
     1
  9
$LTSCALE
 40
1.0
  9
$ATTMODE
 70
     1
  9
$TEXTSIZE
 40
3.799999999999999
  9
$TRACEWID
 40
1.0
  9
$TEXTSTYLE
  7
ACISOTS
  9
$CLAYER
  8
AM_0
  9
$CELTYPE
  6
ByLayer
  9
$CECOLOR
 62
   256
  9
$CELTSCALE
 40
1.0
  9
$DISPSILH
 70
     0
  9
$DIMSCALE
 40
1.0
  9
$DIMASZ
 40
2.5
  9
$DIMEXO
 40
1.0
  9
$DIMDLI
 40
10.0
  9
$DIMRND
 40
0.0
  9
$DIMDLE
 40
0.0
  9
$DIMEXE
 40
1.0
  9
$DIMTP
 40
0.1
  9
$DIMTM
 40
0.1000000001
  9
$DIMTXT
 40
3.799999999999999
  9
$DIMCEN
 40
0.0
  9
$DIMTSZ
 40
0.0
  9
$DIMTOL
 70
     0
  9
$DIMLIM
 70
     0
  9
$DIMTIH
 70
     0
  9
$DIMTOH
 70
     0
  9
$DIMSE1
 70
     0
  9
$DIMSE2
 70
     0
  9
$DIMTAD
 70
     3
  9
$DIMZIN
 70
     8
  9
$DIMBLK
  1
Open30
  9
$DIMASO
 70
     1
  9
$DIMSHO
 70
     1
  9
$DIMPOST
  1

  9
$DIMAPOST
  1
"
  9
$DIMALT
 70
     0
  9
$DIMALTD
 70
     2
  9
$DIMALTF
 40
0.0393701
  9
$DIMLFAC
 40
1.0
  9
$DIMTOFL
 70
     1
  9
$DIMTVP
 40
0.0
  9
$DIMTIX
 70
     0
  9
$DIMSOXD
 70
     0
  9
$DIMSAH
 70
     0
  9
$DIMBLK1
  1

  9
$DIMBLK2
  1

  9
$DIMSTYLE
  2
AM_JIS
  9
$DIMCLRD
 70
   256
  9
$DIMCLRE
 70
   256
  9
$DIMCLRT
 70
     2
  9
$DIMTFAC
 40
0.71
  9
$DIMGAP
 40
1.5
  9
$DIMJUST
 70
     0
  9
$DIMSD1
 70
     0
  9
$DIMSD2
 70
     0
  9
$DIMTOLJ
 70
     0
  9
$DIMTZIN
 70
     8
  9
$DIMALTZ
 70
     0
  9
$DIMALTTZ
 70
     0
  9
$DIMUPT
 70
     0
  9
$DIMDEC
 70
     0
  9
$DIMTDEC
 70
     2
  9
$DIMALTU
 70
     2
  9
$DIMALTTD
 70
     2
  9
$DIMTXSTY
  7
STANDARD
  9
$DIMAUNIT
 70
     1
  9
$DIMADEC
 70
     0
  9
$DIMALTRND
 40
0.0
  9
$DIMAZIN
 70
     2
  9
$DIMDSEP
 70
    46
  9
$DIMATFIT
 70
     3
  9
$DIMFRAC
 70
     0
  9
$DIMLDRBLK
  1
Open30
  9
$DIMLUNIT
 70
     2
  9
$DIMLWD
 70
    -1
  9
$DIMLWE
 70
    -1
  9
$DIMTMOVE
 70
     0
  9
$LUNITS
 70
     2
  9
$LUPREC
 70
     2
  9
$SKETCHINC
 40
1.0
  9
$FILLETRAD
 40
2.5
  9
$AUNITS
 70
     0
  9
$AUPREC
 70
     0
  9
$MENU
  1
.
  9
$ELEVATION
 40
0.0
  9
$PELEVATION
 40
0.0
  9
$THICKNESS
 40
0.0
  9
$LIMCHECK
 70
     0
  9
$CHAMFERA
 40
2.5
  9
$CHAMFERB
 40
2.5
  9
$CHAMFERC
 40
20.0
  9
$CHAMFERD
 40
0.0
  9
$SKPOLY
 70
     0
  9
$TDCREATE
 40
2455544.365957755
  9
$TDUCREATE
 40
2455543.990957754
  9
$TDUPDATE
 40
2455555.405317373
  9
$TDUUPDATE
 40
2455555.030317373
  9
$TDINDWG
 40
0.0099035995
  9
$TDUSRTIMER
 40
0.0099035995
  9
$USRTIMER
 70
     1
  9
$ANGBASE
 50
0.0
  9
$ANGDIR
 70
     0
  9
$PDMODE
 70
     0
  9
$PDSIZE
 40
0.0
  9
$PLINEWID
 40
0.0
  9
$SPLFRAME
 70
     0
  9
$SPLINETYPE
 70
     6
  9
$SPLINESEGS
 70
    40
  9
$HANDSEED
  5
1484
  9
$SURFTAB1
 70
     6
  9
$SURFTAB2
 70
     6
  9
$SURFTYPE
 70
     6
  9
$SURFU
 70
     6
  9
$SURFV
 70
     6
  9
$UCSBASE
  2

  9
$UCSNAME
  2

  9
$UCSORG
 10
0.0
 20
0.0
 30
0.0
  9
$UCSXDIR
 10
1.0
 20
0.0
 30
0.0
  9
$UCSYDIR
 10
0.0
 20
1.0
 30
0.0
  9
$UCSORTHOREF
  2

  9
$UCSORTHOVIEW
 70
     0
  9
$UCSORGTOP
 10
0.0
 20
0.0
 30
0.0
  9
$UCSORGBOTTOM
 10
0.0
 20
0.0
 30
0.0
  9
$UCSORGLEFT
 10
0.0
 20
0.0
 30
0.0
  9
$UCSORGRIGHT
 10
0.0
 20
0.0
 30
0.0
  9
$UCSORGFRONT
 10
0.0
 20
0.0
 30
0.0
  9
$UCSORGBACK
 10
0.0
 20
0.0
 30
0.0
  9
$PUCSBASE
  2

  9
$PUCSNAME
  2

  9
$PUCSORG
 10
0.0
 20
0.0
 30
0.0
  9
$PUCSXDIR
 10
1.0
 20
0.0
 30
0.0
  9
$PUCSYDIR
 10
0.0
 20
1.0
 30
0.0
  9
$PUCSORTHOREF
  2

  9
$PUCSORTHOVIEW
 70
     0
  9
$PUCSORGTOP
 10
0.0
 20
0.0
 30
0.0
  9
$PUCSORGBOTTOM
 10
0.0
 20
0.0
 30
0.0
  9
$PUCSORGLEFT
 10
0.0
 20
0.0
 30
0.0
  9
$PUCSORGRIGHT
 10
0.0
 20
0.0
 30
0.0
  9
$PUCSORGFRONT
 10
0.0
 20
0.0
 30
0.0
  9
$PUCSORGBACK
 10
0.0
 20
0.0
 30
0.0
  9
$USERI1
 70
     0
  9
$USERI2
 70
     0
  9
$USERI3
 70
     0
  9
$USERI4
 70
     0
  9
$USERI5
 70
     0
  9
$USERR1
 40
0.0
  9
$USERR2
 40
0.0
  9
$USERR3
 40
0.0
  9
$USERR4
 40
0.0
  9
$USERR5
 40
0.0
  9
$WORLDVIEW
 70
     1
  9
$SHADEDGE
 70
     3
  9
$SHADEDIF
 70
    70
  9
$TILEMODE
 70
     1
  9
$MAXACTVP
 70
    64
  9
$PINSBASE
 10
0.0
 20
0.0
 30
0.0
  9
$PLIMCHECK
 70
     0
  9
$PEXTMIN
 10
1.000000000000000E+20
 20
1.000000000000000E+20
 30
1.000000000000000E+20
  9
$PEXTMAX
 10
-1.000000000000000E+20
 20
-1.000000000000000E+20
 30
-1.000000000000000E+20
  9
$PLIMMIN
 10
0.0
 20
0.0
  9
$PLIMMAX
 10
420.0
 20
297.0
  9
$UNITMODE
 70
     0
  9
$VISRETAIN
 70
     1
  9
$PLINEGEN
 70
     0
  9
$PSLTSCALE
 70
     1
  9
$TREEDEPTH
 70
  3020
  9
$CMLSTYLE
  2
Standard
  9
$CMLJUST
 70
     0
  9
$CMLSCALE
 40
20.0
  9
$PROXYGRAPHICS
 70
     1
  9
$MEASUREMENT
 70
     1
  9
$CELWEIGHT
370
    -1
  9
$ENDCAPS
280
     0
  9
$JOINSTYLE
280
     0
  9
$LWDISPLAY
290
     0
  9
$INSUNITS
 70
     4
  9
$HYPERLINKBASE
  1

  9
$STYLESHEET
  1

  9
$XEDIT
290
     1
  9
$CEPSNTYPE
380
     0
  9
$PSTYLEMODE
290
     1
  9
$FINGERPRINTGUID
  2
{BC041043-1805-4E51-B1F2-C8CAD53C0341}
  9
$VERSIONGUID
  2
{1A9D8406-2816-4606-9687-50F66F55E1DB}
  9
$EXTNAMES
290
     1
  9
$PSVPSCALE
 40
0.0
  9
$OLESTARTUP
290
     0
  0
ENDSEC
  0
SECTION
  2
CLASSES
  0
CLASS
  1
ACDBDICTIONARYWDFLT
  2
AcDbDictionaryWithDefault
  3
ObjectDBX Classes
 90
        0
280
     0
281
     0
  0
CLASS
  1
ACDBPLACEHOLDER
  2
AcDbPlaceHolder
  3
ObjectDBX Classes
 90
        0
280
     0
281
     0
  0
CLASS
  1
LAYOUT
  2
AcDbLayout
  3
ObjectDBX Classes
 90
        0
280
     0
281
     0
  0
CLASS
  1
ACME_DOCUMENT
  2
AcMeDbDoc
  3
AcMeServices
 90
        0
280
     0
281
     0
  0
CLASS
  1
AMGSETTINGSOBJ
  2
AmgSettingsObj
  3
"AcadM|Product Description: AutoCAD Mechanical 2000|Company: Autodesk"
 90
        0
280
     0
281
     0
  0
CLASS
  1
ACMESCOPE
  2
AcMeScope
  3
AcMeServices
 90
        0
280
     0
281
     0
  0
CLASS
  1
ACMECOMMANDHISTORY
  2
AcMeCommandHistory
  3
AcMeServices
 90
        0
280
     0
281
     0
  0
CLASS
  1
ACIMSYSVARMAN
  2
AcImSysVarManager
  3
AcMeServices
 90
        0
280
     0
281
     0
  0
CLASS
  1
ACIMREALSYSVAR
  2
AcImRealSysVar
  3
AcMeServices
 90
        0
280
     0
281
     0
  0
CLASS
  1
ACIMINTSYSVAR
  2
AcImIntSysVar
  3
AcMeServices
 90
        0
280
     0
281
     0
  0
CLASS
  1
ACMEDRAWINGMAN
  2
AcMeDrawingMan
  3
AcMeServices
 90
        0
280
     0
281
     0
  0
CLASS
  1
ACMEVIEW
  2
AcMeView
  3
AcMeServices
 90
        0
280
     0
281
     0
  0
CLASS
  1
ACDBENTITYCACHE
  2
AcMeEntityCache
  3
AcMeServices
 90
        0
280
     0
281
     0
  0
CLASS
  1
GSMANAGER
  2
AcMeGSManager
  3
AcMeServices
 90
        0
280
     0
281
     0
  0
CLASS
  1
AMDTINTERNALREACTOR
  2
AmdtInternalReactor
  3
AcMeServices
 90
        0
280
     0
281
     0
  0
CLASS
  1
ACMESTATEMGR
  2
AcMeStateMgr
  3
AcMeServices
 90
        0
280
     0
281
     0
  0
CLASS
  1
ACGREFMASTER
  2
AcGrefMaster
  3
AcAttribServices
 90
        0
280
     0
281
     0
  0
CLASS
  1
ACME_DATABASE
  2
AcMeDbDatabase
  3
AcMeServices
 90
        0
280
     0
281
     0
  0
CLASS
  1
ACRFINSADJUSTERMGR
  2
AcRfInsAdjusterMgr
  3
AcMeServices
 90
        0
280
     0
281
     0
  0
CLASS
  1
ACGREFACADMASTER
  2
AcGrefacadMaster
  3
AcGrefServices
 90
        0
280
     0
281
     0
  0
CLASS
  1
AMIMASTER
  2
AmiMaster
  3
AmiServices
 90
        0
280
     0
281
     0
  0
CLASS
  1
ACMDATADICTIONARY
  2
AcmDataDictionary
  3
"AcmSymBB|Product Description: AutoCAD Mechanical 2004 DX|Company: Autodesk"
 90
        0
280
     0
281
     0
  0
CLASS
  1
ACMDATAENTRYBLOCK
  2
AcmDataEntryBlock
  3
"AcmSymBB|Product Description: AutoCAD Mechanical 2004 DX|Company: Autodesk"
 90
        0
280
     0
281
     0
  0
CLASS
  1
ACIMSTRSYSVAR
  2
AcImStrSysVar
  3
AcMeServices
 90
        0
280
     0
281
     0
  0
CLASS
  1
ACMSTANDARDISO
  2
AcmStandardISO
  3
"Amdt_StdImp|Product Description: AutoCAD Mechanical 2004 DX|Company: Autodesk"
 90
        0
280
     0
281
     0
  0
CLASS
  1
AMGOBJPROPCFG
  2
AmgObjPropCfg
  3
"AmgLay|Product Description: AutoCAD Mechanical 2000|Company: Autodesk"
 90
        1
280
     0
281
     0
  0
CLASS
  1
AMDTEDGESTANDARDISO
  2
AmdtEdgeStdISO
  3
"Amdt_StdImp|Product Description: AutoCAD Mechanical 2004 DX|Company: Autodesk"
 90
        0
280
     0
281
     0
  0
CLASS
  1
ACMSURFSTANDARDISO
  2
AcmSurfTextStdISO
  3
"Amdt_StdImp|Product Description: AutoCAD Mechanical 2004 DX|Company: Autodesk"
 90
        0
280
     0
281
     0
  0
CLASS
  1
ACMFCFSTANDARDISO
  2
AcmFCFStdISO
  3
"Amdt_StdImp|Product Description: AutoCAD Mechanical 2004 DX|Company: Autodesk"
 90
        0
280
     0
281
     0
  0
CLASS
  1
ACMWELDSTANDARDISO
  2
AcmWeldingStdISO
  3
"Amdt_StdImp|Product Description: AutoCAD Mechanical 2004 DX|Company: Autodesk"
 90
        0
280
     0
281
     0
  0
CLASS
  1
ACMIDSTANDARDISO
  2
AcmIdStdISO
  3
"Amdt_StdImp|Product Description: AutoCAD Mechanical 2004 DX|Company: Autodesk"
 90
        0
280
     0
281
     0
  0
CLASS
  1
ACMDATUMSTANDARDISO
  2
AcmDatumStdISO
  3
"Amdt_StdImp|Product Description: AutoCAD Mechanical 2004 DX|Company: Autodesk"
 90
        0
280
     0
281
     0
  0
CLASS
  1
ACMBOMSTANDARDISO
  2
AcmBOMStdISO
  3
"Amdt_StdImp|Product Description: AutoCAD Mechanical 2004 DX|Company: Autodesk"
 90
        0
280
     0
281
     0
  0
CLASS
  1
ACMDETAILSTANDARDISO
  2
AmdtDetailSymStdISO
  3
"Amdt_StdImp|Product Description: AutoCAD Mechanical 2004 DX|Company: Autodesk"
 90
        0
280
     0
281
     0
  0
CLASS
  1
ACMSECTIONSTANDARDISO
  2
AmdtSectionSymStdISO
  3
"Amdt_StdImp|Product Description: AutoCAD Mechanical 2004 DX|Company: Autodesk"
 90
        0
280
     0
281
     0
  0
CLASS
  1
ACMCENTERLINESTANDARDISO
  2
AmdtCenterLineStdISO
  3
"Amdt_StdImp|Product Description: AutoCAD Mechanical 2004 DX|Company: Autodesk"
 90
        0
280
     0
281
     0
  0
CLASS
  1
ACMNOTESTANDARDISO
  2
AmdtNoteStdISO
  3
"Amdt_StdImp|Product Description: AutoCAD Mechanical 2004 DX|Company: Autodesk"
 90
        0
280
     0
281
     0
  0
CLASS
  1
ACAMGLAYSTD
  2
AcAmgLayStd
  3
"AcAmgLayStd|Product Description: AutoCAD Mechanical 2000|Company: Autodesk"
 90
        0
280
     0
281
     0
  0
CLASS
  1
ACAMGDIMSTD
  2
AcAmgDimStd
  3
"AcAmgDimStd|Product Description: AutoCAD Mechanical 2000|Company: Autodesk"
 90
        0
280
     0
281
     0
  0
CLASS
  1
ACAMGHOLECHARTSTDISO
  2
AcAmgHoleChartStdISO
  3
ACMSYMBB_MODULE_NAME
 90
        0
280
     0
281
     0
  0
CLASS
  1
ACAMGTITLESTD
  2
AcAmgTitleStd
  3
"TITLEAPP"
 90
        0
280
     0
281
     0
  0
CLASS
  1
LAYER_INDEX
  2
AcDbLayerIndex
  3
ObjectDBX Classes
 90
    32768
280
     0
281
     0
  0
CLASS
  1
IDBUFFER
  2
AcDbIdBuffer
  3
ObjectDBX Classes
 90
    32768
280
     0
281
     0
  0
CLASS
  1
DICTIONARYVAR
  2
AcDbDictionaryVar
  3
ObjectDBX Classes
 90
        0
280
     0
281
     0
  0
CLASS
  1
AM_DRAWING_MGR
  2
AcDmDwgMgr
  3
AcMechDwgViewMgmt
 90
        0
280
     0
281
     0
  0
CLASS
  1
AM_DWG_DOCUMENT
  2
AcDmDwgDocument
  3
AcMechDwgViewMgmt
 90
        0
280
     0
281
     0
  0
CLASS
  1
AM_DWG_SHEET
  2
AcDmSheet
  3
AcMechDwgViewMgmt
 90
        0
280
     0
281
     0
  0
CLASS
  1
AM_VIEWDIMPARMAP
  2
AcDmViewDimParMap
  3
AcMechDwgViewMgmt
 90
        0
280
     0
281
     0
  0
CLASS
  1
AM_DWGMGR_NAME
  2
AcDmDwgMgrName
  3
AcMechDwgViewMgmt
 90
        0
280
     0
281
     0
  0
CLASS
  1
AMDTMENUSTATEMGR
  2
AmdtMenuStateMgr
  3
McadcomServices
 90
        0
280
     0
281
     0
  0
CLASS
  1
AMDTMCOMMENUSTATE
  2
AmdtMcomMenuState
  3
McadcomServices
 90
        0
280
     0
281
     0
  0
CLASS
  1
MAPIAMMOUDLE
  2
MApiAmModule
  3
MApiAmServices
 90
        0
280
     0
281
     0
  0
CLASS
  1
AMDTADMENUSTATE
  2
AmdtAdMenuState
  3
DesignerServices
 90
        0
280
     0
281
     0
  0
CLASS
  1
ADAPPL
  2
AcAdAppl
  3
DesignerServices
 90
        0
280
     0
281
     0
  0
CLASS
  1
DEPMGR
  2
AcAdDepMgr
  3
DesignerServices
 90
        0
280
     0
281
     0
  0
CLASS
  1
PARAMMGR
  2
AcAdParamMgr
  3
DesignerServices
 90
        0
280
     0
281
     0
  0
CLASS
  1
PARAMSCOPE
  2
AcAdParamScope
  3
DesignerServices
 90
        0
280
     0
281
     0
  0
CLASS
  1
NAMEDAPPL
  2
AcAdNamedAppl
  3
DesignerServices
 90
        0
280
     0
281
     0
  0
CLASS
  1
AMDTDMMENUSTATE
  2
AmdtDmMenuState
  3
AcMechDwgViewMgmt
 90
        0
280
     0
281
     0
  0
CLASS
  1
AMDTAMMENUSTATE
  2
AmdtAmMenuState
  3
DesignerAssemblies
 90
        0
280
     0
281
     0
  0
CLASS
  1
ACAMPROJECT
  2
AcAmProject
  3
DesignerAssemblies
 90
        0
280
     0
281
     0
  0
CLASS
  1
ACAMGRCOMPDEF
  2
AcAmGrCompDef
  3
DesignerAssemblies
 90
        0
280
     0
281
     0
  0
CLASS
  1
ACCMCONTEXT
  2
AcCmContext
  3
DesignerAssemblies
 90
        0
280
     0
281
     0
  0
CLASS
  1
ACAMCOMPDEF
  2
AcAmCompDef
  3
DesignerAssemblies
 90
        0
280
     0
281
     0
  0
CLASS
  1
ACAMCOMPDEFMGR
  2
AcAmCompDefMgr
  3
DesignerAssemblies
 90
        0
280
     0
281
     0
  0
CLASS
  1
AMCONTEXTMGR
  2
AcAmContextMgr
  3
DesignerAssemblies
 90
        0
280
     0
281
     0
  0
CLASS
  1
ACAMCONTEXTMODELER
  2
AcAmContextModeler
  3
DesignerAssemblies
 90
        0
280
     0
281
     0
  0
CLASS
  1
ACMTHREADLINESTANDARDISO
  2
AmdtThreadLineStdISO
  3
"Amdt_StdImp|Product Description: AutoCAD Mechanical 2004 DX|Company: Autodesk"
 90
        0
280
     0
281
     0
  0
CLASS
  1
CATALOGSTATE
  2
AcAmCatalogState
  3
DesignerAssemblies
 90
        0
280
     0
281
     0
  0
CLASS
  1
ACAMGRCOMPDEFSET
  2
AcAmGrCompDefSet
  3
DesignerAssemblies
 90
        0
280
     0
281
     0
  0
CLASS
  1
AMDTBROWSERDBTAB
  2
AmdtBrowserDbTab
  3
McadcomServices
 90
        0
280
     0
281
     0
  0
CLASS
  1
CBROWSERAPPOBJECT
  2
CBrowserAppObject
  3
McadcomServices
 90
        0
280
     0
281
     0
  0
CLASS
  1
DM_PLACEHOLDER
  2
AcDmSelsetPlaceholder
  3
AcMechDwgViewMgmt
 90
        0
280
     0
281
     0
  0
CLASS
  1
TABLESTYLE
  2
AcDbTableStyle
  3
ObjectDBX Classes
 90
     2047
280
     0
281
     0
  0
CLASS
  1
VAACXREFPANELOBJECT
  2
VaAcXREFPanelObject
  3
VAAC_ADDIN
 90
    32768
280
     0
281
     0
  0
CLASS
  1
VAACIMAGEINVENTORY
  2
VaAcImageInventory
  3
VAAC_ADDIN
 90
    32768
280
     0
281
     0
  0
CLASS
  1
AMDTNOTETEMPLATEDB
  2
AmdtNoteTemplateDB
  3
AMDT_STDIMP_MODULE_NAME
 90
        0
280
     0
281
     0
  0
CLASS
  1
ACMBOM
  2
AcmBom
  3
"AcmSymBB|Product Description: AutoCAD Mechanical 2004 DX|Company: Autodesk"
 90
    32768
280
     0
281
     0
  0
CLASS
  1
AMDTFORMULAUPDATEDISPATCHER
  2
AmdtFormulaUpdateDispatcher
  3
AcMeServices
 90
    32768
280
     0
281
     0
  0
CLASS
  1
ACMPARTLIST
  2
AcmPartList
  3
"AcmSymBB|Product Description: AutoCAD Mechanical 2004 DX|Company: Autodesk"
 90
    33791
280
     0
281
     1
  0
CLASS
  1
ACAMGFILTERDAT
  2
AcAmgFilterDat
  3
"AcadM|Product Description: AutoCAD Mechanical 2000|Company: Autodesk"
 90
        0
280
     0
281
     0
  0
CLASS
  1
ACMSTANDARDJIS
  2
AcmStandardJIS
  3
"Amdt_StdImp|Product Description: AutoCAD Mechanical 2004 DX|Company: Autodesk"
 90
        0
280
     0
281
     0
  0
CLASS
  1
ACMSURFSTANDARDJIS
  2
AcmSurfTextStdJIS
  3
"Amdt_StdImp|Product Description: AutoCAD Mechanical 2004 DX|Company: Autodesk"
 90
        0
280
     0
281
     0
  0
CLASS
  1
ACMFCFSTANDARDJIS98
  2
AcmFCFStdJIS98
  3
"Amdt_StdImp|Product Description: AutoCAD Mechanical 2004 DX|Company: Autodesk"
 90
        0
280
     0
281
     0
  0
CLASS
  1
ACMWELDSTANDARDJIS
  2
AcmWeldingStdJIS
  3
"Amdt_StdImp|Product Description: AutoCAD Mechanical 2004 DX|Company: Autodesk"
 90
        0
280
     0
281
     0
  0
CLASS
  1
ACMIDSTANDARDJIS
  2
AcmIdStdJIS
  3
"Amdt_StdImp|Product Description: AutoCAD Mechanical 2004 DX|Company: Autodesk"
 90
        0
280
     0
281
     0
  0
CLASS
  1
ACMDATUMSTANDARDJIS
  2
AcmDatumStdJIS
  3
"Amdt_StdImp|Product Description: AutoCAD Mechanical 2004 DX|Company: Autodesk"
 90
        0
280
     0
281
     0
  0
CLASS
  1
ACMBOMSTANDARDJIS
  2
AcmBOMStdJIS
  3
"Amdt_StdImp|Product Description: AutoCAD Mechanical 2004 DX|Company: Autodesk"
 90
        0
280
     0
281
     0
  0
CLASS
  1
ACMDETAILSTANDARDJIS
  2
AmdtDetailSymStdJIS
  3
"Amdt_StdImp|Product Description: AutoCAD Mechanical 2004 DX|Company: Autodesk"
 90
        0
280
     0
281
     0
  0
CLASS
  1
ACMSECTIONSTANDARDJIS
  2
AmdtSectionSymStdJIS
  3
"Amdt_StdImp|Product Description: AutoCAD Mechanical 2004 DX|Company: Autodesk"
 90
        0
280
     0
281
     0
  0
CLASS
  1
ACMCENTERLINESTANDARDJIS
  2
AmdtCenterLineStdJIS
  3
"Amdt_StdImp|Product Description: AutoCAD Mechanical 2004 DX|Company: Autodesk"
 90
        0
280
     0
281
     0
  0
CLASS
  1
ACMTHREADLINESTANDARDJIS
  2
AmdtThreadLineStdJIS
  3
"Amdt_StdImp|Product Description: AutoCAD Mechanical 2004 DX|Company: Autodesk"
 90
        0
280
     0
281
     0
  0
CLASS
  1
ACMNOTESTANDARDJIS
  2
AmdtNoteStdJIS
  3
"Amdt_StdImp|Product Description: AutoCAD Mechanical 2004 DX|Company: Autodesk"
 90
        0
280
     0
281
     0
  0
CLASS
  1
ACAMGHOLECHARTSTDJIS
  2
AcAmgHoleChartStdJIS
  3
ACMSYMBB_MODULE_NAME
 90
        0
280
     0
281
     0
  0
CLASS
  1
DIMASSOC
  2
AcDbDimAssoc
  3
"AcDbDimAssoc|Product Desc:     AcDim ARX App For Dimension|Company:          Autodesk, Inc.|WEB Address:      www.autodesk.com"
 90
        0
280
     0
281
     0
  0
CLASS
  1
ACMDIMBREAKPERSREACTOR
  2
AcmDimBreakPersReactor
  3
amgDimApp().moduleName()
 90
    33791
280
     0
281
     0
  0
ENDSEC
  0
SECTION
  2
TABLES
  0
TABLE
  2
VPORT
  5
8
330
0
100
AcDbSymbolTable
 70
     4
  0
VPORT
  5
147B
330
8
100
AcDbSymbolTableRecord
100
AcDbViewportTableRecord
  2
*Active
 70
     0
 10
0.0
 20
0.0
 11
1.0
 21
1.0
 12
-16.52409097035392
 22
-11.58225736301924
 13
0.0
 23
0.0
 14
2.5
 24
2.5
 15
10.0
 25
10.0
 16
0.0
 26
0.0
 36
1.0
 17
0.0
 27
0.0
 37
0.0
 40
125.7473713289592
 41
1.514762516046213
 42
50.0
 43
0.0
 44
0.0
 50
0.0
 51
0.0
 71
     0
 72
 10000
 73
     1
 74
     3
 75
     0
 76
     0
 77
     0
 78
     0
281
     0
 65
     1
110
0.0
120
0.0
130
0.0
111
1.0
121
0.0
131
0.0
112
0.0
122
1.0
132
0.0
 79
     0
146
0.0
  0
ENDTAB
  0
TABLE
  2
LTYPE
  5
5
330
0
100
AcDbSymbolTable
 70
    17
  0
LTYPE
  5
14
330
5
100
AcDbSymbolTableRecord
100
AcDbLinetypeTableRecord
  2
ByBlock
 70
     0
  3

 72
    65
 73
     0
 40
0.0
  0
LTYPE
  5
15
330
5
100
AcDbSymbolTableRecord
100
AcDbLinetypeTableRecord
  2
ByLayer
 70
     0
  3

 72
    65
 73
     0
 40
0.0
  0
LTYPE
  5
16
330
5
100
AcDbSymbolTableRecord
100
AcDbLinetypeTableRecord
  2
Continuous
 70
     0
  3
Solid line
 72
    65
 73
     0
 40
0.0
  0
LTYPE
  5
64
330
5
100
AcDbSymbolTableRecord
100
AcDbLinetypeTableRecord
  2
AM_ISO02W050
 70
     0
  3
__ __ __ __ __ __ __ __ __ __ __ __ __ __ __
 72
    65
 73
     2
 40
7.5
 49
6.0
 74
     0
 49
-1.5
 74
     0
  0
LTYPE
  5
65
330
5
100
AcDbSymbolTableRecord
100
AcDbLinetypeTableRecord
  2
AM_ISO08W050
 70
     0
  3
____ . ____ . ____ . ____ . ____ . ____ . ____
 72
    65
 73
     4
 40
18.0
 49
12.0
 74
     0
 49
-1.5
 74
     0
 49
3.0
 74
     0
 49
-1.5
 74
     0
  0
LTYPE
  5
66
330
5
100
AcDbSymbolTableRecord
100
AcDbLinetypeTableRecord
  2
AM_ISO09W050
 70
     0
  3
_____ . . _____ . . _____ . . ____ .. ____
 72
    65
 73
     6
 40
22.5
 49
12.0
 74
     0
 49
-1.5
 74
     0
 49
3.0
 74
     0
 49
-1.5
 74
     0
 49
3.0
 74
     0
 49
-1.5
 74
     0
  0
LTYPE
  5
67
330
5
100
AcDbSymbolTableRecord
100
AcDbLinetypeTableRecord
  2
Amconstr
 70
     0
  3
_______________________
 72
    65
 73
     2
 40
9999.0
 49
9999.0
 74
     0
 49
0.0
 74
     0
  0
LTYPE
  5
68
330
5
100
AcDbSymbolTableRecord
100
AcDbLinetypeTableRecord
  2
AM_ISO08W050x2
 70
     0
  3
__ . __ . __ . __ . __ . __
 72
    65
 73
     4
 40
9.0
 49
6.0
 74
     0
 49
-0.75
 74
     0
 49
1.5
 74
     0
 49
-0.75
 74
     0
  0
LTYPE
  5
69
330
5
100
AcDbSymbolTableRecord
100
AcDbLinetypeTableRecord
  2
AM_ISO02W050x2
 70
     0
  3
 _ _ _ _ _ _ _ _ _ _ _ _
 72
    65
 73
     2
 40
3.75
 49
3.0
 74
     0
 49
-0.75
 74
     0
  0
LTYPE
  5
6C
330
5
100
AcDbSymbolTableRecord
100
AcDbLinetypeTableRecord
  2
Amzigzag
 70
     0
  3
/\/-/\/-/\/-/\/-/\/-/\/
 72
    65
 73
     2
 40
11.0001
 49
0.0001
 74
     4
 75
   135
340
6B
 46
0.04
 50
0.0
 44
0.0
 45
0.0
 49
-11.0
 74
     0
  0
LTYPE
  5
7A
330
5
100
AcDbSymbolTableRecord
100
AcDbLinetypeTableRecord
  2
ACISOWELD
 70
     0
  3
_ _ _ _ _
 72
    65
 73
     2
 40
2.0
 49
2.0
 74
     0
 49
-1.0
 74
     0
  0
LTYPE
  5
7B
330
5
100
AcDbSymbolTableRecord
100
AcDbLinetypeTableRecord
  2
ACISOTGB
 70
     0
  3
__ . . __ . .
 72
    65
 73
     6
 40
9.0
 49
4.0
 74
     0
 49
-1.0
 74
     0
 49
1.0
 74
     0
 49
-1.0
 74
     0
 49
1.0
 74
     0
 49
-1.0
 74
     0
  0
LTYPE
  5
7C
330
5
100
AcDbSymbolTableRecord
100
AcDbLinetypeTableRecord
  2
ACISOTGL
 70
     0
  3
_ _ _ _ _
 72
    65
 73
     2
 40
3.0
 49
2.0
 74
     0
 49
-1.0
 74
     0
  0
LTYPE
  5
7E
330
5
100
AcDbSymbolTableRecord
100
AcDbLinetypeTableRecord
  2
CENTER
 70
     0
  3
__ . __
 72
    65
 73
     4
 40
7.0
 49
4.0
 74
     0
 49
-1.0
 74
     0
 49
1.0
 74
     0
 49
-1.0
 74
     0
  0
LTYPE
  5
D8
330
5
100
AcDbSymbolTableRecord
100
AcDbLinetypeTableRecord
  2
HIDDEN
 70
     0
  3
Hidden __ __ __ __ __ __ __ __ __ __ __ __ __ _
 72
    65
 73
     2
 40
9.524999999999998
 49
6.349999999999999
 74
     0
 49
-3.174999999999999
 74
     0
  0
LTYPE
  5
D9
330
5
100
AcDbSymbolTableRecord
100
AcDbLinetypeTableRecord
  2
PHANTOM2
 70
     0
  3
Phantom (.5x) ___ _ _ ___ _ _ ___ _ _ ___ _ _
 72
    65
 73
     6
 40
31.75
 49
15.875
 74
     0
 49
-3.174999999999999
 74
     0
 49
3.174999999999999
 74
     0
 49
-3.174999999999999
 74
     0
 49
3.174999999999999
 74
     0
 49
-3.174999999999999
 74
     0
  0
LTYPE
  5
20C
330
5
100
AcDbSymbolTableRecord
100
AcDbLinetypeTableRecord
  2
ACJISWELD
 70
     0
  3
_ _ _ _ _
 72
    65
 73
     2
 40
2.0
 49
2.0
 74
     0
 49
-1.0
 74
     0
  0
LTYPE
  5
20D
330
5
100
AcDbSymbolTableRecord
100
AcDbLinetypeTableRecord
  2
ACJISTGB
 70
     0
  3
__ . . __ . .
 72
    65
 73
     6
 40
9.0
 49
4.0
 74
     0
 49
-1.0
 74
     0
 49
1.0
 74
     0
 49
-1.0
 74
     0
 49
1.0
 74
     0
 49
-1.0
 74
     0
  0
LTYPE
  5
20E
330
5
100
AcDbSymbolTableRecord
100
AcDbLinetypeTableRecord
  2
ACJISTGL
 70
     0
  3
_ _ _ _ _
 72
    65
 73
     2
 40
3.0
 49
2.0
 74
     0
 49
-1.0
 74
     0
  0
ENDTAB
  0
TABLE
  2
LAYER
  5
2
102
{ACAD_XDICTIONARY
360
34B
102
}
330
0
100
AcDbSymbolTable
 70
     6
  0
LAYER
  5
10
330
2
100
AcDbSymbolTableRecord
100
AcDbLayerTableRecord
  2
0
 70
     0
 62
     7
  6
Continuous
370
    -3
390
F
  0
LAYER
  5
34A
330
2
100
AcDbSymbolTableRecord
100
AcDbLayerTableRecord
  2
AM_0
 70
     0
 62
     7
  6
Continuous
370
    30
390
F
  0
LAYER
  5
3B0
330
2
100
AcDbSymbolTableRecord
100
AcDbLayerTableRecord
  2
AM_5
 70
     0
 62
     3
  6
Continuous
370
    13
390
F
  0
LAYER
  5
3B1
330
2
100
AcDbSymbolTableRecord
100
AcDbLayerTableRecord
  2
AM_7
 70
     0
 62
     4
  6
AM_ISO08W050
370
    13
390
F
  0
LAYER
  5
422
330
2
100
AcDbSymbolTableRecord
100
AcDbLayerTableRecord
  2
Defpoints
 70
     0
 62
     7
  6
Continuous
290
     0
370
    -3
390
F
  0
LAYER
  5
423
330
2
100
AcDbSymbolTableRecord
100
AcDbLayerTableRecord
  2
1
 70
     0
 62
     7
  6
Continuous
370
    -3
390
F
  0
ENDTAB
  0
TABLE
  2
STYLE
  5
3
330
0
100
AcDbSymbolTable
 70
     6
  0
STYLE
  5
11
330
3
100
AcDbSymbolTableRecord
100
AcDbTextStyleTableRecord
  2
STANDARD
 70
     0
 40
0.0
 41
1.0
 50
0.0
 71
     0
 42
3.799999999999999
  3
ISOCP.SHX
  4
EXTFONT.SHX
  0
STYLE
  5
6B
330
3
100
AcDbSymbolTableRecord
100
AcDbTextStyleTableRecord
  2

 70
     1
 40
0.0
 41
1.0
 50
0.0
 71
     0
 42
2.5
  3
ltypeshp.shx
  4

  0
STYLE
  5
6D
330
3
100
AcDbSymbolTableRecord
100
AcDbTextStyleTableRecord
  2
ACISOTS
 70
     0
 40
3.799999999999999
 41
1.0
 50
0.0
 71
     0
 42
3.799999999999999
  3
isocp.shx
  4
extfont.shx
  0
STYLE
  5
79
330
3
100
AcDbSymbolTableRecord
100
AcDbTextStyleTableRecord
  2
ACISOGDT
 70
     0
 40
0.0
 41
1.0
 50
0.0
 71
     0
 42
2.5
  3
amgdt.shx
  4
extfont.shx
  0
STYLE
  5
1FF
330
3
100
AcDbSymbolTableRecord
100
AcDbTextStyleTableRecord
  2
ACJISTS
 70
     0
 40
1.0
 41
1.0
 50
0.0
 71
     0
 42
1.0
  3
isocp.shx
  4
extfont.shx
  0
STYLE
  5
20B
330
3
100
AcDbSymbolTableRecord
100
AcDbTextStyleTableRecord
  2
ACJISGDT
 70
     0
 40
0.0
 41
1.0
 50
0.0
 71
     0
 42
1.0
  3
amgdt.shx
  4

  0
ENDTAB
  0
TABLE
  2
VIEW
  5
6
330
0
100
AcDbSymbolTable
 70
     0
  0
ENDTAB
  0
TABLE
  2
UCS
  5
7
330
0
100
AcDbSymbolTable
 70
     0
  0
ENDTAB
  0
TABLE
  2
APPID
  5
9
330
0
100
AcDbSymbolTable
 70
    17
  0
APPID
  5
12
330
9
100
AcDbSymbolTableRecord
100
AcDbRegAppTableRecord
  2
ACAD
 70
     0
  0
APPID
  5
46
330
9
100
AcDbSymbolTableRecord
100
AcDbRegAppTableRecord
  2
MCAD_NO_VIS
 70
     0
  0
APPID
  5
47
330
9
100
AcDbSymbolTableRecord
100
AcDbRegAppTableRecord
  2
ACAD_TEMP_GRAPHIC
 70
     0
  0
APPID
  5
58
330
9
100
AcDbSymbolTableRecord
100
AcDbRegAppTableRecord
  2
ACATTRIBSERVICES
 70
     0
  0
APPID
  5
EE
330
9
100
AcDbSymbolTableRecord
100
AcDbRegAppTableRecord
  2
AD_DRAW
 70
     0
  0
APPID
  5
10C
330
9
100
AcDbSymbolTableRecord
100
AcDbRegAppTableRecord
  2
DESIGNERASSEMBLIES
 70
     0
  0
APPID
  5
111
330
9
100
AcDbSymbolTableRecord
100
AcDbRegAppTableRecord
  2
ACADM_DIM_EDIT
 70
     0
  0
APPID
  5
112
330
9
100
AcDbSymbolTableRecord
100
AcDbRegAppTableRecord
  2
AMDT_DM_ADJ
 70
     0
  0
APPID
  5
243
330
9
100
AcDbSymbolTableRecord
100
AcDbRegAppTableRecord
  2
ACAD_DSTYLE_DIMTEXT_FILL
 70
     0
  0
APPID
  5
3B4
330
9
100
AcDbSymbolTableRecord
100
AcDbRegAppTableRecord
  2
ACAD_PSEXT
 70
     0
  0
APPID
  5
427
330
9
100
AcDbSymbolTableRecord
100
AcDbRegAppTableRecord
  2
GENIUS_GENDTOL_13
 70
     0
  0
APPID
  5
428
330
9
100
AcDbSymbolTableRecord
100
AcDbRegAppTableRecord
  2
GENIUS_GENODEF_13
 70
     0
  0
APPID
  5
429
330
9
100
AcDbSymbolTableRecord
100
AcDbRegAppTableRecord
  2
GENIUS_GENOBJ-N-CEN_13
 70
     0
  0
APPID
  5
80B
330
9
100
AcDbSymbolTableRecord
100
AcDbRegAppTableRecord
  2
GENIUS_GENOBJ-N-FIL_13
 70
     0
  0
APPID
  5
9FD
330
9
100
AcDbSymbolTableRecord
100
AcDbRegAppTableRecord
  2
ACAD_DIMASSOC_DIMLFAC
 70
     0
  0
APPID
  5
9FE
330
9
100
AcDbSymbolTableRecord
100
AcDbRegAppTableRecord
  2
ACAD_DIMASSOC_CALC_DIMLFAC
 70
     0
  0
APPID
  5
9FF
330
9
100
AcDbSymbolTableRecord
100
AcDbRegAppTableRecord
  2
ACAD_DIMASSOC_OVERRIDDEN_DIMLFAC
 70
     0
  0
ENDTAB
  0
TABLE
  2
DIMSTYLE
  5
A
330
0
100
AcDbSymbolTable
 70
    16
100
AcDbDimStyleTable
 71
     2
340
216
340
81
  0
DIMSTYLE
105
81
330
A
100
AcDbSymbolTableRecord
100
AcDbDimStyleTableRecord
  2
AM_ISO
 70
     0
  4
"
 41
2.5
 42
1.0
 43
10.0
 44
1.0
 47
0.1
 48
0.1
 73
     0
 74
     0
 77
     1
 78
     8
 79
     2
140
3.5
141
0.0
143
0.0393701
146
0.71
147
1.5
172
     1
176
   256
177
   256
178
     2
271
     2
272
     3
274
     4
283
     0
284
     8
340
11
371
    -1
372
    -1
  0
DIMSTYLE
105
82
330
A
100
AcDbSymbolTableRecord
100
AcDbDimStyleTableRecord
  2
AM_ISO$3
 70
     0
  4
"
 41
2.5
 42
1.0
 43
10.0
 44
1.0
 47
0.1
 48
0.1
 73
     0
 77
     1
 78
     8
 79
     2
140
3.5
141
0.0
143
0.0393701
146
0.71
147
1.5
176
   256
177
   256
178
     2
271
     2
272
     3
274
     4
283
     0
284
     8
288
     1
289
     0
340
11
371
    -1
372
    -1
  0
DIMSTYLE
105
83
330
A
100
AcDbSymbolTableRecord
100
AcDbDimStyleTableRecord
  2
AM_ISO$4
 70
     0
  4
"
 41
2.5
 42
1.0
 43
10.0
 44
1.0
 47
0.1
 48
0.1
 73
     0
 77
     1
 78
     8
 79
     2
140
3.5
141
0.0
143
0.0393701
146
0.71
147
1.5
176
   256
177
   256
178
     2
271
     2
272
     3
274
     4
283
     0
284
     8
288
     1
289
     0
340
11
371
    -1
372
    -1
  0
DIMSTYLE
105
84
330
A
100
AcDbSymbolTableRecord
100
AcDbDimStyleTableRecord
  2
AM_ISO$6
 70
     0
  4
"
 41
2.5
 42
1.0
 43
10.0
 44
1.0
 47
0.1
 48
0.1
 73
     0
 74
     0
 78
     8
 79
     2
140
3.5
141
0.0
143
0.0393701
146
0.71
147
1.5
172
     1
176
   256
177
   256
178
     2
271
     2
272
     3
274
     4
283
     0
284
     8
340
11
371
    -1
372
    -1
  0
DIMSTYLE
105
85
330
A
100
AcDbSymbolTableRecord
100
AcDbDimStyleTableRecord
  2
AM_ISO$7
 70
     0
  4
"
 41
2.5
 42
1.0
 43
10.0
 44
1.0
 47
0.1
 48
0.1
 73
     0
 74
     0
 77
     1
 78
     8
 79
     2
140
5.0
141
0.0
143
0.0393701
146
0.71
147
1.5
172
     1
176
   256
177
   256
178
     2
271
     2
272
     3
274
     4
283
     0
284
     8
340
11
371
    -1
372
    -1
  0
DIMSTYLE
105
86
330
A
100
AcDbSymbolTableRecord
100
AcDbDimStyleTableRecord
  2
AM_ISO$SF
 70
     0
  4
"
 41
2.5
 42
1.0
 43
10.0
 44
1.0
 47
0.1
 48
0.1
 73
     0
 74
     0
 75
     1
 76
     1
 77
     1
 78
     8
 79
     2
140
3.5
141
0.0
143
0.0393701
146
0.71
147
1.5
172
     1
176
   256
177
   256
178
     2
271
     2
272
     3
274
     4
283
     0
284
     8
340
11
371
    -1
372
    -1
  0
DIMSTYLE
105
8B
330
A
100
AcDbSymbolTableRecord
100
AcDbDimStyleTableRecord
  2
AM_ISO$SH
 70
     0
  4
"
 41
2.5
 42
1.0
 43
10.0
 44
1.0
 47
0.1
 48
0.1
 73
     0
 74
     0
 75
     1
 76
     1
 77
     1
 78
     8
 79
     2
140
3.5
141
0.0
143
0.0393701
144
2.0
146
0.71
147
1.5
172
     1
173
     1
176
   256
177
   256
178
     2
271
     2
272
     3
274
     4
283
     0
284
     8
340
11
343
87
371
    -1
372
    -1
  0
DIMSTYLE
105
216
330
A
100
AcDbSymbolTableRecord
100
AcDbDimStyleTableRecord
  2
AM_JIS
 70
     0
  4
"
 41
2.5
 42
1.0
 43
10.0
 44
1.0
 47
0.1
 48
0.1000000001
 73
     0
 74
     0
 77
     3
 78
     8
 79
     2
140
3.799999999999999
141
0.0
143
0.0393701
146
0.71
147
1.5
172
     1
176
   256
177
   256
178
     2
271
     2
272
     2
275
     1
283
     0
284
     8
340
11
341
217
342
217
371
    -1
372
    -1
  0
DIMSTYLE
105
21D
330
A
100
AcDbSymbolTableRecord
100
AcDbDimStyleTableRecord
  2
AM_JIS$3
 70
     0
  4
"
 41
2.5
 42
1.0
 43
10.0
 44
1.0
 47
0.1
 48
0.1000000001
 73
     0
 77
     3
 78
     8
 79
     2
140
3.799999999999999
141
0.0
143
0.0393701
146
0.71
147
1.5
176
   256
177
   256
178
     2
271
     2
272
     2
275
     1
283
     0
284
     8
288
     1
289
     0
340
11
341
217
342
217
371
    -1
372
    -1
  0
DIMSTYLE
105
21E
330
A
100
AcDbSymbolTableRecord
100
AcDbDimStyleTableRecord
  2
AM_JIS$4
 70
     0
  4
"
 41
2.5
 42
1.0
 43
10.0
 44
1.0
 47
0.1
 48
0.1000000001
 73
     0
 77
     3
 78
     8
 79
     2
140
3.799999999999999
141
0.0
143
0.0393701
146
0.71
147
1.5
176
   256
177
   256
178
     2
271
     2
272
     2
275
     1
283
     0
284
     8
288
     1
289
     0
340
11
341
217
342
217
371
    -1
372
    -1
  0
DIMSTYLE
105
21F
330
A
100
AcDbSymbolTableRecord
100
AcDbDimStyleTableRecord
  2
AM_JIS$6
 70
     0
  4
"
 41
2.5
 42
1.0
 43
10.0
 44
1.0
 47
0.1
 48
0.1000000001
 73
     0
 74
     0
 78
     8
 79
     2
140
3.799999999999999
141
0.0
143
0.0393701
146
0.71
147
1.5
172
     1
176
   256
177
   256
178
     2
271
     2
272
     2
275
     1
283
     0
284
     8
340
11
341
217
342
217
371
    -1
372
    -1
  0
DIMSTYLE
105
220
330
A
100
AcDbSymbolTableRecord
100
AcDbDimStyleTableRecord
  2
AM_JIS$7
 70
     0
  4
"
 41
2.5
 42
1.0
 43
10.0
 44
1.0
 47
0.1
 48
0.1000000001
 73
     0
 74
     0
 77
     3
 78
     8
 79
     2
140
5.0
141
0.0
143
0.0393701
146
0.71
147
1.5
172
     1
176
   256
177
   256
178
     2
271
     2
272
     2
275
     1
283
     0
284
     8
340
11
341
217
342
217
371
    -1
372
    -1
  0
DIMSTYLE
105
221
330
A
100
AcDbSymbolTableRecord
100
AcDbDimStyleTableRecord
  2
AM_JIS$SF
 70
     0
  4
"
 41
2.5
 42
1.0
 43
10.0
 44
1.0
 47
0.1
 48
0.1
 73
     0
 74
     0
 75
     1
 76
     1
 77
     3
 78
     8
 79
     2
140
3.5
141
0.0
143
0.0393701
146
0.71
147
1.5
172
     1
176
   256
177
   256
178
     2
271
     2
272
     3
274
     4
283
     0
284
     8
340
11
341
217
342
217
343
217
344
217
371
    -1
372
    -1
  0
DIMSTYLE
105
222
330
A
100
AcDbSymbolTableRecord
100
AcDbDimStyleTableRecord
  2
AM_JIS$SH
 70
     0
  4
"
 41
2.5
 42
1.0
 43
10.0
 44
1.0
 47
0.1
 48
0.1
 73
     0
 74
     0
 75
     1
 76
     1
 77
     3
 78
     8
 79
     2
140
3.5
141
0.0
143
0.0393701
144
2.0
146
0.71
147
1.5
172
     1
173
     1
176
   256
177
   256
178
     2
271
     2
272
     3
274
     4
283
     0
284
     8
340
11
341
217
342
217
343
87
344
217
371
    -1
372
    -1
  0
DIMSTYLE
105
425
102
{ACAD_REACTORS
330
1399
102
}
330
A
100
AcDbSymbolTableRecord
100
AcDbDimStyleTableRecord
  2
AM_JIS$2
 70
     0
  4
"
 41
2.5
 42
0.0
 43
10.0
 44
1.0
 48
0.000000001
 73
     0
 74
     0
 77
     3
 78
     1
 79
     2
140
3.799999999999999
141
0.0
143
0.0393701
146
0.71
147
1.5
172
     1
176
   256
177
   256
178
     2
179
     1
271
     3
272
     3
275
     1
283
     0
284
     8
289
     2
340
11
341
217
342
217
371
    -1
372
    -1
  0
DIMSTYLE
105
426
102
{ACAD_REACTORS
330
1261
330
1262
330
1263
330
1265
330
1266
330
1267
330
1272
330
1273
330
1393
330
1396
102
}
330
A
100
AcDbSymbolTableRecord
100
AcDbDimStyleTableRecord
  2
AM_JIS$0
 70
     0
  4
"
 41
2.5
 42
0.0
 43
10.0
 44
1.0
 48
0.000000001
 73
     0
 74
     0
 77
     3
 78
     1
 79
     2
140
3.799999999999999
141
0.0
143
0.0393701
146
0.71
147
1.5
172
     1
176
   256
177
   256
178
     2
179
     1
271
     3
272
     3
275
     1
283
     0
284
     8
340
11
341
217
342
217
371
    -1
372
    -1
  0
ENDTAB
  0
TABLE
  2
BLOCK_RECORD
  5
1
330
0
100
AcDbSymbolTable
 70
    16
  0
BLOCK_RECORD
  5
1F
102
{ACAD_XDICTIONARY
360
8F
102
}
330
1
100
AcDbSymbolTableRecord
100
AcDbBlockTableRecord
  2
*Model_Space
340
22
  0
BLOCK_RECORD
  5
1B
330
1
100
AcDbSymbolTableRecord
100
AcDbBlockTableRecord
  2
*Paper_Space
340
1E
  0
BLOCK_RECORD
  5
23
330
1
100
AcDbSymbolTableRecord
100
AcDbBlockTableRecord
  2
*Paper_Space0
340
26
  0
BLOCK_RECORD
  5
87
330
1
100
AcDbSymbolTableRecord
100
AcDbBlockTableRecord
  2
GENAXEH
340
0
  0
BLOCK_RECORD
  5
217
330
1
100
AcDbSymbolTableRecord
100
AcDbBlockTableRecord
  2
_Open30
340
0
102
{BLKREFS
331
13F0
331
13F8
331
13F9
331
1401
331
1402
331
140C
331
140D
331
1415
331
1416
331
141E
331
141F
331
1427
331
1428
331
1430
331
1431
331
1438
331
1440
331
1441
331
1454
331
1455
102
}
  0
BLOCK_RECORD
  5
3DC
330
1
100
AcDbSymbolTableRecord
100
AcDbBlockTableRecord
  2
_None
340
0
  0
BLOCK_RECORD
  5
129D
330
1
100
AcDbSymbolTableRecord
100
AcDbBlockTableRecord
  2
*D5
340
0
  0
BLOCK_RECORD
  5
12A5
330
1
100
AcDbSymbolTableRecord
100
AcDbBlockTableRecord
  2
*D6
340
0
  0
BLOCK_RECORD
  5
12AF
330
1
100
AcDbSymbolTableRecord
100
AcDbBlockTableRecord
  2
*D7
340
0
  0
BLOCK_RECORD
  5
12B9
330
1
100
AcDbSymbolTableRecord
100
AcDbBlockTableRecord
  2
*D8
340
0
  0
BLOCK_RECORD
  5
12C5
330
1
100
AcDbSymbolTableRecord
100
AcDbBlockTableRecord
  2
*D9
340
0
  0
BLOCK_RECORD
  5
12CF
330
1
100
AcDbSymbolTableRecord
100
AcDbBlockTableRecord
  2
*D10
340
0
  0
BLOCK_RECORD
  5
12D9
330
1
100
AcDbSymbolTableRecord
100
AcDbBlockTableRecord
  2
*D11
340
0
  0
BLOCK_RECORD
  5
12E3
330
1
100
AcDbSymbolTableRecord
100
AcDbBlockTableRecord
  2
*D12
340
0
  0
BLOCK_RECORD
  5
139C
330
1
100
AcDbSymbolTableRecord
100
AcDbBlockTableRecord
  2
*D13
340
0
  0
BLOCK_RECORD
  5
13A4
330
1
100
AcDbSymbolTableRecord
100
AcDbBlockTableRecord
  2
*D14
340
0
  0
BLOCK_RECORD
  5
13AE
330
1
100
AcDbSymbolTableRecord
100
AcDbBlockTableRecord
  2
*D15
340
0
  0
ENDTAB
  0
ENDSEC
  0
SECTION
  2
BLOCKS
  0
BLOCK
  5
20
330
1F
100
AcDbEntity
  8
0
100
AcDbBlockBegin
  2
*Model_Space
 70
     0
 10
0.0
 20
0.0
 30
0.0
  3
*Model_Space
  1

  0
ENDBLK
  5
21
330
1F
100
AcDbEntity
  8
0
100
AcDbBlockEnd
  0
BLOCK
  5
1C
330
1B
100
AcDbEntity
 67
     1
  8
0
100
AcDbBlockBegin
  2
*Paper_Space
 70
     0
 10
0.0
 20
0.0
 30
0.0
  3
*Paper_Space
  1

  0
ENDBLK
  5
1D
330
1B
100
AcDbEntity
 67
     1
  8
0
100
AcDbBlockEnd
  0
BLOCK
  5
24
330
23
100
AcDbEntity
  8
0
100
AcDbBlockBegin
  2
*Paper_Space0
 70
     0
 10
0.0
 20
0.0
 30
0.0
  3
*Paper_Space0
  1

  0
ENDBLK
  5
25
330
23
100
AcDbEntity
  8
0
100
AcDbBlockEnd
  0
BLOCK
  5
89
330
87
100
AcDbEntity
  8
0
100
AcDbBlockBegin
  2
GENAXEH
 70
     0
 10
0.0
 20
0.0
 30
0.0
  3
GENAXEH
  1

  0
LINE
  5
88
330
87
100
AcDbEntity
  8
0
100
AcDbLine
 10
-1.0
 20
0.0
 30
0.0
 11
1.0
 21
0.0
 31
0.0
  0
ENDBLK
  5
8A
330
87
100
AcDbEntity
  8
0
100
AcDbBlockEnd
  0
BLOCK
  5
21B
330
217
100
AcDbEntity
  8
0
100
AcDbBlockBegin
  2
_Open30
 70
     0
 10
0.0
 20
0.0
 30
0.0
  3
_Open30
  1

  0
LINE
  5
218
330
217
100
AcDbEntity
  8
0
  6
ByBlock
 62
     0
370
    -2
100
AcDbLine
 10
-1.0
 20
0.26794919
 30
0.0
 11
0.0
 21
0.0
 31
0.0
  0
LINE
  5
219
330
217
100
AcDbEntity
  8
0
  6
ByBlock
 62
     0
370
    -2
100
AcDbLine
 10
0.0
 20
0.0
 30
0.0
 11
-1.0
 21
-0.26794919
 31
0.0
  0
LINE
  5
21A
330
217
100
AcDbEntity
  8
0
  6
ByBlock
 62
     0
370
    -2
100
AcDbLine
 10
0.0
 20
0.0
 30
0.0
 11
-1.0
 21
0.0
 31
0.0
  0
ENDBLK
  5
21C
330
217
100
AcDbEntity
  8
0
100
AcDbBlockEnd
  0
BLOCK
  5
3DD
330
3DC
100
AcDbEntity
  8
0
100
AcDbBlockBegin
  2
_None
 70
     0
 10
0.0
 20
0.0
 30
0.0
  3
_None
  1

  0
ENDBLK
  5
3DE
330
3DC
100
AcDbEntity
  8
0
100
AcDbBlockEnd
  0
BLOCK
  5
1340
330
129D
100
AcDbEntity
  8
0
100
AcDbBlockBegin
  2
*D5
 70
     1
 10
0.0
 20
0.0
 30
0.0
  3
*D5
  1

  0
LINE
  5
13EE
330
129D
100
AcDbEntity
  8
AM_5
100
AcDbLine
 10
-39.0
 20
16.0
 30
0.0
 11
-75.84397457427053
 21
16.00000000000001
 31
0.0
  0
LINE
  5
13EF
330
129D
100
AcDbEntity
  8
AM_5
100
AcDbLine
 10
-74.84397457427053
 20
0.0000000000000089
 30
0.0
 11
-74.84397457427053
 21
13.50000000000001
 31
0.0
  0
INSERT
  5
13F0
330
129D
100
AcDbEntity
  8
AM_5
100
AcDbBlockReference
  2
_Open30
 10
-74.84397457427053
 20
16.00000000000001
 30
0.0
 41
2.5
 42
2.5
 43
2.5
 50
90.0
  0
MTEXT
  5
13F1
330
129D
100
AcDbEntity
  8
AM_5
 62
     2
100
AcDbMText
 10
-78.24434859001856
 20
6.05943987189687
 30
0.0
 40
3.799999999999999
 41
0.0
 71
     5
 72
     1
  1
φ32
 11
0.0000000000000001
 21
1.0
 31
0.0
 73
     1
 44
1.0
1001
ACAD
1000
MTEXTBEGIN
1070
    73
1070
     1
1070
    44
1040
1.0
1070
    74
1070
     0
1000
MTEXTEND
  0
POINT
  5
13F2
330
129D
100
AcDbEntity
  8
Defpoints
 62
     0
100
AcDbPoint
 10
-43.50304914066055
 20
0.0
 30
0.0
  0
POINT
  5
13F3
330
129D
100
AcDbEntity
  8
Defpoints
 62
     0
100
AcDbPoint
 10
-39.0
 20
16.0
 30
0.0
  0
POINT
  5
13F4
330
129D
100
AcDbEntity
  8
Defpoints
 62
     0
100
AcDbPoint
 10
-74.84397457427053
 20
16.00000000000001
 30
0.0
  0
ENDBLK
  5
1341
330
129D
100
AcDbEntity
  8
0
100
AcDbBlockEnd
  0
BLOCK
  5
1342
330
12A5
100
AcDbEntity
  8
0
100
AcDbBlockBegin
  2
*D6
 70
     1
 10
0.0
 20
0.0
 30
0.0
  3
*D6
  1

  0
LINE
  5
13F5
330
12A5
100
AcDbEntity
  8
AM_5
100
AcDbLine
 10
-39.0
 20
8.0
 30
0.0
 11
-61.30865191099633
 21
8.000000000000007
 31
0.0
  0
LINE
  5
13F6
330
12A5
100
AcDbEntity
  8
AM_5
100
AcDbLine
 10
-39.0
 20
-8.00000000000017
 30
0.0
 11
-61.30865191099633
 21
-8.000000000000163
 31
0.0
  0
LINE
  5
13F7
330
12A5
100
AcDbEntity
  8
AM_5
100
AcDbLine
 10
-60.30865191099633
 20
5.500000000000005
 30
0.0
 11
-60.30865191099633
 21
-5.500000000000164
 31
0.0
  0
INSERT
  5
13F8
330
12A5
100
AcDbEntity
  8
AM_5
100
AcDbBlockReference
  2
_Open30
 10
-60.30865191099633
 20
8.000000000000005
 30
0.0
 41
2.5
 42
2.5
 43
2.5
 50
90.0
  0
INSERT
  5
13F9
330
12A5
100
AcDbEntity
  8
AM_5
100
AcDbBlockReference
  2
_Open30
 10
-60.30865191099633
 20
-8.000000000000163
 30
0.0
 41
2.5
 42
2.5
 43
2.5
 50
270.0
  0
MTEXT
  5
13FA
330
12A5
100
AcDbEntity
  8
AM_5
 62
     2
100
AcDbMText
 10
-63.70865191099633
 20
-0.0000000000000564
 30
0.0
 40
3.799999999999999
 41
0.0
 71
     5
 72
     1
  1
φ16
 11
0.0000000000000001
 21
1.0
 31
0.0
 73
     1
 44
1.0
1001
ACAD
1000
MTEXTBEGIN
1070
    73
1070
     1
1070
    44
1040
1.0
1070
    74
1070
     0
1000
MTEXTEND
  0
POINT
  5
13FB
330
12A5
100
AcDbEntity
  8
Defpoints
 62
     0
100
AcDbPoint
 10
-39.0
 20
8.0
 30
0.0
  0
POINT
  5
13FC
330
12A5
100
AcDbEntity
  8
Defpoints
 62
     0
100
AcDbPoint
 10
-39.0
 20
-8.00000000000017
 30
0.0
  0
POINT
  5
13FD
330
12A5
100
AcDbEntity
  8
Defpoints
 62
     0
100
AcDbPoint
 10
-60.30865191099633
 20
-8.000000000000163
 30
0.0
  0
ENDBLK
  5
1343
330
12A5
100
AcDbEntity
  8
0
100
AcDbBlockEnd
  0
BLOCK
  5
1344
330
12AF
100
AcDbEntity
  8
0
100
AcDbBlockBegin
  2
*D7
 70
     1
 10
0.0
 20
0.0
 30
0.0
  3
*D7
  1

  0
LINE
  5
13FE
330
12AF
100
AcDbEntity
  8
AM_5
100
AcDbLine
 10
-39.00000000000011
 20
-4.199999999999988
 30
0.0
 11
-48.3384195700022
 21
-4.199999999999985
 31
0.0
  0
LINE
  5
13FF
330
12AF
100
AcDbEntity
  8
AM_5
100
AcDbLine
 10
-39.0
 20
4.199999999999988
 30
0.0
 11
-48.3384195700022
 21
4.199999999999991
 31
0.0
  0
LINE
  5
1400
330
12AF
100
AcDbEntity
  8
AM_5
100
AcDbLine
 10
-47.3384195700022
 20
-1.699999999999986
 30
0.0
 11
-47.3384195700022
 21
1.699999999999991
 31
0.0
  0
INSERT
  5
1401
330
12AF
100
AcDbEntity
  8
AM_5
100
AcDbBlockReference
  2
_Open30
 10
-47.3384195700022
 20
-4.199999999999985
 30
0.0
 41
2.5
 42
2.5
 43
2.5
 50
270.0
  0
INSERT
  5
1402
330
12AF
100
AcDbEntity
  8
AM_5
100
AcDbBlockReference
  2
_Open30
 10
-47.3384195700022
 20
4.199999999999991
 30
0.0
 41
2.5
 42
2.5
 43
2.5
 50
90.0
  0
MTEXT
  5
1403
330
12AF
100
AcDbEntity
  8
AM_5
 62
     2
100
AcDbMText
 10
-50.7384195700022
 20
-0.0000000000000047
 30
0.0
 40
3.799999999999999
 41
0.0
 71
     5
 72
     1
  1
8.4
 11
0.0000000000000001
 21
1.0
 31
0.0
 73
     1
 44
1.0
1001
ACAD
1000
MTEXTBEGIN
1070
    73
1070
     1
1070
    44
1040
1.0
1070
    74
1070
     0
1000
MTEXTEND
  0
POINT
  5
1404
330
12AF
100
AcDbEntity
  8
Defpoints
 62
     0
100
AcDbPoint
 10
-39.00000000000011
 20
-4.199999999999988
 30
0.0
  0
POINT
  5
1405
330
12AF
100
AcDbEntity
  8
Defpoints
 62
     0
100
AcDbPoint
 10
-39.0
 20
4.199999999999988
 30
0.0
  0
POINT
  5
1406
330
12AF
100
AcDbEntity
  8
Defpoints
 62
     0
100
AcDbPoint
 10
-47.3384195700022
 20
4.199999999999991
 30
0.0
  0
ENDBLK
  5
1345
330
12AF
100
AcDbEntity
  8
0
100
AcDbBlockEnd
  0
BLOCK
  5
1346
330
12B9
100
AcDbEntity
  8
0
100
AcDbBlockBegin
  2
*D8
 70
     1
 10
0.0
 20
0.0
 30
0.0
  3
*D8
  1

  0
LINE
  5
1407
330
12B9
100
AcDbEntity
  8
AM_5
100
AcDbLine
 10
-40.0
 20
-12.26232854663692
 30
0.0
 11
-40.0
 21
-25.67909531756561
 31
0.0
  0
LINE
  5
1408
330
12B9
100
AcDbEntity
  8
AM_5
100
AcDbLine
 10
-34.39999999999998
 20
-4.199999999999988
 30
0.0
 11
-34.39999999999998
 21
-25.67909531756561
 31
0.0
  0
LINE
  5
1409
330
12B9
100
AcDbEntity
  8
AM_5
100
AcDbLine
 10
-31.89999999999998
 20
-24.67909531756561
 30
0.0
 11
-29.39999999999998
 21
-24.67909531756561
 31
0.0
  0
LINE
  5
140A
330
12B9
100
AcDbEntity
  8
AM_5
100
AcDbLine
 10
-42.5
 20
-24.67909531756561
 30
0.0
 11
-53.60665333275632
 21
-24.67909531756561
 31
0.0
  0
LINE
  5
140B
330
12B9
100
AcDbEntity
  8
AM_5
100
AcDbLine
 10
-34.39999999999998
 20
-24.67909531756561
 30
0.0
 11
-40.0
 21
-24.67909531756561
 31
0.0
  0
INSERT
  5
140C
330
12B9
100
AcDbEntity
  8
AM_5
100
AcDbBlockReference
  2
_Open30
 10
-34.39999999999998
 20
-24.67909531756561
 30
0.0
 41
2.5
 42
2.5
 43
2.5
 50
180.0
  0
INSERT
  5
140D
330
12B9
100
AcDbEntity
  8
AM_5
100
AcDbBlockReference
  2
_Open30
 10
-40.0
 20
-24.67909531756561
 30
0.0
 41
2.5
 42
2.5
 43
2.5
  0
MTEXT
  5
140E
330
12B9
100
AcDbEntity
  8
AM_5
 62
     2
100
AcDbMText
 10
-49.35240136425239
 20
-21.27909531756561
 30
0.0
 40
3.799999999999999
 41
0.0
 71
     5
 72
     1
  1
5.6
 73
     1
 44
1.0
1001
ACAD
1000
MTEXTBEGIN
1070
    73
1070
     1
1070
    44
1040
1.0
1070
    74
1070
     0
1000
MTEXTEND
  0
POINT
  5
140F
330
12B9
100
AcDbEntity
  8
Defpoints
 62
     0
100
AcDbPoint
 10
-40.0
 20
-12.26232854663692
 30
0.0
  0
POINT
  5
1410
330
12B9
100
AcDbEntity
  8
Defpoints
 62
     0
100
AcDbPoint
 10
-34.39999999999998
 20
-4.199999999999988
 30
0.0
  0
POINT
  5
1411
330
12B9
100
AcDbEntity
  8
Defpoints
 62
     0
100
AcDbPoint
 10
-34.39999999999998
 20
-24.67909531756561
 30
0.0
  0
ENDBLK
  5
1347
330
12B9
100
AcDbEntity
  8
0
100
AcDbBlockEnd
  0
BLOCK
  5
1348
330
12C5
100
AcDbEntity
  8
0
100
AcDbBlockBegin
  2
*D9
 70
     1
 10
0.0
 20
0.0
 30
0.0
  3
*D9
  1

  0
LINE
  5
1412
330
12C5
100
AcDbEntity
  8
AM_5
100
AcDbLine
 10
-40.0
 20
-12.26232854663692
 30
0.0
 11
-40.0
 21
-36.49663947552938
 31
0.0
  0
LINE
  5
1413
330
12C5
100
AcDbEntity
  8
AM_5
100
AcDbLine
 10
-22.0
 20
-8.5
 30
0.0
 11
-22.0
 21
-36.49663947552938
 31
0.0
  0
LINE
  5
1414
330
12C5
100
AcDbEntity
  8
AM_5
100
AcDbLine
 10
-37.5
 20
-35.49663947552938
 30
0.0
 11
-24.5
 21
-35.49663947552938
 31
0.0
  0
INSERT
  5
1415
330
12C5
100
AcDbEntity
  8
AM_5
100
AcDbBlockReference
  2
_Open30
 10
-40.0
 20
-35.49663947552938
 30
0.0
 41
2.5
 42
2.5
 43
2.5
 50
180.0
  0
INSERT
  5
1416
330
12C5
100
AcDbEntity
  8
AM_5
100
AcDbBlockReference
  2
_Open30
 10
-22.0
 20
-35.49663947552938
 30
0.0
 41
2.5
 42
2.5
 43
2.5
  0
MTEXT
  5
1417
330
12C5
100
AcDbEntity
  8
AM_5
 62
     2
100
AcDbMText
 10
-31.0
 20
-32.09663947552938
 30
0.0
 40
3.799999999999999
 41
0.0
 71
     5
 72
     1
  1
18
 73
     1
 44
1.0
1001
ACAD
1000
MTEXTBEGIN
1070
    73
1070
     1
1070
    44
1040
1.0
1070
    74
1070
     0
1000
MTEXTEND
  0
POINT
  5
1418
330
12C5
100
AcDbEntity
  8
Defpoints
 62
     0
100
AcDbPoint
 10
-40.0
 20
-12.26232854663692
 30
0.0
  0
POINT
  5
1419
330
12C5
100
AcDbEntity
  8
Defpoints
 62
     0
100
AcDbPoint
 10
-22.0
 20
-8.5
 30
0.0
  0
POINT
  5
141A
330
12C5
100
AcDbEntity
  8
Defpoints
 62
     0
100
AcDbPoint
 10
-22.0
 20
-35.49663947552938
 30
0.0
  0
ENDBLK
  5
1349
330
12C5
100
AcDbEntity
  8
0
100
AcDbBlockEnd
  0
BLOCK
  5
134A
330
12CF
100
AcDbEntity
  8
0
100
AcDbBlockBegin
  2
*D10
 70
     1
 10
0.0
 20
0.0
 30
0.0
  3
*D10
  1

  0
LINE
  5
141B
330
12CF
100
AcDbEntity
  8
AM_5
100
AcDbLine
 10
-40.0
 20
-12.26232854663692
 30
0.0
 11
-40.0
 21
-47.18063437292516
 31
0.0
  0
LINE
  5
141C
330
12CF
100
AcDbEntity
  8
AM_5
100
AcDbLine
 10
-12.0
 20
-7.0
 30
0.0
 11
-12.0
 21
-47.18063437292516
 31
0.0
  0
LINE
  5
141D
330
12CF
100
AcDbEntity
  8
AM_5
100
AcDbLine
 10
-37.5
 20
-46.18063437292517
 30
0.0
 11
-14.5
 21
-46.18063437292517
 31
0.0
  0
INSERT
  5
141E
330
12CF
100
AcDbEntity
  8
AM_5
100
AcDbBlockReference
  2
_Open30
 10
-40.0
 20
-46.18063437292517
 30
0.0
 41
2.5
 42
2.5
 43
2.5
 50
180.0
  0
INSERT
  5
141F
330
12CF
100
AcDbEntity
  8
AM_5
100
AcDbBlockReference
  2
_Open30
 10
-12.0
 20
-46.18063437292517
 30
0.0
 41
2.5
 42
2.5
 43
2.5
  0
MTEXT
  5
1420
330
12CF
100
AcDbEntity
  8
AM_5
 62
     2
100
AcDbMText
 10
-26.0
 20
-42.78026035717714
 30
0.0
 40
3.799999999999999
 41
0.0
 71
     5
 72
     1
  1
28
 73
     1
 44
1.0
1001
ACAD
1000
MTEXTBEGIN
1070
    73
1070
     1
1070
    44
1040
1.0
1070
    74
1070
     0
1000
MTEXTEND
  0
POINT
  5
1421
330
12CF
100
AcDbEntity
  8
Defpoints
 62
     0
100
AcDbPoint
 10
-40.0
 20
-12.26232854663692
 30
0.0
  0
POINT
  5
1422
330
12CF
100
AcDbEntity
  8
Defpoints
 62
     0
100
AcDbPoint
 10
-12.0
 20
-7.0
 30
0.0
  0
POINT
  5
1423
330
12CF
100
AcDbEntity
  8
Defpoints
 62
     0
100
AcDbPoint
 10
-12.0
 20
-46.18063437292517
 30
0.0
  0
ENDBLK
  5
134B
330
12CF
100
AcDbEntity
  8
0
100
AcDbBlockEnd
  0
BLOCK
  5
134C
330
12D9
100
AcDbEntity
  8
0
100
AcDbBlockBegin
  2
*D11
 70
     1
 10
0.0
 20
0.0
 30
0.0
  3
*D11
  1

  0
LINE
  5
1424
330
12D9
100
AcDbEntity
  8
AM_5
100
AcDbLine
 10
-12.0
 20
-4.5
 30
0.0
 11
4.136658074076195
 21
-4.500000000000004
 31
0.0
  0
LINE
  5
1425
330
12D9
100
AcDbEntity
  8
AM_5
100
AcDbLine
 10
-12.0
 20
4.5
 30
0.0
 11
4.136658074076193
 21
4.499999999999995
 31
0.0
  0
LINE
  5
1426
330
12D9
100
AcDbEntity
  8
AM_5
100
AcDbLine
 10
3.136658074076194
 20
-2.000000000000004
 30
0.0
 11
3.136658074076195
 21
1.999999999999995
 31
0.0
  0
INSERT
  5
1427
330
12D9
100
AcDbEntity
  8
AM_5
100
AcDbBlockReference
  2
_Open30
 10
3.136658074076193
 20
-4.500000000000004
 30
0.0
 41
2.5
 42
2.5
 43
2.5
 50
270.0
  0
INSERT
  5
1428
330
12D9
100
AcDbEntity
  8
AM_5
100
AcDbBlockReference
  2
_Open30
 10
3.136658074076195
 20
4.499999999999995
 30
0.0
 41
2.5
 42
2.5
 43
2.5
 50
90.0
  0
MTEXT
  5
1429
330
12D9
100
AcDbEntity
  8
AM_5
 62
     2
100
AcDbMText
 10
-0.2633419259238053
 20
-1.074483237696199
 30
0.0
 40
3.799999999999999
 41
0.0
 71
     5
 72
     1
  1
φ9
 11
0.0000000000000001
 21
1.0
 31
0.0
 73
     1
 44
1.0
1001
ACAD
1000
MTEXTBEGIN
1070
    73
1070
     1
1070
    44
1040
1.0
1070
    74
1070
     0
1000
MTEXTEND
  0
POINT
  5
142A
330
12D9
100
AcDbEntity
  8
Defpoints
 62
     0
100
AcDbPoint
 10
-12.0
 20
-4.5
 30
0.0
  0
POINT
  5
142B
330
12D9
100
AcDbEntity
  8
Defpoints
 62
     0
100
AcDbPoint
 10
-12.0
 20
4.5
 30
0.0
  0
POINT
  5
142C
330
12D9
100
AcDbEntity
  8
Defpoints
 62
     0
100
AcDbPoint
 10
3.136658074076195
 20
4.499999999999995
 30
0.0
  0
ENDBLK
  5
134D
330
12D9
100
AcDbEntity
  8
0
100
AcDbBlockEnd
  0
BLOCK
  5
134E
330
12E3
100
AcDbEntity
  8
0
100
AcDbBlockBegin
  2
*D12
 70
     1
 10
0.0
 20
0.0
 30
0.0
  3
*D12
  1

  0
LINE
  5
142D
330
12E3
100
AcDbEntity
  8
AM_5
100
AcDbLine
 10
-8.796479999999974
 20
-7.0
 30
0.0
 11
12.11967471994967
 21
-7.000000000000005
 31
0.0
  0
LINE
  5
142E
330
12E3
100
AcDbEntity
  8
AM_5
100
AcDbLine
 10
-8.796479999999974
 20
7.0
 30
0.0
 11
12.11967471994967
 21
6.999999999999994
 31
0.0
  0
LINE
  5
142F
330
12E3
100
AcDbEntity
  8
AM_5
100
AcDbLine
 10
11.11967471994967
 20
-4.500000000000005
 30
0.0
 11
11.11967471994967
 21
4.499999999999994
 31
0.0
  0
INSERT
  5
1430
330
12E3
100
AcDbEntity
  8
AM_5
100
AcDbBlockReference
  2
_Open30
 10
11.11967471994967
 20
-7.000000000000005
 30
0.0
 41
2.5
 42
2.5
 43
2.5
 50
270.0
  0
INSERT
  5
1431
330
12E3
100
AcDbEntity
  8
AM_5
100
AcDbBlockReference
  2
_Open30
 10
11.11967471994967
 20
6.999999999999994
 30
0.0
 41
2.5
 42
2.5
 43
2.5
 50
90.0
  0
MTEXT
  5
1432
330
12E3
100
AcDbEntity
  8
AM_5
 62
     2
100
AcDbMText
 10
7.719674719949669
 20
-0.0000000000000029
 30
0.0
 40
3.799999999999999
 41
0.0
 71
     5
 72
     1
  1
φ14
 11
0.0000000000000001
 21
1.0
 31
0.0
 73
     1
 44
1.0
1001
ACAD
1000
MTEXTBEGIN
1070
    73
1070
     1
1070
    44
1040
1.0
1070
    74
1070
     0
1000
MTEXTEND
  0
POINT
  5
1433
330
12E3
100
AcDbEntity
  8
Defpoints
 62
     0
100
AcDbPoint
 10
-8.796479999999974
 20
-7.0
 30
0.0
  0
POINT
  5
1434
330
12E3
100
AcDbEntity
  8
Defpoints
 62
     0
100
AcDbPoint
 10
-8.796479999999974
 20
7.0
 30
0.0
  0
POINT
  5
1435
330
12E3
100
AcDbEntity
  8
Defpoints
 62
     0
100
AcDbPoint
 10
11.11967471994967
 20
6.999999999999994
 30
0.0
  0
ENDBLK
  5
134F
330
12E3
100
AcDbEntity
  8
0
100
AcDbBlockEnd
  0
BLOCK
  5
13BA
330
139C
100
AcDbEntity
  8
0
100
AcDbBlockBegin
  2
*D13
 70
     1
 10
0.0
 20
0.0
 30
0.0
  3
*D13
  1

  0
LINE
  5
1436
330
139C
100
AcDbEntity
  8
AM_5
100
AcDbLine
 10
0.0
 20
16.0
 30
0.0
 11
20.81643615933348
 21
15.99999999999999
 31
0.0
  0
LINE
  5
1437
330
139C
100
AcDbEntity
  8
AM_5
100
AcDbLine
 10
19.81643615933348
 20
-0.0000000000000072
 30
0.0
 11
19.81643615933348
 21
13.49999999999999
 31
0.0
  0
INSERT
  5
1438
330
139C
100
AcDbEntity
  8
AM_5
100
AcDbBlockReference
  2
_Open30
 10
19.81643615933348
 20
15.99999999999999
 30
0.0
 41
2.5
 42
2.5
 43
2.5
 50
90.0
  0
MTEXT
  5
1439
330
139C
100
AcDbEntity
  8
AM_5
 62
     2
100
AcDbMText
 10
16.41606214358544
 20
0.5177595029700517
 30
0.0
 40
3.799999999999999
 41
0.0
 71
     5
 72
     1
  1
%%c32
 11
0.0000000000000001
 21
1.0
 31
0.0
 73
     1
 44
1.0
1001
ACAD
1000
MTEXTBEGIN
1070
    73
1070
     1
1070
    44
1040
1.0
1070
    74
1070
     0
1000
MTEXTEND
  0
POINT
  5
143A
330
139C
100
AcDbEntity
  8
Defpoints
 62
     0
100
AcDbPoint
 10
-5.437693420017239
 20
0.0
 30
0.0
  0
POINT
  5
143B
330
139C
100
AcDbEntity
  8
Defpoints
 62
     0
100
AcDbPoint
 10
0.0
 20
16.0
 30
0.0
  0
POINT
  5
143C
330
139C
100
AcDbEntity
  8
Defpoints
 62
     0
100
AcDbPoint
 10
19.81643615933348
 20
15.99999999999999
 30
0.0
  0
ENDBLK
  5
13BB
330
139C
100
AcDbEntity
  8
0
100
AcDbBlockEnd
  0
BLOCK
  5
13BC
330
13A4
100
AcDbEntity
  8
0
100
AcDbBlockBegin
  2
*D14
 70
     1
 10
0.0
 20
0.0
 30
0.0
  3
*D14
  1

  0
LINE
  5
143D
330
13A4
100
AcDbEntity
  8
AM_5
100
AcDbLine
 10
-40.0
 20
15.0
 30
0.0
 11
-40.0
 21
40.08076978646704
 31
0.0
  0
LINE
  5
143E
330
13A4
100
AcDbEntity
  8
AM_5
100
AcDbLine
 10
0.0
 20
16.0
 30
0.0
 11
0.0000000000000015
 21
40.08076978646704
 31
0.0
  0
LINE
  5
143F
330
13A4
100
AcDbEntity
  8
AM_5
100
AcDbLine
 10
-37.5
 20
39.08076978646704
 30
0.0
 11
-2.499999999999998
 21
39.08076978646704
 31
0.0
  0
INSERT
  5
1440
330
13A4
100
AcDbEntity
  8
AM_5
100
AcDbBlockReference
  2
_Open30
 10
-40.0
 20
39.08076978646704
 30
0.0
 41
2.5
 42
2.5
 43
2.5
 50
180.0
  0
INSERT
  5
1441
330
13A4
100
AcDbEntity
  8
AM_5
100
AcDbBlockReference
  2
_Open30
 10
0.0000000000000014
 20
39.08076978646704
 30
0.0
 41
2.5
 42
2.5
 43
2.5
  0
MTEXT
  5
1442
330
13A4
100
AcDbEntity
  8
AM_5
 62
     2
100
AcDbMText
 10
-25.48718389158444
 20
42.48076978646704
 30
0.0
 40
3.799999999999999
 41
0.0
 71
     5
 72
     1
  1
40
 73
     1
 44
1.0
1001
ACAD
1000
MTEXTBEGIN
1070
    73
1070
     1
1070
    44
1040
1.0
1070
    74
1070
     0
1000
MTEXTEND
  0
POINT
  5
1443
330
13A4
100
AcDbEntity
  8
Defpoints
 62
     0
100
AcDbPoint
 10
-40.0
 20
15.0
 30
0.0
  0
POINT
  5
1444
330
13A4
100
AcDbEntity
  8
Defpoints
 62
     0
100
AcDbPoint
 10
0.0
 20
16.0
 30
0.0
  0
POINT
  5
1445
330
13A4
100
AcDbEntity
  8
Defpoints
 62
     0
100
AcDbPoint
 10
0.0000000000000014
 20
39.08076978646704
 30
0.0
  0
ENDBLK
  5
13BD
330
13A4
100
AcDbEntity
  8
0
100
AcDbBlockEnd
  0
BLOCK
  5
13BE
330
13AE
100
AcDbEntity
  8
0
100
AcDbBlockBegin
  2
*D15
 70
     1
 10
0.0
 20
0.0
 30
0.0
  3
*D15
  1

  0
LINE
  5
1451
330
13AE
100
AcDbEntity
  8
AM_5
100
AcDbLine
 10
0.0
 20
16.0
 30
0.0
 11
0.0
 21
29.22960253485875
 31
0.0
  0
LINE
  5
1452
330
13AE
100
AcDbEntity
  8
AM_5
100
AcDbLine
 10
-4.613871747242227
 20
20.61387174724223
 30
0.0
 11
-9.354741664801366
 21
25.35474166480137
 31
0.0
  0
ARC
  5
1453
330
13AE
100
AcDbEntity
  8
AM_5
100
AcDbCircle
 10
0.0
 20
16.0
 30
0.0
 40
12.22960253485876
100
AcDbArc
 50
101.7330088305608
 51
123.2669911694392
  0
INSERT
  5
1454
330
13AE
100
AcDbEntity
  8
AM_5
100
AcDbBlockReference
  2
_Open30
 10
0.0
 20
28.22960253485876
 30
0.0
 41
2.5
 42
2.5
 43
2.5
 50
5.866504415280403
  0
INSERT
  5
1455
330
13AE
100
AcDbEntity
  8
AM_5
100
AcDbBlockReference
  2
_Open30
 10
-8.647634883614818
 20
24.64763488361482
 30
0.0
 41
2.5
 42
2.5
 43
2.5
 50
219.1334955847196
  0
MTEXT
  5
1456
330
13AE
100
AcDbEntity
  8
AM_5
 62
     2
100
AcDbMText
 10
-7.902170796682925
 20
32.08084198169405
 30
0.0
 40
3.799999999999999
 41
0.0
 71
     5
 72
     1
  1
45°
 73
     1
 44
1.0
1001
ACAD
1000
MTEXTBEGIN
1070
    73
1070
     1
1070
    44
1040
1.0
1070
    74
1070
     0
1000
MTEXTEND
  0
POINT
  5
1457
330
13AE
100
AcDbEntity
  8
Defpoints
 62
     0
100
AcDbPoint
 10
-3.165254050055509
 20
27.81288893367033
 30
0.0
  0
POINT
  5
1458
330
13AE
100
AcDbEntity
  8
Defpoints
 62
     0
100
AcDbPoint
 10
0.0
 20
16.0
 30
0.0
  0
POINT
  5
1459
330
13AE
100
AcDbEntity
  8
Defpoints
 62
     0
100
AcDbPoint
 10
0.0
 20
13.87867965644034
 30
0.0
  0
POINT
  5
145A
330
13AE
100
AcDbEntity
  8
Defpoints
 62
     0
100
AcDbPoint
 10
0.0
 20
16.0
 30
0.0
  0
POINT
  5
145B
330
13AE
100
AcDbEntity
  8
Defpoints
 62
     0
100
AcDbPoint
 10
-4.613871747242227
 20
20.61387174724223
 30
0.0
  0
ENDBLK
  5
13BF
330
13AE
100
AcDbEntity
  8
0
100
AcDbBlockEnd
  0
ENDSEC
  0
SECTION
  2
ENTITIES
  0
LINE
  5
1250
330
1F
100
AcDbEntity
  8
0
100
AcDbLine
 10
-6.471478000000161
 20
7.719880999999986
 30
0.0
 11
-7.181187000000136
 21
7.0
 31
0.0
  0
LINE
  5
1251
330
1F
100
AcDbEntity
  8
0
100
AcDbLine
 10
-22.0
 20
8.5
 30
0.0
 11
-25.0
 21
8.5
 31
0.0
  0
LINE
  5
1252
330
1F
100
AcDbEntity
  8
0
100
AcDbLine
 10
-25.0
 20
8.0
 30
0.0
 11
-39.0
 21
8.0
 31
0.0
  0
LINE
  5
1253
330
1F
100
AcDbEntity
  8
0
100
AcDbLine
 10
-29.29028700000026
 20
16.0
 30
0.0
 11
-39.0
 21
16.0
 31
0.0
  0
LINE
  5
1254
330
1F
100
AcDbEntity
  8
0
100
AcDbLine
 10
-7.181187000000136
 20
7.0
 30
0.0
 11
-12.0
 21
7.0
 31
0.0
  0
LINE
  5
1255
330
1F
100
AcDbEntity
  8
0
100
AcDbLine
 10
-12.0
 20
7.0
 30
0.0
 11
-12.0
 21
4.5
 31
0.0
  0
LINE
  5
1256
330
1F
100
AcDbEntity
  8
0
100
AcDbLine
 10
-12.0
 20
4.5
 30
0.0
 11
-22.0
 21
4.5
 31
0.0
  0
LINE
  5
1257
330
1F
100
AcDbEntity
  8
0
100
AcDbLine
 10
-22.0
 20
8.5
 30
0.0
 11
-22.0
 21
4.5
 31
0.0
  0
LINE
  5
1258
330
1F
100
AcDbEntity
  8
0
100
AcDbLine
 10
-39.0
 20
8.000000000000028
 30
0.0
 11
-40.0
 21
9.000000000000028
 31
0.0
  0
LINE
  5
1259
330
1F
100
AcDbEntity
  8
0
100
AcDbLine
 10
-24.40500600000019
 20
18.81421399999999
 30
0.0
 11
-25.75475400000005
 21
17.46446600000001
 31
0.0
  0
LINE
  5
125A
330
1F
100
AcDbEntity
  8
0
100
AcDbLine
 10
-25.0
 20
8.5
 30
0.0
 11
-25.0
 21
8.0
 31
0.0
  0
LINE
  5
125B
330
1F
100
AcDbEntity
  8
0
100
AcDbLine
 10
-40.0
 20
15.0
 30
0.0
 11
-40.0
 21
9.149999999999977
 31
0.0
  0
ARC
  5
125C
330
1F
100
AcDbEntity
  8
1
100
AcDbCircle
 10
-39.0
 20
15.0
 30
0.0
 40
1.0
100
AcDbArc
 50
90.0
 51
180.0
  0
ARC
  5
125D
330
1F
100
AcDbEntity
  8
1
100
AcDbCircle
 10
-29.29028700000026
 20
21.0
 30
0.0
 40
5.0
100
AcDbArc
 50
270.0
 51
314.9999918971484
  0
ARC
  5
125E
330
1F
100
AcDbEntity
  8
1
100
AcDbCircle
 10
-22.99079300000017
 20
17.39999999999997
 30
0.0
 40
1.99999989550103
100
AcDbArc
 50
126.8387516569391
 51
134.9999797428806
  0
LINE
  5
125F
330
1F
100
AcDbEntity
  8
0
100
AcDbLine
 10
-6.470822000000225
 20
7.720541999999909
 30
0.0
 11
-6.471478000000161
 21
7.719880999999986
 31
0.0
  0
SPLINE
  5
1260
330
1F
100
AcDbEntity
  8
0
100
AcDbSpline
210
0.0
220
0.0
230
1.0
 70
     8
 71
     3
 72
    11
 73
     7
 74
     5
 42
0.0000000001
 43
0.0000000001
 44
0.0000000001
 40
0.0
 40
0.0
 40
0.0
 40
0.0
 40
0.3829725694314681
 40
0.7162857718854631
 40
0.9517800986662546
 40
1.062331288840886
 40
1.062331288840886
 40
1.062331288840886
 40
1.062331288840886
 10
-5.699996000000055
 20
8.451179999999908
 30
0.0
 10
-5.789679118076539
 20
8.360320470477114
 30
0.0
 10
-5.957416304977087
 20
8.190383003848634
 30
0.0
 10
-6.188549655199802
 20
7.972930551429643
 30
0.0
 10
-6.357919268497567
 20
7.822608577387998
 30
0.0
 10
-6.443485991775288
 20
7.745254358698744
 30
0.0
 10
-6.470822000000225
 20
7.720541999999909
 30
0.0
 11
-5.699996000000055
 21
8.451179999999908
 31
0.0
 11
-5.970820000000003
 21
8.180398999999965
 31
0.0
 11
-6.213567000000239
 21
7.951987999999914
 31
0.0
 11
-6.388742000000092
 21
7.794598999999948
 31
0.0
 11
-6.470822000000225
 21
7.720541999999909
 31
0.0
  0
DIMENSION
  5
1261
330
1F
100
AcDbEntity
  8
AM_5
100
AcDbDimension
  2
*D5
 10
-74.84397457427053
 20
16.00000000000001
 30
0.0
 11
-74.84397457427053
 21
6.05943987189687
 31
0.0
 70
   160
  1
φ<>
 71
     5
 42
32.0
  3
AM_JIS$0
100
AcDbAlignedDimension
 13
-43.50304914066055
 23
0.0
 33
0.0
 14
-39.0
 24
16.0
 34
0.0
 50
270.0
100
AcDbRotatedDimension
1001
GENIUS_GENDTOL_13
1000

1000
h7
1000

1040
0.0
1001
ACAD
1000
DSTYLE
1002
{
1070
   271
1070
     0
1070
    75
1070
     1
1070
   144
1040
2.0
1070
   173
1070
     1
1070
   342
1005
0
1070
   343
1005
3DC
1070
   344
1005
217
1002
}
  0
DIMENSION
  5
1262
330
1F
100
AcDbEntity
  8
AM_5
100
AcDbDimension
  2
*D6
 10
-60.30865191099633
 20
-8.000000000000163
 30
0.0
 11
-60.30865191099633
 21
-0.0000000000000568
 31
0.0
 70
   160
  1
φ<>
 71
     5
 42
16.00000000000017
  3
AM_JIS$0
100
AcDbAlignedDimension
 13
-39.0
 23
8.0
 33
0.0
 14
-39.0
 24
-8.00000000000017
 34
0.0
 50
270.0
100
AcDbRotatedDimension
1001
ACAD
1000
DSTYLE
1002
{
1070
    47
1040
0.018
1070
    48
1040
0.0
1070
   271
1070
     0
1070
   274
1070
     4
1002
}
  0
DIMENSION
  5
1263
330
1F
100
AcDbEntity
  8
AM_5
100
AcDbDimension
  2
*D7
 10
-47.3384195700022
 20
4.199999999999991
 30
0.0
 11
-47.3384195700022
 21
-0.0000000000000051
 31
0.0
 70
   160
  1
<>
 71
     5
 42
8.399999999999977
  3
AM_JIS$0
100
AcDbAlignedDimension
 13
-39.00000000000011
 23
-4.199999999999988
 33
0.0
 14
-39.0
 24
4.199999999999988
 34
0.0
 50
270.0
100
AcDbRotatedDimension
1001
ACAD
1000
DSTYLE
1002
{
1070
    47
1040
0.2
1070
    48
1040
0.0
1070
   271
1070
     1
1070
   272
1070
     1
1070
   274
1070
     0
1002
}
  0
LINE
  5
1264
330
1F
100
AcDbEntity
  8
AM_7
100
AcDbLine
 10
0.0
 20
0.0
 30
0.0
 11
-46.07209735516789
 21
0.0
 31
0.0
1001
GENIUS_GENODEF_13
1002
{
1000
HIER
1070
     0
1002
}
1002
{
1000
MANEDIT
1070
     0
1002
}
1002
{
1000
NOSEL
1070
     0
1002
}
1002
{
1000
BEHIND
1070
     0
1002
}
1002
{
1000
REACTOR
1002
}
1001
GENIUS_GENOBJ-N-CEN_13
1002
{
1000
OWNER
1000
GEN
1002
}
  0
DIMENSION
  5
1265
330
1F
100
AcDbEntity
  8
AM_5
100
AcDbDimension
  2
*D8
 10
-34.39999999999998
 20
-24.67909531756561
 30
0.0
 11
-49.35240136425239
 21
-24.67909531756561
 31
0.0
 70
   160
  1
<>
 71
     5
 42
5.600000000000022
  3
AM_JIS$0
100
AcDbAlignedDimension
 13
-40.0
 23
-12.26232854663692
 33
0.0
 14
-34.39999999999998
 24
-4.199999999999988
 34
0.0
100
AcDbRotatedDimension
1001
GENIUS_GENDTOL_13
1000

1000
h7
1000

1040
0.0
1001
ACAD
1000
DSTYLE
1002
{
1070
   271
1070
     1
1002
}
  0
DIMENSION
  5
1266
330
1F
100
AcDbEntity
  8
AM_5
100
AcDbDimension
  2
*D9
 10
-22.0
 20
-35.49663947552938
 30
0.0
 11
-31.0
 21
-32.09663947552938
 31
0.0
 70
    32
  1
<>
 71
     5
 42
18.0
  3
AM_JIS$0
100
AcDbAlignedDimension
 13
-40.0
 23
-12.26232854663692
 33
0.0
 14
-22.0
 24
-8.5
 34
0.0
100
AcDbRotatedDimension
1001
GENIUS_GENDTOL_13
1000

1000
h7
1000

1040
0.0
1001
ACAD
1000
DSTYLE
1002
{
1070
   271
1070
     0
1002
}
  0
DIMENSION
  5
1267
330
1F
100
AcDbEntity
  8
AM_5
100
AcDbDimension
  2
*D10
 10
-12.0
 20
-46.18063437292517
 30
0.0
 11
-26.0
 21
-42.78026035717714
 31
0.0
 70
    32
  1
<>
 71
     5
 42
28.0
  3
AM_JIS$0
100
AcDbAlignedDimension
 13
-40.0
 23
-12.26232854663692
 33
0.0
 14
-12.0
 24
-7.0
 34
0.0
100
AcDbRotatedDimension
1001
GENIUS_GENDTOL_13
1000

1000
h7
1000

1040
0.0
1001
ACAD
1000
DSTYLE
1002
{
1070
   271
1070
     0
1002
}
  0
LINE
  5
1268
330
1F
100
AcDbEntity
  8
0
100
AcDbLine
 10
-22.0
 20
-8.5
 30
0.0
 11
-25.0
 21
-8.5
 31
0.0
  0
LINE
  5
1269
330
1F
100
AcDbEntity
  8
0
100
AcDbLine
 10
-25.0
 20
8.0
 30
0.0
 11
-25.0
 21
-8.5
 31
0.0
  0
LINE
  5
126A
330
1F
100
AcDbEntity
  8
0
100
AcDbLine
 10
-39.0
 20
-8.00000000000017
 30
0.0
 11
-39.00000000000011
 21
-4.199999999999988
 31
0.0
  0
LINE
  5
126B
330
1F
100
AcDbEntity
  8
0
100
AcDbLine
 10
-40.0
 20
-12.65575390783977
 30
0.0
 11
-40.0
 21
-5.199999999999988
 31
0.0
  0
LINE
  5
126C
330
1F
100
AcDbEntity
  8
0
100
AcDbLine
 10
-39.0
 20
-8.00000000000017
 30
0.0
 11
-40.0
 21
-9.00000000000017
 31
0.0
  0
LINE
  5
126D
330
1F
100
AcDbEntity
  8
0
100
AcDbLine
 10
-25.0
 20
-8.0
 30
0.0
 11
-39.0
 21
-8.00000000000017
 31
0.0
  0
LINE
  5
126E
330
1F
100
AcDbEntity
  8
AM_0
100
AcDbLine
 10
-34.39999999999998
 20
-4.199999999999988
 30
0.0
 11
-39.00000000000011
 21
-4.199999999999988
 31
0.0
  0
LINE
  5
126F
330
1F
100
AcDbEntity
  8
AM_0
100
AcDbLine
 10
-40.00000000000011
 20
-5.199999999999988
 30
0.0
 11
-39.0
 21
-4.199999999999988
 31
0.0
  0
LINE
  5
1270
330
1F
100
AcDbEntity
  8
AM_0
100
AcDbLine
 10
-34.39999999999998
 20
4.199999999999988
 30
0.0
 11
-34.39999999999998
 21
-4.199999999999988
 31
0.0
  0
LINE
  5
1271
330
1F
100
AcDbEntity
  8
0
100
AcDbLine
 10
-22.0
 20
4.5
 30
0.0
 11
-22.0
 21
-8.5
 31
0.0
  0
DIMENSION
  5
1272
330
1F
100
AcDbEntity
  8
AM_5
100
AcDbDimension
  2
*D11
 10
3.136658074076195
 20
4.499999999999995
 30
0.0
 11
3.136658074076194
 21
-1.074483237696199
 31
0.0
 70
   160
  1
φ<>
 71
     5
 42
9.0
  3
AM_JIS$0
100
AcDbAlignedDimension
 13
-12.0
 23
-4.5
 33
0.0
 14
-12.0
 24
4.5
 34
0.0
 50
90.0
100
AcDbRotatedDimension
1001
GENIUS_GENDTOL_13
1000

1000
h7
1000

1040
0.0
1001
ACAD
1000
DSTYLE
1002
{
1070
   271
1070
     0
1002
}
  0
DIMENSION
  5
1273
330
1F
100
AcDbEntity
  8
AM_5
100
AcDbDimension
  2
*D12
 10
11.11967471994967
 20
6.999999999999994
 30
0.0
 11
7.719674719949669
 21
-0.0000000000000029
 31
0.0
 70
    32
  1
φ<>
 71
     5
 42
14.0
  3
AM_JIS$0
100
AcDbAlignedDimension
 13
-8.796479999999974
 23
-7.0
 33
0.0
 14
-8.796479999999974
 24
7.0
 34
0.0
 50
90.0
100
AcDbRotatedDimension
1001
GENIUS_GENDTOL_13
1000

1000
h7
1000

1040
0.0
1001
ACAD
1000
DSTYLE
1002
{
1070
   271
1070
     0
1002
}
  0
LINE
  5
1274
330
1F
100
AcDbEntity
  8
0
100
AcDbLine
 10
-12.0
 20
-4.5
 30
0.0
 11
-22.0
 21
-4.5
 31
0.0
  0
LINE
  5
1275
330
1F
100
AcDbEntity
  8
0
100
AcDbLine
 10
-8.796479999999974
 20
-7.0
 30
0.0
 11
-12.0
 21
-7.0
 31
0.0
  0
LINE
  5
1276
330
1F
100
AcDbEntity
  8
0
100
AcDbLine
 10
-12.0
 20
4.5
 30
0.0
 11
-12.0
 21
-7.0
 31
0.0
  0
LINE
  5
1277
330
1F
100
AcDbEntity
  8
AM_0
100
AcDbLine
 10
-39.0
 20
4.199999999999988
 30
0.0
 11
-34.39999999999998
 21
4.199999999999988
 31
0.0
  0
LINE
  5
1278
330
1F
100
AcDbEntity
  8
AM_0
100
AcDbLine
 10
-40.0
 20
5.199999999999988
 30
0.0
 11
-39.0
 21
4.199999999999988
 31
0.0
  0
LINE
  5
1279
330
1F
100
AcDbEntity
  8
0
100
AcDbLine
 10
-40.0
 20
9.149999999999977
 30
0.0
 11
-40.0
 21
5.199999999999988
 31
0.0
  0
LINE
  5
127A
330
1F
100
AcDbEntity
  8
0
100
AcDbLine
 10
-39.0
 20
8.0
 30
0.0
 11
-39.0
 21
4.199999999999988
 31
0.0
  0
LINE
  5
127B
330
1F
100
AcDbEntity
  8
0
100
AcDbLine
 10
-7.181186999999994
 20
-7.0
 30
0.0
 11
-12.0
 21
-7.0
 31
0.0
  0
ARC
  5
127C
330
1F
100
AcDbEntity
  8
1
100
AcDbCircle
 10
-29.29028700000003
 20
-21.0
 30
0.0
 40
5.0
100
AcDbArc
 50
45.00000810284751
 51
90.0
  0
LINE
  5
127D
330
1F
100
AcDbEntity
  8
0
100
AcDbLine
 10
-39.10000000000008
 20
-16.0
 30
0.0
 11
-29.29028700000003
 21
-16.0
 31
0.0
  0
LINE
  5
1282
330
1F
100
AcDbEntity
  8
0
100
AcDbLine
 10
-7.181186999999994
 20
7.0
 30
0.0
 11
-4.948381257053171
 21
9.264807909198111
 31
0.0
  0
LINE
  5
1283
330
1F
100
AcDbEntity
  8
0
100
AcDbLine
 10
-22.99079299999997
 20
19.39999999999997
 30
0.0
 11
-7.949063838044139
 21
19.39999999999997
 31
0.0
  0
LINE
  5
1285
330
1F
100
AcDbEntity
  8
0
100
AcDbLine
 10
-22.99079299999997
 20
-19.39999999999997
 30
0.0
 11
-5.939136999999959
 21
-19.39999999999997
 31
0.0
  0
ARC
  5
1286
330
1F
100
AcDbEntity
  8
1
100
AcDbCircle
 10
-22.99079299999997
 20
-17.39999999999997
 30
0.0
 40
2.0
100
AcDbArc
 50
225.0000202571194
 51
270.0
  0
LINE
  5
1287
330
1F
100
AcDbEntity
  8
0
100
AcDbLine
 10
-7.181186999999994
 20
-7.0
 30
0.0
 11
-0.7000000000000455
 21
-13.57407999999998
 31
0.0
  0
LINE
  5
1288
330
1F
100
AcDbEntity
  8
0
100
AcDbLine
 10
-4.89848500000005
 20
-18.59753699999999
 30
0.0
 11
-3.247327000000041
 21
-18.59753699999999
 31
0.0
  0
ARC
  5
1289
330
1F
100
AcDbEntity
  8
1
100
AcDbCircle
 10
-5.939136999999959
 20
-18.39999999999998
 30
0.0
 40
0.9999996503124391
100
AcDbArc
 50
270.0
 51
329.9999884324233
  0
LINE
  5
128A
330
1F
100
AcDbEntity
  8
0
100
AcDbLine
 10
-4.89848500000005
 20
-18.59753699999999
 30
0.0
 11
-5.073112000000037
 21
-18.89999999999998
 31
0.0
  0
LINE
  5
128B
330
1F
100
AcDbEntity
  8
0
100
AcDbLine
 10
-3.247327000000041
 20
-18.59753699999999
 30
0.0
 11
-0.7000000000000455
 21
-15.81925899999999
 31
0.0
  0
LINE
  5
128C
330
1F
100
AcDbEntity
  8
0
100
AcDbLine
 10
-25.75475399999999
 20
-17.46446600000001
 30
0.0
 11
-24.40458647892589
 21
-18.81463352107408
 31
0.0
  0
ARC
  5
128D
330
1F
100
AcDbEntity
  8
1
100
AcDbCircle
 10
-22.99079299999997
 20
17.39999999999997
 30
0.0
 40
2.0
100
AcDbArc
 50
90.0
 51
134.9999797428806
  0
LINE
  5
128E
330
1F
100
AcDbEntity
  8
0
100
AcDbLine
 10
-40.0
 20
-14.99999999999997
 30
0.0
 11
-40.0
 21
-9.149999999999948
 31
0.0
  0
ARC
  5
128F
330
1F
100
AcDbEntity
  8
1
100
AcDbCircle
 10
-39.0
 20
-14.99999999999997
 30
0.0
 40
1.0
100
AcDbArc
 50
180.0
 51
270.0
  0
LINE
  5
1290
330
1F
100
AcDbEntity
  8
0
100
AcDbLine
 10
-0.7000000000000455
 20
-15.81925899999999
 30
0.0
 11
-0.7000000000000455
 21
-13.57407999999998
 31
0.0
  0
LINE
  5
138C
330
1F
100
AcDbEntity
  8
AM_0
100
AcDbLine
 10
-11.34906383804412
 20
16.0
 30
0.0
 11
-11.34906383804412
 21
13.87867965644034
 31
0.0
  0
LINE
  5
138D
330
1F
100
AcDbEntity
  8
AM_0
100
AcDbLine
 10
-11.34906383804412
 20
13.87867965644034
 30
0.0
 11
-6.735192090801888
 21
9.264807909198111
 31
0.0
  0
LINE
  5
138E
330
1F
100
AcDbEntity
  8
AM_0
100
AcDbLine
 10
-4.613871747242228
 20
9.264807909198111
 30
0.0
 11
0.0
 21
13.87867965644034
 31
0.0
  0
LINE
  5
138F
102
{ACAD_REACTORS
330
139B
102
}
330
1F
100
AcDbEntity
  8
AM_0
100
AcDbLine
 10
0.0
 20
13.87867965644034
 30
0.0
 11
0.0
 21
16.0
 31
0.0
  0
LINE
  5
1390
102
{ACAD_REACTORS
330
1395
330
1398
330
139B
102
}
330
1F
100
AcDbEntity
  8
AM_0
100
AcDbLine
 10
0.0
 20
16.0
 30
0.0
 11
-4.613871747242228
 21
20.61387174724223
 31
0.0
  0
LINE
  5
1391
330
1F
100
AcDbEntity
  8
AM_0
100
AcDbLine
 10
-4.613871747242228
 20
20.61387174724223
 30
0.0
 11
-6.735192090801888
 21
20.61387174724223
 31
0.0
  0
LINE
  5
1392
330
1F
100
AcDbEntity
  8
AM_0
100
AcDbLine
 10
-6.735192090801888
 20
20.61387174724223
 30
0.0
 11
-11.34906383804412
 21
16.0
 31
0.0
  0
DIMENSION
  5
1393
102
{ACAD_XDICTIONARY
360
1394
102
}
102
{ACAD_REACTORS
330
1395
102
}
330
1F
100
AcDbEntity
  8
AM_5
100
AcDbDimension
  2
*D13
 10
19.81643615933348
 20
15.99999999999999
 30
0.0
 11
19.81643615933348
 21
0.5177595029700513
 31
0.0
 70
   160
  1
%%c<>
 71
     5
 42
32.0
  3
AM_JIS$0
100
AcDbAlignedDimension
 13
-5.437693420017239
 23
0.0
 33
0.0
 14
0.0
 24
16.0
 34
0.0
 50
90.0
100
AcDbRotatedDimension
1001
ACAD
1000
DSTYLE
1002
{
1070
    75
1070
     1
1070
   144
1040
2.0
1070
   173
1070
     1
1070
   179
1070
     0
1070
   271
1070
     0
1070
   343
1005
3DC
1002
}
  0
DIMENSION
  5
1396
102
{ACAD_XDICTIONARY
360
1397
102
}
102
{ACAD_REACTORS
330
1398
102
}
330
1F
100
AcDbEntity
  8
AM_5
100
AcDbDimension
  2
*D14
 10
0.0000000000000014
 20
39.08076978646704
 30
0.0
 11
-25.48718389158444
 21
39.08076978646704
 31
0.0
 70
   160
 71
     5
 42
40.0
  3
AM_JIS$0
100
AcDbAlignedDimension
 13
-40.0
 23
15.0
 33
0.0
 14
0.0
 24
16.0
 34
0.0
100
AcDbRotatedDimension
1001
ACAD
1000
DSTYLE
1002
{
1070
   179
1070
     0
1070
   271
1070
     0
1002
}
  0
DIMENSION
  5
1399
102
{ACAD_XDICTIONARY
360
139A
102
}
102
{ACAD_REACTORS
330
139B
102
}
330
1F
100
AcDbEntity
  8
AM_5
100
AcDbDimension
  2
*D15
 10
-4.613871747242228
 20
20.61387174724223
 30
0.0
 11
-5.32222770538803
 21
26.83068246979239
 31
0.0
 70
   162
 71
     5
 42
0.7853981633974483
  3
AM_JIS$2
100
AcDb2LineAngularDimension
 13
0.0
 23
13.87867965644034
 33
0.0
 14
0.0
 24
16.0
 34
0.0
 15
0.0
 25
16.0
 35
0.0
 16
-3.165254050055509
 26
27.81288893367033
 36
0.0
1001
ACAD_DIMASSOC_DIMLFAC
1040
1.0
1001
ACAD_DIMASSOC_CALC_DIMLFAC
1040
1.0
1001
ACAD_DIMASSOC_OVERRIDDEN_DIMLFAC
1040
1.0
1001
ACAD
1000
DSTYLE
1002
{
1070
   144
1040
1.0
1070
   179
1070
     0
1070
   271
1070
     0
1070
   279
1070
     1
1002
}
  0
LINE
  5
13CB
330
1F
100
AcDbEntity
  8
AM_0
100
AcDbLine
 10
-6.735192090801888
 20
9.264807909198111
 30
0.0
 11
-4.613871747242228
 21
9.264807909198111
 31
0.0
  0
TEXT
  5
13EC
330
1F
100
AcDbEntity
  8
AM_0
100
AcDbText
 10
-31.90250126973314
 20
-58.5180801044726
 30
0.0
 40
3.799999999999999
  1
%%uWGC3032RS
  7
ACISOTS
100
AcDbText
  0
ENDSEC
  0
SECTION
  2
OBJECTS
  0
DICTIONARY
  5
C
330
0
100
AcDbDictionary
281
     1
  3
ACAD_COLOR
350
BE
  3
ACAD_GROUP
350
D
  3
ACAD_LAYOUT
350
1A
  3
ACAD_MATERIAL
350
BD
  3
ACAD_MLINESTYLE
350
17
  3
ACAD_PLOTSETTINGS
350
19
  3
ACAD_PLOTSTYLENAME
350
E
  3
ACAD_TABLESTYLE
350
11A
  3
ACDBHEADERROUNDTRIPXREC
350
147D
  3
AcDbVariableDictionary
350
94
  3
AcmDictionary
350
5B
  3
AMG
350
41
  3
AMGSNAPSETTINGS
350
1B8
  3
DWGPROPS
350
147C
  0
DICTIONARY
  5
34B
330
2
100
AcDbDictionary
280
     1
281
     1
  3
AMLAYER_GROUPCOLORS
360
34C
  0
DICTIONARY
  5
8F
330
1F
100
AcDbDictionary
280
     1
281
     1
  0
DICTIONARY
  5
1394
330
1393
100
AcDbDictionary
280
     1
281
     1
  3
ACAD_DIMASSOC
360
1395
  0
DICTIONARY
  5
1397
330
1396
100
AcDbDictionary
280
     1
281
     1
  3
ACAD_DIMASSOC
360
1398
  0
DICTIONARY
  5
139A
330
1399
100
AcDbDictionary
280
     1
281
     1
  3
ACAD_DIMASSOC
360
139B
  0
DICTIONARY
  5
BE
102
{ACAD_REACTORS
330
C
102
}
330
C
100
AcDbDictionary
281
     1
  0
DICTIONARY
  5
D
102
{ACAD_REACTORS
330
C
102
}
330
C
100
AcDbDictionary
281
     1
  0
DICTIONARY
  5
1A
102
{ACAD_REACTORS
330
C
102
}
330
C
100
AcDbDictionary
281
     1
  3
Model
350
22
  3
レイアウト1
350
1E
  3
レイアウト2
350
26
  0
DICTIONARY
  5
BD
102
{ACAD_REACTORS
330
C
102
}
330
C
100
AcDbDictionary
281
     1
  0
DICTIONARY
  5
17
102
{ACAD_REACTORS
330
C
102
}
330
C
100
AcDbDictionary
281
     1
  3
Standard
350
18
  0
DICTIONARY
  5
19
102
{ACAD_REACTORS
330
C
102
}
330
C
100
AcDbDictionary
281
     1
  0
ACDBDICTIONARYWDFLT
  5
E
102
{ACAD_REACTORS
330
C
102
}
330
C
100
AcDbDictionary
281
     1
  3
Normal
350
F
100
AcDbDictionaryWithDefault
340
F
  0
DICTIONARY
  5
11A
102
{ACAD_REACTORS
330
C
102
}
330
C
100
AcDbDictionary
281
     1
  3
Standard
350
11B
  0
DICTIONARY
  5
147D
102
{ACAD_REACTORS
330
C
102
}
330
C
100
AcDbDictionary
281
     1
  0
DICTIONARY
  5
94
102
{ACAD_REACTORS
330
C
102
}
330
C
100
AcDbDictionary
281
     1
  3
CTABLESTYLE
350
138
  3
DIMASSOC
350
96
  3
INDEXCTL
350
95
  3
PROJECTNAME
350
147A
  0
DICTIONARY
  5
5B
102
{ACAD_REACTORS
330
C
102
}
330
C
100
AcDbDictionary
281
     1
  3
AcmBOM
350
1B5
  3
AcmStdDictionary
350
61
  3
AMDTSECTSYM_ARROWCOLOR
350
123
  0
DICTIONARY
  5
41
102
{ACAD_REACTORS
330
C
102
}
330
C
100
AcDbDictionary
281
     1
  0
DICTIONARY
  5
1B8
102
{ACAD_REACTORS
330
C
102
}
330
C
100
AcDbDictionary
281
     1
  0
XRECORD
  5
147C
102
{ACAD_REACTORS
330
C
102
}
330
C
100
AcDbXrecord
280
     1
  1
DWGPROPS COOKIE
  2

  3

  4

  6

  7

  8

  9

300
AmdtFileType=84
301
=
302
=
303
=
304
=
305
=
306
=
307
=
308
=
309
=
 40
0.0099028703703704
 41
2455544.365957755
 42
2455555.405317373
  1

 90
        1
  0
DICTIONARY
  5
34C
102
{ACAD_REACTORS
330
34B
102
}
330
34B
100
AcDbDictionary
280
     1
281
     1
  0
DIMASSOC
  5
1395
102
{ACAD_REACTORS
330
1394
102
}
330
1394
100
AcDbDimAssoc
330
1393
 90
        2
 70
     0
 71
     0
  1
AcDbOsnapPointRef
 72
    13
331
1390
 73
     0
 91
        0
 40
0.0
 10
0.0
 20
0.0
 30
2.000000000000000E+50
 75
     0
  0
DIMASSOC
  5
1398
102
{ACAD_REACTORS
330
1397
102
}
330
1397
100
AcDbDimAssoc
330
1396
 90
        2
 70
     0
 71
     0
  1
AcDbOsnapPointRef
 72
    13
331
1390
 73
     0
 91
        0
 40
0.0
 10
0.0
 20
0.0
 30
2.000000000000000E+50
 75
     0
  0
DIMASSOC
  5
139B
102
{ACAD_REACTORS
330
139A
102
}
330
139A
100
AcDbDimAssoc
330
1399
 90
       15
 70
     1
 71
     0
  1
AcDbOsnapPointRef
 72
    13
331
138F
 73
     2
 91
        0
 40
0.0
 10
0.0
 20
0.0
 30
2.000000000000000E+50
 75
     0
  1
AcDbOsnapPointRef
 72
     1
331
138F
 73
     2
 91
        0
 40
0.0
 10
0.0
 20
0.0
 30
2.000000000000000E+50
 75
     0
  1
AcDbOsnapPointRef
 72
    13
331
1390
 73
     2
 91
        0
 40
0.0
 10
0.0
 20
0.0
 30
2.000000000000000E+50
 75
     0
  1
AcDbOsnapPointRef
 72
     1
331
1390
 73
     2
 91
        0
 40
0.0
 10
0.0
 20
0.0
 30
2.000000000000000E+50
 75
     0
  0
LAYOUT
  5
22
102
{ACAD_XDICTIONARY
360
1480
102
}
102
{ACAD_REACTORS
330
1A
102
}
330
1A
100
AcDbPlotSettings
  1

  2
SII LP-2150 (D-SCAN C2)
  4
User119
  6

 40
3.174999952316284
 41
3.174999952316284
 42
3.175003051757812
 43
3.17498779296875
 44
210.0579986572266
 45
296.9259948730469
 46
0.0
 47
0.0
 48
0.0
 49
0.0
140
0.0
141
0.0
142
1.0
143
1.580715189147934
 70
 11952
 72
     1
 73
     1
 74
     0
  7
sei_cad.ctb
 75
     0
147
0.6326250338234799
148
19.65895403440572
149
1.143774069319647
100
AcDbLayout
  1
Model
 70
     1
 71
     0
 10
0.0
 20
0.0
 11
12.0
 21
9.0
 12
0.0
 22
0.0
 32
0.0
 14
0.0
 24
0.0
 34
0.0
 15
0.0
 25
0.0
 35
0.0
146
0.0
 13
0.0
 23
0.0
 33
0.0
 16
1.0
 26
0.0
 36
0.0
 17
0.0
 27
1.0
 37
0.0
 76
     0
330
1F
1001
ACAD_PSEXT
1000
SII LP-2150 (D-SCAN C2)
1000
SII LP-2150 (D-SCAN C2)
1000
133.153.16.130#3000
1000

1070
     0
  0
LAYOUT
  5
1E
102
{ACAD_XDICTIONARY
360
147E
102
}
102
{ACAD_REACTORS
330
1A
102
}
330
1A
100
AcDbPlotSettings
  1

  2

  4

  6

 40
0.0
 41
0.0
 42
0.0
 43
0.0
 44
0.0
 45
0.0
 46
0.0
 47
0.0
 48
0.0
 49
0.0
140
0.0
141
0.0
142
1.0
143
1.0
 70
   688
 72
     0
 73
     0
 74
     5
  7
sei_cad.ctb
 75
    16
147
1.0
148
0.0
149
0.0
100
AcDbLayout
  1
レイアウト1
 70
     1
 71
     1
 10
0.0
 20
0.0
 11
420.0
 21
297.0
 12
0.0
 22
0.0
 32
0.0
 14
1.000000000000000E+20
 24
1.000000000000000E+20
 34
1.000000000000000E+20
 15
-1.000000000000000E+20
 25
-1.000000000000000E+20
 35
-1.000000000000000E+20
146
0.0
 13
0.0
 23
0.0
 33
0.0
 16
1.0
 26
0.0
 36
0.0
 17
0.0
 27
1.0
 37
0.0
 76
     0
330
1B
  0
LAYOUT
  5
26
102
{ACAD_XDICTIONARY
360
1482
102
}
102
{ACAD_REACTORS
330
1A
102
}
330
1A
100
AcDbPlotSettings
  1

  2

  4

  6

 40
0.0
 41
0.0
 42
0.0
 43
0.0
 44
0.0
 45
0.0
 46
0.0
 47
0.0
 48
0.0
 49
0.0
140
0.0
141
0.0
142
1.0
143
1.0
 70
   688
 72
     0
 73
     0
 74
     5
  7
sei_cad.ctb
 75
    16
147
1.0
148
0.0
149
0.0
100
AcDbLayout
  1
レイアウト2
 70
     1
 71
     2
 10
0.0
 20
0.0
 11
12.0
 21
9.0
 12
0.0
 22
0.0
 32
0.0
 14
0.0
 24
0.0
 34
0.0
 15
0.0
 25
0.0
 35
0.0
146
0.0
 13
0.0
 23
0.0
 33
0.0
 16
1.0
 26
0.0
 36
0.0
 17
0.0
 27
1.0
 37
0.0
 76
     0
330
23
  0
MLINESTYLE
  5
18
102
{ACAD_REACTORS
330
17
102
}
330
17
100
AcDbMlineStyle
  2
STANDARD
 70
     0
  3

 62
   256
 51
90.0
 52
90.0
 71
     2
 49
0.5
 62
   256
  6
BYLAYER
 49
-0.5
 62
   256
  6
BYLAYER
  0
ACDBPLACEHOLDER
  5
F
102
{ACAD_REACTORS
330
E
102
}
330
E
  0
TABLESTYLE
  5
11B
102
{ACAD_REACTORS
330
11A
102
}
330
11A
100
AcDbTableStyle
  3
Standard
 70
     0
 71
     0
 40
1.5
 41
1.5
280
     0
281
     0
  7
STANDARD
140
4.5
170
     2
 62
     0
 63
     7
283
     0
274
    -2
284
     1
 64
     0
275
    -2
285
     1
 65
     0
276
    -2
286
     1
 66
     0
277
    -2
287
     1
 67
     0
278
    -2
288
     1
 68
     0
279
    -2
289
     1
 69
     0
  7
STANDARD
140
6.0
170
     5
 62
     0
 63
     7
283
     0
274
    -2
284
     1
 64
     0
275
    -2
285
     1
 65
     0
276
    -2
286
     1
 66
     0
277
    -2
287
     1
 67
     0
278
    -2
288
     1
 68
     0
279
    -2
289
     1
 69
     0
  7
STANDARD
140
4.5
170
     5
 62
     0
 63
     7
283
     0
274
    -2
284
     1
 64
     0
275
    -2
285
     1
 65
     0
276
    -2
286
     1
 66
     0
277
    -2
287
     1
 67
     0
278
    -2
288
     1
 68
     0
279
    -2
289
     1
 69
     0
  0
DICTIONARYVAR
  5
138
102
{ACAD_REACTORS
330
94
102
}
330
94
100
DictionaryVariables
280
     0
  1
STANDARD
  0
DICTIONARYVAR
  5
96
102
{ACAD_REACTORS
330
94
102
}
330
94
100
DictionaryVariables
280
     0
  1
2
  0
DICTIONARYVAR
  5
95
102
{ACAD_REACTORS
330
94
102
}
330
94
100
DictionaryVariables
280
     0
  1
0
  0
DICTIONARYVAR
  5
147A
102
{ACAD_REACTORS
330
94
102
}
330
94
100
DictionaryVariables
280
     0
  1

  0
DICTIONARY
  5
1B5
102
{ACAD_REACTORS
330
5B
102
}
330
5B
100
AcDbDictionary
281
     1
  0
DICTIONARY
  5
61
102
{ACAD_REACTORS
330
5B
102
}
330
5B
100
AcDbDictionary
281
     1
  0
XRECORD
  5
123
102
{ACAD_REACTORS
330
5B
102
}
330
5B
100
AcDbXrecord
280
     1
 90
-1023410169
  0
DICTIONARY
  5
1480
330
22
100
AcDbDictionary
280
     1
281
     1
  3
ACAD_XREC_ROUNDTRIP
360
1481
  0
DICTIONARY
  5
147E
330
1E
100
AcDbDictionary
280
     1
281
     1
  3
ACAD_XREC_ROUNDTRIP
360
147F
  0
DICTIONARY
  5
1482
330
26
100
AcDbDictionary
280
     1
281
     1
  3
ACAD_XREC_ROUNDTRIP
360
1483
  0
XRECORD
  5
1481
102
{ACAD_REACTORS
330
1480
102
}
330
1480
100
AcDbXrecord
280
     1
102
SHADEPLOT
 70
     0
102
SHADEPLOTRESLEVEL
 70
     2
102
SHADEPLOTCUSTOMDPI
 70
   300
  0
XRECORD
  5
147F
102
{ACAD_REACTORS
330
147E
102
}
330
147E
100
AcDbXrecord
280
     1
102
SHADEPLOT
 70
     0
102
SHADEPLOTRESLEVEL
 70
     2
102
SHADEPLOTCUSTOMDPI
 70
   300
  0
XRECORD
  5
1483
102
{ACAD_REACTORS
330
1482
102
}
330
1482
100
AcDbXrecord
280
     1
102
SHADEPLOT
 70
     0
102
SHADEPLOTRESLEVEL
 70
     2
102
SHADEPLOTCUSTOMDPI
 70
   300
  0
ENDSEC
  0
EOF
