  0
SECTION
  2
HEADER
  9
$ACADVER
  1
AC1015
  9
$ACADMAINTVER
 70
    20
  9
$DWGCODEPAGE
  3
ANSI_932
  9
$INSBASE
 10
0.0
 20
0.0
 30
0.0
  9
$EXTMIN
 10
-75.61216269821132
 20
-56.33090725140955
 30
0.0
  9
$EXTMAX
 10
226.6660450106912
 20
124.246035629022
 30
0.0
  9
$LIMMIN
 10
0.0
 20
0.0
  9
$LIMMAX
 10
420.0
 20
297.0
  9
$ORTHOMODE
 70
     0
  9
$REGENMODE
 70
     1
  9
$FILLMODE
 70
     1
  9
$QTEXTMODE
 70
     0
  9
$MIRRTEXT
 70
     1
  9
$LTSCALE
 40
1.0
  9
$ATTMODE
 70
     1
  9
$TEXTSIZE
 40
3.799999999999999
  9
$TRACEWID
 40
1.0
  9
$TEXTSTYLE
  7
ACISOTS
  9
$CLAYER
  8
AM_0
  9
$CELTYPE
  6
ByLayer
  9
$CECOLOR
 62
   256
  9
$CELTSCALE
 40
1.0
  9
$DISPSILH
 70
     0
  9
$DIMSCALE
 40
1.0
  9
$DIMASZ
 40
2.5
  9
$DIMEXO
 40
1.0
  9
$DIMDLI
 40
10.0
  9
$DIMRND
 40
0.0
  9
$DIMDLE
 40
0.0
  9
$DIMEXE
 40
1.0
  9
$DIMTP
 40
0.1
  9
$DIMTM
 40
0.1000000001
  9
$DIMTXT
 40
3.799999999999999
  9
$DIMCEN
 40
0.0
  9
$DIMTSZ
 40
0.0
  9
$DIMTOL
 70
     0
  9
$DIMLIM
 70
     0
  9
$DIMTIH
 70
     0
  9
$DIMTOH
 70
     0
  9
$DIMSE1
 70
     0
  9
$DIMSE2
 70
     0
  9
$DIMTAD
 70
     3
  9
$DIMZIN
 70
     8
  9
$DIMBLK
  1
Open30
  9
$DIMASO
 70
     1
  9
$DIMSHO
 70
     1
  9
$DIMPOST
  1

  9
$DIMAPOST
  1
"
  9
$DIMALT
 70
     0
  9
$DIMALTD
 70
     2
  9
$DIMALTF
 40
0.0393701
  9
$DIMLFAC
 40
1.0
  9
$DIMTOFL
 70
     1
  9
$DIMTVP
 40
0.0
  9
$DIMTIX
 70
     0
  9
$DIMSOXD
 70
     0
  9
$DIMSAH
 70
     0
  9
$DIMBLK1
  1

  9
$DIMBLK2
  1

  9
$DIMSTYLE
  2
AM_JIS
  9
$DIMCLRD
 70
   256
  9
$DIMCLRE
 70
   256
  9
$DIMCLRT
 70
     2
  9
$DIMTFAC
 40
0.71
  9
$DIMGAP
 40
1.5
  9
$DIMJUST
 70
     0
  9
$DIMSD1
 70
     0
  9
$DIMSD2
 70
     0
  9
$DIMTOLJ
 70
     0
  9
$DIMTZIN
 70
     8
  9
$DIMALTZ
 70
     0
  9
$DIMALTTZ
 70
     0
  9
$DIMUPT
 70
     0
  9
$DIMDEC
 70
     0
  9
$DIMTDEC
 70
     2
  9
$DIMALTU
 70
     2
  9
$DIMALTTD
 70
     2
  9
$DIMTXSTY
  7
STANDARD
  9
$DIMAUNIT
 70
     1
  9
$DIMADEC
 70
     0
  9
$DIMALTRND
 40
0.0
  9
$DIMAZIN
 70
     2
  9
$DIMDSEP
 70
    46
  9
$DIMATFIT
 70
     3
  9
$DIMFRAC
 70
     0
  9
$DIMLDRBLK
  1
Open30
  9
$DIMLUNIT
 70
     2
  9
$DIMLWD
 70
    -1
  9
$DIMLWE
 70
    -1
  9
$DIMTMOVE
 70
     0
  9
$LUNITS
 70
     2
  9
$LUPREC
 70
     2
  9
$SKETCHINC
 40
1.0
  9
$FILLETRAD
 40
2.5
  9
$AUNITS
 70
     0
  9
$AUPREC
 70
     0
  9
$MENU
  1
.
  9
$ELEVATION
 40
0.0
  9
$PELEVATION
 40
0.0
  9
$THICKNESS
 40
0.0
  9
$LIMCHECK
 70
     0
  9
$CHAMFERA
 40
2.5
  9
$CHAMFERB
 40
2.5
  9
$CHAMFERC
 40
20.0
  9
$CHAMFERD
 40
0.0
  9
$SKPOLY
 70
     0
  9
$TDCREATE
 40
2455544.365957755
  9
$TDUCREATE
 40
2455543.990957754
  9
$TDUPDATE
 40
2455555.409109873
  9
$TDUUPDATE
 40
2455555.034109873
  9
$TDINDWG
 40
0.0131906366
  9
$TDUSRTIMER
 40
0.0131906366
  9
$USRTIMER
 70
     1
  9
$ANGBASE
 50
0.0
  9
$ANGDIR
 70
     0
  9
$PDMODE
 70
     0
  9
$PDSIZE
 40
0.0
  9
$PLINEWID
 40
0.0
  9
$SPLFRAME
 70
     0
  9
$SPLINETYPE
 70
     6
  9
$SPLINESEGS
 70
    40
  9
$HANDSEED
  5
1B09
  9
$SURFTAB1
 70
     6
  9
$SURFTAB2
 70
     6
  9
$SURFTYPE
 70
     6
  9
$SURFU
 70
     6
  9
$SURFV
 70
     6
  9
$UCSBASE
  2

  9
$UCSNAME
  2

  9
$UCSORG
 10
0.0
 20
0.0
 30
0.0
  9
$UCSXDIR
 10
1.0
 20
0.0
 30
0.0
  9
$UCSYDIR
 10
0.0
 20
1.0
 30
0.0
  9
$UCSORTHOREF
  2

  9
$UCSORTHOVIEW
 70
     0
  9
$UCSORGTOP
 10
0.0
 20
0.0
 30
0.0
  9
$UCSORGBOTTOM
 10
0.0
 20
0.0
 30
0.0
  9
$UCSORGLEFT
 10
0.0
 20
0.0
 30
0.0
  9
$UCSORGRIGHT
 10
0.0
 20
0.0
 30
0.0
  9
$UCSORGFRONT
 10
0.0
 20
0.0
 30
0.0
  9
$UCSORGBACK
 10
0.0
 20
0.0
 30
0.0
  9
$PUCSBASE
  2

  9
$PUCSNAME
  2

  9
$PUCSORG
 10
0.0
 20
0.0
 30
0.0
  9
$PUCSXDIR
 10
1.0
 20
0.0
 30
0.0
  9
$PUCSYDIR
 10
0.0
 20
1.0
 30
0.0
  9
$PUCSORTHOREF
  2

  9
$PUCSORTHOVIEW
 70
     0
  9
$PUCSORGTOP
 10
0.0
 20
0.0
 30
0.0
  9
$PUCSORGBOTTOM
 10
0.0
 20
0.0
 30
0.0
  9
$PUCSORGLEFT
 10
0.0
 20
0.0
 30
0.0
  9
$PUCSORGRIGHT
 10
0.0
 20
0.0
 30
0.0
  9
$PUCSORGFRONT
 10
0.0
 20
0.0
 30
0.0
  9
$PUCSORGBACK
 10
0.0
 20
0.0
 30
0.0
  9
$USERI1
 70
     0
  9
$USERI2
 70
     0
  9
$USERI3
 70
     0
  9
$USERI4
 70
     0
  9
$USERI5
 70
     0
  9
$USERR1
 40
0.0
  9
$USERR2
 40
0.0
  9
$USERR3
 40
0.0
  9
$USERR4
 40
0.0
  9
$USERR5
 40
0.0
  9
$WORLDVIEW
 70
     1
  9
$SHADEDGE
 70
     3
  9
$SHADEDIF
 70
    70
  9
$TILEMODE
 70
     1
  9
$MAXACTVP
 70
    64
  9
$PINSBASE
 10
0.0
 20
0.0
 30
0.0
  9
$PLIMCHECK
 70
     0
  9
$PEXTMIN
 10
1.000000000000000E+20
 20
1.000000000000000E+20
 30
1.000000000000000E+20
  9
$PEXTMAX
 10
-1.000000000000000E+20
 20
-1.000000000000000E+20
 30
-1.000000000000000E+20
  9
$PLIMMIN
 10
0.0
 20
0.0
  9
$PLIMMAX
 10
420.0
 20
297.0
  9
$UNITMODE
 70
     0
  9
$VISRETAIN
 70
     1
  9
$PLINEGEN
 70
     0
  9
$PSLTSCALE
 70
     1
  9
$TREEDEPTH
 70
  3020
  9
$CMLSTYLE
  2
Standard
  9
$CMLJUST
 70
     0
  9
$CMLSCALE
 40
20.0
  9
$PROXYGRAPHICS
 70
     1
  9
$MEASUREMENT
 70
     1
  9
$CELWEIGHT
370
    -1
  9
$ENDCAPS
280
     0
  9
$JOINSTYLE
280
     0
  9
$LWDISPLAY
290
     0
  9
$INSUNITS
 70
     4
  9
$HYPERLINKBASE
  1

  9
$STYLESHEET
  1

  9
$XEDIT
290
     1
  9
$CEPSNTYPE
380
     0
  9
$PSTYLEMODE
290
     1
  9
$FINGERPRINTGUID
  2
{BC041043-1805-4E51-B1F2-C8CAD53C0341}
  9
$VERSIONGUID
  2
{2E92A7B9-9207-4218-9312-C1538CB935A1}
  9
$EXTNAMES
290
     1
  9
$PSVPSCALE
 40
0.0
  9
$OLESTARTUP
290
     0
  0
ENDSEC
  0
SECTION
  2
CLASSES
  0
CLASS
  1
ACDBDICTIONARYWDFLT
  2
AcDbDictionaryWithDefault
  3
ObjectDBX Classes
 90
        0
280
     0
281
     0
  0
CLASS
  1
ACDBPLACEHOLDER
  2
AcDbPlaceHolder
  3
ObjectDBX Classes
 90
        0
280
     0
281
     0
  0
CLASS
  1
LAYOUT
  2
AcDbLayout
  3
ObjectDBX Classes
 90
        0
280
     0
281
     0
  0
CLASS
  1
ACME_DOCUMENT
  2
AcMeDbDoc
  3
AcMeServices
 90
        0
280
     0
281
     0
  0
CLASS
  1
AMGSETTINGSOBJ
  2
AmgSettingsObj
  3
"AcadM|Product Description: AutoCAD Mechanical 2000|Company: Autodesk"
 90
        0
280
     0
281
     0
  0
CLASS
  1
ACMESCOPE
  2
AcMeScope
  3
AcMeServices
 90
        0
280
     0
281
     0
  0
CLASS
  1
ACMECOMMANDHISTORY
  2
AcMeCommandHistory
  3
AcMeServices
 90
        0
280
     0
281
     0
  0
CLASS
  1
ACIMSYSVARMAN
  2
AcImSysVarManager
  3
AcMeServices
 90
        0
280
     0
281
     0
  0
CLASS
  1
ACIMREALSYSVAR
  2
AcImRealSysVar
  3
AcMeServices
 90
        0
280
     0
281
     0
  0
CLASS
  1
ACIMINTSYSVAR
  2
AcImIntSysVar
  3
AcMeServices
 90
        0
280
     0
281
     0
  0
CLASS
  1
ACMEDRAWINGMAN
  2
AcMeDrawingMan
  3
AcMeServices
 90
        0
280
     0
281
     0
  0
CLASS
  1
ACMEVIEW
  2
AcMeView
  3
AcMeServices
 90
        0
280
     0
281
     0
  0
CLASS
  1
ACDBENTITYCACHE
  2
AcMeEntityCache
  3
AcMeServices
 90
        0
280
     0
281
     0
  0
CLASS
  1
GSMANAGER
  2
AcMeGSManager
  3
AcMeServices
 90
        0
280
     0
281
     0
  0
CLASS
  1
AMDTINTERNALREACTOR
  2
AmdtInternalReactor
  3
AcMeServices
 90
        0
280
     0
281
     0
  0
CLASS
  1
ACMESTATEMGR
  2
AcMeStateMgr
  3
AcMeServices
 90
        0
280
     0
281
     0
  0
CLASS
  1
ACGREFMASTER
  2
AcGrefMaster
  3
AcAttribServices
 90
        0
280
     0
281
     0
  0
CLASS
  1
ACME_DATABASE
  2
AcMeDbDatabase
  3
AcMeServices
 90
        0
280
     0
281
     0
  0
CLASS
  1
ACRFINSADJUSTERMGR
  2
AcRfInsAdjusterMgr
  3
AcMeServices
 90
        0
280
     0
281
     0
  0
CLASS
  1
ACGREFACADMASTER
  2
AcGrefacadMaster
  3
AcGrefServices
 90
        0
280
     0
281
     0
  0
CLASS
  1
AMIMASTER
  2
AmiMaster
  3
AmiServices
 90
        0
280
     0
281
     0
  0
CLASS
  1
ACMDATADICTIONARY
  2
AcmDataDictionary
  3
"AcmSymBB|Product Description: AutoCAD Mechanical 2004 DX|Company: Autodesk"
 90
        0
280
     0
281
     0
  0
CLASS
  1
ACMDATAENTRYBLOCK
  2
AcmDataEntryBlock
  3
"AcmSymBB|Product Description: AutoCAD Mechanical 2004 DX|Company: Autodesk"
 90
        0
280
     0
281
     0
  0
CLASS
  1
ACIMSTRSYSVAR
  2
AcImStrSysVar
  3
AcMeServices
 90
        0
280
     0
281
     0
  0
CLASS
  1
ACMSTANDARDISO
  2
AcmStandardISO
  3
"Amdt_StdImp|Product Description: AutoCAD Mechanical 2004 DX|Company: Autodesk"
 90
        0
280
     0
281
     0
  0
CLASS
  1
AMGOBJPROPCFG
  2
AmgObjPropCfg
  3
"AmgLay|Product Description: AutoCAD Mechanical 2000|Company: Autodesk"
 90
        1
280
     0
281
     0
  0
CLASS
  1
AMDTEDGESTANDARDISO
  2
AmdtEdgeStdISO
  3
"Amdt_StdImp|Product Description: AutoCAD Mechanical 2004 DX|Company: Autodesk"
 90
        0
280
     0
281
     0
  0
CLASS
  1
ACMSURFSTANDARDISO
  2
AcmSurfTextStdISO
  3
"Amdt_StdImp|Product Description: AutoCAD Mechanical 2004 DX|Company: Autodesk"
 90
        0
280
     0
281
     0
  0
CLASS
  1
ACMFCFSTANDARDISO
  2
AcmFCFStdISO
  3
"Amdt_StdImp|Product Description: AutoCAD Mechanical 2004 DX|Company: Autodesk"
 90
        0
280
     0
281
     0
  0
CLASS
  1
ACMWELDSTANDARDISO
  2
AcmWeldingStdISO
  3
"Amdt_StdImp|Product Description: AutoCAD Mechanical 2004 DX|Company: Autodesk"
 90
        0
280
     0
281
     0
  0
CLASS
  1
ACMIDSTANDARDISO
  2
AcmIdStdISO
  3
"Amdt_StdImp|Product Description: AutoCAD Mechanical 2004 DX|Company: Autodesk"
 90
        0
280
     0
281
     0
  0
CLASS
  1
ACMDATUMSTANDARDISO
  2
AcmDatumStdISO
  3
"Amdt_StdImp|Product Description: AutoCAD Mechanical 2004 DX|Company: Autodesk"
 90
        0
280
     0
281
     0
  0
CLASS
  1
ACMBOMSTANDARDISO
  2
AcmBOMStdISO
  3
"Amdt_StdImp|Product Description: AutoCAD Mechanical 2004 DX|Company: Autodesk"
 90
        0
280
     0
281
     0
  0
CLASS
  1
ACMDETAILSTANDARDISO
  2
AmdtDetailSymStdISO
  3
"Amdt_StdImp|Product Description: AutoCAD Mechanical 2004 DX|Company: Autodesk"
 90
        0
280
     0
281
     0
  0
CLASS
  1
ACMSECTIONSTANDARDISO
  2
AmdtSectionSymStdISO
  3
"Amdt_StdImp|Product Description: AutoCAD Mechanical 2004 DX|Company: Autodesk"
 90
        0
280
     0
281
     0
  0
CLASS
  1
ACMCENTERLINESTANDARDISO
  2
AmdtCenterLineStdISO
  3
"Amdt_StdImp|Product Description: AutoCAD Mechanical 2004 DX|Company: Autodesk"
 90
        0
280
     0
281
     0
  0
CLASS
  1
ACMNOTESTANDARDISO
  2
AmdtNoteStdISO
  3
"Amdt_StdImp|Product Description: AutoCAD Mechanical 2004 DX|Company: Autodesk"
 90
        0
280
     0
281
     0
  0
CLASS
  1
ACAMGLAYSTD
  2
AcAmgLayStd
  3
"AcAmgLayStd|Product Description: AutoCAD Mechanical 2000|Company: Autodesk"
 90
        0
280
     0
281
     0
  0
CLASS
  1
ACAMGDIMSTD
  2
AcAmgDimStd
  3
"AcAmgDimStd|Product Description: AutoCAD Mechanical 2000|Company: Autodesk"
 90
        0
280
     0
281
     0
  0
CLASS
  1
ACAMGHOLECHARTSTDISO
  2
AcAmgHoleChartStdISO
  3
ACMSYMBB_MODULE_NAME
 90
        0
280
     0
281
     0
  0
CLASS
  1
ACAMGTITLESTD
  2
AcAmgTitleStd
  3
"TITLEAPP"
 90
        0
280
     0
281
     0
  0
CLASS
  1
LAYER_INDEX
  2
AcDbLayerIndex
  3
ObjectDBX Classes
 90
    32768
280
     0
281
     0
  0
CLASS
  1
IDBUFFER
  2
AcDbIdBuffer
  3
ObjectDBX Classes
 90
    32768
280
     0
281
     0
  0
CLASS
  1
DICTIONARYVAR
  2
AcDbDictionaryVar
  3
ObjectDBX Classes
 90
        0
280
     0
281
     0
  0
CLASS
  1
AM_DRAWING_MGR
  2
AcDmDwgMgr
  3
AcMechDwgViewMgmt
 90
        0
280
     0
281
     0
  0
CLASS
  1
AM_DWG_DOCUMENT
  2
AcDmDwgDocument
  3
AcMechDwgViewMgmt
 90
        0
280
     0
281
     0
  0
CLASS
  1
AM_DWG_SHEET
  2
AcDmSheet
  3
AcMechDwgViewMgmt
 90
        0
280
     0
281
     0
  0
CLASS
  1
AM_VIEWDIMPARMAP
  2
AcDmViewDimParMap
  3
AcMechDwgViewMgmt
 90
        0
280
     0
281
     0
  0
CLASS
  1
AM_DWGMGR_NAME
  2
AcDmDwgMgrName
  3
AcMechDwgViewMgmt
 90
        0
280
     0
281
     0
  0
CLASS
  1
AMDTMENUSTATEMGR
  2
AmdtMenuStateMgr
  3
McadcomServices
 90
        0
280
     0
281
     0
  0
CLASS
  1
AMDTMCOMMENUSTATE
  2
AmdtMcomMenuState
  3
McadcomServices
 90
        0
280
     0
281
     0
  0
CLASS
  1
MAPIAMMOUDLE
  2
MApiAmModule
  3
MApiAmServices
 90
        0
280
     0
281
     0
  0
CLASS
  1
AMDTADMENUSTATE
  2
AmdtAdMenuState
  3
DesignerServices
 90
        0
280
     0
281
     0
  0
CLASS
  1
ADAPPL
  2
AcAdAppl
  3
DesignerServices
 90
        0
280
     0
281
     0
  0
CLASS
  1
DEPMGR
  2
AcAdDepMgr
  3
DesignerServices
 90
        0
280
     0
281
     0
  0
CLASS
  1
PARAMMGR
  2
AcAdParamMgr
  3
DesignerServices
 90
        0
280
     0
281
     0
  0
CLASS
  1
PARAMSCOPE
  2
AcAdParamScope
  3
DesignerServices
 90
        0
280
     0
281
     0
  0
CLASS
  1
NAMEDAPPL
  2
AcAdNamedAppl
  3
DesignerServices
 90
        0
280
     0
281
     0
  0
CLASS
  1
AMDTDMMENUSTATE
  2
AmdtDmMenuState
  3
AcMechDwgViewMgmt
 90
        0
280
     0
281
     0
  0
CLASS
  1
AMDTAMMENUSTATE
  2
AmdtAmMenuState
  3
DesignerAssemblies
 90
        0
280
     0
281
     0
  0
CLASS
  1
ACAMPROJECT
  2
AcAmProject
  3
DesignerAssemblies
 90
        0
280
     0
281
     0
  0
CLASS
  1
ACAMGRCOMPDEF
  2
AcAmGrCompDef
  3
DesignerAssemblies
 90
        0
280
     0
281
     0
  0
CLASS
  1
ACCMCONTEXT
  2
AcCmContext
  3
DesignerAssemblies
 90
        0
280
     0
281
     0
  0
CLASS
  1
ACAMCOMPDEF
  2
AcAmCompDef
  3
DesignerAssemblies
 90
        0
280
     0
281
     0
  0
CLASS
  1
ACAMCOMPDEFMGR
  2
AcAmCompDefMgr
  3
DesignerAssemblies
 90
        0
280
     0
281
     0
  0
CLASS
  1
AMCONTEXTMGR
  2
AcAmContextMgr
  3
DesignerAssemblies
 90
        0
280
     0
281
     0
  0
CLASS
  1
ACAMCONTEXTMODELER
  2
AcAmContextModeler
  3
DesignerAssemblies
 90
        0
280
     0
281
     0
  0
CLASS
  1
ACMTHREADLINESTANDARDISO
  2
AmdtThreadLineStdISO
  3
"Amdt_StdImp|Product Description: AutoCAD Mechanical 2004 DX|Company: Autodesk"
 90
        0
280
     0
281
     0
  0
CLASS
  1
CATALOGSTATE
  2
AcAmCatalogState
  3
DesignerAssemblies
 90
        0
280
     0
281
     0
  0
CLASS
  1
ACAMGRCOMPDEFSET
  2
AcAmGrCompDefSet
  3
DesignerAssemblies
 90
        0
280
     0
281
     0
  0
CLASS
  1
AMDTBROWSERDBTAB
  2
AmdtBrowserDbTab
  3
McadcomServices
 90
        0
280
     0
281
     0
  0
CLASS
  1
CBROWSERAPPOBJECT
  2
CBrowserAppObject
  3
McadcomServices
 90
        0
280
     0
281
     0
  0
CLASS
  1
DM_PLACEHOLDER
  2
AcDmSelsetPlaceholder
  3
AcMechDwgViewMgmt
 90
        0
280
     0
281
     0
  0
CLASS
  1
TABLESTYLE
  2
AcDbTableStyle
  3
ObjectDBX Classes
 90
     2047
280
     0
281
     0
  0
CLASS
  1
VAACXREFPANELOBJECT
  2
VaAcXREFPanelObject
  3
VAAC_ADDIN
 90
    32768
280
     0
281
     0
  0
CLASS
  1
VAACIMAGEINVENTORY
  2
VaAcImageInventory
  3
VAAC_ADDIN
 90
    32768
280
     0
281
     0
  0
CLASS
  1
AMDTNOTETEMPLATEDB
  2
AmdtNoteTemplateDB
  3
AMDT_STDIMP_MODULE_NAME
 90
        0
280
     0
281
     0
  0
CLASS
  1
ACMBOM
  2
AcmBom
  3
"AcmSymBB|Product Description: AutoCAD Mechanical 2004 DX|Company: Autodesk"
 90
    32768
280
     0
281
     0
  0
CLASS
  1
AMDTFORMULAUPDATEDISPATCHER
  2
AmdtFormulaUpdateDispatcher
  3
AcMeServices
 90
    32768
280
     0
281
     0
  0
CLASS
  1
ACMPARTLIST
  2
AcmPartList
  3
"AcmSymBB|Product Description: AutoCAD Mechanical 2004 DX|Company: Autodesk"
 90
    33791
280
     0
281
     1
  0
CLASS
  1
ACAMGFILTERDAT
  2
AcAmgFilterDat
  3
"AcadM|Product Description: AutoCAD Mechanical 2000|Company: Autodesk"
 90
        0
280
     0
281
     0
  0
CLASS
  1
ACMSTANDARDJIS
  2
AcmStandardJIS
  3
"Amdt_StdImp|Product Description: AutoCAD Mechanical 2004 DX|Company: Autodesk"
 90
        0
280
     0
281
     0
  0
CLASS
  1
ACMSURFSTANDARDJIS
  2
AcmSurfTextStdJIS
  3
"Amdt_StdImp|Product Description: AutoCAD Mechanical 2004 DX|Company: Autodesk"
 90
        0
280
     0
281
     0
  0
CLASS
  1
ACMFCFSTANDARDJIS98
  2
AcmFCFStdJIS98
  3
"Amdt_StdImp|Product Description: AutoCAD Mechanical 2004 DX|Company: Autodesk"
 90
        0
280
     0
281
     0
  0
CLASS
  1
ACMWELDSTANDARDJIS
  2
AcmWeldingStdJIS
  3
"Amdt_StdImp|Product Description: AutoCAD Mechanical 2004 DX|Company: Autodesk"
 90
        0
280
     0
281
     0
  0
CLASS
  1
ACMIDSTANDARDJIS
  2
AcmIdStdJIS
  3
"Amdt_StdImp|Product Description: AutoCAD Mechanical 2004 DX|Company: Autodesk"
 90
        0
280
     0
281
     0
  0
CLASS
  1
ACMDATUMSTANDARDJIS
  2
AcmDatumStdJIS
  3
"Amdt_StdImp|Product Description: AutoCAD Mechanical 2004 DX|Company: Autodesk"
 90
        0
280
     0
281
     0
  0
CLASS
  1
ACMBOMSTANDARDJIS
  2
AcmBOMStdJIS
  3
"Amdt_StdImp|Product Description: AutoCAD Mechanical 2004 DX|Company: Autodesk"
 90
        0
280
     0
281
     0
  0
CLASS
  1
ACMDETAILSTANDARDJIS
  2
AmdtDetailSymStdJIS
  3
"Amdt_StdImp|Product Description: AutoCAD Mechanical 2004 DX|Company: Autodesk"
 90
        0
280
     0
281
     0
  0
CLASS
  1
ACMSECTIONSTANDARDJIS
  2
AmdtSectionSymStdJIS
  3
"Amdt_StdImp|Product Description: AutoCAD Mechanical 2004 DX|Company: Autodesk"
 90
        0
280
     0
281
     0
  0
CLASS
  1
ACMCENTERLINESTANDARDJIS
  2
AmdtCenterLineStdJIS
  3
"Amdt_StdImp|Product Description: AutoCAD Mechanical 2004 DX|Company: Autodesk"
 90
        0
280
     0
281
     0
  0
CLASS
  1
ACMTHREADLINESTANDARDJIS
  2
AmdtThreadLineStdJIS
  3
"Amdt_StdImp|Product Description: AutoCAD Mechanical 2004 DX|Company: Autodesk"
 90
        0
280
     0
281
     0
  0
CLASS
  1
ACMNOTESTANDARDJIS
  2
AmdtNoteStdJIS
  3
"Amdt_StdImp|Product Description: AutoCAD Mechanical 2004 DX|Company: Autodesk"
 90
        0
280
     0
281
     0
  0
CLASS
  1
ACAMGHOLECHARTSTDJIS
  2
AcAmgHoleChartStdJIS
  3
ACMSYMBB_MODULE_NAME
 90
        0
280
     0
281
     0
  0
CLASS
  1
DIMASSOC
  2
AcDbDimAssoc
  3
"AcDbDimAssoc|Product Desc:     AcDim ARX App For Dimension|Company:          Autodesk, Inc.|WEB Address:      www.autodesk.com"
 90
        0
280
     0
281
     0
  0
CLASS
  1
ACMDIMBREAKPERSREACTOR
  2
AcmDimBreakPersReactor
  3
amgDimApp().moduleName()
 90
    33791
280
     0
281
     0
  0
CLASS
  1
ACRFATTGENMGR
  2
AcRfAttGeneralMgr
  3
AcAttribServices
 90
        0
280
     0
281
     0
  0
ENDSEC
  0
SECTION
  2
TABLES
  0
TABLE
  2
VPORT
  5
8
330
0
100
AcDbSymbolTable
 70
    10
  0
VPORT
  5
1B00
330
8
100
AcDbSymbolTableRecord
100
AcDbViewportTableRecord
  2
*Active
 70
     0
 10
0.0
 20
0.0
 11
1.0
 21
1.0
 12
-12.90790595259989
 22
-4.871919470700078
 13
0.0
 23
0.0
 14
2.5
 24
2.5
 15
10.0
 25
10.0
 16
0.0
 26
0.0
 36
1.0
 17
0.0
 27
0.0
 37
0.0
 40
120.0486055810588
 41
1.514762516046213
 42
50.0
 43
0.0
 44
0.0
 50
0.0
 51
0.0
 71
     0
 72
 10000
 73
     1
 74
     3
 75
     0
 76
     0
 77
     0
 78
     0
281
     0
 65
     1
110
0.0
120
0.0
130
0.0
111
1.0
121
0.0
131
0.0
112
0.0
122
1.0
132
0.0
 79
     0
146
0.0
  0
ENDTAB
  0
TABLE
  2
LTYPE
  5
5
330
0
100
AcDbSymbolTable
 70
    17
  0
LTYPE
  5
14
330
5
100
AcDbSymbolTableRecord
100
AcDbLinetypeTableRecord
  2
ByBlock
 70
     0
  3

 72
    65
 73
     0
 40
0.0
  0
LTYPE
  5
15
330
5
100
AcDbSymbolTableRecord
100
AcDbLinetypeTableRecord
  2
ByLayer
 70
     0
  3

 72
    65
 73
     0
 40
0.0
  0
LTYPE
  5
16
330
5
100
AcDbSymbolTableRecord
100
AcDbLinetypeTableRecord
  2
Continuous
 70
     0
  3
Solid line
 72
    65
 73
     0
 40
0.0
  0
LTYPE
  5
64
330
5
100
AcDbSymbolTableRecord
100
AcDbLinetypeTableRecord
  2
AM_ISO02W050
 70
     0
  3
__ __ __ __ __ __ __ __ __ __ __ __ __ __ __
 72
    65
 73
     2
 40
7.5
 49
6.0
 74
     0
 49
-1.5
 74
     0
  0
LTYPE
  5
65
330
5
100
AcDbSymbolTableRecord
100
AcDbLinetypeTableRecord
  2
AM_ISO08W050
 70
     0
  3
____ . ____ . ____ . ____ . ____ . ____ . ____
 72
    65
 73
     4
 40
18.0
 49
12.0
 74
     0
 49
-1.5
 74
     0
 49
3.0
 74
     0
 49
-1.5
 74
     0
  0
LTYPE
  5
66
330
5
100
AcDbSymbolTableRecord
100
AcDbLinetypeTableRecord
  2
AM_ISO09W050
 70
     0
  3
_____ . . _____ . . _____ . . ____ .. ____
 72
    65
 73
     6
 40
22.5
 49
12.0
 74
     0
 49
-1.5
 74
     0
 49
3.0
 74
     0
 49
-1.5
 74
     0
 49
3.0
 74
     0
 49
-1.5
 74
     0
  0
LTYPE
  5
67
330
5
100
AcDbSymbolTableRecord
100
AcDbLinetypeTableRecord
  2
Amconstr
 70
     0
  3
_______________________
 72
    65
 73
     2
 40
9999.0
 49
9999.0
 74
     0
 49
0.0
 74
     0
  0
LTYPE
  5
68
330
5
100
AcDbSymbolTableRecord
100
AcDbLinetypeTableRecord
  2
AM_ISO08W050x2
 70
     0
  3
__ . __ . __ . __ . __ . __
 72
    65
 73
     4
 40
9.0
 49
6.0
 74
     0
 49
-0.75
 74
     0
 49
1.5
 74
     0
 49
-0.75
 74
     0
  0
LTYPE
  5
69
330
5
100
AcDbSymbolTableRecord
100
AcDbLinetypeTableRecord
  2
AM_ISO02W050x2
 70
     0
  3
 _ _ _ _ _ _ _ _ _ _ _ _
 72
    65
 73
     2
 40
3.75
 49
3.0
 74
     0
 49
-0.75
 74
     0
  0
LTYPE
  5
6C
330
5
100
AcDbSymbolTableRecord
100
AcDbLinetypeTableRecord
  2
Amzigzag
 70
     0
  3
/\/-/\/-/\/-/\/-/\/-/\/
 72
    65
 73
     2
 40
11.0001
 49
0.0001
 74
     4
 75
   135
340
6B
 46
0.04
 50
0.0
 44
0.0
 45
0.0
 49
-11.0
 74
     0
  0
LTYPE
  5
7A
330
5
100
AcDbSymbolTableRecord
100
AcDbLinetypeTableRecord
  2
ACISOWELD
 70
     0
  3
_ _ _ _ _
 72
    65
 73
     2
 40
2.0
 49
2.0
 74
     0
 49
-1.0
 74
     0
  0
LTYPE
  5
7B
330
5
100
AcDbSymbolTableRecord
100
AcDbLinetypeTableRecord
  2
ACISOTGB
 70
     0
  3
__ . . __ . .
 72
    65
 73
     6
 40
9.0
 49
4.0
 74
     0
 49
-1.0
 74
     0
 49
1.0
 74
     0
 49
-1.0
 74
     0
 49
1.0
 74
     0
 49
-1.0
 74
     0
  0
LTYPE
  5
7C
330
5
100
AcDbSymbolTableRecord
100
AcDbLinetypeTableRecord
  2
ACISOTGL
 70
     0
  3
_ _ _ _ _
 72
    65
 73
     2
 40
3.0
 49
2.0
 74
     0
 49
-1.0
 74
     0
  0
LTYPE
  5
7E
330
5
100
AcDbSymbolTableRecord
100
AcDbLinetypeTableRecord
  2
CENTER
 70
     0
  3
__ . __
 72
    65
 73
     4
 40
7.0
 49
4.0
 74
     0
 49
-1.0
 74
     0
 49
1.0
 74
     0
 49
-1.0
 74
     0
  0
LTYPE
  5
D8
330
5
100
AcDbSymbolTableRecord
100
AcDbLinetypeTableRecord
  2
HIDDEN
 70
     0
  3
Hidden __ __ __ __ __ __ __ __ __ __ __ __ __ _
 72
    65
 73
     2
 40
9.524999999999998
 49
6.349999999999999
 74
     0
 49
-3.174999999999999
 74
     0
  0
LTYPE
  5
D9
330
5
100
AcDbSymbolTableRecord
100
AcDbLinetypeTableRecord
  2
PHANTOM2
 70
     0
  3
Phantom (.5x) ___ _ _ ___ _ _ ___ _ _ ___ _ _
 72
    65
 73
     6
 40
31.75
 49
15.875
 74
     0
 49
-3.174999999999999
 74
     0
 49
3.174999999999999
 74
     0
 49
-3.174999999999999
 74
     0
 49
3.174999999999999
 74
     0
 49
-3.174999999999999
 74
     0
  0
LTYPE
  5
20C
330
5
100
AcDbSymbolTableRecord
100
AcDbLinetypeTableRecord
  2
ACJISWELD
 70
     0
  3
_ _ _ _ _
 72
    65
 73
     2
 40
2.0
 49
2.0
 74
     0
 49
-1.0
 74
     0
  0
LTYPE
  5
20D
330
5
100
AcDbSymbolTableRecord
100
AcDbLinetypeTableRecord
  2
ACJISTGB
 70
     0
  3
__ . . __ . .
 72
    65
 73
     6
 40
9.0
 49
4.0
 74
     0
 49
-1.0
 74
     0
 49
1.0
 74
     0
 49
-1.0
 74
     0
 49
1.0
 74
     0
 49
-1.0
 74
     0
  0
LTYPE
  5
20E
330
5
100
AcDbSymbolTableRecord
100
AcDbLinetypeTableRecord
  2
ACJISTGL
 70
     0
  3
_ _ _ _ _
 72
    65
 73
     2
 40
3.0
 49
2.0
 74
     0
 49
-1.0
 74
     0
  0
ENDTAB
  0
TABLE
  2
LAYER
  5
2
102
{ACAD_XDICTIONARY
360
34B
102
}
330
0
100
AcDbSymbolTable
 70
     8
  0
LAYER
  5
10
330
2
100
AcDbSymbolTableRecord
100
AcDbLayerTableRecord
  2
0
 70
     0
 62
     7
  6
Continuous
370
    -3
390
F
  0
LAYER
  5
34A
330
2
100
AcDbSymbolTableRecord
100
AcDbLayerTableRecord
  2
AM_0
 70
     0
 62
     7
  6
Continuous
370
    30
390
F
  0
LAYER
  5
3B0
330
2
100
AcDbSymbolTableRecord
100
AcDbLayerTableRecord
  2
AM_5
 70
     0
 62
     3
  6
Continuous
370
    13
390
F
  0
LAYER
  5
3B1
330
2
100
AcDbSymbolTableRecord
100
AcDbLayerTableRecord
  2
AM_7
 70
     0
 62
     4
  6
AM_ISO08W050
370
    13
390
F
  0
LAYER
  5
422
330
2
100
AcDbSymbolTableRecord
100
AcDbLayerTableRecord
  2
Defpoints
 70
     0
 62
     7
  6
Continuous
290
     0
370
    -3
390
F
  0
LAYER
  5
423
330
2
100
AcDbSymbolTableRecord
100
AcDbLayerTableRecord
  2
1
 70
     0
 62
     7
  6
Continuous
370
    -3
390
F
  0
ENDTAB
  0
TABLE
  2
STYLE
  5
3
330
0
100
AcDbSymbolTable
 70
     6
  0
STYLE
  5
11
330
3
100
AcDbSymbolTableRecord
100
AcDbTextStyleTableRecord
  2
STANDARD
 70
     0
 40
0.0
 41
1.0
 50
0.0
 71
     0
 42
3.799999999999999
  3
ISOCP.SHX
  4
EXTFONT.SHX
  0
STYLE
  5
6B
330
3
100
AcDbSymbolTableRecord
100
AcDbTextStyleTableRecord
  2

 70
     1
 40
0.0
 41
1.0
 50
0.0
 71
     0
 42
2.5
  3
ltypeshp.shx
  4

  0
STYLE
  5
6D
330
3
100
AcDbSymbolTableRecord
100
AcDbTextStyleTableRecord
  2
ACISOTS
 70
     0
 40
3.799999999999999
 41
1.0
 50
0.0
 71
     0
 42
3.799999999999999
  3
isocp.shx
  4
extfont.shx
  0
STYLE
  5
79
330
3
100
AcDbSymbolTableRecord
100
AcDbTextStyleTableRecord
  2
ACISOGDT
 70
     0
 40
0.0
 41
1.0
 50
0.0
 71
     0
 42
2.5
  3
amgdt.shx
  4
extfont.shx
  0
STYLE
  5
1FF
330
3
100
AcDbSymbolTableRecord
100
AcDbTextStyleTableRecord
  2
ACJISTS
 70
     0
 40
1.0
 41
1.0
 50
0.0
 71
     0
 42
1.0
  3
isocp.shx
  4
extfont.shx
  0
STYLE
  5
20B
330
3
100
AcDbSymbolTableRecord
100
AcDbTextStyleTableRecord
  2
ACJISGDT
 70
     0
 40
0.0
 41
1.0
 50
0.0
 71
     0
 42
1.0
  3
amgdt.shx
  4

  0
ENDTAB
  0
TABLE
  2
VIEW
  5
6
330
0
100
AcDbSymbolTable
 70
     0
  0
ENDTAB
  0
TABLE
  2
UCS
  5
7
330
0
100
AcDbSymbolTable
 70
     0
  0
ENDTAB
  0
TABLE
  2
APPID
  5
9
330
0
100
AcDbSymbolTable
 70
    17
  0
APPID
  5
12
330
9
100
AcDbSymbolTableRecord
100
AcDbRegAppTableRecord
  2
ACAD
 70
     0
  0
APPID
  5
46
330
9
100
AcDbSymbolTableRecord
100
AcDbRegAppTableRecord
  2
MCAD_NO_VIS
 70
     0
  0
APPID
  5
47
330
9
100
AcDbSymbolTableRecord
100
AcDbRegAppTableRecord
  2
ACAD_TEMP_GRAPHIC
 70
     0
  0
APPID
  5
58
330
9
100
AcDbSymbolTableRecord
100
AcDbRegAppTableRecord
  2
ACATTRIBSERVICES
 70
     0
  0
APPID
  5
EE
330
9
100
AcDbSymbolTableRecord
100
AcDbRegAppTableRecord
  2
AD_DRAW
 70
     0
  0
APPID
  5
10C
330
9
100
AcDbSymbolTableRecord
100
AcDbRegAppTableRecord
  2
DESIGNERASSEMBLIES
 70
     0
  0
APPID
  5
111
330
9
100
AcDbSymbolTableRecord
100
AcDbRegAppTableRecord
  2
ACADM_DIM_EDIT
 70
     0
  0
APPID
  5
112
330
9
100
AcDbSymbolTableRecord
100
AcDbRegAppTableRecord
  2
AMDT_DM_ADJ
 70
     0
  0
APPID
  5
243
330
9
100
AcDbSymbolTableRecord
100
AcDbRegAppTableRecord
  2
ACAD_DSTYLE_DIMTEXT_FILL
 70
     0
  0
APPID
  5
3B4
330
9
100
AcDbSymbolTableRecord
100
AcDbRegAppTableRecord
  2
ACAD_PSEXT
 70
     0
  0
APPID
  5
427
330
9
100
AcDbSymbolTableRecord
100
AcDbRegAppTableRecord
  2
GENIUS_GENDTOL_13
 70
     0
  0
APPID
  5
428
330
9
100
AcDbSymbolTableRecord
100
AcDbRegAppTableRecord
  2
GENIUS_GENODEF_13
 70
     0
  0
APPID
  5
429
330
9
100
AcDbSymbolTableRecord
100
AcDbRegAppTableRecord
  2
GENIUS_GENOBJ-N-CEN_13
 70
     0
  0
APPID
  5
80B
330
9
100
AcDbSymbolTableRecord
100
AcDbRegAppTableRecord
  2
GENIUS_GENOBJ-N-FIL_13
 70
     0
  0
APPID
  5
9FD
330
9
100
AcDbSymbolTableRecord
100
AcDbRegAppTableRecord
  2
ACAD_DIMASSOC_DIMLFAC
 70
     0
  0
APPID
  5
9FE
330
9
100
AcDbSymbolTableRecord
100
AcDbRegAppTableRecord
  2
ACAD_DIMASSOC_CALC_DIMLFAC
 70
     0
  0
APPID
  5
9FF
330
9
100
AcDbSymbolTableRecord
100
AcDbRegAppTableRecord
  2
ACAD_DIMASSOC_OVERRIDDEN_DIMLFAC
 70
     0
  0
ENDTAB
  0
TABLE
  2
DIMSTYLE
  5
A
330
0
100
AcDbSymbolTable
 70
    16
100
AcDbDimStyleTable
 71
     2
340
216
340
81
  0
DIMSTYLE
105
81
330
A
100
AcDbSymbolTableRecord
100
AcDbDimStyleTableRecord
  2
AM_ISO
 70
     0
  4
"
 41
2.5
 42
1.0
 43
10.0
 44
1.0
 47
0.1
 48
0.1
 73
     0
 74
     0
 77
     1
 78
     8
 79
     2
140
3.5
141
0.0
143
0.0393701
146
0.71
147
1.5
172
     1
176
   256
177
   256
178
     2
271
     2
272
     3
274
     4
283
     0
284
     8
340
11
371
    -1
372
    -1
  0
DIMSTYLE
105
82
330
A
100
AcDbSymbolTableRecord
100
AcDbDimStyleTableRecord
  2
AM_ISO$3
 70
     0
  4
"
 41
2.5
 42
1.0
 43
10.0
 44
1.0
 47
0.1
 48
0.1
 73
     0
 77
     1
 78
     8
 79
     2
140
3.5
141
0.0
143
0.0393701
146
0.71
147
1.5
176
   256
177
   256
178
     2
271
     2
272
     3
274
     4
283
     0
284
     8
288
     1
289
     0
340
11
371
    -1
372
    -1
  0
DIMSTYLE
105
83
330
A
100
AcDbSymbolTableRecord
100
AcDbDimStyleTableRecord
  2
AM_ISO$4
 70
     0
  4
"
 41
2.5
 42
1.0
 43
10.0
 44
1.0
 47
0.1
 48
0.1
 73
     0
 77
     1
 78
     8
 79
     2
140
3.5
141
0.0
143
0.0393701
146
0.71
147
1.5
176
   256
177
   256
178
     2
271
     2
272
     3
274
     4
283
     0
284
     8
288
     1
289
     0
340
11
371
    -1
372
    -1
  0
DIMSTYLE
105
84
330
A
100
AcDbSymbolTableRecord
100
AcDbDimStyleTableRecord
  2
AM_ISO$6
 70
     0
  4
"
 41
2.5
 42
1.0
 43
10.0
 44
1.0
 47
0.1
 48
0.1
 73
     0
 74
     0
 78
     8
 79
     2
140
3.5
141
0.0
143
0.0393701
146
0.71
147
1.5
172
     1
176
   256
177
   256
178
     2
271
     2
272
     3
274
     4
283
     0
284
     8
340
11
371
    -1
372
    -1
  0
DIMSTYLE
105
85
330
A
100
AcDbSymbolTableRecord
100
AcDbDimStyleTableRecord
  2
AM_ISO$7
 70
     0
  4
"
 41
2.5
 42
1.0
 43
10.0
 44
1.0
 47
0.1
 48
0.1
 73
     0
 74
     0
 77
     1
 78
     8
 79
     2
140
5.0
141
0.0
143
0.0393701
146
0.71
147
1.5
172
     1
176
   256
177
   256
178
     2
271
     2
272
     3
274
     4
283
     0
284
     8
340
11
371
    -1
372
    -1
  0
DIMSTYLE
105
86
330
A
100
AcDbSymbolTableRecord
100
AcDbDimStyleTableRecord
  2
AM_ISO$SF
 70
     0
  4
"
 41
2.5
 42
1.0
 43
10.0
 44
1.0
 47
0.1
 48
0.1
 73
     0
 74
     0
 75
     1
 76
     1
 77
     1
 78
     8
 79
     2
140
3.5
141
0.0
143
0.0393701
146
0.71
147
1.5
172
     1
176
   256
177
   256
178
     2
271
     2
272
     3
274
     4
283
     0
284
     8
340
11
371
    -1
372
    -1
  0
DIMSTYLE
105
8B
330
A
100
AcDbSymbolTableRecord
100
AcDbDimStyleTableRecord
  2
AM_ISO$SH
 70
     0
  4
"
 41
2.5
 42
1.0
 43
10.0
 44
1.0
 47
0.1
 48
0.1
 73
     0
 74
     0
 75
     1
 76
     1
 77
     1
 78
     8
 79
     2
140
3.5
141
0.0
143
0.0393701
144
2.0
146
0.71
147
1.5
172
     1
173
     1
176
   256
177
   256
178
     2
271
     2
272
     3
274
     4
283
     0
284
     8
340
11
343
87
371
    -1
372
    -1
  0
DIMSTYLE
105
216
330
A
100
AcDbSymbolTableRecord
100
AcDbDimStyleTableRecord
  2
AM_JIS
 70
     0
  4
"
 41
2.5
 42
1.0
 43
10.0
 44
1.0
 47
0.1
 48
0.1000000001
 73
     0
 74
     0
 77
     3
 78
     8
 79
     2
140
3.799999999999999
141
0.0
143
0.0393701
146
0.71
147
1.5
172
     1
176
   256
177
   256
178
     2
271
     2
272
     2
275
     1
283
     0
284
     8
340
11
341
217
342
217
371
    -1
372
    -1
  0
DIMSTYLE
105
21D
330
A
100
AcDbSymbolTableRecord
100
AcDbDimStyleTableRecord
  2
AM_JIS$3
 70
     0
  4
"
 41
2.5
 42
1.0
 43
10.0
 44
1.0
 47
0.1
 48
0.1000000001
 73
     0
 77
     3
 78
     8
 79
     2
140
3.799999999999999
141
0.0
143
0.0393701
146
0.71
147
1.5
176
   256
177
   256
178
     2
271
     2
272
     2
275
     1
283
     0
284
     8
288
     1
289
     0
340
11
341
217
342
217
371
    -1
372
    -1
  0
DIMSTYLE
105
21E
330
A
100
AcDbSymbolTableRecord
100
AcDbDimStyleTableRecord
  2
AM_JIS$4
 70
     0
  4
"
 41
2.5
 42
1.0
 43
10.0
 44
1.0
 47
0.1
 48
0.1000000001
 73
     0
 77
     3
 78
     8
 79
     2
140
3.799999999999999
141
0.0
143
0.0393701
146
0.71
147
1.5
176
   256
177
   256
178
     2
271
     2
272
     2
275
     1
283
     0
284
     8
288
     1
289
     0
340
11
341
217
342
217
371
    -1
372
    -1
  0
DIMSTYLE
105
21F
330
A
100
AcDbSymbolTableRecord
100
AcDbDimStyleTableRecord
  2
AM_JIS$6
 70
     0
  4
"
 41
2.5
 42
1.0
 43
10.0
 44
1.0
 47
0.1
 48
0.1000000001
 73
     0
 74
     0
 78
     8
 79
     2
140
3.799999999999999
141
0.0
143
0.0393701
146
0.71
147
1.5
172
     1
176
   256
177
   256
178
     2
271
     2
272
     2
275
     1
283
     0
284
     8
340
11
341
217
342
217
371
    -1
372
    -1
  0
DIMSTYLE
105
220
330
A
100
AcDbSymbolTableRecord
100
AcDbDimStyleTableRecord
  2
AM_JIS$7
 70
     0
  4
"
 41
2.5
 42
1.0
 43
10.0
 44
1.0
 47
0.1
 48
0.1000000001
 73
     0
 74
     0
 77
     3
 78
     8
 79
     2
140
5.0
141
0.0
143
0.0393701
146
0.71
147
1.5
172
     1
176
   256
177
   256
178
     2
271
     2
272
     2
275
     1
283
     0
284
     8
340
11
341
217
342
217
371
    -1
372
    -1
  0
DIMSTYLE
105
221
330
A
100
AcDbSymbolTableRecord
100
AcDbDimStyleTableRecord
  2
AM_JIS$SF
 70
     0
  4
"
 41
2.5
 42
1.0
 43
10.0
 44
1.0
 47
0.1
 48
0.1
 73
     0
 74
     0
 75
     1
 76
     1
 77
     3
 78
     8
 79
     2
140
3.5
141
0.0
143
0.0393701
146
0.71
147
1.5
172
     1
176
   256
177
   256
178
     2
271
     2
272
     3
274
     4
283
     0
284
     8
340
11
341
217
342
217
343
217
344
217
371
    -1
372
    -1
  0
DIMSTYLE
105
222
330
A
100
AcDbSymbolTableRecord
100
AcDbDimStyleTableRecord
  2
AM_JIS$SH
 70
     0
  4
"
 41
2.5
 42
1.0
 43
10.0
 44
1.0
 47
0.1
 48
0.1
 73
     0
 74
     0
 75
     1
 76
     1
 77
     3
 78
     8
 79
     2
140
3.5
141
0.0
143
0.0393701
144
2.0
146
0.71
147
1.5
172
     1
173
     1
176
   256
177
   256
178
     2
271
     2
272
     3
274
     4
283
     0
284
     8
340
11
341
217
342
217
343
87
344
217
371
    -1
372
    -1
  0
DIMSTYLE
105
425
102
{ACAD_REACTORS
330
1A1C
102
}
330
A
100
AcDbSymbolTableRecord
100
AcDbDimStyleTableRecord
  2
AM_JIS$2
 70
     0
  4
"
 41
2.5
 42
0.0
 43
10.0
 44
1.0
 48
0.000000001
 73
     0
 74
     0
 77
     3
 78
     1
 79
     2
140
3.799999999999999
141
0.0
143
0.0393701
146
0.71
147
1.5
172
     1
176
   256
177
   256
178
     2
179
     1
271
     3
272
     3
275
     1
283
     0
284
     8
289
     2
340
11
341
217
342
217
371
    -1
372
    -1
  0
DIMSTYLE
105
426
102
{ACAD_REACTORS
330
1865
330
1866
330
1867
330
1868
330
186A
330
186B
330
186C
330
186D
330
1A16
330
1A19
102
}
330
A
100
AcDbSymbolTableRecord
100
AcDbDimStyleTableRecord
  2
AM_JIS$0
 70
     0
  4
"
 41
2.5
 42
0.0
 43
10.0
 44
1.0
 48
0.000000001
 73
     0
 74
     0
 77
     3
 78
     1
 79
     2
140
3.799999999999999
141
0.0
143
0.0393701
146
0.71
147
1.5
172
     1
176
   256
177
   256
178
     2
179
     1
271
     3
272
     3
275
     1
283
     0
284
     8
340
11
341
217
342
217
371
    -1
372
    -1
  0
ENDTAB
  0
TABLE
  2
BLOCK_RECORD
  5
1
330
0
100
AcDbSymbolTable
 70
    42
  0
BLOCK_RECORD
  5
1F
102
{ACAD_XDICTIONARY
360
8F
102
}
330
1
100
AcDbSymbolTableRecord
100
AcDbBlockTableRecord
  2
*Model_Space
340
22
  0
BLOCK_RECORD
  5
1B
330
1
100
AcDbSymbolTableRecord
100
AcDbBlockTableRecord
  2
*Paper_Space
340
1E
  0
BLOCK_RECORD
  5
23
330
1
100
AcDbSymbolTableRecord
100
AcDbBlockTableRecord
  2
*Paper_Space0
340
26
  0
BLOCK_RECORD
  5
87
330
1
100
AcDbSymbolTableRecord
100
AcDbBlockTableRecord
  2
GENAXEH
340
0
  0
BLOCK_RECORD
  5
217
330
1
100
AcDbSymbolTableRecord
100
AcDbBlockTableRecord
  2
_Open30
340
0
102
{BLKREFS
331
1714
331
1715
331
171D
331
171E
331
1725
331
172D
331
172E
331
1736
331
1737
331
173F
331
1740
331
1748
331
1749
331
1751
331
1752
331
175A
331
1762
331
1763
331
1776
331
1777
331
17C6
331
17C7
331
17D2
331
17D3
331
17DD
331
17E8
331
17E9
331
17F4
331
17FE
331
17A0
331
17A1
331
17AC
331
17AD
331
17BA
331
17BB
331
18F7
331
18F8
331
19D8
331
19E3
331
19E4
331
19EF
331
19F0
331
1A87
331
1A88
331
1A92
331
1A93
331
1A9B
331
1A9C
331
1AA4
331
1AA5
331
1AAC
331
1AB4
331
1AB5
331
1ABF
331
1AC6
331
1ACC
331
1AD4
331
1AD5
331
1AE8
331
1AE9
102
}
  0
BLOCK_RECORD
  5
3DC
330
1
100
AcDbSymbolTableRecord
100
AcDbBlockTableRecord
  2
_None
340
0
  0
BLOCK_RECORD
  5
18A6
330
1
100
AcDbSymbolTableRecord
100
AcDbBlockTableRecord
  2
*D27
340
0
  0
BLOCK_RECORD
  5
18B0
330
1
100
AcDbSymbolTableRecord
100
AcDbBlockTableRecord
  2
*D28
340
0
  0
BLOCK_RECORD
  5
18BC
330
1
100
AcDbSymbolTableRecord
100
AcDbBlockTableRecord
  2
*D29
340
0
  0
BLOCK_RECORD
  5
18C6
330
1
100
AcDbSymbolTableRecord
100
AcDbBlockTableRecord
  2
*D30
340
0
  0
BLOCK_RECORD
  5
18D0
330
1
100
AcDbSymbolTableRecord
100
AcDbBlockTableRecord
  2
*D31
340
0
  0
BLOCK_RECORD
  5
18D8
330
1
100
AcDbSymbolTableRecord
100
AcDbBlockTableRecord
  2
*D32
340
0
  0
BLOCK_RECORD
  5
18E2
330
1
100
AcDbSymbolTableRecord
100
AcDbBlockTableRecord
  2
*D33
340
0
  0
BLOCK_RECORD
  5
18EC
330
1
100
AcDbSymbolTableRecord
100
AcDbBlockTableRecord
  2
*D34
340
0
  0
BLOCK_RECORD
  5
1A20
330
1
100
AcDbSymbolTableRecord
100
AcDbBlockTableRecord
  2
*D39
340
0
  0
BLOCK_RECORD
  5
1A29
330
1
100
AcDbSymbolTableRecord
100
AcDbBlockTableRecord
  2
*D40
340
0
  0
BLOCK_RECORD
  5
1A33
330
1
100
AcDbSymbolTableRecord
100
AcDbBlockTableRecord
  2
*D41
340
0
  0
ENDTAB
  0
ENDSEC
  0
SECTION
  2
BLOCKS
  0
BLOCK
  5
20
330
1F
100
AcDbEntity
  8
0
100
AcDbBlockBegin
  2
*Model_Space
 70
     0
 10
0.0
 20
0.0
 30
0.0
  3
*Model_Space
  1

  0
ENDBLK
  5
21
330
1F
100
AcDbEntity
  8
0
100
AcDbBlockEnd
  0
BLOCK
  5
1C
330
1B
100
AcDbEntity
 67
     1
  8
0
100
AcDbBlockBegin
  2
*Paper_Space
 70
     0
 10
0.0
 20
0.0
 30
0.0
  3
*Paper_Space
  1

  0
ENDBLK
  5
1D
330
1B
100
AcDbEntity
 67
     1
  8
0
100
AcDbBlockEnd
  0
BLOCK
  5
24
330
23
100
AcDbEntity
  8
0
100
AcDbBlockBegin
  2
*Paper_Space0
 70
     0
 10
0.0
 20
0.0
 30
0.0
  3
*Paper_Space0
  1

  0
ENDBLK
  5
25
330
23
100
AcDbEntity
  8
0
100
AcDbBlockEnd
  0
BLOCK
  5
89
330
87
100
AcDbEntity
  8
0
100
AcDbBlockBegin
  2
GENAXEH
 70
     0
 10
0.0
 20
0.0
 30
0.0
  3
GENAXEH
  1

  0
LINE
  5
88
330
87
100
AcDbEntity
  8
0
100
AcDbLine
 10
-1.0
 20
0.0
 30
0.0
 11
1.0
 21
0.0
 31
0.0
  0
ENDBLK
  5
8A
330
87
100
AcDbEntity
  8
0
100
AcDbBlockEnd
  0
BLOCK
  5
21B
330
217
100
AcDbEntity
  8
0
100
AcDbBlockBegin
  2
_Open30
 70
     0
 10
0.0
 20
0.0
 30
0.0
  3
_Open30
  1

  0
LINE
  5
218
330
217
100
AcDbEntity
  8
0
  6
ByBlock
 62
     0
370
    -2
100
AcDbLine
 10
-1.0
 20
0.26794919
 30
0.0
 11
0.0
 21
0.0
 31
0.0
  0
LINE
  5
219
330
217
100
AcDbEntity
  8
0
  6
ByBlock
 62
     0
370
    -2
100
AcDbLine
 10
0.0
 20
0.0
 30
0.0
 11
-1.0
 21
-0.26794919
 31
0.0
  0
LINE
  5
21A
330
217
100
AcDbEntity
  8
0
  6
ByBlock
 62
     0
370
    -2
100
AcDbLine
 10
0.0
 20
0.0
 30
0.0
 11
-1.0
 21
0.0
 31
0.0
  0
ENDBLK
  5
21C
330
217
100
AcDbEntity
  8
0
100
AcDbBlockEnd
  0
BLOCK
  5
3DD
330
3DC
100
AcDbEntity
  8
0
100
AcDbBlockBegin
  2
_None
 70
     0
 10
0.0
 20
0.0
 30
0.0
  3
_None
  1

  0
ENDBLK
  5
3DE
330
3DC
100
AcDbEntity
  8
0
100
AcDbBlockEnd
  0
BLOCK
  5
1943
330
18A6
100
AcDbEntity
  8
0
100
AcDbBlockBegin
  2
*D27
 70
     1
 10
0.0
 20
0.0
 30
0.0
  3
*D27
  1

  0
LINE
  5
1A84
330
18A6
100
AcDbEntity
  8
AM_5
100
AcDbLine
 10
-32.17084999999997
 20
11.0
 30
0.0
 11
-60.18555330631807
 21
11.00000000000001
 31
0.0
  0
LINE
  5
1A85
330
18A6
100
AcDbEntity
  8
AM_5
100
AcDbLine
 10
-32.17084999999997
 20
-11.0
 30
0.0
 11
-60.18555330631807
 21
-10.99999999999999
 31
0.0
  0
LINE
  5
1A86
330
18A6
100
AcDbEntity
  8
AM_5
100
AcDbLine
 10
-59.18555330631807
 20
8.500000000000007
 30
0.0
 11
-59.18555330631807
 21
-8.499999999999992
 31
0.0
  0
INSERT
  5
1A87
330
18A6
100
AcDbEntity
  8
AM_5
100
AcDbBlockReference
  2
_Open30
 10
-59.18555330631807
 20
11.0
 30
0.0
 41
2.5
 42
2.5
 43
2.5
 50
90.0
  0
INSERT
  5
1A88
330
18A6
100
AcDbEntity
  8
AM_5
100
AcDbBlockReference
  2
_Open30
 10
-59.18555330631807
 20
-10.99999999999999
 30
0.0
 41
2.5
 42
2.5
 43
2.5
 50
270.0
  0
MTEXT
  5
1A89
330
18A6
100
AcDbEntity
  8
AM_5
 62
     2
100
AcDbMText
 10
-62.58592732206611
 20
-0.0000000000000013
 30
0.0
 40
3.799999999999999
 41
0.0
 71
     5
 72
     1
  1
φ22
 11
0.0000000000000001
 21
1.0
 31
0.0
 73
     1
 44
1.0
1001
ACAD
1000
MTEXTBEGIN
1070
    73
1070
     1
1070
    44
1040
1.0
1070
    74
1070
     0
1000
MTEXTEND
  0
POINT
  5
1A8A
330
18A6
100
AcDbEntity
  8
Defpoints
 62
     0
100
AcDbPoint
 10
-32.17084999999997
 20
11.0
 30
0.0
  0
POINT
  5
1A8B
330
18A6
100
AcDbEntity
  8
Defpoints
 62
     0
100
AcDbPoint
 10
-32.17084999999997
 20
-11.0
 30
0.0
  0
POINT
  5
1A8C
330
18A6
100
AcDbEntity
  8
Defpoints
 62
     0
100
AcDbPoint
 10
-59.18555330631807
 20
-10.99999999999999
 30
0.0
  0
ENDBLK
  5
1944
330
18A6
100
AcDbEntity
  8
0
100
AcDbBlockEnd
  0
BLOCK
  5
1945
330
18B0
100
AcDbEntity
  8
0
100
AcDbBlockBegin
  2
*D28
 70
     1
 10
0.0
 20
0.0
 30
0.0
  3
*D28
  1

  0
LINE
  5
1A8D
330
18B0
100
AcDbEntity
  8
AM_5
100
AcDbLine
 10
-39.29999999999996
 20
0.0
 30
0.0
 11
-39.29999999999996
 21
-25.67909531756561
 31
0.0
  0
LINE
  5
1A8E
330
18B0
100
AcDbEntity
  8
AM_5
100
AcDbLine
 10
-33.0
 20
-5.200000000000045
 30
0.0
 11
-33.0
 21
-25.67909531756561
 31
0.0
  0
LINE
  5
1A8F
330
18B0
100
AcDbEntity
  8
AM_5
100
AcDbLine
 10
-30.5
 20
-24.67909531756561
 30
0.0
 11
-28.0
 21
-24.67909531756561
 31
0.0
  0
LINE
  5
1A90
330
18B0
100
AcDbEntity
  8
AM_5
100
AcDbLine
 10
-41.79999999999995
 20
-24.67909531756561
 30
0.0
 11
-53.00480272850491
 21
-24.67909531756561
 31
0.0
  0
LINE
  5
1A91
330
18B0
100
AcDbEntity
  8
AM_5
100
AcDbLine
 10
-33.0
 20
-24.67909531756561
 30
0.0
 11
-39.29999999999996
 21
-24.67909531756561
 31
0.0
  0
INSERT
  5
1A92
330
18B0
100
AcDbEntity
  8
AM_5
100
AcDbBlockReference
  2
_Open30
 10
-33.0
 20
-24.67909531756561
 30
0.0
 41
2.5
 42
2.5
 43
2.5
 50
180.0
  0
INSERT
  5
1A93
330
18B0
100
AcDbEntity
  8
AM_5
100
AcDbBlockReference
  2
_Open30
 10
-39.29999999999996
 20
-24.67909531756561
 30
0.0
 41
2.5
 42
2.5
 43
2.5
  0
MTEXT
  5
1A94
330
18B0
100
AcDbEntity
  8
AM_5
 62
     2
100
AcDbMText
 10
-48.65240136425246
 20
-21.27909531756561
 30
0.0
 40
3.799999999999999
 41
0.0
 71
     5
 72
     1
  1
6.3
 73
     1
 44
1.0
1001
ACAD
1000
MTEXTBEGIN
1070
    73
1070
     1
1070
    44
1040
1.0
1070
    74
1070
     0
1000
MTEXTEND
  0
POINT
  5
1A95
330
18B0
100
AcDbEntity
  8
Defpoints
 62
     0
100
AcDbPoint
 10
-39.29999999999996
 20
0.0
 30
0.0
  0
POINT
  5
1A96
330
18B0
100
AcDbEntity
  8
Defpoints
 62
     0
100
AcDbPoint
 10
-33.0
 20
-5.200000000000045
 30
0.0
  0
POINT
  5
1A97
330
18B0
100
AcDbEntity
  8
Defpoints
 62
     0
100
AcDbPoint
 10
-33.0
 20
-24.67909531756561
 30
0.0
  0
ENDBLK
  5
1946
330
18B0
100
AcDbEntity
  8
0
100
AcDbBlockEnd
  0
BLOCK
  5
1947
330
18BC
100
AcDbEntity
  8
0
100
AcDbBlockBegin
  2
*D29
 70
     1
 10
0.0
 20
0.0
 30
0.0
  3
*D29
  1

  0
LINE
  5
1A98
330
18BC
100
AcDbEntity
  8
AM_5
100
AcDbLine
 10
-39.29999999999996
 20
-12.26232854663692
 30
0.0
 11
-39.29999999999996
 21
-36.49663947552938
 31
0.0
  0
LINE
  5
1A99
330
18BC
100
AcDbEntity
  8
AM_5
100
AcDbLine
 10
-19.29999999999995
 20
-11.5
 30
0.0
 11
-19.29999999999995
 21
-36.49663947552938
 31
0.0
  0
LINE
  5
1A9A
330
18BC
100
AcDbEntity
  8
AM_5
100
AcDbLine
 10
-36.79999999999996
 20
-35.49663947552938
 30
0.0
 11
-21.79999999999996
 21
-35.49663947552938
 31
0.0
  0
INSERT
  5
1A9B
330
18BC
100
AcDbEntity
  8
AM_5
100
AcDbBlockReference
  2
_Open30
 10
-39.29999999999996
 20
-35.49663947552938
 30
0.0
 41
2.5
 42
2.5
 43
2.5
 50
180.0
  0
INSERT
  5
1A9C
330
18BC
100
AcDbEntity
  8
AM_5
100
AcDbBlockReference
  2
_Open30
 10
-19.29999999999995
 20
-35.49663947552938
 30
0.0
 41
2.5
 42
2.5
 43
2.5
  0
MTEXT
  5
1A9D
330
18BC
100
AcDbEntity
  8
AM_5
 62
     2
100
AcDbMText
 10
-29.29999999999996
 20
-32.09626545978135
 30
0.0
 40
3.799999999999999
 41
0.0
 71
     5
 72
     1
  1
20
 73
     1
 44
1.0
1001
ACAD
1000
MTEXTBEGIN
1070
    73
1070
     1
1070
    44
1040
1.0
1070
    74
1070
     0
1000
MTEXTEND
  0
POINT
  5
1A9E
330
18BC
100
AcDbEntity
  8
Defpoints
 62
     0
100
AcDbPoint
 10
-39.29999999999996
 20
-12.26232854663692
 30
0.0
  0
POINT
  5
1A9F
330
18BC
100
AcDbEntity
  8
Defpoints
 62
     0
100
AcDbPoint
 10
-19.29999999999995
 20
-11.5
 30
0.0
  0
POINT
  5
1AA0
330
18BC
100
AcDbEntity
  8
Defpoints
 62
     0
100
AcDbPoint
 10
-19.29999999999995
 20
-35.49663947552938
 30
0.0
  0
ENDBLK
  5
1948
330
18BC
100
AcDbEntity
  8
0
100
AcDbBlockEnd
  0
BLOCK
  5
1949
330
18C6
100
AcDbEntity
  8
0
100
AcDbBlockBegin
  2
*D30
 70
     1
 10
0.0
 20
0.0
 30
0.0
  3
*D30
  1

  0
LINE
  5
1AA1
330
18C6
100
AcDbEntity
  8
AM_5
100
AcDbLine
 10
-39.29999999999996
 20
-12.26232854663692
 30
0.0
 11
-39.29999999999996
 21
-47.18063437292516
 31
0.0
  0
LINE
  5
1AA2
330
18C6
100
AcDbEntity
  8
AM_5
100
AcDbLine
 10
-13.29999999999995
 20
-9.0
 30
0.0
 11
-13.29999999999995
 21
-47.18063437292516
 31
0.0
  0
LINE
  5
1AA3
330
18C6
100
AcDbEntity
  8
AM_5
100
AcDbLine
 10
-36.79999999999996
 20
-46.18063437292517
 30
0.0
 11
-15.79999999999995
 21
-46.18063437292517
 31
0.0
  0
INSERT
  5
1AA4
330
18C6
100
AcDbEntity
  8
AM_5
100
AcDbBlockReference
  2
_Open30
 10
-39.29999999999996
 20
-46.18063437292517
 30
0.0
 41
2.5
 42
2.5
 43
2.5
 50
180.0
  0
INSERT
  5
1AA5
330
18C6
100
AcDbEntity
  8
AM_5
100
AcDbBlockReference
  2
_Open30
 10
-13.29999999999995
 20
-46.18063437292517
 30
0.0
 41
2.5
 42
2.5
 43
2.5
  0
MTEXT
  5
1AA6
330
18C6
100
AcDbEntity
  8
AM_5
 62
     2
100
AcDbMText
 10
-26.29999999999995
 20
-42.78026035717714
 30
0.0
 40
3.799999999999999
 41
0.0
 71
     5
 72
     1
  1
26
 73
     1
 44
1.0
1001
ACAD
1000
MTEXTBEGIN
1070
    73
1070
     1
1070
    44
1040
1.0
1070
    74
1070
     0
1000
MTEXTEND
  0
POINT
  5
1AA7
330
18C6
100
AcDbEntity
  8
Defpoints
 62
     0
100
AcDbPoint
 10
-39.29999999999996
 20
-12.26232854663692
 30
0.0
  0
POINT
  5
1AA8
330
18C6
100
AcDbEntity
  8
Defpoints
 62
     0
100
AcDbPoint
 10
-13.29999999999995
 20
-9.0
 30
0.0
  0
POINT
  5
1AA9
330
18C6
100
AcDbEntity
  8
Defpoints
 62
     0
100
AcDbPoint
 10
-13.29999999999995
 20
-46.18063437292517
 30
0.0
  0
ENDBLK
  5
194A
330
18C6
100
AcDbEntity
  8
0
100
AcDbBlockEnd
  0
BLOCK
  5
194B
330
18D0
100
AcDbEntity
  8
0
100
AcDbBlockBegin
  2
*D31
 70
     1
 10
0.0
 20
0.0
 30
0.0
  3
*D31
  1

  0
LINE
  5
1AAA
330
18D0
100
AcDbEntity
  8
AM_5
100
AcDbLine
 10
-38.29999999999996
 20
20.0
 30
0.0
 11
-71.50123724751939
 21
20.00000000000001
 31
0.0
  0
LINE
  5
1AAB
330
18D0
100
AcDbEntity
  8
AM_5
100
AcDbLine
 10
-70.50123724751938
 20
0.0000000000000078
 30
0.0
 11
-70.50123724751938
 21
17.50000000000001
 31
0.0
  0
INSERT
  5
1AAC
330
18D0
100
AcDbEntity
  8
AM_5
100
AcDbBlockReference
  2
_Open30
 10
-70.50123724751938
 20
20.00000000000001
 30
0.0
 41
2.5
 42
2.5
 43
2.5
 50
90.0
  0
MTEXT
  5
1AAD
330
18D0
100
AcDbEntity
  8
AM_5
 62
     2
100
AcDbMText
 10
-73.90123724751939
 20
6.835398576160855
 30
0.0
 40
3.799999999999999
 41
0.0
 71
     5
 72
     1
  1
φ40
 11
0.0000000000000001
 21
1.0
 31
0.0
 73
     1
 44
1.0
1001
ACAD
1000
MTEXTBEGIN
1070
    73
1070
     1
1070
    44
1040
1.0
1070
    74
1070
     0
1000
MTEXTEND
  0
POINT
  5
1AAE
330
18D0
100
AcDbEntity
  8
Defpoints
 62
     0
100
AcDbPoint
 10
-42.8030491406605
 20
0.0
 30
0.0
  0
POINT
  5
1AAF
330
18D0
100
AcDbEntity
  8
Defpoints
 62
     0
100
AcDbPoint
 10
-38.29999999999996
 20
20.0
 30
0.0
  0
POINT
  5
1AB0
330
18D0
100
AcDbEntity
  8
Defpoints
 62
     0
100
AcDbPoint
 10
-70.50123724751938
 20
20.00000000000001
 30
0.0
  0
ENDBLK
  5
194C
330
18D0
100
AcDbEntity
  8
0
100
AcDbBlockEnd
  0
BLOCK
  5
194D
330
18D8
100
AcDbEntity
  8
0
100
AcDbBlockBegin
  2
*D32
 70
     1
 10
0.0
 20
0.0
 30
0.0
  3
*D32
  1

  0
LINE
  5
1AB1
330
18D8
100
AcDbEntity
  8
AM_5
100
AcDbLine
 10
-38.29999999999996
 20
-5.200000000000045
 30
0.0
 11
-47.63841957000216
 21
-5.200000000000042
 31
0.0
  0
LINE
  5
1AB2
330
18D8
100
AcDbEntity
  8
AM_5
100
AcDbLine
 10
-38.29999999999996
 20
5.199999999999931
 30
0.0
 11
-47.63841957000216
 21
5.199999999999934
 31
0.0
  0
LINE
  5
1AB3
330
18D8
100
AcDbEntity
  8
AM_5
100
AcDbLine
 10
-46.63841957000215
 20
-2.700000000000043
 30
0.0
 11
-46.63841957000215
 21
2.699999999999934
 31
0.0
  0
INSERT
  5
1AB4
330
18D8
100
AcDbEntity
  8
AM_5
100
AcDbBlockReference
  2
_Open30
 10
-46.63841957000215
 20
-5.200000000000042
 30
0.0
 41
2.5
 42
2.5
 43
2.5
 50
270.0
  0
INSERT
  5
1AB5
330
18D8
100
AcDbEntity
  8
AM_5
100
AcDbBlockReference
  2
_Open30
 10
-46.63841957000215
 20
5.199999999999934
 30
0.0
 41
2.5
 42
2.5
 43
2.5
 50
90.0
  0
MTEXT
  5
1AB6
330
18D8
100
AcDbEntity
  8
AM_5
 62
     2
100
AcDbMText
 10
-50.03841957000215
 20
-0.0000000000000616
 30
0.0
 40
3.799999999999999
 41
0.0
 71
     5
 72
     1
  1
10.4
 11
0.0000000000000001
 21
1.0
 31
0.0
 73
     1
 44
1.0
1001
ACAD
1000
MTEXTBEGIN
1070
    73
1070
     1
1070
    44
1040
1.0
1070
    74
1070
     0
1000
MTEXTEND
  0
POINT
  5
1AB7
330
18D8
100
AcDbEntity
  8
Defpoints
 62
     0
100
AcDbPoint
 10
-38.29999999999996
 20
-5.200000000000045
 30
0.0
  0
POINT
  5
1AB8
330
18D8
100
AcDbEntity
  8
Defpoints
 62
     0
100
AcDbPoint
 10
-38.29999999999996
 20
5.199999999999931
 30
0.0
  0
POINT
  5
1AB9
330
18D8
100
AcDbEntity
  8
Defpoints
 62
     0
100
AcDbPoint
 10
-46.63841957000215
 20
5.199999999999934
 30
0.0
  0
ENDBLK
  5
194E
330
18D8
100
AcDbEntity
  8
0
100
AcDbBlockEnd
  0
BLOCK
  5
194F
330
18E2
100
AcDbEntity
  8
0
100
AcDbBlockBegin
  2
*D33
 70
     1
 10
0.0
 20
0.0
 30
0.0
  3
*D33
  1

  0
LINE
  5
1ABA
330
18E2
100
AcDbEntity
  8
AM_5
100
AcDbLine
 10
-14.29999999999995
 20
5.5
 30
0.0
 11
9.348770917506044
 21
5.499999999999992
 31
0.0
  0
LINE
  5
1ABB
330
18E2
100
AcDbEntity
  8
AM_5
100
AcDbLine
 10
8.348770917506042
 20
-0.0000000000000027
 30
0.0
 11
8.348770917506042
 21
-2.500000000000002
 31
0.0
  0
LINE
  5
1ABC
330
18E2
100
AcDbEntity
  8
AM_5
100
AcDbLine
 10
8.348770917506044
 20
7.999999999999992
 30
0.0
 11
8.348770917506044
 21
10.49999999999999
 31
0.0
  0
MTEXT
  5
1ABD
330
18E2
100
AcDbEntity
  8
AM_5
 62
     2
100
AcDbMText
 10
5.111347250917424
 20
-2.428475189894811
 30
0.0
 40
3.799999999999999
 41
0.0
 71
     5
 72
     1
  1
φ11
 11
0.0000000000000001
 21
1.0
 31
0.0
 73
     1
 44
1.0
1001
ACAD
1000
MTEXTBEGIN
1070
    73
1070
     1
1070
    44
1040
1.0
1070
    74
1070
     0
1000
MTEXTEND
  0
LINE
  5
1ABE
330
18E2
100
AcDbEntity
  8
AM_5
100
AcDbLine
 10
8.348770917506042
 20
-0.0000000000000027
 30
0.0
 11
8.348770917506044
 21
5.499999999999992
 31
0.0
  0
INSERT
  5
1ABF
330
18E2
100
AcDbEntity
  8
AM_5
100
AcDbBlockReference
  2
_Open30
 10
8.348770917506044
 20
5.499999999999992
 30
0.0
 41
2.5
 42
2.5
 43
2.5
 50
270.0
  0
POINT
  5
1AC0
330
18E2
100
AcDbEntity
  8
Defpoints
 62
     0
100
AcDbPoint
 10
-1.058368771512959
 20
0.0
 30
0.0
  0
POINT
  5
1AC1
330
18E2
100
AcDbEntity
  8
Defpoints
 62
     0
100
AcDbPoint
 10
-14.29999999999995
 20
5.5
 30
0.0
  0
POINT
  5
1AC2
330
18E2
100
AcDbEntity
  8
Defpoints
 62
     0
100
AcDbPoint
 10
8.348770917506044
 20
5.499999999999992
 30
0.0
  0
ENDBLK
  5
1950
330
18E2
100
AcDbEntity
  8
0
100
AcDbBlockEnd
  0
BLOCK
  5
1951
330
18EC
100
AcDbEntity
  8
0
100
AcDbBlockBegin
  2
*D34
 70
     1
 10
0.0
 20
0.0
 30
0.0
  3
*D34
  1

  0
LINE
  5
1AC3
330
18EC
100
AcDbEntity
  8
AM_5
100
AcDbLine
 10
-9.302316000000018
 20
9.0
 30
0.0
 11
18.88410404563706
 21
8.999999999999992
 31
0.0
  0
LINE
  5
1AC4
330
18EC
100
AcDbEntity
  8
AM_5
100
AcDbLine
 10
17.88410404563705
 20
-0.0000000000000054
 30
0.0
 11
17.88410404563705
 21
6.499999999999992
 31
0.0
  0
MTEXT
  5
1AC5
330
18EC
100
AcDbEntity
  8
AM_5
 62
     2
100
AcDbMText
 10
14.54083329952809
 20
-1.940903389671461
 30
0.0
 40
3.799999999999999
 41
0.0
 71
     5
 72
     1
  1
φ18
 11
0.0000000000000001
 21
1.0
 31
0.0
 73
     1
 44
1.0
1001
ACAD
1000
MTEXTBEGIN
1070
    73
1070
     1
1070
    44
1040
1.0
1070
    74
1070
     0
1000
MTEXTEND
  0
INSERT
  5
1AC6
330
18EC
100
AcDbEntity
  8
AM_5
100
AcDbBlockReference
  2
_Open30
 10
17.88410404563706
 20
8.999999999999992
 30
0.0
 41
2.5
 42
2.5
 43
2.5
 50
90.0
  0
POINT
  5
1AC7
330
18EC
100
AcDbEntity
  8
Defpoints
 62
     0
100
AcDbPoint
 10
-1.058368771512959
 20
0.0
 30
0.0
  0
POINT
  5
1AC8
330
18EC
100
AcDbEntity
  8
Defpoints
 62
     0
100
AcDbPoint
 10
-9.302316000000018
 20
9.0
 30
0.0
  0
POINT
  5
1AC9
330
18EC
100
AcDbEntity
  8
Defpoints
 62
     0
100
AcDbPoint
 10
17.88410404563706
 20
8.999999999999992
 30
0.0
  0
ENDBLK
  5
1952
330
18EC
100
AcDbEntity
  8
0
100
AcDbBlockEnd
  0
BLOCK
  5
1A3F
330
1A20
100
AcDbEntity
  8
0
100
AcDbBlockBegin
  2
*D39
 70
     1
 10
0.0
 20
0.0
 30
0.0
  3
*D39
  1

  0
LINE
  5
1ACA
330
1A20
100
AcDbEntity
  8
AM_5
100
AcDbLine
 10
0.7000000000000455
 20
25.0
 30
0.0
 11
26.36316689428157
 21
25.0
 31
0.0
  0
LINE
  5
1ACB
330
1A20
100
AcDbEntity
  8
AM_5
100
AcDbLine
 10
25.36316689428157
 20
-0.0000000000000079
 30
0.0
 11
25.36316689428157
 21
22.5
 31
0.0
  0
INSERT
  5
1ACC
330
1A20
100
AcDbEntity
  8
AM_5
100
AcDbBlockReference
  2
_Open30
 10
25.36316689428157
 20
25.0
 30
0.0
 41
2.5
 42
2.5
 43
2.5
 50
90.0
  0
MTEXT
  5
1ACD
330
1A20
100
AcDbEntity
  8
AM_5
 62
     2
100
AcDbMText
 10
21.96316689428156
 20
0.9655740149122497
 30
0.0
 40
3.799999999999999
 41
0.0
 71
     5
 72
     1
  1
%%c50
 11
0.0000000000000001
 21
1.0
 31
0.0
 73
     1
 44
1.0
1001
ACAD
1000
MTEXTBEGIN
1070
    73
1070
     1
1070
    44
1040
1.0
1070
    74
1070
     0
1000
MTEXTEND
  0
POINT
  5
1ACE
330
1A20
100
AcDbEntity
  8
Defpoints
 62
     0
100
AcDbPoint
 10
-2.43476263617083
 20
0.0
 30
0.0
  0
POINT
  5
1ACF
330
1A20
100
AcDbEntity
  8
Defpoints
 62
     0
100
AcDbPoint
 10
0.7000000000000455
 20
25.0
 30
0.0
  0
POINT
  5
1AD0
330
1A20
100
AcDbEntity
  8
Defpoints
 62
     0
100
AcDbPoint
 10
25.36316689428157
 20
25.0
 30
0.0
  0
ENDBLK
  5
1A40
330
1A20
100
AcDbEntity
  8
0
100
AcDbBlockEnd
  0
BLOCK
  5
1A41
330
1A29
100
AcDbEntity
  8
0
100
AcDbBlockBegin
  2
*D40
 70
     1
 10
0.0
 20
0.0
 30
0.0
  3
*D40
  1

  0
LINE
  5
1AD1
330
1A29
100
AcDbEntity
  8
AM_5
100
AcDbLine
 10
-39.29999999999998
 20
19.00000299999999
 30
0.0
 11
-39.29999999999998
 21
49.08076978646704
 31
0.0
  0
LINE
  5
1AD2
330
1A29
100
AcDbEntity
  8
AM_5
100
AcDbLine
 10
0.7000000000000455
 20
25.0
 30
0.0
 11
0.7000000000000469
 21
49.08076978646704
 31
0.0
  0
LINE
  5
1AD3
330
1A29
100
AcDbEntity
  8
AM_5
100
AcDbLine
 10
-36.79999999999998
 20
48.08076978646704
 30
0.0
 11
-1.799999999999953
 21
48.08076978646704
 31
0.0
  0
INSERT
  5
1AD4
330
1A29
100
AcDbEntity
  8
AM_5
100
AcDbBlockReference
  2
_Open30
 10
-39.29999999999998
 20
48.08076978646704
 30
0.0
 41
2.5
 42
2.5
 43
2.5
 50
180.0
  0
INSERT
  5
1AD5
330
1A29
100
AcDbEntity
  8
AM_5
100
AcDbBlockReference
  2
_Open30
 10
0.7000000000000469
 20
48.08076978646704
 30
0.0
 41
2.5
 42
2.5
 43
2.5
  0
MTEXT
  5
1AD6
330
1A29
100
AcDbEntity
  8
AM_5
 62
     2
100
AcDbMText
 10
-24.78718389158439
 20
51.48076978646704
 30
0.0
 40
3.799999999999999
 41
0.0
 71
     5
 72
     1
  1
40
 73
     1
 44
1.0
1001
ACAD
1000
MTEXTBEGIN
1070
    73
1070
     1
1070
    44
1040
1.0
1070
    74
1070
     0
1000
MTEXTEND
  0
POINT
  5
1AD7
330
1A29
100
AcDbEntity
  8
Defpoints
 62
     0
100
AcDbPoint
 10
-39.29999999999998
 20
19.00000299999999
 30
0.0
  0
POINT
  5
1AD8
330
1A29
100
AcDbEntity
  8
Defpoints
 62
     0
100
AcDbPoint
 10
0.7000000000000455
 20
25.0
 30
0.0
  0
POINT
  5
1AD9
330
1A29
100
AcDbEntity
  8
Defpoints
 62
     0
100
AcDbPoint
 10
0.7000000000000469
 20
48.08076978646704
 30
0.0
  0
ENDBLK
  5
1A42
330
1A29
100
AcDbEntity
  8
0
100
AcDbBlockEnd
  0
BLOCK
  5
1A43
330
1A33
100
AcDbEntity
  8
0
100
AcDbBlockBegin
  2
*D41
 70
     1
 10
0.0
 20
0.0
 30
0.0
  3
*D41
  1

  0
LINE
  5
1AE5
330
1A33
100
AcDbEntity
  8
AM_5
100
AcDbLine
 10
0.7000000000000437
 20
25.0
 30
0.0
 11
0.7000000000000473
 21
38.22960253485876
 31
0.0
  0
LINE
  5
1AE6
330
1A33
100
AcDbEntity
  8
AM_5
100
AcDbLine
 10
-3.913871747242183
 20
29.61387174724223
 30
0.0
 11
-8.654741664801317
 21
34.35474166480137
 31
0.0
  0
ARC
  5
1AE7
330
1A33
100
AcDbEntity
  8
AM_5
100
AcDbCircle
 10
0.7000000000000437
 20
25.0
 30
0.0
 40
12.22960253485875
100
AcDbArc
 50
101.7330088305608
 51
123.2669911694392
  0
INSERT
  5
1AE8
330
1A33
100
AcDbEntity
  8
AM_5
100
AcDbBlockReference
  2
_Open30
 10
0.7000000000000473
 20
37.22960253485876
 30
0.0
 41
2.5
 42
2.5
 43
2.5
 50
5.866504415280403
  0
INSERT
  5
1AE9
330
1A33
100
AcDbEntity
  8
AM_5
100
AcDbBlockReference
  2
_Open30
 10
-7.94763488361477
 20
33.64763488361481
 30
0.0
 41
2.5
 42
2.5
 43
2.5
 50
219.1334955847196
  0
MTEXT
  5
1AEA
330
1A33
100
AcDbEntity
  8
AM_5
 62
     2
100
AcDbMText
 10
-7.202170796682876
 20
41.08084198169403
 30
0.0
 40
3.799999999999999
 41
0.0
 71
     5
 72
     1
  1
45°
 73
     1
 44
1.0
1001
ACAD
1000
MTEXTBEGIN
1070
    73
1070
     1
1070
    44
1040
1.0
1070
    74
1070
     0
1000
MTEXTEND
  0
POINT
  5
1AEB
330
1A33
100
AcDbEntity
  8
Defpoints
 62
     0
100
AcDbPoint
 10
-2.465254050055463
 20
36.81288893367033
 30
0.0
  0
POINT
  5
1AEC
330
1A33
100
AcDbEntity
  8
Defpoints
 62
     0
100
AcDbPoint
 10
0.7000000000000437
 20
25.0
 30
0.0
  0
POINT
  5
1AED
330
1A33
100
AcDbEntity
  8
Defpoints
 62
     0
100
AcDbPoint
 10
0.7000000000000437
 20
22.87867965644034
 30
0.0
  0
POINT
  5
1AEE
330
1A33
100
AcDbEntity
  8
Defpoints
 62
     0
100
AcDbPoint
 10
0.7000000000000437
 20
25.0
 30
0.0
  0
POINT
  5
1AEF
330
1A33
100
AcDbEntity
  8
Defpoints
 62
     0
100
AcDbPoint
 10
-3.913871747242183
 20
29.61387174724223
 30
0.0
  0
ENDBLK
  5
1A44
330
1A33
100
AcDbEntity
  8
0
100
AcDbBlockEnd
  0
ENDSEC
  0
SECTION
  2
ENTITIES
  0
LINE
  5
1853
330
1F
100
AcDbEntity
  8
0
100
AcDbLine
 10
-8.299999999999954
 20
13.61160299999994
 30
0.0
 11
-7.072474999999712
 21
14.91586300000006
 31
0.0
  0
LINE
  5
1854
330
1F
100
AcDbEntity
  8
0
100
AcDbLine
 10
-22.29999999999995
 20
11.00000299999999
 30
0.0
 11
-38.2999999999999
 21
11.00000299999999
 31
0.0
  0
LINE
  5
1855
330
1F
100
AcDbEntity
  8
0
100
AcDbLine
 10
-38.29999999999996
 20
11.00000300000005
 30
0.0
 11
-39.29999999999996
 21
12.00000300000005
 31
0.0
  0
LINE
  5
1856
330
1F
100
AcDbEntity
  8
0
100
AcDbLine
 10
-31.16113099999984
 20
20.00000299999999
 30
0.0
 11
-38.29999999999996
 21
20.00000299999999
 31
0.0
  0
LINE
  5
1857
330
1F
100
AcDbEntity
  8
0
100
AcDbLine
 10
-8.299999999999954
 20
13.61160299999994
 30
0.0
 11
-8.299999999999954
 21
10.00000299999999
 31
0.0
  0
LINE
  5
1858
330
1F
100
AcDbEntity
  8
0
100
AcDbLine
 10
-9.299999999999954
 20
9.000002999999992
 30
0.0
 11
-13.29999999999995
 21
9.000002999999992
 31
0.0
  0
LINE
  5
1859
330
1F
100
AcDbEntity
  8
0
100
AcDbLine
 10
-13.29999999999995
 20
9.000002999999992
 30
0.0
 11
-13.29999999999995
 21
5.500002999999992
 31
0.0
  0
LINE
  5
185A
330
1F
100
AcDbEntity
  8
0
100
AcDbLine
 10
-13.29999999999995
 20
5.500002999999992
 30
0.0
 11
-19.29999999999995
 21
5.500002999999992
 31
0.0
  0
LINE
  5
185B
330
1F
100
AcDbEntity
  8
0
100
AcDbLine
 10
-19.29999999999995
 20
11.50000299999999
 30
0.0
 11
-19.29999999999995
 21
5.500002999999992
 31
0.0
  0
LINE
  5
185C
330
1F
100
AcDbEntity
  8
0
100
AcDbLine
 10
-19.29999999999995
 20
11.50000299999999
 30
0.0
 11
-22.29999999999995
 21
11.50000299999999
 31
0.0
  0
LINE
  5
185D
330
1F
100
AcDbEntity
  8
0
100
AcDbLine
 10
-22.29999999999995
 20
11.50000299999999
 30
0.0
 11
-22.29999999999995
 21
11.00000299999999
 31
0.0
  0
LINE
  5
185E
330
1F
100
AcDbEntity
  8
0
100
AcDbLine
 10
-39.29999999999996
 20
19.00000299999999
 30
0.0
 11
-39.29999999999996
 21
12.20000300000004
 31
0.0
  0
ARC
  5
185F
330
1F
100
AcDbEntity
  8
1
100
AcDbCircle
 10
-9.299999999999954
 20
10.00000299999999
 30
0.0
 40
1.0
100
AcDbArc
 50
270.0
 51
0.0
  0
ARC
  5
1860
330
1F
100
AcDbEntity
  8
1
100
AcDbCircle
 10
-38.29999999999996
 20
19.00000299999999
 30
0.0
 40
1.0
100
AcDbArc
 50
90.0
 51
180.0
  0
ARC
  5
1861
330
1F
100
AcDbEntity
  8
1
100
AcDbCircle
 10
-31.26279248992572
 20
35.49162643301779
 30
0.0
 40
15.49195699868031
100
AcDbArc
 50
270.3759896905256
 51
329.055274548045
  0
SPLINE
  5
1862
330
1F
100
AcDbEntity
  8
0
100
AcDbSpline
210
0.0
220
0.0
230
1.0
 70
     8
 71
     3
 72
    11
 73
     7
 74
     5
 42
0.0000000001
 43
0.0000000001
 44
0.0000000001
 40
0.0
 40
0.0
 40
0.0
 40
0.0
 40
0.745371846090646
 40
1.554494348376383
 40
2.402193933036029
 40
3.261163929711692
 40
3.261163929711692
 40
3.261163929711692
 40
3.261163929711692
 10
-7.072474999999712
 20
14.91586300000006
 30
0.0
 10
-6.90138200507755
 20
15.09602542692545
 30
0.0
 10
-6.544562660413163
 20
15.47175933197457
 30
0.0
 10
-5.989740736806368
 20
16.04912068551107
 30
0.0
 10
-5.411784330328032
 20
16.65675977845336
 30
0.0
 10
-5.022945374644592
 20
17.07202116594177
 30
0.0
 10
-4.827241999999841
 20
17.281023
 30
0.0
 11
-7.072474999999712
 21
14.91586300000006
 31
0.0
 11
-6.558686999999963
 21
15.4558639999999
 31
0.0
 11
-5.999137999999902
 21
16.04031599999996
 31
0.0
 11
-5.415171999999756
 21
16.65478999999993
 31
0.0
 11
-4.827241999999841
 21
17.281023
 31
0.0
  0
LINE
  5
1863
330
1F
100
AcDbEntity
  8
0
100
AcDbLine
 10
-20.16363599999977
 20
24.68853000000001
 30
0.0
 11
-20.1998709999998
 21
24.67561100000001
 31
0.0
  0
DIMENSION
  5
1865
330
1F
100
AcDbEntity
  8
AM_5
100
AcDbDimension
  2
*D27
 10
-59.18555330631807
 20
-10.99999999999999
 30
0.0
 11
-62.58592732206611
 21
-0.0000000000000013
 31
0.0
 70
    32
  1
φ<>
 71
     5
 42
22.0
  3
AM_JIS$0
100
AcDbAlignedDimension
 13
-32.17084999999997
 23
11.0
 33
0.0
 14
-32.17084999999997
 24
-11.0
 34
0.0
 50
270.0
100
AcDbRotatedDimension
1001
ACAD
1000
DSTYLE
1002
{
1070
    47
1040
0.021
1070
    48
1040
0.0
1070
   271
1070
     0
1070
   274
1070
     4
1002
}
  0
DIMENSION
  5
1866
330
1F
100
AcDbEntity
  8
AM_5
100
AcDbDimension
  2
*D28
 10
-33.0
 20
-24.67909531756561
 30
0.0
 11
-48.65240136425246
 21
-24.67909531756561
 31
0.0
 70
   160
  1
<>
 71
     5
 42
6.299999999999954
  3
AM_JIS$0
100
AcDbAlignedDimension
 13
-39.29999999999996
 23
0.0
 33
0.0
 14
-33.0
 24
-5.200000000000045
 34
0.0
100
AcDbRotatedDimension
1001
GENIUS_GENDTOL_13
1000

1000
h7
1000

1040
0.0
1001
ACAD
1000
DSTYLE
1002
{
1070
   271
1070
     1
1002
}
  0
DIMENSION
  5
1867
330
1F
100
AcDbEntity
  8
AM_5
100
AcDbDimension
  2
*D29
 10
-19.29999999999995
 20
-35.49663947552938
 30
0.0
 11
-29.29999999999996
 21
-32.09626545978135
 31
0.0
 70
    32
  1
<>
 71
     5
 42
20.0
  3
AM_JIS$0
100
AcDbAlignedDimension
 13
-39.29999999999996
 23
-12.26232854663692
 33
0.0
 14
-19.29999999999995
 24
-11.5
 34
0.0
100
AcDbRotatedDimension
1001
GENIUS_GENDTOL_13
1000

1000
h7
1000

1040
0.0
1001
ACAD
1000
DSTYLE
1002
{
1070
   271
1070
     0
1002
}
  0
DIMENSION
  5
1868
330
1F
100
AcDbEntity
  8
AM_5
100
AcDbDimension
  2
*D30
 10
-13.29999999999995
 20
-46.18063437292517
 30
0.0
 11
-26.29999999999995
 21
-42.78026035717714
 31
0.0
 70
    32
  1
<>
 71
     5
 42
26.0
  3
AM_JIS$0
100
AcDbAlignedDimension
 13
-39.29999999999996
 23
-12.26232854663692
 33
0.0
 14
-13.29999999999995
 24
-9.0
 34
0.0
100
AcDbRotatedDimension
1001
GENIUS_GENDTOL_13
1000

1000
h7
1000

1040
0.0
1001
ACAD
1000
DSTYLE
1002
{
1070
   271
1070
     0
1002
}
  0
LINE
  5
1869
330
1F
100
AcDbEntity
  8
AM_7
100
AcDbLine
 10
-42.8030491406605
 20
0.0
 30
0.0
 11
0.0
 21
0.0
 31
0.0
1001
GENIUS_GENODEF_13
1002
{
1000
HIER
1070
     0
1002
}
1002
{
1000
MANEDIT
1070
     0
1002
}
1002
{
1000
NOSEL
1070
     0
1002
}
1002
{
1000
BEHIND
1070
     0
1002
}
1002
{
1000
REACTOR
1002
}
1001
GENIUS_GENOBJ-N-CEN_13
1002
{
1000
OWNER
1000
GEN
1002
}
  0
DIMENSION
  5
186A
330
1F
100
AcDbEntity
  8
AM_5
100
AcDbDimension
  2
*D31
 10
-70.50123724751938
 20
20.00000000000001
 30
0.0
 11
-70.50123724751938
 21
6.835398576160855
 31
0.0
 70
   160
  1
φ<>
 71
     5
 42
40.0
  3
AM_JIS$0
100
AcDbAlignedDimension
 13
-42.8030491406605
 23
0.0
 33
0.0
 14
-38.29999999999996
 24
20.0
 34
0.0
 50
270.0
100
AcDbRotatedDimension
1001
GENIUS_GENDTOL_13
1000

1000
h7
1000

1040
0.0
1001
ACAD
1000
DSTYLE
1002
{
1070
   271
1070
     0
1070
    75
1070
     1
1070
   144
1040
2.0
1070
   173
1070
     1
1070
   342
1005
0
1070
   343
1005
3DC
1070
   344
1005
217
1002
}
  0
DIMENSION
  5
186B
330
1F
100
AcDbEntity
  8
AM_5
100
AcDbDimension
  2
*D32
 10
-46.63841957000215
 20
5.199999999999934
 30
0.0
 11
-46.63841957000215
 21
-0.000000000000062
 31
0.0
 70
   160
  1
<>
 71
     5
 42
10.39999999999998
  3
AM_JIS$0
100
AcDbAlignedDimension
 13
-38.29999999999996
 23
-5.200000000000045
 33
0.0
 14
-38.29999999999996
 24
5.199999999999931
 34
0.0
 50
270.0
100
AcDbRotatedDimension
1001
ACAD
1000
DSTYLE
1002
{
1070
    47
1040
0.2
1070
    48
1040
0.0
1070
   271
1070
     1
1070
   272
1070
     1
1070
   274
1070
     0
1002
}
  0
DIMENSION
  5
186C
330
1F
100
AcDbEntity
  8
AM_5
100
AcDbDimension
  2
*D33
 10
8.348770917506044
 20
5.499999999999992
 30
0.0
 11
8.511347250917424
 21
-2.428475189894811
 31
0.0
 70
   160
  1
φ<>
 71
     5
 42
10.99999999999999
  3
AM_JIS$0
100
AcDbAlignedDimension
 13
-1.058368771512959
 23
0.0
 33
0.0
 14
-14.29999999999995
 24
5.5
 34
0.0
 50
90.0
100
AcDbRotatedDimension
1001
GENIUS_GENDTOL_13
1000

1000
h7
1000

1040
0.0
1001
ACAD
1000
DSTYLE
1002
{
1070
    75
1070
     1
1070
   144
1040
2.0
1070
   173
1070
     1
1070
   271
1070
     0
1070
   279
1070
     1
1070
   342
1005
0
1070
   343
1005
3DC
1070
   344
1005
217
1002
}
  0
DIMENSION
  5
186D
330
1F
100
AcDbEntity
  8
AM_5
100
AcDbDimension
  2
*D34
 10
17.88410404563706
 20
8.999999999999992
 30
0.0
 11
17.94083329952809
 21
-1.940903389671461
 31
0.0
 70
   160
  1
φ<>
 71
     5
 42
18.0
  3
AM_JIS$0
100
AcDbAlignedDimension
 13
-1.058368771512959
 23
0.0
 33
0.0
 14
-9.302316000000018
 24
9.0
 34
0.0
 50
90.0
100
AcDbRotatedDimension
1001
GENIUS_GENDTOL_13
1000

1000
h7
1000

1040
0.0
1001
ACAD
1000
DSTYLE
1002
{
1070
    75
1070
     1
1070
   144
1040
2.0
1070
   173
1070
     1
1070
   271
1070
     0
1070
   279
1070
     1
1070
   342
1005
0
1070
   343
1005
3DC
1070
   344
1005
217
1002
}
  0
LINE
  5
186E
330
1F
100
AcDbEntity
  8
0
100
AcDbLine
 10
-8.299999999999954
 20
-13.61160299999994
 30
0.0
 11
-8.299999999999954
 21
-10.00000299999999
 31
0.0
  0
LINE
  5
186F
330
1F
100
AcDbEntity
  8
0
100
AcDbLine
 10
-19.29999999999995
 20
-11.50000299999999
 30
0.0
 11
-19.29999999999995
 21
-5.500002999999992
 31
0.0
  0
LINE
  5
1870
330
1F
100
AcDbEntity
  8
0
100
AcDbLine
 10
-13.29999999999995
 20
-5.500002999999992
 30
0.0
 11
-19.29999999999995
 21
-5.500002999999992
 31
0.0
  0
ARC
  5
1871
330
1F
100
AcDbEntity
  8
1
100
AcDbCircle
 10
-9.299999999999954
 20
-10.00000299999999
 30
0.0
 40
1.0
100
AcDbArc
 50
0.0
 51
90.0
  0
LINE
  5
1872
330
1F
100
AcDbEntity
  8
0
100
AcDbLine
 10
-13.29999999999995
 20
-9.000002999999992
 30
0.0
 11
-13.29999999999995
 21
-5.500002999999992
 31
0.0
  0
LINE
  5
1873
330
1F
100
AcDbEntity
  8
0
100
AcDbLine
 10
-9.299999999999954
 20
-9.000002999999992
 30
0.0
 11
-13.29999999999995
 21
-9.000002999999992
 31
0.0
  0
LINE
  5
1874
330
1F
100
AcDbEntity
  8
0
100
AcDbLine
 10
-22.29999999999995
 20
-11.00000299999999
 30
0.0
 11
-38.2999999999999
 21
-11.00000299999999
 31
0.0
  0
LINE
  5
1875
330
1F
100
AcDbEntity
  8
0
100
AcDbLine
 10
-38.2999999999999
 20
-11.00000299999999
 30
0.0
 11
-39.2999999999999
 21
-12.00000299999999
 31
0.0
  0
LINE
  5
1876
330
1F
100
AcDbEntity
  8
0
100
AcDbLine
 10
-22.29999999999995
 20
-11.50000299999999
 30
0.0
 11
-22.29999999999995
 21
-11.00000299999999
 31
0.0
  0
LINE
  5
1877
330
1F
100
AcDbEntity
  8
0
100
AcDbLine
 10
-19.29999999999995
 20
-11.50000299999999
 30
0.0
 11
-22.29999999999995
 21
-11.50000299999999
 31
0.0
  0
LINE
  5
1878
330
1F
100
AcDbEntity
  8
AM_0
100
AcDbLine
 10
-32.99999999999994
 20
5.200002999999981
 30
0.0
 11
-38.2999999999999
 21
5.200002999999981
 31
0.0
  0
LINE
  5
1879
330
1F
100
AcDbEntity
  8
AM_0
100
AcDbLine
 10
-38.2999999999999
 20
5.200002999999981
 30
0.0
 11
-39.29999999999996
 21
6.200003000000037
 31
0.0
  0
LINE
  5
187A
330
1F
100
AcDbEntity
  8
AM_0
100
AcDbLine
 10
-38.29999999999996
 20
11.00000300000005
 30
0.0
 11
-38.2999999999999
 21
5.200002999999981
 31
0.0
  0
LINE
  5
187B
330
1F
100
AcDbEntity
  8
0
100
AcDbLine
 10
-39.29999999999996
 20
19.00000299999999
 30
0.0
 11
-39.29999999999996
 21
6.200003000000037
 31
0.0
  0
LINE
  5
187C
330
1F
100
AcDbEntity
  8
AM_0
100
AcDbLine
 10
-32.99999999999994
 20
-5.199996999999996
 30
0.0
 11
-32.99999999999994
 21
5.200002999999981
 31
0.0
  0
LINE
  5
187D
330
1F
100
AcDbEntity
  8
AM_0
100
AcDbLine
 10
-38.2999999999999
 20
-5.199996999999996
 30
0.0
 11
-32.99999999999994
 21
-5.199996999999996
 31
0.0
  0
LINE
  5
187E
330
1F
100
AcDbEntity
  8
AM_0
100
AcDbLine
 10
-38.2999999999999
 20
-5.199997000000053
 30
0.0
 11
-38.2999999999999
 21
-11.00000299999999
 31
0.0
  0
LINE
  5
187F
330
1F
100
AcDbEntity
  8
AM_0
100
AcDbLine
 10
-39.29999999999996
 20
-6.199997000000053
 30
0.0
 11
-38.2999999999999
 21
-5.199996999999996
 31
0.0
  0
LINE
  5
1880
330
1F
100
AcDbEntity
  8
0
100
AcDbLine
 10
-39.29999999999996
 20
-6.199997000000053
 30
0.0
 11
-39.29999999999996
 21
-13.55704743556366
 31
0.0
  0
LINE
  5
1881
330
1F
100
AcDbEntity
  8
0
100
AcDbLine
 10
-22.29999999999995
 20
11.50000299999999
 30
0.0
 11
-22.29999999999995
 21
-10.99999700000001
 31
0.0
  0
LINE
  5
1882
330
1F
100
AcDbEntity
  8
0
100
AcDbLine
 10
-19.29999999999995
 20
-11.49999700000001
 30
0.0
 11
-19.29999999999995
 21
11.50000299999999
 31
0.0
  0
LINE
  5
1883
330
1F
100
AcDbEntity
  8
0
100
AcDbLine
 10
-13.29999999999995
 20
-8.999997000000007
 30
0.0
 11
-13.29999999999995
 21
9.000002999999992
 31
0.0
  0
LINE
  5
1884
330
1F
100
AcDbEntity
  8
0
100
AcDbLine
 10
-8.302316000000018
 20
11.04143199999998
 30
0.0
 11
-8.302316000000018
 21
-9.999997000000007
 31
0.0
  0
LINE
  5
1886
330
1F
100
AcDbEntity
  8
0
100
AcDbLine
 10
0.0
 20
-24.67597599999999
 30
0.0
 11
0.0
 21
22.1786796564403
 31
0.0
  0
LINE
  5
1889
330
1F
100
AcDbEntity
  8
0
100
AcDbLine
 10
-3.913871747242183
 20
18.26480790919811
 30
0.0
 11
-8.299999999999954
 21
13.611603
 31
0.0
  0
LINE
  5
188A
330
1F
100
AcDbEntity
  8
0
100
AcDbLine
 10
-16.39534099999991
 20
28.300003
 30
0.0
 11
-7.349060838044067
 21
28.300003
 31
0.0
  0
ARC
  5
188C
330
1F
100
AcDbEntity
  8
1
100
AcDbCircle
 10
-16.39534099999991
 20
26.30000300000001
 30
0.0
 40
2.0
100
AcDbArc
 50
90.0
 51
142.2117433308245
  0
LINE
  5
188F
330
1F
100
AcDbEntity
  8
0
100
AcDbLine
 10
-8.299999999999954
 20
-13.61160299999994
 30
0.0
 11
-7.072474999999712
 21
-14.91586300000006
 31
0.0
  0
LINE
  5
1890
330
1F
100
AcDbEntity
  8
0
100
AcDbLine
 10
-31.16113099999984
 20
-20.00000299999999
 30
0.0
 11
-38.29999999999996
 21
-20.00000299999999
 31
0.0
  0
ARC
  5
1891
330
1F
100
AcDbEntity
  8
1
100
AcDbCircle
 10
-38.29999999999996
 20
-19.00000299999999
 30
0.0
 40
1.0
100
AcDbArc
 50
180.0
 51
270.0
  0
ARC
  5
1892
330
1F
100
AcDbEntity
  8
1
100
AcDbCircle
 10
-31.26279248992572
 20
-35.49162643301779
 30
0.0
 40
15.49195699868031
100
AcDbArc
 50
30.94472545195501
 51
89.62401030947443
  0
SPLINE
  5
1893
330
1F
100
AcDbEntity
  8
0
100
AcDbSpline
210
0.0
220
0.0
230
1.0
 70
     8
 71
     3
 72
    11
 73
     7
 74
     5
 42
0.0000000001
 43
0.0000000001
 44
0.0000000001
 40
0.0
 40
0.0
 40
0.0
 40
0.0
 40
0.745371846090646
 40
1.554494348376383
 40
2.402193933036029
 40
3.261163929711692
 40
3.261163929711692
 40
3.261163929711692
 40
3.261163929711692
 10
-7.072474999999712
 20
-14.91586300000006
 30
0.0
 10
-6.90138200507755
 20
-15.09602542692548
 30
0.0
 10
-6.544562660413163
 20
-15.47175933197457
 30
0.0
 10
-5.989740736806368
 20
-16.04912068551107
 30
0.0
 10
-5.411784330328032
 20
-16.65675977845336
 30
0.0
 10
-5.022945374644592
 20
-17.07202116594179
 30
0.0
 10
-4.827241999999841
 20
-17.281023
 30
0.0
 11
-7.072474999999712
 21
-14.91586300000006
 31
0.0
 11
-6.558686999999963
 21
-15.4558639999999
 31
0.0
 11
-5.999137999999902
 21
-16.04031599999996
 31
0.0
 11
-5.415171999999756
 21
-16.65478999999993
 31
0.0
 11
-4.827241999999841
 21
-17.281023
 31
0.0
  0
LINE
  5
1894
330
1F
100
AcDbEntity
  8
0
100
AcDbLine
 10
-20.16363599999977
 20
-24.68853000000001
 30
0.0
 11
-20.1998709999998
 21
-24.67561100000001
 31
0.0
  0
LINE
  5
1895
330
1F
100
AcDbEntity
  8
0
100
AcDbLine
 10
-4.120328999999969
 20
-27.30143299999998
 30
0.0
 11
-4.408178999999904
 21
-27.80000300000001
 31
0.0
  0
LINE
  5
1896
330
1F
100
AcDbEntity
  8
0
100
AcDbLine
 10
-4.120328999999969
 20
-27.30143299999998
 30
0.0
 11
-2.469171999999957
 21
-27.30143299999998
 31
0.0
  0
LINE
  5
1897
330
1F
100
AcDbEntity
  8
0
100
AcDbLine
 10
-2.469171999999957
 20
-27.30143299999998
 30
0.0
 11
0.0
 21
-24.67597599999999
 31
0.0
  0
LINE
  5
1898
330
1F
100
AcDbEntity
  8
0
100
AcDbLine
 10
0.0
 20
-22.43044600000002
 30
0.0
 11
-8.299999999999954
 21
-13.611603
 31
0.0
  0
LINE
  5
1899
330
1F
100
AcDbEntity
  8
0
100
AcDbLine
 10
-16.39534099999991
 20
-28.300003
 30
0.0
 11
-5.27420399999994
 21
-28.300003
 31
0.0
  0
ARC
  5
189A
330
1F
100
AcDbEntity
  8
1
100
AcDbCircle
 10
-5.27420399999994
 20
-27.300003
 30
0.0
 40
0.9999996503124391
100
AcDbArc
 50
270.0
 51
329.9999884324234
  0
ARC
  5
189B
330
1F
100
AcDbEntity
  8
1
100
AcDbCircle
 10
-16.39534099999991
 20
-26.30000300000001
 30
0.0
 40
2.0
100
AcDbArc
 50
217.7882566691755
 51
270.0
  0
LINE
  5
1A0F
330
1F
100
AcDbEntity
  8
AM_0
100
AcDbLine
 10
-10.64906383804407
 20
25.0
 30
0.0
 11
-10.64906383804407
 21
22.87867965644034
 31
0.0
  0
LINE
  5
1A10
330
1F
100
AcDbEntity
  8
AM_0
100
AcDbLine
 10
-10.64906383804407
 20
22.87867965644034
 30
0.0
 11
-6.035192090801842
 21
18.26480790919811
 31
0.0
  0
LINE
  5
1A11
330
1F
100
AcDbEntity
  8
AM_0
100
AcDbLine
 10
-3.913871747242183
 20
18.26480790919811
 30
0.0
 11
0.7000000000000455
 21
22.87867965644034
 31
0.0
  0
LINE
  5
1A12
102
{ACAD_REACTORS
330
1A1E
102
}
330
1F
100
AcDbEntity
  8
AM_0
100
AcDbLine
 10
0.7000000000000455
 20
22.87867965644034
 30
0.0
 11
0.7000000000000455
 21
25.0
 31
0.0
  0
LINE
  5
1A13
102
{ACAD_REACTORS
330
1A18
330
1A1B
330
1A1E
102
}
330
1F
100
AcDbEntity
  8
AM_0
100
AcDbLine
 10
0.7000000000000455
 20
25.0
 30
0.0
 11
-3.913871747242183
 21
29.61387174724223
 31
0.0
  0
LINE
  5
1A14
330
1F
100
AcDbEntity
  8
AM_0
100
AcDbLine
 10
-3.913871747242183
 20
29.61387174724223
 30
0.0
 11
-6.035192090801842
 21
29.61387174724223
 31
0.0
  0
LINE
  5
1A15
330
1F
100
AcDbEntity
  8
AM_0
100
AcDbLine
 10
-6.035192090801842
 20
29.61387174724223
 30
0.0
 11
-10.64906383804407
 21
25.0
 31
0.0
  0
DIMENSION
  5
1A16
102
{ACAD_XDICTIONARY
360
1A17
102
}
102
{ACAD_REACTORS
330
1A18
102
}
330
1F
100
AcDbEntity
  8
AM_5
100
AcDbDimension
  2
*D39
 10
25.36316689428157
 20
25.0
 30
0.0
 11
25.36316689428157
 21
0.9655740149122493
 31
0.0
 70
   160
  1
%%c<>
 71
     5
 42
50.0
  3
AM_JIS$0
100
AcDbAlignedDimension
 13
-2.43476263617083
 23
0.0
 33
0.0
 14
0.7000000000000455
 24
25.0
 34
0.0
 50
90.0
100
AcDbRotatedDimension
1001
ACAD
1000
DSTYLE
1002
{
1070
    75
1070
     1
1070
   144
1040
2.0
1070
   173
1070
     1
1070
   179
1070
     0
1070
   271
1070
     0
1070
   343
1005
3DC
1002
}
  0
DIMENSION
  5
1A19
102
{ACAD_XDICTIONARY
360
1A1A
102
}
102
{ACAD_REACTORS
330
1A1B
102
}
330
1F
100
AcDbEntity
  8
AM_5
100
AcDbDimension
  2
*D40
 10
0.7000000000000469
 20
48.08076978646704
 30
0.0
 11
-24.78718389158439
 21
48.08076978646704
 31
0.0
 70
   160
 71
     5
 42
40.00000000000002
  3
AM_JIS$0
100
AcDbAlignedDimension
 13
-39.29999999999998
 23
19.00000299999999
 33
0.0
 14
0.7000000000000455
 24
25.0
 34
0.0
100
AcDbRotatedDimension
1001
ACAD
1000
DSTYLE
1002
{
1070
   179
1070
     0
1070
   271
1070
     0
1002
}
  0
DIMENSION
  5
1A1C
102
{ACAD_XDICTIONARY
360
1A1D
102
}
102
{ACAD_REACTORS
330
1A1E
102
}
330
1F
100
AcDbEntity
  8
AM_5
100
AcDbDimension
  2
*D41
 10
-3.913871747242183
 20
29.61387174724223
 30
0.0
 11
-4.622227705387981
 21
35.83068246979236
 31
0.0
 70
   162
 71
     5
 42
0.7853981633974483
  3
AM_JIS$2
100
AcDb2LineAngularDimension
 13
0.7000000000000455
 23
22.87867965644034
 33
0.0
 14
0.7000000000000455
 24
25.0
 34
0.0
 15
0.7000000000000455
 25
25.0
 35
0.0
 16
-2.465254050055463
 26
36.81288893367033
 36
0.0
1001
ACAD_DIMASSOC_DIMLFAC
1040
1.0
1001
ACAD_DIMASSOC_CALC_DIMLFAC
1040
1.0
1001
ACAD_DIMASSOC_OVERRIDDEN_DIMLFAC
1040
1.0
1001
ACAD
1000
DSTYLE
1002
{
1070
   144
1040
1.0
1070
   179
1070
     0
1070
   271
1070
     0
1070
   279
1070
     1
1002
}
  0
LINE
  5
1A1F
330
1F
100
AcDbEntity
  8
AM_0
100
AcDbLine
 10
-6.035192090801842
 20
18.26480790919811
 30
0.0
 11
-3.913871747242183
 21
18.26480790919811
 31
0.0
  0
TEXT
  5
1A82
330
1F
100
AcDbEntity
  8
AM_0
100
AcDbText
 10
-33.96559602553873
 20
-55.57090725140955
 30
0.0
 40
3.799999999999999
  1
%%uWGC3050RS
  7
ACISOTS
100
AcDbText
  0
ENDSEC
  0
SECTION
  2
OBJECTS
  0
DICTIONARY
  5
C
330
0
100
AcDbDictionary
281
     1
  3
ACAD_COLOR
350
BE
  3
ACAD_GROUP
350
D
  3
ACAD_LAYOUT
350
1A
  3
ACAD_MATERIAL
350
BD
  3
ACAD_MLINESTYLE
350
17
  3
ACAD_PLOTSETTINGS
350
19
  3
ACAD_PLOTSTYLENAME
350
E
  3
ACAD_TABLESTYLE
350
11A
  3
ACDBHEADERROUNDTRIPXREC
350
1B02
  3
AcDbVariableDictionary
350
94
  3
AcmDictionary
350
5B
  3
AMG
350
41
  3
AMGSNAPSETTINGS
350
1B8
  3
DWGPROPS
350
1B01
  0
DICTIONARY
  5
34B
330
2
100
AcDbDictionary
280
     1
281
     1
  3
AMLAYER_GROUPCOLORS
360
34C
  0
DICTIONARY
  5
8F
330
1F
100
AcDbDictionary
280
     1
281
     1
  0
DICTIONARY
  5
1A17
330
1A16
100
AcDbDictionary
280
     1
281
     1
  3
ACAD_DIMASSOC
360
1A18
  0
DICTIONARY
  5
1A1A
330
1A19
100
AcDbDictionary
280
     1
281
     1
  3
ACAD_DIMASSOC
360
1A1B
  0
DICTIONARY
  5
1A1D
330
1A1C
100
AcDbDictionary
280
     1
281
     1
  3
ACAD_DIMASSOC
360
1A1E
  0
DICTIONARY
  5
BE
102
{ACAD_REACTORS
330
C
102
}
330
C
100
AcDbDictionary
281
     1
  0
DICTIONARY
  5
D
102
{ACAD_REACTORS
330
C
102
}
330
C
100
AcDbDictionary
281
     1
  0
DICTIONARY
  5
1A
102
{ACAD_REACTORS
330
C
102
}
330
C
100
AcDbDictionary
281
     1
  3
Model
350
22
  3
レイアウト1
350
1E
  3
レイアウト2
350
26
  0
DICTIONARY
  5
BD
102
{ACAD_REACTORS
330
C
102
}
330
C
100
AcDbDictionary
281
     1
  0
DICTIONARY
  5
17
102
{ACAD_REACTORS
330
C
102
}
330
C
100
AcDbDictionary
281
     1
  3
Standard
350
18
  0
DICTIONARY
  5
19
102
{ACAD_REACTORS
330
C
102
}
330
C
100
AcDbDictionary
281
     1
  0
ACDBDICTIONARYWDFLT
  5
E
102
{ACAD_REACTORS
330
C
102
}
330
C
100
AcDbDictionary
281
     1
  3
Normal
350
F
100
AcDbDictionaryWithDefault
340
F
  0
DICTIONARY
  5
11A
102
{ACAD_REACTORS
330
C
102
}
330
C
100
AcDbDictionary
281
     1
  3
Standard
350
11B
  0
DICTIONARY
  5
1B02
102
{ACAD_REACTORS
330
C
102
}
330
C
100
AcDbDictionary
281
     1
  0
DICTIONARY
  5
94
102
{ACAD_REACTORS
330
C
102
}
330
C
100
AcDbDictionary
281
     1
  3
CTABLESTYLE
350
138
  3
DIMASSOC
350
96
  3
INDEXCTL
350
95
  3
PROJECTNAME
350
1AFF
  0
DICTIONARY
  5
5B
102
{ACAD_REACTORS
330
C
102
}
330
C
100
AcDbDictionary
281
     1
  3
AcmBOM
350
1B5
  3
AcmStdDictionary
350
61
  3
AMDTSECTSYM_ARROWCOLOR
350
123
  0
DICTIONARY
  5
41
102
{ACAD_REACTORS
330
C
102
}
330
C
100
AcDbDictionary
281
     1
  0
DICTIONARY
  5
1B8
102
{ACAD_REACTORS
330
C
102
}
330
C
100
AcDbDictionary
281
     1
  0
XRECORD
  5
1B01
102
{ACAD_REACTORS
330
C
102
}
330
C
100
AcDbXrecord
280
     1
  1
DWGPROPS COOKIE
  2

  3

  4

  6

  7

  8

  9

300
AmdtFileType=84
301
=
302
=
303
=
304
=
305
=
306
=
307
=
308
=
309
=
 40
0.0131899189814815
 41
2455544.365957755
 42
2455555.409109873
  1

 90
        1
  0
DICTIONARY
  5
34C
102
{ACAD_REACTORS
330
34B
102
}
330
34B
100
AcDbDictionary
280
     1
281
     1
  0
DIMASSOC
  5
1A18
102
{ACAD_REACTORS
330
1A17
102
}
330
1A17
100
AcDbDimAssoc
330
1A16
 90
        2
 70
     0
 71
     0
  1
AcDbOsnapPointRef
 72
    13
331
1A13
 73
     0
 91
        0
 40
0.0
 10
0.0
 20
0.0
 30
2.000000000000000E+50
 75
     0
  0
DIMASSOC
  5
1A1B
102
{ACAD_REACTORS
330
1A1A
102
}
330
1A1A
100
AcDbDimAssoc
330
1A19
 90
        2
 70
     0
 71
     0
  1
AcDbOsnapPointRef
 72
    13
331
1A13
 73
     0
 91
        0
 40
0.0
 10
0.0
 20
0.0
 30
2.000000000000000E+50
 75
     0
  0
DIMASSOC
  5
1A1E
102
{ACAD_REACTORS
330
1A1D
102
}
330
1A1D
100
AcDbDimAssoc
330
1A1C
 90
       15
 70
     1
 71
     0
  1
AcDbOsnapPointRef
 72
    13
331
1A12
 73
     2
 91
        0
 40
0.0
 10
0.0
 20
0.0
 30
2.000000000000000E+50
 75
     0
  1
AcDbOsnapPointRef
 72
     1
331
1A12
 73
     2
 91
        0
 40
0.0
 10
0.0
 20
0.0
 30
2.000000000000000E+50
 75
     0
  1
AcDbOsnapPointRef
 72
    13
331
1A13
 73
     2
 91
        0
 40
0.0
 10
0.0
 20
0.0
 30
2.000000000000000E+50
 75
     0
  1
AcDbOsnapPointRef
 72
     1
331
1A13
 73
     2
 91
        0
 40
0.0
 10
0.0
 20
0.0
 30
2.000000000000000E+50
 75
     0
  0
LAYOUT
  5
22
102
{ACAD_XDICTIONARY
360
1B05
102
}
102
{ACAD_REACTORS
330
1A
102
}
330
1A
100
AcDbPlotSettings
  1

  2
SII LP-2150 (D-SCAN C2)
  4
User119
  6

 40
3.174999952316284
 41
3.174999952316284
 42
3.175003051757812
 43
3.17498779296875
 44
210.0579986572266
 45
296.9259948730469
 46
0.0
 47
0.0
 48
0.0
 49
0.0
140
0.0
141
0.0
142
1.0
143
1.580715189147934
 70
 11952
 72
     1
 73
     1
 74
     0
  7
sei_cad.ctb
 75
     0
147
0.6326250338234799
148
19.65895403440572
149
1.143774069319647
100
AcDbLayout
  1
Model
 70
     1
 71
     0
 10
0.0
 20
0.0
 11
12.0
 21
9.0
 12
0.0
 22
0.0
 32
0.0
 14
0.0
 24
0.0
 34
0.0
 15
0.0
 25
0.0
 35
0.0
146
0.0
 13
0.0
 23
0.0
 33
0.0
 16
1.0
 26
0.0
 36
0.0
 17
0.0
 27
1.0
 37
0.0
 76
     0
330
1F
1001
ACAD_PSEXT
1000
SII LP-2150 (D-SCAN C2)
1000
SII LP-2150 (D-SCAN C2)
1000
133.153.16.130#3000
1000

1070
     0
  0
LAYOUT
  5
1E
102
{ACAD_XDICTIONARY
360
1B03
102
}
102
{ACAD_REACTORS
330
1A
102
}
330
1A
100
AcDbPlotSettings
  1

  2

  4

  6

 40
0.0
 41
0.0
 42
0.0
 43
0.0
 44
0.0
 45
0.0
 46
0.0
 47
0.0
 48
0.0
 49
0.0
140
0.0
141
0.0
142
1.0
143
1.0
 70
   688
 72
     0
 73
     0
 74
     5
  7
sei_cad.ctb
 75
    16
147
1.0
148
0.0
149
0.0
100
AcDbLayout
  1
レイアウト1
 70
     1
 71
     1
 10
0.0
 20
0.0
 11
420.0
 21
297.0
 12
0.0
 22
0.0
 32
0.0
 14
1.000000000000000E+20
 24
1.000000000000000E+20
 34
1.000000000000000E+20
 15
-1.000000000000000E+20
 25
-1.000000000000000E+20
 35
-1.000000000000000E+20
146
0.0
 13
0.0
 23
0.0
 33
0.0
 16
1.0
 26
0.0
 36
0.0
 17
0.0
 27
1.0
 37
0.0
 76
     0
330
1B
  0
LAYOUT
  5
26
102
{ACAD_XDICTIONARY
360
1B07
102
}
102
{ACAD_REACTORS
330
1A
102
}
330
1A
100
AcDbPlotSettings
  1

  2

  4

  6

 40
0.0
 41
0.0
 42
0.0
 43
0.0
 44
0.0
 45
0.0
 46
0.0
 47
0.0
 48
0.0
 49
0.0
140
0.0
141
0.0
142
1.0
143
1.0
 70
   688
 72
     0
 73
     0
 74
     5
  7
sei_cad.ctb
 75
    16
147
1.0
148
0.0
149
0.0
100
AcDbLayout
  1
レイアウト2
 70
     1
 71
     2
 10
0.0
 20
0.0
 11
12.0
 21
9.0
 12
0.0
 22
0.0
 32
0.0
 14
0.0
 24
0.0
 34
0.0
 15
0.0
 25
0.0
 35
0.0
146
0.0
 13
0.0
 23
0.0
 33
0.0
 16
1.0
 26
0.0
 36
0.0
 17
0.0
 27
1.0
 37
0.0
 76
     0
330
23
  0
MLINESTYLE
  5
18
102
{ACAD_REACTORS
330
17
102
}
330
17
100
AcDbMlineStyle
  2
STANDARD
 70
     0
  3

 62
   256
 51
90.0
 52
90.0
 71
     2
 49
0.5
 62
   256
  6
BYLAYER
 49
-0.5
 62
   256
  6
BYLAYER
  0
ACDBPLACEHOLDER
  5
F
102
{ACAD_REACTORS
330
E
102
}
330
E
  0
TABLESTYLE
  5
11B
102
{ACAD_REACTORS
330
11A
102
}
330
11A
100
AcDbTableStyle
  3
Standard
 70
     0
 71
     0
 40
1.5
 41
1.5
280
     0
281
     0
  7
STANDARD
140
4.5
170
     2
 62
     0
 63
     7
283
     0
274
    -2
284
     1
 64
     0
275
    -2
285
     1
 65
     0
276
    -2
286
     1
 66
     0
277
    -2
287
     1
 67
     0
278
    -2
288
     1
 68
     0
279
    -2
289
     1
 69
     0
  7
STANDARD
140
6.0
170
     5
 62
     0
 63
     7
283
     0
274
    -2
284
     1
 64
     0
275
    -2
285
     1
 65
     0
276
    -2
286
     1
 66
     0
277
    -2
287
     1
 67
     0
278
    -2
288
     1
 68
     0
279
    -2
289
     1
 69
     0
  7
STANDARD
140
4.5
170
     5
 62
     0
 63
     7
283
     0
274
    -2
284
     1
 64
     0
275
    -2
285
     1
 65
     0
276
    -2
286
     1
 66
     0
277
    -2
287
     1
 67
     0
278
    -2
288
     1
 68
     0
279
    -2
289
     1
 69
     0
  0
DICTIONARYVAR
  5
138
102
{ACAD_REACTORS
330
94
102
}
330
94
100
DictionaryVariables
280
     0
  1
STANDARD
  0
DICTIONARYVAR
  5
96
102
{ACAD_REACTORS
330
94
102
}
330
94
100
DictionaryVariables
280
     0
  1
2
  0
DICTIONARYVAR
  5
95
102
{ACAD_REACTORS
330
94
102
}
330
94
100
DictionaryVariables
280
     0
  1
0
  0
DICTIONARYVAR
  5
1AFF
102
{ACAD_REACTORS
330
94
102
}
330
94
100
DictionaryVariables
280
     0
  1

  0
DICTIONARY
  5
1B5
102
{ACAD_REACTORS
330
5B
102
}
330
5B
100
AcDbDictionary
281
     1
  0
DICTIONARY
  5
61
102
{ACAD_REACTORS
330
5B
102
}
330
5B
100
AcDbDictionary
281
     1
  0
XRECORD
  5
123
102
{ACAD_REACTORS
330
5B
102
}
330
5B
100
AcDbXrecord
280
     1
 90
-1023410169
  0
DICTIONARY
  5
1B05
330
22
100
AcDbDictionary
280
     1
281
     1
  3
ACAD_XREC_ROUNDTRIP
360
1B06
  0
DICTIONARY
  5
1B03
330
1E
100
AcDbDictionary
280
     1
281
     1
  3
ACAD_XREC_ROUNDTRIP
360
1B04
  0
DICTIONARY
  5
1B07
330
26
100
AcDbDictionary
280
     1
281
     1
  3
ACAD_XREC_ROUNDTRIP
360
1B08
  0
XRECORD
  5
1B06
102
{ACAD_REACTORS
330
1B05
102
}
330
1B05
100
AcDbXrecord
280
     1
102
SHADEPLOT
 70
     0
102
SHADEPLOTRESLEVEL
 70
     2
102
SHADEPLOTCUSTOMDPI
 70
   300
  0
XRECORD
  5
1B04
102
{ACAD_REACTORS
330
1B03
102
}
330
1B03
100
AcDbXrecord
280
     1
102
SHADEPLOT
 70
     0
102
SHADEPLOTRESLEVEL
 70
     2
102
SHADEPLOTCUSTOMDPI
 70
   300
  0
XRECORD
  5
1B08
102
{ACAD_REACTORS
330
1B07
102
}
330
1B07
100
AcDbXrecord
280
     1
102
SHADEPLOT
 70
     0
102
SHADEPLOTRESLEVEL
 70
     2
102
SHADEPLOTCUSTOMDPI
 70
   300
  0
ENDSEC
  0
EOF
