  0
SECTION
  2
HEADER
  9
$ACADVER
  1
AC1015
  9
$ACADMAINTVER
 70
    20
  9
$DWGCODEPAGE
  3
ANSI_932
  9
$INSBASE
 10
0.0
 20
0.0
 30
0.0
  9
$EXTMIN
 10
-76.34571836552822
 20
-56.55734530389702
 30
-0.0015258207003583
  9
$EXTMAX
 10
25.67161630198234
 20
59.70823387075506
 30
0.0000000349246037
  9
$LIMMIN
 10
0.0
 20
0.0
  9
$LIMMAX
 10
420.0
 20
297.0
  9
$ORTHOMODE
 70
     0
  9
$REGENMODE
 70
     1
  9
$FILLMODE
 70
     1
  9
$QTEXTMODE
 70
     0
  9
$MIRRTEXT
 70
     1
  9
$LTSCALE
 40
1.0
  9
$ATTMODE
 70
     1
  9
$TEXTSIZE
 40
3.799999999999999
  9
$TRACEWID
 40
1.0
  9
$TEXTSTYLE
  7
ACISOTS
  9
$CLAYER
  8
AM_0
  9
$CELTYPE
  6
ByLayer
  9
$CECOLOR
 62
   256
  9
$CELTSCALE
 40
1.0
  9
$DISPSILH
 70
     0
  9
$DIMSCALE
 40
1.0
  9
$DIMASZ
 40
2.5
  9
$DIMEXO
 40
1.0
  9
$DIMDLI
 40
10.0
  9
$DIMRND
 40
0.0
  9
$DIMDLE
 40
0.0
  9
$DIMEXE
 40
1.0
  9
$DIMTP
 40
0.1
  9
$DIMTM
 40
0.1000000001
  9
$DIMTXT
 40
3.799999999999999
  9
$DIMCEN
 40
0.0
  9
$DIMTSZ
 40
0.0
  9
$DIMTOL
 70
     0
  9
$DIMLIM
 70
     0
  9
$DIMTIH
 70
     0
  9
$DIMTOH
 70
     0
  9
$DIMSE1
 70
     0
  9
$DIMSE2
 70
     0
  9
$DIMTAD
 70
     3
  9
$DIMZIN
 70
     8
  9
$DIMBLK
  1
Open30
  9
$DIMASO
 70
     1
  9
$DIMSHO
 70
     1
  9
$DIMPOST
  1

  9
$DIMAPOST
  1
"
  9
$DIMALT
 70
     0
  9
$DIMALTD
 70
     2
  9
$DIMALTF
 40
0.0393701
  9
$DIMLFAC
 40
1.0
  9
$DIMTOFL
 70
     1
  9
$DIMTVP
 40
0.0
  9
$DIMTIX
 70
     0
  9
$DIMSOXD
 70
     0
  9
$DIMSAH
 70
     0
  9
$DIMBLK1
  1

  9
$DIMBLK2
  1

  9
$DIMSTYLE
  2
AM_JIS
  9
$DIMCLRD
 70
   256
  9
$DIMCLRE
 70
   256
  9
$DIMCLRT
 70
     2
  9
$DIMTFAC
 40
0.71
  9
$DIMGAP
 40
1.5
  9
$DIMJUST
 70
     0
  9
$DIMSD1
 70
     0
  9
$DIMSD2
 70
     0
  9
$DIMTOLJ
 70
     0
  9
$DIMTZIN
 70
     8
  9
$DIMALTZ
 70
     0
  9
$DIMALTTZ
 70
     0
  9
$DIMUPT
 70
     0
  9
$DIMDEC
 70
     0
  9
$DIMTDEC
 70
     2
  9
$DIMALTU
 70
     2
  9
$DIMALTTD
 70
     2
  9
$DIMTXSTY
  7
STANDARD
  9
$DIMAUNIT
 70
     1
  9
$DIMADEC
 70
     0
  9
$DIMALTRND
 40
0.0
  9
$DIMAZIN
 70
     2
  9
$DIMDSEP
 70
    46
  9
$DIMATFIT
 70
     3
  9
$DIMFRAC
 70
     0
  9
$DIMLDRBLK
  1
Open30
  9
$DIMLUNIT
 70
     2
  9
$DIMLWD
 70
    -1
  9
$DIMLWE
 70
    -1
  9
$DIMTMOVE
 70
     0
  9
$LUNITS
 70
     2
  9
$LUPREC
 70
     2
  9
$SKETCHINC
 40
1.0
  9
$FILLETRAD
 40
2.5
  9
$AUNITS
 70
     0
  9
$AUPREC
 70
     0
  9
$MENU
  1
.
  9
$ELEVATION
 40
0.0
  9
$PELEVATION
 40
0.0
  9
$THICKNESS
 40
0.0
  9
$LIMCHECK
 70
     0
  9
$CHAMFERA
 40
2.5
  9
$CHAMFERB
 40
2.5
  9
$CHAMFERC
 40
20.0
  9
$CHAMFERD
 40
0.0
  9
$SKPOLY
 70
     0
  9
$TDCREATE
 40
2455544.365957755
  9
$TDUCREATE
 40
2455543.990957754
  9
$TDUPDATE
 40
2455555.419135556
  9
$TDUUPDATE
 40
2455555.044135556
  9
$TDINDWG
 40
0.0143153125
  9
$TDUSRTIMER
 40
0.0143153125
  9
$USRTIMER
 70
     1
  9
$ANGBASE
 50
0.0
  9
$ANGDIR
 70
     0
  9
$PDMODE
 70
     0
  9
$PDSIZE
 40
0.0
  9
$PLINEWID
 40
0.0
  9
$SPLFRAME
 70
     0
  9
$SPLINETYPE
 70
     6
  9
$SPLINESEGS
 70
    40
  9
$HANDSEED
  5
1DC2
  9
$SURFTAB1
 70
     6
  9
$SURFTAB2
 70
     6
  9
$SURFTYPE
 70
     6
  9
$SURFU
 70
     6
  9
$SURFV
 70
     6
  9
$UCSBASE
  2

  9
$UCSNAME
  2

  9
$UCSORG
 10
0.0
 20
0.0
 30
0.0
  9
$UCSXDIR
 10
1.0
 20
0.0
 30
0.0
  9
$UCSYDIR
 10
0.0
 20
1.0
 30
0.0
  9
$UCSORTHOREF
  2

  9
$UCSORTHOVIEW
 70
     0
  9
$UCSORGTOP
 10
0.0
 20
0.0
 30
0.0
  9
$UCSORGBOTTOM
 10
0.0
 20
0.0
 30
0.0
  9
$UCSORGLEFT
 10
0.0
 20
0.0
 30
0.0
  9
$UCSORGRIGHT
 10
0.0
 20
0.0
 30
0.0
  9
$UCSORGFRONT
 10
0.0
 20
0.0
 30
0.0
  9
$UCSORGBACK
 10
0.0
 20
0.0
 30
0.0
  9
$PUCSBASE
  2

  9
$PUCSNAME
  2

  9
$PUCSORG
 10
0.0
 20
0.0
 30
0.0
  9
$PUCSXDIR
 10
1.0
 20
0.0
 30
0.0
  9
$PUCSYDIR
 10
0.0
 20
1.0
 30
0.0
  9
$PUCSORTHOREF
  2

  9
$PUCSORTHOVIEW
 70
     0
  9
$PUCSORGTOP
 10
0.0
 20
0.0
 30
0.0
  9
$PUCSORGBOTTOM
 10
0.0
 20
0.0
 30
0.0
  9
$PUCSORGLEFT
 10
0.0
 20
0.0
 30
0.0
  9
$PUCSORGRIGHT
 10
0.0
 20
0.0
 30
0.0
  9
$PUCSORGFRONT
 10
0.0
 20
0.0
 30
0.0
  9
$PUCSORGBACK
 10
0.0
 20
0.0
 30
0.0
  9
$USERI1
 70
     0
  9
$USERI2
 70
     0
  9
$USERI3
 70
     0
  9
$USERI4
 70
     0
  9
$USERI5
 70
     0
  9
$USERR1
 40
0.0
  9
$USERR2
 40
0.0
  9
$USERR3
 40
0.0
  9
$USERR4
 40
0.0
  9
$USERR5
 40
0.0
  9
$WORLDVIEW
 70
     1
  9
$SHADEDGE
 70
     3
  9
$SHADEDIF
 70
    70
  9
$TILEMODE
 70
     1
  9
$MAXACTVP
 70
    64
  9
$PINSBASE
 10
0.0
 20
0.0
 30
0.0
  9
$PLIMCHECK
 70
     0
  9
$PEXTMIN
 10
1.000000000000000E+20
 20
1.000000000000000E+20
 30
1.000000000000000E+20
  9
$PEXTMAX
 10
-1.000000000000000E+20
 20
-1.000000000000000E+20
 30
-1.000000000000000E+20
  9
$PLIMMIN
 10
0.0
 20
0.0
  9
$PLIMMAX
 10
420.0
 20
297.0
  9
$UNITMODE
 70
     0
  9
$VISRETAIN
 70
     1
  9
$PLINEGEN
 70
     0
  9
$PSLTSCALE
 70
     1
  9
$TREEDEPTH
 70
  3020
  9
$CMLSTYLE
  2
Standard
  9
$CMLJUST
 70
     0
  9
$CMLSCALE
 40
20.0
  9
$PROXYGRAPHICS
 70
     1
  9
$MEASUREMENT
 70
     1
  9
$CELWEIGHT
370
    -1
  9
$ENDCAPS
280
     0
  9
$JOINSTYLE
280
     0
  9
$LWDISPLAY
290
     0
  9
$INSUNITS
 70
     4
  9
$HYPERLINKBASE
  1

  9
$STYLESHEET
  1

  9
$XEDIT
290
     1
  9
$CEPSNTYPE
380
     0
  9
$PSTYLEMODE
290
     1
  9
$FINGERPRINTGUID
  2
{BC041043-1805-4E51-B1F2-C8CAD53C0341}
  9
$VERSIONGUID
  2
{D50C952A-1AF6-43AA-989A-4D53DB934B92}
  9
$EXTNAMES
290
     1
  9
$PSVPSCALE
 40
0.0
  9
$OLESTARTUP
290
     0
  0
ENDSEC
  0
SECTION
  2
CLASSES
  0
CLASS
  1
ACDBDICTIONARYWDFLT
  2
AcDbDictionaryWithDefault
  3
ObjectDBX Classes
 90
        0
280
     0
281
     0
  0
CLASS
  1
ACDBPLACEHOLDER
  2
AcDbPlaceHolder
  3
ObjectDBX Classes
 90
        0
280
     0
281
     0
  0
CLASS
  1
LAYOUT
  2
AcDbLayout
  3
ObjectDBX Classes
 90
        0
280
     0
281
     0
  0
CLASS
  1
ACME_DOCUMENT
  2
AcMeDbDoc
  3
AcMeServices
 90
        0
280
     0
281
     0
  0
CLASS
  1
AMGSETTINGSOBJ
  2
AmgSettingsObj
  3
"AcadM|Product Description: AutoCAD Mechanical 2000|Company: Autodesk"
 90
        0
280
     0
281
     0
  0
CLASS
  1
ACMESCOPE
  2
AcMeScope
  3
AcMeServices
 90
        0
280
     0
281
     0
  0
CLASS
  1
ACMECOMMANDHISTORY
  2
AcMeCommandHistory
  3
AcMeServices
 90
        0
280
     0
281
     0
  0
CLASS
  1
ACIMSYSVARMAN
  2
AcImSysVarManager
  3
AcMeServices
 90
        0
280
     0
281
     0
  0
CLASS
  1
ACIMREALSYSVAR
  2
AcImRealSysVar
  3
AcMeServices
 90
        0
280
     0
281
     0
  0
CLASS
  1
ACIMINTSYSVAR
  2
AcImIntSysVar
  3
AcMeServices
 90
        0
280
     0
281
     0
  0
CLASS
  1
ACMEDRAWINGMAN
  2
AcMeDrawingMan
  3
AcMeServices
 90
        0
280
     0
281
     0
  0
CLASS
  1
ACMEVIEW
  2
AcMeView
  3
AcMeServices
 90
        0
280
     0
281
     0
  0
CLASS
  1
ACDBENTITYCACHE
  2
AcMeEntityCache
  3
AcMeServices
 90
        0
280
     0
281
     0
  0
CLASS
  1
GSMANAGER
  2
AcMeGSManager
  3
AcMeServices
 90
        0
280
     0
281
     0
  0
CLASS
  1
AMDTINTERNALREACTOR
  2
AmdtInternalReactor
  3
AcMeServices
 90
        0
280
     0
281
     0
  0
CLASS
  1
ACMESTATEMGR
  2
AcMeStateMgr
  3
AcMeServices
 90
        0
280
     0
281
     0
  0
CLASS
  1
ACGREFMASTER
  2
AcGrefMaster
  3
AcAttribServices
 90
        0
280
     0
281
     0
  0
CLASS
  1
ACME_DATABASE
  2
AcMeDbDatabase
  3
AcMeServices
 90
        0
280
     0
281
     0
  0
CLASS
  1
ACRFINSADJUSTERMGR
  2
AcRfInsAdjusterMgr
  3
AcMeServices
 90
        0
280
     0
281
     0
  0
CLASS
  1
ACGREFACADMASTER
  2
AcGrefacadMaster
  3
AcGrefServices
 90
        0
280
     0
281
     0
  0
CLASS
  1
AMIMASTER
  2
AmiMaster
  3
AmiServices
 90
        0
280
     0
281
     0
  0
CLASS
  1
ACMDATADICTIONARY
  2
AcmDataDictionary
  3
"AcmSymBB|Product Description: AutoCAD Mechanical 2004 DX|Company: Autodesk"
 90
        0
280
     0
281
     0
  0
CLASS
  1
ACMDATAENTRYBLOCK
  2
AcmDataEntryBlock
  3
"AcmSymBB|Product Description: AutoCAD Mechanical 2004 DX|Company: Autodesk"
 90
        0
280
     0
281
     0
  0
CLASS
  1
ACIMSTRSYSVAR
  2
AcImStrSysVar
  3
AcMeServices
 90
        0
280
     0
281
     0
  0
CLASS
  1
ACMSTANDARDISO
  2
AcmStandardISO
  3
"Amdt_StdImp|Product Description: AutoCAD Mechanical 2004 DX|Company: Autodesk"
 90
        0
280
     0
281
     0
  0
CLASS
  1
AMGOBJPROPCFG
  2
AmgObjPropCfg
  3
"AmgLay|Product Description: AutoCAD Mechanical 2000|Company: Autodesk"
 90
        1
280
     0
281
     0
  0
CLASS
  1
AMDTEDGESTANDARDISO
  2
AmdtEdgeStdISO
  3
"Amdt_StdImp|Product Description: AutoCAD Mechanical 2004 DX|Company: Autodesk"
 90
        0
280
     0
281
     0
  0
CLASS
  1
ACMSURFSTANDARDISO
  2
AcmSurfTextStdISO
  3
"Amdt_StdImp|Product Description: AutoCAD Mechanical 2004 DX|Company: Autodesk"
 90
        0
280
     0
281
     0
  0
CLASS
  1
ACMFCFSTANDARDISO
  2
AcmFCFStdISO
  3
"Amdt_StdImp|Product Description: AutoCAD Mechanical 2004 DX|Company: Autodesk"
 90
        0
280
     0
281
     0
  0
CLASS
  1
ACMWELDSTANDARDISO
  2
AcmWeldingStdISO
  3
"Amdt_StdImp|Product Description: AutoCAD Mechanical 2004 DX|Company: Autodesk"
 90
        0
280
     0
281
     0
  0
CLASS
  1
ACMIDSTANDARDISO
  2
AcmIdStdISO
  3
"Amdt_StdImp|Product Description: AutoCAD Mechanical 2004 DX|Company: Autodesk"
 90
        0
280
     0
281
     0
  0
CLASS
  1
ACMDATUMSTANDARDISO
  2
AcmDatumStdISO
  3
"Amdt_StdImp|Product Description: AutoCAD Mechanical 2004 DX|Company: Autodesk"
 90
        0
280
     0
281
     0
  0
CLASS
  1
ACMBOMSTANDARDISO
  2
AcmBOMStdISO
  3
"Amdt_StdImp|Product Description: AutoCAD Mechanical 2004 DX|Company: Autodesk"
 90
        0
280
     0
281
     0
  0
CLASS
  1
ACMDETAILSTANDARDISO
  2
AmdtDetailSymStdISO
  3
"Amdt_StdImp|Product Description: AutoCAD Mechanical 2004 DX|Company: Autodesk"
 90
        0
280
     0
281
     0
  0
CLASS
  1
ACMSECTIONSTANDARDISO
  2
AmdtSectionSymStdISO
  3
"Amdt_StdImp|Product Description: AutoCAD Mechanical 2004 DX|Company: Autodesk"
 90
        0
280
     0
281
     0
  0
CLASS
  1
ACMCENTERLINESTANDARDISO
  2
AmdtCenterLineStdISO
  3
"Amdt_StdImp|Product Description: AutoCAD Mechanical 2004 DX|Company: Autodesk"
 90
        0
280
     0
281
     0
  0
CLASS
  1
ACMNOTESTANDARDISO
  2
AmdtNoteStdISO
  3
"Amdt_StdImp|Product Description: AutoCAD Mechanical 2004 DX|Company: Autodesk"
 90
        0
280
     0
281
     0
  0
CLASS
  1
ACAMGLAYSTD
  2
AcAmgLayStd
  3
"AcAmgLayStd|Product Description: AutoCAD Mechanical 2000|Company: Autodesk"
 90
        0
280
     0
281
     0
  0
CLASS
  1
ACAMGDIMSTD
  2
AcAmgDimStd
  3
"AcAmgDimStd|Product Description: AutoCAD Mechanical 2000|Company: Autodesk"
 90
        0
280
     0
281
     0
  0
CLASS
  1
ACAMGHOLECHARTSTDISO
  2
AcAmgHoleChartStdISO
  3
ACMSYMBB_MODULE_NAME
 90
        0
280
     0
281
     0
  0
CLASS
  1
ACAMGTITLESTD
  2
AcAmgTitleStd
  3
"TITLEAPP"
 90
        0
280
     0
281
     0
  0
CLASS
  1
LAYER_INDEX
  2
AcDbLayerIndex
  3
ObjectDBX Classes
 90
    32768
280
     0
281
     0
  0
CLASS
  1
IDBUFFER
  2
AcDbIdBuffer
  3
ObjectDBX Classes
 90
    32768
280
     0
281
     0
  0
CLASS
  1
DICTIONARYVAR
  2
AcDbDictionaryVar
  3
ObjectDBX Classes
 90
        0
280
     0
281
     0
  0
CLASS
  1
AM_DRAWING_MGR
  2
AcDmDwgMgr
  3
AcMechDwgViewMgmt
 90
        0
280
     0
281
     0
  0
CLASS
  1
AM_DWG_DOCUMENT
  2
AcDmDwgDocument
  3
AcMechDwgViewMgmt
 90
        0
280
     0
281
     0
  0
CLASS
  1
AM_DWG_SHEET
  2
AcDmSheet
  3
AcMechDwgViewMgmt
 90
        0
280
     0
281
     0
  0
CLASS
  1
AM_VIEWDIMPARMAP
  2
AcDmViewDimParMap
  3
AcMechDwgViewMgmt
 90
        0
280
     0
281
     0
  0
CLASS
  1
AM_DWGMGR_NAME
  2
AcDmDwgMgrName
  3
AcMechDwgViewMgmt
 90
        0
280
     0
281
     0
  0
CLASS
  1
AMDTMENUSTATEMGR
  2
AmdtMenuStateMgr
  3
McadcomServices
 90
        0
280
     0
281
     0
  0
CLASS
  1
AMDTMCOMMENUSTATE
  2
AmdtMcomMenuState
  3
McadcomServices
 90
        0
280
     0
281
     0
  0
CLASS
  1
MAPIAMMOUDLE
  2
MApiAmModule
  3
MApiAmServices
 90
        0
280
     0
281
     0
  0
CLASS
  1
AMDTADMENUSTATE
  2
AmdtAdMenuState
  3
DesignerServices
 90
        0
280
     0
281
     0
  0
CLASS
  1
ADAPPL
  2
AcAdAppl
  3
DesignerServices
 90
        0
280
     0
281
     0
  0
CLASS
  1
DEPMGR
  2
AcAdDepMgr
  3
DesignerServices
 90
        0
280
     0
281
     0
  0
CLASS
  1
PARAMMGR
  2
AcAdParamMgr
  3
DesignerServices
 90
        0
280
     0
281
     0
  0
CLASS
  1
PARAMSCOPE
  2
AcAdParamScope
  3
DesignerServices
 90
        0
280
     0
281
     0
  0
CLASS
  1
NAMEDAPPL
  2
AcAdNamedAppl
  3
DesignerServices
 90
        0
280
     0
281
     0
  0
CLASS
  1
AMDTDMMENUSTATE
  2
AmdtDmMenuState
  3
AcMechDwgViewMgmt
 90
        0
280
     0
281
     0
  0
CLASS
  1
AMDTAMMENUSTATE
  2
AmdtAmMenuState
  3
DesignerAssemblies
 90
        0
280
     0
281
     0
  0
CLASS
  1
ACAMPROJECT
  2
AcAmProject
  3
DesignerAssemblies
 90
        0
280
     0
281
     0
  0
CLASS
  1
ACAMGRCOMPDEF
  2
AcAmGrCompDef
  3
DesignerAssemblies
 90
        0
280
     0
281
     0
  0
CLASS
  1
ACCMCONTEXT
  2
AcCmContext
  3
DesignerAssemblies
 90
        0
280
     0
281
     0
  0
CLASS
  1
ACAMCOMPDEF
  2
AcAmCompDef
  3
DesignerAssemblies
 90
        0
280
     0
281
     0
  0
CLASS
  1
ACAMCOMPDEFMGR
  2
AcAmCompDefMgr
  3
DesignerAssemblies
 90
        0
280
     0
281
     0
  0
CLASS
  1
AMCONTEXTMGR
  2
AcAmContextMgr
  3
DesignerAssemblies
 90
        0
280
     0
281
     0
  0
CLASS
  1
ACAMCONTEXTMODELER
  2
AcAmContextModeler
  3
DesignerAssemblies
 90
        0
280
     0
281
     0
  0
CLASS
  1
ACMTHREADLINESTANDARDISO
  2
AmdtThreadLineStdISO
  3
"Amdt_StdImp|Product Description: AutoCAD Mechanical 2004 DX|Company: Autodesk"
 90
        0
280
     0
281
     0
  0
CLASS
  1
CATALOGSTATE
  2
AcAmCatalogState
  3
DesignerAssemblies
 90
        0
280
     0
281
     0
  0
CLASS
  1
ACAMGRCOMPDEFSET
  2
AcAmGrCompDefSet
  3
DesignerAssemblies
 90
        0
280
     0
281
     0
  0
CLASS
  1
AMDTBROWSERDBTAB
  2
AmdtBrowserDbTab
  3
McadcomServices
 90
        0
280
     0
281
     0
  0
CLASS
  1
CBROWSERAPPOBJECT
  2
CBrowserAppObject
  3
McadcomServices
 90
        0
280
     0
281
     0
  0
CLASS
  1
DM_PLACEHOLDER
  2
AcDmSelsetPlaceholder
  3
AcMechDwgViewMgmt
 90
        0
280
     0
281
     0
  0
CLASS
  1
TABLESTYLE
  2
AcDbTableStyle
  3
ObjectDBX Classes
 90
     2047
280
     0
281
     0
  0
CLASS
  1
VAACXREFPANELOBJECT
  2
VaAcXREFPanelObject
  3
VAAC_ADDIN
 90
    32768
280
     0
281
     0
  0
CLASS
  1
VAACIMAGEINVENTORY
  2
VaAcImageInventory
  3
VAAC_ADDIN
 90
    32768
280
     0
281
     0
  0
CLASS
  1
AMDTNOTETEMPLATEDB
  2
AmdtNoteTemplateDB
  3
AMDT_STDIMP_MODULE_NAME
 90
        0
280
     0
281
     0
  0
CLASS
  1
ACMBOM
  2
AcmBom
  3
"AcmSymBB|Product Description: AutoCAD Mechanical 2004 DX|Company: Autodesk"
 90
    32768
280
     0
281
     0
  0
CLASS
  1
AMDTFORMULAUPDATEDISPATCHER
  2
AmdtFormulaUpdateDispatcher
  3
AcMeServices
 90
    32768
280
     0
281
     0
  0
CLASS
  1
ACMPARTLIST
  2
AcmPartList
  3
"AcmSymBB|Product Description: AutoCAD Mechanical 2004 DX|Company: Autodesk"
 90
    33791
280
     0
281
     1
  0
CLASS
  1
ACAMGFILTERDAT
  2
AcAmgFilterDat
  3
"AcadM|Product Description: AutoCAD Mechanical 2000|Company: Autodesk"
 90
        0
280
     0
281
     0
  0
CLASS
  1
ACMSTANDARDJIS
  2
AcmStandardJIS
  3
"Amdt_StdImp|Product Description: AutoCAD Mechanical 2004 DX|Company: Autodesk"
 90
        0
280
     0
281
     0
  0
CLASS
  1
ACMSURFSTANDARDJIS
  2
AcmSurfTextStdJIS
  3
"Amdt_StdImp|Product Description: AutoCAD Mechanical 2004 DX|Company: Autodesk"
 90
        0
280
     0
281
     0
  0
CLASS
  1
ACMFCFSTANDARDJIS98
  2
AcmFCFStdJIS98
  3
"Amdt_StdImp|Product Description: AutoCAD Mechanical 2004 DX|Company: Autodesk"
 90
        0
280
     0
281
     0
  0
CLASS
  1
ACMWELDSTANDARDJIS
  2
AcmWeldingStdJIS
  3
"Amdt_StdImp|Product Description: AutoCAD Mechanical 2004 DX|Company: Autodesk"
 90
        0
280
     0
281
     0
  0
CLASS
  1
ACMIDSTANDARDJIS
  2
AcmIdStdJIS
  3
"Amdt_StdImp|Product Description: AutoCAD Mechanical 2004 DX|Company: Autodesk"
 90
        0
280
     0
281
     0
  0
CLASS
  1
ACMDATUMSTANDARDJIS
  2
AcmDatumStdJIS
  3
"Amdt_StdImp|Product Description: AutoCAD Mechanical 2004 DX|Company: Autodesk"
 90
        0
280
     0
281
     0
  0
CLASS
  1
ACMBOMSTANDARDJIS
  2
AcmBOMStdJIS
  3
"Amdt_StdImp|Product Description: AutoCAD Mechanical 2004 DX|Company: Autodesk"
 90
        0
280
     0
281
     0
  0
CLASS
  1
ACMDETAILSTANDARDJIS
  2
AmdtDetailSymStdJIS
  3
"Amdt_StdImp|Product Description: AutoCAD Mechanical 2004 DX|Company: Autodesk"
 90
        0
280
     0
281
     0
  0
CLASS
  1
ACMSECTIONSTANDARDJIS
  2
AmdtSectionSymStdJIS
  3
"Amdt_StdImp|Product Description: AutoCAD Mechanical 2004 DX|Company: Autodesk"
 90
        0
280
     0
281
     0
  0
CLASS
  1
ACMCENTERLINESTANDARDJIS
  2
AmdtCenterLineStdJIS
  3
"Amdt_StdImp|Product Description: AutoCAD Mechanical 2004 DX|Company: Autodesk"
 90
        0
280
     0
281
     0
  0
CLASS
  1
ACMTHREADLINESTANDARDJIS
  2
AmdtThreadLineStdJIS
  3
"Amdt_StdImp|Product Description: AutoCAD Mechanical 2004 DX|Company: Autodesk"
 90
        0
280
     0
281
     0
  0
CLASS
  1
ACMNOTESTANDARDJIS
  2
AmdtNoteStdJIS
  3
"Amdt_StdImp|Product Description: AutoCAD Mechanical 2004 DX|Company: Autodesk"
 90
        0
280
     0
281
     0
  0
CLASS
  1
ACAMGHOLECHARTSTDJIS
  2
AcAmgHoleChartStdJIS
  3
ACMSYMBB_MODULE_NAME
 90
        0
280
     0
281
     0
  0
CLASS
  1
DIMASSOC
  2
AcDbDimAssoc
  3
"AcDbDimAssoc|Product Desc:     AcDim ARX App For Dimension|Company:          Autodesk, Inc.|WEB Address:      www.autodesk.com"
 90
        0
280
     0
281
     0
  0
CLASS
  1
ACMDIMBREAKPERSREACTOR
  2
AcmDimBreakPersReactor
  3
amgDimApp().moduleName()
 90
    33791
280
     0
281
     0
  0
CLASS
  1
ACRFATTGENMGR
  2
AcRfAttGeneralMgr
  3
AcAttribServices
 90
        0
280
     0
281
     0
  0
ENDSEC
  0
SECTION
  2
TABLES
  0
TABLE
  2
VPORT
  5
8
330
0
100
AcDbSymbolTable
 70
     7
  0
VPORT
  5
1DB9
330
8
100
AcDbSymbolTableRecord
100
AcDbViewportTableRecord
  2
*Active
 70
     0
 10
0.0
 20
0.0
 11
1.0
 21
1.0
 12
-25.33705103177295
 22
1.575444283429021
 13
0.0
 23
0.0
 14
2.5
 24
2.5
 15
10.0
 25
10.0
 16
0.0
 26
0.0
 36
1.0
 17
0.0
 27
0.0
 37
0.0
 40
117.1599297836878
 41
1.514762516046213
 42
50.0
 43
0.0
 44
0.0
 50
0.0
 51
0.0
 71
     0
 72
 10000
 73
     1
 74
     3
 75
     0
 76
     0
 77
     0
 78
     0
281
     0
 65
     1
110
0.0
120
0.0
130
0.0
111
1.0
121
0.0
131
0.0
112
0.0
122
1.0
132
0.0
 79
     0
146
0.0
  0
ENDTAB
  0
TABLE
  2
LTYPE
  5
5
330
0
100
AcDbSymbolTable
 70
    17
  0
LTYPE
  5
14
330
5
100
AcDbSymbolTableRecord
100
AcDbLinetypeTableRecord
  2
ByBlock
 70
     0
  3

 72
    65
 73
     0
 40
0.0
  0
LTYPE
  5
15
330
5
100
AcDbSymbolTableRecord
100
AcDbLinetypeTableRecord
  2
ByLayer
 70
     0
  3

 72
    65
 73
     0
 40
0.0
  0
LTYPE
  5
16
330
5
100
AcDbSymbolTableRecord
100
AcDbLinetypeTableRecord
  2
Continuous
 70
     0
  3
Solid line
 72
    65
 73
     0
 40
0.0
  0
LTYPE
  5
64
330
5
100
AcDbSymbolTableRecord
100
AcDbLinetypeTableRecord
  2
AM_ISO02W050
 70
     0
  3
__ __ __ __ __ __ __ __ __ __ __ __ __ __ __
 72
    65
 73
     2
 40
7.5
 49
6.0
 74
     0
 49
-1.5
 74
     0
  0
LTYPE
  5
65
330
5
100
AcDbSymbolTableRecord
100
AcDbLinetypeTableRecord
  2
AM_ISO08W050
 70
     0
  3
____ . ____ . ____ . ____ . ____ . ____ . ____
 72
    65
 73
     4
 40
18.0
 49
12.0
 74
     0
 49
-1.5
 74
     0
 49
3.0
 74
     0
 49
-1.5
 74
     0
  0
LTYPE
  5
66
330
5
100
AcDbSymbolTableRecord
100
AcDbLinetypeTableRecord
  2
AM_ISO09W050
 70
     0
  3
_____ . . _____ . . _____ . . ____ .. ____
 72
    65
 73
     6
 40
22.5
 49
12.0
 74
     0
 49
-1.5
 74
     0
 49
3.0
 74
     0
 49
-1.5
 74
     0
 49
3.0
 74
     0
 49
-1.5
 74
     0
  0
LTYPE
  5
67
330
5
100
AcDbSymbolTableRecord
100
AcDbLinetypeTableRecord
  2
Amconstr
 70
     0
  3
_______________________
 72
    65
 73
     2
 40
9999.0
 49
9999.0
 74
     0
 49
0.0
 74
     0
  0
LTYPE
  5
68
330
5
100
AcDbSymbolTableRecord
100
AcDbLinetypeTableRecord
  2
AM_ISO08W050x2
 70
     0
  3
__ . __ . __ . __ . __ . __
 72
    65
 73
     4
 40
9.0
 49
6.0
 74
     0
 49
-0.75
 74
     0
 49
1.5
 74
     0
 49
-0.75
 74
     0
  0
LTYPE
  5
69
330
5
100
AcDbSymbolTableRecord
100
AcDbLinetypeTableRecord
  2
AM_ISO02W050x2
 70
     0
  3
 _ _ _ _ _ _ _ _ _ _ _ _
 72
    65
 73
     2
 40
3.75
 49
3.0
 74
     0
 49
-0.75
 74
     0
  0
LTYPE
  5
6C
330
5
100
AcDbSymbolTableRecord
100
AcDbLinetypeTableRecord
  2
Amzigzag
 70
     0
  3
/\/-/\/-/\/-/\/-/\/-/\/
 72
    65
 73
     2
 40
11.0001
 49
0.0001
 74
     4
 75
   135
340
6B
 46
0.04
 50
0.0
 44
0.0
 45
0.0
 49
-11.0
 74
     0
  0
LTYPE
  5
7A
330
5
100
AcDbSymbolTableRecord
100
AcDbLinetypeTableRecord
  2
ACISOWELD
 70
     0
  3
_ _ _ _ _
 72
    65
 73
     2
 40
2.0
 49
2.0
 74
     0
 49
-1.0
 74
     0
  0
LTYPE
  5
7B
330
5
100
AcDbSymbolTableRecord
100
AcDbLinetypeTableRecord
  2
ACISOTGB
 70
     0
  3
__ . . __ . .
 72
    65
 73
     6
 40
9.0
 49
4.0
 74
     0
 49
-1.0
 74
     0
 49
1.0
 74
     0
 49
-1.0
 74
     0
 49
1.0
 74
     0
 49
-1.0
 74
     0
  0
LTYPE
  5
7C
330
5
100
AcDbSymbolTableRecord
100
AcDbLinetypeTableRecord
  2
ACISOTGL
 70
     0
  3
_ _ _ _ _
 72
    65
 73
     2
 40
3.0
 49
2.0
 74
     0
 49
-1.0
 74
     0
  0
LTYPE
  5
7E
330
5
100
AcDbSymbolTableRecord
100
AcDbLinetypeTableRecord
  2
CENTER
 70
     0
  3
__ . __
 72
    65
 73
     4
 40
7.0
 49
4.0
 74
     0
 49
-1.0
 74
     0
 49
1.0
 74
     0
 49
-1.0
 74
     0
  0
LTYPE
  5
D8
330
5
100
AcDbSymbolTableRecord
100
AcDbLinetypeTableRecord
  2
HIDDEN
 70
     0
  3
Hidden __ __ __ __ __ __ __ __ __ __ __ __ __ _
 72
    65
 73
     2
 40
9.524999999999998
 49
6.349999999999999
 74
     0
 49
-3.174999999999999
 74
     0
  0
LTYPE
  5
D9
330
5
100
AcDbSymbolTableRecord
100
AcDbLinetypeTableRecord
  2
PHANTOM2
 70
     0
  3
Phantom (.5x) ___ _ _ ___ _ _ ___ _ _ ___ _ _
 72
    65
 73
     6
 40
31.75
 49
15.875
 74
     0
 49
-3.174999999999999
 74
     0
 49
3.174999999999999
 74
     0
 49
-3.174999999999999
 74
     0
 49
3.174999999999999
 74
     0
 49
-3.174999999999999
 74
     0
  0
LTYPE
  5
20C
330
5
100
AcDbSymbolTableRecord
100
AcDbLinetypeTableRecord
  2
ACJISWELD
 70
     0
  3
_ _ _ _ _
 72
    65
 73
     2
 40
2.0
 49
2.0
 74
     0
 49
-1.0
 74
     0
  0
LTYPE
  5
20D
330
5
100
AcDbSymbolTableRecord
100
AcDbLinetypeTableRecord
  2
ACJISTGB
 70
     0
  3
__ . . __ . .
 72
    65
 73
     6
 40
9.0
 49
4.0
 74
     0
 49
-1.0
 74
     0
 49
1.0
 74
     0
 49
-1.0
 74
     0
 49
1.0
 74
     0
 49
-1.0
 74
     0
  0
LTYPE
  5
20E
330
5
100
AcDbSymbolTableRecord
100
AcDbLinetypeTableRecord
  2
ACJISTGL
 70
     0
  3
_ _ _ _ _
 72
    65
 73
     2
 40
3.0
 49
2.0
 74
     0
 49
-1.0
 74
     0
  0
ENDTAB
  0
TABLE
  2
LAYER
  5
2
102
{ACAD_XDICTIONARY
360
34B
102
}
330
0
100
AcDbSymbolTable
 70
     7
  0
LAYER
  5
10
330
2
100
AcDbSymbolTableRecord
100
AcDbLayerTableRecord
  2
0
 70
     0
 62
     7
  6
Continuous
370
    -3
390
F
  0
LAYER
  5
34A
330
2
100
AcDbSymbolTableRecord
100
AcDbLayerTableRecord
  2
AM_0
 70
     0
 62
     7
  6
Continuous
370
    30
390
F
  0
LAYER
  5
3B0
330
2
100
AcDbSymbolTableRecord
100
AcDbLayerTableRecord
  2
AM_5
 70
     0
 62
     3
  6
Continuous
370
    13
390
F
  0
LAYER
  5
3B1
330
2
100
AcDbSymbolTableRecord
100
AcDbLayerTableRecord
  2
AM_7
 70
     0
 62
     4
  6
AM_ISO08W050
370
    13
390
F
  0
LAYER
  5
422
330
2
100
AcDbSymbolTableRecord
100
AcDbLayerTableRecord
  2
Defpoints
 70
     0
 62
     7
  6
Continuous
290
     0
370
    -3
390
F
  0
LAYER
  5
423
330
2
100
AcDbSymbolTableRecord
100
AcDbLayerTableRecord
  2
1
 70
     0
 62
     7
  6
Continuous
370
    -3
390
F
  0
ENDTAB
  0
TABLE
  2
STYLE
  5
3
330
0
100
AcDbSymbolTable
 70
     6
  0
STYLE
  5
11
330
3
100
AcDbSymbolTableRecord
100
AcDbTextStyleTableRecord
  2
STANDARD
 70
     0
 40
0.0
 41
1.0
 50
0.0
 71
     0
 42
3.799999999999999
  3
ISOCP.SHX
  4
EXTFONT.SHX
  0
STYLE
  5
6B
330
3
100
AcDbSymbolTableRecord
100
AcDbTextStyleTableRecord
  2

 70
     1
 40
0.0
 41
1.0
 50
0.0
 71
     0
 42
2.5
  3
ltypeshp.shx
  4

  0
STYLE
  5
6D
330
3
100
AcDbSymbolTableRecord
100
AcDbTextStyleTableRecord
  2
ACISOTS
 70
     0
 40
3.799999999999999
 41
1.0
 50
0.0
 71
     0
 42
3.799999999999999
  3
isocp.shx
  4
extfont.shx
  0
STYLE
  5
79
330
3
100
AcDbSymbolTableRecord
100
AcDbTextStyleTableRecord
  2
ACISOGDT
 70
     0
 40
0.0
 41
1.0
 50
0.0
 71
     0
 42
2.5
  3
amgdt.shx
  4
extfont.shx
  0
STYLE
  5
1FF
330
3
100
AcDbSymbolTableRecord
100
AcDbTextStyleTableRecord
  2
ACJISTS
 70
     0
 40
1.0
 41
1.0
 50
0.0
 71
     0
 42
1.0
  3
isocp.shx
  4
extfont.shx
  0
STYLE
  5
20B
330
3
100
AcDbSymbolTableRecord
100
AcDbTextStyleTableRecord
  2
ACJISGDT
 70
     0
 40
0.0
 41
1.0
 50
0.0
 71
     0
 42
1.0
  3
amgdt.shx
  4

  0
ENDTAB
  0
TABLE
  2
VIEW
  5
6
330
0
100
AcDbSymbolTable
 70
     0
  0
ENDTAB
  0
TABLE
  2
UCS
  5
7
330
0
100
AcDbSymbolTable
 70
     0
  0
ENDTAB
  0
TABLE
  2
APPID
  5
9
330
0
100
AcDbSymbolTable
 70
    17
  0
APPID
  5
12
330
9
100
AcDbSymbolTableRecord
100
AcDbRegAppTableRecord
  2
ACAD
 70
     0
  0
APPID
  5
46
330
9
100
AcDbSymbolTableRecord
100
AcDbRegAppTableRecord
  2
MCAD_NO_VIS
 70
     0
  0
APPID
  5
47
330
9
100
AcDbSymbolTableRecord
100
AcDbRegAppTableRecord
  2
ACAD_TEMP_GRAPHIC
 70
     0
  0
APPID
  5
58
330
9
100
AcDbSymbolTableRecord
100
AcDbRegAppTableRecord
  2
ACATTRIBSERVICES
 70
     0
  0
APPID
  5
EE
330
9
100
AcDbSymbolTableRecord
100
AcDbRegAppTableRecord
  2
AD_DRAW
 70
     0
  0
APPID
  5
10C
330
9
100
AcDbSymbolTableRecord
100
AcDbRegAppTableRecord
  2
DESIGNERASSEMBLIES
 70
     0
  0
APPID
  5
111
330
9
100
AcDbSymbolTableRecord
100
AcDbRegAppTableRecord
  2
ACADM_DIM_EDIT
 70
     0
  0
APPID
  5
112
330
9
100
AcDbSymbolTableRecord
100
AcDbRegAppTableRecord
  2
AMDT_DM_ADJ
 70
     0
  0
APPID
  5
243
330
9
100
AcDbSymbolTableRecord
100
AcDbRegAppTableRecord
  2
ACAD_DSTYLE_DIMTEXT_FILL
 70
     0
  0
APPID
  5
3B4
330
9
100
AcDbSymbolTableRecord
100
AcDbRegAppTableRecord
  2
ACAD_PSEXT
 70
     0
  0
APPID
  5
427
330
9
100
AcDbSymbolTableRecord
100
AcDbRegAppTableRecord
  2
GENIUS_GENDTOL_13
 70
     0
  0
APPID
  5
428
330
9
100
AcDbSymbolTableRecord
100
AcDbRegAppTableRecord
  2
GENIUS_GENODEF_13
 70
     0
  0
APPID
  5
429
330
9
100
AcDbSymbolTableRecord
100
AcDbRegAppTableRecord
  2
GENIUS_GENOBJ-N-CEN_13
 70
     0
  0
APPID
  5
80B
330
9
100
AcDbSymbolTableRecord
100
AcDbRegAppTableRecord
  2
GENIUS_GENOBJ-N-FIL_13
 70
     0
  0
APPID
  5
9FD
330
9
100
AcDbSymbolTableRecord
100
AcDbRegAppTableRecord
  2
ACAD_DIMASSOC_DIMLFAC
 70
     0
  0
APPID
  5
9FE
330
9
100
AcDbSymbolTableRecord
100
AcDbRegAppTableRecord
  2
ACAD_DIMASSOC_CALC_DIMLFAC
 70
     0
  0
APPID
  5
9FF
330
9
100
AcDbSymbolTableRecord
100
AcDbRegAppTableRecord
  2
ACAD_DIMASSOC_OVERRIDDEN_DIMLFAC
 70
     0
  0
ENDTAB
  0
TABLE
  2
DIMSTYLE
  5
A
330
0
100
AcDbSymbolTable
 70
    16
100
AcDbDimStyleTable
 71
     2
340
216
340
81
  0
DIMSTYLE
105
81
330
A
100
AcDbSymbolTableRecord
100
AcDbDimStyleTableRecord
  2
AM_ISO
 70
     0
  4
"
 41
2.5
 42
1.0
 43
10.0
 44
1.0
 47
0.1
 48
0.1
 73
     0
 74
     0
 77
     1
 78
     8
 79
     2
140
3.5
141
0.0
143
0.0393701
146
0.71
147
1.5
172
     1
176
   256
177
   256
178
     2
271
     2
272
     3
274
     4
283
     0
284
     8
340
11
371
    -1
372
    -1
  0
DIMSTYLE
105
82
330
A
100
AcDbSymbolTableRecord
100
AcDbDimStyleTableRecord
  2
AM_ISO$3
 70
     0
  4
"
 41
2.5
 42
1.0
 43
10.0
 44
1.0
 47
0.1
 48
0.1
 73
     0
 77
     1
 78
     8
 79
     2
140
3.5
141
0.0
143
0.0393701
146
0.71
147
1.5
176
   256
177
   256
178
     2
271
     2
272
     3
274
     4
283
     0
284
     8
288
     1
289
     0
340
11
371
    -1
372
    -1
  0
DIMSTYLE
105
83
330
A
100
AcDbSymbolTableRecord
100
AcDbDimStyleTableRecord
  2
AM_ISO$4
 70
     0
  4
"
 41
2.5
 42
1.0
 43
10.0
 44
1.0
 47
0.1
 48
0.1
 73
     0
 77
     1
 78
     8
 79
     2
140
3.5
141
0.0
143
0.0393701
146
0.71
147
1.5
176
   256
177
   256
178
     2
271
     2
272
     3
274
     4
283
     0
284
     8
288
     1
289
     0
340
11
371
    -1
372
    -1
  0
DIMSTYLE
105
84
330
A
100
AcDbSymbolTableRecord
100
AcDbDimStyleTableRecord
  2
AM_ISO$6
 70
     0
  4
"
 41
2.5
 42
1.0
 43
10.0
 44
1.0
 47
0.1
 48
0.1
 73
     0
 74
     0
 78
     8
 79
     2
140
3.5
141
0.0
143
0.0393701
146
0.71
147
1.5
172
     1
176
   256
177
   256
178
     2
271
     2
272
     3
274
     4
283
     0
284
     8
340
11
371
    -1
372
    -1
  0
DIMSTYLE
105
85
330
A
100
AcDbSymbolTableRecord
100
AcDbDimStyleTableRecord
  2
AM_ISO$7
 70
     0
  4
"
 41
2.5
 42
1.0
 43
10.0
 44
1.0
 47
0.1
 48
0.1
 73
     0
 74
     0
 77
     1
 78
     8
 79
     2
140
5.0
141
0.0
143
0.0393701
146
0.71
147
1.5
172
     1
176
   256
177
   256
178
     2
271
     2
272
     3
274
     4
283
     0
284
     8
340
11
371
    -1
372
    -1
  0
DIMSTYLE
105
86
330
A
100
AcDbSymbolTableRecord
100
AcDbDimStyleTableRecord
  2
AM_ISO$SF
 70
     0
  4
"
 41
2.5
 42
1.0
 43
10.0
 44
1.0
 47
0.1
 48
0.1
 73
     0
 74
     0
 75
     1
 76
     1
 77
     1
 78
     8
 79
     2
140
3.5
141
0.0
143
0.0393701
146
0.71
147
1.5
172
     1
176
   256
177
   256
178
     2
271
     2
272
     3
274
     4
283
     0
284
     8
340
11
371
    -1
372
    -1
  0
DIMSTYLE
105
8B
330
A
100
AcDbSymbolTableRecord
100
AcDbDimStyleTableRecord
  2
AM_ISO$SH
 70
     0
  4
"
 41
2.5
 42
1.0
 43
10.0
 44
1.0
 47
0.1
 48
0.1
 73
     0
 74
     0
 75
     1
 76
     1
 77
     1
 78
     8
 79
     2
140
3.5
141
0.0
143
0.0393701
144
2.0
146
0.71
147
1.5
172
     1
173
     1
176
   256
177
   256
178
     2
271
     2
272
     3
274
     4
283
     0
284
     8
340
11
343
87
371
    -1
372
    -1
  0
DIMSTYLE
105
216
330
A
100
AcDbSymbolTableRecord
100
AcDbDimStyleTableRecord
  2
AM_JIS
 70
     0
  4
"
 41
2.5
 42
1.0
 43
10.0
 44
1.0
 47
0.1
 48
0.1000000001
 73
     0
 74
     0
 77
     3
 78
     8
 79
     2
140
3.799999999999999
141
0.0
143
0.0393701
146
0.71
147
1.5
172
     1
176
   256
177
   256
178
     2
271
     2
272
     2
275
     1
283
     0
284
     8
340
11
341
217
342
217
371
    -1
372
    -1
  0
DIMSTYLE
105
21D
330
A
100
AcDbSymbolTableRecord
100
AcDbDimStyleTableRecord
  2
AM_JIS$3
 70
     0
  4
"
 41
2.5
 42
1.0
 43
10.0
 44
1.0
 47
0.1
 48
0.1000000001
 73
     0
 77
     3
 78
     8
 79
     2
140
3.799999999999999
141
0.0
143
0.0393701
146
0.71
147
1.5
176
   256
177
   256
178
     2
271
     2
272
     2
275
     1
283
     0
284
     8
288
     1
289
     0
340
11
341
217
342
217
371
    -1
372
    -1
  0
DIMSTYLE
105
21E
330
A
100
AcDbSymbolTableRecord
100
AcDbDimStyleTableRecord
  2
AM_JIS$4
 70
     0
  4
"
 41
2.5
 42
1.0
 43
10.0
 44
1.0
 47
0.1
 48
0.1000000001
 73
     0
 77
     3
 78
     8
 79
     2
140
3.799999999999999
141
0.0
143
0.0393701
146
0.71
147
1.5
176
   256
177
   256
178
     2
271
     2
272
     2
275
     1
283
     0
284
     8
288
     1
289
     0
340
11
341
217
342
217
371
    -1
372
    -1
  0
DIMSTYLE
105
21F
330
A
100
AcDbSymbolTableRecord
100
AcDbDimStyleTableRecord
  2
AM_JIS$6
 70
     0
  4
"
 41
2.5
 42
1.0
 43
10.0
 44
1.0
 47
0.1
 48
0.1000000001
 73
     0
 74
     0
 78
     8
 79
     2
140
3.799999999999999
141
0.0
143
0.0393701
146
0.71
147
1.5
172
     1
176
   256
177
   256
178
     2
271
     2
272
     2
275
     1
283
     0
284
     8
340
11
341
217
342
217
371
    -1
372
    -1
  0
DIMSTYLE
105
220
330
A
100
AcDbSymbolTableRecord
100
AcDbDimStyleTableRecord
  2
AM_JIS$7
 70
     0
  4
"
 41
2.5
 42
1.0
 43
10.0
 44
1.0
 47
0.1
 48
0.1000000001
 73
     0
 74
     0
 77
     3
 78
     8
 79
     2
140
5.0
141
0.0
143
0.0393701
146
0.71
147
1.5
172
     1
176
   256
177
   256
178
     2
271
     2
272
     2
275
     1
283
     0
284
     8
340
11
341
217
342
217
371
    -1
372
    -1
  0
DIMSTYLE
105
221
330
A
100
AcDbSymbolTableRecord
100
AcDbDimStyleTableRecord
  2
AM_JIS$SF
 70
     0
  4
"
 41
2.5
 42
1.0
 43
10.0
 44
1.0
 47
0.1
 48
0.1
 73
     0
 74
     0
 75
     1
 76
     1
 77
     3
 78
     8
 79
     2
140
3.5
141
0.0
143
0.0393701
146
0.71
147
1.5
172
     1
176
   256
177
   256
178
     2
271
     2
272
     3
274
     4
283
     0
284
     8
340
11
341
217
342
217
343
217
344
217
371
    -1
372
    -1
  0
DIMSTYLE
105
222
330
A
100
AcDbSymbolTableRecord
100
AcDbDimStyleTableRecord
  2
AM_JIS$SH
 70
     0
  4
"
 41
2.5
 42
1.0
 43
10.0
 44
1.0
 47
0.1
 48
0.1
 73
     0
 74
     0
 75
     1
 76
     1
 77
     3
 78
     8
 79
     2
140
3.5
141
0.0
143
0.0393701
144
2.0
146
0.71
147
1.5
172
     1
173
     1
176
   256
177
   256
178
     2
271
     2
272
     3
274
     4
283
     0
284
     8
340
11
341
217
342
217
343
87
344
217
371
    -1
372
    -1
  0
DIMSTYLE
105
425
102
{ACAD_REACTORS
330
1CF6
102
}
330
A
100
AcDbSymbolTableRecord
100
AcDbDimStyleTableRecord
  2
AM_JIS$2
 70
     0
  4
"
 41
2.5
 42
0.0
 43
10.0
 44
1.0
 48
0.000000001
 73
     0
 74
     0
 77
     3
 78
     1
 79
     2
140
3.799999999999999
141
0.0
143
0.0393701
146
0.71
147
1.5
172
     1
176
   256
177
   256
178
     2
179
     1
271
     3
272
     3
275
     1
283
     0
284
     8
289
     2
340
11
341
217
342
217
371
    -1
372
    -1
  0
DIMSTYLE
105
426
102
{ACAD_REACTORS
330
1BD2
330
1BD3
330
1BD4
330
1BD5
330
1BD6
330
1BD9
330
1BDE
330
1BEA
330
1CF0
330
1CF3
102
}
330
A
100
AcDbSymbolTableRecord
100
AcDbDimStyleTableRecord
  2
AM_JIS$0
 70
     0
  4
"
 41
2.5
 42
0.0
 43
10.0
 44
1.0
 48
0.000000001
 73
     0
 74
     0
 77
     3
 78
     1
 79
     2
140
3.799999999999999
141
0.0
143
0.0393701
146
0.71
147
1.5
172
     1
176
   256
177
   256
178
     2
179
     1
271
     3
272
     3
275
     1
283
     0
284
     8
340
11
341
217
342
217
371
    -1
372
    -1
  0
ENDTAB
  0
TABLE
  2
BLOCK_RECORD
  5
1
330
0
100
AcDbSymbolTable
 70
    40
  0
BLOCK_RECORD
  5
1F
102
{ACAD_XDICTIONARY
360
8F
102
}
330
1
100
AcDbSymbolTableRecord
100
AcDbBlockTableRecord
  2
*Model_Space
340
22
  0
BLOCK_RECORD
  5
1B
330
1
100
AcDbSymbolTableRecord
100
AcDbBlockTableRecord
  2
*Paper_Space
340
1E
  0
BLOCK_RECORD
  5
23
330
1
100
AcDbSymbolTableRecord
100
AcDbBlockTableRecord
  2
*Paper_Space0
340
26
  0
BLOCK_RECORD
  5
87
330
1
100
AcDbSymbolTableRecord
100
AcDbBlockTableRecord
  2
GENAXEH
340
0
  0
BLOCK_RECORD
  5
217
330
1
100
AcDbSymbolTableRecord
100
AcDbBlockTableRecord
  2
_Open30
340
0
102
{BLKREFS
331
1A87
331
1A88
331
1A92
331
1A93
331
1A9B
331
1A9C
331
1AA4
331
1AA5
331
1AAC
331
1AB4
331
1AB5
331
1ABF
331
1AC6
331
1ACC
331
1AD4
331
1AD5
331
1AE8
331
1AE9
331
1B14
331
1B15
331
1B22
331
1B23
331
1B2E
331
1B2F
331
1B3A
331
1B3B
331
1B45
331
1B50
331
1B51
331
1B5C
331
1B66
331
1CB4
331
1CBF
331
1CC0
331
1CCB
331
1CCC
331
1D41
331
1D42
331
1D4C
331
1D4D
331
1D55
331
1D56
331
1D5E
331
1D5F
331
1D66
331
1D6E
331
1D6F
331
1D79
331
1D80
331
1D86
331
1D8E
331
1D8F
331
1DA2
331
1DA3
102
}
  0
BLOCK_RECORD
  5
3DC
330
1
100
AcDbSymbolTableRecord
100
AcDbBlockTableRecord
  2
_None
340
0
  0
BLOCK_RECORD
  5
1C0C
330
1
100
AcDbSymbolTableRecord
100
AcDbBlockTableRecord
  2
*D25
340
0
  0
BLOCK_RECORD
  5
1C16
330
1
100
AcDbSymbolTableRecord
100
AcDbBlockTableRecord
  2
*D26
340
0
  0
BLOCK_RECORD
  5
1C22
330
1
100
AcDbSymbolTableRecord
100
AcDbBlockTableRecord
  2
*D27
340
0
  0
BLOCK_RECORD
  5
1C2C
330
1
100
AcDbSymbolTableRecord
100
AcDbBlockTableRecord
  2
*D28
340
0
  0
BLOCK_RECORD
  5
1C36
330
1
100
AcDbSymbolTableRecord
100
AcDbBlockTableRecord
  2
*D29
340
0
  0
BLOCK_RECORD
  5
1C3E
330
1
100
AcDbSymbolTableRecord
100
AcDbBlockTableRecord
  2
*D30
340
0
  0
BLOCK_RECORD
  5
1C48
330
1
100
AcDbSymbolTableRecord
100
AcDbBlockTableRecord
  2
*D31
340
0
  0
BLOCK_RECORD
  5
1C50
330
1
100
AcDbSymbolTableRecord
100
AcDbBlockTableRecord
  2
*D32
340
0
  0
BLOCK_RECORD
  5
1CFA
330
1
100
AcDbSymbolTableRecord
100
AcDbBlockTableRecord
  2
*D37
340
0
  0
BLOCK_RECORD
  5
1D02
330
1
100
AcDbSymbolTableRecord
100
AcDbBlockTableRecord
  2
*D38
340
0
  0
BLOCK_RECORD
  5
1D0C
330
1
100
AcDbSymbolTableRecord
100
AcDbBlockTableRecord
  2
*D39
340
0
  0
ENDTAB
  0
ENDSEC
  0
SECTION
  2
BLOCKS
  0
BLOCK
  5
20
330
1F
100
AcDbEntity
  8
0
100
AcDbBlockBegin
  2
*Model_Space
 70
     0
 10
0.0
 20
0.0
 30
0.0
  3
*Model_Space
  1

  0
ENDBLK
  5
21
330
1F
100
AcDbEntity
  8
0
100
AcDbBlockEnd
  0
BLOCK
  5
1C
330
1B
100
AcDbEntity
 67
     1
  8
0
100
AcDbBlockBegin
  2
*Paper_Space
 70
     0
 10
0.0
 20
0.0
 30
0.0
  3
*Paper_Space
  1

  0
ENDBLK
  5
1D
330
1B
100
AcDbEntity
 67
     1
  8
0
100
AcDbBlockEnd
  0
BLOCK
  5
24
330
23
100
AcDbEntity
  8
0
100
AcDbBlockBegin
  2
*Paper_Space0
 70
     0
 10
0.0
 20
0.0
 30
0.0
  3
*Paper_Space0
  1

  0
ENDBLK
  5
25
330
23
100
AcDbEntity
  8
0
100
AcDbBlockEnd
  0
BLOCK
  5
89
330
87
100
AcDbEntity
  8
0
100
AcDbBlockBegin
  2
GENAXEH
 70
     0
 10
0.0
 20
0.0
 30
0.0
  3
GENAXEH
  1

  0
LINE
  5
88
330
87
100
AcDbEntity
  8
0
100
AcDbLine
 10
-1.0
 20
0.0
 30
0.0
 11
1.0
 21
0.0
 31
0.0
  0
ENDBLK
  5
8A
330
87
100
AcDbEntity
  8
0
100
AcDbBlockEnd
  0
BLOCK
  5
21B
330
217
100
AcDbEntity
  8
0
100
AcDbBlockBegin
  2
_Open30
 70
     0
 10
0.0
 20
0.0
 30
0.0
  3
_Open30
  1

  0
LINE
  5
218
330
217
100
AcDbEntity
  8
0
  6
ByBlock
 62
     0
370
    -2
100
AcDbLine
 10
-1.0
 20
0.26794919
 30
0.0
 11
0.0
 21
0.0
 31
0.0
  0
LINE
  5
219
330
217
100
AcDbEntity
  8
0
  6
ByBlock
 62
     0
370
    -2
100
AcDbLine
 10
0.0
 20
0.0
 30
0.0
 11
-1.0
 21
-0.26794919
 31
0.0
  0
LINE
  5
21A
330
217
100
AcDbEntity
  8
0
  6
ByBlock
 62
     0
370
    -2
100
AcDbLine
 10
0.0
 20
0.0
 30
0.0
 11
-1.0
 21
0.0
 31
0.0
  0
ENDBLK
  5
21C
330
217
100
AcDbEntity
  8
0
100
AcDbBlockEnd
  0
BLOCK
  5
3DD
330
3DC
100
AcDbEntity
  8
0
100
AcDbBlockBegin
  2
_None
 70
     0
 10
0.0
 20
0.0
 30
0.0
  3
_None
  1

  0
ENDBLK
  5
3DE
330
3DC
100
AcDbEntity
  8
0
100
AcDbBlockEnd
  0
BLOCK
  5
1C9E
330
1C0C
100
AcDbEntity
  8
0
100
AcDbBlockBegin
  2
*D25
 70
     1
 10
0.0
 20
0.0
 30
0.0
  3
*D25
  1

  0
LINE
  5
1D3E
330
1C0C
100
AcDbEntity
  8
AM_5
100
AcDbLine
 10
-39.0
 20
11.0
 30
0.0
 11
-60.88555330631812
 21
11.0
 31
0.0
  0
LINE
  5
1D3F
330
1C0C
100
AcDbEntity
  8
AM_5
100
AcDbLine
 10
-39.0
 20
-11.0
 30
0.0
 11
-60.88555330631812
 21
-10.99999999999999
 31
0.0
  0
LINE
  5
1D40
330
1C0C
100
AcDbEntity
  8
AM_5
100
AcDbLine
 10
-59.88555330631811
 20
8.500000000000005
 30
0.0
 11
-59.88555330631811
 21
-8.499999999999994
 31
0.0
  0
INSERT
  5
1D41
330
1C0C
100
AcDbEntity
  8
AM_5
100
AcDbBlockReference
  2
_Open30
 10
-59.88555330631811
 20
11.0
 30
0.0
 41
2.5
 42
2.5
 43
2.5
 50
90.0
  0
INSERT
  5
1D42
330
1C0C
100
AcDbEntity
  8
AM_5
100
AcDbBlockReference
  2
_Open30
 10
-59.88555330631811
 20
-10.99999999999999
 30
0.0
 41
2.5
 42
2.5
 43
2.5
 50
270.0
  0
MTEXT
  5
1D43
330
1C0C
100
AcDbEntity
  8
AM_5
 62
     2
100
AcDbMText
 10
-63.28592732206615
 20
-0.000000000000003
 30
0.0
 40
3.799999999999999
 41
0.0
 71
     5
 72
     1
  1
φ22
 11
0.0000000000000001
 21
1.0
 31
0.0
 73
     1
 44
1.0
1001
ACAD
1000
MTEXTBEGIN
1070
    73
1070
     1
1070
    44
1040
1.0
1070
    74
1070
     0
1000
MTEXTEND
  0
POINT
  5
1D44
330
1C0C
100
AcDbEntity
  8
Defpoints
 62
     0
100
AcDbPoint
 10
-39.0
 20
11.0
 30
0.0
  0
POINT
  5
1D45
330
1C0C
100
AcDbEntity
  8
Defpoints
 62
     0
100
AcDbPoint
 10
-39.0
 20
-11.0
 30
0.0
  0
POINT
  5
1D46
330
1C0C
100
AcDbEntity
  8
Defpoints
 62
     0
100
AcDbPoint
 10
-59.88555330631811
 20
-10.99999999999999
 30
0.0
  0
ENDBLK
  5
1C9F
330
1C0C
100
AcDbEntity
  8
0
100
AcDbBlockEnd
  0
BLOCK
  5
1CA0
330
1C16
100
AcDbEntity
  8
0
100
AcDbBlockBegin
  2
*D26
 70
     1
 10
0.0
 20
0.0
 30
0.0
  3
*D26
  1

  0
LINE
  5
1D47
330
1C16
100
AcDbEntity
  8
AM_5
100
AcDbLine
 10
-40.0
 20
-12.26232854663692
 30
0.0
 11
-40.0
 21
-25.67909531756561
 31
0.0
  0
LINE
  5
1D48
330
1C16
100
AcDbEntity
  8
AM_5
100
AcDbLine
 10
-33.70000000000004
 20
-5.200000000000045
 30
0.0
 11
-33.70000000000004
 21
-25.67909531756561
 31
0.0
  0
LINE
  5
1D49
330
1C16
100
AcDbEntity
  8
AM_5
100
AcDbLine
 10
-31.20000000000004
 20
-24.67909531756561
 30
0.0
 11
-28.70000000000004
 21
-24.67909531756561
 31
0.0
  0
LINE
  5
1D4A
330
1C16
100
AcDbEntity
  8
AM_5
100
AcDbLine
 10
-42.5
 20
-24.67909531756561
 30
0.0
 11
-53.70480272850496
 21
-24.67909531756561
 31
0.0
  0
LINE
  5
1D4B
330
1C16
100
AcDbEntity
  8
AM_5
100
AcDbLine
 10
-33.70000000000004
 20
-24.67909531756561
 30
0.0
 11
-40.0
 21
-24.67909531756561
 31
0.0
  0
INSERT
  5
1D4C
330
1C16
100
AcDbEntity
  8
AM_5
100
AcDbBlockReference
  2
_Open30
 10
-33.70000000000004
 20
-24.67909531756561
 30
0.0
 41
2.5
 42
2.5
 43
2.5
 50
180.0
  0
INSERT
  5
1D4D
330
1C16
100
AcDbEntity
  8
AM_5
100
AcDbBlockReference
  2
_Open30
 10
-40.0
 20
-24.67909531756561
 30
0.0
 41
2.5
 42
2.5
 43
2.5
  0
MTEXT
  5
1D4E
330
1C16
100
AcDbEntity
  8
AM_5
 62
     2
100
AcDbMText
 10
-49.3524013642525
 20
-21.27909531756561
 30
0.0
 40
3.799999999999999
 41
0.0
 71
     5
 72
     1
  1
6.3
 73
     1
 44
1.0
1001
ACAD
1000
MTEXTBEGIN
1070
    73
1070
     1
1070
    44
1040
1.0
1070
    74
1070
     0
1000
MTEXTEND
  0
POINT
  5
1D4F
330
1C16
100
AcDbEntity
  8
Defpoints
 62
     0
100
AcDbPoint
 10
-40.0
 20
-12.26232854663692
 30
0.0
  0
POINT
  5
1D50
330
1C16
100
AcDbEntity
  8
Defpoints
 62
     0
100
AcDbPoint
 10
-33.70000000000004
 20
-5.200000000000045
 30
0.0
  0
POINT
  5
1D51
330
1C16
100
AcDbEntity
  8
Defpoints
 62
     0
100
AcDbPoint
 10
-33.70000000000004
 20
-24.67909531756561
 30
0.0
  0
ENDBLK
  5
1CA1
330
1C16
100
AcDbEntity
  8
0
100
AcDbBlockEnd
  0
BLOCK
  5
1CA2
330
1C22
100
AcDbEntity
  8
0
100
AcDbBlockBegin
  2
*D27
 70
     1
 10
0.0
 20
0.0
 30
0.0
  3
*D27
  1

  0
LINE
  5
1D52
330
1C22
100
AcDbEntity
  8
AM_5
100
AcDbLine
 10
-40.0
 20
-12.26232854663692
 30
0.0
 11
-40.0
 21
-36.49663947552938
 31
0.0
  0
LINE
  5
1D53
330
1C22
100
AcDbEntity
  8
AM_5
100
AcDbLine
 10
-20.0
 20
-11.5
 30
0.0
 11
-20.0
 21
-36.49663947552938
 31
0.0
  0
LINE
  5
1D54
330
1C22
100
AcDbEntity
  8
AM_5
100
AcDbLine
 10
-37.5
 20
-35.49663947552938
 30
0.0
 11
-22.5
 21
-35.49663947552938
 31
0.0
  0
INSERT
  5
1D55
330
1C22
100
AcDbEntity
  8
AM_5
100
AcDbBlockReference
  2
_Open30
 10
-40.0
 20
-35.49663947552938
 30
0.0
 41
2.5
 42
2.5
 43
2.5
 50
180.0
  0
INSERT
  5
1D56
330
1C22
100
AcDbEntity
  8
AM_5
100
AcDbBlockReference
  2
_Open30
 10
-20.0
 20
-35.49663947552938
 30
0.0
 41
2.5
 42
2.5
 43
2.5
  0
MTEXT
  5
1D57
330
1C22
100
AcDbEntity
  8
AM_5
 62
     2
100
AcDbMText
 10
-30.0
 20
-32.09626545978135
 30
0.0
 40
3.799999999999999
 41
0.0
 71
     5
 72
     1
  1
20
 73
     1
 44
1.0
1001
ACAD
1000
MTEXTBEGIN
1070
    73
1070
     1
1070
    44
1040
1.0
1070
    74
1070
     0
1000
MTEXTEND
  0
POINT
  5
1D58
330
1C22
100
AcDbEntity
  8
Defpoints
 62
     0
100
AcDbPoint
 10
-40.0
 20
-12.26232854663692
 30
0.0
  0
POINT
  5
1D59
330
1C22
100
AcDbEntity
  8
Defpoints
 62
     0
100
AcDbPoint
 10
-20.0
 20
-11.5
 30
0.0
  0
POINT
  5
1D5A
330
1C22
100
AcDbEntity
  8
Defpoints
 62
     0
100
AcDbPoint
 10
-20.0
 20
-35.49663947552938
 30
0.0
  0
ENDBLK
  5
1CA3
330
1C22
100
AcDbEntity
  8
0
100
AcDbBlockEnd
  0
BLOCK
  5
1CA4
330
1C2C
100
AcDbEntity
  8
0
100
AcDbBlockBegin
  2
*D28
 70
     1
 10
0.0
 20
0.0
 30
0.0
  3
*D28
  1

  0
LINE
  5
1D5B
330
1C2C
100
AcDbEntity
  8
AM_5
100
AcDbLine
 10
-40.0
 20
-12.26232854663692
 30
0.0
 11
-40.0
 21
-47.18063437292516
 31
0.0
  0
LINE
  5
1D5C
330
1C2C
100
AcDbEntity
  8
AM_5
100
AcDbLine
 10
-15.0
 20
-9.0
 30
0.0
 11
-15.0
 21
-47.18063437292516
 31
0.0
  0
LINE
  5
1D5D
330
1C2C
100
AcDbEntity
  8
AM_5
100
AcDbLine
 10
-37.5
 20
-46.18063437292517
 30
0.0
 11
-17.5
 21
-46.18063437292517
 31
0.0
  0
INSERT
  5
1D5E
330
1C2C
100
AcDbEntity
  8
AM_5
100
AcDbBlockReference
  2
_Open30
 10
-40.0
 20
-46.18063437292517
 30
0.0
 41
2.5
 42
2.5
 43
2.5
 50
180.0
  0
INSERT
  5
1D5F
330
1C2C
100
AcDbEntity
  8
AM_5
100
AcDbBlockReference
  2
_Open30
 10
-15.0
 20
-46.18063437292517
 30
0.0
 41
2.5
 42
2.5
 43
2.5
  0
MTEXT
  5
1D60
330
1C2C
100
AcDbEntity
  8
AM_5
 62
     2
100
AcDbMText
 10
-27.5
 20
-42.78026035717714
 30
0.0
 40
3.799999999999999
 41
0.0
 71
     5
 72
     1
  1
25
 73
     1
 44
1.0
1001
ACAD
1000
MTEXTBEGIN
1070
    73
1070
     1
1070
    44
1040
1.0
1070
    74
1070
     0
1000
MTEXTEND
  0
POINT
  5
1D61
330
1C2C
100
AcDbEntity
  8
Defpoints
 62
     0
100
AcDbPoint
 10
-40.0
 20
-12.26232854663692
 30
0.0
  0
POINT
  5
1D62
330
1C2C
100
AcDbEntity
  8
Defpoints
 62
     0
100
AcDbPoint
 10
-15.0
 20
-9.0
 30
0.0
  0
POINT
  5
1D63
330
1C2C
100
AcDbEntity
  8
Defpoints
 62
     0
100
AcDbPoint
 10
-15.0
 20
-46.18063437292517
 30
0.0
  0
ENDBLK
  5
1CA5
330
1C2C
100
AcDbEntity
  8
0
100
AcDbBlockEnd
  0
BLOCK
  5
1CA6
330
1C36
100
AcDbEntity
  8
0
100
AcDbBlockBegin
  2
*D29
 70
     1
 10
0.0
 20
0.0
 30
0.0
  3
*D29
  1

  0
LINE
  5
1D64
330
1C36
100
AcDbEntity
  8
AM_5
100
AcDbLine
 10
-39.0
 20
25.0
 30
0.0
 11
-72.20123724751942
 21
25.00000000000002
 31
0.0
  0
LINE
  5
1D65
330
1C36
100
AcDbEntity
  8
AM_5
100
AcDbLine
 10
-71.20123724751943
 20
0.0000000000000074
 30
0.0
 11
-71.20123724751943
 21
22.50000000000001
 31
0.0
  0
INSERT
  5
1D66
330
1C36
100
AcDbEntity
  8
AM_5
100
AcDbBlockReference
  2
_Open30
 10
-71.20123724751943
 20
25.00000000000001
 30
0.0
 41
2.5
 42
2.5
 43
2.5
 50
90.0
  0
MTEXT
  5
1D67
330
1C36
100
AcDbEntity
  8
AM_5
 62
     2
100
AcDbMText
 10
-74.60123724751944
 20
6.835398576160855
 30
0.0
 40
3.799999999999999
 41
0.0
 71
     5
 72
     1
  1
φ50
 11
0.0000000000000001
 21
1.0
 31
0.0
 73
     1
 44
1.0
1001
ACAD
1000
MTEXTBEGIN
1070
    73
1070
     1
1070
    44
1040
1.0
1070
    74
1070
     0
1000
MTEXTEND
  0
POINT
  5
1D68
330
1C36
100
AcDbEntity
  8
Defpoints
 62
     0
100
AcDbPoint
 10
-43.50304914066055
 20
-0.0000000000000004
 30
0.0
  0
POINT
  5
1D69
330
1C36
100
AcDbEntity
  8
Defpoints
 62
     0
100
AcDbPoint
 10
-39.0
 20
25.0
 30
0.0
  0
POINT
  5
1D6A
330
1C36
100
AcDbEntity
  8
Defpoints
 62
     0
100
AcDbPoint
 10
-71.20123724751943
 20
25.00000000000001
 30
0.0
  0
ENDBLK
  5
1CA7
330
1C36
100
AcDbEntity
  8
0
100
AcDbBlockEnd
  0
BLOCK
  5
1CA8
330
1C3E
100
AcDbEntity
  8
0
100
AcDbBlockBegin
  2
*D30
 70
     1
 10
0.0
 20
0.0
 30
0.0
  3
*D30
  1

  0
LINE
  5
1D6B
330
1C3E
100
AcDbEntity
  8
AM_5
100
AcDbLine
 10
-39.0
 20
-5.200000000000045
 30
0.0
 11
-48.3384195700022
 21
-5.200000000000042
 31
0.0
  0
LINE
  5
1D6C
330
1C3E
100
AcDbEntity
  8
AM_5
100
AcDbLine
 10
-39.0
 20
5.199999999999931
 30
0.0
 11
-48.3384195700022
 21
5.199999999999934
 31
0.0
  0
LINE
  5
1D6D
330
1C3E
100
AcDbEntity
  8
AM_5
100
AcDbLine
 10
-47.3384195700022
 20
-2.700000000000042
 30
0.0
 11
-47.3384195700022
 21
2.699999999999934
 31
0.0
  0
INSERT
  5
1D6E
330
1C3E
100
AcDbEntity
  8
AM_5
100
AcDbBlockReference
  2
_Open30
 10
-47.3384195700022
 20
-5.200000000000042
 30
0.0
 41
2.5
 42
2.5
 43
2.5
 50
270.0
  0
INSERT
  5
1D6F
330
1C3E
100
AcDbEntity
  8
AM_5
100
AcDbBlockReference
  2
_Open30
 10
-47.3384195700022
 20
5.199999999999934
 30
0.0
 41
2.5
 42
2.5
 43
2.5
 50
90.0
  0
MTEXT
  5
1D70
330
1C3E
100
AcDbEntity
  8
AM_5
 62
     2
100
AcDbMText
 10
-50.7384195700022
 20
-0.0000000000000615
 30
0.0
 40
3.799999999999999
 41
0.0
 71
     5
 72
     1
  1
10.4
 11
0.0000000000000001
 21
1.0
 31
0.0
 73
     1
 44
1.0
1001
ACAD
1000
MTEXTBEGIN
1070
    73
1070
     1
1070
    44
1040
1.0
1070
    74
1070
     0
1000
MTEXTEND
  0
POINT
  5
1D71
330
1C3E
100
AcDbEntity
  8
Defpoints
 62
     0
100
AcDbPoint
 10
-39.0
 20
-5.200000000000045
 30
0.0
  0
POINT
  5
1D72
330
1C3E
100
AcDbEntity
  8
Defpoints
 62
     0
100
AcDbPoint
 10
-39.0
 20
5.199999999999931
 30
0.0
  0
POINT
  5
1D73
330
1C3E
100
AcDbEntity
  8
Defpoints
 62
     0
100
AcDbPoint
 10
-47.3384195700022
 20
5.199999999999934
 30
0.0
  0
ENDBLK
  5
1CA9
330
1C3E
100
AcDbEntity
  8
0
100
AcDbBlockEnd
  0
BLOCK
  5
1CAA
330
1C48
100
AcDbEntity
  8
0
100
AcDbBlockBegin
  2
*D31
 70
     1
 10
0.0
 20
0.0
 30
0.0
  3
*D31
  1

  0
LINE
  5
1D74
330
1C48
100
AcDbEntity
  8
AM_5
100
AcDbLine
 10
-15.0
 20
5.5
 30
0.0
 11
8.648770917505999
 21
5.499999999999992
 31
0.0
  0
LINE
  5
1D75
330
1C48
100
AcDbEntity
  8
AM_5
100
AcDbLine
 10
7.648770917505998
 20
-0.0000000000000031
 30
0.0
 11
7.648770917505997
 21
-2.500000000000003
 31
0.0
  0
LINE
  5
1D76
330
1C48
100
AcDbEntity
  8
AM_5
100
AcDbLine
 10
7.648770917505999
 20
7.999999999999992
 30
0.0
 11
7.648770917506
 21
10.49999999999999
 31
0.0
  0
MTEXT
  5
1D77
330
1C48
100
AcDbEntity
  8
AM_5
 62
     2
100
AcDbMText
 10
4.411347250917378
 20
-2.428475189894812
 30
0.0
 40
3.799999999999999
 41
0.0
 71
     5
 72
     1
  1
φ11
 11
0.0000000000000001
 21
1.0
 31
0.0
 73
     1
 44
1.0
1001
ACAD
1000
MTEXTBEGIN
1070
    73
1070
     1
1070
    44
1040
1.0
1070
    74
1070
     0
1000
MTEXTEND
  0
LINE
  5
1D78
330
1C48
100
AcDbEntity
  8
AM_5
100
AcDbLine
 10
7.648770917505998
 20
-0.0000000000000031
 30
0.0
 11
7.648770917505999
 21
5.499999999999992
 31
0.0
  0
INSERT
  5
1D79
330
1C48
100
AcDbEntity
  8
AM_5
100
AcDbBlockReference
  2
_Open30
 10
7.648770917505999
 20
5.499999999999992
 30
0.0
 41
2.5
 42
2.5
 43
2.5
 50
270.0
  0
POINT
  5
1D7A
330
1C48
100
AcDbEntity
  8
Defpoints
 62
     0
100
AcDbPoint
 10
-1.758368771513005
 20
-0.0000000000000004
 30
0.0
  0
POINT
  5
1D7B
330
1C48
100
AcDbEntity
  8
Defpoints
 62
     0
100
AcDbPoint
 10
-15.0
 20
5.5
 30
0.0
  0
POINT
  5
1D7C
330
1C48
100
AcDbEntity
  8
Defpoints
 62
     0
100
AcDbPoint
 10
7.648770917505999
 20
5.499999999999992
 30
0.0
  0
ENDBLK
  5
1CAB
330
1C48
100
AcDbEntity
  8
0
100
AcDbBlockEnd
  0
BLOCK
  5
1CAC
330
1C50
100
AcDbEntity
  8
0
100
AcDbBlockBegin
  2
*D32
 70
     1
 10
0.0
 20
0.0
 30
0.0
  3
*D32
  1

  0
LINE
  5
1D7D
330
1C50
100
AcDbEntity
  8
AM_5
100
AcDbLine
 10
-10.00231199999984
 20
9.0
 30
0.0
 11
18.18410404563701
 21
8.999999999999992
 31
0.0
  0
LINE
  5
1D7E
330
1C50
100
AcDbEntity
  8
AM_5
100
AcDbLine
 10
17.18410404563701
 20
-0.0000000000000058
 30
0.0
 11
17.18410404563701
 21
6.499999999999992
 31
0.0
  0
MTEXT
  5
1D7F
330
1C50
100
AcDbEntity
  8
AM_5
 62
     2
100
AcDbMText
 10
13.84083329952805
 20
-1.940903389671461
 30
0.0
 40
3.799999999999999
 41
0.0
 71
     5
 72
     1
  1
φ18
 11
0.0000000000000001
 21
1.0
 31
0.0
 73
     1
 44
1.0
1001
ACAD
1000
MTEXTBEGIN
1070
    73
1070
     1
1070
    44
1040
1.0
1070
    74
1070
     0
1000
MTEXTEND
  0
INSERT
  5
1D80
330
1C50
100
AcDbEntity
  8
AM_5
100
AcDbBlockReference
  2
_Open30
 10
17.18410404563701
 20
8.999999999999992
 30
0.0
 41
2.5
 42
2.5
 43
2.5
 50
90.0
  0
POINT
  5
1D81
330
1C50
100
AcDbEntity
  8
Defpoints
 62
     0
100
AcDbPoint
 10
-1.758368771513005
 20
-0.0000000000000004
 30
0.0
  0
POINT
  5
1D82
330
1C50
100
AcDbEntity
  8
Defpoints
 62
     0
100
AcDbPoint
 10
-10.00231199999984
 20
9.0
 30
0.0
  0
POINT
  5
1D83
330
1C50
100
AcDbEntity
  8
Defpoints
 62
     0
100
AcDbPoint
 10
17.18410404563701
 20
8.999999999999992
 30
0.0
  0
ENDBLK
  5
1CAD
330
1C50
100
AcDbEntity
  8
0
100
AcDbBlockEnd
  0
BLOCK
  5
1D18
330
1CFA
100
AcDbEntity
  8
0
100
AcDbBlockBegin
  2
*D37
 70
     1
 10
0.0
 20
0.0
 30
0.0
  3
*D37
  1

  0
LINE
  5
1D84
330
1CFA
100
AcDbEntity
  8
AM_5
100
AcDbLine
 10
0.0
 20
31.5
 30
0.0
 11
25.66316689428152
 21
31.49999999999999
 31
0.0
  0
LINE
  5
1D85
330
1CFA
100
AcDbEntity
  8
AM_5
100
AcDbLine
 10
24.66316689428152
 20
6.499999999999992
 30
0.0
 11
24.66316689428153
 21
29.0
 31
0.0
  0
INSERT
  5
1D86
330
1CFA
100
AcDbEntity
  8
AM_5
100
AcDbBlockReference
  2
_Open30
 10
24.66316689428153
 20
31.49999999999999
 30
0.0
 41
2.5
 42
2.5
 43
2.5
 50
90.0
  0
MTEXT
  5
1D87
330
1CFA
100
AcDbEntity
  8
AM_5
 62
     2
100
AcDbMText
 10
21.26316689428152
 20
7.46557401491225
 30
0.0
 40
3.799999999999999
 41
0.0
 71
     5
 72
     1
  1
%%c50
 11
0.0000000000000001
 21
1.0
 31
0.0
 73
     1
 44
1.0
1001
ACAD
1000
MTEXTBEGIN
1070
    73
1070
     1
1070
    44
1040
1.0
1070
    74
1070
     0
1000
MTEXTEND
  0
POINT
  5
1D88
330
1CFA
100
AcDbEntity
  8
Defpoints
 62
     0
100
AcDbPoint
 10
-3.134762636170876
 20
6.5
 30
0.0
  0
POINT
  5
1D89
330
1CFA
100
AcDbEntity
  8
Defpoints
 62
     0
100
AcDbPoint
 10
0.0
 20
31.5
 30
0.0
  0
POINT
  5
1D8A
330
1CFA
100
AcDbEntity
  8
Defpoints
 62
     0
100
AcDbPoint
 10
24.66316689428153
 20
31.49999999999999
 30
0.0
  0
ENDBLK
  5
1D19
330
1CFA
100
AcDbEntity
  8
0
100
AcDbBlockEnd
  0
BLOCK
  5
1D1A
330
1D02
100
AcDbEntity
  8
0
100
AcDbBlockBegin
  2
*D38
 70
     1
 10
0.0
 20
0.0
 30
0.0
  3
*D38
  1

  0
LINE
  5
1D8B
330
1D02
100
AcDbEntity
  8
AM_5
100
AcDbLine
 10
-40.00000000000002
 20
25.50000299999999
 30
0.0
 11
-40.00000000000002
 21
55.58076978646704
 31
0.0
  0
LINE
  5
1D8C
330
1D02
100
AcDbEntity
  8
AM_5
100
AcDbLine
 10
0.0
 20
31.5
 30
0.0
 11
0.0000000000000015
 21
55.58076978646704
 31
0.0
  0
LINE
  5
1D8D
330
1D02
100
AcDbEntity
  8
AM_5
100
AcDbLine
 10
-37.50000000000003
 20
54.58076978646705
 30
0.0
 11
-2.499999999999998
 21
54.58076978646705
 31
0.0
  0
INSERT
  5
1D8E
330
1D02
100
AcDbEntity
  8
AM_5
100
AcDbBlockReference
  2
_Open30
 10
-40.00000000000002
 20
54.58076978646705
 30
0.0
 41
2.5
 42
2.5
 43
2.5
 50
180.0
  0
INSERT
  5
1D8F
330
1D02
100
AcDbEntity
  8
AM_5
100
AcDbBlockReference
  2
_Open30
 10
0.0000000000000014
 20
54.58076978646705
 30
0.0
 41
2.5
 42
2.5
 43
2.5
  0
MTEXT
  5
1D90
330
1D02
100
AcDbEntity
  8
AM_5
 62
     2
100
AcDbMText
 10
-25.48718389158444
 20
57.98076978646705
 30
0.0
 40
3.799999999999999
 41
0.0
 71
     5
 72
     1
  1
40
 73
     1
 44
1.0
1001
ACAD
1000
MTEXTBEGIN
1070
    73
1070
     1
1070
    44
1040
1.0
1070
    74
1070
     0
1000
MTEXTEND
  0
POINT
  5
1D91
330
1D02
100
AcDbEntity
  8
Defpoints
 62
     0
100
AcDbPoint
 10
-40.00000000000002
 20
25.50000299999999
 30
0.0
  0
POINT
  5
1D92
330
1D02
100
AcDbEntity
  8
Defpoints
 62
     0
100
AcDbPoint
 10
0.0
 20
31.5
 30
0.0
  0
POINT
  5
1D93
330
1D02
100
AcDbEntity
  8
Defpoints
 62
     0
100
AcDbPoint
 10
0.0000000000000014
 20
54.58076978646705
 30
0.0
  0
ENDBLK
  5
1D1B
330
1D02
100
AcDbEntity
  8
0
100
AcDbBlockEnd
  0
BLOCK
  5
1D1C
330
1D0C
100
AcDbEntity
  8
0
100
AcDbBlockBegin
  2
*D39
 70
     1
 10
0.0
 20
0.0
 30
0.0
  3
*D39
  1

  0
LINE
  5
1D9F
330
1D0C
100
AcDbEntity
  8
AM_5
100
AcDbLine
 10
0.0
 20
31.5
 30
0.0
 11
0.0000000000000036
 21
44.72960253485877
 31
0.0
  0
LINE
  5
1DA0
330
1D0C
100
AcDbEntity
  8
AM_5
100
AcDbLine
 10
-4.61387174724223
 20
36.11387174724223
 30
0.0
 11
-9.354741664801389
 21
40.85474166480136
 31
0.0
  0
ARC
  5
1DA1
330
1D0C
100
AcDbEntity
  8
AM_5
100
AcDbCircle
 10
0.0
 20
31.5
 30
0.0
 40
12.22960253485877
100
AcDbArc
 50
101.7330088305608
 51
123.2669911694392
  0
INSERT
  5
1DA2
330
1D0C
100
AcDbEntity
  8
AM_5
100
AcDbBlockReference
  2
_Open30
 10
0.0000000000000036
 20
43.72960253485877
 30
0.0
 41
2.5
 42
2.5
 43
2.5
 50
5.86650441528039
  0
INSERT
  5
1DA3
330
1D0C
100
AcDbEntity
  8
AM_5
100
AcDbBlockReference
  2
_Open30
 10
-8.647634883614838
 20
40.14763488361481
 30
0.0
 41
2.5
 42
2.5
 43
2.5
 50
219.1334955847197
  0
MTEXT
  5
1DA4
330
1D0C
100
AcDbEntity
  8
AM_5
 62
     2
100
AcDbMText
 10
-7.902170796682931
 20
47.58084198169397
 30
0.0
 40
3.799999999999999
 41
0.0
 71
     5
 72
     1
  1
45°
 73
     1
 44
1.0
1001
ACAD
1000
MTEXTBEGIN
1070
    73
1070
     1
1070
    44
1040
1.0
1070
    74
1070
     0
1000
MTEXTEND
  0
POINT
  5
1DA5
330
1D0C
100
AcDbEntity
  8
Defpoints
 62
     0
100
AcDbPoint
 10
-3.165254050055517
 20
43.31288893367034
 30
0.0
  0
POINT
  5
1DA6
330
1D0C
100
AcDbEntity
  8
Defpoints
 62
     0
100
AcDbPoint
 10
0.0
 20
31.5
 30
0.0
  0
POINT
  5
1DA7
330
1D0C
100
AcDbEntity
  8
Defpoints
 62
     0
100
AcDbPoint
 10
0.0
 20
29.37867965644034
 30
0.0
  0
POINT
  5
1DA8
330
1D0C
100
AcDbEntity
  8
Defpoints
 62
     0
100
AcDbPoint
 10
0.0
 20
31.5
 30
0.0
  0
POINT
  5
1DA9
330
1D0C
100
AcDbEntity
  8
Defpoints
 62
     0
100
AcDbPoint
 10
-4.61387174724223
 20
36.11387174724223
 30
0.0
  0
ENDBLK
  5
1D1D
330
1D0C
100
AcDbEntity
  8
0
100
AcDbBlockEnd
  0
ENDSEC
  0
SECTION
  2
ENTITIES
  0
LINE
  5
1BBF
330
1F
100
AcDbEntity
  8
AM_7
100
AcDbLine
 10
0.0
 20
0.0
 30
0.0
 11
-44.26009227549593
 21
-0.0000000000000004
 31
0.0
1001
GENIUS_GENODEF_13
1002
{
1000
HIER
1070
     0
1002
}
1002
{
1000
MANEDIT
1070
     0
1002
}
1002
{
1000
NOSEL
1070
     0
1002
}
1002
{
1000
BEHIND
1070
     0
1002
}
1002
{
1000
REACTOR
1002
}
1001
GENIUS_GENOBJ-N-CEN_13
1002
{
1000
OWNER
1000
GEN
1002
}
  0
LINE
  5
1BC0
330
1F
100
AcDbEntity
  8
0
100
AcDbLine
 10
-33.10283600000003
 20
25.0
 30
0.0
 11
-39.0
 21
25.0
 31
0.0
  0
LINE
  5
1BC1
330
1F
100
AcDbEntity
  8
0
100
AcDbLine
 10
-10.00231200000007
 20
9.0
 30
0.0
 11
-15.0
 21
9.0
 31
0.0
  0
LINE
  5
1BC2
330
1F
100
AcDbEntity
  8
0
100
AcDbLine
 10
-21.63917500000002
 20
30.32609300000002
 30
0.0
 11
-20.91146499999991
 21
31.18843500000003
 31
0.0
  0
LINE
  5
1BC3
330
1F
100
AcDbEntity
  8
0
100
AcDbLine
 10
-9.002312000000074
 20
19.958482
 30
0.0
 11
-9.002312000000074
 21
10.0
 31
0.0
  0
LINE
  5
1BC4
330
1F
100
AcDbEntity
  8
0
100
AcDbLine
 10
-15.0
 20
9.0
 30
0.0
 11
-15.0
 21
5.5
 31
0.0
  0
LINE
  5
1BC5
330
1F
100
AcDbEntity
  8
0
100
AcDbLine
 10
-15.0
 20
5.5
 30
0.0
 11
-20.0
 21
5.5
 31
0.0
  0
LINE
  5
1BC6
330
1F
100
AcDbEntity
  8
0
100
AcDbLine
 10
-20.0
 20
11.5
 30
0.0
 11
-20.0
 21
5.5
 31
0.0
  0
LINE
  5
1BC7
330
1F
100
AcDbEntity
  8
0
100
AcDbLine
 10
-20.0
 20
11.5
 30
0.0
 11
-23.0
 21
11.5
 31
0.0
  0
LINE
  5
1BC8
330
1F
100
AcDbEntity
  8
0
100
AcDbLine
 10
-23.0
 20
11.5
 30
0.0
 11
-23.0
 21
11.0
 31
0.0
  0
LINE
  5
1BC9
330
1F
100
AcDbEntity
  8
0
100
AcDbLine
 10
-23.0
 20
11.0
 30
0.0
 11
-39.0
 21
11.0
 31
0.0
  0
LINE
  5
1BCA
330
1F
100
AcDbEntity
  8
0
100
AcDbLine
 10
-39.0
 20
11.0
 30
0.0
 11
-40.0
 21
12.0
 31
0.0
  0
LINE
  5
1BCB
330
1F
100
AcDbEntity
  8
0
100
AcDbLine
 10
-40.0
 20
24.0
 30
0.0
 11
-40.0
 21
6.199999999999903
 31
0.0
  0
ARC
  5
1BCC
330
1F
100
AcDbEntity
  8
1
100
AcDbCircle
 10
-39.0
 20
24.0
 30
0.0
 40
1.0
100
AcDbArc
 50
90.0
 51
180.0
  0
ARC
  5
1BCD
330
1F
100
AcDbEntity
  8
1
100
AcDbCircle
 10
-33.10283600000003
 20
40.0
 30
0.0
 40
15.0
100
AcDbArc
 50
270.0
 51
319.8397876207843
  0
ARC
  5
1BCE
330
1F
100
AcDbEntity
  8
1
100
AcDbCircle
 10
-10.00231200000007
 20
10.0
 30
0.0
 40
1.0
100
AcDbArc
 50
270.0
 51
0.0
  0
LINE
  5
1BCF
330
1F
100
AcDbEntity
  8
0
100
AcDbLine
 10
-20.883061
 20
31.15655400000003
 30
0.0
 11
-20.849557
 21
31.17459500000007
 31
0.0
  0
LINE
  5
1BD0
330
1F
100
AcDbEntity
  8
0
100
AcDbLine
 10
-39.0
 20
5.199999999999931
 30
0.0
 11
-33.70000000000004
 21
5.199999999999931
 31
0.0
  0
LINE
  5
1BD1
330
1F
100
AcDbEntity
  8
0
100
AcDbLine
 10
-39.0
 20
-5.200000000000045
 30
0.0
 11
-33.70000000000004
 21
-5.200000000000045
 31
0.0
  0
DIMENSION
  5
1BD2
330
1F
100
AcDbEntity
  8
AM_5
100
AcDbDimension
  2
*D25
 10
-59.88555330631811
 20
-10.99999999999999
 30
0.0
 11
-63.28592732206615
 21
-0.000000000000003
 31
0.0
 70
    32
  1
φ<>
 71
     5
 42
22.0
  3
AM_JIS$0
100
AcDbAlignedDimension
 13
-39.0
 23
11.0
 33
0.0
 14
-39.0
 24
-11.0
 34
0.0
 50
270.0
100
AcDbRotatedDimension
1001
ACAD
1000
DSTYLE
1002
{
1070
    47
1040
0.021
1070
    48
1040
0.0
1070
   271
1070
     0
1070
   274
1070
     4
1002
}
  0
DIMENSION
  5
1BD3
330
1F
100
AcDbEntity
  8
AM_5
100
AcDbDimension
  2
*D26
 10
-33.70000000000004
 20
-24.67909531756561
 30
0.0
 11
-49.3524013642525
 21
-24.67909531756561
 31
0.0
 70
   160
  1
<>
 71
     5
 42
6.299999999999954
  3
AM_JIS$0
100
AcDbAlignedDimension
 13
-40.0
 23
-12.26232854663692
 33
0.0
 14
-33.70000000000004
 24
-5.200000000000045
 34
0.0
100
AcDbRotatedDimension
1001
GENIUS_GENDTOL_13
1000

1000
h7
1000

1040
0.0
1001
ACAD
1000
DSTYLE
1002
{
1070
   271
1070
     1
1002
}
  0
DIMENSION
  5
1BD4
330
1F
100
AcDbEntity
  8
AM_5
100
AcDbDimension
  2
*D27
 10
-20.0
 20
-35.49663947552938
 30
0.0
 11
-30.0
 21
-32.09626545978135
 31
0.0
 70
    32
  1
<>
 71
     5
 42
20.0
  3
AM_JIS$0
100
AcDbAlignedDimension
 13
-40.0
 23
-12.26232854663692
 33
0.0
 14
-20.0
 24
-11.5
 34
0.0
100
AcDbRotatedDimension
1001
GENIUS_GENDTOL_13
1000

1000
h7
1000

1040
0.0
1001
ACAD
1000
DSTYLE
1002
{
1070
   271
1070
     0
1002
}
  0
DIMENSION
  5
1BD5
330
1F
100
AcDbEntity
  8
AM_5
100
AcDbDimension
  2
*D28
 10
-15.0
 20
-46.18063437292517
 30
0.0
 11
-27.5
 21
-42.78026035717714
 31
0.0
 70
    32
  1
<>
 71
     5
 42
25.0
  3
AM_JIS$0
100
AcDbAlignedDimension
 13
-40.0
 23
-12.26232854663692
 33
0.0
 14
-15.0
 24
-9.0
 34
0.0
100
AcDbRotatedDimension
1001
GENIUS_GENDTOL_13
1000

1000
h7
1000

1040
0.0
1001
ACAD
1000
DSTYLE
1002
{
1070
   271
1070
     0
1002
}
  0
DIMENSION
  5
1BD6
330
1F
100
AcDbEntity
  8
AM_5
100
AcDbDimension
  2
*D29
 10
-71.20123724751943
 20
25.00000000000001
 30
0.0
 11
-71.20123724751943
 21
6.835398576160855
 31
0.0
 70
   160
  1
φ<>
 71
     5
 42
50.0
  3
AM_JIS$0
100
AcDbAlignedDimension
 13
-43.50304914066055
 23
-0.0000000000000004
 33
0.0
 14
-39.0
 24
25.0
 34
0.0
 50
270.0
100
AcDbRotatedDimension
1001
GENIUS_GENDTOL_13
1000

1000
h7
1000

1040
0.0
1001
ACAD
1000
DSTYLE
1002
{
1070
   271
1070
     0
1070
    75
1070
     1
1070
   144
1040
2.0
1070
   173
1070
     1
1070
   342
1005
0
1070
   343
1005
3DC
1070
   344
1005
217
1002
}
  0
LINE
  5
1BD7
330
1F
100
AcDbEntity
  8
0
100
AcDbLine
 10
-40.0
 20
6.199999999999903
 30
0.0
 11
-39.0
 21
5.199999999999931
 31
0.0
  0
LINE
  5
1BD8
330
1F
100
AcDbEntity
  8
AM_0
100
AcDbLine
 10
-39.0
 20
5.199999999999931
 30
0.0
 11
-39.0
 21
11.0
 31
0.0
  0
DIMENSION
  5
1BD9
330
1F
100
AcDbEntity
  8
AM_5
100
AcDbDimension
  2
*D30
 10
-47.3384195700022
 20
5.199999999999934
 30
0.0
 11
-47.3384195700022
 21
-0.0000000000000619
 31
0.0
 70
   160
  1
<>
 71
     5
 42
10.39999999999998
  3
AM_JIS$0
100
AcDbAlignedDimension
 13
-39.0
 23
-5.200000000000045
 33
0.0
 14
-39.0
 24
5.199999999999931
 34
0.0
 50
270.0
100
AcDbRotatedDimension
1001
ACAD
1000
DSTYLE
1002
{
1070
    47
1040
0.2
1070
    48
1040
0.0
1070
   271
1070
     1
1070
   272
1070
     1
1070
   274
1070
     0
1002
}
  0
LINE
  5
1BDA
330
1F
100
AcDbEntity
  8
0
100
AcDbLine
 10
-40.0
 20
-6.199999999999931
 30
0.0
 11
-39.0
 21
-5.200000000000045
 31
0.0
  0
LINE
  5
1BDB
330
1F
100
AcDbEntity
  8
AM_0
100
AcDbLine
 10
-39.0
 20
-11.0
 30
0.0
 11
-39.0
 21
-5.200000000000045
 31
0.0
  0
LINE
  5
1BDC
330
1F
100
AcDbEntity
  8
0
100
AcDbLine
 10
-39.0
 20
-11.0
 30
0.0
 11
-40.0
 21
-12.0
 31
0.0
  0
LINE
  5
1BDD
330
1F
100
AcDbEntity
  8
0
100
AcDbLine
 10
-40.0
 20
-6.199999999999931
 30
0.0
 11
-40.0
 21
-12.26232854663692
 31
0.0
  0
DIMENSION
  5
1BDE
330
1F
100
AcDbEntity
  8
AM_5
100
AcDbDimension
  2
*D31
 10
7.648770917505999
 20
5.499999999999992
 30
0.0
 11
7.811347250917378
 21
-2.428475189894812
 31
0.0
 70
   160
  1
φ<>
 71
     5
 42
10.99999999999999
  3
AM_JIS$0
100
AcDbAlignedDimension
 13
-1.758368771513005
 23
-0.0000000000000004
 33
0.0
 14
-15.0
 24
5.5
 34
0.0
 50
90.0
100
AcDbRotatedDimension
1001
GENIUS_GENDTOL_13
1000

1000
h7
1000

1040
0.0
1001
ACAD
1000
DSTYLE
1002
{
1070
    75
1070
     1
1070
   144
1040
2.0
1070
   173
1070
     1
1070
   271
1070
     0
1070
   279
1070
     1
1070
   342
1005
0
1070
   343
1005
3DC
1070
   344
1005
217
1002
}
  0
LINE
  5
1BDF
330
1F
100
AcDbEntity
  8
0
100
AcDbLine
 10
-20.0
 20
11.5
 30
0.0
 11
-20.0
 21
-11.5
 31
0.0
  0
LINE
  5
1BE0
330
1F
100
AcDbEntity
  8
0
100
AcDbLine
 10
-15.0
 20
9.0
 30
0.0
 11
-15.0
 21
-9.0
 31
0.0
  0
LINE
  5
1BE1
330
1F
100
AcDbEntity
  8
0
100
AcDbLine
 10
-23.0
 20
11.5
 30
0.0
 11
-23.0
 21
-11.5
 31
0.0
  0
LINE
  5
1BE2
330
1F
100
AcDbEntity
  8
0
100
AcDbLine
 10
-9.002311999999847
 20
18.84070499999996
 30
0.0
 11
-9.002311999999847
 21
-14.55979896744236
 31
0.0
  0
LINE
  5
1BE3
330
1F
100
AcDbEntity
  8
0
100
AcDbLine
 10
-20.0
 20
-11.5
 30
0.0
 11
-23.0
 21
-11.5
 31
0.0
  0
LINE
  5
1BE4
330
1F
100
AcDbEntity
  8
0
100
AcDbLine
 10
-23.0
 20
-11.0
 30
0.0
 11
-39.0
 21
-11.0
 31
0.0
  0
LINE
  5
1BE5
330
1F
100
AcDbEntity
  8
0
100
AcDbLine
 10
-33.70000000000004
 20
-5.200000000000045
 30
0.0
 11
-33.70000000000004
 21
5.199999999999931
 31
0.0
  0
LINE
  5
1BE6
330
1F
100
AcDbEntity
  8
0
100
AcDbLine
 10
-10.00231199999984
 20
-9.0
 30
0.0
 11
-15.0
 21
-9.0
 31
0.0
  0
ARC
  5
1BE7
330
1F
100
AcDbEntity
  8
1
100
AcDbCircle
 10
-10.00231199999984
 20
-10.0
 30
0.0
 40
1.0
100
AcDbArc
 50
0.0
 51
90.0
  0
LINE
  5
1BE8
330
1F
100
AcDbEntity
  8
0
100
AcDbLine
 10
-15.0
 20
-5.5
 30
0.0
 11
-20.0
 21
-5.5
 31
0.0
  0
LINE
  5
1BE9
330
1F
100
AcDbEntity
  8
0
100
AcDbLine
 10
-15.0
 20
5.5
 30
0.0
 11
-20.0
 21
5.5
 31
0.0
  0
DIMENSION
  5
1BEA
330
1F
100
AcDbEntity
  8
AM_5
100
AcDbDimension
  2
*D32
 10
17.18410404563701
 20
8.999999999999992
 30
0.0
 11
17.24083329952805
 21
-1.940903389671462
 31
0.0
 70
   160
  1
φ<>
 71
     5
 42
18.0
  3
AM_JIS$0
100
AcDbAlignedDimension
 13
-1.758368771513005
 23
-0.0000000000000004
 33
0.0
 14
-10.00231199999984
 24
9.0
 34
0.0
 50
90.0
100
AcDbRotatedDimension
1001
GENIUS_GENDTOL_13
1000

1000
h7
1000

1040
0.0
1001
ACAD
1000
DSTYLE
1002
{
1070
    75
1070
     1
1070
   144
1040
2.0
1070
   173
1070
     1
1070
   271
1070
     0
1070
   279
1070
     1
1070
   342
1005
0
1070
   343
1005
3DC
1070
   344
1005
217
1002
}
  0
LINE
  5
1BEC
330
1F
100
AcDbEntity
  8
0
100
AcDbLine
 10
-18.37863900000002
 20
34.18985399999997
 30
0.0
 11
-22.29057950957594
 21
29.55417349372152
 31
0.0
  0
LINE
  5
1BED
330
1F
100
AcDbEntity
  8
0
100
AcDbLine
 10
-9.002312000000017
 20
10.0
 30
0.0
 11
-9.002312000000017
 21
19.958482
 31
0.0
  0
LINE
  5
1BF0
330
1F
100
AcDbEntity
  8
0
100
AcDbLine
 10
-9.002312000000017
 20
19.958482
 30
0.0
 11
-4.613871747242228
 21
24.76480790919811
 31
0.0
  0
LINE
  5
1BF1
330
1F
100
AcDbEntity
  8
0
100
AcDbLine
 10
-0.6999999999999887
 20
-31.12364000000003
 30
0.0
 11
-0.6999999999999887
 21
28.67867965644035
 31
0.0
  0
LINE
  5
1BF2
330
1F
100
AcDbEntity
  8
0
100
AcDbLine
 10
-16.85015099999998
 20
34.89999999999998
 30
0.0
 11
-7.949063838044139
 21
34.89999999999998
 31
0.0
  0
ARC
  5
1BF3
330
1F
100
AcDbEntity
  8
1
100
AcDbCircle
 10
-16.85015099999998
 20
32.89999999999998
 30
0.0
 40
2.0
100
AcDbArc
 50
90.0
 51
139.8397909957403
  0
LINE
  5
1BF5
330
1F
100
AcDbEntity
  8
0
100
AcDbLine
 10
-33.10283600000003
 20
-25.0
 30
0.0
 11
-39.0
 21
-25.0
 31
0.0
  0
LINE
  5
1BF6
330
1F
100
AcDbEntity
  8
0
100
AcDbLine
 10
-10.00231200000007
 20
-9.0
 30
0.0
 11
-15.0
 21
-9.0
 31
0.0
  0
LINE
  5
1BF7
330
1F
100
AcDbEntity
  8
0
100
AcDbLine
 10
-21.63917500000002
 20
-30.32609300000002
 30
0.0
 11
-20.91146499999991
 21
-31.18843500000003
 31
0.0
  0
LINE
  5
1BF8
330
1F
100
AcDbEntity
  8
0
100
AcDbLine
 10
-9.002312000000074
 20
-19.958482
 30
0.0
 11
-9.002312000000074
 21
-10.0
 31
0.0
  0
LINE
  5
1BF9
330
1F
100
AcDbEntity
  8
0
100
AcDbLine
 10
-20.0
 20
-11.5
 30
0.0
 11
-23.0
 21
-11.5
 31
0.0
  0
LINE
  5
1BFA
330
1F
100
AcDbEntity
  8
0
100
AcDbLine
 10
-23.0
 20
-11.5
 30
0.0
 11
-23.0
 21
-11.0
 31
0.0
  0
LINE
  5
1BFB
330
1F
100
AcDbEntity
  8
0
100
AcDbLine
 10
-23.0
 20
-11.0
 30
0.0
 11
-39.0
 21
-11.0
 31
0.0
  0
LINE
  5
1BFC
330
1F
100
AcDbEntity
  8
0
100
AcDbLine
 10
-39.0
 20
-11.0
 30
0.0
 11
-40.0
 21
-12.0
 31
0.0
  0
ARC
  5
1BFD
330
1F
100
AcDbEntity
  8
1
100
AcDbCircle
 10
-39.0
 20
-24.0
 30
0.0
 40
1.0
100
AcDbArc
 50
180.0
 51
270.0
  0
ARC
  5
1BFE
330
1F
100
AcDbEntity
  8
1
100
AcDbCircle
 10
-33.10283600000003
 20
-40.0
 30
0.0
 40
15.0
100
AcDbArc
 50
40.16021237921561
 51
90.0
  0
ARC
  5
1BFF
330
1F
100
AcDbEntity
  8
1
100
AcDbCircle
 10
-10.00231200000007
 20
-10.0
 30
0.0
 40
1.0
100
AcDbArc
 50
0.0
 51
90.0
  0
LINE
  5
1C00
330
1F
100
AcDbEntity
  8
0
100
AcDbLine
 10
-20.883061
 20
-31.15655400000003
 30
0.0
 11
-20.849557
 21
-31.17459500000007
 31
0.0
  0
LINE
  5
1C01
330
1F
100
AcDbEntity
  8
0
100
AcDbLine
 10
-4.782721999999978
 20
-33.713841
 30
0.0
 11
-5.178876000000002
 21
-34.39999999999998
 31
0.0
  0
LINE
  5
1C02
330
1F
100
AcDbEntity
  8
0
100
AcDbLine
 10
-18.37863900000002
 20
-34.18985399999997
 30
0.0
 11
-22.29057950957594
 21
-29.55417349372152
 31
0.0
  0
LINE
  5
1C03
330
1F
100
AcDbEntity
  8
0
100
AcDbLine
 10
-9.002312000000017
 20
-10.0
 30
0.0
 11
-9.002312000000017
 21
-19.958482
 31
0.0
  0
LINE
  5
1C04
330
1F
100
AcDbEntity
  8
0
100
AcDbLine
 10
-4.782721999999978
 20
-33.713841
 30
0.0
 11
-3.16495900000001
 21
-33.713841
 31
0.0
  0
LINE
  5
1C05
330
1F
100
AcDbEntity
  8
0
100
AcDbLine
 10
-3.16495900000001
 20
-33.713841
 30
0.0
 11
-0.6999999999999887
 21
-31.12364000000003
 31
0.0
  0
LINE
  5
1C06
330
1F
100
AcDbEntity
  8
0
100
AcDbLine
 10
-9.002312000000017
 20
-19.958482
 30
0.0
 11
-0.6999999999999887
 21
-28.88169199999999
 31
0.0
  0
LINE
  5
1C07
330
1F
100
AcDbEntity
  8
0
100
AcDbLine
 10
-16.85015099999998
 20
-34.89999999999998
 30
0.0
 11
-6.044900999999981
 21
-34.89999999999998
 31
0.0
  0
ARC
  5
1C08
330
1F
100
AcDbEntity
  8
1
100
AcDbCircle
 10
-16.85015099999998
 20
-32.89999999999998
 30
0.0
 40
2.0
100
AcDbArc
 50
220.1602090042598
 51
270.0
  0
ARC
  5
1C09
330
1F
100
AcDbEntity
  8
1
100
AcDbCircle
 10
-6.044900999999981
 20
-33.89999999999998
 30
0.0
 40
0.9999996503124391
100
AcDbArc
 50
270.0
 51
329.9999884324255
  0
LINE
  5
1CEA
330
1F
100
AcDbEntity
  8
AM_0
100
AcDbLine
 10
-11.34906383804412
 20
31.5
 30
0.0
 11
-11.34906383804412
 21
29.37867965644034
 31
0.0
  0
LINE
  5
1CEB
330
1F
100
AcDbEntity
  8
AM_0
100
AcDbLine
 10
-11.34906383804412
 20
29.37867965644034
 30
0.0
 11
-6.735192090801888
 21
24.76480790919811
 31
0.0
  0
LINE
  5
1CEC
330
1F
100
AcDbEntity
  8
AM_0
100
AcDbLine
 10
-4.613871747242228
 20
24.76480790919811
 30
0.0
 11
0.0
 21
29.37867965644034
 31
0.0
  0
LINE
  5
1CED
102
{ACAD_REACTORS
330
1CF2
330
1CF5
330
1CF8
102
}
330
1F
100
AcDbEntity
  8
AM_0
100
AcDbLine
 10
0.0
 20
31.5
 30
0.0
 11
-4.613871747242228
 21
36.11387174724223
 31
0.0
  0
LINE
  5
1CEE
330
1F
100
AcDbEntity
  8
AM_0
100
AcDbLine
 10
-4.613871747242228
 20
36.11387174724223
 30
0.0
 11
-6.735192090801888
 21
36.11387174724223
 31
0.0
  0
LINE
  5
1CEF
330
1F
100
AcDbEntity
  8
AM_0
100
AcDbLine
 10
-6.735192090801888
 20
36.11387174724223
 30
0.0
 11
-11.34906383804412
 21
31.5
 31
0.0
  0
DIMENSION
  5
1CF0
102
{ACAD_XDICTIONARY
360
1CF1
102
}
102
{ACAD_REACTORS
330
1CF2
102
}
330
1F
100
AcDbEntity
  8
AM_5
100
AcDbDimension
  2
*D37
 10
24.66316689428153
 20
31.49999999999999
 30
0.0
 11
24.66316689428152
 21
7.465574014912249
 31
0.0
 70
   160
  1
%%c<>
 71
     5
 42
50.0
  3
AM_JIS$0
100
AcDbAlignedDimension
 13
-3.134762636170876
 23
6.5
 33
0.0
 14
0.0
 24
31.5
 34
0.0
 50
90.0
100
AcDbRotatedDimension
1001
ACAD
1000
DSTYLE
1002
{
1070
    75
1070
     1
1070
   144
1040
2.0
1070
   173
1070
     1
1070
   179
1070
     0
1070
   271
1070
     0
1070
   343
1005
3DC
1002
}
  0
DIMENSION
  5
1CF3
102
{ACAD_XDICTIONARY
360
1CF4
102
}
102
{ACAD_REACTORS
330
1CF5
102
}
330
1F
100
AcDbEntity
  8
AM_5
100
AcDbDimension
  2
*D38
 10
0.0000000000000014
 20
54.58076978646705
 30
0.0
 11
-25.48718389158444
 21
54.58076978646705
 31
0.0
 70
   160
 71
     5
 42
40.00000000000002
  3
AM_JIS$0
100
AcDbAlignedDimension
 13
-40.00000000000002
 23
25.50000299999999
 33
0.0
 14
0.0
 24
31.5
 34
0.0
100
AcDbRotatedDimension
1001
ACAD
1000
DSTYLE
1002
{
1070
   179
1070
     0
1070
   271
1070
     0
1002
}
  0
DIMENSION
  5
1CF6
102
{ACAD_XDICTIONARY
360
1CF7
102
}
102
{ACAD_REACTORS
330
1CF8
102
}
330
1F
100
AcDbEntity
  8
AM_5
100
AcDbDimension
  2
*D39
 10
-4.613871747242228
 20
36.11387174724223
 30
0.0
 11
-5.322227705388028
 21
42.33068246979231
 31
0.0
 70
   162
 71
     5
 42
0.7853981633974499
  3
AM_JIS$2
100
AcDb2LineAngularDimension
 13
0.0
 23
29.37867965644034
 33
0.0
 14
0.0
 24
31.5
 34
0.0
 15
0.0
 25
31.5
 35
0.0
 16
-3.165254050055517
 26
43.31288893367034
 36
0.0
1001
ACAD_DIMASSOC_DIMLFAC
1040
1.0
1001
ACAD_DIMASSOC_CALC_DIMLFAC
1040
1.0
1001
ACAD_DIMASSOC_OVERRIDDEN_DIMLFAC
1040
1.0
1001
ACAD
1000
DSTYLE
1002
{
1070
   144
1040
1.0
1070
   179
1070
     0
1070
   271
1070
     0
1070
   279
1070
     1
1002
}
  0
LINE
  5
1CF9
330
1F
100
AcDbEntity
  8
AM_0
100
AcDbLine
 10
-6.735192090801888
 20
24.76480790919811
 30
0.0
 11
-4.613871747242228
 21
24.76480790919811
 31
0.0
  0
LINE
  5
1D29
330
1F
100
AcDbEntity
  8
AM_0
100
AcDbLine
 10
0.0
 20
31.5
 30
0.0
 11
0.0
 21
29.37867965644034
 31
0.0
  0
TEXT
  5
1D3C
330
1F
100
AcDbEntity
  8
AM_0
100
AcDbText
 10
-36.5990411514174
 20
-55.77284325405606
 30
0.0
 40
3.799999999999999
  1
%%uWGC3063RS
  7
ACISOTS
100
AcDbText
  0
ENDSEC
  0
SECTION
  2
OBJECTS
  0
DICTIONARY
  5
C
330
0
100
AcDbDictionary
281
     1
  3
ACAD_COLOR
350
BE
  3
ACAD_GROUP
350
D
  3
ACAD_LAYOUT
350
1A
  3
ACAD_MATERIAL
350
BD
  3
ACAD_MLINESTYLE
350
17
  3
ACAD_PLOTSETTINGS
350
19
  3
ACAD_PLOTSTYLENAME
350
E
  3
ACAD_TABLESTYLE
350
11A
  3
ACDBHEADERROUNDTRIPXREC
350
1DBB
  3
AcDbVariableDictionary
350
94
  3
AcmDictionary
350
5B
  3
AMG
350
41
  3
AMGSNAPSETTINGS
350
1B8
  3
DWGPROPS
350
1DBA
  0
DICTIONARY
  5
34B
330
2
100
AcDbDictionary
280
     1
281
     1
  3
AMLAYER_GROUPCOLORS
360
34C
  0
DICTIONARY
  5
8F
330
1F
100
AcDbDictionary
280
     1
281
     1
  0
DICTIONARY
  5
1CF1
330
1CF0
100
AcDbDictionary
280
     1
281
     1
  3
ACAD_DIMASSOC
360
1CF2
  0
DICTIONARY
  5
1CF4
330
1CF3
100
AcDbDictionary
280
     1
281
     1
  3
ACAD_DIMASSOC
360
1CF5
  0
DICTIONARY
  5
1CF7
330
1CF6
100
AcDbDictionary
280
     1
281
     1
  3
ACAD_DIMASSOC
360
1CF8
  0
DICTIONARY
  5
BE
102
{ACAD_REACTORS
330
C
102
}
330
C
100
AcDbDictionary
281
     1
  0
DICTIONARY
  5
D
102
{ACAD_REACTORS
330
C
102
}
330
C
100
AcDbDictionary
281
     1
  0
DICTIONARY
  5
1A
102
{ACAD_REACTORS
330
C
102
}
330
C
100
AcDbDictionary
281
     1
  3
Model
350
22
  3
レイアウト1
350
1E
  3
レイアウト2
350
26
  0
DICTIONARY
  5
BD
102
{ACAD_REACTORS
330
C
102
}
330
C
100
AcDbDictionary
281
     1
  0
DICTIONARY
  5
17
102
{ACAD_REACTORS
330
C
102
}
330
C
100
AcDbDictionary
281
     1
  3
Standard
350
18
  0
DICTIONARY
  5
19
102
{ACAD_REACTORS
330
C
102
}
330
C
100
AcDbDictionary
281
     1
  0
ACDBDICTIONARYWDFLT
  5
E
102
{ACAD_REACTORS
330
C
102
}
330
C
100
AcDbDictionary
281
     1
  3
Normal
350
F
100
AcDbDictionaryWithDefault
340
F
  0
DICTIONARY
  5
11A
102
{ACAD_REACTORS
330
C
102
}
330
C
100
AcDbDictionary
281
     1
  3
Standard
350
11B
  0
DICTIONARY
  5
1DBB
102
{ACAD_REACTORS
330
C
102
}
330
C
100
AcDbDictionary
281
     1
  0
DICTIONARY
  5
94
102
{ACAD_REACTORS
330
C
102
}
330
C
100
AcDbDictionary
281
     1
  3
CTABLESTYLE
350
138
  3
DIMASSOC
350
96
  3
INDEXCTL
350
95
  3
PROJECTNAME
350
1DB8
  0
DICTIONARY
  5
5B
102
{ACAD_REACTORS
330
C
102
}
330
C
100
AcDbDictionary
281
     1
  3
AcmBOM
350
1B5
  3
AcmStdDictionary
350
61
  3
AMDTSECTSYM_ARROWCOLOR
350
123
  0
DICTIONARY
  5
41
102
{ACAD_REACTORS
330
C
102
}
330
C
100
AcDbDictionary
281
     1
  0
DICTIONARY
  5
1B8
102
{ACAD_REACTORS
330
C
102
}
330
C
100
AcDbDictionary
281
     1
  0
XRECORD
  5
1DBA
102
{ACAD_REACTORS
330
C
102
}
330
C
100
AcDbXrecord
280
     1
  1
DWGPROPS COOKIE
  2

  3

  4

  6

  7

  8

  9

300
AmdtFileType=84
301
=
302
=
303
=
304
=
305
=
306
=
307
=
308
=
309
=
 40
0.0143145949074074
 41
2455544.365957755
 42
2455555.419135556
  1

 90
        1
  0
DICTIONARY
  5
34C
102
{ACAD_REACTORS
330
34B
102
}
330
34B
100
AcDbDictionary
280
     1
281
     1
  0
DIMASSOC
  5
1CF2
102
{ACAD_REACTORS
330
1CF1
102
}
330
1CF1
100
AcDbDimAssoc
330
1CF0
 90
        2
 70
     0
 71
     0
  1
AcDbOsnapPointRef
 72
    13
331
1CED
 73
     0
 91
        0
 40
0.0
 10
0.0
 20
0.0
 30
2.000000000000000E+50
 75
     0
  0
DIMASSOC
  5
1CF5
102
{ACAD_REACTORS
330
1CF4
102
}
330
1CF4
100
AcDbDimAssoc
330
1CF3
 90
        2
 70
     0
 71
     0
  1
AcDbOsnapPointRef
 72
    13
331
1CED
 73
     0
 91
        0
 40
0.0
 10
0.0
 20
0.0
 30
2.000000000000000E+50
 75
     0
  0
DIMASSOC
  5
1CF8
102
{ACAD_REACTORS
330
1CF7
102
}
330
1CF7
100
AcDbDimAssoc
330
1CF6
 90
       12
 70
     1
 71
     0
  1
AcDbOsnapPointRef
 72
    13
331
1CED
 73
     2
 91
        0
 40
0.0
 10
0.0
 20
0.0
 30
2.000000000000000E+50
 75
     0
  1
AcDbOsnapPointRef
 72
     1
331
1CED
 73
     2
 91
        0
 40
0.0
 10
0.0
 20
0.0
 30
2.000000000000000E+50
 75
     0
  0
LAYOUT
  5
22
102
{ACAD_XDICTIONARY
360
1DBE
102
}
102
{ACAD_REACTORS
330
1A
102
}
330
1A
100
AcDbPlotSettings
  1

  2
SII LP-2150 (D-SCAN C2)
  4
User119
  6

 40
3.174999952316284
 41
3.174999952316284
 42
3.175003051757812
 43
3.17498779296875
 44
210.0579986572266
 45
296.9259948730469
 46
0.0
 47
0.0
 48
0.0
 49
0.0
140
0.0
141
0.0
142
1.0
143
1.580715189147934
 70
 11952
 72
     1
 73
     1
 74
     0
  7
sei_cad.ctb
 75
     0
147
0.6326250338234799
148
19.65895403440572
149
1.143774069319647
100
AcDbLayout
  1
Model
 70
     1
 71
     0
 10
0.0
 20
0.0
 11
12.0
 21
9.0
 12
0.0
 22
0.0
 32
0.0
 14
0.0
 24
0.0
 34
0.0
 15
0.0
 25
0.0
 35
0.0
146
0.0
 13
0.0
 23
0.0
 33
0.0
 16
1.0
 26
0.0
 36
0.0
 17
0.0
 27
1.0
 37
0.0
 76
     0
330
1F
1001
ACAD_PSEXT
1000
SII LP-2150 (D-SCAN C2)
1000
SII LP-2150 (D-SCAN C2)
1000
133.153.16.130#3000
1000

1070
     0
  0
LAYOUT
  5
1E
102
{ACAD_XDICTIONARY
360
1DBC
102
}
102
{ACAD_REACTORS
330
1A
102
}
330
1A
100
AcDbPlotSettings
  1

  2

  4

  6

 40
0.0
 41
0.0
 42
0.0
 43
0.0
 44
0.0
 45
0.0
 46
0.0
 47
0.0
 48
0.0
 49
0.0
140
0.0
141
0.0
142
1.0
143
1.0
 70
   688
 72
     0
 73
     0
 74
     5
  7
sei_cad.ctb
 75
    16
147
1.0
148
0.0
149
0.0
100
AcDbLayout
  1
レイアウト1
 70
     1
 71
     1
 10
0.0
 20
0.0
 11
420.0
 21
297.0
 12
0.0
 22
0.0
 32
0.0
 14
1.000000000000000E+20
 24
1.000000000000000E+20
 34
1.000000000000000E+20
 15
-1.000000000000000E+20
 25
-1.000000000000000E+20
 35
-1.000000000000000E+20
146
0.0
 13
0.0
 23
0.0
 33
0.0
 16
1.0
 26
0.0
 36
0.0
 17
0.0
 27
1.0
 37
0.0
 76
     0
330
1B
  0
LAYOUT
  5
26
102
{ACAD_XDICTIONARY
360
1DC0
102
}
102
{ACAD_REACTORS
330
1A
102
}
330
1A
100
AcDbPlotSettings
  1

  2

  4

  6

 40
0.0
 41
0.0
 42
0.0
 43
0.0
 44
0.0
 45
0.0
 46
0.0
 47
0.0
 48
0.0
 49
0.0
140
0.0
141
0.0
142
1.0
143
1.0
 70
   688
 72
     0
 73
     0
 74
     5
  7
sei_cad.ctb
 75
    16
147
1.0
148
0.0
149
0.0
100
AcDbLayout
  1
レイアウト2
 70
     1
 71
     2
 10
0.0
 20
0.0
 11
12.0
 21
9.0
 12
0.0
 22
0.0
 32
0.0
 14
0.0
 24
0.0
 34
0.0
 15
0.0
 25
0.0
 35
0.0
146
0.0
 13
0.0
 23
0.0
 33
0.0
 16
1.0
 26
0.0
 36
0.0
 17
0.0
 27
1.0
 37
0.0
 76
     0
330
23
  0
MLINESTYLE
  5
18
102
{ACAD_REACTORS
330
17
102
}
330
17
100
AcDbMlineStyle
  2
STANDARD
 70
     0
  3

 62
   256
 51
90.0
 52
90.0
 71
     2
 49
0.5
 62
   256
  6
BYLAYER
 49
-0.5
 62
   256
  6
BYLAYER
  0
ACDBPLACEHOLDER
  5
F
102
{ACAD_REACTORS
330
E
102
}
330
E
  0
TABLESTYLE
  5
11B
102
{ACAD_REACTORS
330
11A
102
}
330
11A
100
AcDbTableStyle
  3
Standard
 70
     0
 71
     0
 40
1.5
 41
1.5
280
     0
281
     0
  7
STANDARD
140
4.5
170
     2
 62
     0
 63
     7
283
     0
274
    -2
284
     1
 64
     0
275
    -2
285
     1
 65
     0
276
    -2
286
     1
 66
     0
277
    -2
287
     1
 67
     0
278
    -2
288
     1
 68
     0
279
    -2
289
     1
 69
     0
  7
STANDARD
140
6.0
170
     5
 62
     0
 63
     7
283
     0
274
    -2
284
     1
 64
     0
275
    -2
285
     1
 65
     0
276
    -2
286
     1
 66
     0
277
    -2
287
     1
 67
     0
278
    -2
288
     1
 68
     0
279
    -2
289
     1
 69
     0
  7
STANDARD
140
4.5
170
     5
 62
     0
 63
     7
283
     0
274
    -2
284
     1
 64
     0
275
    -2
285
     1
 65
     0
276
    -2
286
     1
 66
     0
277
    -2
287
     1
 67
     0
278
    -2
288
     1
 68
     0
279
    -2
289
     1
 69
     0
  0
DICTIONARYVAR
  5
138
102
{ACAD_REACTORS
330
94
102
}
330
94
100
DictionaryVariables
280
     0
  1
STANDARD
  0
DICTIONARYVAR
  5
96
102
{ACAD_REACTORS
330
94
102
}
330
94
100
DictionaryVariables
280
     0
  1
2
  0
DICTIONARYVAR
  5
95
102
{ACAD_REACTORS
330
94
102
}
330
94
100
DictionaryVariables
280
     0
  1
0
  0
DICTIONARYVAR
  5
1DB8
102
{ACAD_REACTORS
330
94
102
}
330
94
100
DictionaryVariables
280
     0
  1

  0
DICTIONARY
  5
1B5
102
{ACAD_REACTORS
330
5B
102
}
330
5B
100
AcDbDictionary
281
     1
  0
DICTIONARY
  5
61
102
{ACAD_REACTORS
330
5B
102
}
330
5B
100
AcDbDictionary
281
     1
  0
XRECORD
  5
123
102
{ACAD_REACTORS
330
5B
102
}
330
5B
100
AcDbXrecord
280
     1
 90
-1023410169
  0
DICTIONARY
  5
1DBE
330
22
100
AcDbDictionary
280
     1
281
     1
  3
ACAD_XREC_ROUNDTRIP
360
1DBF
  0
DICTIONARY
  5
1DBC
330
1E
100
AcDbDictionary
280
     1
281
     1
  3
ACAD_XREC_ROUNDTRIP
360
1DBD
  0
DICTIONARY
  5
1DC0
330
26
100
AcDbDictionary
280
     1
281
     1
  3
ACAD_XREC_ROUNDTRIP
360
1DC1
  0
XRECORD
  5
1DBF
102
{ACAD_REACTORS
330
1DBE
102
}
330
1DBE
100
AcDbXrecord
280
     1
102
SHADEPLOT
 70
     0
102
SHADEPLOTRESLEVEL
 70
     2
102
SHADEPLOTCUSTOMDPI
 70
   300
  0
XRECORD
  5
1DBD
102
{ACAD_REACTORS
330
1DBC
102
}
330
1DBC
100
AcDbXrecord
280
     1
102
SHADEPLOT
 70
     0
102
SHADEPLOTRESLEVEL
 70
     2
102
SHADEPLOTCUSTOMDPI
 70
   300
  0
XRECORD
  5
1DC1
102
{ACAD_REACTORS
330
1DC0
102
}
330
1DC0
100
AcDbXrecord
280
     1
102
SHADEPLOT
 70
     0
102
SHADEPLOTRESLEVEL
 70
     2
102
SHADEPLOTCUSTOMDPI
 70
   300
  0
ENDSEC
  0
EOF
