  0
SECTION
  2
HEADER
  9
$ACADVER
  1
AC1014
  9
$ACADMAINTVER
 70
     9
  9
$DWGCODEPAGE
  3
ANSI_932
  9
$INSBASE
 10
0.0
 20
0.0
 30
0.0
  9
$EXTMIN
 10
-91.25607704980401
 20
-106.500001
 30
0.0
  9
$EXTMAX
 10
36.43102745874001
 20
40.0
 30
0.0
  9
$LIMMIN
 10
-100.2431816884136
 20
-132.2498288288252
  9
$LIMMAX
 10
131.7946292086844
 20
67.46680498618889
  9
$ORTHOMODE
 70
     0
  9
$REGENMODE
 70
     1
  9
$FILLMODE
 70
     1
  9
$QTEXTMODE
 70
     0
  9
$MIRRTEXT
 70
     0
  9
$DRAGMODE
 70
     2
  9
$LTSCALE
 40
1.0
  9
$OSMODE
 70
    55
  9
$ATTMODE
 70
     1
  9
$TEXTSIZE
 40
2.5
  9
$TRACEWID
 40
1.0
  9
$TEXTSTYLE
  7
STANDARD
  9
$CLAYER
  8
AM_5
  9
$CELTYPE
  6
BYLAYER
  9
$CECOLOR
 62
   256
  9
$CELTSCALE
 40
1.0
  9
$DELOBJ
 70
     1
  9
$DISPSILH
 70
     0
  9
$DIMSCALE
 40
1.0
  9
$DIMASZ
 40
2.5
  9
$DIMEXO
 40
1.0
  9
$DIMDLI
 40
12.0
  9
$DIMRND
 40
0.0
  9
$DIMDLE
 40
0.0
  9
$DIMEXE
 40
1.0
  9
$DIMTP
 40
0.1
  9
$DIMTM
 40
0.1
  9
$DIMTXT
 40
3.2
  9
$DIMCEN
 40
0.0
  9
$DIMTSZ
 40
0.0
  9
$DIMTOL
 70
     0
  9
$DIMLIM
 70
     0
  9
$DIMTIH
 70
     0
  9
$DIMTOH
 70
     0
  9
$DIMSE1
 70
     0
  9
$DIMSE2
 70
     0
  9
$DIMTAD
 70
     3
  9
$DIMZIN
 70
     8
  9
$DIMBLK
  1
OPEN30
  9
$DIMASO
 70
     1
  9
$DIMSHO
 70
     1
  9
$DIMPOST
  1

  9
$DIMAPOST
  1
"
  9
$DIMALT
 70
     0
  9
$DIMALTD
 70
     2
  9
$DIMALTF
 40
0.0393701
  9
$DIMLFAC
 40
1.0
  9
$DIMTOFL
 70
     1
  9
$DIMTVP
 40
0.0
  9
$DIMTIX
 70
     0
  9
$DIMSOXD
 70
     0
  9
$DIMSAH
 70
     0
  9
$DIMBLK1
  1

  9
$DIMBLK2
  1

  9
$DIMSTYLE
  2
AM_JIS
  9
$DIMCLRD
 70
   256
  9
$DIMCLRE
 70
   256
  9
$DIMCLRT
 70
     2
  9
$DIMTFAC
 40
0.71
  9
$DIMGAP
 40
1.5
  9
$DIMJUST
 70
     0
  9
$DIMSD1
 70
     0
  9
$DIMSD2
 70
     0
  9
$DIMTOLJ
 70
     0
  9
$DIMTZIN
 70
     0
  9
$DIMALTZ
 70
     0
  9
$DIMALTTZ
 70
     0
  9
$DIMFIT
 70
     3
  9
$DIMUPT
 70
     0
  9
$DIMUNIT
 70
     2
  9
$DIMDEC
 70
     3
  9
$DIMTDEC
 70
     3
  9
$DIMALTU
 70
     2
  9
$DIMALTTD
 70
     2
  9
$DIMTXSTY
  7
ASAMI
  9
$DIMAUNIT
 70
     0
  9
$LUNITS
 70
     2
  9
$LUPREC
 70
     2
  9
$SKETCHINC
 40
1.0
  9
$FILLETRAD
 40
2.5
  9
$AUNITS
 70
     0
  9
$AUPREC
 70
     0
  9
$MENU
  1
.
  9
$ELEVATION
 40
0.0
  9
$PELEVATION
 40
0.0
  9
$THICKNESS
 40
0.0
  9
$LIMCHECK
 70
     0
  9
$BLIPMODE
 70
     0
  9
$CHAMFERA
 40
0.5
  9
$CHAMFERB
 40
0.5
  9
$CHAMFERC
 40
20.0
  9
$CHAMFERD
 40
0.0
  9
$SKPOLY
 70
     0
  9
$TDCREATE
 40
2452836.771637361
  9
$TDUPDATE
 40
2453152.363973576
  9
$TDINDWG
 40
0.3400171991
  9
$TDUSRTIMER
 40
0.3400171991
  9
$USRTIMER
 70
     1
  9
$ANGBASE
 50
0.0
  9
$ANGDIR
 70
     0
  9
$PDMODE
 70
     0
  9
$PDSIZE
 40
0.0
  9
$PLINEWID
 40
0.0
  9
$COORDS
 70
     1
  9
$SPLFRAME
 70
     0
  9
$SPLINETYPE
 70
     6
  9
$SPLINESEGS
 70
     8
  9
$ATTDIA
 70
     1
  9
$ATTREQ
 70
     1
  9
$HANDLING
 70
 12289
  9
$HANDSEED
  5
4EE5
  9
$SURFTAB1
 70
     6
  9
$SURFTAB2
 70
     6
  9
$SURFTYPE
 70
     6
  9
$SURFU
 70
     6
  9
$SURFV
 70
     6
  9
$UCSNAME
  2

  9
$UCSORG
 10
0.0
 20
0.0
 30
0.0
  9
$UCSXDIR
 10
1.0
 20
0.0
 30
0.0
  9
$UCSYDIR
 10
0.0
 20
1.0
 30
0.0
  9
$PUCSNAME
  2

  9
$PUCSORG
 10
0.0
 20
0.0
 30
0.0
  9
$PUCSXDIR
 10
1.0
 20
0.0
 30
0.0
  9
$PUCSYDIR
 10
0.0
 20
1.0
 30
0.0
  9
$USERI1
 70
     0
  9
$USERI2
 70
     0
  9
$USERI3
 70
     0
  9
$USERI4
 70
     0
  9
$USERI5
 70
     0
  9
$USERR1
 40
0.0
  9
$USERR2
 40
0.0
  9
$USERR3
 40
0.0
  9
$USERR4
 40
0.0
  9
$USERR5
 40
0.0
  9
$WORLDVIEW
 70
     1
  9
$SHADEDGE
 70
     3
  9
$SHADEDIF
 70
    70
  9
$TILEMODE
 70
     1
  9
$MAXACTVP
 70
    64
  9
$PINSBASE
 10
0.0
 20
0.0
 30
0.0
  9
$PLIMCHECK
 70
     0
  9
$PEXTMIN
 10
1.000000000000000E+20
 20
1.000000000000000E+20
 30
1.000000000000000E+20
  9
$PEXTMAX
 10
-1.000000000000000E+20
 20
-1.000000000000000E+20
 30
-1.000000000000000E+20
  9
$PLIMMIN
 10
0.0
 20
0.0
  9
$PLIMMAX
 10
841.0
 20
594.0
  9
$UNITMODE
 70
     0
  9
$VISRETAIN
 70
     1
  9
$PLINEGEN
 70
     0
  9
$PSLTSCALE
 70
     0
  9
$TREEDEPTH
 70
  3020
  9
$PICKSTYLE
 70
     0
  9
$CMLSTYLE
  2
STANDARD
  9
$CMLJUST
 70
     0
  9
$CMLSCALE
 40
20.0
  9
$PROXYGRAPHICS
 70
     1
  9
$MEASUREMENT
 70
     1
  0
ENDSEC
  0
SECTION
  2
CLASSES
  0
CLASS
  1
ACDBDICTIONARYWDFLT
  2
AcDbDictionaryWithDefault
  3
AutoCAD 2000
 90
        0
280
     0
281
     0
  0
CLASS
  1
ACDBPLACEHOLDER
  2
AcDbPlaceHolder
  3
AutoCAD 2000
 90
        0
280
     0
281
     0
  0
CLASS
  1
LAYOUT
  2
AcDbLayout
  3
AutoCAD 2000
 90
        0
280
     0
281
     0
  0
CLASS
  1
AMGSETTINGSOBJ
  2
AmgSettingsObj
  3
"AcadM|Product Description: AutoCAD Mechanical 2000|Company: Autodesk"
 90
        0
280
     0
281
     0
  0
CLASS
  1
ACME_DOCUMENT
  2
AcMeDbDoc
  3
AcMeServices
 90
        0
280
     0
281
     0
  0
CLASS
  1
ACMESCOPE
  2
AcMeScope
  3
AcMeServices
 90
        0
280
     0
281
     0
  0
CLASS
  1
ACMECOMMANDHISTORY
  2
AcMeCommandHistory
  3
AcMeServices
 90
        0
280
     0
281
     0
  0
CLASS
  1
DICTIONARYVAR
  2
AcDbDictionaryVar
  3
AutoCAD 2000
 90
        0
280
     0
281
     0
  0
CLASS
  1
ACIMSYSVARMAN
  2
AcImSysVarManager
  3
AcMeServices
 90
        0
280
     0
281
     0
  0
CLASS
  1
ACIMREALSYSVAR
  2
AcImRealSysVar
  3
AcMeServices
 90
        0
280
     0
281
     0
  0
CLASS
  1
ACIMINTSYSVAR
  2
AcImIntSysVar
  3
AcMeServices
 90
        0
280
     0
281
     0
  0
CLASS
  1
ACMEDRAWINGMAN
  2
AcMeDrawingMan
  3
AcMeServices
 90
        0
280
     0
281
     0
  0
CLASS
  1
ACMEVIEW
  2
AcMeView
  3
AcMeServices
 90
        0
280
     0
281
     0
  0
CLASS
  1
ACDBENTITYCACHE
  2
AcMeEntityCache
  3
AcMeServices
 90
        0
280
     0
281
     0
  0
CLASS
  1
GSMANAGER
  2
AcMeGSManager
  3
AcMeServices
 90
        0
280
     0
281
     0
  0
CLASS
  1
AmdtInternalReactor
  2
AmdtInternalReactor
  3
AcMeServices
 90
        0
280
     0
281
     0
  0
CLASS
  1
ACMESTATEMGR
  2
AcMeStateMgr
  3
AcMeServices
 90
        0
280
     0
281
     0
  0
CLASS
  1
ACME_DATABASE
  2
AcMeDbDatabase
  3
AcMeServices
 90
        0
280
     0
281
     0
  0
CLASS
  1
ACRFINSADJUSTERMGR
  2
AcRfInsAdjusterMgr
  3
AcMeServices
 90
        0
280
     0
281
     0
  0
CLASS
  1
ACMDATADICTIONARY
  2
AcmDataDictionary
  3
"AcmSymBB|Product Description: AutoCAD Mechanical 2000|Company: Autodesk"
 90
        0
280
     0
281
     0
  0
CLASS
  1
ACMDATAENTRYBLOCK
  2
AcmDataEntryBlock
  3
"AcmSymBB|Product Description: AutoCAD Mechanical 2000|Company: Autodesk"
 90
        0
280
     0
281
     0
  0
CLASS
  1
AMGOBJPROPCFG
  2
AmgObjPropCfg
  3
"AmgLay|Product Description: AutoCAD Mechanical 2000|Company: Autodesk"
 90
        1
280
     0
281
     0
  0
CLASS
  1
ACAMGFILTERDAT
  2
AcAmgFilterDat
  3
"AcadM|Product Description: AutoCAD Mechanical 2000|Company: Autodesk"
 90
        0
280
     0
281
     0
  0
CLASS
  1
LAYER_INDEX
  2
AcDbLayerIndex
  3
AutoCAD 2000
 90
        0
280
     0
281
     0
  0
CLASS
  1
IDBUFFER
  2
AcDbIdBuffer
  3
AutoCAD 2000
 90
        0
280
     0
281
     0
  0
CLASS
  1
ACIMSTRSYSVAR
  2
AcImStrSysVar
  3
AcMeServices
 90
        0
280
     0
281
     0
  0
CLASS
  1
ACMSTANDARDJIS
  2
AcmStandardJIS
  3
"AcmSymBB|Product Description: AutoCAD Mechanical 2000|Company: Autodesk"
 90
        0
280
     0
281
     0
  0
CLASS
  1
ACMSURFSTANDARDJIS
  2
AcmSurfTextStdJIS
  3
"AcmSymBB|Product Description: AutoCAD Mechanical 2000|Company: Autodesk"
 90
        0
280
     0
281
     0
  0
CLASS
  1
ACMFCFSTANDARDJIS
  2
AcmFCFStdJIS
  3
"AcmSymBB|Product Description: AutoCAD Mechanical 2000|Company: Autodesk"
 90
        0
280
     0
281
     0
  0
CLASS
  1
ACMWELDSTANDARDJIS
  2
AcmWeldingStdJIS
  3
"AcmSymBB|Product Description: AutoCAD Mechanical 2000|Company: Autodesk"
 90
        0
280
     0
281
     0
  0
CLASS
  1
ACMIDSTANDARDJIS
  2
AcmIdStdJIS
  3
"AcmSymBB|Product Description: AutoCAD Mechanical 2000|Company: Autodesk"
 90
        0
280
     0
281
     0
  0
CLASS
  1
ACMDATUMSTANDARDJIS
  2
AcmDatumStdJIS
  3
"AcmSymBB|Product Description: AutoCAD Mechanical 2000|Company: Autodesk"
 90
        0
280
     0
281
     0
  0
CLASS
  1
ACMBOMSTANDARDJIS
  2
AcmBOMStdJIS
  3
"AcmSymBB|Product Description: AutoCAD Mechanical 2000|Company: Autodesk"
 90
        0
280
     0
281
     0
  0
CLASS
  1
ACMSTANDARDANSI
  2
AcmStandardANSI
  3
"AcmSymBB|Product Description: AutoCAD Mechanical 2000|Company: Autodesk"
 90
        0
280
     0
281
     0
  0
CLASS
  1
ACMSURFSTANDARDANSI
  2
AcmSurfTextStdANSI
  3
"AcmSymBB|Product Description: AutoCAD Mechanical 2000|Company: Autodesk"
 90
        0
280
     0
281
     0
  0
CLASS
  1
ACMFCFSTANDARDANSI
  2
AcmFCFStdANSI
  3
"AcmSymBB|Product Description: AutoCAD Mechanical 2000|Company: Autodesk"
 90
        0
280
     0
281
     0
  0
CLASS
  1
ACMWELDSTANDARDANSI
  2
AcmWeldingStdANSI
  3
"AcmSymBB|Product Description: AutoCAD Mechanical 2000|Company: Autodesk"
 90
        0
280
     0
281
     0
  0
CLASS
  1
ACMIDSTANDARDANSI
  2
AcmIdStdANSI
  3
"AcmSymBB|Product Description: AutoCAD Mechanical 2000|Company: Autodesk"
 90
        0
280
     0
281
     0
  0
CLASS
  1
ACMDATUMSTANDARDANSI
  2
AcmDatumStdANSI
  3
"AcmSymBB|Product Description: AutoCAD Mechanical 2000|Company: Autodesk"
 90
        0
280
     0
281
     0
  0
CLASS
  1
ACMBOMSTANDARDANSI
  2
AcmBOMStdANSI
  3
"AcmSymBB|Product Description: AutoCAD Mechanical 2000|Company: Autodesk"
 90
        0
280
     0
281
     0
  0
CLASS
  1
ACMSTANDARDBSI
  2
AcmStandardBSI
  3
"AcmSymBB|Product Description: AutoCAD Mechanical 2000|Company: Autodesk"
 90
        0
280
     0
281
     0
  0
CLASS
  1
ACMSURFSTANDARDBSI
  2
AcmSurfTextStdBSI
  3
"AcmSymBB|Product Description: AutoCAD Mechanical 2000|Company: Autodesk"
 90
        0
280
     0
281
     0
  0
CLASS
  1
ACMFCFSTANDARDBSI
  2
AcmFCFStdBSI
  3
"AcmSymBB|Product Description: AutoCAD Mechanical 2000|Company: Autodesk"
 90
        0
280
     0
281
     0
  0
CLASS
  1
ACMWELDSTANDARDBSI
  2
AcmWeldingStdBSI
  3
"AcmSymBB|Product Description: AutoCAD Mechanical 2000|Company: Autodesk"
 90
        0
280
     0
281
     0
  0
CLASS
  1
ACMIDSTANDARDBSI
  2
AcmIdStdBSI
  3
"AcmSymBB|Product Description: AutoCAD Mechanical 2000|Company: Autodesk"
 90
        0
280
     0
281
     0
  0
CLASS
  1
ACMDATUMSTANDARDBSI
  2
AcmDatumStdBSI
  3
"AcmSymBB|Product Description: AutoCAD Mechanical 2000|Company: Autodesk"
 90
        0
280
     0
281
     0
  0
CLASS
  1
ACMBOMSTANDARDBSI
  2
AcmBOMStdBSI
  3
"AcmSymBB|Product Description: AutoCAD Mechanical 2000|Company: Autodesk"
 90
        0
280
     0
281
     0
  0
CLASS
  1
LONG_TRANSACTION
  2
AcDbLongTransaction
  3
AutoCAD 2000
 90
        0
280
     0
281
     0
  0
CLASS
  1
LWPOLYLINE
  2
AcDbPolyline
  3
AutoCAD 2000
 90
        0
280
     0
281
     1
  0
CLASS
  1
HATCH
  2
AcDbHatch
  3
AutoCAD 2000
 90
        0
280
     0
281
     1
  0
CLASS
  1
XRECORD
  2
AcDbXrecord
  3
AutoCAD 2000
 90
        0
280
     0
281
     0
  0
ENDSEC
  0
SECTION
  2
TABLES
  0
TABLE
  2
VPORT
  5
8
330
0
100
AcDbSymbolTable
 70
     3
  0
VPORT
  5
4E53
330
8
100
AcDbSymbolTableRecord
100
AcDbViewportTableRecord
  2
*ACTIVE
 70
     0
 10
0.0
 20
0.0
 11
1.0
 21
1.0
 12
-25.56565190075929
 22
-31.22983561607975
 13
0.0
 23
0.0
 14
2.5
 24
2.5
 15
10.0
 25
10.0
 16
0.0
 26
0.0
 36
1.0
 17
0.0
 27
0.0
 37
0.0
 40
155.6798916289499
 41
1.56570841889117
 42
50.0
 43
0.0
 44
0.0
 50
0.0
 51
0.0
 71
     0
 72
   100
 73
     1
 74
     3
 75
     0
 76
     0
 77
     0
 78
     0
  0
ENDTAB
  0
TABLE
  2
LTYPE
  5
5
330
0
100
AcDbSymbolTable
 70
    10
  0
LTYPE
  5
14
330
5
100
AcDbSymbolTableRecord
100
AcDbLinetypeTableRecord
  2
BYBLOCK
 70
     0
  3

 72
    65
 73
     0
 40
0.0
  0
LTYPE
  5
15
330
5
100
AcDbSymbolTableRecord
100
AcDbLinetypeTableRecord
  2
BYLAYER
 70
     0
  3

 72
    65
 73
     0
 40
0.0
  0
LTYPE
  5
16
330
5
100
AcDbSymbolTableRecord
100
AcDbLinetypeTableRecord
  2
CONTINUOUS
 70
     0
  3
Solid line
 72
    65
 73
     0
 40
0.0
  0
LTYPE
  5
4B
330
5
100
AcDbSymbolTableRecord
100
AcDbLinetypeTableRecord
  2
AM_ISO02W050
 70
     0
  3
__ __ __ __ __ __ __ __ __ __ __ __ __ __ __
 72
    65
 73
     2
 40
7.5
 49
6.0
 74
     0
 49
-1.5
 74
     0
  0
LTYPE
  5
4C
330
5
100
AcDbSymbolTableRecord
100
AcDbLinetypeTableRecord
  2
AM_ISO08W050
 70
     0
  3
____ . ____ . ____ . ____ . ____ . ____ . ____
 72
    65
 73
     4
 40
18.0
 49
12.0
 74
     0
 49
-1.5
 74
     0
 49
3.0
 74
     0
 49
-1.5
 74
     0
  0
LTYPE
  5
4D
330
5
100
AcDbSymbolTableRecord
100
AcDbLinetypeTableRecord
  2
AM_ISO09W050
 70
     0
  3
_____ . . _____ . . _____ . . ____ .. ____
 72
    65
 73
     6
 40
22.5
 49
12.0
 74
     0
 49
-1.5
 74
     0
 49
3.0
 74
     0
 49
-1.5
 74
     0
 49
3.0
 74
     0
 49
-1.5
 74
     0
  0
LTYPE
  5
4E
330
5
100
AcDbSymbolTableRecord
100
AcDbLinetypeTableRecord
  2
AMCONSTR
 70
     0
  3
_______________________
 72
    65
 73
     2
 40
9999.0
 49
9999.0
 74
     0
 49
0.0
 74
     0
  0
LTYPE
  5
4F
330
5
100
AcDbSymbolTableRecord
100
AcDbLinetypeTableRecord
  2
AM_ISO02W050X2
 70
     0
  3
 _ _ _ _ _ _ _ _ _ _ _ _
 72
    65
 73
     2
 40
3.75
 49
3.0
 74
     0
 49
-0.75
 74
     0
  0
LTYPE
  5
50
330
5
100
AcDbSymbolTableRecord
100
AcDbLinetypeTableRecord
  2
AM_ISO08W050X2
 70
     0
  3
__ . __ . __ . __ . __ . __
 72
    65
 73
     4
 40
9.0
 49
6.0
 74
     0
 49
-0.75
 74
     0
 49
1.5
 74
     0
 49
-0.75
 74
     0
  0
LTYPE
  5
53
330
5
100
AcDbSymbolTableRecord
100
AcDbLinetypeTableRecord
  2
AMZIGZAG
 70
     0
  3
/\/-/\/-/\/-/\/-/\/-/\/
 72
    65
 73
     2
 40
11.00009999999999
 49
0.0001
 74
     4
 75
   135
340
52
 46
0.04
 50
0.0
 44
0.0
 45
0.0
 49
-11.0
 74
     0
  0
LTYPE
  5
166
330
5
100
AcDbSymbolTableRecord
100
AcDbLinetypeTableRecord
  2
ACJISTGL
 70
     0
  3
_ _ _ _ _
 72
    65
 73
     2
 40
3.0
 49
2.0
 74
     0
 49
-1.0
 74
     0
  0
LTYPE
  5
26A
330
5
100
AcDbSymbolTableRecord
100
AcDbLinetypeTableRecord
  2
ACJISTGB
 70
     0
  3
__ . . __ . .
 72
    65
 73
     6
 40
9.0
 49
4.0
 74
     0
 49
-1.0
 74
     0
 49
1.0
 74
     0
 49
-1.0
 74
     0
 49
1.0
 74
     0
 49
-1.0
 74
     0
  0
ENDTAB
  0
TABLE
  2
LAYER
  5
2
330
0
100
AcDbSymbolTable
 70
     7
  0
LAYER
  5
10
330
2
100
AcDbSymbolTableRecord
100
AcDbLayerTableRecord
  2
0
 70
     0
 62
     7
  6
CONTINUOUS
  0
LAYER
  5
BD4
330
2
100
AcDbSymbolTableRecord
100
AcDbLayerTableRecord
  2
AM_11
 70
     0
 62
     3
  6
AM_ISO09W050
  0
LAYER
  5
BD5
330
2
100
AcDbSymbolTableRecord
100
AcDbLayerTableRecord
  2
AM_7
 70
     0
 62
     4
  6
AM_ISO08W050
  0
LAYER
  5
BD6
330
2
100
AcDbSymbolTableRecord
100
AcDbLayerTableRecord
  2
AM_5
 70
     0
 62
     3
  6
CONTINUOUS
  0
LAYER
  5
BD7
330
2
100
AcDbSymbolTableRecord
100
AcDbLayerTableRecord
  2
DEFPOINTS
 70
     0
 62
     7
  6
CONTINUOUS
  0
LAYER
  5
E59
330
2
100
AcDbSymbolTableRecord
100
AcDbLayerTableRecord
  2
AM_6
 70
     0
 62
     2
  6
CONTINUOUS
  0
LAYER
  5
4062
330
2
100
AcDbSymbolTableRecord
100
AcDbLayerTableRecord
  2
AM_0
 70
     0
 62
     7
  6
CONTINUOUS
  0
ENDTAB
  0
TABLE
  2
STYLE
  5
3
330
0
100
AcDbSymbolTable
 70
     5
  0
STYLE
  5
11
330
3
100
AcDbSymbolTableRecord
100
AcDbTextStyleTableRecord
  2
STANDARD
 70
     0
 40
0.0
 41
1.0
 50
0.0
 71
     0
 42
2.5
  3
simplex.shx
  4
EXTFONT.SHX
  0
STYLE
  5
52
330
3
100
AcDbSymbolTableRecord
100
AcDbTextStyleTableRecord
  2

 70
     1
 40
0.0
 41
1.0
 50
0.0
 71
     0
 42
2.5
  3
ltypeshp.shx
  4

  0
STYLE
  5
6B
330
3
100
AcDbSymbolTableRecord
100
AcDbTextStyleTableRecord
  2
ASAMI
 70
     0
 40
0.0
 41
1.0
 50
0.0
 71
     0
 42
2.5
  3
simplex.shx
  4
EXTFONT.SHX
  0
STYLE
  5
262
330
3
100
AcDbSymbolTableRecord
100
AcDbTextStyleTableRecord
  2
ACJISTS
 70
     0
 40
1.0
 41
1.0
 50
0.0
 71
     0
 42
2.5
  3
simplex.shx
  4
bigfont.shx
  0
STYLE
  5
269
330
3
100
AcDbSymbolTableRecord
100
AcDbTextStyleTableRecord
  2
ACJISGDT
 70
     0
 40
0.0
 41
1.0
 50
0.0
 71
     0
 42
2.5
  3
amgdtans.shx
  4

  0
ENDTAB
  0
TABLE
  2
VIEW
  5
6
330
0
100
AcDbSymbolTable
 70
     0
  0
ENDTAB
  0
TABLE
  2
UCS
  5
7
330
0
100
AcDbSymbolTable
 70
     0
  0
ENDTAB
  0
TABLE
  2
APPID
  5
9
330
0
100
AcDbSymbolTable
 70
    12
  0
APPID
  5
12
330
9
100
AcDbSymbolTableRecord
100
AcDbRegAppTableRecord
  2
ACAD
 70
     0
  0
APPID
  5
30
330
9
100
AcDbSymbolTableRecord
100
AcDbRegAppTableRecord
  2
MCAD_NO_VIS
 70
     0
  0
APPID
  5
31
330
9
100
AcDbSymbolTableRecord
100
AcDbRegAppTableRecord
  2
ACAD_TEMP_GRAPHIC
 70
     0
  0
APPID
  5
2C2
330
9
100
AcDbSymbolTableRecord
100
AcDbRegAppTableRecord
  2
GENIUS_GENDTOL_13
 70
     0
  0
APPID
  5
339
330
9
100
AcDbSymbolTableRecord
100
AcDbRegAppTableRecord
  2
GENIUS_GENODEF_13
 70
     0
  0
APPID
  5
33A
330
9
100
AcDbSymbolTableRecord
100
AcDbRegAppTableRecord
  2
GENIUS_GENOBJ-N-RSBK_13
 70
     0
  0
APPID
  5
33B
330
9
100
AcDbSymbolTableRecord
100
AcDbRegAppTableRecord
  2
GENIUS_GENOBJ-N-LIB_13
 70
     0
  0
APPID
  5
33C
330
9
100
AcDbSymbolTableRecord
100
AcDbRegAppTableRecord
  2
GENIUS_GENSCALE_13
 70
     0
  0
APPID
  5
378
330
9
100
AcDbSymbolTableRecord
100
AcDbRegAppTableRecord
  2
GENIUS_GENDIMSH_14
 70
     0
  0
APPID
  5
BD8
330
9
100
AcDbSymbolTableRecord
100
AcDbRegAppTableRecord
  2
GENIUS_GENOBJ-N-CEN_13
 70
     0
  0
APPID
  5
BD9
330
9
100
AcDbSymbolTableRecord
100
AcDbRegAppTableRecord
  2
GENIUS_GENFIL_13
 70
     0
  0
APPID
  5
BDA
330
9
100
AcDbSymbolTableRecord
100
AcDbRegAppTableRecord
  2
GENIUS_GENOBJ-N-CHA_13
 70
     0
  0
ENDTAB
  0
TABLE
  2
DIMSTYLE
  5
A
330
0
100
AcDbSymbolTable
 70
     9
  0
DIMSTYLE
105
58
330
A
100
AcDbSymbolTableRecord
100
AcDbDimStyleTableRecord
  2
AM_JIS
 70
     0
  3

  4
"
  5
OPEN30
  6

  7

 40
1.0
 41
2.5
 42
1.0
 43
12.0
 44
1.0
 45
0.0
 46
0.0
 47
0.1
 48
0.1
140
3.2
141
0.0
142
0.0
143
0.0393701
144
1.0
145
0.0
146
0.71
147
1.5
 71
     0
 72
     0
 73
     0
 74
     0
 75
     0
 76
     0
 77
     3
 78
     8
170
     0
171
     2
172
     1
173
     0
174
     0
175
     0
176
   256
177
   256
178
     2
270
     2
271
     3
272
     3
273
     2
274
     2
340
6B
275
     0
280
     0
281
     0
282
     0
283
     0
284
     0
285
     0
286
     0
287
     3
288
     0
  0
DIMSTYLE
105
5F
330
A
100
AcDbSymbolTableRecord
100
AcDbDimStyleTableRecord
  2
AM_JIS$3
 70
     0
  3

  4
"
  5
OPEN30
  6

  7

 40
1.0
 41
2.5
 42
1.0
 43
10.0
 44
1.0
 45
0.0
 46
0.0
 47
0.1
 48
0.1
140
3.2
141
0.0
142
0.0
143
0.0393701
144
1.0
145
0.0
146
0.71
147
1.5
 71
     0
 72
     0
 73
     0
 74
     1
 75
     0
 76
     0
 77
     3
 78
     8
170
     0
171
     2
172
     0
173
     0
174
     0
175
     0
176
   256
177
   256
178
     2
270
     2
271
     2
272
     3
273
     2
274
     2
340
6B
275
     0
280
     0
281
     0
282
     0
283
     0
284
     0
285
     0
286
     0
287
     0
288
     1
  0
DIMSTYLE
105
60
330
A
100
AcDbSymbolTableRecord
100
AcDbDimStyleTableRecord
  2
AM_JIS$4
 70
     0
  3

  4
"
  5
OPEN30
  6

  7

 40
1.0
 41
2.5
 42
1.0
 43
10.0
 44
1.0
 45
0.0
 46
0.0
 47
0.1
 48
0.1
140
3.2
141
0.0
142
0.0
143
0.0393701
144
1.0
145
0.0
146
0.71
147
1.5
 71
     0
 72
     0
 73
     0
 74
     1
 75
     0
 76
     0
 77
     3
 78
     8
170
     0
171
     2
172
     0
173
     0
174
     0
175
     0
176
   256
177
   256
178
     2
270
     2
271
     2
272
     3
273
     2
274
     2
340
6B
275
     0
280
     0
281
     0
282
     0
283
     0
284
     0
285
     0
286
     0
287
     0
288
     1
  0
DIMSTYLE
105
61
330
A
100
AcDbSymbolTableRecord
100
AcDbDimStyleTableRecord
  2
AM_JIS$6
 70
     0
  3

  4
"
  5
OPEN30
  6

  7

 40
1.0
 41
2.5
 42
1.0
 43
10.0
 44
1.0
 45
0.0
 46
0.0
 47
0.1
 48
0.1
140
3.2
141
0.0
142
0.0
143
0.0393701
144
1.0
145
0.0
146
0.71
147
1.5
 71
     0
 72
     0
 73
     0
 74
     0
 75
     0
 76
     0
 77
     0
 78
     8
170
     0
171
     2
172
     1
173
     0
174
     0
175
     0
176
   256
177
   256
178
     2
270
     2
271
     2
272
     2
273
     2
274
     2
340
6B
275
     0
280
     0
281
     0
282
     0
283
     0
284
     0
285
     0
286
     0
287
     3
288
     0
  0
DIMSTYLE
105
62
330
A
100
AcDbSymbolTableRecord
100
AcDbDimStyleTableRecord
  2
AM_JIS$7
 70
     0
  3

  4
"
  5
OPEN30
  6

  7

 40
1.0
 41
2.5
 42
1.0
 43
10.0
 44
1.0
 45
0.0
 46
0.0
 47
0.1
 48
0.1
140
3.2
141
0.0
142
0.0
143
0.0393701
144
1.0
145
0.0
146
0.71
147
1.5
 71
     0
 72
     0
 73
     0
 74
     0
 75
     0
 76
     0
 77
     3
 78
     8
170
     0
171
     2
172
     1
173
     0
174
     0
175
     0
176
   256
177
   256
178
     2
270
     2
271
     2
272
     3
273
     2
274
     2
340
6B
275
     0
280
     0
281
     0
282
     0
283
     0
284
     0
285
     0
286
     0
287
     3
288
     0
  0
DIMSTYLE
105
63
330
A
100
AcDbSymbolTableRecord
100
AcDbDimStyleTableRecord
  2
AM_JIS$SF
 70
     0
  3

  4
"
  5
OPEN30
  6

  7

 40
1.0
 41
2.5
 42
1.0
 43
10.0
 44
1.0
 45
0.0
 46
0.0
 47
0.1
 48
0.1
140
3.2
141
0.0
142
0.0
143
0.0393701
144
1.0
145
0.0
146
0.71
147
1.5
 71
     0
 72
     0
 73
     0
 74
     0
 75
     1
 76
     1
 77
     3
 78
     8
170
     0
171
     2
172
     1
173
     0
174
     0
175
     0
176
   256
177
   256
178
     2
270
     2
271
     2
272
     2
273
     2
274
     2
340
6B
275
     0
280
     0
281
     0
282
     0
283
     0
284
     0
285
     0
286
     0
287
     3
288
     0
  0
DIMSTYLE
105
68
330
A
100
AcDbSymbolTableRecord
100
AcDbDimStyleTableRecord
  2
AM_JIS$SH
 70
     0
  3

  4
"
  5

  6
GENAXEH
  7
OPEN30
 40
1.0
 41
2.5
 42
1.0
 43
10.0
 44
1.0
 45
0.0
 46
0.0
 47
0.1
 48
0.1
140
3.2
141
0.0
142
0.0
143
0.0393701
144
2.0
145
0.0
146
0.71
147
1.5
 71
     0
 72
     0
 73
     0
 74
     0
 75
     1
 76
     1
 77
     3
 78
     8
170
     0
171
     2
172
     1
173
     1
174
     0
175
     0
176
   256
177
   256
178
     2
270
     2
271
     2
272
     2
273
     2
274
     2
340
6B
275
     0
280
     0
281
     0
282
     0
283
     0
284
     0
285
     0
286
     0
287
     3
288
     0
  0
DIMSTYLE
105
B34
330
A
100
AcDbSymbolTableRecord
100
AcDbDimStyleTableRecord
  2
AM_JIS$2
 70
     0
  3

  4
"
  5
OPEN30
  6

  7

 40
1.0
 41
2.5
 42
1.0
 43
12.0
 44
1.0
 45
0.0
 46
0.0
 47
0.1
 48
0.1
140
3.2
141
0.0
142
0.0
143
0.0393701
144
1.0
145
0.0
146
0.71
147
1.5
 71
     0
 72
     0
 73
     0
 74
     0
 75
     0
 76
     0
 77
     3
 78
     8
170
     0
171
     2
172
     1
173
     0
174
     0
175
     0
176
   256
177
   256
178
     2
270
     2
271
     3
272
     3
273
     2
274
     2
340
6B
275
     0
280
     0
281
     0
282
     0
283
     0
284
     0
285
     0
286
     0
287
     3
288
     0
  0
DIMSTYLE
105
1AB6
102
{ACAD_REACTORS
330
441D
330
4421
330
4422
330
4423
330
4425
330
4426
330
4427
330
4424
330
4420
330
4913
330
4C9A
102
}
330
A
100
AcDbSymbolTableRecord
100
AcDbDimStyleTableRecord
  2
AM_JIS$0
 70
     0
  3

  4
"
  5
OPEN30
  6

  7

 40
1.0
 41
2.5
 42
0.0
 43
10.0
 44
1.0
 45
0.0
 46
0.0
 47
0.1
 48
0.1000000001
140
3.799999999999999
141
0.0
142
0.0
143
0.0393701
144
1.0
145
0.0
146
0.71
147
1.5
 71
     0
 72
     0
 73
     0
 74
     0
 75
     0
 76
     0
 77
     3
 78
     1
170
     0
171
     2
172
     1
173
     0
174
     0
175
     0
176
     3
177
     3
178
     2
270
     2
271
     2
272
     2
273
     2
274
     2
340
11
275
     1
280
     0
281
     0
282
     0
283
     0
284
     8
285
     0
286
     0
287
     0
288
     0
  0
ENDTAB
  0
TABLE
  2
BLOCK_RECORD
  5
1
330
0
100
AcDbSymbolTable
 70
    16
  0
BLOCK_RECORD
  5
1F
102
{ACAD_XDICTIONARY
360
74
102
}
330
1
100
AcDbSymbolTableRecord
100
AcDbBlockTableRecord
  2
*MODEL_SPACE
  0
BLOCK_RECORD
  5
101
102
{ACAD_XDICTIONARY
360
4E7C
102
}
330
1
100
AcDbSymbolTableRecord
100
AcDbBlockTableRecord
  2
*PAPER_SPACE
  0
BLOCK_RECORD
  5
59
330
1
100
AcDbSymbolTableRecord
100
AcDbBlockTableRecord
  2
_OPEN30
  0
BLOCK_RECORD
  5
64
330
1
100
AcDbSymbolTableRecord
100
AcDbBlockTableRecord
  2
GENAXEH
  0
BLOCK_RECORD
  5
4428
330
1
100
AcDbSymbolTableRecord
100
AcDbBlockTableRecord
  2
*D5
  0
BLOCK_RECORD
  5
444C
330
1
100
AcDbSymbolTableRecord
100
AcDbBlockTableRecord
  2
*D6
  0
BLOCK_RECORD
  5
4458
330
1
100
AcDbSymbolTableRecord
100
AcDbBlockTableRecord
  2
*D7
  0
BLOCK_RECORD
  5
4464
330
1
100
AcDbSymbolTableRecord
100
AcDbBlockTableRecord
  2
*D8
  0
BLOCK_RECORD
  5
4470
330
1
100
AcDbSymbolTableRecord
100
AcDbBlockTableRecord
  2
*D9
  0
BLOCK_RECORD
  5
447C
330
1
100
AcDbSymbolTableRecord
100
AcDbBlockTableRecord
  2
*D10
  0
BLOCK_RECORD
  5
4488
330
1
100
AcDbSymbolTableRecord
100
AcDbBlockTableRecord
  2
*D11
  0
BLOCK_RECORD
  5
4494
330
1
100
AcDbSymbolTableRecord
100
AcDbBlockTableRecord
  2
*D12
  0
BLOCK_RECORD
  5
44A0
330
1
100
AcDbSymbolTableRecord
100
AcDbBlockTableRecord
  2
*D13
  0
BLOCK_RECORD
  5
4914
330
1
100
AcDbSymbolTableRecord
100
AcDbBlockTableRecord
  2
*D14
  0
BLOCK_RECORD
  5
4C9B
330
1
100
AcDbSymbolTableRecord
100
AcDbBlockTableRecord
  2
*D15
  0
ENDTAB
  0
ENDSEC
  0
SECTION
  2
BLOCKS
  0
BLOCK
  5
20
330
1F
100
AcDbEntity
  8
0
100
AcDbBlockBegin
  2
*MODEL_SPACE
 70
     0
 10
0.0
 20
0.0
 30
0.0
  3
*MODEL_SPACE
  1

  0
ENDBLK
  5
21
330
1F
100
AcDbEntity
  8
0
100
AcDbBlockEnd
  0
BLOCK
  5
103
330
101
100
AcDbEntity
 67
     1
  8
0
100
AcDbBlockBegin
  2
*PAPER_SPACE
 70
     0
 10
0.0
 20
0.0
 30
0.0
  3
*PAPER_SPACE
  1

  0
ENDBLK
  5
104
330
101
100
AcDbEntity
 67
     1
  8
0
100
AcDbBlockEnd
  0
BLOCK
  5
5D
330
59
100
AcDbEntity
  8
0
100
AcDbBlockBegin
  2
_OPEN30
 70
     0
 10
0.0
 20
0.0
 30
0.0
  3
_OPEN30
  1

  0
LINE
  5
5A
330
59
100
AcDbEntity
  8
0
 62
     0
100
AcDbLine
 10
-1.0
 20
0.26794919
 30
0.0
 11
0.0
 21
0.0
 31
0.0
  0
LINE
  5
5B
330
59
100
AcDbEntity
  8
0
 62
     0
100
AcDbLine
 10
0.0
 20
0.0
 30
0.0
 11
-1.0
 21
-0.26794919
 31
0.0
  0
LINE
  5
5C
330
59
100
AcDbEntity
  8
0
 62
     0
100
AcDbLine
 10
0.0
 20
0.0
 30
0.0
 11
-1.0
 21
0.0
 31
0.0
  0
ENDBLK
  5
5E
330
59
100
AcDbEntity
  8
0
100
AcDbBlockEnd
  0
BLOCK
  5
66
330
64
100
AcDbEntity
  8
0
100
AcDbBlockBegin
  2
GENAXEH
 70
     0
 10
0.0
 20
0.0
 30
0.0
  3
GENAXEH
  1

  0
LINE
  5
65
330
64
100
AcDbEntity
  8
0
100
AcDbLine
 10
-1.0
 20
0.0
 30
0.0
 11
1.0
 21
0.0
 31
0.0
  0
ENDBLK
  5
67
330
64
100
AcDbEntity
  8
0
100
AcDbBlockEnd
  0
BLOCK
  5
4432
330
4428
100
AcDbEntity
  8
0
100
AcDbBlockBegin
  2
*D5
 70
     1
 10
0.0
 20
0.0
 30
0.0
  3
*D5
  1

  0
LINE
  5
4E7E
330
4428
100
AcDbEntity
  8
AM_5
100
AcDbLine
 10
-48.85662742207074
 20
27.5
 30
0.0
 11
-87.556077049804
 21
27.50000000000001
 31
0.0
  0
LINE
  5
4E7F
330
4428
100
AcDbEntity
  8
AM_5
100
AcDbLine
 10
-49.5
 20
-27.5
 30
0.0
 11
-87.556077049804
 21
-27.49999999999999
 31
0.0
  0
LINE
  5
4E80
330
4428
100
AcDbEntity
  8
AM_5
100
AcDbLine
 10
-86.556077049804
 20
25.00000000000001
 30
0.0
 11
-86.556077049804
 21
-24.99999999999999
 31
0.0
  0
INSERT
  5
4E81
330
4428
100
AcDbEntity
  8
AM_5
100
AcDbBlockReference
  2
_OPEN30
 10
-86.556077049804
 20
27.50000000000001
 30
0.0
 41
2.5
 42
2.5
 43
2.5
 50
90.0
  0
INSERT
  5
4E82
330
4428
100
AcDbEntity
  8
AM_5
100
AcDbBlockReference
  2
_OPEN30
 10
-86.556077049804
 20
-27.49999999999999
 30
0.0
 41
2.5
 42
2.5
 43
2.5
 50
270.0
  0
MTEXT
  5
4E83
330
4428
100
AcDbEntity
  8
AM_5
 62
     2
100
AcDbMText
 10
-89.65607704980399
 20
-0.0000000000000014
 30
0.0
 40
3.2
 41
0.0
 71
     5
 72
     1
  1
%%c55
  7
ASAMI
 11
0.0000000000000001
 21
1.0
 31
0.0
  0
POINT
  5
4E84
330
4428
100
AcDbEntity
  8
DEFPOINTS
 62
     0
100
AcDbPoint
 10
-47.85662742207074
 20
27.5
 30
0.0
  0
POINT
  5
4E85
330
4428
100
AcDbEntity
  8
DEFPOINTS
 62
     0
100
AcDbPoint
 10
-48.5
 20
-27.5
 30
0.0
  0
POINT
  5
4E86
330
4428
100
AcDbEntity
  8
DEFPOINTS
 62
     0
100
AcDbPoint
 10
-86.556077049804
 20
-27.49999999999999
 30
0.0
  0
ENDBLK
  5
4433
330
4428
100
AcDbEntity
  8
0
100
AcDbBlockEnd
  0
BLOCK
  5
4456
330
444C
100
AcDbEntity
  8
0
100
AcDbBlockBegin
  2
*D6
 70
     1
 10
0.0
 20
0.0
 30
0.0
  3
*D6
  1

  0
LINE
  5
4E92
330
444C
100
AcDbEntity
  8
AM_5
100
AcDbLine
 10
-50.0
 20
-26.99999986886577
 30
0.0
 11
-50.0
 21
-65.000001
 31
0.0
  0
LINE
  5
4E93
330
444C
100
AcDbEntity
  8
AM_5
100
AcDbLine
 10
-25.0
 20
-14.2
 30
0.0
 11
-25.0
 21
-65.000001
 31
0.0
  0
LINE
  5
4E94
330
444C
100
AcDbEntity
  8
AM_5
100
AcDbLine
 10
-47.5
 20
-64.00000099999999
 30
0.0
 11
-27.5
 21
-64.00000099999999
 31
0.0
  0
INSERT
  5
4E95
330
444C
100
AcDbEntity
  8
AM_5
100
AcDbBlockReference
  2
_OPEN30
 10
-50.0
 20
-64.00000099999999
 30
0.0
 41
2.5
 42
2.5
 43
2.5
 50
180.0
  0
INSERT
  5
4E96
330
444C
100
AcDbEntity
  8
AM_5
100
AcDbBlockReference
  2
_OPEN30
 10
-25.0
 20
-64.00000099999999
 30
0.0
 41
2.5
 42
2.5
 43
2.5
  0
MTEXT
  5
4E97
330
444C
100
AcDbEntity
  8
AM_5
 62
     2
100
AcDbMText
 10
-37.5
 20
-60.900001
 30
0.0
 40
3.2
 41
0.0
 71
     5
 72
     1
  1
25
  7
ASAMI
  0
POINT
  5
4E98
330
444C
100
AcDbEntity
  8
DEFPOINTS
 62
     0
100
AcDbPoint
 10
-50.0
 20
-25.99999986886577
 30
0.0
  0
POINT
  5
4E99
330
444C
100
AcDbEntity
  8
DEFPOINTS
 62
     0
100
AcDbPoint
 10
-25.0
 20
-13.2
 30
0.0
  0
POINT
  5
4E9A
330
444C
100
AcDbEntity
  8
DEFPOINTS
 62
     0
100
AcDbPoint
 10
-25.0
 20
-64.00000099999999
 30
0.0
  0
ENDBLK
  5
4457
330
444C
100
AcDbEntity
  8
0
100
AcDbBlockEnd
  0
BLOCK
  5
4462
330
4458
100
AcDbEntity
  8
0
100
AcDbBlockBegin
  2
*D7
 70
     1
 10
0.0
 20
0.0
 30
0.0
  3
*D7
  1

  0
LINE
  5
4E9B
330
4458
100
AcDbEntity
  8
AM_5
100
AcDbLine
 10
-25.0
 20
-14.2
 30
0.0
 11
-25.0
 21
-65.000001
 31
0.0
  0
LINE
  5
4E9C
330
4458
100
AcDbEntity
  8
AM_5
100
AcDbLine
 10
-19.0
 20
-10.99999999999599
 30
0.0
 11
-19.0
 21
-65.000001
 31
0.0
  0
LINE
  5
4E9D
330
4458
100
AcDbEntity
  8
AM_5
100
AcDbLine
 10
-27.5
 20
-64.00000099999999
 30
0.0
 11
-30.0
 21
-64.00000099999999
 31
0.0
  0
LINE
  5
4E9E
330
4458
100
AcDbEntity
  8
AM_5
100
AcDbLine
 10
-16.5
 20
-64.00000099999999
 30
0.0
 11
-14.0
 21
-64.00000099999999
 31
0.0
  0
LINE
  5
4E9F
330
4458
100
AcDbEntity
  8
AM_5
100
AcDbLine
 10
-25.0
 20
-64.00000099999999
 30
0.0
 11
-19.0
 21
-64.00000099999999
 31
0.0
  0
INSERT
  5
4EA0
330
4458
100
AcDbEntity
  8
AM_5
100
AcDbBlockReference
  2
_OPEN30
 10
-25.0
 20
-64.00000099999999
 30
0.0
 41
2.5
 42
2.5
 43
2.5
  0
INSERT
  5
4EA1
330
4458
100
AcDbEntity
  8
AM_5
100
AcDbBlockReference
  2
_OPEN30
 10
-19.0
 20
-64.00000099999999
 30
0.0
 41
2.5
 42
2.5
 43
2.5
 50
180.0
  0
MTEXT
  5
4EA2
330
4458
100
AcDbEntity
  8
AM_5
 62
     2
100
AcDbMText
 10
-22.0
 20
-60.900001
 30
0.0
 40
3.2
 41
0.0
 71
     5
 72
     1
  1
6
  7
ASAMI
  0
POINT
  5
4EA3
330
4458
100
AcDbEntity
  8
DEFPOINTS
 62
     0
100
AcDbPoint
 10
-25.0
 20
-13.2
 30
0.0
  0
POINT
  5
4EA4
330
4458
100
AcDbEntity
  8
DEFPOINTS
 62
     0
100
AcDbPoint
 10
-19.0
 20
-9.999999999995992
 30
0.0
  0
POINT
  5
4EA5
330
4458
100
AcDbEntity
  8
DEFPOINTS
 62
     0
100
AcDbPoint
 10
-19.0
 20
-64.00000099999999
 30
0.0
  0
ENDBLK
  5
4463
330
4458
100
AcDbEntity
  8
0
100
AcDbBlockEnd
  0
BLOCK
  5
446E
330
4464
100
AcDbEntity
  8
0
100
AcDbBlockBegin
  2
*D8
 70
     1
 10
0.0
 20
0.0
 30
0.0
  3
*D8
  1

  0
LINE
  5
4EA6
330
4464
100
AcDbEntity
  8
AM_5
100
AcDbLine
 10
-50.0
 20
-26.99999986886577
 30
0.0
 11
-50.0
 21
-75.000001
 31
0.0
  0
LINE
  5
4EA7
330
4464
100
AcDbEntity
  8
AM_5
100
AcDbLine
 10
-5.700000000000017
 20
-25.29354957694157
 30
0.0
 11
-5.700000000000019
 21
-75.000001
 31
0.0
  0
LINE
  5
4EA8
330
4464
100
AcDbEntity
  8
AM_5
100
AcDbLine
 10
-47.5
 20
-74.00000099999999
 30
0.0
 11
-8.20000000000002
 21
-74.00000099999999
 31
0.0
  0
INSERT
  5
4EA9
330
4464
100
AcDbEntity
  8
AM_5
100
AcDbBlockReference
  2
_OPEN30
 10
-50.0
 20
-74.00000099999999
 30
0.0
 41
2.5
 42
2.5
 43
2.5
 50
180.0
  0
INSERT
  5
4EAA
330
4464
100
AcDbEntity
  8
AM_5
100
AcDbBlockReference
  2
_OPEN30
 10
-5.700000000000019
 20
-74.00000099999999
 30
0.0
 41
2.5
 42
2.5
 43
2.5
  0
MTEXT
  5
4EAB
330
4464
100
AcDbEntity
  8
AM_5
 62
     2
100
AcDbMText
 10
-27.85000000000001
 20
-70.90000100000001
 30
0.0
 40
3.2
 41
0.0
 71
     5
 72
     1
  1
44.3
  7
ASAMI
  0
POINT
  5
4EAC
330
4464
100
AcDbEntity
  8
DEFPOINTS
 62
     0
100
AcDbPoint
 10
-50.0
 20
-25.99999986886577
 30
0.0
  0
POINT
  5
4EAD
330
4464
100
AcDbEntity
  8
DEFPOINTS
 62
     0
100
AcDbPoint
 10
-5.700000000000017
 20
-24.29354957694157
 30
0.0
  0
POINT
  5
4EAE
330
4464
100
AcDbEntity
  8
DEFPOINTS
 62
     0
100
AcDbPoint
 10
-5.700000000000019
 20
-74.00000099999999
 30
0.0
  0
ENDBLK
  5
446F
330
4464
100
AcDbEntity
  8
0
100
AcDbBlockEnd
  0
BLOCK
  5
447A
330
4470
100
AcDbEntity
  8
0
100
AcDbBlockBegin
  2
*D9
 70
     1
 10
0.0
 20
0.0
 30
0.0
  3
*D9
  1

  0
LINE
  5
4EB8
330
4470
100
AcDbEntity
  8
AM_5
100
AcDbLine
 10
-7.699992370604973
 20
10.00000158094445
 30
0.0
 11
26.43102745874001
 21
10.00000158094444
 31
0.0
  0
LINE
  5
4EB9
330
4470
100
AcDbEntity
  8
AM_5
100
AcDbLine
 10
-7.699992370604974
 20
-9.999998419051522
 30
0.0
 11
26.43102745874
 21
-9.99999841905153
 31
0.0
  0
LINE
  5
4EBA
330
4470
100
AcDbEntity
  8
AM_5
100
AcDbLine
 10
25.43102745874
 20
7.500001580944447
 30
0.0
 11
25.43102745874
 21
-7.49999841905153
 31
0.0
  0
INSERT
  5
4EBB
330
4470
100
AcDbEntity
  8
AM_5
100
AcDbBlockReference
  2
_OPEN30
 10
25.43102745874001
 20
10.00000158094444
 30
0.0
 41
2.5
 42
2.5
 43
2.5
 50
90.0
  0
INSERT
  5
4EBC
330
4470
100
AcDbEntity
  8
AM_5
100
AcDbBlockReference
  2
_OPEN30
 10
25.43102745874
 20
-9.99999841905153
 30
0.0
 41
2.5
 42
2.5
 43
2.5
 50
270.0
  0
MTEXT
  5
4EBD
330
4470
100
AcDbEntity
  8
AM_5
 62
     2
100
AcDbMText
 10
22.33102745874
 20
0.0000015809464623
 30
0.0
 40
3.2
 41
0.0
 71
     5
 72
     1
  1
%%c20
  7
ASAMI
 11
0.0000000000000001
 21
1.0
 31
0.0
  0
POINT
  5
4EBE
330
4470
100
AcDbEntity
  8
DEFPOINTS
 62
     0
100
AcDbPoint
 10
-8.699992370604974
 20
10.00000158094445
 30
0.0
  0
POINT
  5
4EBF
330
4470
100
AcDbEntity
  8
DEFPOINTS
 62
     0
100
AcDbPoint
 10
-8.699992370604974
 20
-9.999998419051522
 30
0.0
  0
POINT
  5
4EC0
330
4470
100
AcDbEntity
  8
DEFPOINTS
 62
     0
100
AcDbPoint
 10
25.43102745874
 20
-9.99999841905153
 30
0.0
  0
ENDBLK
  5
447B
330
4470
100
AcDbEntity
  8
0
100
AcDbBlockEnd
  0
BLOCK
  5
4486
330
447C
100
AcDbEntity
  8
0
100
AcDbBlockBegin
  2
*D10
 70
     1
 10
0.0
 20
0.0
 30
0.0
  3
*D10
  1

  0
LINE
  5
4EC1
330
447C
100
AcDbEntity
  8
AM_5
100
AcDbLine
 10
1.000000000000028
 20
40.0
 30
0.0
 11
36.43102745874001
 21
39.99999999999999
 31
0.0
  0
LINE
  5
4EC2
330
447C
100
AcDbEntity
  8
AM_5
100
AcDbLine
 10
1.000000000000028
 20
-40.0
 30
0.0
 11
36.43102745874
 21
-40.0
 31
0.0
  0
LINE
  5
4EC3
330
447C
100
AcDbEntity
  8
AM_5
100
AcDbLine
 10
35.43102745874001
 20
37.49999999999999
 30
0.0
 11
35.43102745874
 21
-37.5
 31
0.0
  0
INSERT
  5
4EC4
330
447C
100
AcDbEntity
  8
AM_5
100
AcDbBlockReference
  2
_OPEN30
 10
35.43102745874001
 20
39.99999999999999
 30
0.0
 41
2.5
 42
2.5
 43
2.5
 50
90.0
  0
INSERT
  5
4EC5
330
447C
100
AcDbEntity
  8
AM_5
100
AcDbBlockReference
  2
_OPEN30
 10
35.43102745874
 20
-40.0
 30
0.0
 41
2.5
 42
2.5
 43
2.5
 50
270.0
  0
MTEXT
  5
4EC6
330
447C
100
AcDbEntity
  8
AM_5
 62
     2
100
AcDbMText
 10
32.33102745874001
 20
-0.0000000000000018
 30
0.0
 40
3.2
 41
0.0
 71
     5
 72
     1
  1
%%c80
  7
ASAMI
 11
0.0000000000000001
 21
1.0
 31
0.0
  0
POINT
  5
4EC7
330
447C
100
AcDbEntity
  8
DEFPOINTS
 62
     0
100
AcDbPoint
 10
0.0000000000000284
 20
40.0
 30
0.0
  0
POINT
  5
4EC8
330
447C
100
AcDbEntity
  8
DEFPOINTS
 62
     0
100
AcDbPoint
 10
0.0000000000000284
 20
-40.0
 30
0.0
  0
POINT
  5
4EC9
330
447C
100
AcDbEntity
  8
DEFPOINTS
 62
     0
100
AcDbPoint
 10
35.43102745874
 20
-40.0
 30
0.0
  0
ENDBLK
  5
4487
330
447C
100
AcDbEntity
  8
0
100
AcDbBlockEnd
  0
BLOCK
  5
4492
330
4488
100
AcDbEntity
  8
0
100
AcDbBlockBegin
  2
*D11
 70
     1
 10
0.0
 20
0.0
 30
0.0
  3
*D11
  1

  0
LINE
  5
4ECA
330
4488
100
AcDbEntity
  8
AM_5
100
AcDbLine
 10
-18.0
 20
6.5
 30
0.0
 11
16.43102745874
 21
6.49999999999999
 31
0.0
  0
LINE
  5
4ECB
330
4488
100
AcDbEntity
  8
AM_5
100
AcDbLine
 10
-18.0
 20
-6.499999999995992
 30
0.0
 11
16.43102745874
 21
-6.499999999996002
 31
0.0
  0
LINE
  5
4ECC
330
4488
100
AcDbEntity
  8
AM_5
100
AcDbLine
 10
15.43102745874
 20
3.99999999999999
 30
0.0
 11
15.43102745874
 21
-3.999999999996002
 31
0.0
  0
INSERT
  5
4ECD
330
4488
100
AcDbEntity
  8
AM_5
100
AcDbBlockReference
  2
_OPEN30
 10
15.43102745874
 20
6.49999999999999
 30
0.0
 41
2.5
 42
2.5
 43
2.5
 50
90.0
  0
INSERT
  5
4ECE
330
4488
100
AcDbEntity
  8
AM_5
100
AcDbBlockReference
  2
_OPEN30
 10
15.43102745874
 20
-6.499999999996002
 30
0.0
 41
2.5
 42
2.5
 43
2.5
 50
270.0
  0
MTEXT
  5
4ECF
330
4488
100
AcDbEntity
  8
AM_5
 62
     2
100
AcDbMText
 10
12.33102745874
 20
0.0000000000019969
 30
0.0
 40
3.2
 41
0.0
 71
     5
 72
     1
  1
%%c13
  7
ASAMI
 11
0.0000000000000001
 21
1.0
 31
0.0
  0
POINT
  5
4ED0
330
4488
100
AcDbEntity
  8
DEFPOINTS
 62
     0
100
AcDbPoint
 10
-19.0
 20
6.5
 30
0.0
  0
POINT
  5
4ED1
330
4488
100
AcDbEntity
  8
DEFPOINTS
 62
     0
100
AcDbPoint
 10
-19.0
 20
-6.499999999995992
 30
0.0
  0
POINT
  5
4ED2
330
4488
100
AcDbEntity
  8
DEFPOINTS
 62
     0
100
AcDbPoint
 10
15.43102745874
 20
-6.499999999996002
 30
0.0
  0
ENDBLK
  5
4493
330
4488
100
AcDbEntity
  8
0
100
AcDbBlockEnd
  0
BLOCK
  5
449E
330
4494
100
AcDbEntity
  8
0
100
AcDbBlockBegin
  2
*D12
 70
     1
 10
0.0
 20
0.0
 30
0.0
  3
*D12
  1

  0
LINE
  5
4EAF
330
4494
100
AcDbEntity
  8
AM_5
100
AcDbLine
 10
-50.0
 20
-26.99999986886577
 30
0.0
 11
-50.0
 21
-85.00000099999999
 31
0.0
  0
LINE
  5
4EB0
330
4494
100
AcDbEntity
  8
AM_5
100
AcDbLine
 10
-0.0000000000000853
 20
-41.0
 30
0.0
 11
-0.000000000000088
 21
-85.00000099999999
 31
0.0
  0
LINE
  5
4EB1
330
4494
100
AcDbEntity
  8
AM_5
100
AcDbLine
 10
-47.5
 20
-84.00000099999999
 30
0.0
 11
-2.500000000000087
 21
-84.00000099999999
 31
0.0
  0
INSERT
  5
4EB2
330
4494
100
AcDbEntity
  8
AM_5
100
AcDbBlockReference
  2
_OPEN30
 10
-50.0
 20
-84.00000099999999
 30
0.0
 41
2.5
 42
2.5
 43
2.5
 50
180.0
  0
INSERT
  5
4EB3
330
4494
100
AcDbEntity
  8
AM_5
100
AcDbBlockReference
  2
_OPEN30
 10
-0.000000000000088
 20
-84.00000099999999
 30
0.0
 41
2.5
 42
2.5
 43
2.5
  0
MTEXT
  5
4EB4
330
4494
100
AcDbEntity
  8
AM_5
 62
     2
100
AcDbMText
 10
-25.00000000000004
 20
-80.90000100000001
 30
0.0
 40
3.2
 41
0.0
 71
     5
 72
     1
  1
50
  7
ASAMI
  0
POINT
  5
4EB5
330
4494
100
AcDbEntity
  8
DEFPOINTS
 62
     0
100
AcDbPoint
 10
-50.0
 20
-25.99999986886577
 30
0.0
  0
POINT
  5
4EB6
330
4494
100
AcDbEntity
  8
DEFPOINTS
 62
     0
100
AcDbPoint
 10
-0.0000000000000853
 20
-40.0
 30
0.0
  0
POINT
  5
4EB7
330
4494
100
AcDbEntity
  8
DEFPOINTS
 62
     0
100
AcDbPoint
 10
-0.000000000000088
 20
-84.00000099999999
 30
0.0
  0
ENDBLK
  5
449F
330
4494
100
AcDbEntity
  8
0
100
AcDbBlockEnd
  0
BLOCK
  5
44AC
330
44A0
100
AcDbEntity
  8
0
100
AcDbBlockBegin
  2
*D13
 70
     1
 10
0.0
 20
0.0
 30
0.0
  3
*D13
  1

  0
LINE
  5
4E87
330
44A0
100
AcDbEntity
  8
AM_5
100
AcDbLine
 10
-50.0
 20
-26.99999986886577
 30
0.0
 11
-50.0
 21
-55.000001
 31
0.0
  0
LINE
  5
4E88
330
44A0
100
AcDbEntity
  8
AM_5
100
AcDbLine
 10
-44.0
 20
-5.75
 30
0.0
 11
-44.0
 21
-55.000001
 31
0.0
  0
LINE
  5
4E89
330
44A0
100
AcDbEntity
  8
AM_5
100
AcDbLine
 10
-52.5
 20
-54.00000099999999
 30
0.0
 11
-55.0
 21
-54.00000099999999
 31
0.0
  0
LINE
  5
4E8A
330
44A0
100
AcDbEntity
  8
AM_5
100
AcDbLine
 10
-41.5
 20
-54.00000099999999
 30
0.0
 11
-31.24285866873611
 21
-54.00000099999999
 31
0.0
  0
LINE
  5
4E8B
330
44A0
100
AcDbEntity
  8
AM_5
100
AcDbLine
 10
-50.0
 20
-54.00000099999999
 30
0.0
 11
-44.0
 21
-54.00000099999999
 31
0.0
  0
INSERT
  5
4E8C
330
44A0
100
AcDbEntity
  8
AM_5
100
AcDbBlockReference
  2
_OPEN30
 10
-50.0
 20
-54.00000099999999
 30
0.0
 41
2.5
 42
2.5
 43
2.5
  0
INSERT
  5
4E8D
330
44A0
100
AcDbEntity
  8
AM_5
100
AcDbBlockReference
  2
_OPEN30
 10
-44.0
 20
-54.00000099999999
 30
0.0
 41
2.5
 42
2.5
 43
2.5
 50
180.0
  0
MTEXT
  5
4E8E
330
44A0
100
AcDbEntity
  8
AM_5
 62
     2
100
AcDbMText
 10
-33.7333348592123
 20
-50.900001
 30
0.0
 40
3.2
 41
0.0
 71
     5
 72
     1
  1
6
  7
ASAMI
  0
POINT
  5
4E8F
330
44A0
100
AcDbEntity
  8
DEFPOINTS
 62
     0
100
AcDbPoint
 10
-50.0
 20
-25.99999986886577
 30
0.0
  0
POINT
  5
4E90
330
44A0
100
AcDbEntity
  8
DEFPOINTS
 62
     0
100
AcDbPoint
 10
-44.0
 20
-4.75
 30
0.0
  0
POINT
  5
4E91
330
44A0
100
AcDbEntity
  8
DEFPOINTS
 62
     0
100
AcDbPoint
 10
-44.0
 20
-54.00000099999999
 30
0.0
  0
ENDBLK
  5
44AD
330
44A0
100
AcDbEntity
  8
0
100
AcDbBlockEnd
  0
BLOCK
  5
491E
330
4914
100
AcDbEntity
  8
0
100
AcDbBlockBegin
  2
*D14
 70
     1
 10
0.0
 20
0.0
 30
0.0
  3
*D14
  1

  0
LINE
  5
4ED3
330
4914
100
AcDbEntity
  8
AM_5
100
AcDbLine
 10
-49.50000000000002
 20
12.69999999999998
 30
0.0
 11
-77.55607704980398
 21
12.69999999999999
 31
0.0
  0
LINE
  5
4ED4
330
4914
100
AcDbEntity
  8
AM_5
100
AcDbLine
 10
-49.5
 20
-12.70000000000002
 30
0.0
 11
-77.55607704980398
 21
-12.70000000000001
 31
0.0
  0
LINE
  5
4ED5
330
4914
100
AcDbEntity
  8
AM_5
100
AcDbLine
 10
-76.55607704980399
 20
10.19999999999999
 30
0.0
 11
-76.55607704980399
 21
-10.20000000000001
 31
0.0
  0
INSERT
  5
4ED6
330
4914
100
AcDbEntity
  8
AM_5
100
AcDbBlockReference
  2
_OPEN30
 10
-76.55607704980399
 20
12.69999999999999
 30
0.0
 41
2.5
 42
2.5
 43
2.5
 50
90.0
  0
INSERT
  5
4ED7
330
4914
100
AcDbEntity
  8
AM_5
100
AcDbBlockReference
  2
_OPEN30
 10
-76.55607704980399
 20
-12.70000000000001
 30
0.0
 41
2.5
 42
2.5
 43
2.5
 50
270.0
  0
MTEXT
  5
4ED8
330
4914
100
AcDbEntity
  8
AM_5
 62
     2
100
AcDbMText
 10
-79.65607704980398
 20
-0.0000000000000216
 30
0.0
 40
3.2
 41
0.0
 71
     5
 72
     1
  1
%%c25.4
  7
ASAMI
 11
0.0000000000000001
 21
1.0
 31
0.0
  0
POINT
  5
4ED9
330
4914
100
AcDbEntity
  8
DEFPOINTS
 62
     0
100
AcDbPoint
 10
-48.50000000000003
 20
12.69999999999998
 30
0.0
  0
POINT
  5
4EDA
330
4914
100
AcDbEntity
  8
DEFPOINTS
 62
     0
100
AcDbPoint
 10
-48.5
 20
-12.70000000000002
 30
0.0
  0
POINT
  5
4EDB
330
4914
100
AcDbEntity
  8
DEFPOINTS
 62
     0
100
AcDbPoint
 10
-76.55607704980399
 20
-12.70000000000001
 30
0.0
  0
ENDBLK
  5
491F
330
4914
100
AcDbEntity
  8
0
100
AcDbBlockEnd
  0
BLOCK
  5
4CA6
330
4C9B
100
AcDbEntity
  8
0
100
AcDbBlockBegin
  2
*D15
 70
     1
 10
0.0
 20
0.0
 30
0.0
  3
*D15
  1

  0
LINE
  5
4EDC
330
4C9B
100
AcDbEntity
  8
AM_5
100
AcDbLine
 10
-50.0
 20
4.75
 30
0.0
 11
-67.44801787787583
 21
4.750000000000005
 31
0.0
  0
LINE
  5
4EDD
330
4C9B
100
AcDbEntity
  8
AM_5
100
AcDbLine
 10
-50.0
 20
-4.75
 30
0.0
 11
-67.44801787787583
 21
-4.749999999999994
 31
0.0
  0
LINE
  5
4EDE
330
4C9B
100
AcDbEntity
  8
AM_5
100
AcDbLine
 10
-66.44801787787582
 20
2.250000000000004
 30
0.0
 11
-66.44801787787582
 21
-2.249999999999995
 31
0.0
  0
MTEXT
  5
4EDF
330
4C9B
100
AcDbEntity
  8
AM_5
 62
     2
100
AcDbMText
 10
-69.88600864353688
 20
0.111226164532118
 30
0.0
 40
3.2
 41
0.0
 71
     5
 72
     1
  1
9.5
  7
ASAMI
 11
0.0000000000000001
 21
1.0
 31
0.0
  0
INSERT
  5
4EE0
330
4C9B
100
AcDbEntity
  8
AM_5
100
AcDbBlockReference
  2
_OPEN30
 10
-66.44801787787582
 20
4.750000000000005
 30
0.0
 41
2.5
 42
2.5
 43
2.5
 50
90.0
  0
INSERT
  5
4EE1
330
4C9B
100
AcDbEntity
  8
AM_5
100
AcDbBlockReference
  2
_OPEN30
 10
-66.44801787787582
 20
-4.749999999999994
 30
0.0
 41
2.5
 42
2.5
 43
2.5
 50
270.0
  0
POINT
  5
4EE2
330
4C9B
100
AcDbEntity
  8
DEFPOINTS
 62
     0
100
AcDbPoint
 10
-49.0
 20
4.75
 30
0.0
  0
POINT
  5
4EE3
330
4C9B
100
AcDbEntity
  8
DEFPOINTS
 62
     0
100
AcDbPoint
 10
-48.99999999999999
 20
-4.75
 30
0.0
  0
POINT
  5
4EE4
330
4C9B
100
AcDbEntity
  8
DEFPOINTS
 62
     0
100
AcDbPoint
 10
-66.44801787787582
 20
-4.749999999999994
 30
0.0
  0
ENDBLK
  5
4CA7
330
4C9B
100
AcDbEntity
  8
0
100
AcDbBlockEnd
  0
ENDSEC
  0
SECTION
  2
ENTITIES
  0
TEXT
  5
E5A
330
1F
100
AcDbEntity
  8
AM_6
100
AcDbText
 10
-45.95238095238098
 20
-106.5000009999999
 30
0.0
 40
5.0
  1
WRC16080R
 72
     4
 11
-25.00000000000003
 21
-104.0000009999999
 31
0.0
100
AcDbText
  0
LINE
  5
4399
330
1F
100
AcDbEntity
  8
AM_0
  6
CONTINUOUS
 48
0.5
100
AcDbLine
 10
-42.90000152587902
 20
12.70000000000001
 30
0.0
 11
-42.90000152587896
 21
-12.7
 31
0.0
  0
LINE
  5
439A
330
1F
100
AcDbEntity
  8
AM_0
  6
CONTINUOUS
 48
0.5
100
AcDbLine
 10
-19.0
 20
10.0
 30
0.0
 11
-19.0
 21
-9.999999999995992
 31
0.0
  0
LINE
  5
439B
330
1F
100
AcDbEntity
  8
AM_0
  6
CONTINUOUS
100
AcDbLine
 10
-5.700000000000017
 20
24.29355016492839
 30
0.0
 11
-5.700000000000017
 21
-19.8063872740366
 31
0.0
  0
LINE
  5
439C
330
1F
100
AcDbEntity
  8
AM_0
  6
CONTINUOUS
 48
0.5
100
AcDbLine
 10
-30.00000000000005
 20
13.20000000000001
 30
0.0
 11
-30.0
 21
-13.2
 31
0.0
  0
LINE
  5
439D
330
1F
100
AcDbEntity
  8
AM_0
  6
CONTINUOUS
 48
0.5
100
AcDbLine
 10
-44.0
 20
4.75
 30
0.0
 11
-44.0
 21
-4.75
 31
0.0
  0
LINE
  5
439E
330
1F
100
AcDbEntity
  8
AM_0
  6
CONTINUOUS
 48
0.5
100
AcDbLine
 10
-25.00000000000005
 20
13.20000000000001
 30
0.0
 11
-25.0
 21
-13.2
 31
0.0
  0
LINE
  5
439F
330
1F
100
AcDbEntity
  8
AM_0
  6
CONTINUOUS
100
AcDbLine
 10
-1.0
 20
-27.99449061795728
 30
0.0
 11
-1.0
 21
27.994483947754
 31
0.0
  0
LINE
  5
43A1
330
1F
100
AcDbEntity
  8
AM_0
  6
CONTINUOUS
 48
0.5
100
AcDbLine
 10
-5.700000000000017
 20
-12.99999525883625
 30
0.0
 11
-5.700000000000017
 21
-24.29354957694157
 31
0.0
  0
LINE
  5
43A2
330
1F
100
AcDbEntity
  8
AM_0
  6
CONTINUOUS
 48
0.5
100
AcDbLine
 10
-49.99999237060496
 20
-14.2
 30
0.0
 11
-48.50000762939396
 21
-12.7000076294
 31
0.0
  0
LINE
  5
43A3
330
1F
100
AcDbEntity
  8
AM_0
  6
CONTINUOUS
 48
0.5
100
AcDbLine
 10
-50.0
 20
-5.75
 30
0.0
 11
-50.0
 21
-26.0
 31
0.0
  0
LINE
  5
43A5
330
1F
100
AcDbEntity
  8
AM_0
  6
CONTINUOUS
 48
0.5
100
AcDbLine
 10
-48.5
 20
-4.75
 30
0.0
 11
-48.5
 21
-12.7
 31
0.0
  0
ARC
  5
43A6
330
1F
100
AcDbEntity
  8
AM_0
  6
CONTINUOUS
 48
0.5
100
AcDbCircle
 10
-8.699992370604974
 20
-12.99999841905152
 30
0.0
 40
3.0
100
AcDbArc
 50
0.0
 51
90.00000250447845
  0
LINE
  5
43A7
330
1F
100
AcDbEntity
  8
AM_0
  6
CONTINUOUS
 48
0.5
100
AcDbLine
 10
-25.0
 20
-13.2
 30
0.0
 11
-30.0
 21
-13.2
 31
0.0
  0
LINE
  5
43A8
330
1F
100
AcDbEntity
  8
AM_0
  6
CONTINUOUS
 48
0.5
100
AcDbLine
 10
-8.699992370604974
 20
-9.999998419051522
 30
0.0
 11
-19.0
 21
-9.999999999995992
 31
0.0
  0
LINE
  5
43A9
330
1F
100
AcDbEntity
  8
AM_0
  6
CONTINUOUS
 48
0.5
100
AcDbLine
 10
-30.0
 20
-12.7
 30
0.0
 11
-48.5
 21
-12.7
 31
0.0
  0
LINE
  5
43AA
330
1F
100
AcDbEntity
  8
AM_0
  6
CONTINUOUS
 48
0.5
100
AcDbLine
 10
-50.00000762939396
 20
-5.750007629400002
 30
0.0
 11
-49.0
 21
-4.750007629400002
 31
0.0
  0
LINE
  5
43AB
330
1F
100
AcDbEntity
  8
AM_0
  6
CONTINUOUS
 48
0.5
100
AcDbLine
 10
-44.0
 20
-4.75
 30
0.0
 11
-49.0
 21
-4.75
 31
0.0
  0
LINE
  5
43AC
330
1F
100
AcDbEntity
  8
AM_0
  6
CONTINUOUS
 48
0.5
100
AcDbLine
 10
-19.0
 20
-6.499999999995992
 30
0.0
 11
-25.0
 21
-6.499999999995992
 31
0.0
  0
LINE
  5
43AD
330
1F
100
AcDbEntity
  8
AM_11
100
AcDbLine
 10
-38.37125396728498
 20
27.5
 30
0.0
 11
-5.699992370604974
 21
18.74576726698047
 31
0.0
  0
LINE
  5
43AE
330
1F
100
AcDbEntity
  8
AM_0
  6
CONTINUOUS
 48
0.5
100
AcDbLine
 10
-50.0
 20
26.0
 30
0.0
 11
-50.0
 21
5.75
 31
0.0
  0
ARC
  5
43AF
330
1F
100
AcDbEntity
  8
AM_0
  6
CONTINUOUS
 48
0.5
100
AcDbCircle
 10
-8.699992370604888
 20
13.00000158094445
 30
0.0
 40
2.999999999999985
100
AcDbArc
 50
269.9999999999983
 51
0.0000000000002714
  0
LINE
  5
43B0
330
1F
100
AcDbEntity
  8
AM_0
  6
CONTINUOUS
 48
0.5
100
AcDbLine
 10
-48.50000000000005
 20
12.70000000000001
 30
0.0
 11
-48.5
 21
4.75
 31
0.0
  0
LINE
  5
43B1
330
1F
100
AcDbEntity
  8
AM_7
  6
AM_ISO08W050
100
AcDbLine
 10
1.431026458740007
 20
0.0
 30
0.0
 11
-52.55607604980395
 21
0.0
 31
0.0
  0
LINE
  5
43B2
330
1F
100
AcDbEntity
  8
AM_0
  6
CONTINUOUS
 48
0.5
100
AcDbLine
 10
-50.0
 20
5.750007629393991
 30
0.0
 11
-49.0
 21
4.750007629393991
 31
0.0
  0
LINE
  5
43B3
330
1F
100
AcDbEntity
  8
AM_0
  6
CONTINUOUS
 48
0.5
100
AcDbLine
 10
-44.0
 20
4.75
 30
0.0
 11
-49.0
 21
4.75
 31
0.0
  0
LINE
  5
43B4
330
1F
100
AcDbEntity
  8
AM_0
  6
CONTINUOUS
 48
0.5
100
AcDbLine
 10
-19.0
 20
6.5
 30
0.0
 11
-25.0
 21
6.5
 31
0.0
  0
LINE
  5
43B5
330
1F
100
AcDbEntity
  8
AM_0
  6
CONTINUOUS
 48
0.5
100
AcDbLine
 10
-50.0
 20
14.19999694824301
 30
0.0
 11
-48.50000000000005
 21
12.70000000000001
 31
0.0
  0
LINE
  5
43B6
330
1F
100
AcDbEntity
  8
AM_0
  6
CONTINUOUS
 48
0.5
100
AcDbLine
 10
-25.00000000000005
 20
13.20000000000001
 30
0.0
 11
-30.00000000000005
 21
13.20000000000001
 31
0.0
  0
LINE
  5
43B7
330
1F
100
AcDbEntity
  8
AM_0
  6
CONTINUOUS
 48
0.5
100
AcDbLine
 10
-8.699992370604974
 20
10.00000158094447
 30
0.0
 11
-19.0
 21
10.0
 31
0.0
  0
LINE
  5
43B8
330
1F
100
AcDbEntity
  8
AM_0
  6
CONTINUOUS
 48
0.5
100
AcDbLine
 10
-30.00000000000005
 20
12.70000000000001
 30
0.0
 11
-48.50000000000005
 21
12.70000000000001
 31
0.0
  0
CIRCLE
  5
43B9
330
1F
100
AcDbEntity
  8
AM_0
  6
CONTINUOUS
 48
0.5
100
AcDbCircle
 10
-8.0
 20
32.0
 30
0.0
 40
4.0
  0
LINE
  5
43BA
330
1F
100
AcDbEntity
  8
AM_0
  6
CONTINUOUS
 48
0.5
100
AcDbLine
 10
-29.12132263183599
 20
28.378677368164
 30
0.0
 11
-23.23868179321297
 21
34.26131820678699
 31
0.0
  0
LINE
  5
43BB
330
1F
100
AcDbEntity
  8
AM_0
  6
CONTINUOUS
 48
0.5
100
AcDbLine
 10
0.0
 20
33.59130096435601
 30
0.0
 11
0.0
 21
30.408699035645
 31
0.0
  0
LINE
  5
43BC
330
1F
100
AcDbEntity
  8
AM_0
  6
CONTINUOUS
 48
0.5
100
AcDbLine
 10
-16.0
 20
30.408699035645
 30
0.0
 11
-16.0
 21
33.59130096435601
 31
0.0
  0
ARC
  5
43BD
330
1F
100
AcDbEntity
  8
AM_0
  6
CONTINUOUS
 48
0.5
100
AcDbCircle
 10
-48.5
 20
26.0
 30
0.0
 40
1.5
100
AcDbArc
 50
90.00000250447845
 51
180.0000050089585
  0
LINE
  5
43BE
330
1F
100
AcDbEntity
  8
AM_0
  6
CONTINUOUS
 48
0.5
100
AcDbLine
 10
-1.217929840087975
 20
27.468360900879
 30
0.0
 11
-3.468364715575972
 21
25.217926025391
 31
0.0
  0
LINE
  5
43BF
330
1F
100
AcDbEntity
  8
AM_0
  6
CONTINUOUS
 48
0.5
100
AcDbLine
 10
-12.53163909912098
 20
25.217926025391
 30
0.0
 11
-14.78207778930598
 21
27.468360900879
 31
0.0
  0
LINE
  5
43C0
330
1F
100
AcDbEntity
  8
AM_0
  6
CONTINUOUS
 48
0.5
100
AcDbLine
 10
-3.468372344969992
 20
25.217926025391
 30
0.0
 11
-6.408694458007943
 21
24.00000158094447
 31
0.0
  0
LINE
  5
43C1
330
1F
100
AcDbEntity
  8
AM_0
  6
CONTINUOUS
 48
0.5
100
AcDbLine
 10
-6.408694458007943
 20
24.00000158094447
 30
0.0
 11
-9.591300964354985
 21
24.0
 31
0.0
  0
LINE
  5
43C2
330
1F
100
AcDbEntity
  8
AM_0
  6
CONTINUOUS
 48
0.5
100
AcDbLine
 10
-9.591300964354985
 20
24.0
 30
0.0
 11
-12.53163909912098
 21
25.217926025391
 31
0.0
  0
ARC
  5
43C3
330
1F
100
AcDbEntity
  8
AM_0
  6
CONTINUOUS
 48
0.5
100
AcDbCircle
 10
-31.242637634277
 20
30.5
 30
0.0
 40
3.0
100
AcDbArc
 50
269.9999974955215
 51
314.9999987477625
  0
LINE
  5
43C4
330
1F
100
AcDbEntity
  8
AM_0
  6
CONTINUOUS
 48
0.5
100
AcDbLine
 10
-31.242637634277
 20
27.5
 30
0.0
 11
-48.5
 21
27.5
 31
0.0
  0
LINE
  5
43C5
330
1F
100
AcDbEntity
  8
AM_0
  6
CONTINUOUS
 48
0.5
100
AcDbLine
 10
0.0
 20
30.408706665039
 30
0.0
 11
-1.217929840087975
 21
27.468360900879
 31
0.0
  0
LINE
  5
43C6
330
1F
100
AcDbEntity
  8
AM_0
  6
CONTINUOUS
 48
0.5
100
AcDbLine
 10
-14.78207397460897
 20
27.468360900879
 30
0.0
 11
-16.0
 21
30.408699035645
 31
0.0
  0
LINE
  5
43C7
330
1F
100
AcDbEntity
  8
AM_0
  6
CONTINUOUS
 48
0.5
100
AcDbLine
 10
-14.78207397460897
 20
36.531635284424
 30
0.0
 11
-12.53163909912098
 21
38.78207015991199
 31
0.0
  0
LINE
  5
43C8
330
1F
100
AcDbEntity
  8
AM_0
  6
CONTINUOUS
 48
0.5
100
AcDbLine
 10
-1.217933654784985
 20
36.531631469727
 30
0.0
 11
-3.468368530272982
 21
38.78207015991199
 31
0.0
  0
ARC
  5
43C9
330
1F
100
AcDbEntity
  8
AM_0
  6
CONTINUOUS
 48
0.5
100
AcDbCircle
 10
-21.11735916137698
 20
32.139999389649
 30
0.0
 40
3.0
100
AcDbArc
 50
90.00000250447845
 51
135.0000003416233
  0
LINE
  5
43CA
330
1F
100
AcDbEntity
  8
AM_0
  6
CONTINUOUS
 48
0.5
100
AcDbLine
 10
-15.35850906371999
 20
35.139999389649
 30
0.0
 11
-21.11735916137698
 21
35.139999389649
 31
0.0
  0
LINE
  5
43CB
330
1F
100
AcDbEntity
  8
AM_0
  6
CONTINUOUS
 48
0.5
100
AcDbLine
 10
-1.217929840087975
 20
36.531635284424
 30
0.0
 11
0.0
 21
33.59130096435601
 31
0.0
  0
LINE
  5
43CC
330
1F
100
AcDbEntity
  8
AM_0
  6
CONTINUOUS
 48
0.5
100
AcDbLine
 10
-16.00000381469698
 20
33.591297149659
 30
0.0
 11
-14.78207397460897
 21
36.531639099121
 31
0.0
  0
LINE
  5
43CD
330
1F
100
AcDbEntity
  8
AM_0
  6
CONTINUOUS
 48
0.5
100
AcDbLine
 10
-12.53163909912098
 20
38.78207397461
 30
0.0
 11
-9.591304779051995
 21
40.0
 31
0.0
  0
LINE
  5
43CE
330
1F
100
AcDbEntity
  8
AM_0
  6
CONTINUOUS
 48
0.5
100
AcDbLine
 10
-9.591300964354985
 20
40.0
 30
0.0
 11
-6.408702850341967
 21
40.0
 31
0.0
  0
LINE
  5
43CF
330
1F
100
AcDbEntity
  8
AM_0
  6
CONTINUOUS
 48
0.5
100
AcDbLine
 10
-3.468364715575972
 20
38.78207397461
 30
0.0
 11
-6.408702850341967
 21
40.0
 31
0.0
  0
LINE
  5
4403
330
1F
100
AcDbEntity
  8
AM_0
  6
CONTINUOUS
 48
0.5
100
AcDbLine
 10
-16.0
 20
-30.408699035645
 30
0.0
 11
-16.0
 21
-33.59130096435601
 31
0.0
  0
LINE
  5
4404
330
1F
100
AcDbEntity
  8
AM_0
  6
CONTINUOUS
 48
0.5
100
AcDbLine
 10
0.0
 20
-33.59130096435601
 30
0.0
 11
0.0
 21
-30.408699035645
 31
0.0
  0
LINE
  5
4405
330
1F
100
AcDbEntity
  8
AM_0
  6
CONTINUOUS
 48
0.5
100
AcDbLine
 10
-29.12132263183599
 20
-28.378677368164
 30
0.0
 11
-23.23868179321297
 21
-34.26131820678699
 31
0.0
  0
CIRCLE
  5
4406
330
1F
100
AcDbEntity
  8
AM_0
  6
CONTINUOUS
 48
0.5
100
AcDbCircle
 10
-8.0
 20
-32.0
 30
0.0
 40
4.0
  0
LINE
  5
4407
330
1F
100
AcDbEntity
  8
AM_11
100
AcDbLine
 10
-38.37125396728498
 20
-27.5
 30
0.0
 11
-5.699992370604974
 21
-18.74576410509154
 31
0.0
  0
LINE
  5
4408
330
1F
100
AcDbEntity
  8
AM_0
  6
CONTINUOUS
 48
0.5
100
AcDbLine
 10
-9.591300964354985
 20
-24.0
 30
0.0
 11
-12.53163909912098
 21
-25.217926025391
 31
0.0
  0
LINE
  5
4409
330
1F
100
AcDbEntity
  8
AM_0
  6
CONTINUOUS
 48
0.5
100
AcDbLine
 10
-31.242637634277
 20
-27.5
 30
0.0
 11
-48.5
 21
-27.5
 31
0.0
  0
ARC
  5
440A
330
1F
100
AcDbEntity
  8
AM_0
  6
CONTINUOUS
 48
0.5
100
AcDbCircle
 10
-48.5
 20
-26.0
 30
0.0
 40
1.5
100
AcDbArc
 50
179.9999949910414
 51
269.9999974955215
  0
ARC
  5
440B
330
1F
100
AcDbEntity
  8
AM_0
  6
CONTINUOUS
 48
0.5
100
AcDbCircle
 10
-31.242637634277
 20
-30.5
 30
0.0
 40
3.0
100
AcDbArc
 50
45.00000125223746
 51
90.00000250447849
  0
LINE
  5
440C
330
1F
100
AcDbEntity
  8
AM_0
  6
CONTINUOUS
 48
0.5
100
AcDbLine
 10
-14.78207397460897
 20
-27.468360900879
 30
0.0
 11
-16.0
 21
-30.408699035645
 31
0.0
  0
LINE
  5
440D
330
1F
100
AcDbEntity
  8
AM_0
  6
CONTINUOUS
 48
0.5
100
AcDbLine
 10
-12.53163909912098
 20
-25.217926025391
 30
0.0
 11
-14.78207778930598
 21
-27.468360900879
 31
0.0
  0
LINE
  5
440E
330
1F
100
AcDbEntity
  8
AM_0
  6
CONTINUOUS
 48
0.5
100
AcDbLine
 10
0.0
 20
-30.408706665039
 30
0.0
 11
-1.217929840087975
 21
-27.468360900879
 31
0.0
  0
LINE
  5
440F
330
1F
100
AcDbEntity
  8
AM_0
  6
CONTINUOUS
 48
0.5
100
AcDbLine
 10
-3.468372344969992
 20
-25.217926025391
 30
0.0
 11
-6.408694458007943
 21
-23.99999841905553
 31
0.0
  0
LINE
  5
4410
330
1F
100
AcDbEntity
  8
AM_0
  6
CONTINUOUS
 48
0.5
100
AcDbLine
 10
-6.408694458007943
 20
-23.99999841905553
 30
0.0
 11
-9.591300964354985
 21
-24.0
 31
0.0
  0
LINE
  5
4411
330
1F
100
AcDbEntity
  8
AM_0
  6
CONTINUOUS
 48
0.5
100
AcDbLine
 10
-1.217929840087975
 20
-27.468360900879
 30
0.0
 11
-3.468364715575972
 21
-25.217926025391
 31
0.0
  0
ARC
  5
4412
330
1F
100
AcDbEntity
  8
AM_0
  6
CONTINUOUS
 48
0.5
100
AcDbCircle
 10
-21.11735916137698
 20
-32.139999389649
 30
0.0
 40
3.0
100
AcDbArc
 50
224.9999996583766
 51
269.9999974955215
  0
LINE
  5
4413
330
1F
100
AcDbEntity
  8
AM_0
  6
CONTINUOUS
 48
0.5
100
AcDbLine
 10
-15.35850906371999
 20
-35.139999389649
 30
0.0
 11
-21.11735916137698
 21
-35.139999389649
 31
0.0
  0
LINE
  5
4414
330
1F
100
AcDbEntity
  8
AM_0
  6
CONTINUOUS
 48
0.5
100
AcDbLine
 10
-14.78207397460897
 20
-36.531635284424
 30
0.0
 11
-12.53163909912098
 21
-38.78207015991199
 31
0.0
  0
LINE
  5
4415
330
1F
100
AcDbEntity
  8
AM_0
  6
CONTINUOUS
 48
0.5
100
AcDbLine
 10
-16.00000381469698
 20
-33.591297149659
 30
0.0
 11
-14.78207397460897
 21
-36.531639099121
 31
0.0
  0
LINE
  5
4416
330
1F
100
AcDbEntity
  8
AM_0
  6
CONTINUOUS
 48
0.5
100
AcDbLine
 10
-1.217929840087975
 20
-36.531635284424
 30
0.0
 11
0.0
 21
-33.59130096435601
 31
0.0
  0
LINE
  5
4417
330
1F
100
AcDbEntity
  8
AM_0
  6
CONTINUOUS
 48
0.5
100
AcDbLine
 10
-1.217933654784985
 20
-36.531631469727
 30
0.0
 11
-3.468368530272982
 21
-38.78207015991199
 31
0.0
  0
LINE
  5
4418
330
1F
100
AcDbEntity
  8
AM_0
  6
CONTINUOUS
 48
0.5
100
AcDbLine
 10
-12.53163909912098
 20
-38.78207397461
 30
0.0
 11
-9.591304779051995
 21
-40.0
 31
0.0
  0
LINE
  5
4419
330
1F
100
AcDbEntity
  8
AM_0
  6
CONTINUOUS
 48
0.5
100
AcDbLine
 10
-3.468364715575972
 20
-38.78207397461
 30
0.0
 11
-6.408702850341967
 21
-40.0
 31
0.0
  0
LINE
  5
441A
330
1F
100
AcDbEntity
  8
AM_0
  6
CONTINUOUS
 48
0.5
100
AcDbLine
 10
-9.591300964354985
 20
-40.0
 30
0.0
 11
-6.408702850341967
 21
-40.0
 31
0.0
  0
DIMENSION
  5
441D
330
1F
100
AcDbEntity
  8
AM_5
100
AcDbDimension
  2
*D5
 10
-86.556077049804
 20
-27.49999999999999
 30
0.0
 11
-89.65607704980399
 21
-0.0000000000000014
 31
0.0
 70
    32
  1
%%c<>
  3
AM_JIS$0
100
AcDbAlignedDimension
 13
-47.85662742207074
 23
27.5
 33
0.0
 14
-48.5
 24
-27.5
 34
0.0
 50
270.0
100
AcDbRotatedDimension
1001
GENIUS_GENDTOL_13
1000

1000
h7
1000

1040
0.0
1001
ACAD
1000
DSTYLE
1002
{
1070
   287
1070
     3
1070
    42
1040
1.0
1070
    43
1040
12.0
1070
    48
1040
0.1
1070
    78
1070
     8
1070
   140
1040
3.2
1070
   176
1070
   256
1070
   177
1070
   256
1070
   271
1070
     3
1070
   272
1070
     3
1070
   275
1070
     0
1070
   284
1070
     0
1070
   289
1070
     3
1070
   340
1005
6B
1070
   371
1070
    -1
1070
   372
1070
    -1
1002
}
  0
DIMENSION
  5
4420
330
1F
100
AcDbEntity
  8
AM_5
100
AcDbDimension
  2
*D13
 10
-44.0
 20
-54.00000099999999
 30
0.0
 11
-33.7333348592123
 21
-54.00000099999999
 31
0.0
 70
   160
  1
<>
  3
AM_JIS$0
100
AcDbAlignedDimension
 13
-50.0
 23
-25.99999986886577
 33
0.0
 14
-44.0
 24
-4.75
 34
0.0
100
AcDbRotatedDimension
1001
GENIUS_GENDTOL_13
1000

1000
h7
1000

1040
0.0
1001
ACAD
1000
DSTYLE
1002
{
1070
   287
1070
     3
1070
    42
1040
1.0
1070
    43
1040
12.0
1070
    48
1040
0.1
1070
    78
1070
     8
1070
   140
1040
3.2
1070
   176
1070
   256
1070
   177
1070
   256
1070
   271
1070
     3
1070
   272
1070
     3
1070
   275
1070
     0
1070
   284
1070
     0
1070
   289
1070
     3
1070
   340
1005
6B
1070
   371
1070
    -1
1070
   372
1070
    -1
1002
}
  0
DIMENSION
  5
4421
330
1F
100
AcDbEntity
  8
AM_5
100
AcDbDimension
  2
*D6
 10
-25.0
 20
-64.00000099999999
 30
0.0
 11
-37.5
 21
-60.900001
 31
0.0
 70
    32
  1
<>
  3
AM_JIS$0
100
AcDbAlignedDimension
 13
-50.0
 23
-25.99999986886577
 33
0.0
 14
-25.0
 24
-13.2
 34
0.0
100
AcDbRotatedDimension
1001
GENIUS_GENDTOL_13
1000

1000
h7
1000

1040
0.0
1001
ACAD
1000
DSTYLE
1002
{
1070
   287
1070
     3
1070
    42
1040
1.0
1070
    43
1040
12.0
1070
    48
1040
0.1
1070
    78
1070
     8
1070
   140
1040
3.2
1070
   176
1070
   256
1070
   177
1070
   256
1070
   271
1070
     3
1070
   272
1070
     3
1070
   275
1070
     0
1070
   284
1070
     0
1070
   289
1070
     3
1070
   340
1005
6B
1070
   371
1070
    -1
1070
   372
1070
    -1
1002
}
  0
DIMENSION
  5
4422
330
1F
100
AcDbEntity
  8
AM_5
100
AcDbDimension
  2
*D7
 10
-19.0
 20
-64.00000099999999
 30
0.0
 11
-22.0
 21
-60.900001
 31
0.0
 70
    32
  1
<>
  3
AM_JIS$0
100
AcDbAlignedDimension
 13
-25.0
 23
-13.2
 33
0.0
 14
-19.0
 24
-9.999999999995992
 34
0.0
100
AcDbRotatedDimension
1001
GENIUS_GENDTOL_13
1000

1000
h7
1000

1040
0.0
1001
ACAD
1000
DSTYLE
1002
{
1070
   287
1070
     3
1070
    42
1040
1.0
1070
    43
1040
12.0
1070
    48
1040
0.1
1070
    78
1070
     8
1070
   140
1040
3.2
1070
   176
1070
   256
1070
   177
1070
   256
1070
   271
1070
     3
1070
   272
1070
     3
1070
   275
1070
     0
1070
   284
1070
     0
1070
   289
1070
     3
1070
   340
1005
6B
1070
   371
1070
    -1
1070
   372
1070
    -1
1002
}
  0
DIMENSION
  5
4423
330
1F
100
AcDbEntity
  8
AM_5
100
AcDbDimension
  2
*D8
 10
-5.700000000000019
 20
-74.00000099999999
 30
0.0
 11
-27.85000000000001
 21
-70.90000100000001
 31
0.0
 70
    32
  1
<>
  3
AM_JIS$0
100
AcDbAlignedDimension
 13
-50.0
 23
-25.99999986886577
 33
0.0
 14
-5.700000000000017
 24
-24.29354957694157
 34
0.0
100
AcDbRotatedDimension
1001
GENIUS_GENDTOL_13
1000

1000
h7
1000

1040
0.0
1001
ACAD
1000
DSTYLE
1002
{
1070
   287
1070
     3
1070
    42
1040
1.0
1070
    43
1040
12.0
1070
    48
1040
0.1
1070
    78
1070
     8
1070
   140
1040
3.2
1070
   176
1070
   256
1070
   177
1070
   256
1070
   271
1070
     3
1070
   272
1070
     3
1070
   275
1070
     0
1070
   284
1070
     0
1070
   289
1070
     3
1070
   340
1005
6B
1070
   371
1070
    -1
1070
   372
1070
    -1
1002
}
  0
DIMENSION
  5
4424
330
1F
100
AcDbEntity
  8
AM_5
100
AcDbDimension
  2
*D12
 10
-0.000000000000088
 20
-84.00000099999999
 30
0.0
 11
-25.00000000000004
 21
-80.90000100000001
 31
0.0
 70
    32
  1
<>
  3
AM_JIS$0
100
AcDbAlignedDimension
 13
-50.0
 23
-25.99999986886577
 33
0.0
 14
-0.0000000000000853
 24
-40.0
 34
0.0
100
AcDbRotatedDimension
1001
GENIUS_GENDTOL_13
1000

1000
h7
1000

1040
0.0
1001
ACAD
1000
DSTYLE
1002
{
1070
   287
1070
     3
1070
    42
1040
1.0
1070
    43
1040
12.0
1070
    48
1040
0.1
1070
    78
1070
     8
1070
   140
1040
3.2
1070
   176
1070
   256
1070
   177
1070
   256
1070
   271
1070
     3
1070
   272
1070
     3
1070
   275
1070
     0
1070
   284
1070
     0
1070
   289
1070
     3
1070
   340
1005
6B
1070
   371
1070
    -1
1070
   372
1070
    -1
1002
}
  0
DIMENSION
  5
4425
330
1F
100
AcDbEntity
  8
AM_5
100
AcDbDimension
  2
*D9
 10
25.43102745874
 20
-9.99999841905153
 30
0.0
 11
22.33102745874
 21
0.0000015809464623
 31
0.0
 70
    32
  1
%%c<>
  3
AM_JIS$0
100
AcDbAlignedDimension
 13
-8.699992370604974
 23
10.00000158094445
 33
0.0
 14
-8.699992370604974
 24
-9.999998419051522
 34
0.0
 50
90.0
100
AcDbRotatedDimension
1001
GENIUS_GENDTOL_13
1000

1000
h7
1000

1040
0.0
1001
ACAD
1000
DSTYLE
1002
{
1070
   287
1070
     3
1070
    42
1040
1.0
1070
    43
1040
12.0
1070
    48
1040
0.1
1070
    78
1070
     8
1070
   140
1040
3.2
1070
   176
1070
   256
1070
   177
1070
   256
1070
   271
1070
     3
1070
   272
1070
     3
1070
   275
1070
     0
1070
   284
1070
     0
1070
   289
1070
     3
1070
   340
1005
6B
1070
   371
1070
    -1
1070
   372
1070
    -1
1002
}
  0
DIMENSION
  5
4426
330
1F
100
AcDbEntity
  8
AM_5
100
AcDbDimension
  2
*D10
 10
35.43102745874
 20
-40.0
 30
0.0
 11
32.33102745874001
 21
-0.0000000000000018
 31
0.0
 70
    32
  1
%%c<>
  3
AM_JIS$0
100
AcDbAlignedDimension
 13
0.0000000000000284
 23
40.0
 33
0.0
 14
0.0000000000000284
 24
-40.0
 34
0.0
 50
90.0
100
AcDbRotatedDimension
1001
GENIUS_GENDTOL_13
1000

1000
h7
1000

1040
0.0
1001
ACAD
1000
DSTYLE
1002
{
1070
   287
1070
     3
1070
    42
1040
1.0
1070
    43
1040
12.0
1070
    48
1040
0.1
1070
    78
1070
     8
1070
   140
1040
3.2
1070
   176
1070
   256
1070
   177
1070
   256
1070
   271
1070
     3
1070
   272
1070
     3
1070
   275
1070
     0
1070
   284
1070
     0
1070
   289
1070
     3
1070
   340
1005
6B
1070
   371
1070
    -1
1070
   372
1070
    -1
1002
}
  0
DIMENSION
  5
4427
330
1F
100
AcDbEntity
  8
AM_5
100
AcDbDimension
  2
*D11
 10
15.43102745874
 20
-6.499999999996002
 30
0.0
 11
12.33102745874
 21
0.0000000000019969
 31
0.0
 70
    32
  1
%%c<>
  3
AM_JIS$0
100
AcDbAlignedDimension
 13
-19.0
 23
6.5
 33
0.0
 14
-19.0
 24
-6.499999999995992
 34
0.0
 50
90.0
100
AcDbRotatedDimension
1001
GENIUS_GENDTOL_13
1000

1000
h7
1000

1040
0.0
1001
ACAD
1000
DSTYLE
1002
{
1070
   287
1070
     3
1070
    42
1040
1.0
1070
    43
1040
12.0
1070
    48
1040
0.1
1070
    78
1070
     8
1070
   140
1040
3.2
1070
   176
1070
   256
1070
   177
1070
   256
1070
   271
1070
     3
1070
   272
1070
     3
1070
   275
1070
     0
1070
   284
1070
     0
1070
   289
1070
     3
1070
   340
1005
6B
1070
   371
1070
    -1
1070
   372
1070
    -1
1002
}
  0
LINE
  5
4578
330
1F
100
AcDbEntity
  8
AM_11
100
AcDbLine
 10
-6.408702850341967
 20
40.0
 30
0.0
 11
0.0000000000000284
 21
40.0
 31
0.0
  0
LINE
  5
4579
330
1F
100
AcDbEntity
  8
AM_11
100
AcDbLine
 10
0.0
 20
-39.99999999999999
 30
0.0
 11
0.0000000000000284
 21
40.0
 31
0.0
  0
LINE
  5
457A
330
1F
100
AcDbEntity
  8
AM_11
100
AcDbLine
 10
-6.408702850341967
 20
-40.0
 30
0.0
 11
0.0000000000000284
 21
-40.0
 31
0.0
  0
DIMENSION
  5
4913
330
1F
100
AcDbEntity
  8
AM_5
100
AcDbDimension
  2
*D14
 10
-76.55607704980399
 20
-12.70000000000001
 30
0.0
 11
-79.65607704980398
 21
-0.0000000000000216
 31
0.0
 70
    32
  1
%%c<>
  3
AM_JIS$0
100
AcDbAlignedDimension
 13
-48.50000000000003
 23
12.69999999999998
 33
0.0
 14
-48.5
 24
-12.70000000000002
 34
0.0
 50
270.0
100
AcDbRotatedDimension
1001
GENIUS_GENDTOL_13
1000

1000
h7
1000

1040
0.0
1001
ACAD
1000
DSTYLE
1002
{
1070
   287
1070
     3
1070
    42
1040
1.0
1070
    43
1040
12.0
1070
    48
1040
0.1
1070
    78
1070
     8
1070
   140
1040
3.2
1070
   176
1070
   256
1070
   177
1070
   256
1070
   271
1070
     3
1070
   272
1070
     3
1070
   275
1070
     0
1070
   284
1070
     0
1070
   289
1070
     3
1070
   340
1005
6B
1070
   371
1070
    -1
1070
   372
1070
    -1
1002
}
  0
DIMENSION
  5
4C9A
330
1F
100
AcDbEntity
  8
AM_5
100
AcDbDimension
  2
*D15
 10
-66.44801787787582
 20
-4.749999999999994
 30
0.0
 11
-69.88600864353688
 21
0.111226164532118
 31
0.0
 70
   160
  1
<>
  3
AM_JIS$0
100
AcDbAlignedDimension
 13
-49.0
 23
4.75
 33
0.0
 14
-48.99999999999999
 24
-4.75
 34
0.0
 50
270.0
100
AcDbRotatedDimension
1001
GENIUS_GENDTOL_13
1000

1000
h7
1000

1040
0.0
1001
ACAD
1000
DSTYLE
1002
{
1070
   287
1070
     5
1070
    42
1040
1.0
1070
    43
1040
12.0
1070
    48
1040
0.1
1070
    78
1070
     8
1070
   140
1040
3.2
1070
   176
1070
   256
1070
   177
1070
   256
1070
   271
1070
     3
1070
   272
1070
     3
1070
   275
1070
     0
1070
   279
1070
     2
1070
   284
1070
     0
1070
   289
1070
     3
1070
   340
1005
6B
1070
   371
1070
    -1
1070
   372
1070
    -1
1002
}
  0
VIEWPORT
  5
110
330
101
100
AcDbEntity
 67
     1
  8
0
100
AcDbViewport
 10
420.5
 20
297.0
 30
0.0
 40
948.9782706766916
 41
628.452
 68
     1
 69
     1
1001
ACAD
1000
MVIEW
1002
{
1070
    16
1010
0.0
1020
0.0
1030
0.0
1010
0.0
1020
0.0
1030
1.0
1040
0.0
1040
628.452
1040
420.5
1040
297.0
1040
50.0
1040
0.0
1040
0.0
1070
     0
1070
   100
1070
     1
1070
     1
1070
     0
1070
     0
1070
     0
1070
     0
1040
0.0
1040
0.0
1040
0.0
1040
10.0
1040
10.0
1040
10.0
1040
10.0
1070
     0
1002
{
1002
}
1002
}
  0
ENDSEC
  0
SECTION
  2
OBJECTS
  0
DICTIONARY
  5
C
330
0
100
AcDbDictionary
  3
ACAD_GROUP
350
D
  3
ACAD_LAYOUT
350
1A
  3
ACAD_MLINESTYLE
350
17
  3
ACAD_PLOTSETTINGS
350
19
  3
ACAD_PLOTSTYLENAME
350
E
  3
ACDBVARIABLEDICTIONARY
350
34
  3
ACMDICTIONARY
350
43
  3
AMG
350
2B
  3
AMGSNAPSETTINGS
350
6E
  3
DWGPROPS
350
4E48
  3
ACDBHEADERROUNDTRIPXREC
350
4E54
  0
DICTIONARY
  5
74
330
1F
100
AcDbDictionary
280
     1
  3
ACAD_INDEX
360
4E4A
  3
ACAD_LAYOUTSELFREF
360
4E77
  0
DICTIONARY
  5
4E7C
330
101
100
AcDbDictionary
280
     1
  3
ACAD_LAYOUTSELFREF
360
4E7D
  0
DICTIONARY
  5
D
102
{ACAD_REACTORS
330
C
102
}
330
C
100
AcDbDictionary
  0
DICTIONARY
  5
1A
102
{ACAD_REACTORS
330
C
102
}
330
C
100
AcDbDictionary
  0
DICTIONARY
  5
17
102
{ACAD_REACTORS
330
C
102
}
330
C
100
AcDbDictionary
  3
STANDARD
350
18
  0
DICTIONARY
  5
19
102
{ACAD_REACTORS
330
C
102
}
330
C
100
AcDbDictionary
  0
ACDBDICTIONARYWDFLT
  5
E
102
{ACAD_REACTORS
330
C
102
}
330
C
100
AcDbDictionary
281
     1
  3
Normal
350
F
100
AcDbDictionaryWithDefault
340
F
  0
DICTIONARY
  5
34
102
{ACAD_REACTORS
330
C
102
}
330
C
100
AcDbDictionary
  3
INDEXCTL
350
35
  3
SORTENTS
350
B5E
  0
DICTIONARY
  5
43
102
{ACAD_REACTORS
330
C
102
}
330
C
100
AcDbDictionary
  3
ACMSTDDICTIONARY
350
260
  0
DICTIONARY
  5
2B
102
{ACAD_REACTORS
330
C
102
}
330
C
100
AcDbDictionary
  3
ACMGSETTINGS
350
2C
  0
DICTIONARY
  5
6E
102
{ACAD_REACTORS
330
C
102
}
330
C
100
AcDbDictionary
  0
XRECORD
  5
4E48
102
{ACAD_REACTORS
330
C
102
}
330
C
100
AcDbXrecord
  1
DWGPROPS COOKIE
  2

  3

  4

  6

  7

  8

  9

300
AmdtFileType=82
301
=
302
=
303
=
304
=
305
=
306
=
307
=
308
=
309
=
 40
0.339963125
 41
2452836.771637361
 42
2453076.588081585
  1

 90
        1
  0
DICTIONARY
  5
4E54
102
{ACAD_REACTORS
330
C
102
}
330
C
100
AcDbDictionary
  3
TSTACKALIGN
350
4E55
  3
TSTACKSIZE
350
4E56
  3
HYPERLINKBASE
350
4E57
  3
STYLESHEET
350
4E58
  3
LAYOUTDICT
350
4E59
  3
PLOTSETDICT
350
4E5A
  3
PLOTSTYLNAMDICT
350
4E5B
  3
LWETCUNION
350
4E5C
  3
INSUNITS
350
4E5D
  3
CEPSNTYPE
350
4E5E
  3
FINGERPRINTGUID
350
4E5F
  3
VERSIONGUID
350
4E60
  3
PSVPSCALE
350
4E61
  3
DIMSTYLEDATA
350
4E62
  3
PUCSORTHOREF
350
4E63
  3
PUCSORTHOVIEW
350
4E64
  3
PUCSBASE
350
4E65
  3
PUCSORGTOP
350
4E66
  3
PUCSORGBOTTOM
350
4E67
  3
PUCSORGLEFT
350
4E68
  3
PUCSORGRIGHT
350
4E69
  3
PUCSORGFRONT
350
4E6A
  3
PUCSORGBACK
350
4E6B
  3
UCSORTHOREF
350
4E6C
  3
UCSORTHOVIEW
350
4E6D
  3
UCSBASE
350
4E6E
  3
UCSORGTOP
350
4E6F
  3
UCSORGBOTTOM
350
4E70
  3
UCSORGLEFT
350
4E71
  3
UCSORGRIGHT
350
4E72
  3
UCSORGFRONT
350
4E73
  3
UCSORGBACK
350
4E74
  0
DICTIONARY
  5
4E4A
102
{ACAD_REACTORS
330
74
102
}
330
74
100
AcDbDictionary
  3
*A1
350
4E4B
  0
XRECORD
  5
4E77
102
{ACAD_REACTORS
330
74
102
}
330
74
100
AcDbXrecord
340
1F
  0
XRECORD
  5
4E7D
102
{ACAD_REACTORS
330
4E7C
102
}
330
4E7C
100
AcDbXrecord
340
101
  0
MLINESTYLE
  5
18
102
{ACAD_REACTORS
330
17
102
}
330
17
100
AcDbMlineStyle
  2
STANDARD
 70
     0
  3

 62
   256
 51
90.0
 52
90.0
 71
     2
 49
0.5
 62
   256
  6
BYLAYER
 49
-0.5
 62
   256
  6
BYLAYER
  0
ACDBPLACEHOLDER
  5
F
102
{ACAD_REACTORS
330
E
102
}
330
E
100
AcDbPlaceHolder
280
     0
  0
DICTIONARYVAR
  5
35
102
{ACAD_REACTORS
330
34
102
}
330
34
100
DictionaryVariables
280
     0
  1
1
  0
DICTIONARYVAR
  5
B5E
102
{ACAD_REACTORS
330
34
102
}
330
34
100
DictionaryVariables
280
     0
  1
96
  0
DICTIONARY
  5
260
102
{ACAD_REACTORS
330
43
102
}
330
43
100
AcDbDictionary
  0
DICTIONARY
  5
2C
102
{ACAD_REACTORS
330
2B
102
}
330
2B
100
AcDbDictionary
  3
DWGSETTINGS
350
2D
  0
XRECORD
  5
4E55
102
{ACAD_REACTORS
330
4E54
102
}
330
4E54
100
AcDbXrecord
 90
        1
  0
XRECORD
  5
4E56
102
{ACAD_REACTORS
330
4E54
102
}
330
4E54
100
AcDbXrecord
 90
       70
  0
XRECORD
  5
4E57
102
{ACAD_REACTORS
330
4E54
102
}
330
4E54
100
AcDbXrecord
  1

  0
XRECORD
  5
4E58
102
{ACAD_REACTORS
330
4E54
102
}
330
4E54
100
AcDbXrecord
  1
ASAMI.ctb
  0
XRECORD
  5
4E59
102
{ACAD_REACTORS
330
4E54
102
}
330
4E54
100
AcDbXrecord
340
1A
  0
XRECORD
  5
4E5A
102
{ACAD_REACTORS
330
4E54
102
}
330
4E54
100
AcDbXrecord
340
19
  0
XRECORD
  5
4E5B
102
{ACAD_REACTORS
330
4E54
102
}
330
4E54
100
AcDbXrecord
340
E
  0
XRECORD
  5
4E5C
102
{ACAD_REACTORS
330
4E54
102
}
330
4E54
100
AcDbXrecord
 90
    10781
  0
XRECORD
  5
4E5D
102
{ACAD_REACTORS
330
4E54
102
}
330
4E54
100
AcDbXrecord
 90
        4
  0
XRECORD
  5
4E5E
102
{ACAD_REACTORS
330
4E54
102
}
330
4E54
100
AcDbXrecord
 90
        0
  0
XRECORD
  5
4E5F
102
{ACAD_REACTORS
330
4E54
102
}
330
4E54
100
AcDbXrecord
  1
{AFB28963-8C59-40AE-9337-C84526B81ACE}
  0
XRECORD
  5
4E60
102
{ACAD_REACTORS
330
4E54
102
}
330
4E54
100
AcDbXrecord
  1
{83BC807D-620D-49CF-8148-E37ECCB2ED4C}
  0
XRECORD
  5
4E61
102
{ACAD_REACTORS
330
4E54
102
}
330
4E54
100
AcDbXrecord
 40
0.0
  0
XRECORD
  5
4E62
102
{ACAD_REACTORS
330
4E54
102
}
330
4E54
100
AcDbXrecord
1000
DSTYLE
1002
{
1070
    79
 70
     2
1070
   341
340
59
1070
   342
340
59
1070
   371
 70
    -1
1070
   372
 70
    -1
1002
}
  0
XRECORD
  5
4E63
102
{ACAD_REACTORS
330
4E54
102
}
330
4E54
100
AcDbXrecord
340
0
  0
XRECORD
  5
4E64
102
{ACAD_REACTORS
330
4E54
102
}
330
4E54
100
AcDbXrecord
 70
     0
  0
XRECORD
  5
4E65
102
{ACAD_REACTORS
330
4E54
102
}
330
4E54
100
AcDbXrecord
340
0
  0
XRECORD
  5
4E66
102
{ACAD_REACTORS
330
4E54
102
}
330
4E54
100
AcDbXrecord
 10
0.0
 20
0.0
 30
0.0
  0
XRECORD
  5
4E67
102
{ACAD_REACTORS
330
4E54
102
}
330
4E54
100
AcDbXrecord
 10
0.0
 20
0.0
 30
0.0
  0
XRECORD
  5
4E68
102
{ACAD_REACTORS
330
4E54
102
}
330
4E54
100
AcDbXrecord
 10
0.0
 20
0.0
 30
0.0
  0
XRECORD
  5
4E69
102
{ACAD_REACTORS
330
4E54
102
}
330
4E54
100
AcDbXrecord
 10
0.0
 20
0.0
 30
0.0
  0
XRECORD
  5
4E6A
102
{ACAD_REACTORS
330
4E54
102
}
330
4E54
100
AcDbXrecord
 10
0.0
 20
0.0
 30
0.0
  0
XRECORD
  5
4E6B
102
{ACAD_REACTORS
330
4E54
102
}
330
4E54
100
AcDbXrecord
 10
0.0
 20
0.0
 30
0.0
  0
XRECORD
  5
4E6C
102
{ACAD_REACTORS
330
4E54
102
}
330
4E54
100
AcDbXrecord
340
0
  0
XRECORD
  5
4E6D
102
{ACAD_REACTORS
330
4E54
102
}
330
4E54
100
AcDbXrecord
 70
     0
  0
XRECORD
  5
4E6E
102
{ACAD_REACTORS
330
4E54
102
}
330
4E54
100
AcDbXrecord
340
0
  0
XRECORD
  5
4E6F
102
{ACAD_REACTORS
330
4E54
102
}
330
4E54
100
AcDbXrecord
 10
0.0
 20
0.0
 30
0.0
  0
XRECORD
  5
4E70
102
{ACAD_REACTORS
330
4E54
102
}
330
4E54
100
AcDbXrecord
 10
0.0
 20
0.0
 30
0.0
  0
XRECORD
  5
4E71
102
{ACAD_REACTORS
330
4E54
102
}
330
4E54
100
AcDbXrecord
 10
0.0
 20
0.0
 30
0.0
  0
XRECORD
  5
4E72
102
{ACAD_REACTORS
330
4E54
102
}
330
4E54
100
AcDbXrecord
 10
0.0
 20
0.0
 30
0.0
  0
XRECORD
  5
4E73
102
{ACAD_REACTORS
330
4E54
102
}
330
4E54
100
AcDbXrecord
 10
0.0
 20
0.0
 30
0.0
  0
XRECORD
  5
4E74
102
{ACAD_REACTORS
330
4E54
102
}
330
4E54
100
AcDbXrecord
 10
0.0
 20
0.0
 30
0.0
  0
LAYER_INDEX
  5
4E4B
102
{ACAD_REACTORS
330
4E4A
102
}
330
4E4A
100
AcDbIndex
 40
2453152.363973576
100
AcDbLayerIndex
  8
0
360
4E4C
 90
        0
  8
AM_11
360
4E4D
 90
        5
  8
AM_7
360
4E4E
 90
        1
  8
AM_5
360
4E4F
 90
       11
  8
Defpoints
360
4E50
 90
        0
  8
AM_6
360
4E51
 90
        1
  8
AM_0
360
4E52
 90
       74
  0
XRECORD
  5
2D
102
{ACAD_REACTORS
330
2C
102
}
330
2C
100
AcDbXrecord
  1
VERSION
140
15.0
  1
PRODUCT
  2
AutoCAD Mechanical 2000
  0
IDBUFFER
  5
4E4C
330
0
100
AcDbIdBuffer
  0
IDBUFFER
  5
4E4D
330
0
100
AcDbIdBuffer
330
43AD
330
4407
330
4578
330
4579
330
457A
  0
IDBUFFER
  5
4E4E
330
0
100
AcDbIdBuffer
330
43B1
  0
IDBUFFER
  5
4E4F
330
0
100
AcDbIdBuffer
330
441D
330
4420
330
4421
330
4422
330
4423
330
4424
330
4425
330
4426
330
4427
330
4913
330
4C9A
  0
IDBUFFER
  5
4E50
330
0
100
AcDbIdBuffer
  0
IDBUFFER
  5
4E51
330
0
100
AcDbIdBuffer
330
E5A
  0
IDBUFFER
  5
4E52
330
0
100
AcDbIdBuffer
330
43CD
330
43CE
330
43CF
330
4403
330
4404
330
4405
330
4406
330
4408
330
4409
330
440A
330
440B
330
440C
330
440D
330
440E
330
440F
330
4410
330
4411
330
4412
330
4413
330
4414
330
4415
330
4416
330
4417
330
4418
330
4419
330
441A
330
4399
330
439A
330
439B
330
439C
330
439D
330
439E
330
439F
330
43A1
330
43A2
330
43A3
330
43A5
330
43A6
330
43A7
330
43A8
330
43A9
330
43AA
330
43AB
330
43AC
330
43AE
330
43AF
330
43B0
330
43B2
330
43B3
330
43B4
330
43B5
330
43B6
330
43B7
330
43B8
330
43B9
330
43BA
330
43BB
330
43BC
330
43BD
330
43BE
330
43BF
330
43C0
330
43C1
330
43C2
330
43C3
330
43C4
330
43C5
330
43C6
330
43C7
330
43C8
330
43C9
330
43CA
330
43CB
330
43CC
  0
ENDSEC
  0
EOF
