  0
SECTION
  2
HEADER
  9
$ACADVER
  1
AC1014
  9
$ACADMAINTVER
 70
     9
  9
$DWGCODEPAGE
  3
ANSI_932
  9
$INSBASE
 10
0.0
 20
0.0
 30
0.0
  9
$EXTMIN
 10
-106.206440208978
 20
-146.5000009999995
 30
0.0
  9
$EXTMAX
 10
28.27788262231397
 20
80.00000000000003
 30
0.0
  9
$LIMMIN
 10
-126.8827095911583
 20
-177.5195551576507
  9
$LIMMAX
 10
227.7321291804764
 20
126.4593543627815
  9
$ORTHOMODE
 70
     0
  9
$REGENMODE
 70
     1
  9
$FILLMODE
 70
     1
  9
$QTEXTMODE
 70
     0
  9
$MIRRTEXT
 70
     0
  9
$DRAGMODE
 70
     2
  9
$LTSCALE
 40
1.0
  9
$OSMODE
 70
    55
  9
$ATTMODE
 70
     1
  9
$TEXTSIZE
 40
2.5
  9
$TRACEWID
 40
1.0
  9
$TEXTSTYLE
  7
STANDARD
  9
$CLAYER
  8
AM_5
  9
$CELTYPE
  6
BYLAYER
  9
$CECOLOR
 62
   256
  9
$CELTSCALE
 40
1.0
  9
$DELOBJ
 70
     1
  9
$DISPSILH
 70
     0
  9
$DIMSCALE
 40
1.0
  9
$DIMASZ
 40
2.5
  9
$DIMEXO
 40
1.0
  9
$DIMDLI
 40
12.0
  9
$DIMRND
 40
0.0
  9
$DIMDLE
 40
0.0
  9
$DIMEXE
 40
1.0
  9
$DIMTP
 40
0.1
  9
$DIMTM
 40
0.1
  9
$DIMTXT
 40
3.2
  9
$DIMCEN
 40
0.0
  9
$DIMTSZ
 40
0.0
  9
$DIMTOL
 70
     0
  9
$DIMLIM
 70
     0
  9
$DIMTIH
 70
     0
  9
$DIMTOH
 70
     0
  9
$DIMSE1
 70
     0
  9
$DIMSE2
 70
     0
  9
$DIMTAD
 70
     3
  9
$DIMZIN
 70
     8
  9
$DIMBLK
  1
OPEN30
  9
$DIMASO
 70
     1
  9
$DIMSHO
 70
     1
  9
$DIMPOST
  1

  9
$DIMAPOST
  1
"
  9
$DIMALT
 70
     0
  9
$DIMALTD
 70
     2
  9
$DIMALTF
 40
0.0393701
  9
$DIMLFAC
 40
1.0
  9
$DIMTOFL
 70
     1
  9
$DIMTVP
 40
0.0
  9
$DIMTIX
 70
     0
  9
$DIMSOXD
 70
     0
  9
$DIMSAH
 70
     0
  9
$DIMBLK1
  1

  9
$DIMBLK2
  1

  9
$DIMSTYLE
  2
AM_JIS
  9
$DIMCLRD
 70
   256
  9
$DIMCLRE
 70
   256
  9
$DIMCLRT
 70
     2
  9
$DIMTFAC
 40
0.71
  9
$DIMGAP
 40
1.5
  9
$DIMJUST
 70
     0
  9
$DIMSD1
 70
     0
  9
$DIMSD2
 70
     0
  9
$DIMTOLJ
 70
     0
  9
$DIMTZIN
 70
     0
  9
$DIMALTZ
 70
     0
  9
$DIMALTTZ
 70
     0
  9
$DIMFIT
 70
     3
  9
$DIMUPT
 70
     0
  9
$DIMUNIT
 70
     2
  9
$DIMDEC
 70
     3
  9
$DIMTDEC
 70
     3
  9
$DIMALTU
 70
     2
  9
$DIMALTTD
 70
     2
  9
$DIMTXSTY
  7
ASAMI
  9
$DIMAUNIT
 70
     0
  9
$LUNITS
 70
     2
  9
$LUPREC
 70
     2
  9
$SKETCHINC
 40
1.0
  9
$FILLETRAD
 40
2.5
  9
$AUNITS
 70
     0
  9
$AUPREC
 70
     0
  9
$MENU
  1
.
  9
$ELEVATION
 40
0.0
  9
$PELEVATION
 40
0.0
  9
$THICKNESS
 40
0.0
  9
$LIMCHECK
 70
     0
  9
$BLIPMODE
 70
     0
  9
$CHAMFERA
 40
0.5
  9
$CHAMFERB
 40
0.5
  9
$CHAMFERC
 40
20.0
  9
$CHAMFERD
 40
0.0
  9
$SKPOLY
 70
     0
  9
$TDCREATE
 40
2452836.771637361
  9
$TDUPDATE
 40
2453152.363560521
  9
$TDINDWG
 40
0.4180362153
  9
$TDUSRTIMER
 40
0.4180362153
  9
$USRTIMER
 70
     1
  9
$ANGBASE
 50
0.0
  9
$ANGDIR
 70
     0
  9
$PDMODE
 70
     0
  9
$PDSIZE
 40
0.0
  9
$PLINEWID
 40
0.0
  9
$COORDS
 70
     1
  9
$SPLFRAME
 70
     0
  9
$SPLINETYPE
 70
     6
  9
$SPLINESEGS
 70
     8
  9
$ATTDIA
 70
     1
  9
$ATTREQ
 70
     1
  9
$HANDLING
 70
 12289
  9
$HANDSEED
  5
AE16
  9
$SURFTAB1
 70
     6
  9
$SURFTAB2
 70
     6
  9
$SURFTYPE
 70
     6
  9
$SURFU
 70
     6
  9
$SURFV
 70
     6
  9
$UCSNAME
  2

  9
$UCSORG
 10
0.0
 20
0.0
 30
0.0
  9
$UCSXDIR
 10
1.0
 20
0.0
 30
0.0
  9
$UCSYDIR
 10
0.0
 20
1.0
 30
0.0
  9
$PUCSNAME
  2

  9
$PUCSORG
 10
0.0
 20
0.0
 30
0.0
  9
$PUCSXDIR
 10
1.0
 20
0.0
 30
0.0
  9
$PUCSYDIR
 10
0.0
 20
1.0
 30
0.0
  9
$USERI1
 70
     0
  9
$USERI2
 70
     0
  9
$USERI3
 70
     0
  9
$USERI4
 70
     0
  9
$USERI5
 70
     0
  9
$USERR1
 40
0.0
  9
$USERR2
 40
0.0
  9
$USERR3
 40
0.0
  9
$USERR4
 40
0.0
  9
$USERR5
 40
0.0
  9
$WORLDVIEW
 70
     1
  9
$SHADEDGE
 70
     3
  9
$SHADEDIF
 70
    70
  9
$TILEMODE
 70
     1
  9
$MAXACTVP
 70
    64
  9
$PINSBASE
 10
0.0
 20
0.0
 30
0.0
  9
$PLIMCHECK
 70
     0
  9
$PEXTMIN
 10
1.000000000000000E+20
 20
1.000000000000000E+20
 30
1.000000000000000E+20
  9
$PEXTMAX
 10
-1.000000000000000E+20
 20
-1.000000000000000E+20
 30
-1.000000000000000E+20
  9
$PLIMMIN
 10
0.0
 20
0.0
  9
$PLIMMAX
 10
841.0
 20
594.0
  9
$UNITMODE
 70
     0
  9
$VISRETAIN
 70
     1
  9
$PLINEGEN
 70
     0
  9
$PSLTSCALE
 70
     0
  9
$TREEDEPTH
 70
  3020
  9
$PICKSTYLE
 70
     0
  9
$CMLSTYLE
  2
STANDARD
  9
$CMLJUST
 70
     0
  9
$CMLSCALE
 40
20.0
  9
$PROXYGRAPHICS
 70
     1
  9
$MEASUREMENT
 70
     1
  0
ENDSEC
  0
SECTION
  2
CLASSES
  0
CLASS
  1
ACDBDICTIONARYWDFLT
  2
AcDbDictionaryWithDefault
  3
AutoCAD 2000
 90
        0
280
     0
281
     0
  0
CLASS
  1
ACDBPLACEHOLDER
  2
AcDbPlaceHolder
  3
AutoCAD 2000
 90
        0
280
     0
281
     0
  0
CLASS
  1
LAYOUT
  2
AcDbLayout
  3
AutoCAD 2000
 90
        0
280
     0
281
     0
  0
CLASS
  1
AMGSETTINGSOBJ
  2
AmgSettingsObj
  3
"AcadM|Product Description: AutoCAD Mechanical 2000|Company: Autodesk"
 90
        0
280
     0
281
     0
  0
CLASS
  1
ACME_DOCUMENT
  2
AcMeDbDoc
  3
AcMeServices
 90
        0
280
     0
281
     0
  0
CLASS
  1
ACMESCOPE
  2
AcMeScope
  3
AcMeServices
 90
        0
280
     0
281
     0
  0
CLASS
  1
ACMECOMMANDHISTORY
  2
AcMeCommandHistory
  3
AcMeServices
 90
        0
280
     0
281
     0
  0
CLASS
  1
DICTIONARYVAR
  2
AcDbDictionaryVar
  3
AutoCAD 2000
 90
        0
280
     0
281
     0
  0
CLASS
  1
ACIMSYSVARMAN
  2
AcImSysVarManager
  3
AcMeServices
 90
        0
280
     0
281
     0
  0
CLASS
  1
ACIMREALSYSVAR
  2
AcImRealSysVar
  3
AcMeServices
 90
        0
280
     0
281
     0
  0
CLASS
  1
ACIMINTSYSVAR
  2
AcImIntSysVar
  3
AcMeServices
 90
        0
280
     0
281
     0
  0
CLASS
  1
ACMEDRAWINGMAN
  2
AcMeDrawingMan
  3
AcMeServices
 90
        0
280
     0
281
     0
  0
CLASS
  1
ACMEVIEW
  2
AcMeView
  3
AcMeServices
 90
        0
280
     0
281
     0
  0
CLASS
  1
ACDBENTITYCACHE
  2
AcMeEntityCache
  3
AcMeServices
 90
        0
280
     0
281
     0
  0
CLASS
  1
GSMANAGER
  2
AcMeGSManager
  3
AcMeServices
 90
        0
280
     0
281
     0
  0
CLASS
  1
AmdtInternalReactor
  2
AmdtInternalReactor
  3
AcMeServices
 90
        0
280
     0
281
     0
  0
CLASS
  1
ACMESTATEMGR
  2
AcMeStateMgr
  3
AcMeServices
 90
        0
280
     0
281
     0
  0
CLASS
  1
ACME_DATABASE
  2
AcMeDbDatabase
  3
AcMeServices
 90
        0
280
     0
281
     0
  0
CLASS
  1
ACRFINSADJUSTERMGR
  2
AcRfInsAdjusterMgr
  3
AcMeServices
 90
        0
280
     0
281
     0
  0
CLASS
  1
ACMDATADICTIONARY
  2
AcmDataDictionary
  3
"AcmSymBB|Product Description: AutoCAD Mechanical 2000|Company: Autodesk"
 90
        0
280
     0
281
     0
  0
CLASS
  1
ACMDATAENTRYBLOCK
  2
AcmDataEntryBlock
  3
"AcmSymBB|Product Description: AutoCAD Mechanical 2000|Company: Autodesk"
 90
        0
280
     0
281
     0
  0
CLASS
  1
AMGOBJPROPCFG
  2
AmgObjPropCfg
  3
"AmgLay|Product Description: AutoCAD Mechanical 2000|Company: Autodesk"
 90
        1
280
     0
281
     0
  0
CLASS
  1
ACAMGFILTERDAT
  2
AcAmgFilterDat
  3
"AcadM|Product Description: AutoCAD Mechanical 2000|Company: Autodesk"
 90
        0
280
     0
281
     0
  0
CLASS
  1
LAYER_INDEX
  2
AcDbLayerIndex
  3
AutoCAD 2000
 90
        0
280
     0
281
     0
  0
CLASS
  1
IDBUFFER
  2
AcDbIdBuffer
  3
AutoCAD 2000
 90
        0
280
     0
281
     0
  0
CLASS
  1
ACIMSTRSYSVAR
  2
AcImStrSysVar
  3
AcMeServices
 90
        0
280
     0
281
     0
  0
CLASS
  1
ACMSTANDARDJIS
  2
AcmStandardJIS
  3
"AcmSymBB|Product Description: AutoCAD Mechanical 2000|Company: Autodesk"
 90
        0
280
     0
281
     0
  0
CLASS
  1
ACMSURFSTANDARDJIS
  2
AcmSurfTextStdJIS
  3
"AcmSymBB|Product Description: AutoCAD Mechanical 2000|Company: Autodesk"
 90
        0
280
     0
281
     0
  0
CLASS
  1
ACMFCFSTANDARDJIS
  2
AcmFCFStdJIS
  3
"AcmSymBB|Product Description: AutoCAD Mechanical 2000|Company: Autodesk"
 90
        0
280
     0
281
     0
  0
CLASS
  1
ACMWELDSTANDARDJIS
  2
AcmWeldingStdJIS
  3
"AcmSymBB|Product Description: AutoCAD Mechanical 2000|Company: Autodesk"
 90
        0
280
     0
281
     0
  0
CLASS
  1
ACMIDSTANDARDJIS
  2
AcmIdStdJIS
  3
"AcmSymBB|Product Description: AutoCAD Mechanical 2000|Company: Autodesk"
 90
        0
280
     0
281
     0
  0
CLASS
  1
ACMDATUMSTANDARDJIS
  2
AcmDatumStdJIS
  3
"AcmSymBB|Product Description: AutoCAD Mechanical 2000|Company: Autodesk"
 90
        0
280
     0
281
     0
  0
CLASS
  1
ACMBOMSTANDARDJIS
  2
AcmBOMStdJIS
  3
"AcmSymBB|Product Description: AutoCAD Mechanical 2000|Company: Autodesk"
 90
        0
280
     0
281
     0
  0
CLASS
  1
ACMSTANDARDANSI
  2
AcmStandardANSI
  3
"AcmSymBB|Product Description: AutoCAD Mechanical 2000|Company: Autodesk"
 90
        0
280
     0
281
     0
  0
CLASS
  1
ACMSURFSTANDARDANSI
  2
AcmSurfTextStdANSI
  3
"AcmSymBB|Product Description: AutoCAD Mechanical 2000|Company: Autodesk"
 90
        0
280
     0
281
     0
  0
CLASS
  1
ACMFCFSTANDARDANSI
  2
AcmFCFStdANSI
  3
"AcmSymBB|Product Description: AutoCAD Mechanical 2000|Company: Autodesk"
 90
        0
280
     0
281
     0
  0
CLASS
  1
ACMWELDSTANDARDANSI
  2
AcmWeldingStdANSI
  3
"AcmSymBB|Product Description: AutoCAD Mechanical 2000|Company: Autodesk"
 90
        0
280
     0
281
     0
  0
CLASS
  1
ACMIDSTANDARDANSI
  2
AcmIdStdANSI
  3
"AcmSymBB|Product Description: AutoCAD Mechanical 2000|Company: Autodesk"
 90
        0
280
     0
281
     0
  0
CLASS
  1
ACMDATUMSTANDARDANSI
  2
AcmDatumStdANSI
  3
"AcmSymBB|Product Description: AutoCAD Mechanical 2000|Company: Autodesk"
 90
        0
280
     0
281
     0
  0
CLASS
  1
ACMBOMSTANDARDANSI
  2
AcmBOMStdANSI
  3
"AcmSymBB|Product Description: AutoCAD Mechanical 2000|Company: Autodesk"
 90
        0
280
     0
281
     0
  0
CLASS
  1
ACMSTANDARDBSI
  2
AcmStandardBSI
  3
"AcmSymBB|Product Description: AutoCAD Mechanical 2000|Company: Autodesk"
 90
        0
280
     0
281
     0
  0
CLASS
  1
ACMSURFSTANDARDBSI
  2
AcmSurfTextStdBSI
  3
"AcmSymBB|Product Description: AutoCAD Mechanical 2000|Company: Autodesk"
 90
        0
280
     0
281
     0
  0
CLASS
  1
ACMFCFSTANDARDBSI
  2
AcmFCFStdBSI
  3
"AcmSymBB|Product Description: AutoCAD Mechanical 2000|Company: Autodesk"
 90
        0
280
     0
281
     0
  0
CLASS
  1
ACMWELDSTANDARDBSI
  2
AcmWeldingStdBSI
  3
"AcmSymBB|Product Description: AutoCAD Mechanical 2000|Company: Autodesk"
 90
        0
280
     0
281
     0
  0
CLASS
  1
ACMIDSTANDARDBSI
  2
AcmIdStdBSI
  3
"AcmSymBB|Product Description: AutoCAD Mechanical 2000|Company: Autodesk"
 90
        0
280
     0
281
     0
  0
CLASS
  1
ACMDATUMSTANDARDBSI
  2
AcmDatumStdBSI
  3
"AcmSymBB|Product Description: AutoCAD Mechanical 2000|Company: Autodesk"
 90
        0
280
     0
281
     0
  0
CLASS
  1
ACMBOMSTANDARDBSI
  2
AcmBOMStdBSI
  3
"AcmSymBB|Product Description: AutoCAD Mechanical 2000|Company: Autodesk"
 90
        0
280
     0
281
     0
  0
CLASS
  1
LONG_TRANSACTION
  2
AcDbLongTransaction
  3
AutoCAD 2000
 90
        0
280
     0
281
     0
  0
CLASS
  1
LWPOLYLINE
  2
AcDbPolyline
  3
AutoCAD 2000
 90
        0
280
     0
281
     1
  0
CLASS
  1
HATCH
  2
AcDbHatch
  3
AutoCAD 2000
 90
        0
280
     0
281
     1
  0
CLASS
  1
XRECORD
  2
AcDbXrecord
  3
AutoCAD 2000
 90
        0
280
     0
281
     0
  0
ENDSEC
  0
SECTION
  2
TABLES
  0
TABLE
  2
VPORT
  5
8
330
0
100
AcDbSymbolTable
 70
     3
  0
VPORT
  5
AD9A
330
8
100
AcDbSymbolTableRecord
100
AcDbViewportTableRecord
  2
*ACTIVE
 70
     0
 10
0.0
 20
0.0
 11
1.0
 21
1.0
 12
-25.15024139503239
 22
-33.9080827878501
 13
0.0
 23
0.0
 14
2.5
 24
2.5
 15
10.0
 25
10.0
 16
0.0
 26
0.0
 36
1.0
 17
0.0
 27
0.0
 37
0.0
 40
234.7652066019232
 41
1.56570841889117
 42
50.0
 43
0.0
 44
0.0
 50
0.0
 51
0.0
 71
     0
 72
   100
 73
     1
 74
     3
 75
     0
 76
     0
 77
     0
 78
     0
  0
ENDTAB
  0
TABLE
  2
LTYPE
  5
5
330
0
100
AcDbSymbolTable
 70
    10
  0
LTYPE
  5
14
330
5
100
AcDbSymbolTableRecord
100
AcDbLinetypeTableRecord
  2
BYBLOCK
 70
     0
  3

 72
    65
 73
     0
 40
0.0
  0
LTYPE
  5
15
330
5
100
AcDbSymbolTableRecord
100
AcDbLinetypeTableRecord
  2
BYLAYER
 70
     0
  3

 72
    65
 73
     0
 40
0.0
  0
LTYPE
  5
16
330
5
100
AcDbSymbolTableRecord
100
AcDbLinetypeTableRecord
  2
CONTINUOUS
 70
     0
  3
Solid line
 72
    65
 73
     0
 40
0.0
  0
LTYPE
  5
4B
330
5
100
AcDbSymbolTableRecord
100
AcDbLinetypeTableRecord
  2
AM_ISO02W050
 70
     0
  3
__ __ __ __ __ __ __ __ __ __ __ __ __ __ __
 72
    65
 73
     2
 40
7.5
 49
6.0
 74
     0
 49
-1.5
 74
     0
  0
LTYPE
  5
4C
330
5
100
AcDbSymbolTableRecord
100
AcDbLinetypeTableRecord
  2
AM_ISO08W050
 70
     0
  3
____ . ____ . ____ . ____ . ____ . ____ . ____
 72
    65
 73
     4
 40
18.0
 49
12.0
 74
     0
 49
-1.5
 74
     0
 49
3.0
 74
     0
 49
-1.5
 74
     0
  0
LTYPE
  5
4D
330
5
100
AcDbSymbolTableRecord
100
AcDbLinetypeTableRecord
  2
AM_ISO09W050
 70
     0
  3
_____ . . _____ . . _____ . . ____ .. ____
 72
    65
 73
     6
 40
22.5
 49
12.0
 74
     0
 49
-1.5
 74
     0
 49
3.0
 74
     0
 49
-1.5
 74
     0
 49
3.0
 74
     0
 49
-1.5
 74
     0
  0
LTYPE
  5
4E
330
5
100
AcDbSymbolTableRecord
100
AcDbLinetypeTableRecord
  2
AMCONSTR
 70
     0
  3
_______________________
 72
    65
 73
     2
 40
9999.0
 49
9999.0
 74
     0
 49
0.0
 74
     0
  0
LTYPE
  5
4F
330
5
100
AcDbSymbolTableRecord
100
AcDbLinetypeTableRecord
  2
AM_ISO02W050X2
 70
     0
  3
 _ _ _ _ _ _ _ _ _ _ _ _
 72
    65
 73
     2
 40
3.75
 49
3.0
 74
     0
 49
-0.75
 74
     0
  0
LTYPE
  5
50
330
5
100
AcDbSymbolTableRecord
100
AcDbLinetypeTableRecord
  2
AM_ISO08W050X2
 70
     0
  3
__ . __ . __ . __ . __ . __
 72
    65
 73
     4
 40
9.0
 49
6.0
 74
     0
 49
-0.75
 74
     0
 49
1.5
 74
     0
 49
-0.75
 74
     0
  0
LTYPE
  5
53
330
5
100
AcDbSymbolTableRecord
100
AcDbLinetypeTableRecord
  2
AMZIGZAG
 70
     0
  3
/\/-/\/-/\/-/\/-/\/-/\/
 72
    65
 73
     2
 40
11.00009999999999
 49
0.0001
 74
     4
 75
   135
340
52
 46
0.04
 50
0.0
 44
0.0
 45
0.0
 49
-11.0
 74
     0
  0
LTYPE
  5
166
330
5
100
AcDbSymbolTableRecord
100
AcDbLinetypeTableRecord
  2
ACJISTGL
 70
     0
  3
_ _ _ _ _
 72
    65
 73
     2
 40
3.0
 49
2.0
 74
     0
 49
-1.0
 74
     0
  0
LTYPE
  5
26A
330
5
100
AcDbSymbolTableRecord
100
AcDbLinetypeTableRecord
  2
ACJISTGB
 70
     0
  3
__ . . __ . .
 72
    65
 73
     6
 40
9.0
 49
4.0
 74
     0
 49
-1.0
 74
     0
 49
1.0
 74
     0
 49
-1.0
 74
     0
 49
1.0
 74
     0
 49
-1.0
 74
     0
  0
ENDTAB
  0
TABLE
  2
LAYER
  5
2
330
0
100
AcDbSymbolTable
 70
     7
  0
LAYER
  5
10
330
2
100
AcDbSymbolTableRecord
100
AcDbLayerTableRecord
  2
0
 70
     0
 62
     7
  6
CONTINUOUS
  0
LAYER
  5
BD4
330
2
100
AcDbSymbolTableRecord
100
AcDbLayerTableRecord
  2
AM_11
 70
     0
 62
     3
  6
AM_ISO09W050
  0
LAYER
  5
BD5
330
2
100
AcDbSymbolTableRecord
100
AcDbLayerTableRecord
  2
AM_7
 70
     0
 62
     4
  6
AM_ISO08W050
  0
LAYER
  5
BD6
330
2
100
AcDbSymbolTableRecord
100
AcDbLayerTableRecord
  2
AM_5
 70
     0
 62
     3
  6
CONTINUOUS
  0
LAYER
  5
BD7
330
2
100
AcDbSymbolTableRecord
100
AcDbLayerTableRecord
  2
DEFPOINTS
 70
     0
 62
     7
  6
CONTINUOUS
  0
LAYER
  5
E59
330
2
100
AcDbSymbolTableRecord
100
AcDbLayerTableRecord
  2
AM_6
 70
     0
 62
     2
  6
CONTINUOUS
  0
LAYER
  5
4062
330
2
100
AcDbSymbolTableRecord
100
AcDbLayerTableRecord
  2
AM_0
 70
     0
 62
     7
  6
CONTINUOUS
  0
ENDTAB
  0
TABLE
  2
STYLE
  5
3
330
0
100
AcDbSymbolTable
 70
     5
  0
STYLE
  5
11
330
3
100
AcDbSymbolTableRecord
100
AcDbTextStyleTableRecord
  2
STANDARD
 70
     0
 40
0.0
 41
1.0
 50
0.0
 71
     0
 42
2.5
  3
simplex.shx
  4
EXTFONT.SHX
  0
STYLE
  5
52
330
3
100
AcDbSymbolTableRecord
100
AcDbTextStyleTableRecord
  2

 70
     1
 40
0.0
 41
1.0
 50
0.0
 71
     0
 42
2.5
  3
ltypeshp.shx
  4

  0
STYLE
  5
6B
330
3
100
AcDbSymbolTableRecord
100
AcDbTextStyleTableRecord
  2
ASAMI
 70
     0
 40
0.0
 41
1.0
 50
0.0
 71
     0
 42
2.5
  3
simplex.shx
  4
EXTFONT.SHX
  0
STYLE
  5
262
330
3
100
AcDbSymbolTableRecord
100
AcDbTextStyleTableRecord
  2
ACJISTS
 70
     0
 40
1.0
 41
1.0
 50
0.0
 71
     0
 42
2.5
  3
simplex.shx
  4
bigfont.shx
  0
STYLE
  5
269
330
3
100
AcDbSymbolTableRecord
100
AcDbTextStyleTableRecord
  2
ACJISGDT
 70
     0
 40
0.0
 41
1.0
 50
0.0
 71
     0
 42
2.5
  3
amgdtans.shx
  4

  0
ENDTAB
  0
TABLE
  2
VIEW
  5
6
330
0
100
AcDbSymbolTable
 70
     0
  0
ENDTAB
  0
TABLE
  2
UCS
  5
7
330
0
100
AcDbSymbolTable
 70
     0
  0
ENDTAB
  0
TABLE
  2
APPID
  5
9
330
0
100
AcDbSymbolTable
 70
    12
  0
APPID
  5
12
330
9
100
AcDbSymbolTableRecord
100
AcDbRegAppTableRecord
  2
ACAD
 70
     0
  0
APPID
  5
30
330
9
100
AcDbSymbolTableRecord
100
AcDbRegAppTableRecord
  2
MCAD_NO_VIS
 70
     0
  0
APPID
  5
31
330
9
100
AcDbSymbolTableRecord
100
AcDbRegAppTableRecord
  2
ACAD_TEMP_GRAPHIC
 70
     0
  0
APPID
  5
2C2
330
9
100
AcDbSymbolTableRecord
100
AcDbRegAppTableRecord
  2
GENIUS_GENDTOL_13
 70
     0
  0
APPID
  5
339
330
9
100
AcDbSymbolTableRecord
100
AcDbRegAppTableRecord
  2
GENIUS_GENODEF_13
 70
     0
  0
APPID
  5
33A
330
9
100
AcDbSymbolTableRecord
100
AcDbRegAppTableRecord
  2
GENIUS_GENOBJ-N-RSBK_13
 70
     0
  0
APPID
  5
33B
330
9
100
AcDbSymbolTableRecord
100
AcDbRegAppTableRecord
  2
GENIUS_GENOBJ-N-LIB_13
 70
     0
  0
APPID
  5
33C
330
9
100
AcDbSymbolTableRecord
100
AcDbRegAppTableRecord
  2
GENIUS_GENSCALE_13
 70
     0
  0
APPID
  5
378
330
9
100
AcDbSymbolTableRecord
100
AcDbRegAppTableRecord
  2
GENIUS_GENDIMSH_14
 70
     0
  0
APPID
  5
BD8
330
9
100
AcDbSymbolTableRecord
100
AcDbRegAppTableRecord
  2
GENIUS_GENOBJ-N-CEN_13
 70
     0
  0
APPID
  5
BD9
330
9
100
AcDbSymbolTableRecord
100
AcDbRegAppTableRecord
  2
GENIUS_GENFIL_13
 70
     0
  0
APPID
  5
BDA
330
9
100
AcDbSymbolTableRecord
100
AcDbRegAppTableRecord
  2
GENIUS_GENOBJ-N-CHA_13
 70
     0
  0
ENDTAB
  0
TABLE
  2
DIMSTYLE
  5
A
330
0
100
AcDbSymbolTable
 70
     9
  0
DIMSTYLE
105
58
330
A
100
AcDbSymbolTableRecord
100
AcDbDimStyleTableRecord
  2
AM_JIS
 70
     0
  3

  4
"
  5
OPEN30
  6

  7

 40
1.0
 41
2.5
 42
1.0
 43
12.0
 44
1.0
 45
0.0
 46
0.0
 47
0.1
 48
0.1
140
3.2
141
0.0
142
0.0
143
0.0393701
144
1.0
145
0.0
146
0.71
147
1.5
 71
     0
 72
     0
 73
     0
 74
     0
 75
     0
 76
     0
 77
     3
 78
     8
170
     0
171
     2
172
     1
173
     0
174
     0
175
     0
176
   256
177
   256
178
     2
270
     2
271
     3
272
     3
273
     2
274
     2
340
6B
275
     0
280
     0
281
     0
282
     0
283
     0
284
     0
285
     0
286
     0
287
     3
288
     0
  0
DIMSTYLE
105
5F
330
A
100
AcDbSymbolTableRecord
100
AcDbDimStyleTableRecord
  2
AM_JIS$3
 70
     0
  3

  4
"
  5
OPEN30
  6

  7

 40
1.0
 41
2.5
 42
1.0
 43
10.0
 44
1.0
 45
0.0
 46
0.0
 47
0.1
 48
0.1
140
3.2
141
0.0
142
0.0
143
0.0393701
144
1.0
145
0.0
146
0.71
147
1.5
 71
     0
 72
     0
 73
     0
 74
     1
 75
     0
 76
     0
 77
     3
 78
     8
170
     0
171
     2
172
     0
173
     0
174
     0
175
     0
176
   256
177
   256
178
     2
270
     2
271
     2
272
     3
273
     2
274
     2
340
6B
275
     0
280
     0
281
     0
282
     0
283
     0
284
     0
285
     0
286
     0
287
     0
288
     1
  0
DIMSTYLE
105
60
330
A
100
AcDbSymbolTableRecord
100
AcDbDimStyleTableRecord
  2
AM_JIS$4
 70
     0
  3

  4
"
  5
OPEN30
  6

  7

 40
1.0
 41
2.5
 42
1.0
 43
10.0
 44
1.0
 45
0.0
 46
0.0
 47
0.1
 48
0.1
140
3.2
141
0.0
142
0.0
143
0.0393701
144
1.0
145
0.0
146
0.71
147
1.5
 71
     0
 72
     0
 73
     0
 74
     1
 75
     0
 76
     0
 77
     3
 78
     8
170
     0
171
     2
172
     0
173
     0
174
     0
175
     0
176
   256
177
   256
178
     2
270
     2
271
     2
272
     3
273
     2
274
     2
340
6B
275
     0
280
     0
281
     0
282
     0
283
     0
284
     0
285
     0
286
     0
287
     0
288
     1
  0
DIMSTYLE
105
61
330
A
100
AcDbSymbolTableRecord
100
AcDbDimStyleTableRecord
  2
AM_JIS$6
 70
     0
  3

  4
"
  5
OPEN30
  6

  7

 40
1.0
 41
2.5
 42
1.0
 43
10.0
 44
1.0
 45
0.0
 46
0.0
 47
0.1
 48
0.1
140
3.2
141
0.0
142
0.0
143
0.0393701
144
1.0
145
0.0
146
0.71
147
1.5
 71
     0
 72
     0
 73
     0
 74
     0
 75
     0
 76
     0
 77
     0
 78
     8
170
     0
171
     2
172
     1
173
     0
174
     0
175
     0
176
   256
177
   256
178
     2
270
     2
271
     2
272
     2
273
     2
274
     2
340
6B
275
     0
280
     0
281
     0
282
     0
283
     0
284
     0
285
     0
286
     0
287
     3
288
     0
  0
DIMSTYLE
105
62
330
A
100
AcDbSymbolTableRecord
100
AcDbDimStyleTableRecord
  2
AM_JIS$7
 70
     0
  3

  4
"
  5
OPEN30
  6

  7

 40
1.0
 41
2.5
 42
1.0
 43
10.0
 44
1.0
 45
0.0
 46
0.0
 47
0.1
 48
0.1
140
3.2
141
0.0
142
0.0
143
0.0393701
144
1.0
145
0.0
146
0.71
147
1.5
 71
     0
 72
     0
 73
     0
 74
     0
 75
     0
 76
     0
 77
     3
 78
     8
170
     0
171
     2
172
     1
173
     0
174
     0
175
     0
176
   256
177
   256
178
     2
270
     2
271
     2
272
     3
273
     2
274
     2
340
6B
275
     0
280
     0
281
     0
282
     0
283
     0
284
     0
285
     0
286
     0
287
     3
288
     0
  0
DIMSTYLE
105
63
330
A
100
AcDbSymbolTableRecord
100
AcDbDimStyleTableRecord
  2
AM_JIS$SF
 70
     0
  3

  4
"
  5
OPEN30
  6

  7

 40
1.0
 41
2.5
 42
1.0
 43
10.0
 44
1.0
 45
0.0
 46
0.0
 47
0.1
 48
0.1
140
3.2
141
0.0
142
0.0
143
0.0393701
144
1.0
145
0.0
146
0.71
147
1.5
 71
     0
 72
     0
 73
     0
 74
     0
 75
     1
 76
     1
 77
     3
 78
     8
170
     0
171
     2
172
     1
173
     0
174
     0
175
     0
176
   256
177
   256
178
     2
270
     2
271
     2
272
     2
273
     2
274
     2
340
6B
275
     0
280
     0
281
     0
282
     0
283
     0
284
     0
285
     0
286
     0
287
     3
288
     0
  0
DIMSTYLE
105
68
330
A
100
AcDbSymbolTableRecord
100
AcDbDimStyleTableRecord
  2
AM_JIS$SH
 70
     0
  3

  4
"
  5

  6
GENAXEH
  7
OPEN30
 40
1.0
 41
2.5
 42
1.0
 43
10.0
 44
1.0
 45
0.0
 46
0.0
 47
0.1
 48
0.1
140
3.2
141
0.0
142
0.0
143
0.0393701
144
2.0
145
0.0
146
0.71
147
1.5
 71
     0
 72
     0
 73
     0
 74
     0
 75
     1
 76
     1
 77
     3
 78
     8
170
     0
171
     2
172
     1
173
     1
174
     0
175
     0
176
   256
177
   256
178
     2
270
     2
271
     2
272
     2
273
     2
274
     2
340
6B
275
     0
280
     0
281
     0
282
     0
283
     0
284
     0
285
     0
286
     0
287
     3
288
     0
  0
DIMSTYLE
105
B34
330
A
100
AcDbSymbolTableRecord
100
AcDbDimStyleTableRecord
  2
AM_JIS$2
 70
     0
  3

  4
"
  5
OPEN30
  6

  7

 40
1.0
 41
2.5
 42
1.0
 43
12.0
 44
1.0
 45
0.0
 46
0.0
 47
0.1
 48
0.1
140
3.2
141
0.0
142
0.0
143
0.0393701
144
1.0
145
0.0
146
0.71
147
1.5
 71
     0
 72
     0
 73
     0
 74
     0
 75
     0
 76
     0
 77
     3
 78
     8
170
     0
171
     2
172
     1
173
     0
174
     0
175
     0
176
   256
177
   256
178
     2
270
     2
271
     3
272
     3
273
     2
274
     2
340
6B
275
     0
280
     0
281
     0
282
     0
283
     0
284
     0
285
     0
286
     0
287
     3
288
     0
  0
DIMSTYLE
105
1AB6
102
{ACAD_REACTORS
330
A71F
330
A71E
330
A720
330
A724
330
A721
330
A722
330
A723
330
AB4C
330
AB4D
102
}
330
A
100
AcDbSymbolTableRecord
100
AcDbDimStyleTableRecord
  2
AM_JIS$0
 70
     0
  3

  4
"
  5
OPEN30
  6

  7

 40
1.0
 41
2.5
 42
0.0
 43
10.0
 44
1.0
 45
0.0
 46
0.0
 47
0.1
 48
0.1000000001
140
3.799999999999999
141
0.0
142
0.0
143
0.0393701
144
1.0
145
0.0
146
0.71
147
1.5
 71
     0
 72
     0
 73
     0
 74
     0
 75
     0
 76
     0
 77
     3
 78
     1
170
     0
171
     2
172
     1
173
     0
174
     0
175
     0
176
     3
177
     3
178
     2
270
     2
271
     2
272
     2
273
     2
274
     2
340
11
275
     1
280
     0
281
     0
282
     0
283
     0
284
     8
285
     0
286
     0
287
     0
288
     0
  0
ENDTAB
  0
TABLE
  2
BLOCK_RECORD
  5
1
330
0
100
AcDbSymbolTable
 70
    14
  0
BLOCK_RECORD
  5
1F
102
{ACAD_XDICTIONARY
360
74
102
}
330
1
100
AcDbSymbolTableRecord
100
AcDbBlockTableRecord
  2
*MODEL_SPACE
  0
BLOCK_RECORD
  5
101
102
{ACAD_XDICTIONARY
360
ADC3
102
}
330
1
100
AcDbSymbolTableRecord
100
AcDbBlockTableRecord
  2
*PAPER_SPACE
  0
BLOCK_RECORD
  5
59
330
1
100
AcDbSymbolTableRecord
100
AcDbBlockTableRecord
  2
_OPEN30
  0
BLOCK_RECORD
  5
64
330
1
100
AcDbSymbolTableRecord
100
AcDbBlockTableRecord
  2
GENAXEH
  0
BLOCK_RECORD
  5
A725
330
1
100
AcDbSymbolTableRecord
100
AcDbBlockTableRecord
  2
*D5
  0
BLOCK_RECORD
  5
A731
330
1
100
AcDbSymbolTableRecord
100
AcDbBlockTableRecord
  2
*D6
  0
BLOCK_RECORD
  5
A73D
330
1
100
AcDbSymbolTableRecord
100
AcDbBlockTableRecord
  2
*D7
  0
BLOCK_RECORD
  5
A749
330
1
100
AcDbSymbolTableRecord
100
AcDbBlockTableRecord
  2
*D8
  0
BLOCK_RECORD
  5
A755
330
1
100
AcDbSymbolTableRecord
100
AcDbBlockTableRecord
  2
*D9
  0
BLOCK_RECORD
  5
A761
330
1
100
AcDbSymbolTableRecord
100
AcDbBlockTableRecord
  2
*D10
  0
BLOCK_RECORD
  5
A76D
330
1
100
AcDbSymbolTableRecord
100
AcDbBlockTableRecord
  2
*D11
  0
BLOCK_RECORD
  5
AB4E
330
1
100
AcDbSymbolTableRecord
100
AcDbBlockTableRecord
  2
*D12
  0
BLOCK_RECORD
  5
AB5A
330
1
100
AcDbSymbolTableRecord
100
AcDbBlockTableRecord
  2
*D13
  0
ENDTAB
  0
ENDSEC
  0
SECTION
  2
BLOCKS
  0
BLOCK
  5
20
330
1F
100
AcDbEntity
  8
0
100
AcDbBlockBegin
  2
*MODEL_SPACE
 70
     0
 10
0.0
 20
0.0
 30
0.0
  3
*MODEL_SPACE
  1

  0
ENDBLK
  5
21
330
1F
100
AcDbEntity
  8
0
100
AcDbBlockEnd
  0
BLOCK
  5
103
330
101
100
AcDbEntity
 67
     1
  8
0
100
AcDbBlockBegin
  2
*PAPER_SPACE
 70
     0
 10
0.0
 20
0.0
 30
0.0
  3
*PAPER_SPACE
  1

  0
ENDBLK
  5
104
330
101
100
AcDbEntity
 67
     1
  8
0
100
AcDbBlockEnd
  0
BLOCK
  5
5D
330
59
100
AcDbEntity
  8
0
100
AcDbBlockBegin
  2
_OPEN30
 70
     0
 10
0.0
 20
0.0
 30
0.0
  3
_OPEN30
  1

  0
LINE
  5
5A
330
59
100
AcDbEntity
  8
0
 62
     0
100
AcDbLine
 10
-1.0
 20
0.26794919
 30
0.0
 11
0.0
 21
0.0
 31
0.0
  0
LINE
  5
5B
330
59
100
AcDbEntity
  8
0
 62
     0
100
AcDbLine
 10
0.0
 20
0.0
 30
0.0
 11
-1.0
 21
-0.26794919
 31
0.0
  0
LINE
  5
5C
330
59
100
AcDbEntity
  8
0
 62
     0
100
AcDbLine
 10
0.0
 20
0.0
 30
0.0
 11
-1.0
 21
0.0
 31
0.0
  0
ENDBLK
  5
5E
330
59
100
AcDbEntity
  8
0
100
AcDbBlockEnd
  0
BLOCK
  5
66
330
64
100
AcDbEntity
  8
0
100
AcDbBlockBegin
  2
GENAXEH
 70
     0
 10
0.0
 20
0.0
 30
0.0
  3
GENAXEH
  1

  0
LINE
  5
65
330
64
100
AcDbEntity
  8
0
100
AcDbLine
 10
-1.0
 20
0.0
 30
0.0
 11
1.0
 21
0.0
 31
0.0
  0
ENDBLK
  5
67
330
64
100
AcDbEntity
  8
0
100
AcDbBlockEnd
  0
BLOCK
  5
A72F
330
A725
100
AcDbEntity
  8
0
100
AcDbBlockBegin
  2
*D5
 70
     1
 10
0.0
 20
0.0
 30
0.0
  3
*D5
  1

  0
LINE
  5
ADCE
330
A725
100
AcDbEntity
  8
AM_5
100
AcDbLine
 10
-61.00000000000005
 20
49.999999999999
 30
0.0
 11
-102.506440208978
 21
49.99999999999901
 31
0.0
  0
LINE
  5
ADCF
330
A725
100
AcDbEntity
  8
AM_5
100
AcDbLine
 10
-61.00000013113424
 20
-49.999999999999
 30
0.0
 11
-102.506440208978
 21
-49.999999999999
 31
0.0
  0
LINE
  5
ADD0
330
A725
100
AcDbEntity
  8
AM_5
100
AcDbLine
 10
-101.506440208978
 20
47.49999999999901
 30
0.0
 11
-101.506440208978
 21
-47.49999999999899
 31
0.0
  0
INSERT
  5
ADD1
330
A725
100
AcDbEntity
  8
AM_5
100
AcDbBlockReference
  2
_OPEN30
 10
-101.506440208978
 20
49.99999999999901
 30
0.0
 41
2.5
 42
2.5
 43
2.5
 50
90.0
  0
INSERT
  5
ADD2
330
A725
100
AcDbEntity
  8
AM_5
100
AcDbBlockReference
  2
_OPEN30
 10
-101.506440208978
 20
-49.999999999999
 30
0.0
 41
2.5
 42
2.5
 43
2.5
 50
270.0
  0
MTEXT
  5
ADD3
330
A725
100
AcDbEntity
  8
AM_5
 62
     2
100
AcDbMText
 10
-104.606440208978
 20
-0.0000000000000076
 30
0.0
 40
3.2
 41
0.0
 71
     5
 72
     1
  1
%%c100
  7
ASAMI
 11
0.0000000000000001
 21
1.0
 31
0.0
  0
POINT
  5
ADD4
330
A725
100
AcDbEntity
  8
DEFPOINTS
 62
     0
100
AcDbPoint
 10
-60.00000000000006
 20
49.999999999999
 30
0.0
  0
POINT
  5
ADD5
330
A725
100
AcDbEntity
  8
DEFPOINTS
 62
     0
100
AcDbPoint
 10
-60.00000013113425
 20
-49.999999999999
 30
0.0
  0
POINT
  5
ADD6
330
A725
100
AcDbEntity
  8
DEFPOINTS
 62
     0
100
AcDbPoint
 10
-101.506440208978
 20
-49.999999999999
 30
0.0
  0
ENDBLK
  5
A730
330
A725
100
AcDbEntity
  8
0
100
AcDbBlockEnd
  0
BLOCK
  5
A73B
330
A731
100
AcDbEntity
  8
0
100
AcDbBlockBegin
  2
*D6
 70
     1
 10
0.0
 20
0.0
 30
0.0
  3
*D6
  1

  0
LINE
  5
ADC5
330
A731
100
AcDbEntity
  8
AM_5
100
AcDbLine
 10
-63.00000000000006
 20
9.499999999999033
 30
0.0
 11
-82.50644020897807
 21
9.499999999999038
 31
0.0
  0
LINE
  5
ADC6
330
A731
100
AcDbEntity
  8
AM_5
100
AcDbLine
 10
-63.00000000000006
 20
-9.5
 30
0.0
 11
-82.50644020897807
 21
-9.499999999999994
 31
0.0
  0
LINE
  5
ADC7
330
A731
100
AcDbEntity
  8
AM_5
100
AcDbLine
 10
-81.50644020897805
 20
6.999999999999038
 30
0.0
 11
-81.50644020897805
 21
-6.999999999999994
 31
0.0
  0
INSERT
  5
ADC8
330
A731
100
AcDbEntity
  8
AM_5
100
AcDbBlockReference
  2
_OPEN30
 10
-81.50644020897805
 20
9.499999999999038
 30
0.0
 41
2.5
 42
2.5
 43
2.5
 50
90.0
  0
INSERT
  5
ADC9
330
A731
100
AcDbEntity
  8
AM_5
100
AcDbBlockReference
  2
_OPEN30
 10
-81.50644020897805
 20
-9.499999999999994
 30
0.0
 41
2.5
 42
2.5
 43
2.5
 50
270.0
  0
MTEXT
  5
ADCA
330
A731
100
AcDbEntity
  8
AM_5
 62
     2
100
AcDbMText
 10
-84.60644020897806
 20
-0.0000000000004902
 30
0.0
 40
3.2
 41
0.0
 71
     5
 72
     1
  1
19
  7
ASAMI
 11
0.0000000000000001
 21
1.0
 31
0.0
  0
POINT
  5
ADCB
330
A731
100
AcDbEntity
  8
DEFPOINTS
 62
     0
100
AcDbPoint
 10
-62.00000000000006
 20
9.499999999999033
 30
0.0
  0
POINT
  5
ADCC
330
A731
100
AcDbEntity
  8
DEFPOINTS
 62
     0
100
AcDbPoint
 10
-62.00000000000006
 20
-9.5
 30
0.0
  0
POINT
  5
ADCD
330
A731
100
AcDbEntity
  8
DEFPOINTS
 62
     0
100
AcDbPoint
 10
-81.50644020897805
 20
-9.499999999999994
 30
0.0
  0
ENDBLK
  5
A73C
330
A731
100
AcDbEntity
  8
0
100
AcDbBlockEnd
  0
BLOCK
  5
A747
330
A73D
100
AcDbEntity
  8
0
100
AcDbBlockBegin
  2
*D7
 70
     1
 10
0.0
 20
0.0
 30
0.0
  3
*D7
  1

  0
LINE
  5
ADD7
330
A73D
100
AcDbEntity
  8
AM_5
100
AcDbLine
 10
-62.50000000000006
 20
25.4
 30
0.0
 11
-92.50644020897807
 21
25.40000000000001
 31
0.0
  0
LINE
  5
ADD8
330
A73D
100
AcDbEntity
  8
AM_5
100
AcDbLine
 10
-62.50000000000006
 20
-25.4
 30
0.0
 11
-92.50644020897807
 21
-25.39999999999999
 31
0.0
  0
LINE
  5
ADD9
330
A73D
100
AcDbEntity
  8
AM_5
100
AcDbLine
 10
-91.50644020897805
 20
22.90000000000001
 30
0.0
 11
-91.50644020897805
 21
-22.89999999999999
 31
0.0
  0
INSERT
  5
ADDA
330
A73D
100
AcDbEntity
  8
AM_5
100
AcDbBlockReference
  2
_OPEN30
 10
-91.50644020897805
 20
25.40000000000001
 30
0.0
 41
2.5
 42
2.5
 43
2.5
 50
90.0
  0
INSERT
  5
ADDB
330
A73D
100
AcDbEntity
  8
AM_5
100
AcDbBlockReference
  2
_OPEN30
 10
-91.50644020897805
 20
-25.39999999999999
 30
0.0
 41
2.5
 42
2.5
 43
2.5
 50
270.0
  0
MTEXT
  5
ADDC
330
A73D
100
AcDbEntity
  8
AM_5
 62
     2
100
AcDbMText
 10
-94.60644020897806
 20
-0.0000000000000047
 30
0.0
 40
3.2
 41
0.0
 71
     5
 72
     1
  1
%%c50.8
  7
ASAMI
 11
0.0000000000000001
 21
1.0
 31
0.0
  0
POINT
  5
ADDD
330
A73D
100
AcDbEntity
  8
DEFPOINTS
 62
     0
100
AcDbPoint
 10
-61.50000000000005
 20
25.4
 30
0.0
  0
POINT
  5
ADDE
330
A73D
100
AcDbEntity
  8
DEFPOINTS
 62
     0
100
AcDbPoint
 10
-61.50000000000005
 20
-25.4
 30
0.0
  0
POINT
  5
ADDF
330
A73D
100
AcDbEntity
  8
DEFPOINTS
 62
     0
100
AcDbPoint
 10
-91.50644020897805
 20
-25.39999999999999
 30
0.0
  0
ENDBLK
  5
A748
330
A73D
100
AcDbEntity
  8
0
100
AcDbBlockEnd
  0
BLOCK
  5
A753
330
A749
100
AcDbEntity
  8
0
100
AcDbBlockBegin
  2
*D8
 70
     1
 10
0.0
 20
0.0
 30
0.0
  3
*D8
  1

  0
LINE
  5
ADFB
330
A749
100
AcDbEntity
  8
AM_5
100
AcDbLine
 10
-63.00000000000006
 20
-47.99999973773054
 30
0.0
 11
-63.00000000000006
 21
-95.00000099999999
 31
0.0
  0
LINE
  5
ADFC
330
A749
100
AcDbEntity
  8
AM_5
100
AcDbLine
 10
-52.00000000000006
 20
-10.5
 30
0.0
 11
-52.00000000000006
 21
-95.00000099999999
 31
0.0
  0
LINE
  5
ADFD
330
A749
100
AcDbEntity
  8
AM_5
100
AcDbLine
 10
-60.50000000000006
 20
-94.00000099999999
 30
0.0
 11
-54.50000000000006
 21
-94.00000099999999
 31
0.0
  0
INSERT
  5
ADFE
330
A749
100
AcDbEntity
  8
AM_5
100
AcDbBlockReference
  2
_OPEN30
 10
-63.00000000000006
 20
-94.00000099999999
 30
0.0
 41
2.5
 42
2.5
 43
2.5
 50
180.0
  0
INSERT
  5
ADFF
330
A749
100
AcDbEntity
  8
AM_5
100
AcDbBlockReference
  2
_OPEN30
 10
-52.00000000000006
 20
-94.00000099999999
 30
0.0
 41
2.5
 42
2.5
 43
2.5
  0
MTEXT
  5
AE00
330
A749
100
AcDbEntity
  8
AM_5
 62
     2
100
AcDbMText
 10
-57.50000000000006
 20
-90.90000100000001
 30
0.0
 40
3.2
 41
0.0
 71
     5
 72
     1
  1
11
  7
ASAMI
  0
POINT
  5
AE01
330
A749
100
AcDbEntity
  8
DEFPOINTS
 62
     0
100
AcDbPoint
 10
-63.00000000000006
 20
-46.99999973773055
 30
0.0
  0
POINT
  5
AE02
330
A749
100
AcDbEntity
  8
DEFPOINTS
 62
     0
100
AcDbPoint
 10
-52.00000000000006
 20
-9.5
 30
0.0
  0
POINT
  5
AE03
330
A749
100
AcDbEntity
  8
DEFPOINTS
 62
     0
100
AcDbPoint
 10
-52.00000000000006
 20
-94.00000099999999
 30
0.0
  0
ENDBLK
  5
A754
330
A749
100
AcDbEntity
  8
0
100
AcDbBlockEnd
  0
BLOCK
  5
A75F
330
A755
100
AcDbEntity
  8
0
100
AcDbBlockBegin
  2
*D9
 70
     1
 10
0.0
 20
0.0
 30
0.0
  3
*D9
  1

  0
LINE
  5
ADE0
330
A755
100
AcDbEntity
  8
AM_5
100
AcDbLine
 10
-63.00000000000006
 20
-47.99999973773054
 30
0.0
 11
-63.00000000000006
 21
-125.0000009999993
 31
0.0
  0
LINE
  5
ADE1
330
A755
100
AcDbEntity
  8
AM_5
100
AcDbLine
 10
-0.0000000000000569
 20
-80.97321701049702
 30
0.0
 11
-0.0000000000000596
 21
-125.0000009999993
 31
0.0
  0
LINE
  5
ADE2
330
A755
100
AcDbEntity
  8
AM_5
100
AcDbLine
 10
-60.50000000000006
 20
-124.0000009999993
 30
0.0
 11
-2.500000000000059
 21
-124.0000009999993
 31
0.0
  0
INSERT
  5
ADE3
330
A755
100
AcDbEntity
  8
AM_5
100
AcDbBlockReference
  2
_OPEN30
 10
-63.00000000000006
 20
-124.0000009999993
 30
0.0
 41
2.5
 42
2.5
 43
2.5
 50
180.0
  0
INSERT
  5
ADE4
330
A755
100
AcDbEntity
  8
AM_5
100
AcDbBlockReference
  2
_OPEN30
 10
-0.0000000000000595
 20
-124.0000009999993
 30
0.0
 41
2.5
 42
2.5
 43
2.5
  0
MTEXT
  5
ADE5
330
A755
100
AcDbEntity
  8
AM_5
 62
     2
100
AcDbMText
 10
-31.50000000000006
 20
-120.9000009999993
 30
0.0
 40
3.2
 41
0.0
 71
     5
 72
     1
  1
63
  7
ASAMI
  0
POINT
  5
ADE6
330
A755
100
AcDbEntity
  8
DEFPOINTS
 62
     0
100
AcDbPoint
 10
-63.00000000000006
 20
-46.99999973773055
 30
0.0
  0
POINT
  5
ADE7
330
A755
100
AcDbEntity
  8
DEFPOINTS
 62
     0
100
AcDbPoint
 10
-0.0000000000000568
 20
-79.97321701049703
 30
0.0
  0
POINT
  5
ADE8
330
A755
100
AcDbEntity
  8
DEFPOINTS
 62
     0
100
AcDbPoint
 10
-0.0000000000000595
 20
-124.0000009999993
 30
0.0
  0
ENDBLK
  5
A760
330
A755
100
AcDbEntity
  8
0
100
AcDbBlockEnd
  0
BLOCK
  5
A76B
330
A761
100
AcDbEntity
  8
0
100
AcDbBlockBegin
  2
*D10
 70
     1
 10
0.0
 20
0.0
 30
0.0
  3
*D10
  1

  0
LINE
  5
ADE9
330
A761
100
AcDbEntity
  8
AM_5
100
AcDbLine
 10
-63.00000000000006
 20
-47.99999973773054
 30
0.0
 11
-63.00000000000006
 21
-105.0000009999999
 31
0.0
  0
LINE
  5
ADEA
330
A761
100
AcDbEntity
  8
AM_5
100
AcDbLine
 10
-25.00000000000204
 20
-36.99999999999903
 30
0.0
 11
-25.00000000000205
 21
-105.0000009999999
 31
0.0
  0
LINE
  5
ADEB
330
A761
100
AcDbEntity
  8
AM_5
100
AcDbLine
 10
-60.50000000000006
 20
-104.0000009999999
 30
0.0
 11
-27.50000000000205
 21
-104.0000009999999
 31
0.0
  0
INSERT
  5
ADEC
330
A761
100
AcDbEntity
  8
AM_5
100
AcDbBlockReference
  2
_OPEN30
 10
-63.00000000000006
 20
-104.0000009999999
 30
0.0
 41
2.5
 42
2.5
 43
2.5
 50
180.0
  0
INSERT
  5
ADED
330
A761
100
AcDbEntity
  8
AM_5
100
AcDbBlockReference
  2
_OPEN30
 10
-25.00000000000205
 20
-104.0000009999999
 30
0.0
 41
2.5
 42
2.5
 43
2.5
  0
MTEXT
  5
ADEE
330
A761
100
AcDbEntity
  8
AM_5
 62
     2
100
AcDbMText
 10
-44.00000000000105
 20
-100.900001
 30
0.0
 40
3.2
 41
0.0
 71
     5
 72
     1
  1
38
  7
ASAMI
  0
POINT
  5
ADEF
330
A761
100
AcDbEntity
  8
DEFPOINTS
 62
     0
100
AcDbPoint
 10
-63.00000000000006
 20
-46.99999973773055
 30
0.0
  0
POINT
  5
ADF0
330
A761
100
AcDbEntity
  8
DEFPOINTS
 62
     0
100
AcDbPoint
 10
-25.00000000000204
 20
-35.99999999999903
 30
0.0
  0
POINT
  5
ADF1
330
A761
100
AcDbEntity
  8
DEFPOINTS
 62
     0
100
AcDbPoint
 10
-25.00000000000205
 20
-104.0000009999999
 30
0.0
  0
ENDBLK
  5
A76C
330
A761
100
AcDbEntity
  8
0
100
AcDbBlockEnd
  0
BLOCK
  5
A777
330
A76D
100
AcDbEntity
  8
0
100
AcDbBlockBegin
  2
*D11
 70
     1
 10
0.0
 20
0.0
 30
0.0
  3
*D11
  1

  0
LINE
  5
ADF2
330
A76D
100
AcDbEntity
  8
AM_5
100
AcDbLine
 10
-63.00000000000006
 20
-47.99999973773054
 30
0.0
 11
-63.00000000000006
 21
-115.000001
 31
0.0
  0
LINE
  5
ADF3
330
A76D
100
AcDbEntity
  8
AM_5
100
AcDbLine
 10
-6.500000000000113
 20
-61.7175946256831
 30
0.0
 11
-6.500000000000117
 21
-115.000001
 31
0.0
  0
LINE
  5
ADF4
330
A76D
100
AcDbEntity
  8
AM_5
100
AcDbLine
 10
-60.50000000000006
 20
-114.000001
 30
0.0
 11
-9.000000000000117
 21
-114.000001
 31
0.0
  0
INSERT
  5
ADF5
330
A76D
100
AcDbEntity
  8
AM_5
100
AcDbBlockReference
  2
_OPEN30
 10
-63.00000000000006
 20
-114.000001
 30
0.0
 41
2.5
 42
2.5
 43
2.5
 50
180.0
  0
INSERT
  5
ADF6
330
A76D
100
AcDbEntity
  8
AM_5
100
AcDbBlockReference
  2
_OPEN30
 10
-6.500000000000117
 20
-114.000001
 30
0.0
 41
2.5
 42
2.5
 43
2.5
  0
MTEXT
  5
ADF7
330
A76D
100
AcDbEntity
  8
AM_5
 62
     2
100
AcDbMText
 10
-34.75000000000009
 20
-110.900001
 30
0.0
 40
3.2
 41
0.0
 71
     5
 72
     1
  1
56.5
  7
ASAMI
  0
POINT
  5
ADF8
330
A76D
100
AcDbEntity
  8
DEFPOINTS
 62
     0
100
AcDbPoint
 10
-63.00000000000006
 20
-46.99999973773055
 30
0.0
  0
POINT
  5
ADF9
330
A76D
100
AcDbEntity
  8
DEFPOINTS
 62
     0
100
AcDbPoint
 10
-6.500000000000113
 20
-60.7175946256831
 30
0.0
  0
POINT
  5
ADFA
330
A76D
100
AcDbEntity
  8
DEFPOINTS
 62
     0
100
AcDbPoint
 10
-6.500000000000117
 20
-114.000001
 30
0.0
  0
ENDBLK
  5
A778
330
A76D
100
AcDbEntity
  8
0
100
AcDbBlockEnd
  0
BLOCK
  5
AB58
330
AB4E
100
AcDbEntity
  8
0
100
AcDbBlockBegin
  2
*D12
 70
     1
 10
0.0
 20
0.0
 30
0.0
  3
*D12
  1

  0
LINE
  5
AE04
330
AB4E
100
AcDbEntity
  8
AM_5
100
AcDbLine
 10
0.9999999999999431
 20
80.00000000000003
 30
0.0
 11
28.27788262231397
 21
80.00000000000003
 31
0.0
  0
LINE
  5
AE05
330
AB4E
100
AcDbEntity
  8
AM_5
100
AcDbLine
 10
0.9999999999999431
 20
-80.0
 30
0.0
 11
28.27788262231393
 21
-80.0
 31
0.0
  0
LINE
  5
AE06
330
AB4E
100
AcDbEntity
  8
AM_5
100
AcDbLine
 10
27.27788262231397
 20
77.50000000000003
 30
0.0
 11
27.27788262231394
 21
-77.5
 31
0.0
  0
INSERT
  5
AE07
330
AB4E
100
AcDbEntity
  8
AM_5
100
AcDbBlockReference
  2
_OPEN30
 10
27.27788262231397
 20
80.00000000000003
 30
0.0
 41
2.5
 42
2.5
 43
2.5
 50
90.0
  0
INSERT
  5
AE08
330
AB4E
100
AcDbEntity
  8
AM_5
100
AcDbBlockReference
  2
_OPEN30
 10
27.27788262231394
 20
-80.0
 30
0.0
 41
2.5
 42
2.5
 43
2.5
 50
270.0
  0
MTEXT
  5
AE09
330
AB4E
100
AcDbEntity
  8
AM_5
 62
     2
100
AcDbMText
 10
24.17788262231395
 20
0.0000000000000129
 30
0.0
 40
3.2
 41
0.0
 71
     5
 72
     1
  1
%%c160
  7
ASAMI
 11
0.0000000000000001
 21
1.0
 31
0.0
  0
POINT
  5
AE0A
330
AB4E
100
AcDbEntity
  8
DEFPOINTS
 62
     0
100
AcDbPoint
 10
-0.0000000000000568
 20
80.00000000000003
 30
0.0
  0
POINT
  5
AE0B
330
AB4E
100
AcDbEntity
  8
DEFPOINTS
 62
     0
100
AcDbPoint
 10
-0.0000000000000568
 20
-80.0
 30
0.0
  0
POINT
  5
AE0C
330
AB4E
100
AcDbEntity
  8
DEFPOINTS
 62
     0
100
AcDbPoint
 10
27.27788262231394
 20
-80.0
 30
0.0
  0
ENDBLK
  5
AB59
330
AB4E
100
AcDbEntity
  8
0
100
AcDbBlockEnd
  0
BLOCK
  5
AB64
330
AB5A
100
AcDbEntity
  8
0
100
AcDbBlockBegin
  2
*D13
 70
     1
 10
0.0
 20
0.0
 30
0.0
  3
*D13
  1

  0
LINE
  5
AE0D
330
AB5A
100
AcDbEntity
  8
AM_5
100
AcDbLine
 10
-9.653480748340257
 20
35.999999999999
 30
0.0
 11
18.27788262231395
 21
35.999999999999
 31
0.0
  0
LINE
  5
AE0E
330
AB5A
100
AcDbEntity
  8
AM_5
100
AcDbLine
 10
-10.50000021855703
 20
-35.999999999999
 30
0.0
 11
18.27788262231393
 21
-35.99999999999901
 31
0.0
  0
LINE
  5
AE0F
330
AB5A
100
AcDbEntity
  8
AM_5
100
AcDbLine
 10
17.27788262231395
 20
33.499999999999
 30
0.0
 11
17.27788262231394
 21
-33.49999999999901
 31
0.0
  0
INSERT
  5
AE10
330
AB5A
100
AcDbEntity
  8
AM_5
100
AcDbBlockReference
  2
_OPEN30
 10
17.27788262231395
 20
35.999999999999
 30
0.0
 41
2.5
 42
2.5
 43
2.5
 50
90.0
  0
INSERT
  5
AE11
330
AB5A
100
AcDbEntity
  8
AM_5
100
AcDbBlockReference
  2
_OPEN30
 10
17.27788262231394
 20
-35.99999999999901
 30
0.0
 41
2.5
 42
2.5
 43
2.5
 50
270.0
  0
MTEXT
  5
AE12
330
AB5A
100
AcDbEntity
  8
AM_5
 62
     2
100
AcDbMText
 10
14.17788262231394
 20
-0.0000000000000007
 30
0.0
 40
3.2
 41
0.0
 71
     5
 72
     1
  1
%%c72
  7
ASAMI
 11
0.0000000000000001
 21
1.0
 31
0.0
  0
POINT
  5
AE13
330
AB5A
100
AcDbEntity
  8
DEFPOINTS
 62
     0
100
AcDbPoint
 10
-10.65348074834025
 20
35.999999999999
 30
0.0
  0
POINT
  5
AE14
330
AB5A
100
AcDbEntity
  8
DEFPOINTS
 62
     0
100
AcDbPoint
 10
-11.50000021855703
 20
-35.999999999999
 30
0.0
  0
POINT
  5
AE15
330
AB5A
100
AcDbEntity
  8
DEFPOINTS
 62
     0
100
AcDbPoint
 10
17.27788262231394
 20
-35.99999999999901
 30
0.0
  0
ENDBLK
  5
AB65
330
AB5A
100
AcDbEntity
  8
0
100
AcDbBlockEnd
  0
ENDSEC
  0
SECTION
  2
ENTITIES
  0
TEXT
  5
E5A
330
1F
100
AcDbEntity
  8
AM_6
100
AcDbText
 10
-52.452380952381
 20
-146.5000009999993
 30
0.0
 40
5.0
  1
WRC20160R
 72
     4
 11
-31.50000000000005
 21
-144.0000009999993
 31
0.0
100
AcDbText
  0
ARC
  5
A1CF
330
1F
100
AcDbEntity
  8
AM_0
  6
CONTINUOUS
 48
0.5
100
AcDbCircle
 10
-48.77350616455004
 20
59.999999999999
 30
0.0
 40
10.0
100
AcDbArc
 50
269.9999974955215
 51
329.9999991651724
  0
LINE
  5
A1D0
330
1F
100
AcDbEntity
  8
AM_0
  6
CONTINUOUS
100
AcDbLine
 10
-6.500000000000113
 20
60.71759462568306
 30
0.0
 11
-6.500000000000113
 21
-60.71759462568312
 31
0.0
  0
ARC
  5
A1D1
330
1F
100
AcDbEntity
  8
AM_0
  6
CONTINUOUS
 48
0.5
100
AcDbCircle
 10
-60.00000000000006
 20
46.999999999999
 30
0.0
 40
3.0
100
AcDbArc
 50
90.00000250447845
 51
180.0000050089585
  0
LINE
  5
A1D2
330
1F
100
AcDbEntity
  8
AM_0
  6
CONTINUOUS
 48
0.5
100
AcDbLine
 10
-62.00000000000006
 20
-9.5
 30
0.0
 11
-52.00000000000006
 21
-9.5
 31
0.0
  0
LINE
  5
A1D3
330
1F
100
AcDbEntity
  8
AM_0
  6
CONTINUOUS
 48
0.5
100
AcDbLine
 10
-62.00000000000006
 20
9.499999999999033
 30
0.0
 11
-52.00000000000006
 21
9.499999999999033
 31
0.0
  0
LINE
  5
A1D4
330
1F
100
AcDbEntity
  8
AM_0
  6
CONTINUOUS
100
AcDbLine
 10
-61.50000000000005
 20
-25.4
 30
0.0
 11
-26.00000000000204
 21
-25.4
 31
0.0
  0
LINE
  5
A1D5
330
1F
100
AcDbEntity
  8
AM_0
  6
CONTINUOUS
100
AcDbLine
 10
-61.50000000000005
 20
25.4
 30
0.0
 11
-26.00000000000204
 21
25.4
 31
0.0
  0
LINE
  5
A1D6
330
1F
100
AcDbEntity
  8
AM_7
  6
AM_ISO08W050
100
AcDbLine
 10
-67.50643920897807
 20
0.0
 30
0.0
 11
3.277881622313941
 21
0.0
 31
0.0
  0
LINE
  5
A1D7
330
1F
100
AcDbEntity
  8
AM_0
  6
CONTINUOUS
 48
0.5
100
AcDbLine
 10
-61.50000000000005
 20
-9.50001525879
 30
0.0
 11
-61.50000000000005
 21
-25.40000152587998
 31
0.0
  0
LINE
  5
A1D8
330
1F
100
AcDbEntity
  8
AM_0
  6
CONTINUOUS
 48
0.5
100
AcDbLine
 10
-63.00000000000006
 20
-10.5
 30
0.0
 11
-63.00000000000011
 21
-46.999999999999
 31
0.0
  0
LINE
  5
A1D9
330
1F
100
AcDbEntity
  8
AM_0
  6
CONTINUOUS
 48
0.5
100
AcDbLine
 10
-63.00000000000006
 20
-26.90001525879
 30
0.0
 11
-61.50000000000005
 21
-25.40001525879
 31
0.0
  0
LINE
  5
A1DA
330
1F
100
AcDbEntity
  8
AM_0
  6
CONTINUOUS
 48
0.5
100
AcDbLine
 10
-63.00000000000006
 20
-10.49999237059998
 30
0.0
 11
-62.00000000000006
 21
-9.499992370599983
 31
0.0
  0
LINE
  5
A1DB
330
1F
100
AcDbEntity
  8
AM_0
  6
CONTINUOUS
100
AcDbLine
 10
-63.00000000000006
 20
46.999999999999
 30
0.0
 11
-63.00000000000006
 21
10.49999999999903
 31
0.0
  0
LINE
  5
A1DC
330
1F
100
AcDbEntity
  8
AM_0
  6
CONTINUOUS
 48
0.5
100
AcDbLine
 10
-61.50000000000005
 20
25.40000152587799
 30
0.0
 11
-61.50000000000005
 21
9.499999999999033
 31
0.0
  0
LINE
  5
A1DD
330
1F
100
AcDbEntity
  8
AM_0
  6
CONTINUOUS
 48
0.5
100
AcDbLine
 10
-63.00000000000006
 20
10.49999999999903
 30
0.0
 11
-62.00000000000006
 21
9.499999999999033
 31
0.0
  0
LINE
  5
A1DE
330
1F
100
AcDbEntity
  8
AM_0
  6
CONTINUOUS
 48
0.5
100
AcDbLine
 10
-63.00000000000006
 20
26.9
 30
0.0
 11
-61.50000000000005
 21
25.4
 31
0.0
  0
LINE
  5
A1E0
330
1F
100
AcDbEntity
  8
AM_0
  6
CONTINUOUS
100
AcDbLine
 10
-50.59999847412001
 20
25.40000152587799
 30
0.0
 11
-50.59999847412001
 21
-25.39998626708998
 31
0.0
  0
LINE
  5
A1E1
330
1F
100
AcDbEntity
  8
AM_0
  6
CONTINUOUS
 48
0.5
100
AcDbLine
 10
-52.00000000000006
 20
9.499999999999033
 30
0.0
 11
-52.00000000000006
 21
-9.5
 31
0.0
  0
LINE
  5
A1E2
330
1F
100
AcDbEntity
  8
AM_0
  6
CONTINUOUS
100
AcDbLine
 10
-25.00000000000204
 20
35.99999999999903
 30
0.0
 11
-25.00000000000204
 21
-26.80956268309998
 31
0.0
  0
LINE
  5
A1E3
330
1F
100
AcDbEntity
  8
AM_0
  6
CONTINUOUS
 48
0.5
100
AcDbLine
 10
-25.00000000000204
 20
-26.39998626708998
 30
0.0
 11
-25.00000000000204
 21
-35.99999999999903
 31
0.0
  0
ARC
  5
A1E4
330
1F
100
AcDbEntity
  8
AM_0
  6
CONTINUOUS
 48
0.5
100
AcDbCircle
 10
-26.00000000000204
 20
-26.39998474121
 30
0.0
 40
1.0
100
AcDbArc
 50
0.0
 51
90.00000250447845
  0
LINE
  5
A1E5
330
1F
100
AcDbEntity
  8
AM_0
  6
CONTINUOUS
 48
0.5
100
AcDbLine
 10
-60.00000000000006
 20
49.999999999999
 30
0.0
 11
-48.77350616455004
 21
49.999999999999
 31
0.0
  0
ARC
  5
A1E6
330
1F
100
AcDbEntity
  8
AM_0
  6
CONTINUOUS
 48
0.5
100
AcDbCircle
 10
-26.00000000000204
 20
26.4
 30
0.0
 40
1.0
100
AcDbArc
 50
269.9999974955215
 51
0.0
  0
ARC
  5
A1E7
330
1F
100
AcDbEntity
  8
AM_0
  6
CONTINUOUS
 48
0.5
100
AcDbCircle
 10
-11.50000000000005
 20
40.99999999999901
 30
0.0
 40
5.0
100
AcDbArc
 50
269.9999974955215
 51
0.0
  0
LINE
  5
A1E8
330
1F
100
AcDbEntity
  8
AM_0
  6
CONTINUOUS
 48
0.5
100
AcDbLine
 10
-25.00000000000204
 20
35.99999999999903
 30
0.0
 11
-11.50000021855703
 21
35.999999999999
 31
0.0
  0
ARC
  5
A1E9
330
1F
100
AcDbEntity
  8
AM_0
  6
CONTINUOUS
 48
0.5
100
AcDbCircle
 10
-26.25684356689601
 20
68.999999999999
 30
0.0
 40
5.0
100
AcDbArc
 50
90.00000250447845
 51
149.9999973439394
  0
LINE
  5
A1EA
330
1F
100
AcDbEntity
  8
AM_11
100
AcDbLine
 10
-36.33026123047006
 20
61.55232620239101
 30
0.0
 11
-6.700004577638026
 21
53.61292266845601
 31
0.0
  0
LINE
  5
A1EB
330
1F
100
AcDbEntity
  8
AM_0
  6
CONTINUOUS
 48
0.5
100
AcDbLine
 10
-40.11325073242
 20
54.999999999999
 30
0.0
 11
-30.58696746826302
 21
71.499999999999
 31
0.0
  0
LINE
  5
A1EC
330
1F
100
AcDbEntity
  8
AM_0
  6
CONTINUOUS
 48
0.5
100
AcDbLine
 10
-19.89011383056606
 20
71.97961807250999
 30
0.0
 11
-18.35471343994106
 21
75.64598655700698
 31
0.0
  0
LINE
  5
A1ED
330
1F
100
AcDbEntity
  8
AM_0
  6
CONTINUOUS
 48
0.5
100
AcDbLine
 10
-1.492729187012059
 20
75.70282173156698
 30
0.0
 11
-0.0000228881840485
 21
72.04650688171398
 31
0.0
  0
CIRCLE
  5
A1EE
330
1F
100
AcDbEntity
  8
AM_0
  6
CONTINUOUS
 48
0.5
100
AcDbCircle
 10
-9.956619262695085
 20
70.031494140625
 30
0.0
 40
4.5
  0
LINE
  5
A1EF
330
1F
100
AcDbEntity
  8
AM_0
  6
CONTINUOUS
 48
0.5
100
AcDbLine
 10
-8.036598205566065
 20
60.076427459717
 30
0.0
 11
-11.99305725097707
 21
60.06312179565398
 31
0.0
  0
LINE
  5
A1F0
330
1F
100
AcDbEntity
  8
AM_0
  6
CONTINUOUS
 48
0.5
100
AcDbLine
 10
-18.42060852050804
 20
64.360324859619
 30
0.0
 11
-15.63932800293008
 21
61.56741714477499
 31
0.0
  0
LINE
  5
A1F1
330
1F
100
AcDbEntity
  8
AM_0
  6
CONTINUOUS
 48
0.5
100
AcDbLine
 10
-11.99302673339809
 20
60.06311035156199
 30
0.0
 11
-15.63933563232404
 21
61.56741714477499
 31
0.0
  0
LINE
  5
A1F2
330
1F
100
AcDbEntity
  8
AM_0
  6
CONTINUOUS
 48
0.5
100
AcDbLine
 10
-26.25684356689601
 20
73.999999999999
 30
0.0
 11
-18.87931823730599
 21
73.999999999999
 31
0.0
  0
LINE
  5
A1F3
330
1F
100
AcDbEntity
  8
AM_0
  6
CONTINUOUS
 48
0.5
100
AcDbLine
 10
-18.42063140869106
 20
64.36032104492198
 30
0.0
 11
-19.91324615478504
 21
68.01660537719698
 31
0.0
  0
LINE
  5
A1F4
330
1F
100
AcDbEntity
  8
AM_0
  6
CONTINUOUS
 48
0.5
100
AcDbLine
 10
-19.91320800781307
 20
68.016525268554
 30
0.0
 11
-19.8901062011721
 21
71.97960281371999
 31
0.0
  0
LINE
  5
A1F5
330
1F
100
AcDbEntity
  8
AM_0
  6
CONTINUOUS
 48
0.5
100
AcDbLine
 10
-4.372505187988053
 20
61.605327606201
 30
0.0
 11
-1.558609008789062
 21
64.41703033447197
 31
0.0
  0
LINE
  5
A1F6
330
1F
100
AcDbEntity
  8
AM_0
  6
CONTINUOUS
 48
0.5
100
AcDbLine
 10
-4.372512817383039
 20
61.60532379150399
 30
0.0
 11
-8.036598205566065
 21
60.07642364501899
 31
0.0
  0
LINE
  5
A1F8
330
1F
100
AcDbEntity
  8
AM_0
  6
CONTINUOUS
 48
0.5
100
AcDbLine
 10
-0.0000000000000568
 20
72.04652023315398
 30
0.0
 11
-0.0231018066410798
 21
68.08348846435499
 31
0.0
  0
LINE
  5
A1F9
330
1F
100
AcDbEntity
  8
AM_0
  6
CONTINUOUS
 48
0.5
100
AcDbLine
 10
-0.0231094360350426
 20
68.08349609375
 30
0.0
 11
-1.558601379395099
 21
64.41703033447197
 31
0.0
  0
LINE
  5
A1FA
330
1F
100
AcDbEntity
  8
AM_0
  6
CONTINUOUS
 48
0.5
100
AcDbLine
 10
-11.87660217285207
 20
79.98668861389098
 30
0.0
 11
-7.920295715332088
 21
79.99999427795398
 31
0.0
  0
LINE
  5
A1FB
330
1F
100
AcDbEntity
  8
AM_0
  6
CONTINUOUS
 48
0.5
100
AcDbLine
 10
-15.54074859619106
 20
78.45779800414999
 30
0.0
 11
-11.87661743164108
 21
79.986700057983
 31
0.0
  0
LINE
  5
A1FC
330
1F
100
AcDbEntity
  8
AM_0
  6
CONTINUOUS
 48
0.5
100
AcDbLine
 10
-15.54072570800804
 20
78.45778846740699
 30
0.0
 11
-18.35471343994106
 21
75.64599609375
 31
0.0
  0
LINE
  5
A1FD
330
1F
100
AcDbEntity
  8
AM_0
  6
CONTINUOUS
 48
0.5
100
AcDbLine
 10
-1.492744445801065
 20
75.70279693603499
 30
0.0
 11
-4.273933410645099
 21
78.49567413330098
 31
0.0
  0
LINE
  5
A1FE
330
1F
100
AcDbEntity
  8
AM_0
  6
CONTINUOUS
 48
0.5
100
AcDbLine
 10
-7.920288085938068
 20
80.0
 30
0.0
 11
-4.273895263672102
 21
78.49569702148397
 31
0.0
  0
LINE
  5
A6E9
330
1F
100
AcDbEntity
  8
AM_0
  6
CONTINUOUS
 48
0.5
100
AcDbLine
 10
-4.372505187988053
 20
-61.605327606201
 30
0.0
 11
-1.558609008789062
 21
-64.41703033447197
 31
0.0
  0
LINE
  5
A6EA
330
1F
100
AcDbEntity
  8
AM_0
  6
CONTINUOUS
 48
0.5
100
AcDbLine
 10
-18.42060852050804
 20
-64.360324859619
 30
0.0
 11
-15.63932800293008
 21
-61.56741714477499
 31
0.0
  0
LINE
  5
A6EB
330
1F
100
AcDbEntity
  8
AM_0
  6
CONTINUOUS
 48
0.5
100
AcDbLine
 10
-40.11325073242
 20
-54.999999999999
 30
0.0
 11
-30.58696746826302
 21
-71.499999999999
 31
0.0
  0
ARC
  5
A6EC
330
1F
100
AcDbEntity
  8
AM_0
  6
CONTINUOUS
 48
0.5
100
AcDbCircle
 10
-60.00000000000006
 20
-46.999999999999
 30
0.0
 40
3.0
100
AcDbArc
 50
179.9999949910414
 51
269.9999974955215
  0
ARC
  5
A6ED
330
1F
100
AcDbEntity
  8
AM_0
  6
CONTINUOUS
 48
0.5
100
AcDbCircle
 10
-11.50000000000005
 20
-40.99999999999901
 30
0.0
 40
5.0
100
AcDbArc
 50
0.0
 51
90.00000250447849
  0
LINE
  5
A6EE
330
1F
100
AcDbEntity
  8
AM_0
  6
CONTINUOUS
 48
0.5
100
AcDbLine
 10
-25.00000000000204
 20
-35.99999999999903
 30
0.0
 11
-11.50000021855703
 21
-35.999999999999
 31
0.0
  0
LINE
  5
A6EF
330
1F
100
AcDbEntity
  8
AM_11
100
AcDbLine
 10
-36.33026123047006
 20
-61.55232620239101
 30
0.0
 11
-6.700004577638026
 21
-53.61292266845601
 31
0.0
  0
LINE
  5
A6F0
330
1F
100
AcDbEntity
  8
AM_0
  6
CONTINUOUS
 48
0.5
100
AcDbLine
 10
-60.00000000000006
 20
-49.999999999999
 30
0.0
 11
-48.77350616455004
 21
-49.999999999999
 31
0.0
  0
ARC
  5
A6F1
330
1F
100
AcDbEntity
  8
AM_0
  6
CONTINUOUS
 48
0.5
100
AcDbCircle
 10
-48.77350616455004
 20
-59.999999999999
 30
0.0
 40
10.0
100
AcDbArc
 50
30.00000083482754
 51
90.00000250447849
  0
LINE
  5
A6F2
330
1F
100
AcDbEntity
  8
AM_0
  6
CONTINUOUS
 48
0.5
100
AcDbLine
 10
-8.036598205566065
 20
-60.076427459717
 30
0.0
 11
-11.99305725097707
 21
-60.06312179565398
 31
0.0
  0
LINE
  5
A6F3
330
1F
100
AcDbEntity
  8
AM_0
  6
CONTINUOUS
 48
0.5
100
AcDbLine
 10
-11.99302673339809
 20
-60.06311035156199
 30
0.0
 11
-15.63933563232404
 21
-61.56741714477499
 31
0.0
  0
LINE
  5
A6F5
330
1F
100
AcDbEntity
  8
AM_0
  6
CONTINUOUS
 48
0.5
100
AcDbLine
 10
-4.372512817383039
 20
-61.60532379150399
 30
0.0
 11
-8.036598205566065
 21
-60.07642364501899
 31
0.0
  0
LINE
  5
A6F6
330
1F
100
AcDbEntity
  8
AM_0
  6
CONTINUOUS
 48
0.5
100
AcDbLine
 10
-1.492744445801065
 20
-75.70279693603499
 30
0.0
 11
-4.273933410645099
 21
-78.49567413330098
 31
0.0
  0
LINE
  5
A6F7
330
1F
100
AcDbEntity
  8
AM_0
  6
CONTINUOUS
 48
0.5
100
AcDbLine
 10
-15.54072570800804
 20
-78.45778846740699
 30
0.0
 11
-18.35471343994106
 21
-75.64599609375
 31
0.0
  0
LINE
  5
A6F8
330
1F
100
AcDbEntity
  8
AM_0
  6
CONTINUOUS
 48
0.5
100
AcDbLine
 10
-0.0000000000000568
 20
-72.04652023315398
 30
0.0
 11
-0.0231018066410798
 21
-68.08348846435499
 31
0.0
  0
LINE
  5
A6F9
330
1F
100
AcDbEntity
  8
AM_0
  6
CONTINUOUS
 48
0.5
100
AcDbLine
 10
-19.91320800781307
 20
-68.016525268554
 30
0.0
 11
-19.8901062011721
 21
-71.97960281371999
 31
0.0
  0
CIRCLE
  5
A6FA
330
1F
100
AcDbEntity
  8
AM_0
  6
CONTINUOUS
 48
0.5
100
AcDbCircle
 10
-9.956619262695085
 20
-70.031494140625
 30
0.0
 40
4.5
  0
LINE
  5
A6FB
330
1F
100
AcDbEntity
  8
AM_0
  6
CONTINUOUS
 48
0.5
100
AcDbLine
 10
-18.42063140869106
 20
-64.36032104492198
 30
0.0
 11
-19.91324615478504
 21
-68.01660537719698
 31
0.0
  0
LINE
  5
A6FC
330
1F
100
AcDbEntity
  8
AM_0
  6
CONTINUOUS
 48
0.5
100
AcDbLine
 10
-0.0231094360350426
 20
-68.08349609375
 30
0.0
 11
-1.558601379395099
 21
-64.41703033447197
 31
0.0
  0
LINE
  5
A6FD
330
1F
100
AcDbEntity
  8
AM_0
  6
CONTINUOUS
 48
0.5
100
AcDbLine
 10
-26.25684356689601
 20
-73.999999999999
 30
0.0
 11
-18.87931823730599
 21
-73.999999999999
 31
0.0
  0
LINE
  5
A6FE
330
1F
100
AcDbEntity
  8
AM_0
  6
CONTINUOUS
 48
0.5
100
AcDbLine
 10
-19.89011383056606
 20
-71.97961807250999
 30
0.0
 11
-18.35471343994106
 21
-75.64598655700698
 31
0.0
  0
ARC
  5
A6FF
330
1F
100
AcDbEntity
  8
AM_0
  6
CONTINUOUS
 48
0.5
100
AcDbCircle
 10
-26.25684356689601
 20
-68.999999999999
 30
0.0
 40
5.0
100
AcDbArc
 50
210.0000026560605
 51
269.9999974955215
  0
LINE
  5
A700
330
1F
100
AcDbEntity
  8
AM_0
  6
CONTINUOUS
 48
0.5
100
AcDbLine
 10
-1.492729187012059
 20
-75.70282173156698
 30
0.0
 11
-0.0000228881840485
 21
-72.04650688171398
 31
0.0
  0
LINE
  5
A701
330
1F
100
AcDbEntity
  8
AM_0
  6
CONTINUOUS
 48
0.5
100
AcDbLine
 10
-11.87660217285207
 20
-79.98668861389098
 30
0.0
 11
-7.920295715332088
 21
-79.99999427795398
 31
0.0
  0
LINE
  5
A702
330
1F
100
AcDbEntity
  8
AM_0
  6
CONTINUOUS
 48
0.5
100
AcDbLine
 10
-15.54074859619106
 20
-78.45779800414999
 30
0.0
 11
-11.87661743164108
 21
-79.986700057983
 31
0.0
  0
LINE
  5
A703
330
1F
100
AcDbEntity
  8
AM_0
  6
CONTINUOUS
 48
0.5
100
AcDbLine
 10
-7.920288085938068
 20
-80.0
 30
0.0
 11
-4.273895263672102
 21
-78.49569702148397
 31
0.0
  0
LINE
  5
A70A
330
1F
100
AcDbEntity
  8
AM_11
100
AcDbLine
 10
-0.0000000000000568
 20
80.0
 30
0.0
 11
-7.920288085938068
 21
80.0
 31
0.0
  0
LINE
  5
A70F
330
1F
100
AcDbEntity
  8
AM_11
100
AcDbLine
 10
-0.0000000000000568
 20
-80.0
 30
0.0
 11
-7.920288085938068
 21
-80.0
 31
0.0
  0
LINE
  5
A719
330
1F
100
AcDbEntity
  8
AM_11
100
AcDbLine
 10
0.0
 20
-80.0
 30
0.0
 11
-0.0000000000000568
 21
80.00000000000003
 31
0.0
  0
DIMENSION
  5
A71E
330
1F
100
AcDbEntity
  8
AM_5
100
AcDbDimension
  2
*D6
 10
-81.50644020897805
 20
-9.499999999999994
 30
0.0
 11
-84.60644020897806
 21
-0.0000000000004902
 31
0.0
 70
    32
  1
<>
  3
AM_JIS$0
100
AcDbAlignedDimension
 13
-62.00000000000006
 23
9.499999999999033
 33
0.0
 14
-62.00000000000006
 24
-9.5
 34
0.0
 50
270.0
100
AcDbRotatedDimension
1001
GENIUS_GENDTOL_13
1000

1000
h7
1000

1040
0.0
1001
ACAD
1000
DSTYLE
1002
{
1070
   287
1070
     5
1070
    42
1040
1.0
1070
    43
1040
12.0
1070
    48
1040
0.1
1070
    78
1070
     8
1070
   140
1040
3.2
1070
   176
1070
   256
1070
   177
1070
   256
1070
   271
1070
     3
1070
   272
1070
     3
1070
   275
1070
     0
1070
   279
1070
     2
1070
   284
1070
     0
1070
   289
1070
     3
1070
   340
1005
6B
1070
   371
1070
    -1
1070
   372
1070
    -1
1002
}
  0
DIMENSION
  5
A71F
330
1F
100
AcDbEntity
  8
AM_5
100
AcDbDimension
  2
*D5
 10
-101.506440208978
 20
-49.999999999999
 30
0.0
 11
-104.606440208978
 21
-0.0000000000000076
 31
0.0
 70
    32
  1
%%c<>
  3
AM_JIS$0
100
AcDbAlignedDimension
 13
-60.00000000000006
 23
49.999999999999
 33
0.0
 14
-60.00000013113425
 24
-49.999999999999
 34
0.0
 50
270.0
100
AcDbRotatedDimension
1001
GENIUS_GENDTOL_13
1000

1000
h7
1000

1040
0.0
1001
ACAD
1000
DSTYLE
1002
{
1070
   287
1070
     5
1070
    42
1040
1.0
1070
    43
1040
12.0
1070
    48
1040
0.1
1070
    78
1070
     8
1070
   140
1040
3.2
1070
   176
1070
   256
1070
   177
1070
   256
1070
   271
1070
     3
1070
   272
1070
     3
1070
   275
1070
     0
1070
   279
1070
     2
1070
   284
1070
     0
1070
   289
1070
     3
1070
   340
1005
6B
1070
   371
1070
    -1
1070
   372
1070
    -1
1002
}
  0
DIMENSION
  5
A720
330
1F
100
AcDbEntity
  8
AM_5
100
AcDbDimension
  2
*D7
 10
-91.50644020897805
 20
-25.39999999999999
 30
0.0
 11
-94.60644020897806
 21
-0.0000000000000047
 31
0.0
 70
    32
  1
%%c<>
  3
AM_JIS$0
100
AcDbAlignedDimension
 13
-61.50000000000005
 23
25.4
 33
0.0
 14
-61.50000000000005
 24
-25.4
 34
0.0
 50
270.0
100
AcDbRotatedDimension
1001
GENIUS_GENDTOL_13
1000

1000
h7
1000

1040
0.0
1001
ACAD
1000
DSTYLE
1002
{
1070
   287
1070
     5
1070
    42
1040
1.0
1070
    43
1040
12.0
1070
    48
1040
0.1
1070
    78
1070
     8
1070
   140
1040
3.2
1070
   176
1070
   256
1070
   177
1070
   256
1070
   271
1070
     3
1070
   272
1070
     3
1070
   275
1070
     0
1070
   279
1070
     2
1070
   284
1070
     0
1070
   289
1070
     3
1070
   340
1005
6B
1070
   371
1070
    -1
1070
   372
1070
    -1
1002
}
  0
DIMENSION
  5
A721
330
1F
100
AcDbEntity
  8
AM_5
100
AcDbDimension
  2
*D9
 10
-0.0000000000000595
 20
-124.0000009999993
 30
0.0
 11
-31.50000000000006
 21
-120.9000009999993
 31
0.0
 70
    32
  1
<>
  3
AM_JIS$0
100
AcDbAlignedDimension
 13
-63.00000000000006
 23
-46.99999973773055
 33
0.0
 14
-0.0000000000000568
 24
-79.97321701049703
 34
0.0
 50
0.0000113836296182
100
AcDbRotatedDimension
1001
GENIUS_GENDTOL_13
1000

1000
h7
1000

1040
0.0
1001
ACAD
1000
DSTYLE
1002
{
1070
   287
1070
     3
1070
    42
1040
1.0
1070
    43
1040
12.0
1070
    48
1040
0.1
1070
    78
1070
     8
1070
   140
1040
3.2
1070
   176
1070
   256
1070
   177
1070
   256
1070
   271
1070
     3
1070
   272
1070
     3
1070
   275
1070
     0
1070
   284
1070
     0
1070
   289
1070
     3
1070
   340
1005
6B
1070
   371
1070
    -1
1070
   372
1070
    -1
1002
}
  0
DIMENSION
  5
A722
330
1F
100
AcDbEntity
  8
AM_5
100
AcDbDimension
  2
*D10
 10
-25.00000000000205
 20
-104.0000009999999
 30
0.0
 11
-44.00000000000105
 21
-100.900001
 31
0.0
 70
    32
  1
<>
  3
AM_JIS$0
100
AcDbAlignedDimension
 13
-63.00000000000006
 23
-46.99999973773055
 33
0.0
 14
-25.00000000000204
 24
-35.99999999999903
 34
0.0
100
AcDbRotatedDimension
1001
GENIUS_GENDTOL_13
1000

1000
h7
1000

1040
0.0
1001
ACAD
1000
DSTYLE
1002
{
1070
   287
1070
     5
1070
    42
1040
1.0
1070
    43
1040
12.0
1070
    48
1040
0.1
1070
    78
1070
     8
1070
   140
1040
3.2
1070
   176
1070
   256
1070
   177
1070
   256
1070
   271
1070
     3
1070
   272
1070
     3
1070
   275
1070
     0
1070
   279
1070
     2
1070
   284
1070
     0
1070
   289
1070
     3
1070
   340
1005
6B
1070
   371
1070
    -1
1070
   372
1070
    -1
1002
}
  0
DIMENSION
  5
A723
330
1F
100
AcDbEntity
  8
AM_5
100
AcDbDimension
  2
*D11
 10
-6.500000000000117
 20
-114.000001
 30
0.0
 11
-34.75000000000009
 21
-110.900001
 31
0.0
 70
    32
  1
<>
  3
AM_JIS$0
100
AcDbAlignedDimension
 13
-63.00000000000006
 23
-46.99999973773055
 33
0.0
 14
-6.500000000000113
 24
-60.7175946256831
 34
0.0
 50
180.0
100
AcDbRotatedDimension
1001
GENIUS_GENDTOL_13
1000

1000
h7
1000

1040
0.0
1001
ACAD
1000
DSTYLE
1002
{
1070
   287
1070
     5
1070
    42
1040
1.0
1070
    43
1040
12.0
1070
    48
1040
0.1
1070
    78
1070
     8
1070
   140
1040
3.2
1070
   176
1070
   256
1070
   177
1070
   256
1070
   271
1070
     3
1070
   272
1070
     3
1070
   275
1070
     0
1070
   279
1070
     2
1070
   284
1070
     0
1070
   289
1070
     3
1070
   340
1005
6B
1070
   371
1070
    -1
1070
   372
1070
    -1
1002
}
  0
DIMENSION
  5
A724
330
1F
100
AcDbEntity
  8
AM_5
100
AcDbDimension
  2
*D8
 10
-52.00000000000006
 20
-94.00000099999999
 30
0.0
 11
-57.50000000000006
 21
-90.90000100000001
 31
0.0
 70
    32
  1
<>
  3
AM_JIS$0
100
AcDbAlignedDimension
 13
-63.00000000000006
 23
-46.99999973773055
 33
0.0
 14
-52.00000000000006
 24
-9.5
 34
0.0
100
AcDbRotatedDimension
1001
GENIUS_GENDTOL_13
1000

1000
h7
1000

1040
0.0
1001
ACAD
1000
DSTYLE
1002
{
1070
   287
1070
     5
1070
    42
1040
1.0
1070
    43
1040
12.0
1070
    48
1040
0.1
1070
    78
1070
     8
1070
   140
1040
3.2
1070
   176
1070
   256
1070
   177
1070
   256
1070
   271
1070
     3
1070
   272
1070
     3
1070
   275
1070
     0
1070
   279
1070
     2
1070
   284
1070
     0
1070
   289
1070
     3
1070
   340
1005
6B
1070
   371
1070
    -1
1070
   372
1070
    -1
1002
}
  0
DIMENSION
  5
AB4C
330
1F
100
AcDbEntity
  8
AM_5
100
AcDbDimension
  2
*D12
 10
27.27788262231394
 20
-80.0
 30
0.0
 11
24.17788262231395
 21
0.0000000000000129
 31
0.0
 70
    32
  1
%%c<>
  3
AM_JIS$0
100
AcDbAlignedDimension
 13
-0.0000000000000568
 23
80.00000000000003
 33
0.0
 14
-0.0000000000000568
 24
-80.0
 34
0.0
 50
90.0
100
AcDbRotatedDimension
1001
GENIUS_GENDTOL_13
1000

1000
h7
1000

1040
0.0
1001
ACAD
1000
DSTYLE
1002
{
1070
   287
1070
     3
1070
    42
1040
1.0
1070
    43
1040
12.0
1070
    48
1040
0.1
1070
    78
1070
     8
1070
   140
1040
3.2
1070
   176
1070
   256
1070
   177
1070
   256
1070
   271
1070
     3
1070
   272
1070
     3
1070
   275
1070
     0
1070
   284
1070
     0
1070
   289
1070
     3
1070
   340
1005
6B
1070
   371
1070
    -1
1070
   372
1070
    -1
1002
}
  0
DIMENSION
  5
AB4D
330
1F
100
AcDbEntity
  8
AM_5
100
AcDbDimension
  2
*D13
 10
17.27788262231394
 20
-35.99999999999901
 30
0.0
 11
14.17788262231394
 21
-0.0000000000000007
 31
0.0
 70
    32
  1
%%c<>
  3
AM_JIS$0
100
AcDbAlignedDimension
 13
-10.65348074834025
 23
35.999999999999
 33
0.0
 14
-11.50000021855703
 24
-35.999999999999
 34
0.0
 50
90.0
100
AcDbRotatedDimension
1001
GENIUS_GENDTOL_13
1000

1000
h7
1000

1040
0.0
1001
ACAD
1000
DSTYLE
1002
{
1070
   287
1070
     3
1070
    42
1040
1.0
1070
    43
1040
12.0
1070
    48
1040
0.1
1070
    78
1070
     8
1070
   140
1040
3.2
1070
   176
1070
   256
1070
   177
1070
   256
1070
   271
1070
     3
1070
   272
1070
     3
1070
   275
1070
     0
1070
   284
1070
     0
1070
   289
1070
     3
1070
   340
1005
6B
1070
   371
1070
    -1
1070
   372
1070
    -1
1002
}
  0
VIEWPORT
  5
110
330
101
100
AcDbEntity
 67
     1
  8
0
100
AcDbViewport
 10
420.5
 20
297.0
 30
0.0
 40
948.9782706766916
 41
628.452
 68
     1
 69
     1
1001
ACAD
1000
MVIEW
1002
{
1070
    16
1010
0.0
1020
0.0
1030
0.0
1010
0.0
1020
0.0
1030
1.0
1040
0.0
1040
628.452
1040
420.5
1040
297.0
1040
50.0
1040
0.0
1040
0.0
1070
     0
1070
   100
1070
     1
1070
     1
1070
     0
1070
     0
1070
     0
1070
     0
1040
0.0
1040
0.0
1040
0.0
1040
10.0
1040
10.0
1040
10.0
1040
10.0
1070
     0
1002
{
1002
}
1002
}
  0
ENDSEC
  0
SECTION
  2
OBJECTS
  0
DICTIONARY
  5
C
330
0
100
AcDbDictionary
  3
ACAD_GROUP
350
D
  3
ACAD_LAYOUT
350
1A
  3
ACAD_MLINESTYLE
350
17
  3
ACAD_PLOTSETTINGS
350
19
  3
ACAD_PLOTSTYLENAME
350
E
  3
ACDBVARIABLEDICTIONARY
350
34
  3
ACMDICTIONARY
350
43
  3
AMG
350
2B
  3
AMGSNAPSETTINGS
350
6E
  3
DWGPROPS
350
AD8F
  3
ACDBHEADERROUNDTRIPXREC
350
AD9B
  0
DICTIONARY
  5
74
330
1F
100
AcDbDictionary
280
     1
  3
ACAD_INDEX
360
AD91
  3
ACAD_LAYOUTSELFREF
360
ADBE
  0
DICTIONARY
  5
ADC3
330
101
100
AcDbDictionary
280
     1
  3
ACAD_LAYOUTSELFREF
360
ADC4
  0
DICTIONARY
  5
D
102
{ACAD_REACTORS
330
C
102
}
330
C
100
AcDbDictionary
  0
DICTIONARY
  5
1A
102
{ACAD_REACTORS
330
C
102
}
330
C
100
AcDbDictionary
  0
DICTIONARY
  5
17
102
{ACAD_REACTORS
330
C
102
}
330
C
100
AcDbDictionary
  3
STANDARD
350
18
  0
DICTIONARY
  5
19
102
{ACAD_REACTORS
330
C
102
}
330
C
100
AcDbDictionary
  0
ACDBDICTIONARYWDFLT
  5
E
102
{ACAD_REACTORS
330
C
102
}
330
C
100
AcDbDictionary
281
     1
  3
Normal
350
F
100
AcDbDictionaryWithDefault
340
F
  0
DICTIONARY
  5
34
102
{ACAD_REACTORS
330
C
102
}
330
C
100
AcDbDictionary
  3
INDEXCTL
350
35
  3
SORTENTS
350
B5E
  0
DICTIONARY
  5
43
102
{ACAD_REACTORS
330
C
102
}
330
C
100
AcDbDictionary
  3
ACMSTDDICTIONARY
350
260
  0
DICTIONARY
  5
2B
102
{ACAD_REACTORS
330
C
102
}
330
C
100
AcDbDictionary
  3
ACMGSETTINGS
350
2C
  0
DICTIONARY
  5
6E
102
{ACAD_REACTORS
330
C
102
}
330
C
100
AcDbDictionary
  0
XRECORD
  5
AD8F
102
{ACAD_REACTORS
330
C
102
}
330
C
100
AcDbXrecord
  1
DWGPROPS COOKIE
  2

  3

  4

  6

  7

  8

  9

300
AmdtFileType=82
301
=
302
=
303
=
304
=
305
=
306
=
307
=
308
=
309
=
 40
0.4179835879629631
 41
2452836.771637361
 42
2453076.607292013
  1

 90
        1
  0
DICTIONARY
  5
AD9B
102
{ACAD_REACTORS
330
C
102
}
330
C
100
AcDbDictionary
  3
TSTACKALIGN
350
AD9C
  3
TSTACKSIZE
350
AD9D
  3
HYPERLINKBASE
350
AD9E
  3
STYLESHEET
350
AD9F
  3
LAYOUTDICT
350
ADA0
  3
PLOTSETDICT
350
ADA1
  3
PLOTSTYLNAMDICT
350
ADA2
  3
LWETCUNION
350
ADA3
  3
INSUNITS
350
ADA4
  3
CEPSNTYPE
350
ADA5
  3
FINGERPRINTGUID
350
ADA6
  3
VERSIONGUID
350
ADA7
  3
PSVPSCALE
350
ADA8
  3
DIMSTYLEDATA
350
ADA9
  3
PUCSORTHOREF
350
ADAA
  3
PUCSORTHOVIEW
350
ADAB
  3
PUCSBASE
350
ADAC
  3
PUCSORGTOP
350
ADAD
  3
PUCSORGBOTTOM
350
ADAE
  3
PUCSORGLEFT
350
ADAF
  3
PUCSORGRIGHT
350
ADB0
  3
PUCSORGFRONT
350
ADB1
  3
PUCSORGBACK
350
ADB2
  3
UCSORTHOREF
350
ADB3
  3
UCSORTHOVIEW
350
ADB4
  3
UCSBASE
350
ADB5
  3
UCSORGTOP
350
ADB6
  3
UCSORGBOTTOM
350
ADB7
  3
UCSORGLEFT
350
ADB8
  3
UCSORGRIGHT
350
ADB9
  3
UCSORGFRONT
350
ADBA
  3
UCSORGBACK
350
ADBB
  0
DICTIONARY
  5
AD91
102
{ACAD_REACTORS
330
74
102
}
330
74
100
AcDbDictionary
  3
*A1
350
AD92
  0
XRECORD
  5
ADBE
102
{ACAD_REACTORS
330
74
102
}
330
74
100
AcDbXrecord
340
1F
  0
XRECORD
  5
ADC4
102
{ACAD_REACTORS
330
ADC3
102
}
330
ADC3
100
AcDbXrecord
340
101
  0
MLINESTYLE
  5
18
102
{ACAD_REACTORS
330
17
102
}
330
17
100
AcDbMlineStyle
  2
STANDARD
 70
     0
  3

 62
   256
 51
90.0
 52
90.0
 71
     2
 49
0.5
 62
   256
  6
BYLAYER
 49
-0.5
 62
   256
  6
BYLAYER
  0
ACDBPLACEHOLDER
  5
F
102
{ACAD_REACTORS
330
E
102
}
330
E
100
AcDbPlaceHolder
280
     0
  0
DICTIONARYVAR
  5
35
102
{ACAD_REACTORS
330
34
102
}
330
34
100
DictionaryVariables
280
     0
  1
1
  0
DICTIONARYVAR
  5
B5E
102
{ACAD_REACTORS
330
34
102
}
330
34
100
DictionaryVariables
280
     0
  1
96
  0
DICTIONARY
  5
260
102
{ACAD_REACTORS
330
43
102
}
330
43
100
AcDbDictionary
  0
DICTIONARY
  5
2C
102
{ACAD_REACTORS
330
2B
102
}
330
2B
100
AcDbDictionary
  3
DWGSETTINGS
350
2D
  0
XRECORD
  5
AD9C
102
{ACAD_REACTORS
330
AD9B
102
}
330
AD9B
100
AcDbXrecord
 90
        1
  0
XRECORD
  5
AD9D
102
{ACAD_REACTORS
330
AD9B
102
}
330
AD9B
100
AcDbXrecord
 90
       70
  0
XRECORD
  5
AD9E
102
{ACAD_REACTORS
330
AD9B
102
}
330
AD9B
100
AcDbXrecord
  1

  0
XRECORD
  5
AD9F
102
{ACAD_REACTORS
330
AD9B
102
}
330
AD9B
100
AcDbXrecord
  1
ASAMI.ctb
  0
XRECORD
  5
ADA0
102
{ACAD_REACTORS
330
AD9B
102
}
330
AD9B
100
AcDbXrecord
340
1A
  0
XRECORD
  5
ADA1
102
{ACAD_REACTORS
330
AD9B
102
}
330
AD9B
100
AcDbXrecord
340
19
  0
XRECORD
  5
ADA2
102
{ACAD_REACTORS
330
AD9B
102
}
330
AD9B
100
AcDbXrecord
340
E
  0
XRECORD
  5
ADA3
102
{ACAD_REACTORS
330
AD9B
102
}
330
AD9B
100
AcDbXrecord
 90
    10781
  0
XRECORD
  5
ADA4
102
{ACAD_REACTORS
330
AD9B
102
}
330
AD9B
100
AcDbXrecord
 90
        4
  0
XRECORD
  5
ADA5
102
{ACAD_REACTORS
330
AD9B
102
}
330
AD9B
100
AcDbXrecord
 90
        0
  0
XRECORD
  5
ADA6
102
{ACAD_REACTORS
330
AD9B
102
}
330
AD9B
100
AcDbXrecord
  1
{AFB28963-8C59-40AE-9337-C84526B81ACE}
  0
XRECORD
  5
ADA7
102
{ACAD_REACTORS
330
AD9B
102
}
330
AD9B
100
AcDbXrecord
  1
{9021D044-F5CA-4E70-816E-4A049F54E225}
  0
XRECORD
  5
ADA8
102
{ACAD_REACTORS
330
AD9B
102
}
330
AD9B
100
AcDbXrecord
 40
0.0
  0
XRECORD
  5
ADA9
102
{ACAD_REACTORS
330
AD9B
102
}
330
AD9B
100
AcDbXrecord
1000
DSTYLE
1002
{
1070
    79
 70
     2
1070
   341
340
59
1070
   342
340
59
1070
   371
 70
    -1
1070
   372
 70
    -1
1002
}
  0
XRECORD
  5
ADAA
102
{ACAD_REACTORS
330
AD9B
102
}
330
AD9B
100
AcDbXrecord
340
0
  0
XRECORD
  5
ADAB
102
{ACAD_REACTORS
330
AD9B
102
}
330
AD9B
100
AcDbXrecord
 70
     0
  0
XRECORD
  5
ADAC
102
{ACAD_REACTORS
330
AD9B
102
}
330
AD9B
100
AcDbXrecord
340
0
  0
XRECORD
  5
ADAD
102
{ACAD_REACTORS
330
AD9B
102
}
330
AD9B
100
AcDbXrecord
 10
0.0
 20
0.0
 30
0.0
  0
XRECORD
  5
ADAE
102
{ACAD_REACTORS
330
AD9B
102
}
330
AD9B
100
AcDbXrecord
 10
0.0
 20
0.0
 30
0.0
  0
XRECORD
  5
ADAF
102
{ACAD_REACTORS
330
AD9B
102
}
330
AD9B
100
AcDbXrecord
 10
0.0
 20
0.0
 30
0.0
  0
XRECORD
  5
ADB0
102
{ACAD_REACTORS
330
AD9B
102
}
330
AD9B
100
AcDbXrecord
 10
0.0
 20
0.0
 30
0.0
  0
XRECORD
  5
ADB1
102
{ACAD_REACTORS
330
AD9B
102
}
330
AD9B
100
AcDbXrecord
 10
0.0
 20
0.0
 30
0.0
  0
XRECORD
  5
ADB2
102
{ACAD_REACTORS
330
AD9B
102
}
330
AD9B
100
AcDbXrecord
 10
0.0
 20
0.0
 30
0.0
  0
XRECORD
  5
ADB3
102
{ACAD_REACTORS
330
AD9B
102
}
330
AD9B
100
AcDbXrecord
340
0
  0
XRECORD
  5
ADB4
102
{ACAD_REACTORS
330
AD9B
102
}
330
AD9B
100
AcDbXrecord
 70
     0
  0
XRECORD
  5
ADB5
102
{ACAD_REACTORS
330
AD9B
102
}
330
AD9B
100
AcDbXrecord
340
0
  0
XRECORD
  5
ADB6
102
{ACAD_REACTORS
330
AD9B
102
}
330
AD9B
100
AcDbXrecord
 10
0.0
 20
0.0
 30
0.0
  0
XRECORD
  5
ADB7
102
{ACAD_REACTORS
330
AD9B
102
}
330
AD9B
100
AcDbXrecord
 10
0.0
 20
0.0
 30
0.0
  0
XRECORD
  5
ADB8
102
{ACAD_REACTORS
330
AD9B
102
}
330
AD9B
100
AcDbXrecord
 10
0.0
 20
0.0
 30
0.0
  0
XRECORD
  5
ADB9
102
{ACAD_REACTORS
330
AD9B
102
}
330
AD9B
100
AcDbXrecord
 10
0.0
 20
0.0
 30
0.0
  0
XRECORD
  5
ADBA
102
{ACAD_REACTORS
330
AD9B
102
}
330
AD9B
100
AcDbXrecord
 10
0.0
 20
0.0
 30
0.0
  0
XRECORD
  5
ADBB
102
{ACAD_REACTORS
330
AD9B
102
}
330
AD9B
100
AcDbXrecord
 10
0.0
 20
0.0
 30
0.0
  0
LAYER_INDEX
  5
AD92
102
{ACAD_REACTORS
330
AD91
102
}
330
AD91
100
AcDbIndex
 40
2453152.363560521
100
AcDbLayerIndex
  8
0
360
AD93
 90
        0
  8
AM_11
360
AD94
 90
        5
  8
AM_7
360
AD95
 90
        1
  8
AM_5
360
AD96
 90
        9
  8
Defpoints
360
AD97
 90
        0
  8
AM_6
360
AD98
 90
        1
  8
AM_0
360
AD99
 90
       69
  0
XRECORD
  5
2D
102
{ACAD_REACTORS
330
2C
102
}
330
2C
100
AcDbXrecord
  1
VERSION
140
15.0
  1
PRODUCT
  2
AutoCAD Mechanical 2000
  0
IDBUFFER
  5
AD93
330
0
100
AcDbIdBuffer
  0
IDBUFFER
  5
AD94
330
0
100
AcDbIdBuffer
330
A1EA
330
A6EF
330
A70A
330
A70F
330
A719
  0
IDBUFFER
  5
AD95
330
0
100
AcDbIdBuffer
330
A1D6
  0
IDBUFFER
  5
AD96
330
0
100
AcDbIdBuffer
330
A71E
330
A71F
330
A720
330
A721
330
A722
330
A723
330
A724
330
AB4C
330
AB4D
  0
IDBUFFER
  5
AD97
330
0
100
AcDbIdBuffer
  0
IDBUFFER
  5
AD98
330
0
100
AcDbIdBuffer
330
E5A
  0
IDBUFFER
  5
AD99
330
0
100
AcDbIdBuffer
330
A6ED
330
A6EE
330
A6F0
330
A6F1
330
A6F2
330
A6F3
330
A6F5
330
A6F6
330
A6F7
330
A6F8
330
A6F9
330
A6FA
330
A6FB
330
A6FC
330
A6FD
330
A6FE
330
A6FF
330
A700
330
A701
330
A702
330
A703
330
A1CF
330
A1D0
330
A1D1
330
A1D2
330
A1D3
330
A1D4
330
A1D5
330
A1D7
330
A1D8
330
A1D9
330
A1DA
330
A1DB
330
A1DC
330
A1DD
330
A1DE
330
A1E0
330
A1E1
330
A1E2
330
A1E3
330
A1E4
330
A1E5
330
A1E6
330
A1E7
330
A1E8
330
A1E9
330
A1EB
330
A1EC
330
A1ED
330
A1EE
330
A1EF
330
A1F0
330
A1F1
330
A1F2
330
A1F3
330
A1F4
330
A1F5
330
A1F6
330
A1F8
330
A1F9
330
A1FA
330
A1FB
330
A1FC
330
A1FD
330
A1FE
330
A6E9
330
A6EA
330
A6EB
330
A6EC
  0
ENDSEC
  0
EOF
