  0
SECTION
  2
HEADER
  9
$ACADVER
  1
AC1014
  9
$ACADMAINTVER
 70
     9
  9
$DWGCODEPAGE
  3
ANSI_932
  9
$INSBASE
 10
0.0
 20
0.0
 30
0.0
  9
$EXTMIN
 10
-91.63105540079227
 20
-106.5000009999999
 30
0.0
  9
$EXTMAX
 10
26.43101752464845
 20
50.0
 30
0.0
  9
$LIMMIN
 10
-96.70719584798371
 20
-123.2454044874225
  9
$LIMMAX
 10
142.7182932985324
 20
77.40325495413481
  9
$ORTHOMODE
 70
     0
  9
$REGENMODE
 70
     1
  9
$FILLMODE
 70
     1
  9
$QTEXTMODE
 70
     0
  9
$MIRRTEXT
 70
     0
  9
$DRAGMODE
 70
     2
  9
$LTSCALE
 40
1.0
  9
$OSMODE
 70
    55
  9
$ATTMODE
 70
     1
  9
$TEXTSIZE
 40
2.5
  9
$TRACEWID
 40
1.0
  9
$TEXTSTYLE
  7
STANDARD
  9
$CLAYER
  8
AM_5
  9
$CELTYPE
  6
BYLAYER
  9
$CECOLOR
 62
   256
  9
$CELTSCALE
 40
1.0
  9
$DELOBJ
 70
     1
  9
$DISPSILH
 70
     0
  9
$DIMSCALE
 40
1.0
  9
$DIMASZ
 40
2.5
  9
$DIMEXO
 40
1.0
  9
$DIMDLI
 40
12.0
  9
$DIMRND
 40
0.0
  9
$DIMDLE
 40
0.0
  9
$DIMEXE
 40
1.0
  9
$DIMTP
 40
0.1
  9
$DIMTM
 40
0.1
  9
$DIMTXT
 40
3.2
  9
$DIMCEN
 40
0.0
  9
$DIMTSZ
 40
0.0
  9
$DIMTOL
 70
     0
  9
$DIMLIM
 70
     0
  9
$DIMTIH
 70
     0
  9
$DIMTOH
 70
     0
  9
$DIMSE1
 70
     0
  9
$DIMSE2
 70
     0
  9
$DIMTAD
 70
     3
  9
$DIMZIN
 70
     8
  9
$DIMBLK
  1
OPEN30
  9
$DIMASO
 70
     1
  9
$DIMSHO
 70
     1
  9
$DIMPOST
  1

  9
$DIMAPOST
  1
"
  9
$DIMALT
 70
     0
  9
$DIMALTD
 70
     2
  9
$DIMALTF
 40
0.0393701
  9
$DIMLFAC
 40
1.0
  9
$DIMTOFL
 70
     1
  9
$DIMTVP
 40
0.0
  9
$DIMTIX
 70
     0
  9
$DIMSOXD
 70
     0
  9
$DIMSAH
 70
     0
  9
$DIMBLK1
  1

  9
$DIMBLK2
  1

  9
$DIMSTYLE
  2
AM_JIS
  9
$DIMCLRD
 70
   256
  9
$DIMCLRE
 70
   256
  9
$DIMCLRT
 70
     2
  9
$DIMTFAC
 40
0.71
  9
$DIMGAP
 40
1.5
  9
$DIMJUST
 70
     0
  9
$DIMSD1
 70
     0
  9
$DIMSD2
 70
     0
  9
$DIMTOLJ
 70
     0
  9
$DIMTZIN
 70
     0
  9
$DIMALTZ
 70
     0
  9
$DIMALTTZ
 70
     0
  9
$DIMFIT
 70
     3
  9
$DIMUPT
 70
     0
  9
$DIMUNIT
 70
     2
  9
$DIMDEC
 70
     3
  9
$DIMTDEC
 70
     3
  9
$DIMALTU
 70
     2
  9
$DIMALTTD
 70
     2
  9
$DIMTXSTY
  7
ASAMI
  9
$DIMAUNIT
 70
     0
  9
$LUNITS
 70
     2
  9
$LUPREC
 70
     2
  9
$SKETCHINC
 40
1.0
  9
$FILLETRAD
 40
2.5
  9
$AUNITS
 70
     0
  9
$AUPREC
 70
     0
  9
$MENU
  1
.
  9
$ELEVATION
 40
0.0
  9
$PELEVATION
 40
0.0
  9
$THICKNESS
 40
0.0
  9
$LIMCHECK
 70
     0
  9
$BLIPMODE
 70
     0
  9
$CHAMFERA
 40
0.5
  9
$CHAMFERB
 40
0.5
  9
$CHAMFERC
 40
20.0
  9
$CHAMFERD
 40
0.0
  9
$SKPOLY
 70
     0
  9
$TDCREATE
 40
2452836.771637361
  9
$TDUPDATE
 40
2453152.362904942
  9
$TDINDWG
 40
0.3768397685
  9
$TDUSRTIMER
 40
0.3768397685
  9
$USRTIMER
 70
     1
  9
$ANGBASE
 50
0.0
  9
$ANGDIR
 70
     0
  9
$PDMODE
 70
     0
  9
$PDSIZE
 40
0.0
  9
$PLINEWID
 40
0.0
  9
$COORDS
 70
     1
  9
$SPLFRAME
 70
     0
  9
$SPLINETYPE
 70
     6
  9
$SPLINESEGS
 70
     8
  9
$ATTDIA
 70
     1
  9
$ATTREQ
 70
     1
  9
$HANDLING
 70
 12289
  9
$HANDSEED
  5
7D7E
  9
$SURFTAB1
 70
     6
  9
$SURFTAB2
 70
     6
  9
$SURFTYPE
 70
     6
  9
$SURFU
 70
     6
  9
$SURFV
 70
     6
  9
$UCSNAME
  2

  9
$UCSORG
 10
0.0
 20
0.0
 30
0.0
  9
$UCSXDIR
 10
1.0
 20
0.0
 30
0.0
  9
$UCSYDIR
 10
0.0
 20
1.0
 30
0.0
  9
$PUCSNAME
  2

  9
$PUCSORG
 10
0.0
 20
0.0
 30
0.0
  9
$PUCSXDIR
 10
1.0
 20
0.0
 30
0.0
  9
$PUCSYDIR
 10
0.0
 20
1.0
 30
0.0
  9
$USERI1
 70
     0
  9
$USERI2
 70
     0
  9
$USERI3
 70
     0
  9
$USERI4
 70
     0
  9
$USERI5
 70
     0
  9
$USERR1
 40
0.0
  9
$USERR2
 40
0.0
  9
$USERR3
 40
0.0
  9
$USERR4
 40
0.0
  9
$USERR5
 40
0.0
  9
$WORLDVIEW
 70
     1
  9
$SHADEDGE
 70
     3
  9
$SHADEDIF
 70
    70
  9
$TILEMODE
 70
     1
  9
$MAXACTVP
 70
    64
  9
$PINSBASE
 10
0.0
 20
0.0
 30
0.0
  9
$PLIMCHECK
 70
     0
  9
$PEXTMIN
 10
1.000000000000000E+20
 20
1.000000000000000E+20
 30
1.000000000000000E+20
  9
$PEXTMAX
 10
-1.000000000000000E+20
 20
-1.000000000000000E+20
 30
-1.000000000000000E+20
  9
$PLIMMIN
 10
0.0
 20
0.0
  9
$PLIMMAX
 10
841.0
 20
594.0
  9
$UNITMODE
 70
     0
  9
$VISRETAIN
 70
     1
  9
$PLINEGEN
 70
     0
  9
$PSLTSCALE
 70
     0
  9
$TREEDEPTH
 70
  3020
  9
$PICKSTYLE
 70
     0
  9
$CMLSTYLE
  2
STANDARD
  9
$CMLJUST
 70
     0
  9
$CMLSCALE
 40
20.0
  9
$PROXYGRAPHICS
 70
     1
  9
$MEASUREMENT
 70
     1
  0
ENDSEC
  0
SECTION
  2
CLASSES
  0
CLASS
  1
ACDBDICTIONARYWDFLT
  2
AcDbDictionaryWithDefault
  3
AutoCAD 2000
 90
        0
280
     0
281
     0
  0
CLASS
  1
ACDBPLACEHOLDER
  2
AcDbPlaceHolder
  3
AutoCAD 2000
 90
        0
280
     0
281
     0
  0
CLASS
  1
LAYOUT
  2
AcDbLayout
  3
AutoCAD 2000
 90
        0
280
     0
281
     0
  0
CLASS
  1
AMGSETTINGSOBJ
  2
AmgSettingsObj
  3
"AcadM|Product Description: AutoCAD Mechanical 2000|Company: Autodesk"
 90
        0
280
     0
281
     0
  0
CLASS
  1
ACME_DOCUMENT
  2
AcMeDbDoc
  3
AcMeServices
 90
        0
280
     0
281
     0
  0
CLASS
  1
ACMESCOPE
  2
AcMeScope
  3
AcMeServices
 90
        0
280
     0
281
     0
  0
CLASS
  1
ACMECOMMANDHISTORY
  2
AcMeCommandHistory
  3
AcMeServices
 90
        0
280
     0
281
     0
  0
CLASS
  1
DICTIONARYVAR
  2
AcDbDictionaryVar
  3
AutoCAD 2000
 90
        0
280
     0
281
     0
  0
CLASS
  1
ACIMSYSVARMAN
  2
AcImSysVarManager
  3
AcMeServices
 90
        0
280
     0
281
     0
  0
CLASS
  1
ACIMREALSYSVAR
  2
AcImRealSysVar
  3
AcMeServices
 90
        0
280
     0
281
     0
  0
CLASS
  1
ACIMINTSYSVAR
  2
AcImIntSysVar
  3
AcMeServices
 90
        0
280
     0
281
     0
  0
CLASS
  1
ACMEDRAWINGMAN
  2
AcMeDrawingMan
  3
AcMeServices
 90
        0
280
     0
281
     0
  0
CLASS
  1
ACMEVIEW
  2
AcMeView
  3
AcMeServices
 90
        0
280
     0
281
     0
  0
CLASS
  1
ACDBENTITYCACHE
  2
AcMeEntityCache
  3
AcMeServices
 90
        0
280
     0
281
     0
  0
CLASS
  1
GSMANAGER
  2
AcMeGSManager
  3
AcMeServices
 90
        0
280
     0
281
     0
  0
CLASS
  1
AmdtInternalReactor
  2
AmdtInternalReactor
  3
AcMeServices
 90
        0
280
     0
281
     0
  0
CLASS
  1
ACMESTATEMGR
  2
AcMeStateMgr
  3
AcMeServices
 90
        0
280
     0
281
     0
  0
CLASS
  1
ACME_DATABASE
  2
AcMeDbDatabase
  3
AcMeServices
 90
        0
280
     0
281
     0
  0
CLASS
  1
ACRFINSADJUSTERMGR
  2
AcRfInsAdjusterMgr
  3
AcMeServices
 90
        0
280
     0
281
     0
  0
CLASS
  1
ACMDATADICTIONARY
  2
AcmDataDictionary
  3
"AcmSymBB|Product Description: AutoCAD Mechanical 2000|Company: Autodesk"
 90
        0
280
     0
281
     0
  0
CLASS
  1
ACMDATAENTRYBLOCK
  2
AcmDataEntryBlock
  3
"AcmSymBB|Product Description: AutoCAD Mechanical 2000|Company: Autodesk"
 90
        0
280
     0
281
     0
  0
CLASS
  1
AMGOBJPROPCFG
  2
AmgObjPropCfg
  3
"AmgLay|Product Description: AutoCAD Mechanical 2000|Company: Autodesk"
 90
        1
280
     0
281
     0
  0
CLASS
  1
ACAMGFILTERDAT
  2
AcAmgFilterDat
  3
"AcadM|Product Description: AutoCAD Mechanical 2000|Company: Autodesk"
 90
        0
280
     0
281
     0
  0
CLASS
  1
LAYER_INDEX
  2
AcDbLayerIndex
  3
AutoCAD 2000
 90
        0
280
     0
281
     0
  0
CLASS
  1
IDBUFFER
  2
AcDbIdBuffer
  3
AutoCAD 2000
 90
        0
280
     0
281
     0
  0
CLASS
  1
ACIMSTRSYSVAR
  2
AcImStrSysVar
  3
AcMeServices
 90
        0
280
     0
281
     0
  0
CLASS
  1
ACMSTANDARDJIS
  2
AcmStandardJIS
  3
"AcmSymBB|Product Description: AutoCAD Mechanical 2000|Company: Autodesk"
 90
        0
280
     0
281
     0
  0
CLASS
  1
ACMSURFSTANDARDJIS
  2
AcmSurfTextStdJIS
  3
"AcmSymBB|Product Description: AutoCAD Mechanical 2000|Company: Autodesk"
 90
        0
280
     0
281
     0
  0
CLASS
  1
ACMFCFSTANDARDJIS
  2
AcmFCFStdJIS
  3
"AcmSymBB|Product Description: AutoCAD Mechanical 2000|Company: Autodesk"
 90
        0
280
     0
281
     0
  0
CLASS
  1
ACMWELDSTANDARDJIS
  2
AcmWeldingStdJIS
  3
"AcmSymBB|Product Description: AutoCAD Mechanical 2000|Company: Autodesk"
 90
        0
280
     0
281
     0
  0
CLASS
  1
ACMIDSTANDARDJIS
  2
AcmIdStdJIS
  3
"AcmSymBB|Product Description: AutoCAD Mechanical 2000|Company: Autodesk"
 90
        0
280
     0
281
     0
  0
CLASS
  1
ACMDATUMSTANDARDJIS
  2
AcmDatumStdJIS
  3
"AcmSymBB|Product Description: AutoCAD Mechanical 2000|Company: Autodesk"
 90
        0
280
     0
281
     0
  0
CLASS
  1
ACMBOMSTANDARDJIS
  2
AcmBOMStdJIS
  3
"AcmSymBB|Product Description: AutoCAD Mechanical 2000|Company: Autodesk"
 90
        0
280
     0
281
     0
  0
CLASS
  1
ACMSTANDARDANSI
  2
AcmStandardANSI
  3
"AcmSymBB|Product Description: AutoCAD Mechanical 2000|Company: Autodesk"
 90
        0
280
     0
281
     0
  0
CLASS
  1
ACMSURFSTANDARDANSI
  2
AcmSurfTextStdANSI
  3
"AcmSymBB|Product Description: AutoCAD Mechanical 2000|Company: Autodesk"
 90
        0
280
     0
281
     0
  0
CLASS
  1
ACMFCFSTANDARDANSI
  2
AcmFCFStdANSI
  3
"AcmSymBB|Product Description: AutoCAD Mechanical 2000|Company: Autodesk"
 90
        0
280
     0
281
     0
  0
CLASS
  1
ACMWELDSTANDARDANSI
  2
AcmWeldingStdANSI
  3
"AcmSymBB|Product Description: AutoCAD Mechanical 2000|Company: Autodesk"
 90
        0
280
     0
281
     0
  0
CLASS
  1
ACMIDSTANDARDANSI
  2
AcmIdStdANSI
  3
"AcmSymBB|Product Description: AutoCAD Mechanical 2000|Company: Autodesk"
 90
        0
280
     0
281
     0
  0
CLASS
  1
ACMDATUMSTANDARDANSI
  2
AcmDatumStdANSI
  3
"AcmSymBB|Product Description: AutoCAD Mechanical 2000|Company: Autodesk"
 90
        0
280
     0
281
     0
  0
CLASS
  1
ACMBOMSTANDARDANSI
  2
AcmBOMStdANSI
  3
"AcmSymBB|Product Description: AutoCAD Mechanical 2000|Company: Autodesk"
 90
        0
280
     0
281
     0
  0
CLASS
  1
ACMSTANDARDBSI
  2
AcmStandardBSI
  3
"AcmSymBB|Product Description: AutoCAD Mechanical 2000|Company: Autodesk"
 90
        0
280
     0
281
     0
  0
CLASS
  1
ACMSURFSTANDARDBSI
  2
AcmSurfTextStdBSI
  3
"AcmSymBB|Product Description: AutoCAD Mechanical 2000|Company: Autodesk"
 90
        0
280
     0
281
     0
  0
CLASS
  1
ACMFCFSTANDARDBSI
  2
AcmFCFStdBSI
  3
"AcmSymBB|Product Description: AutoCAD Mechanical 2000|Company: Autodesk"
 90
        0
280
     0
281
     0
  0
CLASS
  1
ACMWELDSTANDARDBSI
  2
AcmWeldingStdBSI
  3
"AcmSymBB|Product Description: AutoCAD Mechanical 2000|Company: Autodesk"
 90
        0
280
     0
281
     0
  0
CLASS
  1
ACMIDSTANDARDBSI
  2
AcmIdStdBSI
  3
"AcmSymBB|Product Description: AutoCAD Mechanical 2000|Company: Autodesk"
 90
        0
280
     0
281
     0
  0
CLASS
  1
ACMDATUMSTANDARDBSI
  2
AcmDatumStdBSI
  3
"AcmSymBB|Product Description: AutoCAD Mechanical 2000|Company: Autodesk"
 90
        0
280
     0
281
     0
  0
CLASS
  1
ACMBOMSTANDARDBSI
  2
AcmBOMStdBSI
  3
"AcmSymBB|Product Description: AutoCAD Mechanical 2000|Company: Autodesk"
 90
        0
280
     0
281
     0
  0
CLASS
  1
LONG_TRANSACTION
  2
AcDbLongTransaction
  3
AutoCAD 2000
 90
        0
280
     0
281
     0
  0
CLASS
  1
LWPOLYLINE
  2
AcDbPolyline
  3
AutoCAD 2000
 90
        0
280
     0
281
     1
  0
CLASS
  1
HATCH
  2
AcDbHatch
  3
AutoCAD 2000
 90
        0
280
     0
281
     1
  0
CLASS
  1
XRECORD
  2
AcDbXrecord
  3
AutoCAD 2000
 90
        0
280
     0
281
     0
  0
ENDSEC
  0
SECTION
  2
TABLES
  0
TABLE
  2
VPORT
  5
8
330
0
100
AcDbSymbolTable
 70
     3
  0
VPORT
  5
7D09
330
8
100
AcDbSymbolTableRecord
100
AcDbViewportTableRecord
  2
*ACTIVE
 70
     0
 10
0.0
 20
0.0
 11
1.0
 21
1.0
 12
-20.17909609001682
 22
-28.27136114940865
 13
0.0
 23
0.0
 14
2.5
 24
2.5
 15
10.0
 25
10.0
 16
0.0
 26
0.0
 36
1.0
 17
0.0
 27
0.0
 37
0.0
 40
162.6415639050311
 41
1.56570841889117
 42
50.0
 43
0.0
 44
0.0
 50
0.0
 51
0.0
 71
     0
 72
   100
 73
     1
 74
     3
 75
     0
 76
     0
 77
     0
 78
     0
  0
ENDTAB
  0
TABLE
  2
LTYPE
  5
5
330
0
100
AcDbSymbolTable
 70
    10
  0
LTYPE
  5
14
330
5
100
AcDbSymbolTableRecord
100
AcDbLinetypeTableRecord
  2
BYBLOCK
 70
     0
  3

 72
    65
 73
     0
 40
0.0
  0
LTYPE
  5
15
330
5
100
AcDbSymbolTableRecord
100
AcDbLinetypeTableRecord
  2
BYLAYER
 70
     0
  3

 72
    65
 73
     0
 40
0.0
  0
LTYPE
  5
16
330
5
100
AcDbSymbolTableRecord
100
AcDbLinetypeTableRecord
  2
CONTINUOUS
 70
     0
  3
Solid line
 72
    65
 73
     0
 40
0.0
  0
LTYPE
  5
4B
330
5
100
AcDbSymbolTableRecord
100
AcDbLinetypeTableRecord
  2
AM_ISO02W050
 70
     0
  3
__ __ __ __ __ __ __ __ __ __ __ __ __ __ __
 72
    65
 73
     2
 40
7.5
 49
6.0
 74
     0
 49
-1.5
 74
     0
  0
LTYPE
  5
4C
330
5
100
AcDbSymbolTableRecord
100
AcDbLinetypeTableRecord
  2
AM_ISO08W050
 70
     0
  3
____ . ____ . ____ . ____ . ____ . ____ . ____
 72
    65
 73
     4
 40
18.0
 49
12.0
 74
     0
 49
-1.5
 74
     0
 49
3.0
 74
     0
 49
-1.5
 74
     0
  0
LTYPE
  5
4D
330
5
100
AcDbSymbolTableRecord
100
AcDbLinetypeTableRecord
  2
AM_ISO09W050
 70
     0
  3
_____ . . _____ . . _____ . . ____ .. ____
 72
    65
 73
     6
 40
22.5
 49
12.0
 74
     0
 49
-1.5
 74
     0
 49
3.0
 74
     0
 49
-1.5
 74
     0
 49
3.0
 74
     0
 49
-1.5
 74
     0
  0
LTYPE
  5
4E
330
5
100
AcDbSymbolTableRecord
100
AcDbLinetypeTableRecord
  2
AMCONSTR
 70
     0
  3
_______________________
 72
    65
 73
     2
 40
9999.0
 49
9999.0
 74
     0
 49
0.0
 74
     0
  0
LTYPE
  5
4F
330
5
100
AcDbSymbolTableRecord
100
AcDbLinetypeTableRecord
  2
AM_ISO02W050X2
 70
     0
  3
 _ _ _ _ _ _ _ _ _ _ _ _
 72
    65
 73
     2
 40
3.75
 49
3.0
 74
     0
 49
-0.75
 74
     0
  0
LTYPE
  5
50
330
5
100
AcDbSymbolTableRecord
100
AcDbLinetypeTableRecord
  2
AM_ISO08W050X2
 70
     0
  3
__ . __ . __ . __ . __ . __
 72
    65
 73
     4
 40
9.0
 49
6.0
 74
     0
 49
-0.75
 74
     0
 49
1.5
 74
     0
 49
-0.75
 74
     0
  0
LTYPE
  5
53
330
5
100
AcDbSymbolTableRecord
100
AcDbLinetypeTableRecord
  2
AMZIGZAG
 70
     0
  3
/\/-/\/-/\/-/\/-/\/-/\/
 72
    65
 73
     2
 40
11.00009999999999
 49
0.0001
 74
     4
 75
   135
340
52
 46
0.04
 50
0.0
 44
0.0
 45
0.0
 49
-11.0
 74
     0
  0
LTYPE
  5
166
330
5
100
AcDbSymbolTableRecord
100
AcDbLinetypeTableRecord
  2
ACJISTGL
 70
     0
  3
_ _ _ _ _
 72
    65
 73
     2
 40
3.0
 49
2.0
 74
     0
 49
-1.0
 74
     0
  0
LTYPE
  5
26A
330
5
100
AcDbSymbolTableRecord
100
AcDbLinetypeTableRecord
  2
ACJISTGB
 70
     0
  3
__ . . __ . .
 72
    65
 73
     6
 40
9.0
 49
4.0
 74
     0
 49
-1.0
 74
     0
 49
1.0
 74
     0
 49
-1.0
 74
     0
 49
1.0
 74
     0
 49
-1.0
 74
     0
  0
ENDTAB
  0
TABLE
  2
LAYER
  5
2
330
0
100
AcDbSymbolTable
 70
     7
  0
LAYER
  5
10
330
2
100
AcDbSymbolTableRecord
100
AcDbLayerTableRecord
  2
0
 70
     0
 62
     7
  6
CONTINUOUS
  0
LAYER
  5
BD4
330
2
100
AcDbSymbolTableRecord
100
AcDbLayerTableRecord
  2
AM_11
 70
     0
 62
     3
  6
AM_ISO09W050
  0
LAYER
  5
BD5
330
2
100
AcDbSymbolTableRecord
100
AcDbLayerTableRecord
  2
AM_7
 70
     0
 62
     4
  6
AM_ISO08W050
  0
LAYER
  5
BD6
330
2
100
AcDbSymbolTableRecord
100
AcDbLayerTableRecord
  2
AM_5
 70
     0
 62
     3
  6
CONTINUOUS
  0
LAYER
  5
BD7
330
2
100
AcDbSymbolTableRecord
100
AcDbLayerTableRecord
  2
DEFPOINTS
 70
     0
 62
     7
  6
CONTINUOUS
  0
LAYER
  5
E59
330
2
100
AcDbSymbolTableRecord
100
AcDbLayerTableRecord
  2
AM_6
 70
     0
 62
     2
  6
CONTINUOUS
  0
LAYER
  5
4062
330
2
100
AcDbSymbolTableRecord
100
AcDbLayerTableRecord
  2
AM_0
 70
     0
 62
     7
  6
CONTINUOUS
  0
ENDTAB
  0
TABLE
  2
STYLE
  5
3
330
0
100
AcDbSymbolTable
 70
     5
  0
STYLE
  5
11
330
3
100
AcDbSymbolTableRecord
100
AcDbTextStyleTableRecord
  2
STANDARD
 70
     0
 40
0.0
 41
1.0
 50
0.0
 71
     0
 42
2.5
  3
simplex.shx
  4
EXTFONT.SHX
  0
STYLE
  5
52
330
3
100
AcDbSymbolTableRecord
100
AcDbTextStyleTableRecord
  2

 70
     1
 40
0.0
 41
1.0
 50
0.0
 71
     0
 42
2.5
  3
ltypeshp.shx
  4

  0
STYLE
  5
6B
330
3
100
AcDbSymbolTableRecord
100
AcDbTextStyleTableRecord
  2
ASAMI
 70
     0
 40
0.0
 41
1.0
 50
0.0
 71
     0
 42
2.5
  3
simplex.shx
  4
EXTFONT.SHX
  0
STYLE
  5
262
330
3
100
AcDbSymbolTableRecord
100
AcDbTextStyleTableRecord
  2
ACJISTS
 70
     0
 40
1.0
 41
1.0
 50
0.0
 71
     0
 42
2.5
  3
simplex.shx
  4
bigfont.shx
  0
STYLE
  5
269
330
3
100
AcDbSymbolTableRecord
100
AcDbTextStyleTableRecord
  2
ACJISGDT
 70
     0
 40
0.0
 41
1.0
 50
0.0
 71
     0
 42
2.5
  3
amgdtans.shx
  4

  0
ENDTAB
  0
TABLE
  2
VIEW
  5
6
330
0
100
AcDbSymbolTable
 70
     0
  0
ENDTAB
  0
TABLE
  2
UCS
  5
7
330
0
100
AcDbSymbolTable
 70
     0
  0
ENDTAB
  0
TABLE
  2
APPID
  5
9
330
0
100
AcDbSymbolTable
 70
    12
  0
APPID
  5
12
330
9
100
AcDbSymbolTableRecord
100
AcDbRegAppTableRecord
  2
ACAD
 70
     0
  0
APPID
  5
30
330
9
100
AcDbSymbolTableRecord
100
AcDbRegAppTableRecord
  2
MCAD_NO_VIS
 70
     0
  0
APPID
  5
31
330
9
100
AcDbSymbolTableRecord
100
AcDbRegAppTableRecord
  2
ACAD_TEMP_GRAPHIC
 70
     0
  0
APPID
  5
2C2
330
9
100
AcDbSymbolTableRecord
100
AcDbRegAppTableRecord
  2
GENIUS_GENDTOL_13
 70
     0
  0
APPID
  5
339
330
9
100
AcDbSymbolTableRecord
100
AcDbRegAppTableRecord
  2
GENIUS_GENODEF_13
 70
     0
  0
APPID
  5
33A
330
9
100
AcDbSymbolTableRecord
100
AcDbRegAppTableRecord
  2
GENIUS_GENOBJ-N-RSBK_13
 70
     0
  0
APPID
  5
33B
330
9
100
AcDbSymbolTableRecord
100
AcDbRegAppTableRecord
  2
GENIUS_GENOBJ-N-LIB_13
 70
     0
  0
APPID
  5
33C
330
9
100
AcDbSymbolTableRecord
100
AcDbRegAppTableRecord
  2
GENIUS_GENSCALE_13
 70
     0
  0
APPID
  5
378
330
9
100
AcDbSymbolTableRecord
100
AcDbRegAppTableRecord
  2
GENIUS_GENDIMSH_14
 70
     0
  0
APPID
  5
BD8
330
9
100
AcDbSymbolTableRecord
100
AcDbRegAppTableRecord
  2
GENIUS_GENOBJ-N-CEN_13
 70
     0
  0
APPID
  5
BD9
330
9
100
AcDbSymbolTableRecord
100
AcDbRegAppTableRecord
  2
GENIUS_GENFIL_13
 70
     0
  0
APPID
  5
BDA
330
9
100
AcDbSymbolTableRecord
100
AcDbRegAppTableRecord
  2
GENIUS_GENOBJ-N-CHA_13
 70
     0
  0
ENDTAB
  0
TABLE
  2
DIMSTYLE
  5
A
330
0
100
AcDbSymbolTable
 70
     9
  0
DIMSTYLE
105
58
330
A
100
AcDbSymbolTableRecord
100
AcDbDimStyleTableRecord
  2
AM_JIS
 70
     0
  3

  4
"
  5
OPEN30
  6

  7

 40
1.0
 41
2.5
 42
1.0
 43
12.0
 44
1.0
 45
0.0
 46
0.0
 47
0.1
 48
0.1
140
3.2
141
0.0
142
0.0
143
0.0393701
144
1.0
145
0.0
146
0.71
147
1.5
 71
     0
 72
     0
 73
     0
 74
     0
 75
     0
 76
     0
 77
     3
 78
     8
170
     0
171
     2
172
     1
173
     0
174
     0
175
     0
176
   256
177
   256
178
     2
270
     2
271
     3
272
     3
273
     2
274
     2
340
6B
275
     0
280
     0
281
     0
282
     0
283
     0
284
     0
285
     0
286
     0
287
     3
288
     0
  0
DIMSTYLE
105
5F
330
A
100
AcDbSymbolTableRecord
100
AcDbDimStyleTableRecord
  2
AM_JIS$3
 70
     0
  3

  4
"
  5
OPEN30
  6

  7

 40
1.0
 41
2.5
 42
1.0
 43
10.0
 44
1.0
 45
0.0
 46
0.0
 47
0.1
 48
0.1
140
3.2
141
0.0
142
0.0
143
0.0393701
144
1.0
145
0.0
146
0.71
147
1.5
 71
     0
 72
     0
 73
     0
 74
     1
 75
     0
 76
     0
 77
     3
 78
     8
170
     0
171
     2
172
     0
173
     0
174
     0
175
     0
176
   256
177
   256
178
     2
270
     2
271
     2
272
     3
273
     2
274
     2
340
6B
275
     0
280
     0
281
     0
282
     0
283
     0
284
     0
285
     0
286
     0
287
     0
288
     1
  0
DIMSTYLE
105
60
330
A
100
AcDbSymbolTableRecord
100
AcDbDimStyleTableRecord
  2
AM_JIS$4
 70
     0
  3

  4
"
  5
OPEN30
  6

  7

 40
1.0
 41
2.5
 42
1.0
 43
10.0
 44
1.0
 45
0.0
 46
0.0
 47
0.1
 48
0.1
140
3.2
141
0.0
142
0.0
143
0.0393701
144
1.0
145
0.0
146
0.71
147
1.5
 71
     0
 72
     0
 73
     0
 74
     1
 75
     0
 76
     0
 77
     3
 78
     8
170
     0
171
     2
172
     0
173
     0
174
     0
175
     0
176
   256
177
   256
178
     2
270
     2
271
     2
272
     3
273
     2
274
     2
340
6B
275
     0
280
     0
281
     0
282
     0
283
     0
284
     0
285
     0
286
     0
287
     0
288
     1
  0
DIMSTYLE
105
61
330
A
100
AcDbSymbolTableRecord
100
AcDbDimStyleTableRecord
  2
AM_JIS$6
 70
     0
  3

  4
"
  5
OPEN30
  6

  7

 40
1.0
 41
2.5
 42
1.0
 43
10.0
 44
1.0
 45
0.0
 46
0.0
 47
0.1
 48
0.1
140
3.2
141
0.0
142
0.0
143
0.0393701
144
1.0
145
0.0
146
0.71
147
1.5
 71
     0
 72
     0
 73
     0
 74
     0
 75
     0
 76
     0
 77
     0
 78
     8
170
     0
171
     2
172
     1
173
     0
174
     0
175
     0
176
   256
177
   256
178
     2
270
     2
271
     2
272
     2
273
     2
274
     2
340
6B
275
     0
280
     0
281
     0
282
     0
283
     0
284
     0
285
     0
286
     0
287
     3
288
     0
  0
DIMSTYLE
105
62
330
A
100
AcDbSymbolTableRecord
100
AcDbDimStyleTableRecord
  2
AM_JIS$7
 70
     0
  3

  4
"
  5
OPEN30
  6

  7

 40
1.0
 41
2.5
 42
1.0
 43
10.0
 44
1.0
 45
0.0
 46
0.0
 47
0.1
 48
0.1
140
3.2
141
0.0
142
0.0
143
0.0393701
144
1.0
145
0.0
146
0.71
147
1.5
 71
     0
 72
     0
 73
     0
 74
     0
 75
     0
 76
     0
 77
     3
 78
     8
170
     0
171
     2
172
     1
173
     0
174
     0
175
     0
176
   256
177
   256
178
     2
270
     2
271
     2
272
     3
273
     2
274
     2
340
6B
275
     0
280
     0
281
     0
282
     0
283
     0
284
     0
285
     0
286
     0
287
     3
288
     0
  0
DIMSTYLE
105
63
330
A
100
AcDbSymbolTableRecord
100
AcDbDimStyleTableRecord
  2
AM_JIS$SF
 70
     0
  3

  4
"
  5
OPEN30
  6

  7

 40
1.0
 41
2.5
 42
1.0
 43
10.0
 44
1.0
 45
0.0
 46
0.0
 47
0.1
 48
0.1
140
3.2
141
0.0
142
0.0
143
0.0393701
144
1.0
145
0.0
146
0.71
147
1.5
 71
     0
 72
     0
 73
     0
 74
     0
 75
     1
 76
     1
 77
     3
 78
     8
170
     0
171
     2
172
     1
173
     0
174
     0
175
     0
176
   256
177
   256
178
     2
270
     2
271
     2
272
     2
273
     2
274
     2
340
6B
275
     0
280
     0
281
     0
282
     0
283
     0
284
     0
285
     0
286
     0
287
     3
288
     0
  0
DIMSTYLE
105
68
330
A
100
AcDbSymbolTableRecord
100
AcDbDimStyleTableRecord
  2
AM_JIS$SH
 70
     0
  3

  4
"
  5

  6
GENAXEH
  7
OPEN30
 40
1.0
 41
2.5
 42
1.0
 43
10.0
 44
1.0
 45
0.0
 46
0.0
 47
0.1
 48
0.1
140
3.2
141
0.0
142
0.0
143
0.0393701
144
2.0
145
0.0
146
0.71
147
1.5
 71
     0
 72
     0
 73
     0
 74
     0
 75
     1
 76
     1
 77
     3
 78
     8
170
     0
171
     2
172
     1
173
     1
174
     0
175
     0
176
   256
177
   256
178
     2
270
     2
271
     2
272
     2
273
     2
274
     2
340
6B
275
     0
280
     0
281
     0
282
     0
283
     0
284
     0
285
     0
286
     0
287
     3
288
     0
  0
DIMSTYLE
105
B34
330
A
100
AcDbSymbolTableRecord
100
AcDbDimStyleTableRecord
  2
AM_JIS$2
 70
     0
  3

  4
"
  5
OPEN30
  6

  7

 40
1.0
 41
2.5
 42
1.0
 43
12.0
 44
1.0
 45
0.0
 46
0.0
 47
0.1
 48
0.1
140
3.2
141
0.0
142
0.0
143
0.0393701
144
1.0
145
0.0
146
0.71
147
1.5
 71
     0
 72
     0
 73
     0
 74
     0
 75
     0
 76
     0
 77
     3
 78
     8
170
     0
171
     2
172
     1
173
     0
174
     0
175
     0
176
   256
177
   256
178
     2
270
     2
271
     3
272
     3
273
     2
274
     2
340
6B
275
     0
280
     0
281
     0
282
     0
283
     0
284
     0
285
     0
286
     0
287
     3
288
     0
  0
DIMSTYLE
105
1AB6
102
{ACAD_REACTORS
330
74B6
330
74B9
330
74BA
330
74B7
330
7957
330
7A79
330
7A7A
330
7BB7
102
}
330
A
100
AcDbSymbolTableRecord
100
AcDbDimStyleTableRecord
  2
AM_JIS$0
 70
     0
  3

  4
"
  5
OPEN30
  6

  7

 40
1.0
 41
2.5
 42
0.0
 43
10.0
 44
1.0
 45
0.0
 46
0.0
 47
0.1
 48
0.1000000001
140
3.799999999999999
141
0.0
142
0.0
143
0.0393701
144
1.0
145
0.0
146
0.71
147
1.5
 71
     0
 72
     0
 73
     0
 74
     0
 75
     0
 76
     0
 77
     3
 78
     1
170
     0
171
     2
172
     1
173
     0
174
     0
175
     0
176
     3
177
     3
178
     2
270
     2
271
     2
272
     2
273
     2
274
     2
340
11
275
     1
280
     0
281
     0
282
     0
283
     0
284
     8
285
     0
286
     0
287
     0
288
     0
  0
ENDTAB
  0
TABLE
  2
BLOCK_RECORD
  5
1
330
0
100
AcDbSymbolTable
 70
    13
  0
BLOCK_RECORD
  5
1F
102
{ACAD_XDICTIONARY
360
74
102
}
330
1
100
AcDbSymbolTableRecord
100
AcDbBlockTableRecord
  2
*MODEL_SPACE
  0
BLOCK_RECORD
  5
101
102
{ACAD_XDICTIONARY
360
7D32
102
}
330
1
100
AcDbSymbolTableRecord
100
AcDbBlockTableRecord
  2
*PAPER_SPACE
  0
BLOCK_RECORD
  5
59
330
1
100
AcDbSymbolTableRecord
100
AcDbBlockTableRecord
  2
_OPEN30
  0
BLOCK_RECORD
  5
64
330
1
100
AcDbSymbolTableRecord
100
AcDbBlockTableRecord
  2
GENAXEH
  0
BLOCK_RECORD
  5
74BC
330
1
100
AcDbSymbolTableRecord
100
AcDbBlockTableRecord
  2
*D5
  0
BLOCK_RECORD
  5
74D4
330
1
100
AcDbSymbolTableRecord
100
AcDbBlockTableRecord
  2
*D6
  0
BLOCK_RECORD
  5
74FA
330
1
100
AcDbSymbolTableRecord
100
AcDbBlockTableRecord
  2
*D7
  0
BLOCK_RECORD
  5
7506
330
1
100
AcDbSymbolTableRecord
100
AcDbBlockTableRecord
  2
*D8
  0
BLOCK_RECORD
  5
7958
330
1
100
AcDbSymbolTableRecord
100
AcDbBlockTableRecord
  2
*D9
  0
BLOCK_RECORD
  5
7A7B
330
1
100
AcDbSymbolTableRecord
100
AcDbBlockTableRecord
  2
*D10
  0
BLOCK_RECORD
  5
7A87
330
1
100
AcDbSymbolTableRecord
100
AcDbBlockTableRecord
  2
*D11
  0
BLOCK_RECORD
  5
7BB8
330
1
100
AcDbSymbolTableRecord
100
AcDbBlockTableRecord
  2
*D12
  0
ENDTAB
  0
ENDSEC
  0
SECTION
  2
BLOCKS
  0
BLOCK
  5
20
330
1F
100
AcDbEntity
  8
0
100
AcDbBlockBegin
  2
*MODEL_SPACE
 70
     0
 10
0.0
 20
0.0
 30
0.0
  3
*MODEL_SPACE
  1

  0
ENDBLK
  5
21
330
1F
100
AcDbEntity
  8
0
100
AcDbBlockEnd
  0
BLOCK
  5
103
330
101
100
AcDbEntity
 67
     1
  8
0
100
AcDbBlockBegin
  2
*PAPER_SPACE
 70
     0
 10
0.0
 20
0.0
 30
0.0
  3
*PAPER_SPACE
  1

  0
ENDBLK
  5
104
330
101
100
AcDbEntity
 67
     1
  8
0
100
AcDbBlockEnd
  0
BLOCK
  5
5D
330
59
100
AcDbEntity
  8
0
100
AcDbBlockBegin
  2
_OPEN30
 70
     0
 10
0.0
 20
0.0
 30
0.0
  3
_OPEN30
  1

  0
LINE
  5
5A
330
59
100
AcDbEntity
  8
0
 62
     0
100
AcDbLine
 10
-1.0
 20
0.26794919
 30
0.0
 11
0.0
 21
0.0
 31
0.0
  0
LINE
  5
5B
330
59
100
AcDbEntity
  8
0
 62
     0
100
AcDbLine
 10
0.0
 20
0.0
 30
0.0
 11
-1.0
 21
-0.26794919
 31
0.0
  0
LINE
  5
5C
330
59
100
AcDbEntity
  8
0
 62
     0
100
AcDbLine
 10
0.0
 20
0.0
 30
0.0
 11
-1.0
 21
0.0
 31
0.0
  0
ENDBLK
  5
5E
330
59
100
AcDbEntity
  8
0
100
AcDbBlockEnd
  0
BLOCK
  5
66
330
64
100
AcDbEntity
  8
0
100
AcDbBlockBegin
  2
GENAXEH
 70
     0
 10
0.0
 20
0.0
 30
0.0
  3
GENAXEH
  1

  0
LINE
  5
65
330
64
100
AcDbEntity
  8
0
100
AcDbLine
 10
-1.0
 20
0.0
 30
0.0
 11
1.0
 21
0.0
 31
0.0
  0
ENDBLK
  5
67
330
64
100
AcDbEntity
  8
0
100
AcDbBlockEnd
  0
BLOCK
  5
74C6
330
74BC
100
AcDbEntity
  8
0
100
AcDbBlockBegin
  2
*D5
 70
     1
 10
0.0
 20
0.0
 30
0.0
  3
*D5
  1

  0
LINE
  5
7D3D
330
74BC
100
AcDbEntity
  8
AM_5
100
AcDbLine
 10
-49.00000000000005
 20
35.0
 30
0.0
 11
-85.55607704980397
 21
35.0
 31
0.0
  0
LINE
  5
7D3E
330
74BC
100
AcDbEntity
  8
AM_5
100
AcDbLine
 10
-49.00000000000005
 20
-35.00000000000001
 30
0.0
 11
-85.55607704980401
 21
-35.0
 31
0.0
  0
LINE
  5
7D3F
330
74BC
100
AcDbEntity
  8
AM_5
100
AcDbLine
 10
-84.55607704980398
 20
32.5
 30
0.0
 11
-84.55607704980399
 21
-32.5
 31
0.0
  0
MTEXT
  5
7D40
330
74BC
100
AcDbEntity
  8
AM_5
 62
     2
100
AcDbMText
 10
-90.03105540079225
 20
0.0000019073484339
 30
0.0
 40
3.2
 41
0.0
 71
     5
 72
     1
  1
%%c70
  7
ASAMI
 11
0.0000000000000001
 21
1.0
 31
0.0
  0
INSERT
  5
7D41
330
74BC
100
AcDbEntity
  8
AM_5
100
AcDbBlockReference
  2
_OPEN30
 10
-84.55607704980398
 20
35.0
 30
0.0
 41
2.5
 42
2.5
 43
2.5
 50
90.0
  0
INSERT
  5
7D42
330
74BC
100
AcDbEntity
  8
AM_5
100
AcDbBlockReference
  2
_OPEN30
 10
-84.55607704980399
 20
-35.0
 30
0.0
 41
2.5
 42
2.5
 43
2.5
 50
270.0
  0
POINT
  5
7D43
330
74BC
100
AcDbEntity
  8
DEFPOINTS
 62
     0
100
AcDbPoint
 10
-48.00000000000006
 20
35.0
 30
0.0
  0
POINT
  5
7D44
330
74BC
100
AcDbEntity
  8
DEFPOINTS
 62
     0
100
AcDbPoint
 10
-48.00000000000006
 20
-35.00000000000001
 30
0.0
  0
POINT
  5
7D45
330
74BC
100
AcDbEntity
  8
DEFPOINTS
 62
     0
100
AcDbPoint
 10
-84.55607704980399
 20
-35.0
 30
0.0
  0
ENDBLK
  5
74C7
330
74BC
100
AcDbEntity
  8
0
100
AcDbBlockEnd
  0
BLOCK
  5
74DE
330
74D4
100
AcDbEntity
  8
0
100
AcDbBlockBegin
  2
*D6
 70
     1
 10
0.0
 20
0.0
 30
0.0
  3
*D6
  1

  0
LINE
  5
7D34
330
74D4
100
AcDbEntity
  8
AM_5
100
AcDbLine
 10
-49.33308710467713
 20
15.875
 30
0.0
 11
-77.55606711571084
 21
15.87500000000001
 31
0.0
  0
LINE
  5
7D35
330
74D4
100
AcDbEntity
  8
AM_5
100
AcDbLine
 10
-49.49999237060501
 20
-15.87499999999599
 30
0.0
 11
-77.55606711571084
 21
-15.87499999999598
 31
0.0
  0
LINE
  5
7D36
330
74D4
100
AcDbEntity
  8
AM_5
100
AcDbLine
 10
-76.55606711571085
 20
13.37500000000001
 30
0.0
 11
-76.55606711571085
 21
-13.37499999999598
 31
0.0
  0
INSERT
  5
7D37
330
74D4
100
AcDbEntity
  8
AM_5
100
AcDbBlockReference
  2
_OPEN30
 10
-76.55606711571085
 20
15.87500000000001
 30
0.0
 41
2.5
 42
2.5
 43
2.5
 50
90.0
  0
INSERT
  5
7D38
330
74D4
100
AcDbEntity
  8
AM_5
100
AcDbBlockReference
  2
_OPEN30
 10
-76.55606711571085
 20
-15.87499999999598
 30
0.0
 41
2.5
 42
2.5
 43
2.5
 50
270.0
  0
MTEXT
  5
7D39
330
74D4
100
AcDbEntity
  8
AM_5
 62
     2
100
AcDbMText
 10
-79.65606711571084
 20
0.0000000000019999
 30
0.0
 40
3.2
 41
0.0
 71
     5
 72
     1
  1
%%c31.75
  7
ASAMI
 11
0.0000000000000001
 21
1.0
 31
0.0
  0
POINT
  5
7D3A
330
74D4
100
AcDbEntity
  8
DEFPOINTS
 62
     0
100
AcDbPoint
 10
-48.33308710467713
 20
15.875
 30
0.0
  0
POINT
  5
7D3B
330
74D4
100
AcDbEntity
  8
DEFPOINTS
 62
     0
100
AcDbPoint
 10
-48.49999237060501
 20
-15.87499999999599
 30
0.0
  0
POINT
  5
7D3C
330
74D4
100
AcDbEntity
  8
DEFPOINTS
 62
     0
100
AcDbPoint
 10
-76.55606711571085
 20
-15.87499999999598
 30
0.0
  0
ENDBLK
  5
74DF
330
74D4
100
AcDbEntity
  8
0
100
AcDbBlockEnd
  0
BLOCK
  5
7504
330
74FA
100
AcDbEntity
  8
0
100
AcDbBlockBegin
  2
*D7
 70
     1
 10
0.0
 20
0.0
 30
0.0
  3
*D7
  1

  0
LINE
  5
7D46
330
74FA
100
AcDbEntity
  8
AM_5
100
AcDbLine
 10
-50.00000000000006
 20
-33.99999601045738
 30
0.0
 11
-50.00000000000006
 21
-75.00001093408973
 31
0.0
  0
LINE
  5
7D47
330
74FA
100
AcDbEntity
  8
AM_5
100
AcDbLine
 10
-18.00000000000005
 20
-23.99999999999599
 30
0.0
 11
-18.00000000000006
 21
-75.00001093408973
 31
0.0
  0
LINE
  5
7D48
330
74FA
100
AcDbEntity
  8
AM_5
100
AcDbLine
 10
-47.50000000000006
 20
-74.00001093408973
 30
0.0
 11
-20.50000000000006
 21
-74.00001093408973
 31
0.0
  0
INSERT
  5
7D49
330
74FA
100
AcDbEntity
  8
AM_5
100
AcDbBlockReference
  2
_OPEN30
 10
-50.00000000000006
 20
-74.00001093408973
 30
0.0
 41
2.5
 42
2.5
 43
2.5
 50
180.0
  0
INSERT
  5
7D4A
330
74FA
100
AcDbEntity
  8
AM_5
100
AcDbBlockReference
  2
_OPEN30
 10
-18.00000000000006
 20
-74.00001093408973
 30
0.0
 41
2.5
 42
2.5
 43
2.5
  0
MTEXT
  5
7D4B
330
74FA
100
AcDbEntity
  8
AM_5
 62
     2
100
AcDbMText
 10
-34.00000000000005
 20
-70.90001093408973
 30
0.0
 40
3.2
 41
0.0
 71
     5
 72
     1
  1
32
  7
ASAMI
  0
POINT
  5
7D4C
330
74FA
100
AcDbEntity
  8
DEFPOINTS
 62
     0
100
AcDbPoint
 10
-50.00000000000006
 20
-32.99999601045738
 30
0.0
  0
POINT
  5
7D4D
330
74FA
100
AcDbEntity
  8
DEFPOINTS
 62
     0
100
AcDbPoint
 10
-18.00000000000005
 20
-22.99999999999599
 30
0.0
  0
POINT
  5
7D4E
330
74FA
100
AcDbEntity
  8
DEFPOINTS
 62
     0
100
AcDbPoint
 10
-18.00000000000006
 20
-74.00001093408973
 30
0.0
  0
ENDBLK
  5
7505
330
74FA
100
AcDbEntity
  8
0
100
AcDbBlockEnd
  0
BLOCK
  5
7510
330
7506
100
AcDbEntity
  8
0
100
AcDbBlockBegin
  2
*D8
 70
     1
 10
0.0
 20
0.0
 30
0.0
  3
*D8
  1

  0
LINE
  5
7D4F
330
7506
100
AcDbEntity
  8
AM_5
100
AcDbLine
 10
-50.00000000000006
 20
-33.99999601045738
 30
0.0
 11
-50.00000000000006
 21
-85.00000099999997
 31
0.0
  0
LINE
  5
7D50
330
7506
100
AcDbEntity
  8
AM_5
100
AcDbLine
 10
-0.0000000000000001
 20
-50.99999999999999
 30
0.0
 11
-0.0000000000000021
 21
-85.00000099999997
 31
0.0
  0
LINE
  5
7D51
330
7506
100
AcDbEntity
  8
AM_5
100
AcDbLine
 10
-47.50000000000006
 20
-84.00000099999997
 30
0.0
 11
-2.500000000000002
 21
-84.00000099999997
 31
0.0
  0
INSERT
  5
7D52
330
7506
100
AcDbEntity
  8
AM_5
100
AcDbBlockReference
  2
_OPEN30
 10
-50.00000000000006
 20
-84.00000099999997
 30
0.0
 41
2.5
 42
2.5
 43
2.5
 50
180.0
  0
INSERT
  5
7D53
330
7506
100
AcDbEntity
  8
AM_5
100
AcDbBlockReference
  2
_OPEN30
 10
-0.0000000000000021
 20
-84.00000099999997
 30
0.0
 41
2.5
 42
2.5
 43
2.5
  0
MTEXT
  5
7D54
330
7506
100
AcDbEntity
  8
AM_5
 62
     2
100
AcDbMText
 10
-25.00000000000003
 20
-80.90000099999997
 30
0.0
 40
3.2
 41
0.0
 71
     5
 72
     1
  1
50
  7
ASAMI
  0
POINT
  5
7D55
330
7506
100
AcDbEntity
  8
DEFPOINTS
 62
     0
100
AcDbPoint
 10
-50.00000000000006
 20
-32.99999601045738
 30
0.0
  0
POINT
  5
7D56
330
7506
100
AcDbEntity
  8
DEFPOINTS
 62
     0
100
AcDbPoint
 10
0.0
 20
-50.0
 30
0.0
  0
POINT
  5
7D57
330
7506
100
AcDbEntity
  8
DEFPOINTS
 62
     0
100
AcDbPoint
 10
-0.0000000000000021
 20
-84.00000099999997
 30
0.0
  0
ENDBLK
  5
7511
330
7506
100
AcDbEntity
  8
0
100
AcDbBlockEnd
  0
BLOCK
  5
7962
330
7958
100
AcDbEntity
  8
0
100
AcDbBlockBegin
  2
*D9
 70
     1
 10
0.0
 20
0.0
 30
0.0
  3
*D9
  1

  0
LINE
  5
7D58
330
7958
100
AcDbEntity
  8
AM_5
100
AcDbLine
 10
-50.00000000000006
 20
6.349999999999995
 30
0.0
 11
-67.55606711571084
 21
6.349999999999999
 31
0.0
  0
LINE
  5
7D59
330
7958
100
AcDbEntity
  8
AM_5
100
AcDbLine
 10
-49.99999295227849
 20
-6.34999999999998
 30
0.0
 11
-67.55606711571084
 21
-6.349999999999974
 31
0.0
  0
LINE
  5
7D5A
330
7958
100
AcDbEntity
  8
AM_5
100
AcDbLine
 10
-66.55606711571085
 20
3.849999999999999
 30
0.0
 11
-66.55606711571085
 21
-3.849999999999975
 31
0.0
  0
INSERT
  5
7D5B
330
7958
100
AcDbEntity
  8
AM_5
100
AcDbBlockReference
  2
_OPEN30
 10
-66.55606711571085
 20
6.349999999999999
 30
0.0
 41
2.5
 42
2.5
 43
2.5
 50
90.0
  0
INSERT
  5
7D5C
330
7958
100
AcDbEntity
  8
AM_5
100
AcDbBlockReference
  2
_OPEN30
 10
-66.55606711571085
 20
-6.349999999999974
 30
0.0
 41
2.5
 42
2.5
 43
2.5
 50
270.0
  0
MTEXT
  5
7D5D
330
7958
100
AcDbEntity
  8
AM_5
 62
     2
100
AcDbMText
 10
-69.65606711571084
 20
0.0000000000000018
 30
0.0
 40
3.2
 41
0.0
 71
     5
 72
     1
  1
12.7
  7
ASAMI
 11
0.0000000000000001
 21
1.0
 31
0.0
  0
POINT
  5
7D5E
330
7958
100
AcDbEntity
  8
DEFPOINTS
 62
     0
100
AcDbPoint
 10
-49.00000000000005
 20
6.349999999999994
 30
0.0
  0
POINT
  5
7D5F
330
7958
100
AcDbEntity
  8
DEFPOINTS
 62
     0
100
AcDbPoint
 10
-48.99999295227849
 20
-6.34999999999998
 30
0.0
  0
POINT
  5
7D60
330
7958
100
AcDbEntity
  8
DEFPOINTS
 62
     0
100
AcDbPoint
 10
-66.55606711571085
 20
-6.349999999999974
 30
0.0
  0
ENDBLK
  5
7963
330
7958
100
AcDbEntity
  8
0
100
AcDbBlockEnd
  0
BLOCK
  5
7A85
330
7A7B
100
AcDbEntity
  8
0
100
AcDbBlockBegin
  2
*D10
 70
     1
 10
0.0
 20
0.0
 30
0.0
  3
*D10
  1

  0
LINE
  5
7D61
330
7A7B
100
AcDbEntity
  8
AM_5
100
AcDbLine
 10
0.9999999999999431
 20
50.0
 30
0.0
 11
26.43101752464845
 21
50.0
 31
0.0
  0
LINE
  5
7D62
330
7A7B
100
AcDbEntity
  8
AM_5
100
AcDbLine
 10
1.0
 20
-50.0
 30
0.0
 11
26.43101752464843
 21
-50.0
 31
0.0
  0
LINE
  5
7D63
330
7A7B
100
AcDbEntity
  8
AM_5
100
AcDbLine
 10
25.43101752464845
 20
47.49999999999999
 30
0.0
 11
25.43101752464842
 21
-47.5
 31
0.0
  0
INSERT
  5
7D64
330
7A7B
100
AcDbEntity
  8
AM_5
100
AcDbBlockReference
  2
_OPEN30
 10
25.43101752464845
 20
50.0
 30
0.0
 41
2.5
 42
2.5
 43
2.5
 50
90.0
  0
INSERT
  5
7D65
330
7A7B
100
AcDbEntity
  8
AM_5
100
AcDbBlockReference
  2
_OPEN30
 10
25.43101752464842
 20
-50.0
 30
0.0
 41
2.5
 42
2.5
 43
2.5
 50
270.0
  0
MTEXT
  5
7D66
330
7A7B
100
AcDbEntity
  8
AM_5
 62
     2
100
AcDbMText
 10
22.33101752464843
 20
0.0000000000000024
 30
0.0
 40
3.2
 41
0.0
 71
     5
 72
     1
  1
%%c100
  7
ASAMI
 11
0.0000000000000001
 21
1.0
 31
0.0
  0
POINT
  5
7D67
330
7A7B
100
AcDbEntity
  8
DEFPOINTS
 62
     0
100
AcDbPoint
 10
-0.0000000000000568
 20
50.0
 30
0.0
  0
POINT
  5
7D68
330
7A7B
100
AcDbEntity
  8
DEFPOINTS
 62
     0
100
AcDbPoint
 10
0.0
 20
-50.0
 30
0.0
  0
POINT
  5
7D69
330
7A7B
100
AcDbEntity
  8
DEFPOINTS
 62
     0
100
AcDbPoint
 10
25.43101752464842
 20
-50.0
 30
0.0
  0
ENDBLK
  5
7A86
330
7A7B
100
AcDbEntity
  8
0
100
AcDbBlockEnd
  0
BLOCK
  5
7A91
330
7A87
100
AcDbEntity
  8
0
100
AcDbBlockBegin
  2
*D11
 70
     1
 10
0.0
 20
0.0
 30
0.0
  3
*D11
  1

  0
LINE
  5
7D6A
330
7A87
100
AcDbEntity
  8
AM_5
100
AcDbLine
 10
-9.799999455617012
 20
23.0
 30
0.0
 11
16.43101752464843
 21
22.99999999999999
 31
0.0
  0
LINE
  5
7D6B
330
7A87
100
AcDbEntity
  8
AM_5
100
AcDbLine
 10
-9.799999237060035
 20
-22.99999999999599
 30
0.0
 11
16.43101752464843
 21
-22.999999999996
 31
0.0
  0
LINE
  5
7D6C
330
7A87
100
AcDbEntity
  8
AM_5
100
AcDbLine
 10
15.43101752464843
 20
20.49999999999999
 30
0.0
 11
15.43101752464842
 21
-20.499999999996
 31
0.0
  0
INSERT
  5
7D6D
330
7A87
100
AcDbEntity
  8
AM_5
100
AcDbBlockReference
  2
_OPEN30
 10
15.43101752464843
 20
22.99999999999999
 30
0.0
 41
2.5
 42
2.5
 43
2.5
 50
90.0
  0
INSERT
  5
7D6E
330
7A87
100
AcDbEntity
  8
AM_5
100
AcDbBlockReference
  2
_OPEN30
 10
15.43101752464842
 20
-22.999999999996
 30
0.0
 41
2.5
 42
2.5
 43
2.5
 50
270.0
  0
MTEXT
  5
7D6F
330
7A87
100
AcDbEntity
  8
AM_5
 62
     2
100
AcDbMText
 10
12.33101752464843
 20
0.0000000000019996
 30
0.0
 40
3.2
 41
0.0
 71
     5
 72
     1
  1
%%c46
  7
ASAMI
 11
0.0000000000000001
 21
1.0
 31
0.0
  0
POINT
  5
7D70
330
7A87
100
AcDbEntity
  8
DEFPOINTS
 62
     0
100
AcDbPoint
 10
-10.79999945561701
 20
23.0
 30
0.0
  0
POINT
  5
7D71
330
7A87
100
AcDbEntity
  8
DEFPOINTS
 62
     0
100
AcDbPoint
 10
-10.79999923706003
 20
-22.99999999999599
 30
0.0
  0
POINT
  5
7D72
330
7A87
100
AcDbEntity
  8
DEFPOINTS
 62
     0
100
AcDbPoint
 10
15.43101752464842
 20
-22.999999999996
 30
0.0
  0
ENDBLK
  5
7A92
330
7A87
100
AcDbEntity
  8
0
100
AcDbBlockEnd
  0
BLOCK
  5
7BC4
330
7BB8
100
AcDbEntity
  8
0
100
AcDbBlockBegin
  2
*D12
 70
     1
 10
0.0
 20
0.0
 30
0.0
  3
*D12
  1

  0
LINE
  5
7D73
330
7BB8
100
AcDbEntity
  8
AM_5
100
AcDbLine
 10
-50.00000000000006
 20
-33.99999618530301
 30
0.0
 11
-50.00000000000006
 21
-65.00001093408991
 31
0.0
  0
LINE
  5
7D74
330
7BB8
100
AcDbEntity
  8
AM_5
100
AcDbLine
 10
-42.00000000000005
 20
-7.35000610350599
 30
0.0
 11
-42.00000000000006
 21
-65.00001093408991
 31
0.0
  0
LINE
  5
7D75
330
7BB8
100
AcDbEntity
  8
AM_5
100
AcDbLine
 10
-52.50000000000006
 20
-64.00001093408992
 30
0.0
 11
-55.00000000000006
 21
-64.00001093408992
 31
0.0
  0
LINE
  5
7D76
330
7BB8
100
AcDbEntity
  8
AM_5
100
AcDbLine
 10
-39.50000000000006
 20
-64.00001093408992
 30
0.0
 11
-37.00000000000005
 21
-64.00001093408992
 31
0.0
  0
LINE
  5
7D77
330
7BB8
100
AcDbEntity
  8
AM_5
100
AcDbLine
 10
-50.00000000000006
 20
-64.00001093408992
 30
0.0
 11
-42.00000000000005
 21
-64.00001093408992
 31
0.0
  0
INSERT
  5
7D78
330
7BB8
100
AcDbEntity
  8
AM_5
100
AcDbBlockReference
  2
_OPEN30
 10
-50.00000000000006
 20
-64.00001093408992
 30
0.0
 41
2.5
 42
2.5
 43
2.5
  0
INSERT
  5
7D79
330
7BB8
100
AcDbEntity
  8
AM_5
100
AcDbBlockReference
  2
_OPEN30
 10
-42.00000000000005
 20
-64.00001093408992
 30
0.0
 41
2.5
 42
2.5
 43
2.5
 50
180.0
  0
MTEXT
  5
7D7A
330
7BB8
100
AcDbEntity
  8
AM_5
 62
     2
100
AcDbMText
 10
-46.00000000000005
 20
-60.90001093408991
 30
0.0
 40
3.2
 41
0.0
 71
     5
 72
     1
  1
8
  7
ASAMI
  0
POINT
  5
7D7B
330
7BB8
100
AcDbEntity
  8
DEFPOINTS
 62
     0
100
AcDbPoint
 10
-50.00000000000006
 20
-32.99999618530302
 30
0.0
  0
POINT
  5
7D7C
330
7BB8
100
AcDbEntity
  8
DEFPOINTS
 62
     0
100
AcDbPoint
 10
-42.00000000000005
 20
-6.35000610350599
 30
0.0
  0
POINT
  5
7D7D
330
7BB8
100
AcDbEntity
  8
DEFPOINTS
 62
     0
100
AcDbPoint
 10
-42.00000000000005
 20
-64.00001093408992
 30
0.0
  0
ENDBLK
  5
7BC5
330
7BB8
100
AcDbEntity
  8
0
100
AcDbBlockEnd
  0
ENDSEC
  0
SECTION
  2
ENTITIES
  0
TEXT
  5
E5A
330
1F
100
AcDbEntity
  8
AM_6
100
AcDbText
 10
-47.61904761904764
 20
-106.5000009999999
 30
0.0
 40
5.0
  1
WRCF16100R
 72
     4
 11
-25.00000000000001
 21
-104.0000009999999
 31
0.0
100
AcDbText
  0
ARC
  5
7426
330
1F
100
AcDbEntity
  8
AM_0
  6
CONTINUOUS
 48
0.5
100
AcDbCircle
 10
-22.49444580078102
 20
42.0
 30
0.0
 40
3.0
100
AcDbArc
 50
90.00000250447845
 51
149.9999973439397
  0
CIRCLE
  5
7427
330
1F
100
AcDbEntity
  8
AM_0
  6
CONTINUOUS
 48
0.5
100
AcDbCircle
 10
-8.000000000000056
 20
42.0
 30
0.0
 40
4.0
  0
LINE
  5
7428
330
1F
100
AcDbEntity
  8
AM_0
  6
CONTINUOUS
 48
0.5
100
AcDbLine
 10
-1.217926025390056
 20
46.53163909912101
 30
0.0
 11
-0.0000000000000568
 21
43.59130096435601
 31
0.0
  0
LINE
  5
7429
330
1F
100
AcDbEntity
  8
AM_0
  6
CONTINUOUS
 48
0.5
100
AcDbLine
 10
-16.00000381469703
 20
43.59129333496099
 30
0.0
 11
-14.78207397460903
 21
46.531635284424
 31
0.0
  0
LINE
  5
742A
330
1F
100
AcDbEntity
  8
AM_0
  6
CONTINUOUS
100
AcDbLine
 10
-40.59999847412103
 20
15.875
 30
0.0
 11
-40.59999847412103
 21
-15.87499999999599
 31
0.0
  0
LINE
  5
742B
330
1F
100
AcDbEntity
  8
AM_0
  6
CONTINUOUS
100
AcDbLine
 10
-5.799999237060035
 20
34.252136230469
 30
0.0
 11
-5.799999237060035
 21
-31.34163665770599
 31
0.0
  0
LINE
  5
742C
330
1F
100
AcDbEntity
  8
AM_0
  6
CONTINUOUS
 48
0.5
100
AcDbLine
 10
-42.00000000000005
 20
6.349998474121008
 30
0.0
 11
-42.00000000000005
 21
-6.35000610350599
 31
0.0
  0
LINE
  5
742D
330
1F
100
AcDbEntity
  8
AM_0
  6
CONTINUOUS
100
AcDbLine
 10
-18.00000000000005
 20
23.0
 30
0.0
 11
-18.00000000000005
 21
-22.99999999999599
 31
0.0
  0
ARC
  5
742F
330
1F
100
AcDbEntity
  8
AM_0
  6
CONTINUOUS
 48
0.5
100
AcDbCircle
 10
-10.79999923706003
 20
-27.99999999999599
 30
0.0
 40
5.0
100
AcDbArc
 50
0.0
 51
90.00000250447845
  0
LINE
  5
7430
330
1F
100
AcDbEntity
  8
AM_0
  6
CONTINUOUS
 48
0.5
100
AcDbLine
 10
-50.00000000000006
 20
-7.35000610350599
 30
0.0
 11
-50.00000000000006
 21
-32.99999618530302
 31
0.0
  0
LINE
  5
7433
330
1F
100
AcDbEntity
  8
AM_0
  6
CONTINUOUS
 48
0.5
100
AcDbLine
 10
-5.799999237060035
 20
-27.99999999999599
 30
0.0
 11
-5.799999237060092
 21
-34.25213703890484
 31
0.0
  0
LINE
  5
7434
330
1F
100
AcDbEntity
  8
AM_0
  6
CONTINUOUS
 48
0.5
100
AcDbLine
 10
-48.50000000000005
 20
-6.35000610350599
 30
0.0
 11
-48.50000000000005
 21
-15.87499999999599
 31
0.0
  0
LINE
  5
7435
330
1F
100
AcDbEntity
  8
AM_0
  6
CONTINUOUS
 48
0.5
100
AcDbLine
 10
-10.79999923706003
 20
-22.99999999999599
 30
0.0
 11
-18.00000000000005
 21
-22.99999999999599
 31
0.0
  0
LINE
  5
7436
330
1F
100
AcDbEntity
  8
AM_0
  6
CONTINUOUS
 48
0.5
100
AcDbLine
 10
-50.00000000000006
 20
-17.37499999999599
 30
0.0
 11
-48.49999237060501
 21
-15.87499999999599
 31
0.0
  0
LINE
  5
7437
330
1F
100
AcDbEntity
  8
AM_0
  6
CONTINUOUS
100
AcDbLine
 10
-48.50000000000005
 20
-15.87499999999599
 30
0.0
 11
-18.00000000000005
 21
-15.87499999999599
 31
0.0
  0
LINE
  5
7438
330
1F
100
AcDbEntity
  8
AM_0
  6
CONTINUOUS
 48
0.5
100
AcDbLine
 10
-49.99997769348948
 20
-7.349990844725979
 30
0.0
 11
-48.99999295227849
 21
-6.34999999999998
 31
0.0
  0
LINE
  5
7439
330
1F
100
AcDbEntity
  8
AM_0
  6
CONTINUOUS
 48
0.5
100
AcDbLine
 10
-48.99999295227849
 20
-6.34999999999998
 30
0.0
 11
-41.99999295227849
 21
-6.34999999999998
 31
0.0
  0
LINE
  5
743A
330
1F
100
AcDbEntity
  8
AM_0
  6
CONTINUOUS
 48
0.5
100
AcDbLine
 10
-50.00000000000006
 20
32.99999618530302
 30
0.0
 11
-50.00000000000006
 21
7.349998474121008
 31
0.0
  0
LINE
  5
743B
330
1F
100
AcDbEntity
  8
AM_0
  6
CONTINUOUS
 48
0.5
100
AcDbLine
 10
-48.50000000000005
 20
15.875
 30
0.0
 11
-48.50000000000005
 21
6.349998474121008
 31
0.0
  0
LINE
  5
743C
330
1F
100
AcDbEntity
  8
AM_7
  6
AM_ISO08W050
100
AcDbLine
 10
1.43102645873995
 20
0.0
 30
0.0
 11
-52.55607604980401
 21
0.0
 31
0.0
  0
LINE
  5
743D
330
1F
100
AcDbEntity
  8
AM_0
  6
CONTINUOUS
 48
0.5
100
AcDbLine
 10
-50.00000000000006
 20
7.349992370605988
 30
0.0
 11
-49.00000000000005
 21
6.349999999999994
 31
0.0
  0
LINE
  5
743E
330
1F
100
AcDbEntity
  8
AM_0
  6
CONTINUOUS
 48
0.5
100
AcDbLine
 10
-49.00000000000005
 20
6.349999999999994
 30
0.0
 11
-42.00000000000005
 21
6.349999999999994
 31
0.0
  0
LINE
  5
743F
330
1F
100
AcDbEntity
  8
AM_0
  6
CONTINUOUS
 48
0.5
100
AcDbLine
 10
-50.00000000000006
 20
17.37499237060601
 30
0.0
 11
-48.50000000000005
 21
15.874992370606
 31
0.0
  0
LINE
  5
7440
330
1F
100
AcDbEntity
  8
AM_0
  6
CONTINUOUS
100
AcDbLine
 10
-48.50000000000005
 20
15.875
 30
0.0
 11
-18.00000000000005
 21
15.875
 31
0.0
  0
LINE
  5
7441
330
1F
100
AcDbEntity
  8
AM_11
100
AcDbLine
 10
-30.79505920410105
 20
35.45854187011801
 30
0.0
 11
-5.799999237060035
 21
28.76113891601602
 31
0.0
  0
ARC
  5
7442
330
1F
100
AcDbEntity
  8
AM_0
  6
CONTINUOUS
 48
0.5
100
AcDbCircle
 10
-10.79999923706003
 20
28.0
 30
0.0
 40
5.0
100
AcDbArc
 50
269.9999974955215
 51
0.0
  0
LINE
  5
7443
330
1F
100
AcDbEntity
  8
AM_0
  6
CONTINUOUS
 48
0.5
100
AcDbLine
 10
-18.00000000000005
 20
23.0
 30
0.0
 11
-10.79999923706003
 21
23.0
 31
0.0
  0
LINE
  5
7444
330
1F
100
AcDbEntity
  8
AM_0
  6
CONTINUOUS
 48
0.5
100
AcDbLine
 10
-28.55662536621105
 20
37.49999237060601
 30
0.0
 11
-25.09252166748001
 21
43.49999618530302
 31
0.0
  0
LINE
  5
7445
330
1F
100
AcDbEntity
  8
AM_0
  6
CONTINUOUS
 48
0.5
100
AcDbLine
 10
-0.0000038146970383
 20
40.40869903564501
 30
0.0
 11
-1.217929840088061
 21
37.46836090087902
 31
0.0
  0
LINE
  5
7446
330
1F
100
AcDbEntity
  8
AM_0
  6
CONTINUOUS
 48
0.5
100
AcDbLine
 10
-14.78207397460903
 20
37.46836471557699
 30
0.0
 11
-16.00000000000005
 21
40.40870285034199
 31
0.0
  0
ARC
  5
7447
330
1F
100
AcDbEntity
  8
AM_0
  6
CONTINUOUS
 48
0.5
100
AcDbCircle
 10
-32.88674926757801
 20
39.99999618530301
 30
0.0
 40
5.0
100
AcDbArc
 50
269.9999974955215
 51
329.999999165172
  0
ARC
  5
7448
330
1F
100
AcDbEntity
  8
AM_0
  6
CONTINUOUS
 48
0.5
100
AcDbCircle
 10
-48.00000000000006
 20
33.0
 30
0.0
 40
2.0
100
AcDbArc
 50
90.00000250447845
 51
180.0000050089585
  0
LINE
  5
7449
330
1F
100
AcDbEntity
  8
AM_0
  6
CONTINUOUS
 48
0.5
100
AcDbLine
 10
-48.00000000000006
 20
35.0
 30
0.0
 11
-32.88674926757801
 21
35.0
 31
0.0
  0
LINE
  5
744A
330
1F
100
AcDbEntity
  8
AM_0
  6
CONTINUOUS
 48
0.5
100
AcDbLine
 10
-1.217929840088061
 20
37.46836090087902
 30
0.0
 11
-3.468364715576058
 21
35.21792602539102
 31
0.0
  0
LINE
  5
744B
330
1F
100
AcDbEntity
  8
AM_0
  6
CONTINUOUS
 48
0.5
100
AcDbLine
 10
-3.468368530273039
 20
35.217929840088
 30
0.0
 11
-6.408702850342024
 21
34.000003814698
 31
0.0
  0
LINE
  5
744C
330
1F
100
AcDbEntity
  8
AM_0
  6
CONTINUOUS
 48
0.5
100
AcDbLine
 10
-6.408702850342024
 20
34.0
 30
0.0
 11
-9.591300964355014
 21
34.0
 31
0.0
  0
LINE
  5
744D
330
1F
100
AcDbEntity
  8
AM_0
  6
CONTINUOUS
 48
0.5
100
AcDbLine
 10
-9.591300964355014
 20
33.99999618530301
 30
0.0
 11
-12.53163909912103
 21
35.21792602539102
 31
0.0
  0
LINE
  5
744E
330
1F
100
AcDbEntity
  8
AM_0
  6
CONTINUOUS
 48
0.5
100
AcDbLine
 10
-12.53163909912103
 20
35.21792602539102
 30
0.0
 11
-14.78207778930601
 21
37.46836090087902
 31
0.0
  0
LINE
  5
744F
330
1F
100
AcDbEntity
  8
AM_0
  6
CONTINUOUS
 48
0.5
100
AcDbLine
 10
-0.0000000000000568
 20
43.59130096435601
 30
0.0
 11
-0.0000000000000568
 21
40.40869903564501
 31
0.0
  0
LINE
  5
7450
330
1F
100
AcDbEntity
  8
AM_0
  6
CONTINUOUS
 48
0.5
100
AcDbLine
 10
-16.00000000000005
 20
40.40869903564501
 30
0.0
 11
-16.00000000000005
 21
43.59130096435601
 31
0.0
  0
LINE
  5
7451
330
1F
100
AcDbEntity
  8
AM_0
  6
CONTINUOUS
 48
0.5
100
AcDbLine
 10
-15.41649627685501
 20
45.0
 30
0.0
 11
-22.49444580078102
 21
45.0
 31
0.0
  0
LINE
  5
7452
330
1F
100
AcDbEntity
  8
AM_0
  6
CONTINUOUS
 48
0.5
100
AcDbLine
 10
-14.78207397460903
 20
46.531635284424
 30
0.0
 11
-12.53163909912103
 21
48.782070159912
 31
0.0
  0
LINE
  5
7453
330
1F
100
AcDbEntity
  8
AM_0
  6
CONTINUOUS
 48
0.5
100
AcDbLine
 10
-12.53163909912103
 20
48.78207397461
 30
0.0
 11
-9.591304779052052
 21
50.0
 31
0.0
  0
LINE
  5
7454
330
1F
100
AcDbEntity
  8
AM_0
  6
CONTINUOUS
 48
0.5
100
AcDbLine
 10
-9.591300964355014
 20
50.0
 30
0.0
 11
-6.408702850342024
 21
50.0
 31
0.0
  0
LINE
  5
7455
330
1F
100
AcDbEntity
  8
AM_0
  6
CONTINUOUS
 48
0.5
100
AcDbLine
 10
-3.468364715576058
 20
48.78207397461
 30
0.0
 11
-6.408702850342024
 21
50.0
 31
0.0
  0
LINE
  5
7456
330
1F
100
AcDbEntity
  8
AM_0
  6
CONTINUOUS
 48
0.5
100
AcDbLine
 10
-1.217933654785042
 20
46.53163146972701
 30
0.0
 11
-3.468368530273039
 21
48.782070159912
 31
0.0
  0
LINE
  5
749D
330
1F
100
AcDbEntity
  8
AM_0
  6
CONTINUOUS
 48
0.5
100
AcDbLine
 10
-48.00000000000006
 20
-35.0
 30
0.0
 11
-32.88674926757801
 21
-35.0
 31
0.0
  0
ARC
  5
749E
330
1F
100
AcDbEntity
  8
AM_0
  6
CONTINUOUS
 48
0.5
100
AcDbCircle
 10
-48.00000000000006
 20
-33.0
 30
0.0
 40
2.0
100
AcDbArc
 50
179.9999949910414
 51
269.9999974955215
  0
LINE
  5
749F
330
1F
100
AcDbEntity
  8
AM_0
  6
CONTINUOUS
 48
0.5
100
AcDbLine
 10
-3.468364715576058
 20
-48.78207397461
 30
0.0
 11
-6.408702850342024
 21
-50.0
 31
0.0
  0
LINE
  5
74A0
330
1F
100
AcDbEntity
  8
AM_0
  6
CONTINUOUS
 48
0.5
100
AcDbLine
 10
-3.468368530273039
 20
-35.217929840088
 30
0.0
 11
-6.408702850342024
 21
-34.000003814698
 31
0.0
  0
CIRCLE
  5
74A1
330
1F
100
AcDbEntity
  8
AM_0
  6
CONTINUOUS
 48
0.5
100
AcDbCircle
 10
-8.000000000000056
 20
-42.0
 30
0.0
 40
4.0
  0
LINE
  5
74A2
330
1F
100
AcDbEntity
  8
AM_0
  6
CONTINUOUS
 48
0.5
100
AcDbLine
 10
-28.55662536621105
 20
-37.49999237060601
 30
0.0
 11
-25.09252166748001
 21
-43.49999618530302
 31
0.0
  0
LINE
  5
74A3
330
1F
100
AcDbEntity
  8
AM_11
100
AcDbLine
 10
-30.79505920410105
 20
-35.45854187011801
 30
0.0
 11
-5.799999237060035
 21
-28.76113891601602
 31
0.0
  0
ARC
  5
74A4
330
1F
100
AcDbEntity
  8
AM_0
  6
CONTINUOUS
 48
0.5
100
AcDbCircle
 10
-32.88674926757801
 20
-40.0
 30
0.0
 40
5.0
100
AcDbArc
 50
30.0000008348279
 51
90.00000250447849
  0
LINE
  5
74A5
330
1F
100
AcDbEntity
  8
AM_0
  6
CONTINUOUS
 48
0.5
100
AcDbLine
 10
-14.78207397460903
 20
-37.46836471557699
 30
0.0
 11
-16.00000000000005
 21
-40.40870285034199
 31
0.0
  0
LINE
  5
74A6
330
1F
100
AcDbEntity
  8
AM_0
  6
CONTINUOUS
 48
0.5
100
AcDbLine
 10
-16.00000381469703
 20
-43.59129333496099
 30
0.0
 11
-14.78207397460903
 21
-46.531635284424
 31
0.0
  0
LINE
  5
74A7
330
1F
100
AcDbEntity
  8
AM_0
  6
CONTINUOUS
 48
0.5
100
AcDbLine
 10
-16.00000000000005
 20
-40.40869903564501
 30
0.0
 11
-16.00000000000005
 21
-43.59130096435601
 31
0.0
  0
LINE
  5
74A8
330
1F
100
AcDbEntity
  8
AM_0
  6
CONTINUOUS
 48
0.5
100
AcDbLine
 10
-15.41649627685501
 20
-45.0
 30
0.0
 11
-22.49444580078102
 21
-45.0
 31
0.0
  0
ARC
  5
74A9
330
1F
100
AcDbEntity
  8
AM_0
  6
CONTINUOUS
 48
0.5
100
AcDbCircle
 10
-22.49444580078102
 20
-42.0
 30
0.0
 40
3.0
100
AcDbArc
 50
210.0000026560602
 51
269.9999974955215
  0
LINE
  5
74AA
330
1F
100
AcDbEntity
  8
AM_0
  6
CONTINUOUS
 48
0.5
100
AcDbLine
 10
-9.591300964355014
 20
-33.99999618530301
 30
0.0
 11
-12.53163909912103
 21
-35.21792602539102
 31
0.0
  0
LINE
  5
74AB
330
1F
100
AcDbEntity
  8
AM_0
  6
CONTINUOUS
 48
0.5
100
AcDbLine
 10
-12.53163909912103
 20
-35.21792602539102
 30
0.0
 11
-14.78207778930601
 21
-37.46836090087902
 31
0.0
  0
LINE
  5
74AC
330
1F
100
AcDbEntity
  8
AM_0
  6
CONTINUOUS
 48
0.5
100
AcDbLine
 10
-6.408702850342024
 20
-34.0
 30
0.0
 11
-9.591300964355014
 21
-34.0
 31
0.0
  0
LINE
  5
74AD
330
1F
100
AcDbEntity
  8
AM_0
  6
CONTINUOUS
 48
0.5
100
AcDbLine
 10
-12.53163909912103
 20
-48.78207397461
 30
0.0
 11
-9.591304779052052
 21
-50.0
 31
0.0
  0
LINE
  5
74AE
330
1F
100
AcDbEntity
  8
AM_0
  6
CONTINUOUS
 48
0.5
100
AcDbLine
 10
-14.78207397460903
 20
-46.531635284424
 30
0.0
 11
-12.53163909912103
 21
-48.782070159912
 31
0.0
  0
LINE
  5
74AF
330
1F
100
AcDbEntity
  8
AM_0
  6
CONTINUOUS
 48
0.5
100
AcDbLine
 10
-9.591300964355014
 20
-50.0
 30
0.0
 11
-6.408702850342024
 21
-50.0
 31
0.0
  0
LINE
  5
74B0
330
1F
100
AcDbEntity
  8
AM_0
  6
CONTINUOUS
 48
0.5
100
AcDbLine
 10
-0.0000000000000568
 20
-43.59130096435601
 30
0.0
 11
-0.0000000000000568
 21
-40.40869903564501
 31
0.0
  0
LINE
  5
74B1
330
1F
100
AcDbEntity
  8
AM_0
  6
CONTINUOUS
 48
0.5
100
AcDbLine
 10
-0.0000038146970383
 20
-40.40869903564501
 30
0.0
 11
-1.217929840088061
 21
-37.46836090087902
 31
0.0
  0
LINE
  5
74B2
330
1F
100
AcDbEntity
  8
AM_0
  6
CONTINUOUS
 48
0.5
100
AcDbLine
 10
-1.217929840088061
 20
-37.46836090087902
 30
0.0
 11
-3.468364715576058
 21
-35.21792602539102
 31
0.0
  0
LINE
  5
74B3
330
1F
100
AcDbEntity
  8
AM_0
  6
CONTINUOUS
 48
0.5
100
AcDbLine
 10
-1.217933654785042
 20
-46.53163146972701
 30
0.0
 11
-3.468368530273039
 21
-48.782070159912
 31
0.0
  0
LINE
  5
74B4
330
1F
100
AcDbEntity
  8
AM_0
  6
CONTINUOUS
 48
0.5
100
AcDbLine
 10
-1.217926025390056
 20
-46.53163909912101
 30
0.0
 11
-0.0000000000000568
 21
-43.59130096435601
 31
0.0
  0
DIMENSION
  5
74B6
330
1F
100
AcDbEntity
  8
AM_5
100
AcDbDimension
  2
*D6
 10
-76.55606711571085
 20
-15.87499999999598
 30
0.0
 11
-79.65606711571084
 21
0.0000000000019999
 31
0.0
 70
    32
  1
%%c<>
  3
AM_JIS$0
100
AcDbAlignedDimension
 13
-48.33308710467713
 23
15.875
 33
0.0
 14
-48.49999237060501
 24
-15.87499999999599
 34
0.0
 50
270.0
100
AcDbRotatedDimension
1001
GENIUS_GENDTOL_13
1000

1000
h7
1000

1040
0.0
1001
ACAD
1000
DSTYLE
1002
{
1070
   287
1070
     5
1070
    42
1040
1.0
1070
    43
1040
12.0
1070
    48
1040
0.1
1070
    78
1070
     8
1070
   140
1040
3.2
1070
   176
1070
   256
1070
   177
1070
   256
1070
   271
1070
     3
1070
   272
1070
     3
1070
   275
1070
     0
1070
   279
1070
     2
1070
   284
1070
     0
1070
   289
1070
     3
1070
   340
1005
6B
1070
   371
1070
    -1
1070
   372
1070
    -1
1002
}
  0
DIMENSION
  5
74B7
330
1F
100
AcDbEntity
  8
AM_5
100
AcDbDimension
  2
*D5
 10
-84.55607704980399
 20
-35.0
 30
0.0
 11
-90.03105540079225
 21
0.0000019073484339
 31
0.0
 70
   160
  1
%%c<>
  3
AM_JIS$0
100
AcDbAlignedDimension
 13
-48.00000000000006
 23
35.0
 33
0.0
 14
-48.00000000000006
 24
-35.00000000000001
 34
0.0
 50
270.0
100
AcDbRotatedDimension
1001
GENIUS_GENDTOL_13
1000

1000
h7
1000

1040
0.0
1001
ACAD
1000
DSTYLE
1002
{
1070
   287
1070
     5
1070
    42
1040
1.0
1070
    43
1040
12.0
1070
    48
1040
0.1
1070
    78
1070
     8
1070
   140
1040
3.2
1070
   176
1070
   256
1070
   177
1070
   256
1070
   271
1070
     3
1070
   272
1070
     3
1070
   275
1070
     0
1070
   279
1070
     2
1070
   284
1070
     0
1070
   289
1070
     3
1070
   340
1005
6B
1070
   371
1070
    -1
1070
   372
1070
    -1
1002
}
  0
DIMENSION
  5
74B9
330
1F
100
AcDbEntity
  8
AM_5
100
AcDbDimension
  2
*D7
 10
-18.00000000000006
 20
-74.00001093408973
 30
0.0
 11
-34.00000000000005
 21
-70.90001093408973
 31
0.0
 70
    32
  1
<>
  3
AM_JIS$0
100
AcDbAlignedDimension
 13
-50.00000000000006
 23
-32.99999601045738
 33
0.0
 14
-18.00000000000005
 24
-22.99999999999599
 34
0.0
100
AcDbRotatedDimension
1001
GENIUS_GENDTOL_13
1000

1000
h7
1000

1040
0.0
1001
ACAD
1000
DSTYLE
1002
{
1070
   287
1070
     5
1070
    42
1040
1.0
1070
    43
1040
12.0
1070
    48
1040
0.1
1070
    78
1070
     8
1070
   140
1040
3.2
1070
   176
1070
   256
1070
   177
1070
   256
1070
   271
1070
     3
1070
   272
1070
     3
1070
   275
1070
     0
1070
   279
1070
     2
1070
   284
1070
     0
1070
   289
1070
     3
1070
   340
1005
6B
1070
   371
1070
    -1
1070
   372
1070
    -1
1002
}
  0
DIMENSION
  5
74BA
330
1F
100
AcDbEntity
  8
AM_5
100
AcDbDimension
  2
*D8
 10
-0.0000000000000021
 20
-84.00000099999997
 30
0.0
 11
-25.00000000000003
 21
-80.90000099999997
 31
0.0
 70
    32
  1
<>
  3
AM_JIS$0
100
AcDbAlignedDimension
 13
-50.00000000000006
 23
-32.99999601045738
 33
0.0
 14
0.0
 24
-50.0
 34
0.0
 50
0.0000113836296182
100
AcDbRotatedDimension
1001
GENIUS_GENDTOL_13
1000

1000
h7
1000

1040
0.0
1001
ACAD
1000
DSTYLE
1002
{
1070
   287
1070
     3
1070
    42
1040
1.0
1070
    43
1040
12.0
1070
    48
1040
0.1
1070
    78
1070
     8
1070
   140
1040
3.2
1070
   176
1070
   256
1070
   177
1070
   256
1070
   271
1070
     3
1070
   272
1070
     3
1070
   275
1070
     0
1070
   284
1070
     0
1070
   289
1070
     3
1070
   340
1005
6B
1070
   371
1070
    -1
1070
   372
1070
    -1
1002
}
  0
LINE
  5
7594
330
1F
100
AcDbEntity
  8
AM_11
100
AcDbLine
 10
-6.408702850342024
 20
50.0
 30
0.0
 11
-0.0000000000000568
 21
50.0
 31
0.0
  0
LINE
  5
7595
330
1F
100
AcDbEntity
  8
AM_11
100
AcDbLine
 10
0.0
 20
-50.0
 30
0.0
 11
-0.0000000000000568
 21
50.0
 31
0.0
  0
LINE
  5
7596
330
1F
100
AcDbEntity
  8
AM_11
100
AcDbLine
 10
-6.408702850341967
 20
-50.0
 30
0.0
 11
0.0
 21
-50.0
 31
0.0
  0
DIMENSION
  5
7957
330
1F
100
AcDbEntity
  8
AM_5
100
AcDbDimension
  2
*D9
 10
-66.55606711571085
 20
-6.349999999999974
 30
0.0
 11
-69.65606711571084
 21
0.0000000000000018
 31
0.0
 70
    32
  1
<>
  3
AM_JIS$0
100
AcDbAlignedDimension
 13
-49.00000000000005
 23
6.349999999999994
 33
0.0
 14
-48.99999295227849
 24
-6.34999999999998
 34
0.0
 50
270.0
100
AcDbRotatedDimension
1001
GENIUS_GENDTOL_13
1000

1000
h7
1000

1040
0.0
1001
ACAD
1000
DSTYLE
1002
{
1070
   287
1070
     5
1070
    42
1040
1.0
1070
    43
1040
12.0
1070
    48
1040
0.1
1070
    78
1070
     8
1070
   140
1040
3.2
1070
   176
1070
   256
1070
   177
1070
   256
1070
   271
1070
     3
1070
   272
1070
     3
1070
   275
1070
     0
1070
   279
1070
     2
1070
   284
1070
     0
1070
   289
1070
     3
1070
   340
1005
6B
1070
   371
1070
    -1
1070
   372
1070
    -1
1002
}
  0
DIMENSION
  5
7A79
330
1F
100
AcDbEntity
  8
AM_5
100
AcDbDimension
  2
*D10
 10
25.43101752464842
 20
-50.0
 30
0.0
 11
22.33101752464843
 21
0.0000000000000024
 31
0.0
 70
    32
  1
%%c<>
  3
AM_JIS$0
100
AcDbAlignedDimension
 13
-0.0000000000000568
 23
50.0
 33
0.0
 14
0.0
 24
-50.0
 34
0.0
 50
90.0
100
AcDbRotatedDimension
1001
GENIUS_GENDTOL_13
1000

1000
h7
1000

1040
0.0
1001
ACAD
1000
DSTYLE
1002
{
1070
   287
1070
     3
1070
    42
1040
1.0
1070
    43
1040
12.0
1070
    48
1040
0.1
1070
    78
1070
     8
1070
   140
1040
3.2
1070
   176
1070
   256
1070
   177
1070
   256
1070
   271
1070
     3
1070
   272
1070
     3
1070
   275
1070
     0
1070
   284
1070
     0
1070
   289
1070
     3
1070
   340
1005
6B
1070
   371
1070
    -1
1070
   372
1070
    -1
1002
}
  0
DIMENSION
  5
7A7A
330
1F
100
AcDbEntity
  8
AM_5
100
AcDbDimension
  2
*D11
 10
15.43101752464842
 20
-22.999999999996
 30
0.0
 11
12.33101752464843
 21
0.0000000000019996
 31
0.0
 70
    32
  1
%%c<>
  3
AM_JIS$0
100
AcDbAlignedDimension
 13
-10.79999945561701
 23
23.0
 33
0.0
 14
-10.79999923706003
 24
-22.99999999999599
 34
0.0
 50
90.0
100
AcDbRotatedDimension
1001
GENIUS_GENDTOL_13
1000

1000
h7
1000

1040
0.0
1001
ACAD
1000
DSTYLE
1002
{
1070
   287
1070
     3
1070
    42
1040
1.0
1070
    43
1040
12.0
1070
    48
1040
0.1
1070
    78
1070
     8
1070
   140
1040
3.2
1070
   176
1070
   256
1070
   177
1070
   256
1070
   271
1070
     3
1070
   272
1070
     3
1070
   275
1070
     0
1070
   284
1070
     0
1070
   289
1070
     3
1070
   340
1005
6B
1070
   371
1070
    -1
1070
   372
1070
    -1
1002
}
  0
DIMENSION
  5
7BB7
330
1F
100
AcDbEntity
  8
AM_5
100
AcDbDimension
  2
*D12
 10
-42.00000000000005
 20
-64.00001093408992
 30
0.0
 11
-46.00000000000005
 21
-60.90001093408991
 31
0.0
 70
    32
  1
<>
  3
AM_JIS$0
100
AcDbAlignedDimension
 13
-50.00000000000006
 23
-32.99999618530302
 33
0.0
 14
-42.00000000000005
 24
-6.35000610350599
 34
0.0
 50
0.0000000000001132
100
AcDbRotatedDimension
1001
GENIUS_GENDTOL_13
1000

1000
h7
1000

1040
0.0
1001
ACAD
1000
DSTYLE
1002
{
1070
   287
1070
     5
1070
    42
1040
1.0
1070
    43
1040
12.0
1070
    48
1040
0.1
1070
    78
1070
     8
1070
   140
1040
3.2
1070
   176
1070
   256
1070
   177
1070
   256
1070
   271
1070
     3
1070
   272
1070
     3
1070
   275
1070
     0
1070
   279
1070
     2
1070
   284
1070
     0
1070
   289
1070
     3
1070
   340
1005
6B
1070
   371
1070
    -1
1070
   372
1070
    -1
1002
}
  0
VIEWPORT
  5
110
330
101
100
AcDbEntity
 67
     1
  8
0
100
AcDbViewport
 10
420.5
 20
297.0
 30
0.0
 40
948.9782706766916
 41
628.452
 68
     1
 69
     1
1001
ACAD
1000
MVIEW
1002
{
1070
    16
1010
0.0
1020
0.0
1030
0.0
1010
0.0
1020
0.0
1030
1.0
1040
0.0
1040
628.452
1040
420.5
1040
297.0
1040
50.0
1040
0.0
1040
0.0
1070
     0
1070
   100
1070
     1
1070
     1
1070
     0
1070
     0
1070
     0
1070
     0
1040
0.0
1040
0.0
1040
0.0
1040
10.0
1040
10.0
1040
10.0
1040
10.0
1070
     0
1002
{
1002
}
1002
}
  0
ENDSEC
  0
SECTION
  2
OBJECTS
  0
DICTIONARY
  5
C
330
0
100
AcDbDictionary
  3
ACAD_GROUP
350
D
  3
ACAD_LAYOUT
350
1A
  3
ACAD_MLINESTYLE
350
17
  3
ACAD_PLOTSETTINGS
350
19
  3
ACAD_PLOTSTYLENAME
350
E
  3
ACDBVARIABLEDICTIONARY
350
34
  3
ACMDICTIONARY
350
43
  3
AMG
350
2B
  3
AMGSNAPSETTINGS
350
6E
  3
DWGPROPS
350
7CFE
  3
ACDBHEADERROUNDTRIPXREC
350
7D0A
  0
DICTIONARY
  5
74
330
1F
100
AcDbDictionary
280
     1
  3
ACAD_INDEX
360
7D00
  3
ACAD_LAYOUTSELFREF
360
7D2D
  0
DICTIONARY
  5
7D32
330
101
100
AcDbDictionary
280
     1
  3
ACAD_LAYOUTSELFREF
360
7D33
  0
DICTIONARY
  5
D
102
{ACAD_REACTORS
330
C
102
}
330
C
100
AcDbDictionary
  0
DICTIONARY
  5
1A
102
{ACAD_REACTORS
330
C
102
}
330
C
100
AcDbDictionary
  0
DICTIONARY
  5
17
102
{ACAD_REACTORS
330
C
102
}
330
C
100
AcDbDictionary
  3
STANDARD
350
18
  0
DICTIONARY
  5
19
102
{ACAD_REACTORS
330
C
102
}
330
C
100
AcDbDictionary
  0
ACDBDICTIONARYWDFLT
  5
E
102
{ACAD_REACTORS
330
C
102
}
330
C
100
AcDbDictionary
281
     1
  3
Normal
350
F
100
AcDbDictionaryWithDefault
340
F
  0
DICTIONARY
  5
34
102
{ACAD_REACTORS
330
C
102
}
330
C
100
AcDbDictionary
  3
INDEXCTL
350
35
  3
SORTENTS
350
B5E
  0
DICTIONARY
  5
43
102
{ACAD_REACTORS
330
C
102
}
330
C
100
AcDbDictionary
  3
ACMSTDDICTIONARY
350
260
  0
DICTIONARY
  5
2B
102
{ACAD_REACTORS
330
C
102
}
330
C
100
AcDbDictionary
  3
ACMGSETTINGS
350
2C
  0
DICTIONARY
  5
6E
102
{ACAD_REACTORS
330
C
102
}
330
C
100
AcDbDictionary
  0
XRECORD
  5
7CFE
102
{ACAD_REACTORS
330
C
102
}
330
C
100
AcDbXrecord
  1
DWGPROPS COOKIE
  2

  3

  4

  6

  7

  8

  9

300
AmdtFileType=82
301
=
302
=
303
=
304
=
305
=
306
=
307
=
308
=
309
=
 40
0.3767880439814815
 41
2452836.771637361
 42
2453076.597101956
  1

 90
        1
  0
DICTIONARY
  5
7D0A
102
{ACAD_REACTORS
330
C
102
}
330
C
100
AcDbDictionary
  3
TSTACKALIGN
350
7D0B
  3
TSTACKSIZE
350
7D0C
  3
HYPERLINKBASE
350
7D0D
  3
STYLESHEET
350
7D0E
  3
LAYOUTDICT
350
7D0F
  3
PLOTSETDICT
350
7D10
  3
PLOTSTYLNAMDICT
350
7D11
  3
LWETCUNION
350
7D12
  3
INSUNITS
350
7D13
  3
CEPSNTYPE
350
7D14
  3
FINGERPRINTGUID
350
7D15
  3
VERSIONGUID
350
7D16
  3
PSVPSCALE
350
7D17
  3
DIMSTYLEDATA
350
7D18
  3
PUCSORTHOREF
350
7D19
  3
PUCSORTHOVIEW
350
7D1A
  3
PUCSBASE
350
7D1B
  3
PUCSORGTOP
350
7D1C
  3
PUCSORGBOTTOM
350
7D1D
  3
PUCSORGLEFT
350
7D1E
  3
PUCSORGRIGHT
350
7D1F
  3
PUCSORGFRONT
350
7D20
  3
PUCSORGBACK
350
7D21
  3
UCSORTHOREF
350
7D22
  3
UCSORTHOVIEW
350
7D23
  3
UCSBASE
350
7D24
  3
UCSORGTOP
350
7D25
  3
UCSORGBOTTOM
350
7D26
  3
UCSORGLEFT
350
7D27
  3
UCSORGRIGHT
350
7D28
  3
UCSORGFRONT
350
7D29
  3
UCSORGBACK
350
7D2A
  0
DICTIONARY
  5
7D00
102
{ACAD_REACTORS
330
74
102
}
330
74
100
AcDbDictionary
  3
*A1
350
7D01
  0
XRECORD
  5
7D2D
102
{ACAD_REACTORS
330
74
102
}
330
74
100
AcDbXrecord
340
1F
  0
XRECORD
  5
7D33
102
{ACAD_REACTORS
330
7D32
102
}
330
7D32
100
AcDbXrecord
340
101
  0
MLINESTYLE
  5
18
102
{ACAD_REACTORS
330
17
102
}
330
17
100
AcDbMlineStyle
  2
STANDARD
 70
     0
  3

 62
   256
 51
90.0
 52
90.0
 71
     2
 49
0.5
 62
   256
  6
BYLAYER
 49
-0.5
 62
   256
  6
BYLAYER
  0
ACDBPLACEHOLDER
  5
F
102
{ACAD_REACTORS
330
E
102
}
330
E
100
AcDbPlaceHolder
280
     0
  0
DICTIONARYVAR
  5
35
102
{ACAD_REACTORS
330
34
102
}
330
34
100
DictionaryVariables
280
     0
  1
1
  0
DICTIONARYVAR
  5
B5E
102
{ACAD_REACTORS
330
34
102
}
330
34
100
DictionaryVariables
280
     0
  1
96
  0
DICTIONARY
  5
260
102
{ACAD_REACTORS
330
43
102
}
330
43
100
AcDbDictionary
  0
DICTIONARY
  5
2C
102
{ACAD_REACTORS
330
2B
102
}
330
2B
100
AcDbDictionary
  3
DWGSETTINGS
350
2D
  0
XRECORD
  5
7D0B
102
{ACAD_REACTORS
330
7D0A
102
}
330
7D0A
100
AcDbXrecord
 90
        1
  0
XRECORD
  5
7D0C
102
{ACAD_REACTORS
330
7D0A
102
}
330
7D0A
100
AcDbXrecord
 90
       70
  0
XRECORD
  5
7D0D
102
{ACAD_REACTORS
330
7D0A
102
}
330
7D0A
100
AcDbXrecord
  1

  0
XRECORD
  5
7D0E
102
{ACAD_REACTORS
330
7D0A
102
}
330
7D0A
100
AcDbXrecord
  1
ASAMI.ctb
  0
XRECORD
  5
7D0F
102
{ACAD_REACTORS
330
7D0A
102
}
330
7D0A
100
AcDbXrecord
340
1A
  0
XRECORD
  5
7D10
102
{ACAD_REACTORS
330
7D0A
102
}
330
7D0A
100
AcDbXrecord
340
19
  0
XRECORD
  5
7D11
102
{ACAD_REACTORS
330
7D0A
102
}
330
7D0A
100
AcDbXrecord
340
E
  0
XRECORD
  5
7D12
102
{ACAD_REACTORS
330
7D0A
102
}
330
7D0A
100
AcDbXrecord
 90
    10781
  0
XRECORD
  5
7D13
102
{ACAD_REACTORS
330
7D0A
102
}
330
7D0A
100
AcDbXrecord
 90
        4
  0
XRECORD
  5
7D14
102
{ACAD_REACTORS
330
7D0A
102
}
330
7D0A
100
AcDbXrecord
 90
        0
  0
XRECORD
  5
7D15
102
{ACAD_REACTORS
330
7D0A
102
}
330
7D0A
100
AcDbXrecord
  1
{AFB28963-8C59-40AE-9337-C84526B81ACE}
  0
XRECORD
  5
7D16
102
{ACAD_REACTORS
330
7D0A
102
}
330
7D0A
100
AcDbXrecord
  1
{5FD74D87-0D21-4BC7-B4B3-979C4DFEC90C}
  0
XRECORD
  5
7D17
102
{ACAD_REACTORS
330
7D0A
102
}
330
7D0A
100
AcDbXrecord
 40
0.0
  0
XRECORD
  5
7D18
102
{ACAD_REACTORS
330
7D0A
102
}
330
7D0A
100
AcDbXrecord
1000
DSTYLE
1002
{
1070
    79
 70
     2
1070
   341
340
59
1070
   342
340
59
1070
   371
 70
    -1
1070
   372
 70
    -1
1002
}
  0
XRECORD
  5
7D19
102
{ACAD_REACTORS
330
7D0A
102
}
330
7D0A
100
AcDbXrecord
340
0
  0
XRECORD
  5
7D1A
102
{ACAD_REACTORS
330
7D0A
102
}
330
7D0A
100
AcDbXrecord
 70
     0
  0
XRECORD
  5
7D1B
102
{ACAD_REACTORS
330
7D0A
102
}
330
7D0A
100
AcDbXrecord
340
0
  0
XRECORD
  5
7D1C
102
{ACAD_REACTORS
330
7D0A
102
}
330
7D0A
100
AcDbXrecord
 10
0.0
 20
0.0
 30
0.0
  0
XRECORD
  5
7D1D
102
{ACAD_REACTORS
330
7D0A
102
}
330
7D0A
100
AcDbXrecord
 10
0.0
 20
0.0
 30
0.0
  0
XRECORD
  5
7D1E
102
{ACAD_REACTORS
330
7D0A
102
}
330
7D0A
100
AcDbXrecord
 10
0.0
 20
0.0
 30
0.0
  0
XRECORD
  5
7D1F
102
{ACAD_REACTORS
330
7D0A
102
}
330
7D0A
100
AcDbXrecord
 10
0.0
 20
0.0
 30
0.0
  0
XRECORD
  5
7D20
102
{ACAD_REACTORS
330
7D0A
102
}
330
7D0A
100
AcDbXrecord
 10
0.0
 20
0.0
 30
0.0
  0
XRECORD
  5
7D21
102
{ACAD_REACTORS
330
7D0A
102
}
330
7D0A
100
AcDbXrecord
 10
0.0
 20
0.0
 30
0.0
  0
XRECORD
  5
7D22
102
{ACAD_REACTORS
330
7D0A
102
}
330
7D0A
100
AcDbXrecord
340
0
  0
XRECORD
  5
7D23
102
{ACAD_REACTORS
330
7D0A
102
}
330
7D0A
100
AcDbXrecord
 70
     0
  0
XRECORD
  5
7D24
102
{ACAD_REACTORS
330
7D0A
102
}
330
7D0A
100
AcDbXrecord
340
0
  0
XRECORD
  5
7D25
102
{ACAD_REACTORS
330
7D0A
102
}
330
7D0A
100
AcDbXrecord
 10
0.0
 20
0.0
 30
0.0
  0
XRECORD
  5
7D26
102
{ACAD_REACTORS
330
7D0A
102
}
330
7D0A
100
AcDbXrecord
 10
0.0
 20
0.0
 30
0.0
  0
XRECORD
  5
7D27
102
{ACAD_REACTORS
330
7D0A
102
}
330
7D0A
100
AcDbXrecord
 10
0.0
 20
0.0
 30
0.0
  0
XRECORD
  5
7D28
102
{ACAD_REACTORS
330
7D0A
102
}
330
7D0A
100
AcDbXrecord
 10
0.0
 20
0.0
 30
0.0
  0
XRECORD
  5
7D29
102
{ACAD_REACTORS
330
7D0A
102
}
330
7D0A
100
AcDbXrecord
 10
0.0
 20
0.0
 30
0.0
  0
XRECORD
  5
7D2A
102
{ACAD_REACTORS
330
7D0A
102
}
330
7D0A
100
AcDbXrecord
 10
0.0
 20
0.0
 30
0.0
  0
LAYER_INDEX
  5
7D01
102
{ACAD_REACTORS
330
7D00
102
}
330
7D00
100
AcDbIndex
 40
2453152.362904942
100
AcDbLayerIndex
  8
0
360
7D02
 90
        0
  8
AM_11
360
7D03
 90
        5
  8
AM_7
360
7D04
 90
        1
  8
AM_5
360
7D05
 90
        8
  8
Defpoints
360
7D06
 90
        0
  8
AM_6
360
7D07
 90
        1
  8
AM_0
360
7D08
 90
       67
  0
XRECORD
  5
2D
102
{ACAD_REACTORS
330
2C
102
}
330
2C
100
AcDbXrecord
  1
VERSION
140
15.0
  1
PRODUCT
  2
AutoCAD Mechanical 2000
  0
IDBUFFER
  5
7D02
330
0
100
AcDbIdBuffer
  0
IDBUFFER
  5
7D03
330
0
100
AcDbIdBuffer
330
7441
330
74A3
330
7594
330
7595
330
7596
  0
IDBUFFER
  5
7D04
330
0
100
AcDbIdBuffer
330
743C
  0
IDBUFFER
  5
7D05
330
0
100
AcDbIdBuffer
330
74B6
330
74B7
330
74B9
330
74BA
330
7957
330
7A79
330
7A7A
330
7BB7
  0
IDBUFFER
  5
7D06
330
0
100
AcDbIdBuffer
  0
IDBUFFER
  5
7D07
330
0
100
AcDbIdBuffer
330
E5A
  0
IDBUFFER
  5
7D08
330
0
100
AcDbIdBuffer
330
74A1
330
74A2
330
74A4
330
74A5
330
74A6
330
74A7
330
74A8
330
74A9
330
74AA
330
74AB
330
74AC
330
74AD
330
74AE
330
74AF
330
74B0
330
74B1
330
74B2
330
74B3
330
74B4
330
7426
330
7427
330
7428
330
7429
330
742A
330
742B
330
742C
330
742D
330
742F
330
7430
330
7433
330
7434
330
7435
330
7436
330
7437
330
7438
330
7439
330
743A
330
743B
330
743D
330
743E
330
743F
330
7440
330
7442
330
7443
330
7444
330
7445
330
7446
330
7447
330
7448
330
7449
330
744A
330
744B
330
744C
330
744D
330
744E
330
744F
330
7450
330
7451
330
7452
330
7453
330
7454
330
7455
330
7456
330
749D
330
749E
330
749F
330
74A0
  0
ENDSEC
  0
EOF
