  0
SECTION
  2
HEADER
  9
$ACADVER
  1
AC1015
  9
$ACADMAINTVER
 70
    20
  9
$DWGCODEPAGE
  3
ANSI_932
  9
$INSBASE
 10
0.0
 20
0.0
 30
0.0
  9
$EXTMIN
 10
-86.08815680516125
 20
-101.0421211028656
 30
-0.0000000000022887
  9
$EXTMAX
 10
140.4951748911173
 20
25.01018322484367
 30
0.0000000000000001
  9
$LIMMIN
 10
-213.3024795535801
 20
-90.95588373145028
  9
$LIMMAX
 10
143.3961809310303
 20
133.343975728676
  9
$ORTHOMODE
 70
     1
  9
$REGENMODE
 70
     1
  9
$FILLMODE
 70
     1
  9
$QTEXTMODE
 70
     0
  9
$MIRRTEXT
 70
     1
  9
$LTSCALE
 40
1.0
  9
$ATTMODE
 70
     1
  9
$TEXTSIZE
 40
2.5
  9
$TRACEWID
 40
1.0
  9
$TEXTSTYLE
  7
STANDARD
  9
$CLAYER
  8
AM_0
  9
$CELTYPE
  6
BYLAYER
  9
$CECOLOR
 62
   256
  9
$CELTSCALE
 40
1.0
  9
$DISPSILH
 70
     0
  9
$DIMSCALE
 40
1.0
  9
$DIMASZ
 40
2.5
  9
$DIMEXO
 40
0.0
  9
$DIMDLI
 40
10.0
  9
$DIMRND
 40
0.0
  9
$DIMDLE
 40
0.0
  9
$DIMEXE
 40
1.0
  9
$DIMTP
 40
0.1
  9
$DIMTM
 40
0.1000000001
  9
$DIMTXT
 40
3.799999999999998
  9
$DIMCEN
 40
0.0
  9
$DIMTSZ
 40
0.0
  9
$DIMTOL
 70
     0
  9
$DIMLIM
 70
     0
  9
$DIMTIH
 70
     0
  9
$DIMTOH
 70
     0
  9
$DIMSE1
 70
     0
  9
$DIMSE2
 70
     0
  9
$DIMTAD
 70
     3
  9
$DIMZIN
 70
     9
  9
$DIMBLK
  1
OPEN30
  9
$DIMASO
 70
     1
  9
$DIMSHO
 70
     1
  9
$DIMPOST
  1

  9
$DIMAPOST
  1
"
  9
$DIMALT
 70
     0
  9
$DIMALTD
 70
     2
  9
$DIMALTF
 40
0.0393701
  9
$DIMLFAC
 40
1.0
  9
$DIMTOFL
 70
     1
  9
$DIMTVP
 40
0.0
  9
$DIMTIX
 70
     0
  9
$DIMSOXD
 70
     0
  9
$DIMSAH
 70
     0
  9
$DIMBLK1
  1

  9
$DIMBLK2
  1

  9
$DIMSTYLE
  2
AM_JIS
  9
$DIMCLRD
 70
   256
  9
$DIMCLRE
 70
   256
  9
$DIMCLRT
 70
     2
  9
$DIMTFAC
 40
0.71
  9
$DIMGAP
 40
1.5
  9
$DIMJUST
 70
     0
  9
$DIMSD1
 70
     0
  9
$DIMSD2
 70
     0
  9
$DIMTOLJ
 70
     0
  9
$DIMTZIN
 70
     8
  9
$DIMALTZ
 70
     0
  9
$DIMALTTZ
 70
     0
  9
$DIMUPT
 70
     0
  9
$DIMDEC
 70
     2
  9
$DIMTDEC
 70
     2
  9
$DIMALTU
 70
     2
  9
$DIMALTTD
 70
     2
  9
$DIMTXSTY
  7
STANDARD
  9
$DIMAUNIT
 70
     1
  9
$DIMADEC
 70
     0
  9
$DIMALTRND
 40
0.0
  9
$DIMAZIN
 70
     2
  9
$DIMDSEP
 70
    46
  9
$DIMATFIT
 70
     3
  9
$DIMFRAC
 70
     0
  9
$DIMLDRBLK
  1
OPEN30
  9
$DIMLUNIT
 70
     2
  9
$DIMLWD
 70
    -1
  9
$DIMLWE
 70
    -1
  9
$DIMTMOVE
 70
     0
  9
$LUNITS
 70
     2
  9
$LUPREC
 70
     2
  9
$SKETCHINC
 40
1.0
  9
$FILLETRAD
 40
0.0
  9
$AUNITS
 70
     1
  9
$AUPREC
 70
     5
  9
$MENU
  1
.
  9
$ELEVATION
 40
0.0
  9
$PELEVATION
 40
0.0
  9
$THICKNESS
 40
0.0
  9
$LIMCHECK
 70
     0
  9
$CHAMFERA
 40
0.5
  9
$CHAMFERB
 40
0.5
  9
$CHAMFERC
 40
20.0
  9
$CHAMFERD
 40
0.0
  9
$SKPOLY
 70
     0
  9
$TDCREATE
 40
2451943.610431666
  9
$TDUCREATE
 40
2451943.235431667
  9
$TDUPDATE
 40
2455610.701988380
  9
$TDUUPDATE
 40
2455610.326988379
  9
$TDINDWG
 40
0.4177404630
  9
$TDUSRTIMER
 40
0.4177402894
  9
$USRTIMER
 70
     1
  9
$ANGBASE
 50
0.0
  9
$ANGDIR
 70
     0
  9
$PDMODE
 70
     0
  9
$PDSIZE
 40
0.0
  9
$PLINEWID
 40
0.0
  9
$SPLFRAME
 70
     0
  9
$SPLINETYPE
 70
     6
  9
$SPLINESEGS
 70
     8
  9
$HANDSEED
  5
8488
  9
$SURFTAB1
 70
     6
  9
$SURFTAB2
 70
     6
  9
$SURFTYPE
 70
     6
  9
$SURFU
 70
     6
  9
$SURFV
 70
     6
  9
$UCSBASE
  2

  9
$UCSNAME
  2

  9
$UCSORG
 10
0.0
 20
0.0
 30
0.0
  9
$UCSXDIR
 10
1.0
 20
0.0
 30
0.0
  9
$UCSYDIR
 10
0.0
 20
1.0
 30
0.0
  9
$UCSORTHOREF
  2

  9
$UCSORTHOVIEW
 70
     0
  9
$UCSORGTOP
 10
0.0
 20
0.0
 30
0.0
  9
$UCSORGBOTTOM
 10
0.0
 20
0.0
 30
0.0
  9
$UCSORGLEFT
 10
0.0
 20
0.0
 30
0.0
  9
$UCSORGRIGHT
 10
0.0
 20
0.0
 30
0.0
  9
$UCSORGFRONT
 10
0.0
 20
0.0
 30
0.0
  9
$UCSORGBACK
 10
0.0
 20
0.0
 30
0.0
  9
$PUCSBASE
  2

  9
$PUCSNAME
  2

  9
$PUCSORG
 10
0.0
 20
0.0
 30
0.0
  9
$PUCSXDIR
 10
1.0
 20
0.0
 30
0.0
  9
$PUCSYDIR
 10
0.0
 20
1.0
 30
0.0
  9
$PUCSORTHOREF
  2

  9
$PUCSORTHOVIEW
 70
     0
  9
$PUCSORGTOP
 10
0.0
 20
0.0
 30
0.0
  9
$PUCSORGBOTTOM
 10
0.0
 20
0.0
 30
0.0
  9
$PUCSORGLEFT
 10
0.0
 20
0.0
 30
0.0
  9
$PUCSORGRIGHT
 10
0.0
 20
0.0
 30
0.0
  9
$PUCSORGFRONT
 10
0.0
 20
0.0
 30
0.0
  9
$PUCSORGBACK
 10
0.0
 20
0.0
 30
0.0
  9
$USERI1
 70
     0
  9
$USERI2
 70
     0
  9
$USERI3
 70
     0
  9
$USERI4
 70
     0
  9
$USERI5
 70
     0
  9
$USERR1
 40
0.0
  9
$USERR2
 40
0.0
  9
$USERR3
 40
0.0
  9
$USERR4
 40
0.0
  9
$USERR5
 40
0.0
  9
$WORLDVIEW
 70
     1
  9
$SHADEDGE
 70
     3
  9
$SHADEDIF
 70
    70
  9
$TILEMODE
 70
     1
  9
$MAXACTVP
 70
    64
  9
$PINSBASE
 10
0.0
 20
0.0
 30
0.0
  9
$PLIMCHECK
 70
     0
  9
$PEXTMIN
 10
1.000000000000000E+20
 20
1.000000000000000E+20
 30
1.000000000000000E+20
  9
$PEXTMAX
 10
-1.000000000000000E+20
 20
-1.000000000000000E+20
 30
-1.000000000000000E+20
  9
$PLIMMIN
 10
0.0
 20
0.0
  9
$PLIMMAX
 10
420.0
 20
297.0
  9
$UNITMODE
 70
     0
  9
$VISRETAIN
 70
     1
  9
$PLINEGEN
 70
     0
  9
$PSLTSCALE
 70
     1
  9
$TREEDEPTH
 70
  3020
  9
$CMLSTYLE
  2
STANDARD
  9
$CMLJUST
 70
     0
  9
$CMLSCALE
 40
20.0
  9
$PROXYGRAPHICS
 70
     1
  9
$MEASUREMENT
 70
     1
  9
$CELWEIGHT
370
    -1
  9
$ENDCAPS
280
     0
  9
$JOINSTYLE
280
     0
  9
$LWDISPLAY
290
     0
  9
$INSUNITS
 70
     4
  9
$HYPERLINKBASE
  1

  9
$STYLESHEET
  1
sei_cad.ctb
  9
$XEDIT
290
     1
  9
$CEPSNTYPE
380
     0
  9
$PSTYLEMODE
290
     1
  9
$FINGERPRINTGUID
  2
{C77AB3BE-9CA2-11D3-BAF3-006094EB760E}
  9
$VERSIONGUID
  2
{B40455FC-EB89-49C6-B857-130A10CDEA83}
  9
$EXTNAMES
290
     1
  9
$PSVPSCALE
 40
0.0
  9
$OLESTARTUP
290
     0
  0
ENDSEC
  0
SECTION
  2
CLASSES
  0
CLASS
  1
ACDBDICTIONARYWDFLT
  2
AcDbDictionaryWithDefault
  3
ObjectDBX Classes
 90
        0
280
     0
281
     0
  0
CLASS
  1
ACDBPLACEHOLDER
  2
AcDbPlaceHolder
  3
ObjectDBX Classes
 90
        0
280
     0
281
     0
  0
CLASS
  1
LAYOUT
  2
AcDbLayout
  3
ObjectDBX Classes
 90
        0
280
     0
281
     0
  0
CLASS
  1
ACME_DOCUMENT
  2
AcMeDbDoc
  3
AcMeServices
 90
        0
280
     0
281
     0
  0
CLASS
  1
ACMESCOPE
  2
AcMeScope
  3
AcMeServices
 90
        0
280
     0
281
     0
  0
CLASS
  1
ACMECOMMANDHISTORY
  2
AcMeCommandHistory
  3
AcMeServices
 90
        0
280
     0
281
     0
  0
CLASS
  1
DICTIONARYVAR
  2
AcDbDictionaryVar
  3
ObjectDBX Classes
 90
        0
280
     0
281
     0
  0
CLASS
  1
ACIMSYSVARMAN
  2
AcImSysVarManager
  3
AcMeServices
 90
        0
280
     0
281
     0
  0
CLASS
  1
ACIMREALSYSVAR
  2
AcImRealSysVar
  3
AcMeServices
 90
        0
280
     0
281
     0
  0
CLASS
  1
ACIMINTSYSVAR
  2
AcImIntSysVar
  3
AcMeServices
 90
        0
280
     0
281
     0
  0
CLASS
  1
ACMEDRAWINGMAN
  2
AcMeDrawingMan
  3
AcMeServices
 90
        0
280
     0
281
     0
  0
CLASS
  1
ACMEVIEW
  2
AcMeView
  3
AcMeServices
 90
        0
280
     0
281
     0
  0
CLASS
  1
ACDBENTITYCACHE
  2
AcMeEntityCache
  3
AcMeServices
 90
        0
280
     0
281
     0
  0
CLASS
  1
GSMANAGER
  2
AcMeGSManager
  3
AcMeServices
 90
        0
280
     0
281
     0
  0
CLASS
  1
AMDTINTERNALREACTOR
  2
AmdtInternalReactor
  3
AcMeServices
 90
        0
280
     0
281
     0
  0
CLASS
  1
ACMESTATEMGR
  2
AcMeStateMgr
  3
AcMeServices
 90
        0
280
     0
281
     0
  0
CLASS
  1
ACME_DATABASE
  2
AcMeDbDatabase
  3
AcMeServices
 90
        0
280
     0
281
     0
  0
CLASS
  1
ACRFINSADJUSTERMGR
  2
AcRfInsAdjusterMgr
  3
AcMeServices
 90
        0
280
     0
281
     0
  0
CLASS
  1
AMGSETTINGSOBJ
  2
AmgSettingsObj
  3
"AcadM|Product Description: AutoCAD Mechanical 2000|Company: Autodesk"
 90
        0
280
     0
281
     0
  0
CLASS
  1
AMGOBJPROPCFG
  2
AmgObjPropCfg
  3
"AmgLay|Product Description: AutoCAD Mechanical 2000|Company: Autodesk"
 90
        1
280
     0
281
     0
  0
CLASS
  1
ACMDATADICTIONARY
  2
AcmDataDictionary
  3
"AcmSymBB|Product Description: AutoCAD Mechanical 2004 DX|Company: Autodesk"
 90
        0
280
     0
281
     0
  0
CLASS
  1
ACMDATAENTRYBLOCK
  2
AcmDataEntryBlock
  3
"AcmSymBB|Product Description: AutoCAD Mechanical 2004 DX|Company: Autodesk"
 90
        0
280
     0
281
     0
  0
CLASS
  1
ACIMSTRSYSVAR
  2
AcImStrSysVar
  3
AcMeServices
 90
        0
280
     0
281
     0
  0
CLASS
  1
ACAMGFILTERDAT
  2
AcAmgFilterDat
  3
"AcadM|Product Description: AutoCAD Mechanical 2000|Company: Autodesk"
 90
    32768
280
     0
281
     0
  0
CLASS
  1
LAYER_INDEX
  2
AcDbLayerIndex
  3
ObjectDBX Classes
 90
        0
280
     0
281
     0
  0
CLASS
  1
IDBUFFER
  2
AcDbIdBuffer
  3
ObjectDBX Classes
 90
        0
280
     0
281
     0
  0
CLASS
  1
ACMSTANDARDJIS
  2
AcmStandardJIS
  3
"Amdt_StdImp|Product Description: AutoCAD Mechanical 2004 DX|Company: Autodesk"
 90
    32768
280
     0
281
     0
  0
CLASS
  1
ACMSURFSTANDARDJIS
  2
AcmSurfTextStdJIS
  3
"Amdt_StdImp|Product Description: AutoCAD Mechanical 2004 DX|Company: Autodesk"
 90
    32768
280
     0
281
     0
  0
CLASS
  1
ACMFCFSTANDARDJIS
  2
AcmFCFStdJIS
  3
"Amdt_StdImp|Product Description: AutoCAD Mechanical 2004 DX|Company: Autodesk"
 90
    32768
280
     0
281
     0
  0
CLASS
  1
ACMWELDSTANDARDJIS
  2
AcmWeldingStdJIS
  3
"Amdt_StdImp|Product Description: AutoCAD Mechanical 2004 DX|Company: Autodesk"
 90
    32768
280
     0
281
     0
  0
CLASS
  1
ACMIDSTANDARDJIS
  2
AcmIdStdJIS
  3
"Amdt_StdImp|Product Description: AutoCAD Mechanical 2004 DX|Company: Autodesk"
 90
    32768
280
     0
281
     0
  0
CLASS
  1
ACMDATUMSTANDARDJIS
  2
AcmDatumStdJIS
  3
"Amdt_StdImp|Product Description: AutoCAD Mechanical 2004 DX|Company: Autodesk"
 90
    32768
280
     0
281
     0
  0
CLASS
  1
ACMBOMSTANDARDJIS
  2
AcmBOMStdJIS
  3
"Amdt_StdImp|Product Description: AutoCAD Mechanical 2004 DX|Company: Autodesk"
 90
    32768
280
     0
281
     0
  0
CLASS
  1
AMDTNOTE
  2
AmdtNote
  3
"AcmSymBB|Product Description: AutoCAD Mechanical 2004 DX|Company: Autodesk"
 90
    33791
280
     0
281
     1
  0
CLASS
  1
ACMDATAENTRYPART
  2
AcmDataEntryPart
  3
"AcmSymBB|Product Description: AutoCAD Mechanical 2004 DX|Company: Autodesk"
 90
    32768
280
     0
281
     0
  0
CLASS
  1
ACMPARTREF
  2
AcmPartRef
  3
"AcmSymBB|Product Description: AutoCAD Mechanical 2004 DX|Company: Autodesk"
 90
    33791
280
     0
281
     1
  0
CLASS
  1
ACDB_PROXY_ENTITY_DATA
  2
AcDbProxyEntityData
  3
ObjectDBX Classes
 90
    32768
280
     0
281
     0
  0
CLASS
  1
TABLESTYLE
  2
AcDbTableStyle
  3
ObjectDBX Classes
 90
     2047
280
     0
281
     0
  0
CLASS
  1
ACGREFMASTER
  2
AcGrefMaster
  3
AcAttribServices
 90
        0
280
     0
281
     0
  0
CLASS
  1
AM_DRAWING_MGR
  2
AcDmDwgMgr
  3
AcMechDwgViewMgmt
 90
        0
280
     0
281
     0
  0
CLASS
  1
AM_DWG_DOCUMENT
  2
AcDmDwgDocument
  3
AcMechDwgViewMgmt
 90
        0
280
     0
281
     0
  0
CLASS
  1
AM_DWG_SHEET
  2
AcDmSheet
  3
AcMechDwgViewMgmt
 90
        0
280
     0
281
     0
  0
CLASS
  1
AM_VIEWDIMPARMAP
  2
AcDmViewDimParMap
  3
AcMechDwgViewMgmt
 90
        0
280
     0
281
     0
  0
CLASS
  1
AM_DWGMGR_NAME
  2
AcDmDwgMgrName
  3
AcMechDwgViewMgmt
 90
        0
280
     0
281
     0
  0
CLASS
  1
ACGREFACADMASTER
  2
AcGrefacadMaster
  3
AcGrefServices
 90
        0
280
     0
281
     0
  0
CLASS
  1
AMDTMENUSTATEMGR
  2
AmdtMenuStateMgr
  3
McadcomServices
 90
        0
280
     0
281
     0
  0
CLASS
  1
AMDTMCOMMENUSTATE
  2
AmdtMcomMenuState
  3
McadcomServices
 90
        0
280
     0
281
     0
  0
CLASS
  1
AMIMASTER
  2
AmiMaster
  3
AmiServices
 90
        0
280
     0
281
     0
  0
CLASS
  1
MAPIAMMOUDLE
  2
MApiAmModule
  3
MApiAmServices
 90
        0
280
     0
281
     0
  0
CLASS
  1
AMDTADMENUSTATE
  2
AmdtAdMenuState
  3
DesignerServices
 90
        0
280
     0
281
     0
  0
CLASS
  1
ADAPPL
  2
AcAdAppl
  3
DesignerServices
 90
        0
280
     0
281
     0
  0
CLASS
  1
DEPMGR
  2
AcAdDepMgr
  3
DesignerServices
 90
        0
280
     0
281
     0
  0
CLASS
  1
PARAMMGR
  2
AcAdParamMgr
  3
DesignerServices
 90
        0
280
     0
281
     0
  0
CLASS
  1
PARAMSCOPE
  2
AcAdParamScope
  3
DesignerServices
 90
        0
280
     0
281
     0
  0
CLASS
  1
NAMEDAPPL
  2
AcAdNamedAppl
  3
DesignerServices
 90
        0
280
     0
281
     0
  0
CLASS
  1
AMDTDMMENUSTATE
  2
AmdtDmMenuState
  3
AcMechDwgViewMgmt
 90
        0
280
     0
281
     0
  0
CLASS
  1
AMDTAMMENUSTATE
  2
AmdtAmMenuState
  3
DesignerAssemblies
 90
        0
280
     0
281
     0
  0
CLASS
  1
ACAMPROJECT
  2
AcAmProject
  3
DesignerAssemblies
 90
        0
280
     0
281
     0
  0
CLASS
  1
ACAMGRCOMPDEF
  2
AcAmGrCompDef
  3
DesignerAssemblies
 90
        0
280
     0
281
     0
  0
CLASS
  1
ACCMCONTEXT
  2
AcCmContext
  3
DesignerAssemblies
 90
        0
280
     0
281
     0
  0
CLASS
  1
ACAMCOMPDEF
  2
AcAmCompDef
  3
DesignerAssemblies
 90
        0
280
     0
281
     0
  0
CLASS
  1
ACAMCOMPDEFMGR
  2
AcAmCompDefMgr
  3
DesignerAssemblies
 90
        0
280
     0
281
     0
  0
CLASS
  1
AMCONTEXTMGR
  2
AcAmContextMgr
  3
DesignerAssemblies
 90
        0
280
     0
281
     0
  0
CLASS
  1
ACAMCONTEXTMODELER
  2
AcAmContextModeler
  3
DesignerAssemblies
 90
        0
280
     0
281
     0
  0
CLASS
  1
CATALOGSTATE
  2
AcAmCatalogState
  3
DesignerAssemblies
 90
        0
280
     0
281
     0
  0
CLASS
  1
ACAMGRCOMPDEFSET
  2
AcAmGrCompDefSet
  3
DesignerAssemblies
 90
        0
280
     0
281
     0
  0
CLASS
  1
AMDTBROWSERDBTAB
  2
AmdtBrowserDbTab
  3
McadcomServices
 90
        0
280
     0
281
     0
  0
CLASS
  1
CBROWSERAPPOBJECT
  2
CBrowserAppObject
  3
McadcomServices
 90
        0
280
     0
281
     0
  0
CLASS
  1
DM_PLACEHOLDER
  2
AcDmSelsetPlaceholder
  3
AcMechDwgViewMgmt
 90
        0
280
     0
281
     0
  0
CLASS
  1
ACMSTANDARDISO
  2
AcmStandardISO
  3
"Amdt_StdImp|Product Description: AutoCAD Mechanical 2004 DX|Company: Autodesk"
 90
        0
280
     0
281
     0
  0
CLASS
  1
AMDTEDGESTANDARDISO13715
  2
AmdtEdgeStdISO13715
  3
"Amdt_StdImp|Product Description: AutoCAD Mechanical 2004 DX|Company: Autodesk"
 90
        0
280
     0
281
     0
  0
CLASS
  1
ACMSURFSTANDARDISO
  2
AcmSurfTextStdISO
  3
"Amdt_StdImp|Product Description: AutoCAD Mechanical 2004 DX|Company: Autodesk"
 90
        0
280
     0
281
     0
  0
CLASS
  1
ACMFCFSTANDARDISO
  2
AcmFCFStdISO
  3
"Amdt_StdImp|Product Description: AutoCAD Mechanical 2004 DX|Company: Autodesk"
 90
        0
280
     0
281
     0
  0
CLASS
  1
ACMWELDSTANDARDISO
  2
AcmWeldingStdISO
  3
"Amdt_StdImp|Product Description: AutoCAD Mechanical 2004 DX|Company: Autodesk"
 90
        0
280
     0
281
     0
  0
CLASS
  1
ACMIDSTANDARDISO
  2
AcmIdStdISO
  3
"Amdt_StdImp|Product Description: AutoCAD Mechanical 2004 DX|Company: Autodesk"
 90
        0
280
     0
281
     0
  0
CLASS
  1
ACMDATUMSTANDARDISO
  2
AcmDatumStdISO
  3
"Amdt_StdImp|Product Description: AutoCAD Mechanical 2004 DX|Company: Autodesk"
 90
        0
280
     0
281
     0
  0
CLASS
  1
ACMBOMSTANDARDISO
  2
AcmBOMStdISO
  3
"Amdt_StdImp|Product Description: AutoCAD Mechanical 2004 DX|Company: Autodesk"
 90
        0
280
     0
281
     0
  0
CLASS
  1
ACMDETAILSTANDARDISO
  2
AmdtDetailSymStdISO
  3
"Amdt_StdImp|Product Description: AutoCAD Mechanical 2004 DX|Company: Autodesk"
 90
        0
280
     0
281
     0
  0
CLASS
  1
ACMSECTIONSTANDARDISO
  2
AmdtSectionSymStdISO
  3
"Amdt_StdImp|Product Description: AutoCAD Mechanical 2004 DX|Company: Autodesk"
 90
        0
280
     0
281
     0
  0
CLASS
  1
ACMCENTERLINESTANDARDISO
  2
AmdtCenterLineStdISO
  3
"Amdt_StdImp|Product Description: AutoCAD Mechanical 2004 DX|Company: Autodesk"
 90
        0
280
     0
281
     0
  0
CLASS
  1
ACMTHREADLINESTANDARDISO
  2
AmdtThreadLineStdISO
  3
"Amdt_StdImp|Product Description: AutoCAD Mechanical 2004 DX|Company: Autodesk"
 90
        0
280
     0
281
     0
  0
CLASS
  1
ACMNOTESTANDARDISO
  2
AmdtNoteStdISO
  3
"Amdt_StdImp|Product Description: AutoCAD Mechanical 2004 DX|Company: Autodesk"
 90
        0
280
     0
281
     0
  0
CLASS
  1
AMDTNOTETEMPLATEDB
  2
AmdtNoteTemplateDB
  3
AMDT_STDIMP_MODULE_NAME
 90
        0
280
     0
281
     0
  0
CLASS
  1
ACAMGLAYSTD
  2
AcAmgLayStd
  3
"AcAmgLayStd|Product Description: AutoCAD Mechanical 2000|Company: Autodesk"
 90
        0
280
     0
281
     0
  0
CLASS
  1
ACAMGDIMSTD
  2
AcAmgDimStd
  3
"AcAmgDimStd|Product Description: AutoCAD Mechanical 2000|Company: Autodesk"
 90
        0
280
     0
281
     0
  0
CLASS
  1
ACAMGHOLECHARTSTDISO
  2
AcAmgHoleChartStdISO
  3
ACMSYMBB_MODULE_NAME
 90
        0
280
     0
281
     0
  0
CLASS
  1
ACAMGTITLESTD
  2
AcAmgTitleStd
  3
"TITLEAPP"
 90
        0
280
     0
281
     0
  0
CLASS
  1
SORTENTSTABLE
  2
AcDbSortentsTable
  3
ObjectDBX Classes
 90
        0
280
     0
281
     0
  0
CLASS
  1
ACMSTANDARDANSI
  2
AcmStandardANSI
  3
"Amdt_StdImp|Product Description: AutoCAD Mechanical 2004 DX|Company: Autodesk"
 90
        0
280
     0
281
     0
  0
CLASS
  1
ACMSURFSTANDARDANSI
  2
AcmSurfTextStdANSI
  3
"Amdt_StdImp|Product Description: AutoCAD Mechanical 2004 DX|Company: Autodesk"
 90
        0
280
     0
281
     0
  0
CLASS
  1
ACMFCFSTANDARDANSI
  2
AcmFCFStdANSI
  3
"Amdt_StdImp|Product Description: AutoCAD Mechanical 2004 DX|Company: Autodesk"
 90
        0
280
     0
281
     0
  0
CLASS
  1
ACMWELDSTANDARDANSI
  2
AcmWeldingStdANSI
  3
"Amdt_StdImp|Product Description: AutoCAD Mechanical 2004 DX|Company: Autodesk"
 90
        0
280
     0
281
     0
  0
CLASS
  1
ACMIDSTANDARDANSI
  2
AcmIdStdANSI
  3
"Amdt_StdImp|Product Description: AutoCAD Mechanical 2004 DX|Company: Autodesk"
 90
        0
280
     0
281
     0
  0
CLASS
  1
ACMDATUMSTANDARDANSI
  2
AcmDatumStdANSI
  3
"Amdt_StdImp|Product Description: AutoCAD Mechanical 2004 DX|Company: Autodesk"
 90
        0
280
     0
281
     0
  0
CLASS
  1
ACMBOMSTANDARDANSI
  2
AcmBOMStdANSI
  3
"Amdt_StdImp|Product Description: AutoCAD Mechanical 2004 DX|Company: Autodesk"
 90
        0
280
     0
281
     0
  0
CLASS
  1
ACMDETAILSTANDARDANSI
  2
AmdtDetailSymStdANSI
  3
"Amdt_StdImp|Product Description: AutoCAD Mechanical 2004 DX|Company: Autodesk"
 90
        0
280
     0
281
     0
  0
CLASS
  1
ACMSECTIONSTANDARDANSI
  2
AmdtSectionSymStdANSI
  3
"Amdt_StdImp|Product Description: AutoCAD Mechanical 2004 DX|Company: Autodesk"
 90
        0
280
     0
281
     0
  0
CLASS
  1
ACMCENTERLINESTANDARDANSI
  2
AmdtCenterLineStdANSI
  3
"Amdt_StdImp|Product Description: AutoCAD Mechanical 2004 DX|Company: Autodesk"
 90
        0
280
     0
281
     0
  0
CLASS
  1
ACMTHREADLINESTANDARDANSI
  2
AmdtThreadLineStdANSI
  3
"Amdt_StdImp|Product Description: AutoCAD Mechanical 2004 DX|Company: Autodesk"
 90
        0
280
     0
281
     0
  0
CLASS
  1
ACMNOTESTANDARDANSI
  2
AmdtNoteStdANSI
  3
"Amdt_StdImp|Product Description: AutoCAD Mechanical 2004 DX|Company: Autodesk"
 90
        0
280
     0
281
     0
  0
CLASS
  1
ACAMGHOLECHARTSTDANSI
  2
AcAmgHoleChartStdANSI
  3
ACMSYMBB_MODULE_NAME
 90
        0
280
     0
281
     0
  0
CLASS
  1
ACRFATTGENMGR
  2
AcRfAttGeneralMgr
  3
AcAttribServices
 90
        0
280
     0
281
     0
  0
ENDSEC
  0
SECTION
  2
TABLES
  0
TABLE
  2
VPORT
  5
8
330
0
100
AcDbSymbolTable
 70
   242
  0
VPORT
  5
8481
330
8
100
AcDbSymbolTableRecord
100
AcDbViewportTableRecord
  2
*Active
 70
     0
 10
0.0
 20
0.0
 11
1.0
 21
1.0
 12
27.20350904297806
 22
-38.01596893901098
 13
0.0
 23
0.0
 14
2.5
 24
2.5
 15
10.0
 25
10.0
 16
0.0
 26
0.0
 36
1.0
 17
0.0
 27
0.0
 37
0.0
 40
126.9389559407998
 41
2.166666666666666
 42
50.0
 43
0.0
 44
0.0
 50
0.0
 51
0.0
 71
     0
 72
  2000
 73
     1
 74
     3
 75
     0
 76
     0
 77
     0
 78
     0
281
     0
 65
     0
110
0.0
120
0.0
130
0.0
111
1.0
121
0.0
131
0.0
112
0.0
122
1.0
132
0.0
 79
     0
146
0.0
  0
ENDTAB
  0
TABLE
  2
LTYPE
  5
5
330
0
100
AcDbSymbolTable
 70
    21
  0
LTYPE
  5
14
330
5
100
AcDbSymbolTableRecord
100
AcDbLinetypeTableRecord
  2
BYBLOCK
 70
     0
  3

 72
    65
 73
     0
 40
0.0
  0
LTYPE
  5
15
330
5
100
AcDbSymbolTableRecord
100
AcDbLinetypeTableRecord
  2
BYLAYER
 70
     0
  3

 72
    65
 73
     0
 40
0.0
  0
LTYPE
  5
16
330
5
100
AcDbSymbolTableRecord
100
AcDbLinetypeTableRecord
  2
CONTINUOUS
 70
     0
  3
Solid line
 72
    65
 73
     0
 40
0.0
  0
LTYPE
  5
43
330
5
100
AcDbSymbolTableRecord
100
AcDbLinetypeTableRecord
  2
AM_ISO02W050
 70
     0
  3
__ __ __ __ __ __ __ __ __ __ __ __ __ __ __
 72
    65
 73
     2
 40
7.5
 49
6.0
 74
     0
 49
-1.5
 74
     0
  0
LTYPE
  5
44
330
5
100
AcDbSymbolTableRecord
100
AcDbLinetypeTableRecord
  2
AM_ISO08W050
 70
     0
  3
____ . ____ . ____ . ____ . ____ . ____ . ____
 72
    65
 73
     4
 40
18.0
 49
12.0
 74
     0
 49
-1.5
 74
     0
 49
3.0
 74
     0
 49
-1.5
 74
     0
  0
LTYPE
  5
45
330
5
100
AcDbSymbolTableRecord
100
AcDbLinetypeTableRecord
  2
AM_ISO09W050
 70
     0
  3
_____ . . _____ . . _____ . . ____ .. ____
 72
    65
 73
     6
 40
22.5
 49
12.0
 74
     0
 49
-1.5
 74
     0
 49
3.0
 74
     0
 49
-1.5
 74
     0
 49
3.0
 74
     0
 49
-1.5
 74
     0
  0
LTYPE
  5
46
330
5
100
AcDbSymbolTableRecord
100
AcDbLinetypeTableRecord
  2
AMCONSTR
 70
     0
  3
_______________________
 72
    65
 73
     2
 40
9999.0
 49
9999.0
 74
     0
 49
0.0
 74
     0
  0
LTYPE
  5
47
330
5
100
AcDbSymbolTableRecord
100
AcDbLinetypeTableRecord
  2
AM_ISO02W050X2
 70
     0
  3
 _ _ _ _ _ _ _ _ _ _ _ _
 72
    65
 73
     2
 40
3.75
 49
3.0
 74
     0
 49
-0.75
 74
     0
  0
LTYPE
  5
48
330
5
100
AcDbSymbolTableRecord
100
AcDbLinetypeTableRecord
  2
AM_ISO08W050X2
 70
     0
  3
__ . __ . __ . __ . __ . __
 72
    65
 73
     4
 40
9.0
 49
6.0
 74
     0
 49
-0.75
 74
     0
 49
1.5
 74
     0
 49
-0.75
 74
     0
  0
LTYPE
  5
4B
330
5
100
AcDbSymbolTableRecord
100
AcDbLinetypeTableRecord
  2
AMZIGZAG
 70
     0
  3
/\/-/\/-/\/-/\/-/\/-/\/
 72
    65
 73
     2
 40
11.00009999999999
 49
0.0001
 74
     4
 75
   135
340
4A
 46
0.04
 50
0.0
 44
0.0
 45
0.0
 49
-11.0
 74
     0
  0
LTYPE
  5
7631
330
5
100
AcDbSymbolTableRecord
100
AcDbLinetypeTableRecord
  2
HIDDEN
 70
     0
  3
Hidden __ __ __ __ __ __ __ __ __ __ __ __ __ _
 72
    65
 73
     2
 40
9.524999999999998
 49
6.349999999999999
 74
     0
 49
-3.174999999999999
 74
     0
  0
LTYPE
  5
7632
330
5
100
AcDbSymbolTableRecord
100
AcDbLinetypeTableRecord
  2
PHANTOM2
 70
     0
  3
Phantom (.5x) ___ _ _ ___ _ _ ___ _ _ ___ _ _
 72
    65
 73
     6
 40
31.75
 49
15.875
 74
     0
 49
-3.174999999999999
 74
     0
 49
3.174999999999999
 74
     0
 49
-3.174999999999999
 74
     0
 49
3.174999999999999
 74
     0
 49
-3.174999999999999
 74
     0
  0
LTYPE
  5
7633
330
5
100
AcDbSymbolTableRecord
100
AcDbLinetypeTableRecord
  2
CENTER
 70
     0
  3
Center ____ _ ____ _ ____ _ ____ _ ____ _ ____
 72
    65
 73
     4
 40
50.8
 49
31.75
 74
     0
 49
-6.349999999999999
 74
     0
 49
6.349999999999999
 74
     0
 49
-6.349999999999999
 74
     0
  0
LTYPE
  5
7673
330
5
100
AcDbSymbolTableRecord
100
AcDbLinetypeTableRecord
  2
ACISOWELD
 70
     0
  3
_ _ _ _ _
 72
    65
 73
     2
 40
2.0
 49
2.0
 74
     0
 49
-1.0
 74
     0
  0
LTYPE
  5
7674
330
5
100
AcDbSymbolTableRecord
100
AcDbLinetypeTableRecord
  2
ACISOTGB
 70
     0
  3
__ . . __ . .
 72
    65
 73
     6
 40
9.0
 49
4.0
 74
     0
 49
-1.0
 74
     0
 49
1.0
 74
     0
 49
-1.0
 74
     0
 49
1.0
 74
     0
 49
-1.0
 74
     0
  0
LTYPE
  5
7675
330
5
100
AcDbSymbolTableRecord
100
AcDbLinetypeTableRecord
  2
ACISOTGL
 70
     0
  3
_ _ _ _ _
 72
    65
 73
     2
 40
3.0
 49
2.0
 74
     0
 49
-1.0
 74
     0
  0
LTYPE
  5
7C04
330
5
100
AcDbSymbolTableRecord
100
AcDbLinetypeTableRecord
  2
ACANSTGB
 70
     0
  3
__ . . __ . .
 72
    65
 73
     6
 40
0.35433070866
 49
0.15748031496
 74
     0
 49
-0.03937007874
 74
     0
 49
0.03937007874
 74
     0
 49
-0.03937007874
 74
     0
 49
0.03937007874
 74
     0
 49
-0.03937007874
 74
     0
  0
LTYPE
  5
7C05
330
5
100
AcDbSymbolTableRecord
100
AcDbLinetypeTableRecord
  2
ACANSTGL
 70
     0
  3
_ _ _ _ _
 72
    65
 73
     2
 40
0.11811023622
 49
0.07874015748
 74
     0
 49
-0.03937007874
 74
     0
  0
ENDTAB
  0
TABLE
  2
LAYER
  5
2
102
{ACAD_XDICTIONARY
360
7C10
102
}
330
0
100
AcDbSymbolTable
 70
     8
  0
LAYER
  5
10
330
2
100
AcDbSymbolTableRecord
100
AcDbLayerTableRecord
  2
0
 70
     0
 62
     7
  6
CONTINUOUS
370
    -3
390
F
  0
LAYER
  5
7D
330
2
100
AcDbSymbolTableRecord
100
AcDbLayerTableRecord
  2
AM_5
 70
     0
 62
     3
  6
CONTINUOUS
370
    -3
390
F
  0
LAYER
  5
7F
330
2
100
AcDbSymbolTableRecord
100
AcDbLayerTableRecord
  2
DEFPOINTS
 70
     0
 62
     7
  6
CONTINUOUS
290
     0
370
    -3
390
F
  0
LAYER
  5
12B1
330
2
100
AcDbSymbolTableRecord
100
AcDbLayerTableRecord
  2
AM_0
 70
     0
 62
     7
  6
CONTINUOUS
370
    -3
390
F
  0
LAYER
  5
2222
330
2
100
AcDbSymbolTableRecord
100
AcDbLayerTableRecord
  2
AM_6
 70
     0
 62
     2
  6
CONTINUOUS
370
    -3
390
F
  0
LAYER
  5
4379
330
2
100
AcDbSymbolTableRecord
100
AcDbLayerTableRecord
  2
AM_1
 70
     0
 62
     3
  6
CONTINUOUS
370
    -3
390
F
  0
ENDTAB
  0
TABLE
  2
STYLE
  5
3
330
0
100
AcDbSymbolTable
 70
     8
  0
STYLE
  5
11
330
3
100
AcDbSymbolTableRecord
100
AcDbTextStyleTableRecord
  2
STANDARD
 70
     0
 40
0.0
 41
1.0
 50
0.0
 71
     0
 42
2.5
  3
ISOCP.SHX
  4
EXTFONT.SHX
  0
STYLE
  5
4A
330
3
100
AcDbSymbolTableRecord
100
AcDbTextStyleTableRecord
  2

 70
     1
 40
0.0
 41
1.0
 50
0.0
 71
     0
 42
2.5
  3
ltypeshp.shx
  4

  0
STYLE
  5
7665
330
3
100
AcDbSymbolTableRecord
100
AcDbTextStyleTableRecord
  2
ACISOTS
 70
     0
 40
1.0
 41
1.0
 50
0.0
 71
     0
 42
2.5
  3
isocp.shx
  4
extfont.shx
  0
STYLE
  5
7672
330
3
100
AcDbSymbolTableRecord
100
AcDbTextStyleTableRecord
  2
ACISOGDT
 70
     0
 40
0.0
 41
1.0
 50
0.0
 71
     0
 42
2.5
  3
amgdt.shx
  4

  0
STYLE
  5
7C07
330
3
100
AcDbSymbolTableRecord
100
AcDbTextStyleTableRecord
  2
ACANSTS
 70
     0
 40
1.0
 41
1.0
 50
0.0
 71
     0
 42
0.2
  3
romans.shx
  4
extfont.shx
  0
STYLE
  5
7C08
330
3
100
AcDbSymbolTableRecord
100
AcDbTextStyleTableRecord
  2
ACANSGDT
 70
     0
 40
0.0
 41
1.0
 50
0.0
 71
     0
 42
0.2
  3
amgdtans.shx
  4

  0
ENDTAB
  0
TABLE
  2
VIEW
  5
6
330
0
100
AcDbSymbolTable
 70
     6
  0
VIEW
  5
A30
330
6
100
AcDbSymbolTableRecord
100
AcDbViewTableRecord
  2
AM_VIEW1
 70
     0
 40
148.5
 10
112.0719649561952
 20
222.75
 41
224.1439299123904
 11
0.0
 21
0.0
 31
1.0
 12
0.0
 22
0.0
 32
0.0
 42
50.0
 43
0.0
 44
0.0
 50
0.0
 71
     0
281
     0
 72
     0
  0
VIEW
  5
A31
330
6
100
AcDbSymbolTableRecord
100
AcDbViewTableRecord
  2
AM_VIEW2
 70
     0
 40
148.5
 10
307.9280350438047
 20
222.75
 41
224.1439299123904
 11
0.0
 21
0.0
 31
1.0
 12
0.0
 22
0.0
 32
0.0
 42
50.0
 43
0.0
 44
0.0
 50
0.0
 71
     0
281
     0
 72
     0
  0
VIEW
  5
A32
330
6
100
AcDbSymbolTableRecord
100
AcDbViewTableRecord
  2
AM_VIEW3
 70
     0
 40
148.5
 10
112.0719649561952
 20
74.25
 41
224.1439299123904
 11
0.0
 21
0.0
 31
1.0
 12
0.0
 22
0.0
 32
0.0
 42
50.0
 43
0.0
 44
0.0
 50
0.0
 71
     0
281
     0
 72
     0
  0
VIEW
  5
A33
330
6
100
AcDbSymbolTableRecord
100
AcDbViewTableRecord
  2
AM_VIEW4
 70
     0
 40
148.5
 10
307.9280350438047
 20
74.25
 41
224.1439299123904
 11
0.0
 21
0.0
 31
1.0
 12
0.0
 22
0.0
 32
0.0
 42
50.0
 43
0.0
 44
0.0
 50
0.0
 71
     0
281
     0
 72
     0
  0
VIEW
  5
A34
330
6
100
AcDbSymbolTableRecord
100
AcDbViewTableRecord
  2
AM_VIEW5
 70
     0
 40
148.5
 10
210.0
 20
148.5
 41
224.1439299123904
 11
0.0
 21
0.0
 31
1.0
 12
0.0
 22
0.0
 32
0.0
 42
50.0
 43
0.0
 44
0.0
 50
0.0
 71
     0
281
     0
 72
     0
  0
VIEW
  5
A35
330
6
100
AcDbSymbolTableRecord
100
AcDbViewTableRecord
  2
AM_VIEW6
 70
     0
 40
296.9970299999999
 10
210.0
 20
148.5
 41
448.2833769461826
 11
0.0
 21
0.0
 31
1.0
 12
0.0
 22
0.0
 32
0.0
 42
50.0
 43
0.0
 44
0.0
 50
0.0
 71
     0
281
     0
 72
     0
  0
ENDTAB
  0
TABLE
  2
UCS
  5
7
330
0
100
AcDbSymbolTable
 70
     0
  0
ENDTAB
  0
TABLE
  2
APPID
  5
9
330
0
100
AcDbSymbolTable
 70
    44
  0
APPID
  5
12
330
9
100
AcDbSymbolTableRecord
100
AcDbRegAppTableRecord
  2
ACAD
 70
     0
  0
APPID
  5
2C
330
9
100
AcDbSymbolTableRecord
100
AcDbRegAppTableRecord
  2
MCAD_NO_VIS
 70
     0
  0
APPID
  5
2D
330
9
100
AcDbSymbolTableRecord
100
AcDbRegAppTableRecord
  2
ACAD_TEMP_GRAPHIC
 70
     0
  0
APPID
  5
B9
330
9
100
AcDbSymbolTableRecord
100
AcDbRegAppTableRecord
  2
GENIUS_GENDTOL_13
 70
     0
  0
APPID
  5
359
330
9
100
AcDbSymbolTableRecord
100
AcDbRegAppTableRecord
  2
GENIUS_GENREC_14
 70
     0
  0
APPID
  5
35A
330
9
100
AcDbSymbolTableRecord
100
AcDbRegAppTableRecord
  2
GENIUS_GENODEF_13
 70
     0
  0
APPID
  5
35B
330
9
100
AcDbSymbolTableRecord
100
AcDbRegAppTableRecord
  2
GENIUS_GENOBJ-N-REC_13
 70
     0
  0
APPID
  5
667
330
9
100
AcDbSymbolTableRecord
100
AcDbRegAppTableRecord
  2
GENIUS_GENCFG_13
 70
     0
  0
APPID
  5
668
330
9
100
AcDbSymbolTableRecord
100
AcDbRegAppTableRecord
  2
GENIUS_GENCFG0_13
 70
     0
  0
APPID
  5
669
330
9
100
AcDbSymbolTableRecord
100
AcDbRegAppTableRecord
  2
GENIUS_GENCFG1_13
 70
     0
  0
APPID
  5
66A
330
9
100
AcDbSymbolTableRecord
100
AcDbRegAppTableRecord
  2
GENIUS_GENCFG2_13
 70
     0
  0
APPID
  5
66B
330
9
100
AcDbSymbolTableRecord
100
AcDbRegAppTableRecord
  2
GENIUS_GENCFG3_13
 70
     0
  0
APPID
  5
66C
330
9
100
AcDbSymbolTableRecord
100
AcDbRegAppTableRecord
  2
GENIUS_GENCFG4_13
 70
     0
  0
APPID
  5
A76
330
9
100
AcDbSymbolTableRecord
100
AcDbRegAppTableRecord
  2
GENIUS_GENBLLY_14
 70
     0
  0
APPID
  5
A77
330
9
100
AcDbSymbolTableRecord
100
AcDbRegAppTableRecord
  2
GENIUS_GENOBJ-N-CEN_13
 70
     0
  0
APPID
  5
A83
330
9
100
AcDbSymbolTableRecord
100
AcDbRegAppTableRecord
  2
GENIUS_GENTRA_14
 70
     0
  0
APPID
  5
A8D
330
9
100
AcDbSymbolTableRecord
100
AcDbRegAppTableRecord
  2
GENIUS_GENOBJ-N-TIT_13
 70
     0
  0
APPID
  5
A8E
330
9
100
AcDbSymbolTableRecord
100
AcDbRegAppTableRecord
  2
GENIUS_GENTITLE_13
 70
     0
  0
APPID
  5
A8F
330
9
100
AcDbSymbolTableRecord
100
AcDbRegAppTableRecord
  2
GENIUS_GENOENT_13
 70
     0
  0
APPID
  5
A90
330
9
100
AcDbSymbolTableRecord
100
AcDbRegAppTableRecord
  2
GENIUS_GENOREF_13
 70
     0
  0
APPID
  5
A91
330
9
100
AcDbSymbolTableRecord
100
AcDbRegAppTableRecord
  2
GENIUS_GENOLIS_13
 70
     0
  0
APPID
  5
A92
330
9
100
AcDbSymbolTableRecord
100
AcDbRegAppTableRecord
  2
GENIUS_GENZVEED_13
 70
     0
  0
APPID
  5
A93
330
9
100
AcDbSymbolTableRecord
100
AcDbRegAppTableRecord
  2
GENIUS_GENSCREG_15
 70
     0
  0
APPID
  5
A94
330
9
100
AcDbSymbolTableRecord
100
AcDbRegAppTableRecord
  2
GENIUS_GENOBJ-N-SDF_13
 70
     0
  0
APPID
  5
12B5
330
9
100
AcDbSymbolTableRecord
100
AcDbRegAppTableRecord
  2
GENIUS_GENOBJ-N-RSBK_13
 70
     0
  0
APPID
  5
12B6
330
9
100
AcDbSymbolTableRecord
100
AcDbRegAppTableRecord
  2
GENIUS_GENOBJ-N-LIB_13
 70
     0
  0
APPID
  5
12B7
330
9
100
AcDbSymbolTableRecord
100
AcDbRegAppTableRecord
  2
GENIUS_GENSCALE_13
 70
     0
  0
APPID
  5
12B8
330
9
100
AcDbSymbolTableRecord
100
AcDbRegAppTableRecord
  2
GENIUS_GENOBJ-N-HTC_13
 70
     0
  0
APPID
  5
12B9
330
9
100
AcDbSymbolTableRecord
100
AcDbRegAppTableRecord
  2
GENIUS_GENHATCH_13
 70
     0
  0
APPID
  5
1C0A
330
9
100
AcDbSymbolTableRecord
100
AcDbRegAppTableRecord
  2
BASE_TYPE
 70
     0
  0
APPID
  5
276B
330
9
100
AcDbSymbolTableRecord
100
AcDbRegAppTableRecord
  2
GENIUS_GENOBJ-N-FIL_13
 70
     0
  0
APPID
  5
3640
330
9
100
AcDbSymbolTableRecord
100
AcDbRegAppTableRecord
  2
GENIUS_GENBH_13
 70
     0
  0
APPID
  5
36D1
330
9
100
AcDbSymbolTableRecord
100
AcDbRegAppTableRecord
  2
GENIUS_GENOBJ-F-SPR_13
 70
     0
  0
APPID
  5
36DA
330
9
100
AcDbSymbolTableRecord
100
AcDbRegAppTableRecord
  2
GENIUS_GEFSPRING_13
 70
     0
  0
APPID
  5
36DB
330
9
100
AcDbSymbolTableRecord
100
AcDbRegAppTableRecord
  2
GENIUS_GEFSPRINGP_13
 70
     0
  0
APPID
  5
4D67
330
9
100
AcDbSymbolTableRecord
100
AcDbRegAppTableRecord
  2
GENIUS_GENFIL_13
 70
     0
  0
APPID
  5
4D68
330
9
100
AcDbSymbolTableRecord
100
AcDbRegAppTableRecord
  2
GENIUS_GENOBJ-N-CHA_13
 70
     0
  0
APPID
  5
7635
330
9
100
AcDbSymbolTableRecord
100
AcDbRegAppTableRecord
  2
AD_DRAW
 70
     0
  0
APPID
  5
7638
330
9
100
AcDbSymbolTableRecord
100
AcDbRegAppTableRecord
  2
ACATTRIBSERVICES
 70
     0
  0
APPID
  5
7656
330
9
100
AcDbSymbolTableRecord
100
AcDbRegAppTableRecord
  2
DESIGNERASSEMBLIES
 70
     0
  0
APPID
  5
765B
330
9
100
AcDbSymbolTableRecord
100
AcDbRegAppTableRecord
  2
ACADM_DIM_EDIT
 70
     0
  0
APPID
  5
765C
330
9
100
AcDbSymbolTableRecord
100
AcDbRegAppTableRecord
  2
AMDT_DM_ADJ
 70
     0
  0
APPID
  5
7BF6
330
9
100
AcDbSymbolTableRecord
100
AcDbRegAppTableRecord
  2
DCO15
 70
     0
  0
APPID
  5
7C0F
330
9
100
AcDbSymbolTableRecord
100
AcDbRegAppTableRecord
  2
ACAD_PSEXT
 70
     0
  0
ENDTAB
  0
TABLE
  2
DIMSTYLE
  5
A
330
0
100
AcDbSymbolTable
 70
    23
100
AcDbDimStyleTable
 71
     1
340
58
  0
DIMSTYLE
105
58
102
{ACAD_REACTORS
330
7016
330
704B
330
71D4
330
71D7
102
}
330
A
100
AcDbSymbolTableRecord
100
AcDbDimStyleTableRecord
  2
AM_JIS
 70
     0
  4
"
 41
2.5
 42
0.0
 43
10.0
 44
1.0
 47
0.1
 48
0.1000000001
 73
     0
 74
     0
 77
     3
 78
     9
140
3.799999999999998
141
0.0
143
0.0393701
146
0.71
147
1.5
172
     1
176
   256
177
   256
178
     2
271
     2
272
     2
275
     1
283
     0
284
     8
340
11
341
59
342
59
  0
DIMSTYLE
105
65F
330
A
100
AcDbSymbolTableRecord
100
AcDbDimStyleTableRecord
  2
STANDARD
 70
     0
340
11
  0
DIMSTYLE
105
1761
102
{ACAD_REACTORS
330
7114
330
72DA
102
}
330
A
100
AcDbSymbolTableRecord
100
AcDbDimStyleTableRecord
  2
AM_JIS$0
 70
     0
  4
"
 41
2.5
 42
0.0
 43
10.0
 44
1.0
 47
0.1
 48
0.1000000001
 73
     0
 74
     0
 77
     3
 78
     9
140
3.799999999999998
141
0.0
143
0.0393701
146
0.71
147
1.5
172
     1
176
     3
177
     3
178
     2
271
     2
272
     2
275
     1
283
     0
284
     8
340
11
341
59
342
59
  0
DIMSTYLE
105
1762
102
{ACAD_REACTORS
330
7153
330
8374
330
8424
102
}
330
A
100
AcDbSymbolTableRecord
100
AcDbDimStyleTableRecord
  2
AM_JIS$2
 70
     0
  4
"
 41
2.5
 42
0.0
 43
10.0
 44
1.0
 47
0.1
 48
0.1000000001
 73
     0
 74
     0
 77
     3
 78
     9
140
3.799999999999998
141
0.0
143
0.0393701
146
0.71
147
1.5
172
     1
176
     3
177
     3
178
     2
271
     2
272
     2
275
     1
283
     0
284
     8
340
11
341
59
342
59
  0
DIMSTYLE
105
767E
330
A
100
AcDbSymbolTableRecord
100
AcDbDimStyleTableRecord
  2
AM_ISO
 70
     0
  4
"
 41
2.5
 42
1.0
 43
10.0
 44
1.0
 47
0.1
 48
0.1
 73
     0
 74
     0
 77
     1
 78
     8
 79
     2
140
3.5
141
0.0
143
0.0393701
146
0.71
147
1.5
172
     1
176
   256
177
   256
178
     2
271
     2
272
     3
274
     4
283
     0
284
     8
340
11
371
    -1
372
    -1
  0
DIMSTYLE
105
767F
330
A
100
AcDbSymbolTableRecord
100
AcDbDimStyleTableRecord
  2
AM_ISO$3
 70
     0
  4
"
 41
2.5
 42
1.0
 43
10.0
 44
1.0
 47
0.1
 48
0.1
 73
     0
 77
     1
 78
     8
 79
     2
140
3.5
141
0.0
143
0.0393701
146
0.71
147
1.5
176
   256
177
   256
178
     2
271
     2
272
     3
274
     4
283
     0
284
     8
288
     1
289
     0
340
11
371
    -1
372
    -1
  0
DIMSTYLE
105
7680
330
A
100
AcDbSymbolTableRecord
100
AcDbDimStyleTableRecord
  2
AM_ISO$4
 70
     0
  4
"
 41
2.5
 42
1.0
 43
10.0
 44
1.0
 47
0.1
 48
0.1
 73
     0
 77
     1
 78
     8
 79
     2
140
3.5
141
0.0
143
0.0393701
146
0.71
147
1.5
176
   256
177
   256
178
     2
271
     2
272
     3
274
     4
283
     0
284
     8
288
     1
289
     0
340
11
371
    -1
372
    -1
  0
DIMSTYLE
105
7681
330
A
100
AcDbSymbolTableRecord
100
AcDbDimStyleTableRecord
  2
AM_ISO$6
 70
     0
  4
"
 41
2.5
 42
1.0
 43
10.0
 44
1.0
 47
0.1
 48
0.1
 73
     0
 74
     0
 78
     8
 79
     2
140
3.5
141
0.0
143
0.0393701
146
0.71
147
1.5
172
     1
176
   256
177
   256
178
     2
271
     2
272
     3
274
     4
283
     0
284
     8
340
11
371
    -1
372
    -1
  0
DIMSTYLE
105
7682
330
A
100
AcDbSymbolTableRecord
100
AcDbDimStyleTableRecord
  2
AM_ISO$7
 70
     0
  4
"
 41
2.5
 42
1.0
 43
10.0
 44
1.0
 47
0.1
 48
0.1
 73
     0
 74
     0
 77
     1
 78
     8
 79
     2
140
5.0
141
0.0
143
0.0393701
146
0.71
147
1.5
172
     1
176
   256
177
   256
178
     2
271
     2
272
     3
274
     4
283
     0
284
     8
340
11
371
    -1
372
    -1
  0
DIMSTYLE
105
7683
330
A
100
AcDbSymbolTableRecord
100
AcDbDimStyleTableRecord
  2
AM_ISO$SF
 70
     0
  4
"
 41
2.5
 42
1.0
 43
10.0
 44
1.0
 47
0.1
 48
0.1
 73
     0
 74
     0
 75
     1
 76
     1
 77
     1
 78
     8
 79
     2
140
3.5
141
0.0
143
0.0393701
146
0.71
147
1.5
172
     1
176
   256
177
   256
178
     2
271
     2
272
     3
274
     4
283
     0
284
     8
340
11
371
    -1
372
    -1
  0
DIMSTYLE
105
7684
330
A
100
AcDbSymbolTableRecord
100
AcDbDimStyleTableRecord
  2
AM_ISO$SH
 70
     0
  4
"
 41
2.5
 42
1.0
 43
10.0
 44
1.0
 47
0.1
 48
0.1
 73
     0
 74
     0
 75
     1
 76
     1
 77
     1
 78
     8
 79
     2
140
3.5
141
0.0
143
0.0393701
144
2.0
146
0.71
147
1.5
172
     1
173
     1
176
   256
177
   256
178
     2
271
     2
272
     3
274
     4
283
     0
284
     8
340
11
343
64
371
    -1
372
    -1
  0
DIMSTYLE
105
7C09
330
A
100
AcDbSymbolTableRecord
100
AcDbDimStyleTableRecord
  2
AM_ANSI
 70
     0
  4
mm
 41
0.1
 42
0.05
 43
0.5
 44
0.1
 47
0.1
 48
0.1
 78
     7
 79
     2
140
0.12
141
0.0
146
0.71
147
0.06
176
   256
177
   256
178
     2
274
     4
284
     7
340
11
371
    -1
372
    -1
  0
DIMSTYLE
105
7C0A
330
A
100
AcDbSymbolTableRecord
100
AcDbDimStyleTableRecord
  2
AM_ANSI$3
 70
     0
  4
mm
 41
0.1
 42
0.05
 43
0.5
 44
0.1
 47
0.1
 48
0.1
 78
     7
 79
     2
140
0.12
141
0.0
146
0.71
147
0.06
176
   256
177
   256
178
     2
274
     4
284
     7
288
     1
289
     0
340
11
371
    -1
372
    -1
  0
DIMSTYLE
105
7C0B
330
A
100
AcDbSymbolTableRecord
100
AcDbDimStyleTableRecord
  2
AM_ANSI$4
 70
     0
  4
mm
 41
0.1
 42
0.05
 43
0.5
 44
0.1
 47
0.1
 48
0.1
 78
     7
 79
     2
140
0.12
141
0.0
146
0.71
147
0.06
176
   256
177
   256
178
     2
274
     4
284
     7
288
     1
289
     0
340
11
371
    -1
372
    -1
  0
DIMSTYLE
105
7C0C
330
A
100
AcDbSymbolTableRecord
100
AcDbDimStyleTableRecord
  2
AM_ANSI$7
 70
     0
  4
mm
 41
0.1
 42
0.05
 43
0.5
 44
0.1
 47
0.1
 48
0.1
 78
     7
 79
     2
140
0.24
141
0.0
146
0.71
147
0.06
176
   256
177
   256
178
     2
274
     4
284
     7
340
11
371
    -1
372
    -1
  0
DIMSTYLE
105
7C0D
330
A
100
AcDbSymbolTableRecord
100
AcDbDimStyleTableRecord
  2
AM_ANSI$SF
 70
     0
  4
mm
 41
0.1
 42
0.05
 43
0.5
 44
0.1
 47
0.1
 48
0.1
 75
     1
 76
     1
 78
     7
 79
     2
140
0.12
141
0.0
146
0.71
147
0.06
176
   256
177
   256
178
     2
274
     4
284
     7
340
11
371
    -1
372
    -1
  0
DIMSTYLE
105
7C0E
330
A
100
AcDbSymbolTableRecord
100
AcDbDimStyleTableRecord
  2
AM_ANSI$SH
 70
     0
  4
mm
 41
0.1
 42
0.05
 43
0.5
 44
0.1
 47
0.1
 48
0.1
 75
     1
 76
     1
 78
     7
 79
     2
140
0.12
141
0.0
146
0.71
147
0.06
173
     1
176
   256
177
   256
178
     2
274
     4
284
     7
340
11
343
64
371
    -1
372
    -1
  0
ENDTAB
  0
TABLE
  2
BLOCK_RECORD
  5
1
330
0
100
AcDbSymbolTable
 70
    34
  0
BLOCK_RECORD
  5
1F
102
{ACAD_XDICTIONARY
360
165
102
}
330
1
100
AcDbSymbolTableRecord
100
AcDbBlockTableRecord
  2
*MODEL_SPACE
340
75FD
  0
BLOCK_RECORD
  5
1B
102
{ACAD_XDICTIONARY
360
75D5
102
}
330
1
100
AcDbSymbolTableRecord
100
AcDbBlockTableRecord
  2
*PAPER_SPACE
340
75FE
  0
BLOCK_RECORD
  5
59
330
1
100
AcDbSymbolTableRecord
100
AcDbBlockTableRecord
  2
_OPEN30
340
0
102
{BLKREFS
331
76E1
331
76E2
331
76EA
331
76EB
331
76F3
331
76F4
331
76FC
331
76FD
331
7707
331
7708
331
7710
331
7711
331
7719
331
771A
331
7783
331
7784
331
778F
331
7790
331
775F
331
7760
331
7753
331
7754
331
779D
331
779E
331
77AB
331
77AC
331
77BB
331
77BC
331
7777
331
7778
331
776B
331
776C
331
7AA0
331
7AA1
331
7AA9
331
7AAA
331
7AB2
331
7AB3
331
7ABB
331
7ABC
331
7AC6
331
7AC7
331
7ACF
331
7AD0
331
7AD8
331
7AD9
331
7AE3
331
7AE4
331
7AF0
331
7AF1
331
83C9
331
83CA
331
846B
331
846C
102
}
  0
BLOCK_RECORD
  5
64
330
1
100
AcDbSymbolTableRecord
100
AcDbBlockTableRecord
  2
GENAXEH
340
0
  0
BLOCK_RECORD
  5
71D8
330
1
100
AcDbSymbolTableRecord
100
AcDbBlockTableRecord
  2
*D2
340
0
  0
BLOCK_RECORD
  5
71E4
330
1
100
AcDbSymbolTableRecord
100
AcDbBlockTableRecord
  2
*D3
340
0
  0
BLOCK_RECORD
  5
71F0
330
1
100
AcDbSymbolTableRecord
100
AcDbBlockTableRecord
  2
*D4
340
0
  0
BLOCK_RECORD
  5
71FC
330
1
100
AcDbSymbolTableRecord
100
AcDbBlockTableRecord
  2
*D5
340
0
  0
BLOCK_RECORD
  5
7208
330
1
100
AcDbSymbolTableRecord
100
AcDbBlockTableRecord
  2
*D6
340
0
  0
BLOCK_RECORD
  5
7220
330
1
100
AcDbSymbolTableRecord
100
AcDbBlockTableRecord
  2
*D7
340
0
  0
BLOCK_RECORD
  5
72DB
330
1
100
AcDbSymbolTableRecord
100
AcDbBlockTableRecord
  2
*D8
340
0
  0
BLOCK_RECORD
  5
8375
330
1
100
AcDbSymbolTableRecord
100
AcDbBlockTableRecord
  2
*D32
340
0
  0
BLOCK_RECORD
  5
8425
330
1
100
AcDbSymbolTableRecord
100
AcDbBlockTableRecord
  2
*D33
340
0
  0
ENDTAB
  0
ENDSEC
  0
SECTION
  2
BLOCKS
  0
BLOCK
  5
20
330
1F
100
AcDbEntity
  8
0
100
AcDbBlockBegin
  2
*MODEL_SPACE
 70
     0
 10
0.0
 20
0.0
 30
0.0
  3
*MODEL_SPACE
  1

  0
ENDBLK
  5
21
330
1F
100
AcDbEntity
  8
0
100
AcDbBlockEnd
  0
BLOCK
  5
1C
330
1B
100
AcDbEntity
 67
     1
  8
0
100
AcDbBlockBegin
  2
*PAPER_SPACE
 70
     0
 10
0.0
 20
0.0
 30
0.0
  3
*PAPER_SPACE
  1

  0
ENDBLK
  5
1D
330
1B
100
AcDbEntity
 67
     1
  8
0
100
AcDbBlockEnd
  0
BLOCK
  5
5D
330
59
100
AcDbEntity
  8
0
100
AcDbBlockBegin
  2
_OPEN30
 70
     0
 10
0.0
 20
0.0
 30
0.0
  3
_OPEN30
  1

  0
LINE
  5
5A
330
59
100
AcDbEntity
  8
0
 62
     0
100
AcDbLine
 10
-1.0
 20
0.26794919
 30
0.0
 11
0.0
 21
0.0
 31
0.0
  0
LINE
  5
5B
330
59
100
AcDbEntity
  8
0
 62
     0
100
AcDbLine
 10
0.0
 20
0.0
 30
0.0
 11
-1.0
 21
-0.26794919
 31
0.0
  0
LINE
  5
5C
330
59
100
AcDbEntity
  8
0
 62
     0
100
AcDbLine
 10
0.0
 20
0.0
 30
0.0
 11
-1.0
 21
0.0
 31
0.0
  0
ENDBLK
  5
5E
330
59
100
AcDbEntity
  8
0
100
AcDbBlockEnd
  0
BLOCK
  5
66
330
64
100
AcDbEntity
  8
0
100
AcDbBlockBegin
  2
GENAXEH
 70
     0
 10
0.0
 20
0.0
 30
0.0
  3
GENAXEH
  1

  0
LINE
  5
65
330
64
100
AcDbEntity
  8
0
100
AcDbLine
 10
-1.0
 20
0.0
 30
0.0
 11
1.0
 21
0.0
 31
0.0
  0
ENDBLK
  5
67
330
64
100
AcDbEntity
  8
0
100
AcDbBlockEnd
  0
BLOCK
  5
71E2
330
71D8
100
AcDbEntity
  8
0
100
AcDbBlockBegin
  2
*D2
 70
     1
 10
0.0
 20
0.0
 30
0.0
  3
*D2
  1

  0
LINE
  5
770D
330
71D8
100
AcDbEntity
  8
AM_5
370
    -2
100
AcDbLine
 10
125.0064029664723
 20
24.99882223096798
 30
0.0
 11
140.4780730589431
 21
24.99882223096798
 31
0.0
  0
LINE
  5
770E
330
71D8
100
AcDbEntity
  8
AM_5
370
    -2
100
AcDbLine
 10
125.0064029664723
 20
4.998822230968012
 30
0.0
 11
140.4780730589431
 21
4.998822230968007
 31
0.0
  0
LINE
  5
770F
330
71D8
100
AcDbEntity
  8
AM_5
370
    -2
100
AcDbLine
 10
139.4780730589431
 20
22.49882223096798
 30
0.0
 11
139.4780730589431
 21
7.498822230968007
 31
0.0
  0
INSERT
  5
7710
330
71D8
100
AcDbEntity
  8
AM_5
370
    -2
100
AcDbBlockReference
  2
_OPEN30
 10
139.4780730589431
 20
24.99882223096798
 30
0.0
 41
2.5
 42
2.5
 43
2.5
 50
90.0
  0
INSERT
  5
7711
330
71D8
100
AcDbEntity
  8
AM_5
370
    -2
100
AcDbBlockReference
  2
_OPEN30
 10
139.4780730589431
 20
4.998822230968007
 30
0.0
 41
2.5
 42
2.5
 43
2.5
 50
270.0
  0
MTEXT
  5
7712
330
71D8
100
AcDbEntity
  8
AM_5
 62
     2
100
AcDbMText
 10
136.077699043195
 20
14.99882223096801
 30
0.0
 40
3.799999999999998
 41
0.0
 71
     5
 72
     1
  1
20
 11
0.0000000000000001
 21
1.0
 31
0.0
 73
     1
 44
1.0
1001
ACAD
1000
MTEXTBEGIN
1070
    73
1070
     1
1070
    44
1040
1.0
1070
    74
1070
     0
1000
MTEXTEND
  0
POINT
  5
7713
330
71D8
100
AcDbEntity
  8
DEFPOINTS
 62
     0
100
AcDbPoint
 10
125.0064029664723
 20
24.99882223096798
 30
0.0
  0
POINT
  5
7714
330
71D8
100
AcDbEntity
  8
DEFPOINTS
 62
     0
100
AcDbPoint
 10
125.0064029664723
 20
4.998822230968012
 30
0.0
  0
POINT
  5
7715
330
71D8
100
AcDbEntity
  8
DEFPOINTS
 62
     0
100
AcDbPoint
 10
139.4780730589431
 20
4.998822230968007
 30
0.0
  0
ENDBLK
  5
71E3
330
71D8
100
AcDbEntity
  8
0
100
AcDbBlockEnd
  0
BLOCK
  5
71EE
330
71E4
100
AcDbEntity
  8
0
100
AcDbBlockBegin
  2
*D3
 70
     1
 10
0.0
 20
0.0
 30
0.0
  3
*D3
  1

  0
LINE
  5
7704
330
71E4
100
AcDbEntity
  8
AM_5
370
    -2
100
AcDbLine
 10
125.0064029664723
 20
-67.6314825236492
 30
0.0
 11
140.2738773056935
 21
-67.6314825236492
 31
0.0
  0
LINE
  5
7705
330
71E4
100
AcDbEntity
  8
AM_5
370
    -2
100
AcDbLine
 10
124.9999999664723
 20
-87.63148252364919
 30
0.0
 11
140.2738773056935
 21
-87.63148252364919
 31
0.0
  0
LINE
  5
7706
330
71E4
100
AcDbEntity
  8
AM_5
370
    -2
100
AcDbLine
 10
139.2738773056935
 20
-70.1314825236492
 30
0.0
 11
139.2738773056935
 21
-85.13148252364919
 31
0.0
  0
INSERT
  5
7707
330
71E4
100
AcDbEntity
  8
AM_5
370
    -2
100
AcDbBlockReference
  2
_OPEN30
 10
139.2738773056935
 20
-67.6314825236492
 30
0.0
 41
2.5
 42
2.5
 43
2.5
 50
90.0
  0
INSERT
  5
7708
330
71E4
100
AcDbEntity
  8
AM_5
370
    -2
100
AcDbBlockReference
  2
_OPEN30
 10
139.2738773056935
 20
-87.63148252364919
 30
0.0
 41
2.5
 42
2.5
 43
2.5
 50
270.0
  0
MTEXT
  5
7709
330
71E4
100
AcDbEntity
  8
AM_5
 62
     2
100
AcDbMText
 10
135.8735032899455
 20
-77.63148252364918
 30
0.0
 40
3.799999999999998
 41
0.0
 71
     5
 72
     1
  1
20
 11
0.0000000000000001
 21
1.0
 31
0.0
 73
     1
 44
1.0
1001
ACAD
1000
MTEXTBEGIN
1070
    73
1070
     1
1070
    44
1040
1.0
1070
    74
1070
     0
1000
MTEXTEND
  0
POINT
  5
770A
330
71E4
100
AcDbEntity
  8
DEFPOINTS
 62
     0
100
AcDbPoint
 10
125.0064029664723
 20
-67.6314825236492
 30
0.0
  0
POINT
  5
770B
330
71E4
100
AcDbEntity
  8
DEFPOINTS
 62
     0
100
AcDbPoint
 10
124.9999999664723
 20
-87.63148252364919
 30
0.0
  0
POINT
  5
770C
330
71E4
100
AcDbEntity
  8
DEFPOINTS
 62
     0
100
AcDbPoint
 10
139.2738773056935
 20
-87.63148252364919
 30
0.0
  0
ENDBLK
  5
71EF
330
71E4
100
AcDbEntity
  8
0
100
AcDbBlockEnd
  0
BLOCK
  5
71FA
330
71F0
100
AcDbEntity
  8
0
100
AcDbBlockBegin
  2
*D4
 70
     1
 10
0.0
 20
0.0
 30
0.0
  3
*D4
  1

  0
LINE
  5
76E7
330
71F0
100
AcDbEntity
  8
AM_5
370
    -2
100
AcDbLine
 10
1.134315805274116
 20
-87.63148252364919
 30
0.0
 11
-16.47983701508907
 21
-87.63148252364919
 31
0.0
  0
LINE
  5
76E8
330
71F0
100
AcDbEntity
  8
AM_5
370
    -2
100
AcDbLine
 10
0.3671471805332576
 20
-67.63148259105769
 30
0.0
 11
-16.47983701508907
 21
-67.63148259105769
 31
0.0
  0
LINE
  5
76E9
330
71F0
100
AcDbEntity
  8
AM_5
370
    -2
100
AcDbLine
 10
-15.47983701508907
 20
-85.13148252364919
 30
0.0
 11
-15.47983701508907
 21
-70.13148259105769
 31
0.0
  0
INSERT
  5
76EA
330
71F0
100
AcDbEntity
  8
AM_5
370
    -2
100
AcDbBlockReference
  2
_OPEN30
 10
-15.47983701508907
 20
-87.63148252364919
 30
0.0
 41
2.5
 42
2.5
 43
2.5
 50
270.0
  0
INSERT
  5
76EB
330
71F0
100
AcDbEntity
  8
AM_5
370
    -2
100
AcDbBlockReference
  2
_OPEN30
 10
-15.47983701508907
 20
-67.63148259105769
 30
0.0
 41
2.5
 42
2.5
 43
2.5
 50
90.0
  0
MTEXT
  5
76EC
330
71F0
100
AcDbEntity
  8
AM_5
 62
     2
100
AcDbMText
 10
-18.88021103083709
 20
-77.63148255735344
 30
0.0
 40
3.799999999999998
 41
0.0
 71
     5
 72
     1
  1
20
 11
0.0000000000000001
 21
1.0
 31
0.0
 73
     1
 44
1.0
1001
ACAD
1000
MTEXTBEGIN
1070
    73
1070
     1
1070
    44
1040
1.0
1070
    74
1070
     0
1000
MTEXTEND
  0
POINT
  5
76ED
330
71F0
100
AcDbEntity
  8
DEFPOINTS
 62
     0
100
AcDbPoint
 10
1.134315805274116
 20
-87.63148252364919
 30
0.0
  0
POINT
  5
76EE
330
71F0
100
AcDbEntity
  8
DEFPOINTS
 62
     0
100
AcDbPoint
 10
0.3671471805332576
 20
-67.63148259105769
 30
0.0
  0
POINT
  5
76EF
330
71F0
100
AcDbEntity
  8
DEFPOINTS
 62
     0
100
AcDbPoint
 10
-15.47983701508907
 20
-67.63148259105769
 30
0.0
  0
ENDBLK
  5
71FB
330
71F0
100
AcDbEntity
  8
0
100
AcDbBlockEnd
  0
BLOCK
  5
7206
330
71FC
100
AcDbEntity
  8
0
100
AcDbBlockBegin
  2
*D5
 70
     1
 10
0.0
 20
0.0
 30
0.0
  3
*D5
  1

  0
LINE
  5
76DE
330
71FC
100
AcDbEntity
  8
AM_5
370
    -2
100
AcDbLine
 10
0.0
 20
-1.138021079281304
 30
0.0
 11
-0.0000000000000024
 21
-39.34124477345258
 31
0.0
  0
LINE
  5
76DF
330
71FC
100
AcDbEntity
  8
AM_5
370
    -2
100
AcDbLine
 10
125.0000001605061
 20
4.994815767854072
 30
0.0
 11
125.0000001605061
 21
-39.34124477345258
 31
0.0
  0
LINE
  5
76E0
330
71FC
100
AcDbEntity
  8
AM_5
370
    -2
100
AcDbLine
 10
2.499999999999997
 20
-38.34124477345258
 30
0.0
 11
122.5000001605061
 21
-38.34124477345258
 31
0.0
  0
INSERT
  5
76E1
330
71FC
100
AcDbEntity
  8
AM_5
370
    -2
100
AcDbBlockReference
  2
_OPEN30
 10
-0.0000000000000023
 20
-38.34124477345258
 30
0.0
 41
2.5
 42
2.5
 43
2.5
 50
180.0
  0
INSERT
  5
76E2
330
71FC
100
AcDbEntity
  8
AM_5
370
    -2
100
AcDbBlockReference
  2
_OPEN30
 10
125.0000001605061
 20
-38.34124477345258
 30
0.0
 41
2.5
 42
2.5
 43
2.5
  0
MTEXT
  5
76E3
330
71FC
100
AcDbEntity
  8
AM_5
 62
     2
100
AcDbMText
 10
62.50000008025304
 20
-34.94087075770455
 30
0.0
 40
3.799999999999998
 41
0.0
 71
     5
 72
     1
  1
125
 73
     1
 44
1.0
1001
ACAD
1000
MTEXTBEGIN
1070
    73
1070
     1
1070
    44
1040
1.0
1070
    74
1070
     0
1000
MTEXTEND
  0
POINT
  5
76E4
330
71FC
100
AcDbEntity
  8
DEFPOINTS
 62
     0
100
AcDbPoint
 10
0.0
 20
-1.138021079281304
 30
0.0
  0
POINT
  5
76E5
330
71FC
100
AcDbEntity
  8
DEFPOINTS
 62
     0
100
AcDbPoint
 10
125.0000001605061
 20
4.994815767854072
 30
0.0
  0
POINT
  5
76E6
330
71FC
100
AcDbEntity
  8
DEFPOINTS
 62
     0
100
AcDbPoint
 10
125.0000001605061
 20
-38.34124477345258
 30
0.0
  0
ENDBLK
  5
7207
330
71FC
100
AcDbEntity
  8
0
100
AcDbBlockEnd
  0
BLOCK
  5
7212
330
7208
100
AcDbEntity
  8
0
100
AcDbBlockBegin
  2
*D6
 70
     1
 10
0.0
 20
0.0
 30
0.0
  3
*D6
  1

  0
LINE
  5
76F0
330
7208
100
AcDbEntity
  8
AM_5
 62
     3
370
    -2
100
AcDbLine
 10
0.8727911114731298
 20
-0.0000000000000002
 30
0.0
 11
-16.49102151202936
 21
0.0000000000000047
 31
0.0
  0
LINE
  5
76F1
330
7208
100
AcDbEntity
  8
AM_5
 62
     3
370
    -2
100
AcDbLine
 10
7.560353177720042
 20
24.99882223096803
 30
0.0
 11
-16.49102151202935
 21
24.99882223096803
 31
0.0
  0
LINE
  5
76F2
330
7208
100
AcDbEntity
  8
AM_5
 62
     3
370
    -2
100
AcDbLine
 10
-15.49102151202936
 20
2.500000000000004
 30
0.0
 11
-15.49102151202935
 21
22.49882223096803
 31
0.0
  0
INSERT
  5
76F3
330
7208
100
AcDbEntity
  8
AM_5
 62
     3
370
    -2
100
AcDbBlockReference
  2
_OPEN30
 10
-15.49102151202936
 20
0.0000000000000044
 30
0.0
 41
2.5
 42
2.5
 43
2.5
 50
270.0
  0
INSERT
  5
76F4
330
7208
100
AcDbEntity
  8
AM_5
 62
     3
370
    -2
100
AcDbBlockReference
  2
_OPEN30
 10
-15.49102151202935
 20
24.99882223096803
 30
0.0
 41
2.5
 42
2.5
 43
2.5
 50
90.0
  0
MTEXT
  5
76F5
330
7208
100
AcDbEntity
  8
AM_5
 62
     2
100
AcDbMText
 10
-18.89139552777739
 20
12.49941111548401
 30
0.0
 40
3.799999999999998
 41
0.0
 71
     5
 72
     1
  1
25
 11
0.0000000000000001
 21
1.0
 31
0.0
 73
     1
 44
1.0
1001
ACAD
1000
MTEXTBEGIN
1070
    73
1070
     1
1070
    44
1040
1.0
1070
    74
1070
     0
1000
MTEXTEND
  0
POINT
  5
76F6
330
7208
100
AcDbEntity
  8
DEFPOINTS
 62
     0
100
AcDbPoint
 10
0.8727911114731298
 20
-0.0000000000000002
 30
0.0
  0
POINT
  5
76F7
330
7208
100
AcDbEntity
  8
DEFPOINTS
 62
     0
100
AcDbPoint
 10
7.560353177720042
 20
24.99882223096803
 30
0.0
  0
POINT
  5
76F8
330
7208
100
AcDbEntity
  8
DEFPOINTS
 62
     0
100
AcDbPoint
 10
-15.49102151202935
 20
24.99882223096803
 30
0.0
  0
ENDBLK
  5
7213
330
7208
100
AcDbEntity
  8
0
100
AcDbBlockEnd
  0
BLOCK
  5
722C
330
7220
100
AcDbEntity
  8
0
100
AcDbBlockBegin
  2
*D7
 70
     1
 10
0.0
 20
0.0
 30
0.0
  3
*D7
  1

  0
LINE
  5
76F9
330
7220
100
AcDbEntity
  8
AM_5
 62
     3
370
    -2
100
AcDbLine
 10
-0.0000000000000004
 20
-2.416103221763921
 30
0.0
 11
-0.000000000000016
 21
-16.67595810244662
 31
0.0
  0
LINE
  5
76FA
330
7220
100
AcDbEntity
  8
AM_5
 62
     3
370
    -2
100
AcDbLine
 10
12.02751318337317
 20
0.9760130935361361
 30
0.0
 11
16.53653327059376
 21
1.370501235050241
 31
0.0
  0
ARC
  5
76FB
330
7220
100
AcDbEntity
  8
AM_5
 62
     3
370
    -2
100
AcDbCircle
 10
0.0000000000000014
 20
-0.0762579611422098
 30
0.0
 40
15.5997001413044
100
AcDbArc
 50
279.1920470787966
 51
355.8079529246289
  0
INSERT
  5
76FC
330
7220
100
AcDbEntity
  8
AM_5
 62
     3
370
    -2
100
AcDbBlockReference
  2
_OPEN30
 10
-0.0000000000000151
 20
-15.67595810244662
 30
0.0
 41
2.5
 42
2.5
 43
2.5
 50
184.5960235393982
  0
INSERT
  5
76FD
330
7220
100
AcDbEntity
  8
AM_5
 62
     3
370
    -2
100
AcDbBlockReference
  2
_OPEN30
 10
15.54033857250722
 20
1.283345492243028
 30
0.0
 41
2.5
 42
2.5
 43
2.5
 50
90.40397646402723
  0
MTEXT
  5
76FE
330
7220
100
AcDbEntity
  8
AM_5
 62
     2
100
AcDbMText
 10
8.994562430309374
 20
-8.318255912185989
 30
0.0
 40
3.799999999999998
 41
0.0
 71
     5
 72
     1
  1
95°
 11
0.6755902075936201
 21
0.7372773368303204
 31
0.0
 73
     1
 44
1.0
1001
ACAD
1000
MTEXTBEGIN
1070
    73
1070
     1
1070
    44
1040
1.0
1070
    74
1070
     0
1000
MTEXTEND
  0
POINT
  5
76FF
330
7220
100
AcDbEntity
  8
DEFPOINTS
 62
     0
100
AcDbPoint
 10
8.189477234691128
 20
-13.35342283626101
 30
0.0
  0
POINT
  5
7700
330
7220
100
AcDbEntity
  8
DEFPOINTS
 62
     0
100
AcDbPoint
 10
12.02751318337317
 20
0.9760130935361361
 30
0.0
  0
POINT
  5
7701
330
7220
100
AcDbEntity
  8
DEFPOINTS
 62
     0
100
AcDbPoint
 10
0.0000000000000001
 20
-0.0011780911988122
 30
0.0
  0
POINT
  5
7702
330
7220
100
AcDbEntity
  8
DEFPOINTS
 62
     0
100
AcDbPoint
 10
-0.0000000000000004
 20
-2.416103221763921
 30
0.0
  0
POINT
  5
7703
330
7220
100
AcDbEntity
  8
DEFPOINTS
 62
     0
100
AcDbPoint
 10
0.8713301062376785
 20
-0.0000264546050801
 30
0.0
  0
ENDBLK
  5
722D
330
7220
100
AcDbEntity
  8
0
100
AcDbBlockEnd
  0
BLOCK
  5
72E5
330
72DB
100
AcDbEntity
  8
0
100
AcDbBlockBegin
  2
*D8
 70
     1
 10
0.0
 20
0.0
 30
0.0
  3
*D8
  1

  0
LINE
  5
7716
330
72DB
100
AcDbEntity
  8
AM_5
 62
     3
370
    -2
100
AcDbLine
 10
0.0
 20
-1.138021079281304
 30
0.0
 11
-0.0000000000000018
 21
-29.87394016601785
 31
0.0
  0
LINE
  5
7717
330
72DB
100
AcDbEntity
  8
AM_5
 62
     3
370
    -2
100
AcDbLine
 10
31.99999996647238
 20
4.997018230968031
 30
0.0
 11
31.99999996647238
 21
-29.87394016601785
 31
0.0
  0
LINE
  5
7718
330
72DB
100
AcDbEntity
  8
AM_5
 62
     3
370
    -2
100
AcDbLine
 10
2.499999999999998
 20
-28.87394016601785
 30
0.0
 11
29.49999996647238
 21
-28.87394016601785
 31
0.0
  0
INSERT
  5
7719
330
72DB
100
AcDbEntity
  8
AM_5
 62
     3
370
    -2
100
AcDbBlockReference
  2
_OPEN30
 10
-0.0000000000000017
 20
-28.87394016601785
 30
0.0
 41
2.5
 42
2.5
 43
2.5
 50
180.0
  0
INSERT
  5
771A
330
72DB
100
AcDbEntity
  8
AM_5
 62
     3
370
    -2
100
AcDbBlockReference
  2
_OPEN30
 10
31.99999996647238
 20
-28.87394016601785
 30
0.0
 41
2.5
 42
2.5
 43
2.5
  0
MTEXT
  5
771B
330
72DB
100
AcDbEntity
  8
AM_5
 62
     2
100
AcDbMText
 10
15.99999998323619
 20
-25.47356615026981
 30
0.0
 40
3.799999999999998
 41
0.0
 71
     5
 72
     1
  1
32
 73
     1
 44
1.0
1001
ACAD
1000
MTEXTBEGIN
1070
    73
1070
     1
1070
    44
1040
1.0
1070
    74
1070
     0
1000
MTEXTEND
  0
POINT
  5
771C
330
72DB
100
AcDbEntity
  8
DEFPOINTS
 62
     0
100
AcDbPoint
 10
0.0
 20
-1.138021079281304
 30
0.0
  0
POINT
  5
771D
330
72DB
100
AcDbEntity
  8
DEFPOINTS
 62
     0
100
AcDbPoint
 10
31.99999996647238
 20
4.997018230968031
 30
0.0
  0
POINT
  5
771E
330
72DB
100
AcDbEntity
  8
DEFPOINTS
 62
     0
100
AcDbPoint
 10
31.99999996647238
 20
-28.87394016601785
 30
0.0
  0
ENDBLK
  5
72E6
330
72DB
100
AcDbEntity
  8
0
100
AcDbBlockEnd
  0
BLOCK
  5
83C2
330
8375
100
AcDbEntity
  8
0
100
AcDbBlockBegin
  2
*D32
 70
     1
 10
0.0
 20
0.0
 30
0.0
  3
*D32
  1

  0
LINE
  5
83C4
330
8375
100
AcDbEntity
  8
AM_5
 62
     3
100
AcDbLine
 10
-66.0829102541937
 20
0.0669702765425875
 30
0.0
 11
-68.02816978448311
 21
-20.46085712530347
 31
0.0
  0
LINE
  5
83C5
330
8375
100
AcDbEntity
  8
AM_5
 62
     3
100
AcDbLine
 10
-66.0829102541937
 20
-0.3173357729060626
 30
0.0
 11
-66.0829102541938
 21
-20.55281954974235
 31
0.0
  0
ARC
  5
83C6
330
8375
100
AcDbEntity
  8
AM_5
 62
     3
100
AcDbCircle
 10
-66.0829102541937
 20
0.0669702765425875
 30
0.0
 40
19.61978982628493
100
AcDbArc
 50
249.9752743037016
 51
257.2809861238417
  0
ARC
  5
83C7
330
8375
100
AcDbEntity
  8
AM_5
 62
     3
100
AcDbCircle
 10
-66.0829102541937
 20
0.0669702765425875
 30
0.0
 40
19.61978982628493
100
AcDbArc
 50
277.3057118201399
 51
284.61142364028
  0
ARC
  5
83C8
330
8375
100
AcDbEntity
  8
AM_5
 62
     3
100
AcDbCircle
 10
-66.0829102541937
 20
0.0669702765425875
 30
0.0
 40
19.61978982628493
100
AcDbArc
 50
264.5866979439819
 51
269.9999999999998
  0
INSERT
  5
83C9
330
8375
100
AcDbEntity
  8
AM_5
 62
     3
100
AcDbBlockReference
  2
_OPEN30
 10
-67.93383033938316
 20
-19.46531703615677
 30
0.0
 41
2.5
 42
2.5
 43
2.5
 50
350.9338420339118
  0
INSERT
  5
83CA
330
8375
100
AcDbEntity
  8
AM_5
 62
     3
100
AcDbBlockReference
  2
_OPEN30
 10
-66.0829102541938
 20
-19.55281954974235
 30
0.0
 41
2.5
 42
2.5
 43
2.5
 50
183.6528559100698
  0
MTEXT
  5
83CB
330
8375
100
AcDbEntity
  8
AM_5
 62
     2
100
AcDbMText
 10
-71.01064354035154
 20
-15.38615324814809
 30
0.0
 40
3.799999999999998
 41
0.0
 71
     5
 72
     1
  1
-5°
 11
0.9527326611623635
 21
-0.3038099345881911
 31
0.0
 73
     1
 44
1.0
1001
ACAD
1000
MTEXTBEGIN
1070
    73
1070
     1
1070
    44
1040
1.0
1070
    74
1070
     0
1000
MTEXTEND
  0
POINT
  5
83CC
330
8375
100
AcDbEntity
  8
DEFPOINTS
 62
     0
100
AcDbPoint
 10
-66.70070033524254
 20
-19.54309061687005
 30
0.0
  0
POINT
  5
83CD
330
8375
100
AcDbEntity
  8
DEFPOINTS
 62
     0
100
AcDbPoint
 10
-66.00717720406573
 20
0.8661618278166081
 30
0.0
  0
POINT
  5
83CE
330
8375
100
AcDbEntity
  8
DEFPOINTS
 62
     0
100
AcDbPoint
 10
-66.0829102541937
 20
1.13953622565787
 30
0.0
  0
POINT
  5
83CF
330
8375
100
AcDbEntity
  8
DEFPOINTS
 62
     0
100
AcDbPoint
 10
-66.0829102541937
 20
-0.3173357729060626
 30
0.0
  0
POINT
  5
83D0
330
8375
100
AcDbEntity
  8
DEFPOINTS
 62
     0
100
AcDbPoint
 10
-64.94720498296124
 20
12.05177817708966
 30
0.0
  0
ENDBLK
  5
83C3
330
8375
100
AcDbEntity
  8
0
100
AcDbBlockEnd
  0
BLOCK
  5
8454
330
8425
100
AcDbEntity
  8
0
100
AcDbBlockBegin
  2
*D33
 70
     1
 10
0.0
 20
0.0
 30
0.0
  3
*D33
  1

  0
LINE
  5
8466
330
8425
100
AcDbEntity
  8
AM_5
 62
     3
100
AcDbLine
 10
-1.425448438582634
 20
-67.63148259105768
 30
0.0
 11
-11.09210519698017
 21
-67.63148259105765
 31
0.0
  0
LINE
  5
8467
330
8425
100
AcDbEntity
  8
AM_5
 62
     3
100
AcDbLine
 10
0.6142371254252446
 20
-67.63148259105768
 30
0.0
 11
-11.03938849840243
 21
-68.74119444059665
 31
0.0
  0
ARC
  5
8468
330
8425
100
AcDbEntity
  8
AM_5
 62
     3
100
AcDbCircle
 10
0.6142371254252446
 20
-67.63148259105768
 30
0.0
 40
10.70634232240541
100
AcDbArc
 50
153.1809649500396
 51
166.5904824750197
  0
ARC
  5
8469
330
8425
100
AcDbEntity
  8
AM_5
 62
     3
100
AcDbCircle
 10
0.6142371254252446
 20
-67.63148259105768
 30
0.0
 40
10.70634232240541
100
AcDbArc
 50
198.8490833385195
 51
212.2586008634996
  0
ARC
  5
846A
330
8425
100
AcDbEntity
  8
AM_5
 62
     3
100
AcDbCircle
 10
0.6142371254252446
 20
-67.63148259105768
 30
0.0
 40
10.70634232240541
100
AcDbArc
 50
179.9999999999998
 51
185.4395658135394
  0
INSERT
  5
846B
330
8425
100
AcDbEntity
  8
AM_5
 62
     3
100
AcDbBlockReference
  2
_OPEN30
 10
-10.09210519698017
 20
-67.63148259105765
 30
0.0
 41
2.5
 42
2.5
 43
2.5
 50
263.2952412375098
  0
INSERT
  5
846C
330
8425
100
AcDbEntity
  8
AM_5
 62
     3
100
AcDbBlockReference
  2
_OPEN30
 10
-10.04389175801383
 20
-68.64639866075558
 30
0.0
 41
2.5
 42
2.5
 43
2.5
 50
102.1443245760295
  0
MTEXT
  5
846D
330
8425
100
AcDbEntity
  8
AM_5
 62
     2
100
AcDbMText
 10
-11.95380115505853
 20
-61.22575800306762
 30
0.0
 40
3.799999999999998
 41
0.0
 71
     5
 72
     1
  1
-5°
 11
0.4541024485004658
 21
0.8909494745864559
 31
0.0
 73
     1
 44
1.0
1001
ACAD
1000
MTEXTBEGIN
1070
    73
1070
     1
1070
    44
1040
1.0
1070
    74
1070
     0
1000
MTEXTEND
  0
POINT
  5
846E
330
8425
100
AcDbEntity
  8
DEFPOINTS
 62
     0
100
AcDbPoint
 10
-10.07066805745144
 20
-68.30865845999006
 30
0.0
  0
POINT
  5
846F
330
8425
100
AcDbEntity
  8
DEFPOINTS
 62
     0
100
AcDbPoint
 10
-0.2669988962368279
 20
-67.63148259105768
 30
0.0
  0
POINT
  5
8470
330
8425
100
AcDbEntity
  8
DEFPOINTS
 62
     0
100
AcDbPoint
 10
12.05095341815546
 20
-66.54242584601272
 30
0.0
  0
POINT
  5
8471
330
8425
100
AcDbEntity
  8
DEFPOINTS
 62
     0
100
AcDbPoint
 10
0.8727911114730702
 20
-67.6068618909147
 30
0.0
  0
POINT
  5
8472
330
8425
100
AcDbEntity
  8
DEFPOINTS
 62
     0
100
AcDbPoint
 10
-1.425448438582634
 20
-67.63148259105768
 30
0.0
  0
ENDBLK
  5
8455
330
8425
100
AcDbEntity
  8
0
100
AcDbBlockEnd
  0
ENDSEC
  0
SECTION
  2
ENTITIES
  0
LINE
  5
7012
330
1F
100
AcDbEntity
  8
AM_0
100
AcDbLine
 10
32.00640296647236
 20
24.99882223096808
 30
0.0
 11
125.0064029664723
 21
24.998822230968
 31
0.0
  0
LINE
  5
7013
330
1F
100
AcDbEntity
  8
AM_0
100
AcDbLine
 10
31.99999996647238
 20
4.998822230968023
 30
0.0
 11
125.0064029664723
 21
4.998822230967989
 31
0.0
  0
LINE
  5
7014
330
1F
100
AcDbEntity
  8
AM_0
100
AcDbLine
 10
124.9999999664723
 20
-87.63148252364919
 30
0.0
 11
32.00640296647235
 21
-87.63148252364919
 31
0.0
  0
LINE
  5
7015
330
1F
100
AcDbEntity
  8
AM_0
100
AcDbLine
 10
32.00640296647235
 20
-67.63148252364918
 30
0.0
 11
124.9999999664723
 21
-67.6314825236492
 31
0.0
  0
DIMENSION
  5
7016
330
1F
100
AcDbEntity
  8
AM_5
100
AcDbDimension
  2
*D5
 10
125.0000001605061
 20
-38.34124477345258
 30
0.0
 11
62.50000008025304
 21
-34.94087075770455
 31
0.0
 70
    32
  1
<>
 71
     5
 42
125.0000001605061
  3
AM_JIS
100
AcDbAlignedDimension
 13
0.0
 23
-1.138021079281304
 33
0.0
 14
125.0000001605061
 24
4.994815767854072
 34
0.0
100
AcDbRotatedDimension
1001
GENIUS_GENDTOL_13
1000

1000
h7
1000

1040
0.0
1001
ACAD
1000
DSTYLE
1002
{
1070
   271
1070
     6
1002
}
  0
ELLIPSE
  5
7017
330
1F
100
AcDbEntity
  8
AM_0
100
AcDbEllipse
 10
12.00660813190028
 20
-65.57122276899391
 30
0.0
 11
2.739521744340748
 21
0.2398345518982332
 31
0.0
210
0.0
220
0.0
230
1.0
 40
0.0870985468184394
 41
5.243065783370978
 42
7.200071521439746
  0
LINE
  5
7018
330
1F
100
AcDbEntity
  8
AM_0
100
AcDbLine
 10
12.798995468879
 20
-66.38144311830602
 30
0.0
 11
30.02985421097985
 21
-64.74064147072731
 31
0.0
  0
LINE
  5
701D
330
1F
100
AcDbEntity
  8
AM_0
100
AcDbLine
 10
6.279910234524242
 20
-65.05184071871696
 30
0.0
 11
2.558549177720116
 21
-65.7042375824128
 31
0.0
  0
LINE
  5
701F
330
1F
100
AcDbEntity
  8
AM_0
100
AcDbLine
 10
32.00640296647235
 20
-67.63148252364918
 30
0.0
 11
31.14634059069833
 21
-64.47317603958231
 31
0.0
  0
LINE
  5
7020
330
1F
100
AcDbEntity
  8
AM_0
100
AcDbLine
 10
30.02985421097985
 20
-87.63148252364919
 30
0.0
 11
30.02985421097985
 21
-64.74064147072731
 31
0.0
  0
ELLIPSE
  5
7021
330
1F
100
AcDbEntity
  8
AM_0
100
AcDbEllipse
 10
12.86946333256951
 20
-65.41938084352704
 30
0.0
 11
0.7969517801718541
 21
0.0697700514613039
 31
0.0
210
0.0
220
0.0
230
1.0
 40
0.0870985468184395
 41
6.195860093055169
 42
7.609580182449824
  0
ELLIPSE
  5
7026
330
1F
100
AcDbEntity
  8
AM_0
100
AcDbEllipse
 10
6.833394193456333
 20
-66.4815849765303
 30
0.0
 11
2.570169491054229
 21
0.2250084159627049
 31
0.0
210
0.0
220
0.0
230
1.0
 40
0.0870985468184394
 41
2.205712368245725
 42
3.141533902065008
  0
ELLIPSE
  5
7027
330
1F
100
AcDbEntity
  8
AM_0
100
AcDbEllipse
 10
1.691301025887177
 20
-66.48381688842906
 30
0.0
 11
0.7969517801718541
 21
0.0697700514613039
 31
0.0
210
0.0
220
0.0
230
1.0
 40
0.0870985468184395
 41
1.19645095061754
 42
3.054267439465281
  0
ELLIPSE
  5
7028
330
1F
100
AcDbEntity
  8
AM_0
100
AcDbEllipse
 10
11.9754873610256
 20
-66.47935306463153
 30
0.0
 11
0.7969517801718541
 21
0.0697700514613039
 31
0.0
210
0.0
220
0.0
230
1.0
 40
0.0870985468184395
 41
4.799596691459612
 42
6.195860093055039
  0
ELLIPSE
  5
7029
330
1F
100
AcDbEntity
  8
AM_0
100
AcDbEllipse
 10
12.38904154199695
 20
-71.20319565639703
 30
0.0
 11
0.7969517801718533
 21
0.0697700514613111
 31
0.0
210
0.0
220
0.0
230
1.0
 40
0.0870985468184394
 41
4.799596691459565
 42
6.176141813055017
  0
ELLIPSE
  5
702A
330
1F
100
AcDbEntity
  8
AM_0
100
AcDbEllipse
 10
12.37177170082002
 20
-75.92722524618652
 30
0.0
 11
1.195427670257779
 21
0.1046550771919696
 31
0.0
210
0.0
220
0.0
230
1.0
 40
0.0870985468184296
 41
4.799596691459591
 42
6.164737688286103
  0
ELLIPSE
  5
702B
330
1F
100
AcDbEntity
  8
AM_0
100
AcDbEllipse
 10
1.210879235314555
 20
-72.26763170129901
 30
0.0
 11
0.7969517801718533
 21
0.0697700514613111
 31
0.0
210
0.0
220
0.0
230
1.0
 40
0.0870985468184394
 41
3.141592653589798
 42
4.799596691459565
  0
ELLIPSE
  5
702C
330
1F
100
AcDbEntity
  8
AM_0
100
AcDbEllipse
 10
0.7973250543432675
 20
-67.54378910953349
 30
0.0
 11
0.7969517801718541
 21
0.0697700514613039
 31
0.0
210
0.0
220
0.0
230
1.0
 40
0.0870985468184395
 41
3.054267439465265
 42
4.799596691459612
  0
ELLIPSE
  5
702D
330
1F
100
AcDbEntity
  8
AM_0
100
AcDbEllipse
 10
2.130158127941048
 20
-76.90247881165077
 30
0.0
 11
1.195427670257779
 21
0.1046550771919681
 31
0.0
210
0.0
220
0.0
230
1.0
 40
0.0870985468184344
 41
3.141592653589835
 42
4.799596691459489
  0
ELLIPSE
  5
702E
330
1F
100
AcDbEntity
  8
AM_0
100
AcDbEllipse
 10
6.833394193456333
 20
-66.4815849765303
 30
0.0
 11
2.570169491054229
 21
0.2250084159627049
 31
0.0
210
0.0
220
0.0
230
1.0
 40
0.0870985468184394
 41
3.141533902064993
 42
5.971441717810547
  0
DIMENSION
  5
704B
330
1F
100
AcDbEntity
  8
AM_5
100
AcDbDimension
  2
*D4
 10
-15.47983701508907
 20
-67.63148259105769
 30
0.0
 11
-18.88021103083709
 21
-77.63148255735344
 31
0.0
 70
    32
  1
<>
 71
     5
 42
19.99999993259149
  3
AM_JIS
100
AcDbAlignedDimension
 13
1.134315805274116
 23
-87.63148252364919
 33
0.0
 14
0.3671471805332576
 24
-67.63148259105769
 34
0.0
 50
270.0
100
AcDbRotatedDimension
1001
GENIUS_GENDTOL_13
1000

1000
h7
1000

1040
0.0
1001
ACAD
1000
DSTYLE
1002
{
1070
   271
1070
     6
1002
}
  0
LINE
  5
704C
330
1F
100
AcDbEntity
  8
AM_0
100
AcDbLine
 10
32.00640296647235
 20
-87.63148252364919
 30
0.0
 11
30.02985421097985
 21
-87.63148252364919
 31
0.0
  0
LINE
  5
704D
330
1F
100
AcDbEntity
  8
AM_0
100
AcDbLine
 10
2.221471547935425
 20
-87.63148252364919
 30
0.0
 11
2.221471547935426
 21
-76.99915424650225
 31
0.0
  0
LINE
  5
704E
330
1F
100
AcDbEntity
  8
AM_0
100
AcDbLine
 10
1.134315805274116
 20
-87.63148252364919
 30
0.0
 11
1.134315805274117
 21
-77.04703825150793
 31
0.0
  0
LINE
  5
704F
330
1F
100
AcDbEntity
  8
AM_0
100
AcDbLine
 10
30.02985421097985
 20
-87.63148252364919
 30
0.0
 11
1.134315805274116
 21
-87.63148252364919
 31
0.0
  0
LINE
  5
7052
330
1F
100
AcDbEntity
  8
AM_0
100
AcDbLine
 10
0.5281570109943826
 20
-72.36302907133385
 30
0.0
 11
0.9347304576833058
 21
-77.00713388884274
 31
0.0
  0
LINE
  5
7053
330
1F
100
AcDbEntity
  8
AM_0
100
AcDbLine
 10
2.243357213635694
 20
-76.9970879837226
 30
0.0
 11
12.48497078651478
 21
-76.02183441825831
 31
0.0
  0
LINE
  5
7054
330
1F
100
AcDbEntity
  8
AM_0
100
AcDbLine
 10
1.286345292444357
 20
-72.33070448268026
 30
0.0
 11
12.46450759912675
 21
-71.26626843777827
 31
0.0
  0
LINE
  5
7055
330
1F
100
AcDbEntity
  8
AM_0
100
AcDbLine
 10
12.05095341815546
 20
-66.54242584601274
 30
0.0
 11
0.8727911114730691
 21
-67.60686189091472
 31
0.0
  0
LINE
  5
7057
330
1F
100
AcDbEntity
  8
AM_0
100
AcDbLine
 10
0.0003732741714007
 20
-67.61355916099482
 30
0.0
 11
0.4139274551427461
 21
-72.33740175276031
 31
0.0
  0
LINE
  5
7058
330
1F
100
AcDbEntity
  8
AM_0
100
AcDbLine
 10
1.983802932840823
 20
-66.38570450450912
 30
0.0
 11
5.405368522391992
 21
-66.05988728665234
 31
0.0
  0
LINE
  5
705A
330
1F
100
AcDbEntity
  8
AM_0
100
AcDbLine
 10
2.558549177720116
 20
-65.7042375824128
 30
0.0
 11
1.983802932840823
 21
-66.38570450450912
 31
0.0
  0
LINE
  5
705B
330
1F
100
AcDbEntity
  8
AM_0
100
AcDbLine
 10
0.0028800086966985
 20
-67.60723947352123
 30
0.0
 11
0.896855980240608
 21
-66.54726725241673
 31
0.0
  0
LINE
  5
705D
330
1F
100
AcDbEntity
  8
AM_0
100
AcDbLine
 10
13.56519176250514
 20
-75.90135071317774
 30
0.0
 11
12.798995468879
 21
-66.38144311830602
 31
0.0
  0
LINE
  5
705F
330
1F
100
AcDbEntity
  8
AM_0
100
AcDbLine
 10
13.56519176250491
 20
-75.90135071317774
 30
0.0
 11
13.12483350136596
 21
-75.94328365286559
 31
0.0
  0
LINE
  5
7060
330
1F
100
AcDbEntity
  8
AM_0
100
AcDbLine
 10
13.15409771188472
 20
-71.15632600444097
 30
0.0
 11
13.51602401367317
 21
-75.29044665449224
 31
0.0
  0
LINE
  5
7063
330
1F
100
AcDbEntity
  8
AM_0
100
AcDbLine
 10
9.203500217772035
 20
-66.34665433193514
 30
0.0
 11
9.20489019147663
 21
-66.36253137366144
 31
0.0
  0
LINE
  5
7064
330
1F
100
AcDbEntity
  8
AM_0
100
AcDbLine
 10
13.4111433736113
 20
-65.65562967937989
 30
0.0
 11
12.798995468879
 21
-66.38144311830602
 31
0.0
  0
LINE
  5
7065
330
1F
100
AcDbEntity
  8
AM_0
100
AcDbLine
 10
13.66390837821608
 20
-65.35593047953937
 30
0.0
 11
13.68660529935327
 21
-65.61518715666419
 31
0.0
  0
LINE
  5
7066
330
1F
100
AcDbEntity
  8
AM_0
100
AcDbLine
 10
13.66390837821602
 20
-65.35593047953937
 30
0.0
 11
12.76993240667211
 21
-66.41590270064384
 31
0.0
  0
LINE
  5
7068
330
1F
100
AcDbEntity
  8
AM_0
100
AcDbLine
 10
13.66641511274138
 20
-65.34961079206578
 30
0.0
 11
13.68962430314177
 21
-65.61471888957354
 31
0.0
  0
LINE
  5
706A
330
1F
100
AcDbEntity
  8
AM_0
100
AcDbLine
 10
12.76993240667211
 20
-66.4159027006438
 30
0.0
 11
13.16457180144657
 21
-70.92369023417977
 31
0.0
  0
LINE
  5
706B
330
1F
100
AcDbEntity
  8
AM_0
100
AcDbLine
 10
32.00640296647235
 20
-87.63148252364919
 30
0.0
 11
32.00640296647235
 21
-67.63148252364918
 31
0.0
  0
ELLIPSE
  5
708D
330
1F
100
AcDbEntity
  8
AM_0
100
AcDbEllipse
 10
12.38904154199696
 20
2.186482730104851
 30
0.0
 11
0.5663919001281724
 21
-0.564978066361163
 31
0.0
210
0.0
220
0.0
230
1.0
 40
0.9924039058330915
 41
-0.0000000000000122
 42
0.678638172147376
  0
ELLIPSE
  5
70A6
330
1F
100
AcDbEntity
  8
AM_0
100
AcDbEllipse
 10
2.104855206858531
 20
12.39413659946644
 30
0.0
 11
0.5663919001281724
 21
-0.564978066361163
 31
0.0
210
0.0
220
0.0
230
1.0
 40
0.9924039058330915
 41
2.465068607682276
 42
3.141592653589718
  0
ELLIPSE
  5
70A9
330
1F
100
AcDbEntity
  8
AM_0
100
AcDbEllipse
 10
7.246948374427631
 20
7.29030966478565
 30
0.0
 11
1.826613877913355
 21
-1.822054264014749
 31
0.0
210
0.0
220
0.0
230
1.0
 40
0.9924039058330912
 41
3.256197704548303
 42
3.929494934022145
  0
ELLIPSE
  5
70B0
330
1F
100
AcDbEntity
  8
AM_0
100
AcDbEllipse
 10
6.833394193456342
 20
6.875720581929852
 30
0.0
 11
-1.826613877913355
 21
1.822054264014749
 31
0.0
210
0.0
220
0.0
230
1.0
 40
0.9924039058330912
 41
5.650884740411079
 42
7.071087587611966
  0
ELLIPSE
  5
70B1
330
1F
100
AcDbEntity
  8
AM_0
100
AcDbEllipse
 10
6.833394193456342
 20
6.875720581929852
 30
0.0
 11
-1.826613877913355
 21
1.822054264014749
 31
0.0
210
0.0
220
0.0
230
1.0
 40
0.9924039058330912
 41
0.7879022804323636
 42
3.281122922180622
  0
ELLIPSE
  5
70B2
330
1F
100
AcDbEntity
  8
AM_0
100
AcDbEllipse
 10
7.246948374427631
 20
7.29030966478565
 30
0.0
 11
1.826613877913355
 21
-1.822054264014749
 31
0.0
210
0.0
220
0.0
230
1.0
 40
0.9924039058330912
 41
3.929494934022129
 42
6.168580256221186
  0
ELLIPSE
  5
70B5
330
1F
100
AcDbEntity
  8
AM_0
100
AcDbEllipse
 10
1.691301025887186
 20
11.9795475166107
 30
0.0
 11
-0.5663919001281724
 21
0.564978066361163
 31
0.0
210
0.0
220
0.0
230
1.0
 40
0.9924039058330915
 41
5.587557723416837
 42
6.983821125012232
  0
ELLIPSE
  5
70B6
330
1F
100
AcDbEntity
  8
AM_0
100
AcDbEllipse
 10
0.7973250543432757
 20
0.7939311673376441
 30
0.0
 11
-0.5663919001281724
 21
0.564978066361163
 31
0.0
210
0.0
220
0.0
230
1.0
 40
0.9924039058330915
 41
0.7006358178326279
 42
2.445965069826974
  0
ELLIPSE
  5
70C2
330
1F
100
AcDbEntity
  8
AM_0
100
AcDbEllipse
 10
11.97548736102561
 20
1.771893647249054
 30
0.0
 11
-0.5663919001281724
 21
0.564978066361163
 31
0.0
210
0.0
220
0.0
230
1.0
 40
0.9924039058330915
 41
2.445965069826975
 42
3.842228471422401
  0
ELLIPSE
  5
70D6
330
1F
100
AcDbEntity
  8
AM_0
100
AcDbEllipse
 10
-63.09111359461088
 20
18.79512334694482
 30
0.0
 11
-0.1818506633688379
 21
-1.4418840915496
 31
0.0
210
0.0
220
0.0
230
1.0
 40
0.0696421520705625
 41
4.260983755987258
 42
4.929268653359231
  0
ELLIPSE
  5
70DB
330
1F
100
AcDbEntity
  8
AM_0
100
AcDbEllipse
 10
-63.81931857407153
 20
12.96023439284103
 30
0.0
 11
0.0699433151323615
 21
0.7969365926272274
 31
0.0
210
0.0
220
0.0
230
1.0
 40
0.0868811304561617
 41
0.0431273725619319
 42
0.0948327047992638
  0
ELLIPSE
  5
70DD
330
1F
100
AcDbEntity
  8
AM_0
100
AcDbEllipse
 10
-63.97116049953843
 20
12.09084348547897
 30
0.0
 11
0.2404301457674926
 21
2.739469537156093
 31
0.0
210
0.0
220
0.0
230
1.0
 40
0.0868811304561621
 41
5.889322324692941
 42
7.330812321663071
  0
ELLIPSE
  5
70E1
330
1F
100
AcDbEntity
  8
AM_0
100
AcDbEllipse
 10
-64.88152270707478
 20
6.878444978248762
 30
0.0
 11
0.2255671913018657
 21
2.570120511222808
 31
0.0
210
0.0
220
0.0
230
1.0
 40
0.0868811304561617
 41
0.8714242565109151
 42
1.578362568994451
  0
ELLIPSE
  5
70E4
330
1F
100
AcDbEntity
  8
AM_0
100
AcDbEllipse
 10
-64.87929079517602
 20
1.774618043567967
 30
0.0
 11
0.0699433151323615
 21
0.7969365926272274
 31
0.0
210
0.0
220
0.0
230
1.0
 40
0.0868811304561617
 41
3.236425358389058
 42
4.632688759984485
  0
ELLIPSE
  5
70E6
330
1F
100
AcDbEntity
  8
AM_0
100
AcDbEllipse
 10
-64.88152270707478
 20
6.878444978248762
 30
0.0
 11
0.2255671913018657
 21
2.570120511222808
 31
0.0
210
0.0
220
0.0
230
1.0
 40
0.0868811304561617
 41
1.578362568994436
 42
4.073500497708812
  0
ELLIPSE
  5
70EA
330
1F
100
AcDbEntity
  8
AM_0
100
AcDbEllipse
 10
-69.60759721073907
 20
12.39686099578541
 30
0.0
 11
0.0699433151323543
 21
0.796936592627228
 31
0.0
210
0.0
220
0.0
230
1.0
 40
0.0868811304561618
 41
0.1122903802158279
 42
1.491096106394676
  0
ELLIPSE
  5
70EB
330
1F
100
AcDbEntity
  8
AM_0
100
AcDbEllipse
 10
-64.88375461897357
 20
11.98227191292961
 30
0.0
 11
0.0699433151323615
 21
0.7969365926272274
 31
0.0
210
0.0
220
0.0
230
1.0
 40
0.0868811304561617
 41
0.0948327047993344
 42
1.491096106394727
  0
ELLIPSE
  5
70ED
330
1F
100
AcDbEntity
  8
AM_0
100
AcDbEllipse
 10
-74.33125280448064
 20
12.38383214627545
 30
0.0
 11
0.1049149726985262
 21
1.195404888940841
 31
0.0
210
0.0
220
0.0
230
1.0
 40
0.0868811304561585
 41
0.1592032923256483
 42
1.491096106394681
  0
ELLIPSE
  5
70EE
330
1F
100
AcDbEntity
  8
AM_0
100
AcDbEllipse
 10
-75.30241654219526
 20
2.135389058698491
 30
0.0
 11
0.1049149726985255
 21
1.195404888940841
 31
0.0
210
0.0
220
0.0
230
1.0
 40
0.0868811304561629
 41
1.491096106394775
 42
3.141592653589786
  0
ELLIPSE
  5
70EF
330
1F
100
AcDbEntity
  8
AM_0
100
AcDbEllipse
 10
-65.94372684007804
 20
0.7966555636565545
 30
0.0
 11
0.0699433151323615
 21
0.7969365926272274
 31
0.0
210
0.0
220
0.0
230
1.0
 40
0.0868811304561617
 41
1.491096106394708
 42
3.236425358389056
  0
ELLIPSE
  5
70F0
330
1F
100
AcDbEntity
  8
AM_0
100
AcDbEllipse
 10
-70.6675694318435
 20
1.211244646512354
 30
0.0
 11
0.0699433151323543
 21
0.796936592627228
 31
0.0
210
0.0
220
0.0
230
1.0
 40
0.0868811304561618
 41
1.49109610639466
 42
3.14159265358974
  0
LINE
  5
70F8
330
1F
100
AcDbEntity
  8
AM_0
100
AcDbLine
 10
-64.82068183759236
 20
12.7762030802673
 30
0.0
 11
-69.35795970126156
 21
13.17441826877496
 31
0.0
  0
LINE
  5
70FA
330
1F
100
AcDbEntity
  8
AM_0
100
AcDbLine
 10
-74.30628815488728
 20
13.57054078168415
 30
0.0
 11
-64.78564223505355
 21
12.80839610563357
 31
0.0
  0
LINE
  5
70FB
330
1F
100
AcDbEntity
  8
AM_0
100
AcDbLine
 10
-66.01367015521038
 20
-0.0002810289707206
 30
0.0
 11
-70.73751274697588
 21
0.4143080538850784
 31
0.0
  0
LINE
  5
70FD
330
1F
100
AcDbEntity
  8
AM_0
100
AcDbLine
 10
-64.10417531295728
 20
19.99974262728694
 30
0.0
 11
-86.08291025419369
 21
19.99974262728695
 31
0.0
  0
LINE
  5
70FF
330
1F
100
AcDbEntity
  8
AM_0
100
AcDbLine
 10
-69.6710475747268
 20
12.46636725994546
 30
0.0
 11
-70.73101979583123
 21
1.280750910672408
 31
0.0
  0
LINE
  5
7100
330
1F
100
AcDbEntity
  8
AM_0
100
AcDbLine
 10
-74.42642835046223
 20
12.48809154251564
 30
0.0
 11
-75.39759208817684
 21
2.239648454938516
 31
0.0
  0
LINE
  5
7103
330
1F
100
AcDbEntity
  8
AM_0
100
AcDbLine
 10
-75.44704903215325
 20
1.13953622565789
 30
0.0
 11
-86.08291025419369
 21
1.139536225657891
 31
0.0
  0
LINE
  5
7106
330
1F
100
AcDbEntity
  8
AM_0
100
AcDbLine
 10
-70.7632459889668
 20
0.5323949833071554
 30
0.0
 11
-75.40733151489383
 21
0.9399841697576349
 31
0.0
  0
LINE
  5
7108
330
1F
100
AcDbEntity
  8
AM_0
100
AcDbLine
 10
-69.55959005329749
 20
13.16424626240088
 30
0.0
 11
-72.9708935566632
 21
13.46364006380919
 31
0.0
  0
LINE
  5
7109
330
1F
100
AcDbEntity
  8
AM_0
100
AcDbLine
 10
-74.34804430076805
 20
13.12989883018071
 30
0.0
 11
-74.30628815488728
 21
13.57054078168415
 31
0.0
  0
LINE
  5
710B
330
1F
100
AcDbEntity
  8
AM_0
100
AcDbLine
 10
7.560353177720042
 20
24.99882223096803
 30
0.0
 11
2.558549177720126
 21
19.99701823096809
 31
0.0
  0
LINE
  5
710E
330
1F
100
AcDbEntity
  8
AM_0
100
AcDbLine
 10
31.99999996647238
 20
24.99882223096808
 30
0.0
 11
31.99999996647238
 21
4.998822230968023
 31
0.0
  0
DIMENSION
  5
7114
330
1F
100
AcDbEntity
  8
AM_5
100
AcDbDimension
  2
*D6
 10
-15.49102151202935
 20
24.99882223096803
 30
0.0
 11
-18.89139552777739
 21
12.49941111548401
 31
0.0
 70
    32
  1
<>
 71
     5
 42
24.99882223096803
  3
AM_JIS$0
100
AcDbAlignedDimension
 13
0.8727911114731298
 23
-0.0000000000000002
 33
0.0
 14
7.560353177720042
 24
24.99882223096803
 34
0.0
 50
270.0
100
AcDbRotatedDimension
1001
GENIUS_GENDTOL_13
1000

1000
h7
1000

1040
0.0
  0
LINE
  5
7118
330
1F
100
AcDbEntity
  8
AM_0
100
AcDbLine
 10
-63.03764481741193
 20
5.586430019553245
 30
0.0
 11
-62.97984540374542
 21
6.260447218388428
 31
0.0
  0
LINE
  5
711B
330
1F
100
AcDbEntity
  8
AM_0
100
AcDbLine
 10
-66.00717720406573
 20
0.8661618278166089
 30
0.0
 11
-64.94720498296124
 21
12.05177817708966
 31
0.0
  0
LINE
  5
711C
330
1F
100
AcDbEntity
  8
AM_0
100
AcDbLine
 10
-64.94236357655721
 20
0.980686876230334
 30
0.0
 11
-66.00679962145921
 21
0.0027243963189224
 31
0.0
  0
LINE
  5
711D
330
1F
100
AcDbEntity
  8
AM_0
100
AcDbLine
 10
-63.34116006414536
 20
3.391973855800597
 30
0.0
 11
-63.03764481741189
 21
5.586430019553245
 31
0.0
  0
LINE
  5
711E
330
1F
100
AcDbEntity
  8
AM_0
100
AcDbLine
 10
-64.45416043111494
 20
5.521828521107557
 30
0.0
 11
-64.78138084885053
 21
2.06875495789161
 31
0.0
  0
LINE
  5
711F
330
1F
100
AcDbEntity
  8
AM_0
100
AcDbLine
 10
-64.45416043111496
 20
5.521828521107559
 30
0.0
 11
-64.81584043118835
 21
1.705111779407912
 31
0.0
  0
LINE
  5
7121
330
1F
100
AcDbEntity
  8
AM_0
100
AcDbLine
 10
-64.78138084885053
 20
2.06875495789161
 30
0.0
 11
-63.34116006414536
 21
3.391973855800597
 31
0.0
  0
LINE
  5
7126
330
1F
100
AcDbEntity
  8
AM_0
100
AcDbLine
 10
-64.10417531295728
 20
19.99974262728694
 30
0.0
 11
-64.78564223505362
 21
12.80839610563322
 31
0.0
  0
LINE
  5
7127
330
1F
100
AcDbEntity
  8
AM_0
100
AcDbLine
 10
-63.22830837949618
 20
18.4972215478943
 30
0.0
 11
-63.99440930361175
 21
11.56799853201432
 31
0.0
  0
LINE
  5
712D
330
1F
100
AcDbEntity
  8
AM_0
100
AcDbLine
 10
-63.75624579269038
 20
13.75416556017871
 30
0.0
 11
-64.01336679294614
 21
13.77673184125348
 31
0.0
  0
LINE
  5
712E
330
1F
100
AcDbEntity
  8
AM_0
100
AcDbLine
 10
-63.75234368901464
 20
13.75743151038597
 30
0.0
 11
-64.01281301682167
 21
13.78029165816395
 31
0.0
  0
LINE
  5
712F
330
1F
100
AcDbEntity
  8
AM_0
100
AcDbLine
 10
-64.78564223505362
 20
12.80839610563322
 30
0.0
 11
-64.05720710524838
 21
13.47765399990579
 31
0.0
  0
LINE
  5
7130
330
1F
100
AcDbEntity
  8
AM_0
100
AcDbLine
 10
-64.82068183759236
 20
12.77620308026724
 30
0.0
 11
-63.75624579269038
 21
13.75416556017865
 31
0.0
  0
DIMENSION
  5
7153
330
1F
100
AcDbEntity
  8
AM_5
100
AcDbDimension
  2
*D7
 10
0.8713301062376785
 20
-0.0000264546050801
 30
0.0
 11
8.994562430309374
 21
-8.318255912185987
 31
0.0
 70
    34
  1
<>
 71
     5
 42
1.6580627894544
  3
AM_JIS$2
100
AcDb2LineAngularDimension
 13
0.0000000000000001
 23
-0.0011780911988122
 33
0.0
 14
-0.0000000000000002
 24
-2.416103221763921
 34
0.0
 15
12.02751318337317
 25
0.9760130935361345
 35
0.0
 16
8.189477234691128
 26
-13.35342283626101
 36
0.0
1001
GENIUS_GENDTOL_13
1000

1000
h7
1000

1040
0.0
1001
ACAD
1000
DSTYLE
1002
{
1070
   271
1070
     0
1002
}
  0
LINE
  5
7177
330
1F
100
AcDbEntity
  8
AM_0
100
AcDbLine
 10
30.70503812227638
 20
-63.18297252364918
 30
0.0
 11
30.80063160053224
 21
-63.18297252364919
 31
0.0
  0
LINE
  5
717C
330
1F
100
AcDbEntity
  8
AM_0
100
AcDbLine
 10
30.02985421097985
 20
-64.74064147072731
 30
0.0
 11
31.14634059069833
 21
-64.47317603958231
 31
0.0
  0
LINE
  5
717D
330
1F
100
AcDbEntity
  8
AM_0
100
AcDbLine
 10
31.14634059069833
 20
-64.47317603958231
 30
0.0
 11
30.8006316005322
 21
-63.18297252364919
 31
0.0
  0
LINE
  5
7182
330
1F
100
AcDbEntity
  8
AM_0
100
AcDbLine
 10
13.11523858951187
 20
6.0229313431305
 30
0.0
 11
12.79899546887901
 21
2.066030561572641
 31
0.0
  0
LINE
  5
7183
330
1F
100
AcDbEntity
  8
AM_0
100
AcDbLine
 10
13.11523858951179
 20
6.022931343130493
 30
0.0
 11
12.76993240667212
 21
1.702387383088941
 31
0.0
  0
LINE
  5
7187
330
1F
100
AcDbEntity
  8
AM_0
100
AcDbLine
 10
0.0028800086967069
 20
0.8634374314977545
 30
0.0
 11
0.8968559802406176
 21
12.04905378077076
 31
0.0
  0
LINE
  5
7188
330
1F
100
AcDbEntity
  8
AM_0
100
AcDbLine
 10
12.79899546887901
 20
2.066030561572641
 30
0.0
 11
30.02349984895853
 21
3.572979428177752
 31
0.0
  0
LINE
  5
7189
330
1F
100
AcDbEntity
  8
AM_0
100
AcDbLine
 10
12.05095341815547
 20
0.9779624799114209
 30
0.0
 11
0.8727911114730774
 21
0.0000000000000108
 31
0.0
  0
LINE
  5
718B
330
1F
100
AcDbEntity
  8
AM_0
100
AcDbLine
 10
12.54187926115378
 20
1.20691558088789
 30
0.0
 11
12.95543344212512
 21
1.621504663743687
 31
0.0
  0
LINE
  5
718C
330
1F
100
AcDbEntity
  8
AM_0
100
AcDbLine
 10
30.02345121097989
 20
3.573535362818071
 30
0.0
 11
31.99999996647238
 21
4.997018230968031
 31
0.0
  0
LINE
  5
7197
330
1F
100
AcDbEntity
  8
AM_0
100
AcDbLine
 10
2.558549177720126
 20
19.99701823096809
 30
0.0
 11
1.983802932840832
 21
12.80567170931426
 31
0.0
  0
LINE
  5
719A
330
1F
100
AcDbEntity
  8
AM_0
100
AcDbLine
 10
1.983802932840832
 20
12.80567170931432
 30
0.0
 11
6.946239212005197
 21
13.23982862677764
 31
0.0
  0
LINE
  5
719B
330
1F
100
AcDbEntity
  8
AM_0
100
AcDbLine
 10
1.61583496875727
 20
12.77347868394834
 30
0.0
 11
9.812539876672149
 21
13.4905974409424
 31
0.0
  0
LINE
  5
71A1
330
1F
100
AcDbEntity
  8
AM_0
100
AcDbLine
 10
1.124909125759019
 20
12.54452558297187
 30
0.0
 11
1.538463306730364
 21
12.9591146658276
 31
0.0
  0
LINE
  5
71CE
330
1F
100
AcDbEntity
  8
AM_0
100
AcDbLine
 10
30.8006316005322
 20
24.99882223096808
 30
0.0
 11
32.00640296647231
 21
24.99882223096808
 31
0.0
  0
LINE
  5
71D0
330
1F
100
AcDbEntity
  8
AM_0
100
AcDbLine
 10
30.8006316005322
 20
24.99882223096802
 30
0.0
 11
7.560353177720042
 21
24.99882223096803
 31
0.0
  0
DIMENSION
  5
71D4
330
1F
100
AcDbEntity
  8
AM_5
100
AcDbDimension
  2
*D3
 10
139.2738773056935
 20
-87.63148252364919
 30
0.0
 11
135.8735032899455
 21
-77.63148252364918
 31
0.0
 70
    32
  1
<>
 71
     5
 42
20.0
  3
AM_JIS
100
AcDbAlignedDimension
 13
125.0064029664723
 23
-67.6314825236492
 33
0.0
 14
124.9999999664723
 24
-87.63148252364919
 34
0.0
 50
89.99999999999998
100
AcDbRotatedDimension
1001
GENIUS_GENDTOL_13
1000

1000
h7
1000

1040
0.0
1001
ACAD
1000
DSTYLE
1002
{
1070
   271
1070
     4
1002
}
  0
LINE
  5
71D5
330
1F
100
AcDbEntity
  8
AM_0
100
AcDbLine
 10
124.9999999664723
 20
-67.6314825236492
 30
0.0
 11
124.9999999664723
 21
-87.63148252364919
 31
0.0
  0
LINE
  5
71D6
330
1F
100
AcDbEntity
  8
AM_0
100
AcDbLine
 10
124.9999999664723
 20
24.99882223096798
 30
0.0
 11
124.9999999664723
 21
4.998822230967984
 31
0.0
  0
DIMENSION
  5
71D7
330
1F
100
AcDbEntity
  8
AM_5
100
AcDbDimension
  2
*D2
 10
139.4780730589431
 20
4.998822230968007
 30
0.0
 11
136.077699043195
 21
14.99882223096801
 31
0.0
 70
    32
  1
<>
 71
     5
 42
19.99999999999997
  3
AM_JIS
100
AcDbAlignedDimension
 13
125.0064029664723
 23
24.99882223096798
 33
0.0
 14
125.0064029664723
 24
4.998822230968012
 34
0.0
 50
89.99999999999998
100
AcDbRotatedDimension
1001
GENIUS_GENDTOL_13
1000

1000
h7
1000

1040
0.0
1001
ACAD
1000
DSTYLE
1002
{
1070
   271
1070
     6
1002
}
  0
DIMENSION
  5
72DA
330
1F
100
AcDbEntity
  8
AM_5
100
AcDbDimension
  2
*D8
 10
31.99999996647238
 20
-28.87394016601785
 30
0.0
 11
15.99999998323619
 21
-25.47356615026981
 31
0.0
 70
    32
 71
     5
 42
31.99999996647238
  3
AM_JIS$0
100
AcDbAlignedDimension
 13
0.0
 23
-1.138021079281304
 33
0.0
 14
31.99999996647238
 24
4.997018230968031
 34
0.0
100
AcDbRotatedDimension
1001
ACAD
1000
DSTYLE
1002
{
1070
   271
1070
     6
1002
}
  0
LINE
  5
73FE
330
1F
100
AcDbEntity
  8
AM_1
100
AcDbLine
 10
124.9999999664723
 20
-67.6314825236492
 30
0.0
 11
124.9935969664724
 21
5.048508230967993
 31
0.0
  0
LINE
  5
73FF
330
1F
100
AcDbEntity
  8
AM_1
100
AcDbLine
 10
0.0019424012741557
 20
-67.35661852369389
 30
0.0
 11
-0.0000000000000004
 21
-4.141239154400125
 31
0.0
  0
TEXT
  5
7495
330
1F
100
AcDbEntity
  8
AM_6
100
AcDbText
 10
41.95224322609425
 20
-100.9925238298925
 30
0.0
 40
5.0
  1
DCLNR2020K12
 72
     4
 11
63.61489086388953
 21
-98.49252382989249
 31
0.0
100
AcDbText
  0
LINE
  5
7F7D
330
1F
100
AcDbEntity
  8
AM_0
100
AcDbLine
 10
23.03892208243308
 20
10.87987483772195
 30
0.0
 11
22.75130813136575
 21
10.59335534457153
 31
0.0
  0
LINE
  5
7F7F
330
1F
100
AcDbEntity
  8
AM_0
100
AcDbLine
 10
23.61403804702859
 20
11.08487425770141
 30
0.0
 11
22.75130813136575
 21
10.59335534457153
 31
0.0
  0
LINE
  5
7F85
330
1F
100
AcDbEntity
  8
AM_0
100
AcDbLine
 10
22.3084779687083
 20
-57.80067230177784
 30
0.0
 11
23.54333327997597
 21
-57.68359565861127
 31
0.0
  0
LINE
  5
7F87
330
1F
100
AcDbEntity
  8
AM_0
100
AcDbLine
 10
-62.57101545705275
 20
19.08020668846712
 30
0.0
 11
-63.19614925425216
 21
19.46676174789979
 31
0.0
  0
LINE
  5
7F8C
330
1F
100
AcDbEntity
  8
AM_0
100
AcDbLine
 10
-65.19742727625616
 20
5.250751473524077
 30
0.0
 11
-65.05024053099937
 21
5.237874301892826
 31
0.0
  0
LINE
  5
7F8D
330
1F
100
AcDbEntity
  8
AM_0
100
AcDbLine
 10
-64.48393961805921
 20
11.38259274446842
 30
0.0
 11
-64.93127416530895
 21
8.386640578953926
 31
0.0
  0
LINE
  5
7F92
330
1F
100
AcDbEntity
  8
AM_0
100
AcDbLine
 10
17.82300506096828
 20
-64.58352393212251
 30
0.0
 11
11.84164406825368
 21
-65.15061682163346
 31
0.0
  0
LINE
  5
7F94
330
1F
100
AcDbEntity
  8
AM_0
100
AcDbLine
 10
-54.20169179807722
 20
16.20917406349543
 30
0.0
 11
-54.47764033862206
 21
16.23331643250971
 31
0.0
  0
LINE
  5
7F95
330
1F
100
AcDbEntity
  8
AM_0
100
AcDbLine
 10
20.37269650302487
 20
17.03756011209253
 30
0.0
 11
22.52045824952102
 21
16.19659829131052
 31
0.0
  0
LINE
  5
7FA8
330
1F
100
AcDbEntity
  8
AM_0
100
AcDbLine
 10
22.52567218390777
 20
-57.77272369646212
 30
0.0
 11
22.48268069115352
 21
-57.77835575997542
 31
0.0
  0
LINE
  5
7FA9
330
1F
100
AcDbEntity
  8
AM_0
100
AcDbLine
 10
22.3785776442794
 20
-57.7917877343987
 30
0.0
 11
22.36110392437376
 21
-57.79401427606095
 31
0.0
  0
LINE
  5
7FAB
330
1F
100
AcDbEntity
  8
AM_0
100
AcDbLine
 10
17.47374703703485
 20
-56.39664572866982
 30
0.0
 11
16.87204825047945
 21
-57.10869536789246
 31
0.0
  0
LINE
  5
7FAC
330
1F
100
AcDbEntity
  8
AM_0
100
AcDbLine
 10
25.11831983806076
 20
-57.3670626881167
 30
0.0
 11
25.09693551327166
 21
-57.12356884424358
 31
0.0
  0
LINE
  5
7FAD
330
1F
100
AcDbEntity
  8
AM_0
100
AcDbLine
 10
11.13552100367422
 20
5.525242467176042
 30
0.0
 11
7.472498638405159
 21
5.232700592322601
 31
0.0
  0
LINE
  5
7FAE
330
1F
100
AcDbEntity
  8
AM_0
100
AcDbLine
 10
-56.32396780995209
 20
10.49015048912964
 30
0.0
 11
-56.27473957726677
 21
10.69387753138427
 31
0.0
  0
LINE
  5
7FBF
330
1F
100
AcDbEntity
  8
AM_0
100
AcDbLine
 10
16.4057309832915
 20
-57.80899513837735
 30
0.0
 11
14.09038434268393
 21
-58.30008595656742
 31
0.0
  0
LINE
  5
7FC5
330
1F
100
AcDbEntity
  8
AM_0
100
AcDbLine
 10
-64.96902882264972
 20
5.263884042779192
 30
0.0
 11
-60.31822935718146
 21
7.593893151231224
 31
0.0
  0
LINE
  5
7FCE
330
1F
100
AcDbEntity
  8
AM_0
100
AcDbLine
 10
21.31012477189909
 20
12.70451644419103
 30
0.0
 11
19.16236302540306
 21
13.54547826497293
 31
0.0
  0
LINE
  5
7FCF
330
1F
100
AcDbEntity
  8
AM_0
100
AcDbLine
 10
23.87698134458053
 20
11.89607489019244
 30
0.0
 11
24.16771428919951
 21
12.18570150818249
 31
0.0
  0
LINE
  5
7FD0
330
1F
100
AcDbEntity
  8
AM_0
100
AcDbLine
 10
-55.30801018737675
 20
22.03281983749345
 30
0.0
 11
-56.00329738106764
 21
19.15543026322724
 31
0.0
  0
LINE
  5
7FD2
330
1F
100
AcDbEntity
  8
AM_0
100
AcDbLine
 10
28.13844130248345
 20
-63.22837176421777
 30
0.0
 11
20.85961961214991
 21
-64.23042782968256
 31
0.0
  0
LINE
  5
7FD7
330
1F
100
AcDbEntity
  8
AM_0
100
AcDbLine
 10
-55.74752494995978
 20
10.92862100128094
 30
0.0
 11
-55.03573423613109
 21
11.53054148770298
 31
0.0
  0
LINE
  5
7FD8
330
1F
100
AcDbEntity
  8
AM_0
100
AcDbLine
 10
-54.20169179807722
 20
16.20917406349543
 30
0.0
 11
-54.36913707106619
 21
13.93412211850285
 31
0.0
  0
LINE
  5
7FD9
330
1F
100
AcDbEntity
  8
AM_0
100
AcDbLine
 10
-54.59923296071493
 20
15.61604576006688
 30
0.0
 11
-54.31673974290148
 21
17.05013588427745
 31
0.0
  0
LINE
  5
7FDE
330
1F
100
AcDbEntity
  8
AM_0
100
AcDbLine
 10
20.35841589908216
 20
-55.67636759156065
 30
0.0
 11
20.39105834980308
 21
-56.04805273373031
 31
0.0
  0
LINE
  5
7FE0
330
1F
100
AcDbEntity
  8
AM_0
100
AcDbLine
 10
-56.36480712946611
 20
10.68805084519864
 30
0.0
 11
-56.38465039158321
 21
10.60593111675645
 31
0.0
  0
LINE
  5
7FE4
330
1F
100
AcDbEntity
  8
AM_0
100
AcDbLine
 10
22.5061776455783
 20
-55.56131964673639
 30
0.0
 11
22.52560559043218
 21
-55.78253705797843
 31
0.0
  0
LINE
  5
7FEF
330
1F
100
AcDbEntity
  8
AM_0
100
AcDbLine
 10
21.09223541502995
 20
12.48745622210737
 30
0.0
 11
18.94447366853392
 21
13.32841804288927
 31
0.0
  0
LINE
  5
7FF5
330
1F
100
AcDbEntity
  8
AM_0
100
AcDbLine
 10
18.94447366853392
 20
13.32841804288927
 30
0.0
 11
19.16236302540306
 21
13.54547826497293
 31
0.0
  0
LINE
  5
7FF7
330
1F
100
AcDbEntity
  8
AM_0
100
AcDbLine
 10
-55.97727726762328
 20
18.89620182657428
 30
0.0
 11
-56.09604700558732
 21
18.4046829134444
 31
0.0
  0
LINE
  5
7FFA
330
1F
100
AcDbEntity
  8
AM_0
100
AcDbLine
 10
22.65322535666564
 20
-57.75571083802404
 30
0.0
 11
22.610949423237
 21
-57.76140058399156
 31
0.0
  0
LINE
  5
7FFC
330
1F
100
AcDbEntity
  8
AM_0
100
AcDbLine
 10
22.48268069115352
 20
-57.77835575997542
 30
0.0
 11
22.4394605369514
 21
-57.78396729677698
 31
0.0
  0
LINE
  5
7FFD
330
1F
100
AcDbEntity
  8
AM_0
100
AcDbLine
 10
16.18954105109662
 20
-57.86620602372583
 30
0.0
 11
14.21071529449761
 21
-58.28591992004707
 31
0.0
  0
LINE
  5
7FFF
330
1F
100
AcDbEntity
  8
AM_0
100
AcDbLine
 10
16.62952673513666
 20
-57.86720086612209
 30
0.0
 11
16.6532115070961
 21
-58.13688888398215
 31
0.0
  0
LINE
  5
8000
330
1F
100
AcDbEntity
  8
AM_0
100
AcDbLine
 10
18.58470421253132
 20
15.60346998788185
 30
0.0
 11
20.37269650302487
 21
17.03756011209253
 31
0.0
  0
LINE
  5
8001
330
1F
100
AcDbEntity
  8
AM_0
100
AcDbLine
 10
11.13552100367422
 20
5.525242467176042
 30
0.0
 11
11.85592467219628
 21
5.980765838992567
 31
0.0
  0
LINE
  5
8002
330
1F
100
AcDbEntity
  8
AM_0
100
AcDbLine
 10
22.5061776455783
 20
-55.56131964673639
 30
0.0
 11
22.8659471015809
 21
-55.72876491972536
 31
0.0
  0
LINE
  5
8007
330
1F
100
AcDbEntity
  8
AM_0
100
AcDbLine
 10
22.8659471015809
 20
-55.72876491972536
 30
0.0
 11
21.07795481108735
 21
-56.01125813753881
 31
0.0
  0
LINE
  5
800C
330
1F
100
AcDbEntity
  8
AM_0
100
AcDbLine
 10
11.12124039973162
 20
-66.05986127328279
 30
0.0
 11
7.458218034462561
 21
-66.4071524566763
 31
0.0
  0
LINE
  5
800E
330
1F
100
AcDbEntity
  8
AM_0
100
AcDbLine
 10
-56.44104445311866
 20
10.39153059224987
 30
0.0
 11
-56.32396780995209
 21
10.49015048912964
 31
0.0
  0
LINE
  5
8011
330
1F
100
AcDbEntity
  8
AM_0
100
AcDbLine
 10
7.775829496116376
 20
11.37001697228339
 30
0.0
 11
5.666780613834863
 21
8.374064806769013
 31
0.0
  0
LINE
  5
8018
330
1F
100
AcDbEntity
  8
AM_0
100
AcDbLine
 10
19.13116190561577
 20
18.88362605438937
 30
0.0
 11
18.26843198995293
 21
18.39210714125949
 31
0.0
  0
LINE
  5
8023
330
1F
100
AcDbEntity
  8
AM_0
100
AcDbLine
 10
22.87429169036629
 20
13.95908355967418
 30
0.0
 11
21.31012477189909
 21
12.70451644419103
 31
0.0
  0
LINE
  5
8025
330
1F
100
AcDbEntity
  8
AM_0
100
AcDbLine
 10
-56.34789525072354
 20
10.29555321969202
 30
0.0
 11
-56.25037166043973
 21
10.69914667643026
 31
0.0
  0
LINE
  5
8026
330
1F
100
AcDbEntity
  8
AM_0
100
AcDbLine
 10
20.68033248036789
 20
7.339189884034965
 30
0.0
 11
25.69276718308884
 21
10.0242006009567
 31
0.0
  0
LINE
  5
8029
330
1F
100
AcDbEntity
  8
AM_0
100
AcDbLine
 10
21.07795481108735
 20
-56.01125813753881
 30
0.0
 11
18.93019306459121
 21
-56.12630608236319
 31
0.0
  0
LINE
  5
802E
330
1F
100
AcDbEntity
  8
AM_0
100
AcDbLine
 10
-57.38869808726197
 20
9.208549111627245
 30
0.0
 11
-56.61640856966172
 21
9.859089736358452
 31
0.0
  0
LINE
  5
802F
330
1F
100
AcDbEntity
  8
AM_0
100
AcDbLine
 10
22.52045824952102
 20
16.19659829131052
 30
0.0
 11
22.8802277055235
 21
13.92154634631794
 31
0.0
  0
LINE
  5
8032
330
1F
100
AcDbEntity
  8
AM_0
100
AcDbLine
 10
24.72591789739033
 20
-56.41894610479031
 30
0.0
 11
24.00931848653795
 21
-55.82267317833353
 31
0.0
  0
LINE
  5
8034
330
1F
100
AcDbEntity
  8
AM_0
100
AcDbLine
 10
28.13947334448096
 20
-63.24012316976669
 30
0.0
 11
28.13844130248345
 21
-63.22837176421777
 31
0.0
  0
LINE
  5
8035
330
1F
100
AcDbEntity
  8
AM_0
100
AcDbLine
 10
30.66916666737068
 20
14.85629464264019
 30
0.0
 11
28.17867992214126
 21
19.18893452968899
 31
0.0
  0
LINE
  5
8036
330
1F
100
AcDbEntity
  8
AM_0
100
AcDbLine
 10
-63.57886704824257
 20
11.72538191939919
 30
0.0
 11
-64.48393961805921
 21
11.38259274446842
 31
0.0
  0
LINE
  5
8037
330
1F
100
AcDbEntity
  8
AM_0
100
AcDbLine
 10
-56.00329738106764
 20
19.15543026322724
 30
0.0
 11
-56.15410002066456
 21
18.14545350770243
 31
0.0
  0
LINE
  5
803A
330
1F
100
AcDbEntity
  8
AM_0
100
AcDbLine
 10
21.09223541502995
 20
12.48745622210737
 30
0.0
 11
21.31012477189909
 21
12.70451644419103
 31
0.0
  0
LINE
  5
803C
330
1F
100
AcDbEntity
  8
AM_0
100
AcDbLine
 10
-63.45153825624148
 20
12.57814630451868
 30
0.0
 11
-63.77140157492416
 21
12.7759356173308
 31
0.0
  0
LINE
  5
803D
330
1F
100
AcDbEntity
  8
AM_0
100
AcDbLine
 10
-54.36913707106619
 20
13.93412211850285
 30
0.0
 11
-54.72075943831642
 21
13.96488508947937
 31
0.0
  0
LINE
  5
8044
330
1F
100
AcDbEntity
  8
AM_0
100
AcDbLine
 10
-63.57886704824257
 20
11.72538191939919
 30
0.0
 11
-62.84841302836465
 21
16.61748183905957
 31
0.0
  0
LINE
  5
804D
330
1F
100
AcDbEntity
  8
AM_0
100
AcDbLine
 10
18.57042360858861
 20
-55.9588608093741
 30
0.0
 11
18.93019306459121
 21
-56.12630608236319
 31
0.0
  0
LINE
  5
8050
330
1F
100
AcDbEntity
  8
AM_0
100
AcDbLine
 10
22.610949423237
 20
-57.76140058399156
 30
0.0
 11
22.56843006803467
 21
-57.76707175433799
 31
0.0
  0
LINE
  5
8051
330
1F
100
AcDbEntity
  8
AM_0
100
AcDbLine
 10
22.4394605369514
 20
-57.78396729677698
 30
0.0
 11
22.39601669479373
 21
-57.78955766112781
 31
0.0
  0
LINE
  5
8053
330
1F
100
AcDbEntity
  8
AM_0
100
AcDbLine
 10
-56.77535879133388
 20
10.64011367247907
 30
0.0
 11
-56.38465039158321
 21
10.60593111675645
 31
0.0
  0
LINE
  5
8054
330
1F
100
AcDbEntity
  8
AM_0
100
AcDbLine
 10
-56.66588238801439
 20
23.65734801788132
 30
0.0
 11
-62.60039680237373
 21
24.17655075266889
 31
0.0
  0
LINE
  5
805D
330
1F
100
AcDbEntity
  8
AM_0
100
AcDbLine
 10
28.13947334448096
 20
-63.24012316976669
 30
0.0
 11
29.52443703149108
 21
-64.60953106005334
 31
0.0
  0
LINE
  5
805E
330
1F
100
AcDbEntity
  8
AM_0
100
AcDbLine
 10
28.17867992214126
 20
19.18893452968899
 30
0.0
 11
25.68819317691195
 21
23.52157441673779
 31
0.0
  0
LINE
  5
8065
330
1F
100
AcDbEntity
  8
AM_0
100
AcDbLine
 10
-61.46362376355781
 20
22.87154662511524
 30
0.0
 11
-62.66270300672227
 21
23.61300413418345
 31
0.0
  0
LINE
  5
806B
330
1F
100
AcDbEntity
  8
AM_0
100
AcDbLine
 10
21.67848841082723
 20
22.85897085293021
 30
0.0
 11
23.59087442499599
 21
24.02822355147288
 31
0.0
  0
LINE
  5
806E
330
1F
100
AcDbEntity
  8
AM_0
100
AcDbLine
 10
18.57042360858861
 20
-55.9588608093741
 30
0.0
 11
20.35841589908216
 21
-55.67636759156065
 31
0.0
  0
LINE
  5
8070
330
1F
100
AcDbEntity
  8
AM_0
100
AcDbLine
 10
-61.45187235800877
 20
22.87051851034915
 30
0.0
 11
-62.45392842347367
 21
18.72359087848396
 31
0.0
  0
LINE
  5
8072
330
1F
100
AcDbEntity
  8
AM_0
100
AcDbLine
 10
8.561035001485539
 20
11.71280614721428
 30
0.0
 11
12.00490769956575
 21
16.60490606687466
 31
0.0
  0
LINE
  5
8079
330
1F
100
AcDbEntity
  8
AM_0
100
AcDbLine
 10
-54.46394608007103
 20
18.06611001756824
 30
0.0
 11
-55.06040069800413
 21
18.78248713963024
 31
0.0
  0
LINE
  5
807A
330
1F
100
AcDbEntity
  8
AM_0
100
AcDbLine
 10
-54.31673974290148
 20
17.05013588427745
 30
0.0
 11
-54.20169179807722
 21
16.20917406349543
 31
0.0
  0
LINE
  5
807B
330
1F
100
AcDbEntity
  8
AM_0
100
AcDbLine
 10
-54.59923296071493
 20
15.61604576006688
 30
0.0
 11
-54.76667823370402
 21
13.34099381507429
 31
0.0
  0
LINE
  5
807C
330
1F
100
AcDbEntity
  8
AM_0
100
AcDbLine
 10
-54.36913707106619
 20
13.93412211850285
 30
0.0
 11
-54.65163028887964
 21
12.50003199429228
 31
0.0
  0
LINE
  5
8080
330
1F
100
AcDbEntity
  8
AM_0
100
AcDbLine
 10
25.7381771547304
 20
10.04928994710036
 30
0.0
 11
29.48136902867423
 21
12.18188042311732
 31
0.0
  0
LINE
  5
8083
330
1F
100
AcDbEntity
  8
AM_0
100
AcDbLine
 10
21.67848841082723
 20
22.85897085293021
 30
0.0
 11
21.67745636882983
 21
22.85794273816424
 31
0.0
  0
LINE
  5
8085
330
1F
100
AcDbEntity
  8
AM_0
100
AcDbLine
 10
22.36110392437376
 20
-57.79401427606095
 30
0.0
 11
22.34359585680113
 21
-57.79623724511989
 31
0.0
  0
LINE
  5
8087
330
1F
100
AcDbEntity
  8
AM_0
100
AcDbLine
 10
20.35841589908216
 20
-55.67636759156065
 30
0.0
 11
22.5061776455783
 21
-55.56131964673639
 31
0.0
  0
LINE
  5
808C
330
1F
100
AcDbEntity
  8
AM_0
100
AcDbLine
 10
8.561035001485539
 20
11.71280614721428
 30
0.0
 11
7.775829496116376
 21
11.37001697228339
 31
0.0
  0
LINE
  5
808F
330
1F
100
AcDbEntity
  8
AM_0
100
AcDbLine
 10
5.275910012953886
 20
-66.23767612510235
 30
0.0
 11
5.324879205831406
 21
-66.79527030006004
 31
0.0
  0
LINE
  5
809B
330
1F
100
AcDbEntity
  8
AM_0
100
AcDbLine
 10
-56.7793682859636
 20
10.70965214657134
 30
0.0
 11
-56.50616891320119
 21
10.68575029857232
 31
0.0
  0
LINE
  5
809F
330
1F
100
AcDbEntity
  8
AM_0
100
AcDbLine
 10
22.56843006803467
 20
-57.76707175433799
 30
0.0
 11
22.52567218390777
 21
-57.77272369646212
 31
0.0
  0
LINE
  5
80A0
330
1F
100
AcDbEntity
  8
AM_0
100
AcDbLine
 10
22.39601669479373
 20
-57.78955766112781
 30
0.0
 11
22.3785776442794
 21
-57.7917877343987
 31
0.0
  0
LINE
  5
80A2
330
1F
100
AcDbEntity
  8
AM_0
100
AcDbLine
 10
-55.41070278240052
 20
19.05241380453436
 30
0.0
 11
-55.2976420511912
 21
22.10758440695498
 31
0.0
  0
LINE
  5
80A3
330
1F
100
AcDbEntity
  8
AM_0
100
AcDbLine
 10
18.58470421253132
 20
15.60346998788185
 30
0.0
 11
18.94447366853392
 21
13.32841804288927
 31
0.0
  0
LINE
  5
80A7
330
1F
100
AcDbEntity
  8
AM_0
100
AcDbLine
 10
-61.46579385731179
 20
22.81290551630026
 30
0.0
 11
-61.46362376355781
 21
22.87154662511524
 31
0.0
  0
LINE
  5
80A8
330
1F
100
AcDbEntity
  8
AM_0
100
AcDbLine
 10
23.9016519980958
 20
11.37139375085183
 30
0.0
 11
23.61403804702859
 21
11.08487425770141
 31
0.0
  0
LINE
  5
80B0
330
1F
100
AcDbEntity
  8
AM_0
100
AcDbLine
 10
23.9016519980958
 20
11.37139375085183
 30
0.0
 11
23.03892208243308
 21
10.87987483772195
 31
0.0
  0
LINE
  5
80B3
330
1F
100
AcDbEntity
  8
AM_0
100
AcDbLine
 10
28.13947334448096
 20
-63.24012316976669
 30
0.0
 11
28.08060823615688
 21
-63.2363334889807
 31
0.0
  0
LINE
  5
80B5
330
1F
100
AcDbEntity
  8
AM_0
100
AcDbLine
 10
-61.46362376355781
 20
22.87154662511524
 30
0.0
 11
-61.45187235800877
 21
22.87051851034915
 31
0.0
  0
LINE
  5
80B9
330
1F
100
AcDbEntity
  8
AM_0
100
AcDbLine
 10
29.79747120703046
 20
12.4225202704311
 30
0.0
 11
30.41417339357206
 21
13.03687571896552
 31
0.0
  0
LINE
  5
80BC
330
1F
100
AcDbEntity
  8
AM_0
100
AcDbLine
 10
11.12124039973162
 20
-66.05986127328279
 30
0.0
 11
11.84164406825368
 21
-65.15061682163346
 31
0.0
  0
LINE
  5
80BD
330
1F
100
AcDbEntity
  8
AM_0
100
AcDbLine
 10
-55.76534509984613
 20
19.15340523235217
 30
0.0
 11
-55.9044548034504
 21
19.16557575440391
 31
0.0
  0
LINE
  5
80BF
330
1F
100
AcDbEntity
  8
AM_0
100
AcDbLine
 10
28.8209233669437
 20
-56.98001314842705
 30
0.0
 11
24.97831236275442
 21
-56.73262943496027
 31
0.0
  0
LINE
  5
80C2
330
1F
100
AcDbEntity
  8
AM_0
100
AcDbLine
 10
9.410626527070235
 20
-61.44319887796829
 30
0.0
 11
5.282736946328213
 21
-66.20123942304181
 31
0.0
  0
LINE
  5
80C3
330
1F
100
AcDbEntity
  8
AM_0
100
AcDbLine
 10
26.58027473888365
 20
-64.02363773008838
 30
0.0
 11
27.27575290287223
 21
-64.71130434129318
 31
0.0
  0
LINE
  5
80C6
330
1F
100
AcDbEntity
  8
AM_0
100
AcDbLine
 10
19.16236302540306
 20
13.54547826497293
 30
0.0
 11
18.80852958455766
 21
15.78299299660926
 31
0.0
  0
LINE
  5
80C8
330
1F
100
AcDbEntity
  8
AM_0
100
AcDbLine
 10
22.73702752742315
 20
-57.74427824024238
 30
0.0
 11
22.69525300348312
 21
-57.75000317117397
 31
0.0
  0
LINE
  5
80CB
330
1F
100
AcDbEntity
  8
AM_0
100
AcDbLine
 10
18.16877505633197
 20
18.20755571435205
 30
0.0
 11
17.87804211171299
 21
17.917929096362
 31
0.0
  0
LINE
  5
80CF
330
1F
100
AcDbEntity
  8
AM_0
100
AcDbLine
 10
23.59975744308588
 20
-57.62550850227833
 30
0.0
 11
22.73702752742315
 21
-57.74427824024238
 31
0.0
  0
LINE
  5
80D3
330
1F
100
AcDbEntity
  8
AM_0
100
AcDbLine
 10
-55.41818903827614
 20
19.05552451421432
 30
0.0
 11
-55.30801018737675
 21
22.03281983749345
 31
0.0
  0
LINE
  5
80D7
330
1F
100
AcDbEntity
  8
AM_0
100
AcDbLine
 10
-54.65163028887964
 20
12.50003199429228
 30
0.0
 11
-54.76667823370402
 21
13.34099381507429
 31
0.0
  0
LINE
  5
80D9
330
1F
100
AcDbEntity
  8
AM_0
100
AcDbLine
 10
22.8802277055235
 20
13.92154634631794
 30
0.0
 11
21.09223541502995
 21
12.48745622210737
 31
0.0
  0
LINE
  5
80DA
330
1F
100
AcDbEntity
  8
AM_0
100
AcDbLine
 10
17.837285664911
 20
6.45845840663145
 30
0.0
 11
11.85592467219628
 21
5.980765838992567
 31
0.0
  0
LINE
  5
80DC
330
1F
100
AcDbEntity
  8
AM_0
100
AcDbLine
 10
21.67745636882983
 20
22.85794273816424
 30
0.0
 11
14.39863467849618
 21
18.71101510629893
 31
0.0
  0
LINE
  5
80DF
330
1F
100
AcDbEntity
  8
AM_0
100
AcDbLine
 10
22.69525300348312
 20
-57.75000317117397
 30
0.0
 11
22.65322535666564
 21
-57.75571083802404
 31
0.0
  0
LINE
  5
80E0
330
1F
100
AcDbEntity
  8
AM_0
100
AcDbLine
 10
22.34359585680113
 20
-57.79623724511989
 30
0.0
 11
22.3084779687083
 21
-57.80067230177784
 31
0.0
  0
ARC
  5
80E1
330
1F
100
AcDbEntity
  8
AM_0
100
AcDbCircle
 10
20.92153089665355
 20
14.86312229215554
 30
0.0
 40
4.187858468591895
100
AcDbArc
 50
305.3494370814638
 51
307.7341526287467
  0
ARC
  5
80E6
330
1F
100
AcDbEntity
  8
AM_0
100
AcDbCircle
 10
20.80666306795972
 20
14.79800815843367
 30
0.0
 40
4.509406726673478
100
AcDbArc
 50
218.1276579509944
 51
299.6712519095885
  0
ARC
  5
80E7
330
1F
100
AcDbEntity
  8
AM_0
100
AcDbCircle
 10
17.98631257425279
 20
-25.49400684734659
 30
0.0
 40
31.786491148692
100
AcDbArc
 50
270.1228366286792
 51
275.0010548040871
  0
ARC
  5
80EA
330
1F
100
AcDbEntity
  8
AM_0
100
AcDbCircle
 10
20.55380034192062
 20
14.45049218952948
 30
0.0
 40
4.439205461048633
100
AcDbArc
 50
298.4338740662824
 51
299.6712519099706
  0
ARC
  5
80EB
330
1F
100
AcDbEntity
  8
AM_0
100
AcDbCircle
 10
21.70701675072012
 20
15.22405047736714
 30
0.0
 40
4.433879924873969
100
AcDbArc
 50
305.9667984233443
 51
307.2264388142276
  0
ARC
  5
80F1
330
1F
100
AcDbEntity
  8
AM_0
100
AcDbCircle
 10
20.46487604876045
 20
14.53677799824112
 30
0.0
 40
4.437107896611635
100
AcDbArc
 50
120.9086299959694
 51
122.1463877286572
  0
ARC
  5
80F6
330
1F
100
AcDbEntity
  8
AM_0
100
AcDbCircle
 10
16.34663310111148
 20
-7.033910789679595
 30
0.0
 40
51.13668873919768
100
AcDbArc
 50
271.120506435282
 51
272.2144537907853
  0
ARC
  5
80FE
330
1F
100
AcDbEntity
  8
AM_0
100
AcDbCircle
 10
-54.56923333846107
 20
10.71442158090623
 30
0.0
 40
2.215682667173487
100
AcDbArc
 50
181.3349183406718
 51
194.4636055965263
  0
ARC
  5
80FF
330
1F
100
AcDbEntity
  8
AM_0
100
AcDbCircle
 10
20.55256761330093
 20
14.45281658430582
 30
0.0
 40
4.441836659513296
100
AcDbArc
 50
295.3415209732725
 51
297.1969360034425
  0
ARC
  5
8106
330
1F
100
AcDbEntity
  8
AM_0
100
AcDbCircle
 10
17.75717508862283
 20
-12.86012784159666
 30
0.0
 40
45.15835580344794
100
AcDbArc
 50
270.2476783393934
 51
274.4830314364012
  0
ARC
  5
8107
330
1F
100
AcDbEntity
  8
AM_0
100
AcDbCircle
 10
-24.5257132584422
 20
12.38182169402649
 30
0.0
 40
30.65461854529151
100
AcDbArc
 50
175.0763078970566
 51
179.6075234852123
  0
ARC
  5
8108
330
1F
100
AcDbEntity
  8
AM_0
100
AcDbCircle
 10
-54.79434155089378
 20
11.70889898823499
 30
0.0
 40
0.3409344316234452
100
AcDbArc
 50
189.914623700282
 51
206.656091855546
  0
ARC
  5
8109
330
1F
100
AcDbEntity
  8
AM_0
100
AcDbCircle
 10
21.42042232476233
 20
14.93626507565528
 30
0.0
 40
4.43225412833567
100
AcDbArc
 50
310.6279043002758
 51
311.8458475028419
  0
ARC
  5
810A
330
1F
100
AcDbEntity
  8
AM_0
100
AcDbCircle
 10
22.67060303494964
 20
-59.38023978952211
 30
0.0
 40
3.85414216709978
100
AcDbArc
 50
84.376165326389
 51
89.4001111814517
  0
ARC
  5
8112
330
1F
100
AcDbEntity
  8
AM_0
100
AcDbCircle
 10
20.46355747387763
 20
14.53877791016276
 30
0.0
 40
4.43471214789837
100
AcDbArc
 50
124.0030348321877
 51
125.8603577001532
  0
ARC
  5
8114
330
1F
100
AcDbEntity
  8
AM_0
100
AcDbCircle
 10
22.30301148705894
 20
-44.69862636772748
 30
0.0
 40
12.97749096830171
100
AcDbArc
 50
279.1463569171108
 51
282.5654737503687
  0
ARC
  5
8115
330
1F
100
AcDbEntity
  8
AM_0
100
AcDbCircle
 10
20.74855397912409
 20
14.74299059318679
 30
0.0
 40
2.559858243118226
100
AcDbArc
 50
0.4368544428389483
 51
162.3644018793965
  0
ARC
  5
8116
330
1F
100
AcDbEntity
  8
AM_0
100
AcDbCircle
 10
20.73863762403998
 20
14.74291498399367
 30
0.0
 40
2.569774886446701
100
AcDbArc
 50
342.4296195466395
 51
0.4368544428161508
  0
ARC
  5
8117
330
1F
100
AcDbEntity
  8
AM_0
100
AcDbCircle
 10
14.22796608820909
 20
-58.95208893352744
 30
0.0
 40
0.6663923351938763
100
AcDbArc
 50
91.48337255140054
 51
96.70215535476607
  0
ARC
  5
8119
330
1F
100
AcDbEntity
  8
AM_0
100
AcDbCircle
 10
-55.68091143841066
 20
22.12292701892614
 30
0.0
 40
0.3836334802474254
100
AcDbArc
 50
346.4155506415856
 51
352.0615934280775
  0
ARC
  5
811B
330
1F
100
AcDbEntity
  8
AM_0
100
AcDbCircle
 10
386.1279110287827
 20
-15.37027426050257
 30
0.0
 40
443.6796468827085
100
AcDbArc
 50
176.2104408385233
 51
176.4066338062152
  0
ARC
  5
811C
330
1F
100
AcDbEntity
  8
AM_0
100
AcDbCircle
 10
20.8344995707477
 20
14.95068794321588
 30
0.0
 40
4.188718324448704
100
AcDbArc
 50
144.4252382096993
 51
146.8082325205354
  0
ARC
  5
811D
330
1F
100
AcDbEntity
  8
AM_0
100
AcDbCircle
 10
20.84138937378195
 20
14.94677439717776
 30
0.0
 40
4.196650249919626
100
AcDbArc
 50
153.951928119332
 51
156.3320566544816
  0
ARC
  5
811E
330
1F
100
AcDbEntity
  8
AM_0
100
AcDbCircle
 10
20.918186291396
 20
14.86481750440413
 30
0.0
 40
4.191496923926324
100
AcDbArc
 50
328.4724694207654
 51
330.7348599406379
  0
ARC
  5
8120
330
1F
100
AcDbEntity
  8
AM_0
100
AcDbCircle
 10
-55.66959528645334
 20
22.12134904084611
 30
0.0
 40
0.3722078375963444
100
AcDbArc
 50
352.0615934285477
 51
357.8806590891547
  0
ARC
  5
8121
330
1F
100
AcDbEntity
  8
AM_0
100
AcDbCircle
 10
20.92261099306113
 20
14.86175631971235
 30
0.0
 40
4.186116780149774
100
AcDbArc
 50
310.1196105566089
 51
312.505069587312
  0
ARC
  5
8122
330
1F
100
AcDbEntity
  8
AM_0
100
AcDbCircle
 10
20.91785201687474
 20
14.8692695393849
 30
0.0
 40
4.195029703389258
100
AcDbArc
 50
295.8158820723394
 51
298.1977277233566
  0
ARC
  5
8125
330
1F
100
AcDbEntity
  8
AM_0
100
AcDbCircle
 10
21.12519227038642
 20
15.15873245361825
 30
0.0
 40
4.27729008362341
100
AcDbArc
 50
8.98615847892907
 51
54.69805634022776
  0
ARC
  5
8129
330
1F
100
AcDbEntity
  8
AM_0
100
AcDbCircle
 10
22.91664061508891
 20
-57.21222790583968
 30
0.0
 40
1.413069200970461
100
AcDbArc
 50
82.79600637518878
 51
100.5994544294692
  0
ARC
  5
812A
330
1F
100
AcDbEntity
  8
AM_0
100
AcDbCircle
 10
21.70782846867274
 20
15.22302502727081
 30
0.0
 40
4.43257193422724
100
AcDbArc
 50
309.7459057279822
 51
311.0057322028497
  0
ARC
  5
812D
330
1F
100
AcDbEntity
  8
AM_0
100
AcDbCircle
 10
20.7362958998787
 20
14.8127839601745
 30
0.0
 40
3.258664739005769
100
AcDbArc
 50
86.42868121062427
 51
180.4368544428422
  0
ARC
  5
812E
330
1F
100
AcDbEntity
  8
AM_0
100
AcDbCircle
 10
-32.59007462093173
 20
13.247801340945
 30
0.0
 40
23.27096122238139
100
AcDbArc
 50
167.9835213845329
 51
175.1325624801039
  0
ARC
  5
8131
330
1F
100
AcDbEntity
  8
AM_0
100
AcDbCircle
 10
-66.46302217370915
 20
15.15031356042563
 30
0.0
 40
12.18171173938838
100
AcDbArc
 50
348.4516978275076
 51
353.347292471498
  0
ARC
  5
8132
330
1F
100
AcDbEntity
  8
AM_0
100
AcDbCircle
 10
16.68188529297867
 20
-57.86258716248008
 30
0.0
 40
0.0525614422290284
100
AcDbArc
 50
185.0619012285984
 51
247.4987057921663
  0
ARC
  5
8134
330
1F
100
AcDbEntity
  8
AM_0
100
AcDbCircle
 10
20.86855627635411
 20
14.87430670532825
 30
0.0
 40
4.242795398339827
100
AcDbArc
 50
4.282151465457345
 51
5.850576424362131
  0
ARC
  5
8135
330
1F
100
AcDbEntity
  8
AM_0
100
AcDbCircle
 10
29.37435264776189
 20
14.10764028506429
 30
0.0
 40
1.495010038004514
100
AcDbArc
 50
356.793494729739
 51
3.429707097771936
  0
ARC
  5
8136
330
1F
100
AcDbEntity
  8
AM_0
100
AcDbCircle
 10
20.88373132607176
 20
14.87474077313635
 30
0.0
 40
4.227607829685415
100
AcDbArc
 50
348.8889510895266
 51
0.2000354873823983
  0
ARC
  5
8137
330
1F
100
AcDbEntity
  8
AM_0
100
AcDbCircle
 10
29.38792477349698
 20
14.10494784040492
 30
0.0
 40
1.48106299169305
100
AcDbArc
 50
330.1151956207852
 51
336.7949006453298
  0
ARC
  5
8138
330
1F
100
AcDbEntity
  8
AM_0
100
AcDbCircle
 10
20.92103090198582
 20
14.86382716968882
 30
0.0
 40
4.188722671697767
100
AcDbArc
 50
302.964723705162
 51
305.3494370803378
  0
ARC
  5
8139
330
1F
100
AcDbEntity
  8
AM_0
100
AcDbCircle
 10
24.37842755623642
 20
22.7687914420249
 30
0.0
 40
1.510647264554673
100
AcDbArc
 50
49.67072312068282
 51
56.26551524288239
  0
ARC
  5
813A
330
1F
100
AcDbEntity
  8
AM_0
100
AcDbCircle
 10
24.38280230555477
 20
22.78531606153007
 30
0.0
 40
1.493323822055816
100
AcDbArc
 50
82.68548907143271
 51
95.99004084957782
  0
ARC
  5
813B
330
1F
100
AcDbEntity
  8
AM_0
100
AcDbCircle
 10
20.8321484799432
 20
14.95253852171692
 30
0.0
 40
4.185724034741886
100
AcDbArc
 50
123.8159112115569
 51
134.8907784567487
  0
ARC
  5
813F
330
1F
100
AcDbEntity
  8
AM_0
100
AcDbCircle
 10
20.91922524973818
 20
14.86670822644436
 30
0.0
 40
4.192123487215656
100
AcDbArc
 50
298.1977277270394
 51
300.5812241315946
  0
ARC
  5
8141
330
1F
100
AcDbEntity
  8
AM_0
100
AcDbCircle
 10
-68.28296154866321
 20
18.10841586117693
 30
0.0
 40
13.86584155978595
100
AcDbArc
 50
351.8939382464292
 51
356.5347315996278
  0
ARC
  5
8142
330
1F
100
AcDbEntity
  8
AM_0
100
AcDbCircle
 10
-54.3284043412104
 20
17.26340889371796
 30
0.0
 40
0.1142765953344567
100
AcDbArc
 50
19.52809975287754
 51
176.5347315996865
  0
ARC
  5
8143
330
1F
100
AcDbEntity
  8
AM_0
100
AcDbCircle
 10
18.07287953574098
 20
-65.87214155453049
 30
0.0
 40
8.591736354137898
100
AcDbArc
 50
90.12283662862714
 51
94.1058895290244
  0
ARC
  5
8147
330
1F
100
AcDbEntity
  8
AM_0
100
AcDbCircle
 10
20.91713966746402
 20
14.87074206272058
 30
0.0
 40
4.196665480476078
100
AcDbArc
 50
293.43404049773
 51
295.8158820746329
  0
ARC
  5
8149
330
1F
100
AcDbEntity
  8
AM_0
100
AcDbCircle
 10
24.69942361692608
 20
-56.44987168774744
 30
0.0
 40
0.0407146686050159
100
AcDbArc
 50
314.1118514540736
 51
50.97673994269316
  0
ARC
  5
814B
330
1F
100
AcDbEntity
  8
AM_0
100
AcDbCircle
 10
20.46446029751308
 20
14.53743957186788
 30
0.0
 40
4.43632653320895
100
AcDbArc
 50
122.1463877273181
 51
124.0030348312519
  0
ARC
  5
8150
330
1F
100
AcDbEntity
  8
AM_0
100
AcDbCircle
 10
17.20695099588772
 20
-51.01964669408474
 30
0.0
 40
7.142540151777986
100
AcDbArc
 50
263.3003651835701
 51
271.120506435471
  0
ARC
  5
8151
330
1F
100
AcDbEntity
  8
AM_0
100
AcDbCircle
 10
18.40141273328856
 20
-38.6951189651027
 30
0.0
 40
17.84455574702438
100
AcDbArc
 50
269.0746736607144
 51
270.4303254968163
  0
ARC
  5
8152
330
1F
100
AcDbEntity
  8
AM_0
100
AcDbCircle
 10
1.931853512503991
 20
9.182965480853692
 30
0.0
 40
58.81015512035557
100
AcDbArc
 50
173.5545913448568
 51
175.8075949525177
  0
ARC
  5
8153
330
1F
100
AcDbEntity
  8
AM_0
100
AcDbCircle
 10
-55.77220632423321
 20
19.07322777069272
 30
0.0
 40
0.0804705996170961
100
AcDbArc
 50
85.18169730474699
 51
163.1445147678372
  0
ARC
  5
8154
330
1F
100
AcDbEntity
  8
AM_0
100
AcDbCircle
 10
-60.39135463422709
 20
11.53550228698396
 30
0.0
 40
4.112617386204604
100
AcDbArc
 50
343.8494939489695
 51
345.3938803950036
  0
ARC
  5
8155
330
1F
100
AcDbEntity
  8
AM_0
100
AcDbCircle
 10
25.62533299831705
 20
-57.1064654860277
 30
0.0
 40
0.2165625552262338
100
AcDbArc
 50
267.3639371588729
 51
5.019001817498828
  0
ARC
  5
8158
330
1F
100
AcDbEntity
  8
AM_0
100
AcDbCircle
 10
20.92290726740809
 20
14.86143305018623
 30
0.0
 40
4.185678280812338
100
AcDbArc
 50
312.5050695895573
 51
314.8907784531261
  0
ARC
  5
8159
330
1F
100
AcDbEntity
  8
AM_0
100
AcDbCircle
 10
-62.42769316886911
 20
12.0661610037106
 30
0.0
 40
6.216963674565087
100
AcDbArc
 50
345.3938803993622
 51
346.4155506487291
  0
ARC
  5
815A
330
1F
100
AcDbEntity
  8
AM_0
100
AcDbCircle
 10
-67.33184643131797
 20
12.46799448203923
 30
0.0
 40
11.41353404564206
100
AcDbArc
 50
355.7635859762937
 51
359.2587107154075
  0
ARC
  5
815B
330
1F
100
AcDbEntity
  8
AM_0
100
AcDbCircle
 10
20.55139089820436
 20
14.45530128200693
 30
0.0
 40
4.444585910513973
100
AcDbArc
 50
293.4872534336493
 51
295.3415209753777
  0
ARC
  5
8162
330
1F
100
AcDbEntity
  8
AM_0
100
AcDbCircle
 10
23.93887786122196
 20
-55.90732855737511
 30
0.0
 40
0.1101290828781061
100
AcDbArc
 50
270.9335100772499
 51
50.23660416648361
  0
ARC
  5
8163
330
1F
100
AcDbEntity
  8
AM_0
100
AcDbCircle
 10
-46.18192957054721
 20
16.06138880862478
 30
0.0
 40
10.1876154793956
100
AcDbArc
 50
167.4487106606436
 51
168.1957623557027
  0
ARC
  5
8167
330
1F
100
AcDbEntity
  8
AM_0
100
AcDbCircle
 10
-35.00530514858299
 20
13.10358651091304
 30
0.0
 40
19.3250821298601
100
AcDbArc
 50
171.2130621446068
 51
175.0380773195285
  0
ARC
  5
8169
330
1F
100
AcDbEntity
  8
AM_0
100
AcDbCircle
 10
-37.40262544592527
 20
12.47003001804445
 30
0.0
 40
17.77740424278758
100
AcDbArc
 50
179.6075234862773
 51
180.9682830445605
  0
ARC
  5
816A
330
1F
100
AcDbEntity
  8
AM_0
100
AcDbCircle
 10
-55.03894861916531
 20
11.58610922895981
 30
0.0
 40
0.0672376234001016
100
AcDbArc
 50
206.6560918558373
 51
241.783890538703
  0
ARC
  5
816B
330
1F
100
AcDbEntity
  8
AM_0
100
AcDbCircle
 10
21.42014705266654
 20
14.93658592508399
 30
0.0
 40
4.432676880133302
100
AcDbArc
 50
309.4100772433874
 51
310.6279042974176
  0
ARC
  5
816C
330
1F
100
AcDbEntity
  8
AM_0
100
AcDbCircle
 10
28.72455426787587
 20
-58.47691427967951
 30
0.0
 40
1.499999999999957
100
AcDbArc
 50
5.019001817489094
 51
86.31643457447365
  0
ARC
  5
816D
330
1F
100
AcDbEntity
  8
AM_0
100
AcDbCircle
 10
23.53216564920035
 20
-87.4717425803062
 30
0.0
 40
31.97762558662132
100
AcDbArc
 50
93.9511587643628
 51
95.82407526013168
  0
ARC
  5
816F
330
1F
100
AcDbEntity
  8
AM_0
100
AcDbCircle
 10
23.13089903092418
 20
-54.70580146568969
 30
0.0
 40
0.8429043567528408
100
AcDbArc
 50
264.376165326389
 51
275.211133931953
  0
ARC
  5
8171
330
1F
100
AcDbEntity
  8
AM_0
100
AcDbCircle
 10
16.90181944579478
 20
-57.13285488775184
 30
0.0
 40
0.03832696043285
100
AcDbArc
 50
138.8932958607547
 51
203.06319338372
  0
ARC
  5
8172
330
1F
100
AcDbEntity
  8
AM_0
100
AcDbCircle
 10
24.37921578006722
 20
22.76914842666889
 30
0.0
 40
1.50982339893821
100
AcDbArc
 50
29.89113749435912
 51
36.48880096323984
  0
ARC
  5
8174
330
1F
100
AcDbEntity
  8
AM_0
100
AcDbCircle
 10
20.84543855452721
 20
14.87152930045562
 30
0.0
 40
3.971861016294127
100
AcDbArc
 50
173.2308154277776
 51
266.4286812106243
  0
ARC
  5
8177
330
1F
100
AcDbEntity
  8
AM_0
100
AcDbCircle
 10
18.97164331192925
 20
-24.00741198431447
 30
0.0
 40
33.93517134039143
100
AcDbArc
 50
277.8384866133477
 51
279.1463569167545
  0
ARC
  5
8179
330
1F
100
AcDbEntity
  8
AM_0
100
AcDbCircle
 10
-54.54869627283184
 20
17.99554712229134
 30
0.0
 40
0.110280176654061
100
AcDbArc
 50
39.78071928320598
 51
179.0044827541018
  0
ARC
  5
817D
330
1F
100
AcDbEntity
  8
AM_0
100
AcDbCircle
 10
-57.70006987849178
 20
19.65732181388888
 30
0.0
 40
1.933933464898155
100
AcDbArc
 50
339.2873754011335
 51
343.1445147670392
  0
ARC
  5
817E
330
1F
100
AcDbEntity
  8
AM_0
100
AcDbCircle
 10
-49.88124474110062
 20
12.01041533571277
 30
0.0
 40
6.811604931826288
100
AcDbArc
 50
176.4066338091162
 51
189.1332562322549
  0
ARC
  5
817F
330
1F
100
AcDbEntity
  8
AM_0
100
AcDbCircle
 10
20.83243785342954
 20
14.95227385009281
 30
0.0
 40
4.186116148760473
100
AcDbArc
 50
137.2747661092981
 51
139.6585044708127
  0
ARC
  5
8180
330
1F
100
AcDbEntity
  8
AM_0
100
AcDbCircle
 10
20.83628266283113
 20
14.94952148625492
 30
0.0
 40
4.190849061227605
100
AcDbArc
 50
146.8082325196696
 51
149.1900156031552
  0
ARC
  5
8181
330
1F
100
AcDbEntity
  8
AM_0
100
AcDbCircle
 10
20.84468249469187
 20
14.94533101542385
 30
0.0
 40
4.200245802195668
100
AcDbArc
 50
156.3320566579985
 51
158.7101483079251
  0
ARC
  5
8182
330
1F
100
AcDbEntity
  8
AM_0
100
AcDbCircle
 10
20.91916304224053
 20
14.86421830504497
 30
0.0
 40
4.190351025985072
100
AcDbArc
 50
326.2100764443963
 51
328.4724694197068
  0
ARC
  5
8185
330
1F
100
AcDbEntity
  8
AM_0
100
AcDbCircle
 10
-33.79174629222162
 20
13.18006079694113
 30
0.0
 40
21.3542661945193
100
AcDbArc
 50
168.5752185366296
 51
175.0763078970893
  0
ARC
  5
818C
330
1F
100
AcDbEntity
  8
AM_0
100
AcDbCircle
 10
21.70765990319915
 20
15.22322773557295
 30
0.0
 40
4.432835572179393
100
AcDbArc
 50
308.4860793383632
 51
309.7459057206464
  0
ARC
  5
8191
330
1F
100
AcDbEntity
  8
AM_0
100
AcDbCircle
 10
20.84195730300125
 20
14.81575084711716
 30
0.0
 40
3.91597403239802
100
AcDbArc
 50
266.4286812106243
 51
0.4368544428389483
  0
ARC
  5
8192
330
1F
100
AcDbEntity
  8
AM_0
100
AcDbCircle
 10
-15.56800297710454
 20
11.79823967667506
 30
0.0
 40
40.35464209232676
100
AcDbArc
 50
175.1325624800614
 51
179.25871071544
  0
ARC
  5
8196
330
1F
100
AcDbEntity
  8
AM_0
100
AcDbCircle
 10
17.02530839101598
 20
-60.01277136661852
 30
0.0
 40
2.303529860406413
100
AcDbArc
 50
111.273500187884
 51
113.6495557022636
  0
ARC
  5
8198
330
1F
100
AcDbEntity
  8
AM_0
100
AcDbCircle
 10
17.57730365786222
 20
-56.36099984565854
 30
0.0
 40
0.1321557417398215
100
AcDbArc
 50
214.7404064438086
 51
265.7567037165728
  0
ARC
  5
8199
330
1F
100
AcDbEntity
  8
AM_0
100
AcDbCircle
 10
20.87205030087994
 20
14.87456832770573
 30
0.0
 40
4.239291592747731
100
AcDbArc
 50
2.712430354923538
 51
4.282151466466628
  0
ARC
  5
819B
330
1F
100
AcDbEntity
  8
AM_0
100
AcDbCircle
 10
20.90644408549581
 20
14.87028015822028
 30
0.0
 40
4.20446119869693
100
AcDbArc
 50
337.5160032906554
 51
348.8889510894039
  0
ARC
  5
819C
330
1F
100
AcDbEntity
  8
AM_0
100
AcDbCircle
 10
29.39021017319174
 20
14.10363448368997
 30
0.0
 40
1.478427093816108
100
AcDbArc
 50
323.4236083358239
 51
330.1151956213338
  0
ARC
  5
819D
330
1F
100
AcDbEntity
  8
AM_0
100
AcDbCircle
 10
16.6088344156052
 20
-15.52900371281171
 30
0.0
 40
42.63815726115409
100
AcDbArc
 50
273.0238883391856
 51
273.4035646953361
  0
ARC
  5
819F
330
1F
100
AcDbEntity
  8
AM_0
100
AcDbCircle
 10
29.38203270209674
 20
14.10691864943197
 30
0.0
 40
1.487284716998833
100
AcDbArc
 50
343.4743273149198
 51
350.1340972495331
  0
ARC
  5
81A0
330
1F
100
AcDbEntity
  8
AM_0
100
AcDbCircle
 10
24.3790067969798
 20
22.76965884545171
 30
0.0
 40
1.50960423601144
100
AcDbArc
 50
56.26551524273335
 51
62.86045161732457
  0
ARC
  5
81A1
330
1F
100
AcDbEntity
  8
AM_0
100
AcDbCircle
 10
16.20576072226924
 20
-59.54284211136078
 30
0.0
 40
1.439256984316556
100
AcDbArc
 50
83.30036518334708
 51
92.61156672416474
  0
ARC
  5
81A2
330
1F
100
AcDbEntity
  8
AM_0
100
AcDbCircle
 10
20.83720806868591
 20
14.9449851366964
 30
0.0
 40
4.194815407770202
100
AcDbArc
 50
112.7648976893186
 51
123.8159112114864
  0
ARC
  5
81A4
330
1F
100
AcDbEntity
  8
AM_0
100
AcDbCircle
 10
16.94303770233705
 20
-22.45733028894338
 30
0.0
 40
35.70174243222438
100
AcDbArc
 50
272.2144537873174
 51
272.6446457659201
  0
ARC
  5
81A5
330
1F
100
AcDbEntity
  8
AM_0
100
AcDbCircle
 10
17.49056591943952
 20
-56.42115044567359
 30
0.0
 40
0.0266022958043485
100
AcDbArc
 50
169.1749206266192
 51
214.7404064433592
  0
ARC
  5
81A6
330
1F
100
AcDbEntity
  8
AM_0
100
AcDbCircle
 10
-49.31524763196451
 20
13.4510736911484
 30
0.0
 40
5.566846454280989
100
AcDbArc
 50
172.0257787827484
 51
191.8849050149468
  0
ARC
  5
81A7
330
1F
100
AcDbEntity
  8
AM_0
100
AcDbCircle
 10
20.46557539698158
 20
14.53560987182124
 30
0.0
 40
4.438469369077004
100
AcDbArc
 50
119.671251908059
 51
120.9086299958884
  0
ARC
  5
81A8
330
1F
100
AcDbEntity
  8
AM_0
100
AcDbCircle
 10
21.70604611191009
 20
15.22541695763794
 30
0.0
 40
4.435556154348195
100
AcDbArc
 50
302.1886151790706
 51
304.7074149113082
  0
ARC
  5
81B1
330
1F
100
AcDbEntity
  8
AM_0
100
AcDbCircle
 10
16.72172517819888
 20
-17.66603955884685
 30
0.0
 40
40.49814171645886
100
AcDbArc
 50
272.6446457729951
 51
273.0238883417687
  0
ARC
  5
81B2
330
1F
100
AcDbEntity
  8
AM_0
100
AcDbCircle
 10
23.99340506524788
 20
-59.25373293627299
 30
0.0
 40
3.236719506927737
100
AcDbArc
 50
90.93351007726949
 51
101.4171101255568
  0
ARC
  5
81B3
330
1F
100
AcDbEntity
  8
AM_0
100
AcDbCircle
 10
18.17130172361794
 20
-52.94224760757166
 30
0.0
 40
3.595568918771097
100
AcDbArc
 50
262.3540710878566
 51
269.0746736610206
  0
ARC
  5
81B4
330
1F
100
AcDbEntity
  8
AM_0
100
AcDbCircle
 10
20.83211618863338
 20
14.952570936423
 30
0.0
 40
4.185678280595642
100
AcDbArc
 50
134.8907784563456
 51
137.2747661112779
  0
ARC
  5
81B5
330
1F
100
AcDbEntity
  8
AM_0
100
AcDbCircle
 10
-56.63173265069379
 20
16.4464860556833
 30
0.0
 40
2.558184168171518
100
AcDbArc
 50
351.2130621445209
 51
19.52809975286725
  0
ARC
  5
81B7
330
1F
100
AcDbEntity
  8
AM_0
100
AcDbCircle
 10
20.79222021941057
 20
14.78667225604778
 30
0.0
 40
4.491046482744973
100
AcDbArc
 50
136.3527782182892
 51
218.1276579509944
  0
ARC
  5
81B8
330
1F
100
AcDbEntity
  8
AM_0
100
AcDbCircle
 10
29.2311858653552
 20
-67.06681292458601
 30
0.0
 40
10.72237461905595
100
AcDbArc
 50
112.9122634058338
 51
113.4281076138771
  0
ARC
  5
81B9
330
1F
100
AcDbEntity
  8
AM_0
100
AcDbCircle
 10
-29.26288113950939
 20
11.46960625990836
 30
0.0
 40
27.53172491578872
100
AcDbArc
 50
175.807594952485
 51
180.6179988742278
  0
ARC
  5
81BA
330
1F
100
AcDbEntity
  8
AM_0
100
AcDbCircle
 10
-54.63930300768454
 20
11.52780179814943
 30
0.0
 40
1.313783851057381
100
AcDbArc
 50
175.7635859763393
 51
205.4542539781976
  0
ARC
  5
81BB
330
1F
100
AcDbEntity
  8
AM_0
100
AcDbCircle
 10
16.38229631354375
 20
-11.71993668306223
 30
0.0
 40
46.45395483818929
100
AcDbArc
 50
273.4035646970326
 51
273.7520540682922
  0
ARC
  5
81BE
330
1F
100
AcDbEntity
  8
AM_0
100
AcDbCircle
 10
21.12284954967929
 20
15.24219713632698
 30
0.0
 40
4.185678870687743
100
AcDbArc
 50
131.0298029250779
 51
134.8907784517938
  0
ARC
  5
81C2
330
1F
100
AcDbEntity
  8
AM_0
100
AcDbCircle
 10
23.09139739529212
 20
-51.33342536588774
 30
0.0
 40
6.196860608361077
100
AcDbArc
 50
283.8332670855203
 51
285.7481860324256
  0
ARC
  5
81C3
330
1F
100
AcDbEntity
  8
AM_0
100
AcDbCircle
 10
-57.90970438070992
 20
18.05395069598138
 30
0.0
 40
3.251235326603714
100
AcDbArc
 50
348.5752185365066
 51
359.0044827539878
  0
ARC
  5
81C4
330
1F
100
AcDbEntity
  8
AM_0
100
AcDbCircle
 10
-51.59943336018746
 20
12.23008499357378
 30
0.0
 40
3.578568777545796
100
AcDbArc
 50
180.9682830433129
 51
187.7206761999709
  0
ARC
  5
81C5
330
1F
100
AcDbEntity
  8
AM_0
100
AcDbCircle
 10
56.79661600213588
 20
22.16305597074371
 30
0.0
 40
1.499999999999975
210
0.0
220
0.0
230
-1.0
100
AcDbArc
 50
94.99999999999975
 51
182.119340913596
  0
ARC
  5
81C6
330
1F
100
AcDbEntity
  8
AM_0
100
AcDbCircle
 10
21.41971319146949
 20
14.93711392667438
 30
0.0
 40
4.433360269644191
100
AcDbArc
 50
304.5384586602596
 51
309.4100772459374
  0
ARC
  5
81C7
330
1F
100
AcDbEntity
  8
AM_0
100
AcDbCircle
 10
22.63499764526136
 20
-74.48253305182252
 30
0.0
 40
18.95746911282422
100
AcDbArc
 50
90.79242568934823
 51
93.95115876425839
  0
ARC
  5
81C8
330
1F
100
AcDbEntity
  8
AM_0
100
AcDbCircle
 10
23.21469284923797
 20
-55.62456244636909
 30
0.0
 40
0.0796698373395899
100
AcDbArc
 50
5.019001817475975
 51
95.2111339317175
  0
ARC
  5
81CB
330
1F
100
AcDbEntity
  8
AM_0
100
AcDbCircle
 10
29.38623827731651
 20
14.10567085126416
 30
0.0
 40
1.482897934217146
100
AcDbArc
 50
336.7949006455283
 51
343.4743273154836
  0
ARC
  5
81CF
330
1F
100
AcDbEntity
  8
AM_0
100
AcDbCircle
 10
21.12360118987947
 20
15.24133338100654
 30
0.0
 40
4.186823875599118
100
AcDbArc
 50
127.1698824922179
 51
131.0298029250525
  0
ARC
  5
81D0
330
1F
100
AcDbEntity
  8
AM_0
100
AcDbCircle
 10
20.75701171942267
 20
14.73709683036412
 30
0.0
 40
2.550501633146448
100
AcDbArc
 50
324.2885641664579
 51
342.429619546725
  0
ARC
  5
81D1
330
1F
100
AcDbEntity
  8
AM_0
100
AcDbCircle
 10
21.17015924790615
 20
15.16584338797617
 30
0.0
 40
4.231764327674764
100
AcDbArc
 50
342.0764513383041
 51
8.986158478919163
  0
ARC
  5
81D5
330
1F
100
AcDbEntity
  8
AM_0
100
AcDbCircle
 10
-48.01397971284991
 20
15.99481415726314
 30
0.0
 40
8.421466335773699
100
AcDbArc
 50
159.2873754018581
 51
176.5386126372467
  0
ARC
  5
81D6
330
1F
100
AcDbEntity
  8
AM_0
100
AcDbCircle
 10
-58.11003110615555
 20
10.68747807243575
 30
0.0
 40
1.522846942429417
100
AcDbArc
 50
3.173749060567828
 51
9.133256232258156
  0
ARC
  5
81D8
330
1F
100
AcDbEntity
  8
AM_0
100
AcDbCircle
 10
20.83277122130271
 20
14.95199071854068
 30
0.0
 40
4.186553524583268
100
AcDbArc
 50
139.6585044739296
 51
142.0422417359894
  0
ARC
  5
81D9
330
1F
100
AcDbEntity
  8
AM_0
100
AcDbCircle
 10
18.3026072419475
 20
-55.99570418943463
 30
0.0
 40
0.1352268893187294
100
AcDbArc
 50
95.7195971175421
 51
260.3801359929609
  0
ARC
  5
81DA
330
1F
100
AcDbEntity
  8
AM_0
100
AcDbCircle
 10
20.83736942258718
 20
14.94887339070231
 30
0.0
 40
4.192114396995763
100
AcDbArc
 50
149.1900156029938
 51
151.5717955252287
  0
ARC
  5
81DB
330
1F
100
AcDbEntity
  8
AM_0
100
AcDbCircle
 10
20.91456716962414
 20
14.86677844760942
 30
0.0
 40
4.195613891824013
100
AcDbArc
 50
332.9958306501702
 51
335.2567981956225
  0
ARC
  5
81DD
330
1F
100
AcDbEntity
  8
AM_0
100
AcDbCircle
 10
20.92076506254141
 20
14.86314625393248
 30
0.0
 40
4.188423394632159
100
AcDbArc
 50
323.9466425218331
 51
326.2100764438809
  0
ARC
  5
81DF
330
1F
100
AcDbEntity
  8
AM_0
100
AcDbCircle
 10
21.70809013507965
 20
15.2227240762399
 30
0.0
 40
4.432173134985929
100
AcDbArc
 50
311.0057321950306
 51
312.2656720177606
  0
ARC
  5
81E1
330
1F
100
AcDbEntity
  8
AM_0
100
AcDbCircle
 10
20.91570787305743
 20
14.87404535853585
 30
0.0
 40
4.200265730253557
100
AcDbArc
 50
291.054239924566
 51
293.434040497714
  0
ARC
  5
81E2
330
1F
100
AcDbEntity
  8
AM_0
100
AcDbCircle
 10
17.38450188265608
 20
-56.28260041462081
 30
0.0
 40
1.022480362126626
100
AcDbArc
 50
241.5302899952308
 51
274.1058895290505
  0
ARC
  5
81E3
330
1F
100
AcDbEntity
  8
AM_0
100
AcDbCircle
 10
25.62336734988651
 20
-57.10663811488692
 30
0.0
 40
0.2185357694760726
100
AcDbArc
 50
5.019001817508703
 51
102.8027591921639
  0
ARC
  5
81E4
330
1F
100
AcDbEntity
  8
AM_0
100
AcDbCircle
 10
16.18330384325338
 20
-58.09003380947141
 30
0.0
 40
0.2045083330912758
100
AcDbArc
 50
113.6495557045248
 51
139.9451875828535
  0
ARC
  5
81E7
330
1F
100
AcDbEntity
  8
AM_0
100
AcDbCircle
 10
20.51690665132633
 20
14.5207656588812
 30
0.0
 40
4.490970736998041
100
AcDbArc
 50
163.8198653432606
 51
209.9701230698494
  0
ARC
  5
81EA
330
1F
100
AcDbEntity
  8
AM_0
100
AcDbCircle
 10
29.36135776231474
 20
14.10454032465606
 30
0.0
 40
1.50847561688983
100
AcDbArc
 50
23.29328702615415
 51
29.89113749470996
  0
ARC
  5
81EB
330
1F
100
AcDbEntity
  8
AM_0
100
AcDbCircle
 10
-55.74548745595355
 20
19.29557149720791
 30
0.0
 40
0.1848339213087334
100
AcDbArc
 50
84.99999999998065
 51
180.1559630491319
  0
ARC
  5
81EF
330
1F
100
AcDbEntity
  8
AM_0
100
AcDbCircle
 10
-54.70256462995833
 20
12.3172702102271
 30
0.0
 40
0.0615131519076127
100
AcDbArc
 50
191.8849050149433
 51
340.1278639288004
  0
ARC
  5
81F0
330
1F
100
AcDbEntity
  8
AM_0
100
AcDbCircle
 10
17.29873711804271
 20
-56.15946318926788
 30
0.0
 40
1.865299456662443
100
AcDbArc
 50
251.9729931334384
 51
270.9386034689158
  0
ARC
  5
81F2
330
1F
100
AcDbEntity
  8
AM_0
100
AcDbCircle
 10
-55.73942832573012
 20
19.36482767256974
 30
0.0
 40
0.115313198608107
100
AcDbArc
 50
358.8720742431698
 51
84.99999999996752
  0
ARC
  5
81F3
330
1F
100
AcDbEntity
  8
AM_0
100
AcDbCircle
 10
29.36683337986135
 20
14.10661705765818
 30
0.0
 40
1.502610187359864
100
AcDbArc
 50
10.06553538680415
 51
16.67956928027914
  0
ARC
  5
81F4
330
1F
100
AcDbEntity
  8
AM_0
100
AcDbCircle
 10
20.87363667270261
 20
14.8746434839249
 30
0.0
 40
4.237703441617945
100
AcDbArc
 50
1.456652364026545
 51
2.712430356413581
  0
ARC
  5
81F8
330
1F
100
AcDbEntity
  8
AM_0
100
AcDbCircle
 10
24.37798083936712
 20
22.76823499212384
 30
0.0
 40
1.511359446202932
100
AcDbArc
 50
36.4888009629757
 51
43.07977378297802
  0
ARC
  5
81F9
330
1F
100
AcDbEntity
  8
AM_0
100
AcDbCircle
 10
24.38042685751332
 20
22.77242917007283
 30
0.0
 40
1.506491155475371
100
AcDbArc
 50
62.86045161715633
 51
69.46898589684791
  0
ARC
  5
81FA
330
1F
100
AcDbEntity
  8
AM_0
100
AcDbCircle
 10
24.1255452555065
 20
-55.45218474290826
 30
0.0
 40
1.201316746920688
100
AcDbArc
 50
285.0231067404987
 51
296.0740435246593
  0
ARC
  5
81FB
330
1F
100
AcDbEntity
  8
AM_0
100
AcDbCircle
 10
-55.15227764281242
 20
18.70657176866212
 30
0.0
 40
0.1191848891946501
100
AcDbArc
 50
38.9902786291753
 51
177.3383656292214
  0
ARC
  5
81FE
330
1F
100
AcDbEntity
  8
AM_0
100
AcDbCircle
 10
20.92232874821916
 20
14.86209126323291
 30
0.0
 40
4.18655478621429
100
AcDbArc
 50
307.7341526318207
 51
310.1196105589041
  0
ARC
  5
81FF
330
1F
100
AcDbEntity
  8
AM_0
100
AcDbCircle
 10
17.50630805745425
 20
-56.42416056105791
 30
0.0
 40
0.0426296381887858
100
AcDbArc
 50
139.8013994688402
 51
169.1749206275907
  0
ARC
  5
8202
330
1F
100
AcDbEntity
  8
AM_0
100
AcDbCircle
 10
20.8634290025987
 20
14.87368700815096
 30
0.0
 40
4.2479604174578
100
AcDbArc
 50
7.419000186817096
 51
8.986158475506485
  0
ARC
  5
8203
330
1F
100
AcDbEntity
  8
AM_0
100
AcDbCircle
 10
17.70399086362465
 20
-22.26773901374489
 30
0.0
 40
35.02508801808287
100
AcDbArc
 50
275.0010548041067
 51
279.4286798672978
  0
ARC
  5
8204
330
1F
100
AcDbEntity
  8
AM_0
100
AcDbCircle
 10
16.9299216328003
 20
-57.1208896205101
 30
0.0
 40
0.0688703809134557
100
AcDbArc
 50
203.0631933833676
 51
241.5302899951564
  0
ARC
  5
8206
330
1F
100
AcDbEntity
  8
AM_0
100
AcDbCircle
 10
21.42066590461143
 20
14.93600062393904
 30
0.0
 40
4.431894561077784
100
AcDbArc
 50
313.3682804648879
 51
314.8907784499964
  0
ARC
  5
8208
330
1F
100
AcDbEntity
  8
AM_0
100
AcDbCircle
 10
21.70469738051252
 20
15.22755965049936
 30
0.0
 40
4.438087993422837
100
AcDbArc
 50
299.6712519108852
 51
302.1886151814181
  0
ARC
  5
8209
330
1F
100
AcDbEntity
  8
AM_0
100
AcDbCircle
 10
25.16110929251454
 20
-55.07245511038664
 30
0.0
 40
1.86750905444384
100
AcDbArc
 50
267.5267026765917
 51
282.8027591922642
  0
ARC
  5
820D
330
1F
100
AcDbEntity
  8
AM_0
100
AcDbCircle
 10
20.92261761453715
 20
14.86170169312112
 30
0.0
 40
4.186073334994574
100
AcDbArc
 50
317.1550639885513
 51
319.4191358815037
  0
ARC
  5
820E
330
1F
100
AcDbEntity
  8
AM_0
100
AcDbCircle
 10
16.13461179175146
 20
-57.98297006076669
 30
0.0
 40
0.1222368467762015
100
AcDbArc
 50
185.0190018175218
 51
272.6115667243669
  0
ARC
  5
820F
330
1F
100
AcDbEntity
  8
AM_0
100
AcDbCircle
 10
19.10853216927307
 20
-35.06474633126905
 30
0.0
 40
21.4405788903212
100
AcDbArc
 50
274.9432506837481
 51
281.4171101255434
  0
ARC
  5
8210
330
1F
100
AcDbEntity
  8
AM_0
100
AcDbCircle
 10
17.41044024933899
 20
-58.60997864265588
 30
0.0
 40
2.123004790563225
100
AcDbArc
 50
82.35407108702842
 51
85.75670371562571
  0
ARC
  5
8211
330
1F
100
AcDbEntity
  8
AM_0
100
AcDbCircle
 10
784.011544860073
 20
-103.2830535948457
 30
0.0
 40
847.0300955378414
100
AcDbArc
 50
171.8939382469752
 51
172.0257787832284
  0
ARC
  5
8213
330
1F
100
AcDbEntity
  8
AM_0
100
AcDbCircle
 10
20.47139742843717
 20
-38.9325136422913
 30
0.0
 40
18.13209383365228
100
AcDbArc
 50
279.4286798672978
 51
280.6682793339462
  0
ARC
  5
8215
330
1F
100
AcDbEntity
  8
AM_0
100
AcDbCircle
 10
24.35451228695365
 20
-55.81263575404367
 30
0.0
 40
1.542960638346159
100
AcDbArc
 50
285.7481860313563
 51
293.4281076194428
  0
ARC
  5
8216
330
1F
100
AcDbEntity
  8
AM_0
100
AcDbCircle
 10
-16.04244215015599
 20
11.61220896866895
 30
0.0
 40
40.75293297722271
100
AcDbArc
 50
180.6179988764459
 51
181.3349183428708
  0
ARC
  5
8218
330
1F
100
AcDbEntity
  8
AM_0
100
AcDbCircle
 10
20.5530487795259
 20
14.45188021267478
 30
0.0
 40
4.440783895172501
100
AcDbArc
 50
297.1969360049217
 51
298.4338740686673
  0
ARC
  5
821A
330
1F
100
AcDbEntity
  8
AM_0
100
AcDbCircle
 10
-48.93581104600601
 20
16.67449649364392
 30
0.0
 40
7.366310069780021
100
AcDbArc
 50
166.4155506465914
 51
167.4487106598562
  0
ARC
  5
821E
330
1F
100
AcDbEntity
  8
AM_0
100
AcDbCircle
 10
19.6908865542855
 20
-37.52364399356421
 30
0.0
 40
20.41915070282463
100
AcDbArc
 50
274.4830314364338
 51
283.8332670845744
  0
ARC
  5
821F
330
1F
100
AcDbEntity
  8
AM_0
100
AcDbCircle
 10
-52.54937708134396
 20
12.10129847549275
 30
0.0
 40
2.619934832493193
100
AcDbArc
 50
187.7206761972363
 51
189.9146236977395
  0
ARC
  5
8220
330
1F
100
AcDbEntity
  8
AM_0
100
AcDbCircle
 10
21.42053591349229
 20
14.9361382380726
 30
0.0
 40
4.432083863329196
100
AcDbArc
 50
311.8458475020623
 51
313.3682804662058
  0
ARC
  5
8221
330
1F
100
AcDbEntity
  8
AM_0
100
AcDbCircle
 10
21.4174320746569
 20
14.94042820414319
 30
0.0
 40
4.437383692199472
100
AcDbArc
 50
299.6712519098511
 51
304.5384586606846
  0
ARC
  5
8222
330
1F
100
AcDbEntity
  8
AM_0
100
AcDbCircle
 10
22.56526436200784
 20
-69.44083876677317
 30
0.0
 40
13.91529259918638
100
AcDbArc
 50
89.40011118115856
 51
90.79242568934823
  0
ARC
  5
8225
330
1F
100
AcDbEntity
  8
AM_0
100
AcDbCircle
 10
20.78226741920212
 20
14.81529572989115
 30
0.0
 40
3.975665651237218
100
AcDbArc
 50
0.4368544428389483
 51
86.37434481063118
  0
ARC
  5
8227
330
1F
100
AcDbEntity
  8
AM_0
100
AcDbCircle
 10
14.22708440133829
 20
-58.94458592700087
 30
0.0
 40
0.6588377022664627
100
AcDbArc
 50
96.70215535218183
 51
101.9806957491474
  0
ARC
  5
8228
330
1F
100
AcDbEntity
  8
AM_0
100
AcDbCircle
 10
21.36373493784088
 20
14.964941559549
 30
0.0
 40
4.510041076788402
100
AcDbArc
 50
37.40771418027383
 51
119.6712519095884
  0
ARC
  5
822A
330
1F
100
AcDbEntity
  8
AM_0
100
AcDbCircle
 10
25.53002987532762
 20
-59.17645156831921
 30
0.0
 40
1.855616265757126
100
AcDbArc
 50
87.36393715896413
 51
102.5654737505421
  0
ARC
  5
822C
330
1F
100
AcDbEntity
  8
AM_0
100
AcDbCircle
 10
21.14073752317693
 20
15.18068622228151
 30
0.0
 40
4.250389844909877
100
AcDbArc
 50
54.69805634022776
 51
100.6692821844035
  0
ARC
  5
822D
330
1F
100
AcDbEntity
  8
AM_0
100
AcDbCircle
 10
20.74901859958941
 20
14.74284288911173
 30
0.0
 40
2.560345776369004
100
AcDbArc
 50
162.3644018793965
 51
324.2885641664113
  0
ARC
  5
822E
330
1F
100
AcDbEntity
  8
AM_0
100
AcDbCircle
 10
-57.60904309109669
 20
19.29049875817999
 30
0.0
 40
1.678728618010859
100
AcDbArc
 50
346.4155506448892
 51
0.1559630490831365
  0
ARC
  5
8230
330
1F
100
AcDbEntity
  8
AM_0
100
AcDbCircle
 10
-501.6772555421681
 20
43.43518598464813
 30
0.0
 40
446.0709338671486
100
AcDbArc
 50
356.210440841301
 51
356.5386126371227
  0
ARC
  5
8231
330
1F
100
AcDbEntity
  8
AM_0
100
AcDbCircle
 10
-56.49821154298463
 20
10.77685200706675
 30
0.0
 40
0.0914485709175329
100
AcDbArc
 50
183.1737490604373
 51
265.0125379985363
  0
ARC
  5
8232
330
1F
100
AcDbEntity
  8
AM_0
100
AcDbCircle
 10
20.83183421875769
 20
14.86869070958124
 30
0.0
 40
4.279947811308385
100
AcDbArc
 50
8.986158478925853
 51
60.64429883321839
  0
ARC
  5
8233
330
1F
100
AcDbEntity
  8
AM_0
100
AcDbCircle
 10
20.83379766211231
 20
14.95118999298
 30
0.0
 40
4.187855347217612
100
AcDbArc
 50
142.0422417350659
 51
144.4252382102258
  0
ARC
  5
8234
330
1F
100
AcDbEntity
  8
AM_0
100
AcDbCircle
 10
20.8399217147891
 20
14.9474917473679
 30
0.0
 40
4.195016660555543
100
AcDbArc
 50
151.5717955258232
 51
153.9519281210034
  0
ARC
  5
8235
330
1F
100
AcDbEntity
  8
AM_0
100
AcDbCircle
 10
21.37968407423789
 20
14.97713899802619
 30
0.0
 40
4.489962420030062
100
AcDbArc
 50
314.8907784519999
 51
37.40771418027383
  0
ARC
  5
8236
330
1F
100
AcDbEntity
  8
AM_0
100
AcDbCircle
 10
20.91588952839998
 20
14.86610455106023
 30
0.0
 40
4.194129718892509
100
AcDbArc
 50
330.7348599381532
 51
332.9958306487886
  0
ARC
  5
8237
330
1F
100
AcDbEntity
  8
AM_0
100
AcDbCircle
 10
20.92139547388949
 20
14.86268733560513
 30
0.0
 40
4.18764363537642
100
AcDbArc
 50
321.6832069240568
 51
323.9466425228077
  0
ARC
  5
8238
330
1F
100
AcDbEntity
  8
AM_0
100
AcDbCircle
 10
21.2125819523673
 20
15.15212197046099
 30
0.0
 40
4.187177747267676
100
AcDbArc
 50
314.8907784512515
 51
342.0764513383144
  0
ARC
  5
823B
330
1F
100
AcDbEntity
  8
AM_0
100
AcDbCircle
 10
16.08510415199612
 20
-58.00747426819319
 30
0.0
 40
0.0762146963858201
100
AcDbArc
 50
139.9451875838523
 51
154.703559720749
  0
ARC
  5
823D
330
1F
100
AcDbEntity
  8
AM_0
100
AcDbCircle
 10
20.86682818006391
 20
14.87412963029482
 30
0.0
 40
4.244532543224996
100
AcDbArc
 50
5.850576425727453
 51
7.419000189667929
  0
ARC
  5
823E
330
1F
100
AcDbEntity
  8
AM_0
100
AcDbCircle
 10
25.03094934729927
 20
-57.12939473761949
 30
0.0
 40
0.0662428563327042
100
AcDbArc
 50
292.9122634113851
 51
5.070396555602115
  0
ARC
  5
8241
330
1F
100
AcDbEntity
  8
AM_0
100
AcDbCircle
 10
21.70725284151461
 20
15.22373973693885
 30
0.0
 40
4.433489670504051
100
AcDbArc
 50
307.2264388153574
 51
308.4860793431567
  0
ARC
  5
8242
330
1F
100
AcDbEntity
  8
AM_0
100
AcDbCircle
 10
20.55346467339466
 20
14.54184703279799
 30
0.0
 40
4.533171605517205
100
AcDbArc
 50
209.9701230698516
 51
255.7351750113115
  0
ARC
  5
8244
330
1F
100
AcDbEntity
  8
AM_0
100
AcDbCircle
 10
-59.09677288257724
 20
18.88994239142995
 30
0.0
 40
3.829570292102567
100
AcDbArc
 50
347.9835213845994
 51
357.3383656292768
  0
ARC
  5
8247
330
1F
100
AcDbEntity
  8
AM_0
100
AcDbCircle
 10
-57.43957672810082
 20
13.30654954466957
 30
0.0
 40
2.971823930318278
100
AcDbArc
 50
340.1278639287226
 51
348.4516978273479
  0
ARC
  5
8248
330
1F
100
AcDbEntity
  8
AM_0
100
AcDbCircle
 10
29.37956112837508
 20
14.10734849257522
 30
0.0
 40
1.489793390311294
100
AcDbArc
 50
350.1340972503893
 51
356.7934947297161
  0
ARC
  5
8249
330
1F
100
AcDbEntity
  8
AM_0
100
AcDbCircle
 10
16.97384168532744
 20
-57.15778710998157
 30
0.0
 40
0.8154386597618358
100
AcDbArc
 50
247.4987057892247
 51
251.9729931306715
  0
ARC
  5
824A
330
1F
100
AcDbEntity
  8
AM_0
100
AcDbCircle
 10
20.73339898802458
 20
14.76636810614019
 30
0.0
 40
3.305170906381918
100
AcDbArc
 50
353.2308154277776
 51
86.42868121062427
  0
ARC
  5
824B
330
1F
100
AcDbEntity
  8
AM_0
100
AcDbCircle
 10
20.78263125184587
 20
14.76052436750041
 30
0.0
 40
3.255593037506212
100
AcDbArc
 50
266.3743448106312
 51
353.2308154277776
  0
ARC
  5
824C
330
1F
100
AcDbEntity
  8
AM_0
100
AcDbCircle
 10
29.36468920356713
 20
14.1059746072346
 30
0.0
 40
1.504848542677958
100
AcDbArc
 50
16.67956928078092
 51
23.29328702613811
  0
ARC
  5
824D
330
1F
100
AcDbEntity
  8
AM_0
100
AcDbCircle
 10
29.37170334842511
 20
14.1074815091527
 30
0.0
 40
1.497664090900108
100
AcDbArc
 50
3.429707098218985
 51
10.0655353874692
  0
ARC
  5
824E
330
1F
100
AcDbEntity
  8
AM_0
100
AcDbCircle
 10
20.87646496213431
 20
14.87471540403277
 30
0.0
 40
4.23487423791076
100
AcDbArc
 50
0.2000354888024099
 51
1.456652364899647
  0
ARC
  5
8250
330
1F
100
AcDbEntity
  8
AM_0
100
AcDbCircle
 10
15.25104107891116
 20
-16.24930183036284
 30
0.0
 40
40.26093623304022
100
AcDbArc
 50
277.4481533617402
 51
280.5994544292769
  0
ARC
  5
8252
330
1F
100
AcDbEntity
  8
AM_0
100
AcDbCircle
 10
19.51332939578344
 20
-48.85254654903215
 30
0.0
 40
7.38026306655264
100
AcDbArc
 50
260.3801359929609
 51
277.4481533618124
  0
ARC
  5
8253
330
1F
100
AcDbEntity
  8
AM_0
100
AcDbCircle
 10
24.38152428076505
 20
22.77535952538898
 30
0.0
 40
1.503362046964274
100
AcDbArc
 50
69.46898589675774
 51
82.68548907132101
  0
ARC
  5
8254
330
1F
100
AcDbEntity
  8
AM_0
100
AcDbCircle
 10
22.32642204395131
 20
-48.74858062869932
 30
0.0
 40
8.142149006124133
100
AcDbArc
 50
283.3876563883935
 51
285.0231067403703
  0
ARC
  5
8255
330
1F
100
AcDbEntity
  8
AM_0
100
AcDbCircle
 10
22.29818681643326
 20
-48.62994818590099
 30
0.0
 40
8.264095242464092
100
AcDbArc
 50
280.6682793338869
 51
283.3876563886009
  0
ARC
  5
8256
330
1F
100
AcDbEntity
  8
AM_0
100
AcDbCircle
 10
20.78596663773412
 20
14.81316268445727
 30
0.0
 40
3.308336920668889
100
AcDbArc
 50
180.4368544428389
 51
266.3743448106312
  0
ARC
  5
8259
330
1F
100
AcDbEntity
  8
AM_0
100
AcDbCircle
 10
23.11622880391258
 20
-55.63320984004352
 30
0.0
 40
0.1785128726996896
100
AcDbArc
 50
262.7960063750641
 51
5.019001817482464
  0
ARC
  5
825A
330
1F
100
AcDbEntity
  8
AM_0
100
AcDbCircle
 10
21.70648554106167
 20
15.22478251722049
 30
0.0
 40
4.434784394907938
100
AcDbArc
 50
304.7074149081692
 51
305.9667984172847
  0
ARC
  5
825D
330
1F
100
AcDbEntity
  8
AM_0
100
AcDbCircle
 10
20.92231786498819
 20
14.86195843585216
 30
0.0
 40
4.186468007802644
100
AcDbArc
 50
319.4191358825247
 51
321.6832069250235
  0
ARC
  5
825E
330
1F
100
AcDbEntity
  8
AM_0
100
AcDbCircle
 10
20.92290728074413
 20
14.86143303694422
 30
0.0
 40
4.185678262021665
100
AcDbArc
 50
314.8907784529718
 51
317.1550639889085
  0
ARC
  5
825F
330
1F
100
AcDbEntity
  8
AM_0
100
AcDbCircle
 10
18.30430821568723
 20
-25.76636051820938
 30
0.0
 40
30.77367885207067
100
AcDbArc
 50
270.4303254972723
 51
274.9432506837154
  0
ARC
  5
8260
330
1F
100
AcDbEntity
  8
AM_0
100
AcDbCircle
 10
-54.16579047396005
 20
19.33384500676562
 30
0.0
 40
1.458629625672342
100
AcDbArc
 50
178.8720742425183
 51
187.3234227214619
  0
ARC
  5
8261
330
1F
100
AcDbEntity
  8
AM_0
100
AcDbCircle
 10
16.04913930876967
 20
-57.99047649833179
 30
0.0
 40
0.0364353785366549
100
AcDbArc
 50
154.7035597200701
 51
185.0190018180808
  0
ARC
  5
8262
330
1F
100
AcDbEntity
  8
AM_0
100
AcDbCircle
 10
18.17575992552815
 20
-109.6913453998134
 30
0.0
 40
51.6737664859678
100
AcDbArc
 50
90.24767833878113
 51
90.93860346829691
  0
ARC
  5
8264
330
1F
100
AcDbEntity
  8
AM_0
100
AcDbCircle
 10
20.91986989408365
 20
14.86561737691983
 30
0.0
 40
4.190856396446356
100
AcDbArc
 50
300.5812241299469
 51
302.9647237068797
  0
ARC
  5
8265
330
1F
100
AcDbEntity
  8
AM_0
100
AcDbCircle
 10
-55.74809484023747
 20
11.00002149608896
 30
0.0
 40
0.0857889914671273
100
AcDbArc
 50
205.4542539780009
 51
240.6724840931912
  0
ARC
  5
8266
330
1F
100
AcDbEntity
  8
AM_0
100
AcDbCircle
 10
-55.77137022178927
 20
10.95859188658756
 30
0.0
 40
0.0382689332828558
100
AcDbArc
 50
240.6724840935477
 51
311.5372738652967
  0
ARC
  5
8268
330
1F
100
AcDbEntity
  8
AM_0
100
AcDbCircle
 10
-89.41624448162334
 20
17.82749208037001
 30
0.0
 40
35.29053471123732
100
AcDbArc
 50
353.3472924711014
 51
355.0380773191362
  0
ARC
  5
826A
330
1F
100
AcDbEntity
  8
AM_0
100
AcDbCircle
 10
-55.05594208590942
 20
11.5544379327372
 30
0.0
 40
0.0312953235793126
100
AcDbArc
 50
241.7838905388137
 51
310.2192807168066
  0
ARC
  5
826B
330
1F
100
AcDbEntity
  8
AM_0
100
AcDbCircle
 10
-91.4720983003275
 20
1040.011734654319
 30
0.0
 40
1101.355940564028
100
AcDbArc
 50
275.7195971163507
 51
275.8240752589073
  0
ARC
  5
826C
330
1F
100
AcDbEntity
  8
AM_0
100
AcDbCircle
 10
20.91159380957725
 20
14.86814875757164
 30
0.0
 40
4.198887822087791
100
AcDbArc
 50
335.2567981962214
 51
337.5160032913161
  0
ARC
  5
826E
330
1F
100
AcDbEntity
  8
AM_0
100
AcDbCircle
 10
24.37785628158058
 20
22.76811851543647
 30
0.0
 40
1.5115299790752
100
AcDbArc
 50
43.07977378354032
 51
49.67072312067821
  0
ARC
  5
8270
330
1F
100
AcDbEntity
  8
AM_0
100
AcDbCircle
 10
24.52642849272559
 20
-56.27142844007008
 30
0.0
 40
0.2892489834164765
100
AcDbArc
 50
296.0740435244277
 51
314.1118514537097
  0
ARC
  5
8271
330
1F
100
AcDbEntity
  8
AM_0
100
AcDbCircle
 10
20.85324782403
 20
14.90676253268879
 30
0.0
 40
4.236267080940341
100
AcDbArc
 50
60.64429883322566
 51
112.7648976894244
  0
ARC
  5
8274
330
1F
100
AcDbEntity
  8
AM_0
100
AcDbCircle
 10
20.78627558990165
 20
14.87855178684134
 30
0.0
 40
3.912282734191329
100
AcDbArc
 50
86.37434481063118
 51
173.2308154277776
  0
ARC
  5
8275
330
1F
100
AcDbEntity
  8
AM_0
100
AcDbCircle
 10
28.73883487180915
 20
13.48520042448189
 30
0.0
 40
1.500000000024267
100
AcDbArc
 50
299.6712519095061
 51
314.890778451696
  0
SPLINE
  5
8279
330
1F
100
AcDbEntity
  8
AM_0
100
AcDbSpline
210
0.0
220
0.0
230
1.0
 70
     8
 71
     2
 72
     6
 73
     3
 74
     0
 42
0.0000000001
 43
0.0000000001
 40
0.0
 40
0.0
 40
0.0
 40
1.0
 40
1.0
 40
1.0
 10
16.61860155992861
 20
-57.76692020589192
 30
0.0
 10
16.49665196143246
 20
-57.79044585105194
 30
0.0
 10
16.39795037965643
 20
-57.81068323901561
 30
0.0
  0
SPLINE
  5
827C
330
1F
100
AcDbEntity
  8
AM_0
100
AcDbSpline
210
0.0
220
0.0
230
1.0
 70
     8
 71
     3
 72
     9
 73
     5
 74
     0
 42
0.0000000001
 43
0.0000000001
 40
0.0
 40
0.0
 40
0.0
 40
0.0
 40
0.9865541640272736
 40
1.0
 40
1.0
 40
1.0
 40
1.0
 10
23.59087442499599
 20
24.02822355147288
 30
0.0
 10
23.78497379240746
 20
24.1468979234092
 30
0.0
 10
24.00271637875715
 20
24.23045043143071
 30
0.0
 10
24.22398985075045
 20
24.26996294849101
 30
0.0
 10
24.22696561117748
 20
24.2704864094041
 30
0.0
  0
SPLINE
  5
827F
330
1F
100
AcDbEntity
  8
AM_0
100
AcDbSpline
210
0.0
220
0.0
230
1.0
 70
     8
 71
     3
 72
    10
 73
     6
 74
     0
 42
0.0000000001
 43
0.0000000001
 40
0.0
 40
0.0
 40
0.0
 40
0.0
 40
0.2556279124929235
 40
0.9918090253200157
 40
1.0
 40
1.0
 40
1.0
 40
1.0
 10
-56.6165283810288
 20
9.85898882826417
 30
0.0
 10
-56.58247227703494
 20
9.887787655369844
 30
0.0
 10
-56.46199239275457
 20
10.0068711457509
 30
0.0
 10
-56.37920351379155
 20
10.16738105276751
 30
0.0
 10
-56.34824413656414
 20
10.29410981442812
 30
0.0
 10
-56.34790663169299
 20
10.29550612309561
 30
0.0
  0
SPLINE
  5
8280
330
1F
100
AcDbEntity
  8
AM_0
100
AcDbSpline
210
0.0
220
0.0
230
1.0
 70
     8
 71
     2
 72
     6
 73
     3
 74
     0
 42
0.0000000001
 43
0.0000000001
 40
0.0
 40
0.0
 40
0.0
 40
1.0
 40
1.0
 40
1.0
 10
-56.71469323816161
 20
10.16102163476467
 30
0.0
 10
-56.69051889208136
 20
10.02761872391842
 30
0.0
 10
-56.65785143926139
 20
10.02464450649689
 30
0.0
  0
SPLINE
  5
8281
330
1F
100
AcDbEntity
  8
AM_0
100
AcDbSpline
210
0.0
220
0.0
230
1.0
 70
     8
 71
     3
 72
    14
 73
    10
 74
     0
 42
0.0000000001
 43
0.0000000001
 40
0.0
 40
0.0
 40
0.0
 40
0.0
 40
0.1172016146598894
 40
0.2765066654991707
 40
0.4404998367263746
 40
0.6116204008674579
 40
0.7957757373391337
 40
0.9573261894822262
 40
1.0
 40
1.0
 40
1.0
 40
1.0
 10
-58.68630743838533
 20
8.434282690385554
 30
0.0
 10
-58.54803136163112
 20
8.506310611527066
 30
0.0
 10
-58.38512757776887
 20
8.594165608666354
 30
0.0
 10
-58.15441007649822
 20
8.721347873354044
 30
0.0
 10
-57.93216266760573
 20
8.84793850077882
 30
0.0
 10
-57.73604607130171
 20
8.96478647862251
 30
0.0
 10
-57.57352079047196
 20
9.069096629197826
 30
0.0
 10
-57.46522315304328
 20
9.145773791120074
 30
0.0
 10
-57.40198301130085
 20
9.197477941220551
 30
0.0
 10
-57.38869808726197
 20
9.208549111627359
 30
0.0
  0
SPLINE
  5
8283
330
1F
100
AcDbEntity
  8
AM_0
100
AcDbSpline
210
0.0
220
0.0
230
1.0
 70
     8
 71
     3
 72
     8
 73
     4
 74
     0
 42
0.0000000001
 43
0.0000000001
 40
0.0
 40
0.0
 40
0.0
 40
0.0
 40
1.0
 40
1.0
 40
1.0
 40
1.0
 10
30.577480384912
 20
13.2226486063401
 30
0.0
 10
30.52743695591282
 20
13.15743208868576
 30
0.0
 10
30.47280300019741
 20
13.09528222223679
 30
0.0
 10
30.41417339357206
 20
13.03687571896552
 30
0.0
  0
SPLINE
  5
8285
330
1F
100
AcDbEntity
  8
AM_0
100
AcDbSpline
210
0.0
220
0.0
230
1.0
 70
     8
 71
     3
 72
    23
 73
    19
 74
     0
 42
0.0000000001
 43
0.0000000001
 40
0.0
 40
0.0
 40
0.0
 40
0.0
 40
0.0193817844480292
 40
0.0553306246056013
 40
0.0914249941342723
 40
0.1300102455354548
 40
0.1754585122290163
 40
0.2367267800983385
 40
0.3396927703490544
 40
0.4191952746345928
 40
0.5030196617261545
 40
0.582697855089929
 40
0.6604944967496035
 40
0.7373314626618878
 40
0.813643768520083
 40
0.8896801462489738
 40
0.9656094534899473
 40
1.0
 40
1.0
 40
1.0
 40
1.0
 10
-55.01685603169069
 20
11.54689213824725
 30
0.0
 10
-54.99608460120164
 20
11.56548528674967
 30
0.0
 10
-54.93978891756974
 20
11.61924185987051
 30
0.0
 10
-54.86057982012956
 20
11.71424779597374
 30
0.0
 10
-54.78789402645539
 20
11.8270001747111
 30
0.0
 10
-54.73055074730378
 20
11.93978538119598
 30
0.0
 10
-54.68017093374301
 20
12.06355080025902
 30
0.0
 10
-54.62485661806915
 20
12.23357813909457
 30
0.0
 10
-54.57173730774032
 20
12.44477187761277
 30
0.0
 10
-54.51662975633401
 20
12.71319988470783
 30
0.0
 10
-54.4678664879154
 20
12.99061165325225
 30
0.0
 10
-54.42082869021483
 20
13.29664994035103
 30
0.0
 10
-54.37692265722439
 20
13.61863314824394
 30
0.0
 10
-54.33593410762497
 20
13.95529640758731
 30
0.0
 10
-54.29812120316963
 20
14.30309276628646
 30
0.0
 10
-54.26390471352916
 20
14.65730784765413
 30
0.0
 10
-54.23921181527801
 20
14.94835878164998
 30
0.0
 10
-54.22620435265669
 20
15.11885403563577
 30
0.0
 10
-54.22229732787748
 20
15.17193171456689
 30
0.0
  0
SPLINE
  5
8287
330
1F
100
AcDbEntity
  8
AM_0
100
AcDbSpline
210
0.0
220
0.0
230
1.0
 70
     8
 71
     3
 72
    12
 73
     8
 74
     0
 42
0.0000000001
 43
0.0000000001
 40
0.0
 40
0.0
 40
0.0
 40
0.0
 40
0.2026123797802188
 40
0.4428063999920193
 40
0.6682190213844816
 40
0.8826936073176396
 40
1.0
 40
1.0
 40
1.0
 40
1.0
 10
25.09681155817578
 20
-57.12216844821424
 30
0.0
 10
25.0915247393491
 20
-57.06431884052668
 30
0.0
 10
25.07012331693796
 20
-56.94124793271967
 30
0.0
 10
25.00369705956064
 20
-56.76305254385775
 30
0.0
 10
24.90460074507314
 20
-56.60055375543359
 30
0.0
 10
24.80331334356811
 20
-56.48619102036699
 30
0.0
 10
24.73815746624302
 20
-56.42858237040528
 30
0.0
 10
24.71430975626982
 20
-56.40942411955669
 30
0.0
  0
SPLINE
  5
828A
330
1F
100
AcDbEntity
  8
AM_0
100
AcDbSpline
210
0.0
220
0.0
230
1.0
 70
     8
 71
     3
 72
     8
 73
     4
 74
     0
 42
0.0000000001
 43
0.0000000001
 40
0.0
 40
0.0
 40
0.0
 40
0.0
 40
1.0
 40
1.0
 40
1.0
 40
1.0
 10
5.666780613834863
 20
8.374064806769013
 30
0.0
 10
5.570008915284734
 20
8.23659839607211
 30
0.0
 10
5.487627697538574
 20
8.083396859378979
 30
0.0
 10
5.4222697894666
 20
7.919356378608824
 30
0.0
  0
SPLINE
  5
828B
330
1F
100
AcDbEntity
  8
AM_0
100
AcDbSpline
210
0.0
220
0.0
230
1.0
 70
     8
 71
     3
 72
    20
 73
    16
 74
     0
 42
0.0000000001
 43
0.0000000001
 40
0.0
 40
0.0
 40
0.0
 40
0.0
 40
0.0483145512664706
 40
0.1404744400648508
 40
0.2329763151511011
 40
0.3260843971742513
 40
0.4202267886365118
 40
0.516194317203611
 40
0.615708760160536
 40
0.7236042151440376
 40
0.7952935045156843
 40
0.8572385150160846
 40
0.9056574322759896
 40
0.9539986859267285
 40
1.0
 40
1.0
 40
1.0
 40
1.0
 10
-54.22229732787748
 20
15.17193171456689
 30
0.0
 10
-54.21776589799375
 20
15.2335035782511
 30
0.0
 10
-54.20525947521124
 20
15.41103622438005
 30
0.0
 10
-54.18762278881759
 20
15.70010311992224
 30
0.0
 10
-54.17193406233623
 20
16.02920168267315
 30
0.0
 10
-54.16178663265767
 20
16.3402690924354
 30
0.0
 10
-54.15751984892752
 20
16.62993870710342
 30
0.0
 10
-54.15959174044151
 20
16.89686863183545
 30
0.0
 10
-54.16918498407274
 20
17.14437343448015
 30
0.0
 10
-54.18636890248634
 20
17.34509402258039
 30
0.0
 10
-54.21249998226649
 20
17.51411706000546
 30
0.0
 10
-54.24558130686894
 20
17.65330295580089
 30
0.0
 10
-54.2944899294218
 20
17.79216152408561
 30
0.0
 10
-54.36255631925208
 20
17.92968276910518
 30
0.0
 10
-54.42540013430717
 20
18.01809038332693
 30
0.0
 10
-54.46010008251183
 20
18.06146382473356
 30
0.0
  0
SPLINE
  5
828C
330
1F
100
AcDbEntity
  8
AM_0
100
AcDbSpline
210
0.0
220
0.0
230
1.0
 70
     8
 71
     3
 72
    10
 73
     6
 74
     0
 42
0.0000000001
 43
0.0000000001
 40
0.0
 40
0.0
 40
0.0
 40
0.0
 40
0.2209066802306223
 40
0.6052915756046514
 40
1.0
 40
1.0
 40
1.0
 40
1.0
 10
-56.65785143926139
 20
10.02464450649689
 30
0.0
 10
-56.64859113107771
 20
10.0238671219222
 30
0.0
 10
-56.61894253877957
 20
10.03856806421107
 30
0.0
 10
-56.53818242532118
 20
10.13950326867417
 30
0.0
 10
-56.47547759797426
 20
10.29382300046633
 30
0.0
 10
-56.44104445311866
 20
10.39153059224987
 30
0.0
  0
SPLINE
  5
828D
330
1F
100
AcDbEntity
  8
AM_0
100
AcDbSpline
210
0.0
220
0.0
230
1.0
 70
     8
 71
     3
 72
    10
 73
     6
 74
     0
 42
0.0000000001
 43
0.0000000001
 40
0.0
 40
0.0
 40
0.0
 40
0.0
 40
0.4876691799927532
 40
0.9753383599855062
 40
1.0
 40
1.0
 40
1.0
 40
1.0
 10
20.85961961214991
 20
-64.23042782968265
 30
0.0
 10
20.38360214781153
 20
-64.29595989073597
 30
0.0
 10
19.37828173934849
 20
-64.42357553990895
 30
0.0
 10
18.3466185742285
 20
-64.53359631180832
 30
0.0
 10
17.84698586593561
 20
-64.58125031178794
 30
0.0
 10
17.82300506096828
 20
-64.5835239321225
 30
0.0
  0
SPLINE
  5
828E
330
1F
100
AcDbEntity
  8
AM_0
100
AcDbSpline
210
0.0
220
0.0
230
1.0
 70
     8
 71
     3
 72
    10
 73
     6
 74
     0
 42
0.0000000001
 43
0.0000000001
 40
0.0
 40
0.0
 40
0.0
 40
0.0
 40
0.4171664345964495
 40
0.8350069679594165
 40
1.0
 40
1.0
 40
1.0
 40
1.0
 10
-64.95211613959391
 20
6.98752198949138
 30
0.0
 10
-64.89897967491682
 20
7.117567249461455
 30
0.0
 10
-64.82961602786424
 20
7.377093237576684
 30
0.0
 10
-64.82330869296863
 20
7.709380116983776
 30
0.0
 10
-64.86540040369103
 20
7.883320242345018
 30
0.0
 10
-64.8804972883374
 20
7.931932150793738
 30
0.0
  0
SPLINE
  5
828F
330
1F
100
AcDbEntity
  8
AM_0
100
AcDbSpline
210
0.0
220
0.0
230
1.0
 70
     8
 71
     3
 72
     8
 73
     4
 74
     0
 42
0.0000000001
 43
0.0000000001
 40
0.0
 40
0.0
 40
0.0
 40
0.0
 40
1.0
 40
1.0
 40
1.0
 40
1.0
 10
-64.93127416530895
 20
8.386640578953926
 30
0.0
 10
-64.9517996848079
 20
8.249174168257024
 30
0.0
 10
-64.93469180842222
 20
8.095972631564006
 30
0.0
 10
-64.8804972883374
 20
7.931932150793738
 30
0.0
  0
SPLINE
  5
8290
330
1F
100
AcDbEntity
  8
AM_0
100
AcDbSpline
210
0.0
220
0.0
230
1.0
 70
     8
 71
     3
 72
    30
 73
    26
 74
     0
 42
0.0000000001
 43
0.0000000001
 40
0.0
 40
0.0
 40
0.0
 40
0.0
 40
0.0204608236291267
 40
0.0653273197619876
 40
0.1102003060074099
 40
0.1550812414657515
 40
0.1999712222109705
 40
0.2448709411654205
 40
0.2897806676305569
 40
0.3347002457553068
 40
0.3796291103013578
 40
0.4245663175008012
 40
0.469510588586495
 40
0.5144603636431603
 40
0.5594138636716469
 40
0.6043686391186642
 40
0.6493225875542756
 40
0.6942737445760466
 40
0.7392202463944618
 40
0.7841604060700629
 40
0.8290927862461348
 40
0.8740162651427574
 40
0.9189300922910476
 40
0.9638339303535177
 40
1.0
 40
1.0
 40
1.0
 40
1.0
 10
16.92791825743693
 20
16.46566956284135
 30
0.0
 10
16.90364925866941
 20
16.40338422147664
 30
0.0
 10
16.83100793927933
 20
16.20304372485765
 30
0.0
 10
16.73415501910454
 20
15.85574553710574
 30
0.0
 10
16.66062395603801
 20
15.42155914490132
 30
0.0
 10
16.63254182556902
 20
14.98174336262542
 30
0.0
 10
16.65024708140361
 20
14.541115420474
 30
0.0
 10
16.71354968326379
 20
14.10439735912922
 30
0.0
 10
16.82178076735072
 20
13.67630095723228
 30
0.0
 10
16.97378565099966
 20
13.26144148524662
 30
0.0
 10
17.16793843939802
 20
12.86429791493725
 30
0.0
 10
17.40215727328705
 20
12.48916190558424
 30
0.0
 10
17.67392577737046
 20
12.14009170899436
 30
0.0
 10
17.98031907755301
 20
11.82086736700336
 30
0.0
 10
18.31803328806989
 20
11.53494997193291
 30
0.0
 10
18.68342127101623
 20
11.28544148769384
 30
0.0
 10
19.07253237246032
 20
11.07504938059452
 30
0.0
 10
19.48115762927709
 20
10.9060556924706
 30
0.0
 10
19.90487413740077
 20
10.78029211367408
 30
0.0
 10
20.33909695848143
 20
10.69912074980738
 30
0.0
 10
20.77911694924153
 20
10.66341490580367
 30
0.0
 10
21.22020100006653
 20
10.67356485103681
 30
0.0
 10
21.65746502090649
 20
10.72941717018483
 30
0.0
 10
22.05879390750811
 20
10.82394078530654
 30
0.0
 10
22.30931499871206
 20
10.90848429539647
 30
0.0
 10
22.41977494010193
 20
10.95098059718845
 30
0.0
  0
SPLINE
  5
8291
330
1F
100
AcDbEntity
  8
AM_0
100
AcDbSpline
210
0.0
220
0.0
230
1.0
 70
     8
 71
     3
 72
    10
 73
     6
 74
     0
 42
0.0000000001
 43
0.0000000001
 40
0.0
 40
0.0
 40
0.0
 40
0.0
 40
0.3382761265595917
 40
0.6765522531191834
 40
1.0
 40
1.0
 40
1.0
 40
1.0
 10
25.88149223444339
 20
-63.53907995289038
 30
0.0
 10
25.9306594567239
 20
-63.54981649580114
 30
0.0
 10
26.0666172076493
 20
-63.61053140767686
 30
0.0
 10
26.3305376405815
 20
-63.79470623317129
 30
0.0
 10
26.50465365668117
 20
-63.94886601757971
 30
0.0
 10
26.58027473888365
 20
-64.02363773008838
 30
0.0
  0
SPLINE
  5
8292
330
1F
100
AcDbEntity
  8
AM_0
100
AcDbSpline
210
0.0
220
0.0
230
1.0
 70
     8
 71
     3
 72
     9
 73
     5
 74
     0
 42
0.0000000001
 43
0.0000000001
 40
0.0
 40
0.0
 40
0.0
 40
0.0
 40
0.834851982442894
 40
1.0
 40
1.0
 40
1.0
 40
1.0
 10
-58.68630743838533
 20
8.434282690385554
 30
0.0
 10
-59.05252834651044
 20
8.238671712576671
 30
0.0
 10
-59.59146005430951
 20
7.960054110844918
 30
0.0
 10
-60.23047360929713
 20
7.638697716360308
 30
0.0
 10
-60.33858822489067
 20
7.584533256903466
 30
0.0
  0
SPLINE
  5
8294
330
1F
100
AcDbEntity
  8
AM_0
100
AcDbSpline
210
0.0
220
0.0
230
1.0
 70
     8
 71
     3
 72
    11
 73
     7
 74
     0
 42
0.0000000001
 43
0.0000000001
 40
0.0
 40
0.0
 40
0.0
 40
0.0
 40
0.2499763971421632
 40
0.5070165626960841
 40
0.7502420944273631
 40
1.0
 40
1.0
 40
1.0
 40
1.0
 10
-56.15410002066456
 20
18.14545350770243
 30
0.0
 10
-56.19040619852417
 20
18.00098877105985
 30
0.0
 10
-56.26072300209905
 20
17.67958903893135
 30
0.0
 10
-56.37331225342741
 20
17.11366628627366
 30
0.0
 10
-56.44002346991415
 20
16.47387213661239
 30
0.0
 10
-56.48566495746236
 20
16.02269707120571
 30
0.0
 10
-56.50657817506665
 20
15.78478698536549
 30
0.0
  0
SPLINE
  5
8295
330
1F
100
AcDbEntity
  8
AM_0
100
AcDbSpline
210
0.0
220
0.0
230
1.0
 70
    24
 71
     1
 72
     4
 73
     2
 74
     0
 42
0.0000000001
 43
0.0000000001
 40
0.0
 40
0.0
 40
1.0
 40
1.0
 10
25.69396161083835
 20
10.02484057402563
 30
0.0
 10
25.73847316256779
 20
10.04945876503706
 30
0.0
  0
SPLINE
  5
8296
330
1F
100
AcDbEntity
  8
AM_0
100
AcDbSpline
210
0.0
220
0.0
230
1.0
 70
    24
 71
     1
 72
     4
 73
     2
 74
     0
 42
0.0000000001
 43
0.0000000001
 40
0.0
 40
0.0
 40
1.0
 40
1.0
 10
-64.97939310407487
 20
5.259531347159974
 30
0.0
 10
-64.96682300364735
 20
5.264989143932449
 30
0.0
  0
SPLINE
  5
8297
330
1F
100
AcDbEntity
  8
AM_0
100
AcDbSpline
210
0.0
220
0.0
230
1.0
 70
     8
 71
     3
 72
     8
 73
     4
 74
     0
 42
0.0000000001
 43
0.0000000001
 40
0.0
 40
0.0
 40
0.0
 40
0.0
 40
1.0
 40
1.0
 40
1.0
 40
1.0
 10
6.958418408530111
 20
5.246955574975061
 30
0.0
 10
7.131219109852214
 20
5.224080412647538
 30
0.0
 10
7.304424347148984
 20
5.219277587116664
 30
0.0
 10
7.472498638405159
 20
5.232700592322601
 30
0.0
  0
SPLINE
  5
8298
330
1F
100
AcDbEntity
  8
AM_0
100
AcDbSpline
210
0.0
220
0.0
230
1.0
 70
     8
 71
     3
 72
    19
 73
    15
 74
     0
 42
0.0000000001
 43
0.0000000001
 40
0.0
 40
0.0
 40
0.0
 40
0.0
 40
0.0536967615440985
 40
0.150053889075584
 40
0.2452764688984219
 40
0.3393148559756669
 40
0.4319807859241949
 40
0.5232236001849059
 40
0.613115650477397
 40
0.7018239945545791
 40
0.789581151312817
 40
0.8766610515662607
 40
0.96336120772559
 40
1.0
 40
1.0
 40
1.0
 40
1.0
 10
14.09038434268405
 20
-58.30008595656742
 30
0.0
 10
14.00871293153568
 20
-58.31740474785218
 30
0.0
 10
13.77961325451656
 20
-58.37181134518087
 30
0.0
 10
13.4007791534741
 20
-58.48823162266481
 30
0.0
 10
12.95457308835159
 20
-58.66452903949178
 30
0.0
 10
12.51012695657584
 20
-58.87820085751005
 30
0.0
 10
12.06924148133589
 20
-59.12725995727683
 30
0.0
 10
11.63364630666694
 20
-59.40952892967678
 30
0.0
 10
11.20466777680803
 20
-59.72294914660827
 30
0.0
 10
10.78331380834345
 20
-60.06565547555741
 30
0.0
 10
10.37036577546428
 20
-60.43601511197962
 30
0.0
 10
9.966533479941631
 20
-60.83253177926716
 30
0.0
 10
9.647977246134587
 20
-61.1731689977918
 30
0.0
 10
9.464770916314819
 20
-61.38078531460681
 30
0.0
 10
9.410626527070235
 20
-61.44319887796829
 30
0.0
  0
SPLINE
  5
8299
330
1F
100
AcDbEntity
  8
AM_0
100
AcDbSpline
210
0.0
220
0.0
230
1.0
 70
    24
 71
     1
 72
     4
 73
     2
 74
     0
 42
0.0000000001
 43
0.0000000001
 40
0.0
 40
0.0
 40
1.0
 40
1.0
 10
16.39795037965643
 20
-57.81068323901561
 30
0.0
 10
16.18954105109662
 20
-57.86620602372583
 30
0.0
  0
SPLINE
  5
829A
330
1F
100
AcDbEntity
  8
AM_0
100
AcDbSpline
210
0.0
220
0.0
230
1.0
 70
     8
 71
     3
 72
    10
 73
     6
 74
     0
 42
0.0000000001
 43
0.0000000001
 40
0.0
 40
0.0
 40
0.0
 40
0.0
 40
0.3395303521469946
 40
0.7192780762505979
 40
1.0
 40
1.0
 40
1.0
 40
1.0
 10
-64.96682300364735
 20
5.264989143932449
 30
0.0
 10
-64.93783124937802
 20
5.281260321190767
 30
0.0
 10
-64.90002981945789
 20
5.334493302518023
 30
0.0
 10
-64.92262742326802
 20
5.471040594983957
 30
0.0
 10
-64.97330638783769
 20
5.586383113550038
 30
0.0
 10
-65.00195361523989
 20
5.640794537230373
 30
0.0
  0
SPLINE
  5
829B
330
1F
100
AcDbEntity
  8
AM_0
100
AcDbSpline
210
0.0
220
0.0
230
1.0
 70
     8
 71
     3
 72
    10
 73
     6
 74
     0
 42
0.0000000001
 43
0.0000000001
 40
0.0
 40
0.0
 40
0.0
 40
0.0
 40
0.3663177553493844
 40
0.7306636280070944
 40
1.0
 40
1.0
 40
1.0
 40
1.0
 10
6.958418408530111
 20
5.246955574975061
 30
0.0
 10
6.840869245671957
 20
5.262568735740785
 30
0.0
 10
6.614666278704067
 20
5.316151929876753
 30
0.0
 10
6.311875135697096
 20
5.458463459199435
 30
0.0
 10
6.149768705168572
 20
5.573807341365125
 30
0.0
 10
6.084528621722189
 20
5.62821876504546
 30
0.0
  0
SPLINE
  5
829D
330
1F
100
AcDbEntity
  8
AM_0
100
AcDbSpline
210
0.0
220
0.0
230
1.0
 70
     8
 71
     3
 72
    10
 73
     6
 74
     0
 42
0.0000000001
 43
0.0000000001
 40
0.0
 40
0.0
 40
0.0
 40
0.0
 40
0.4523255094409729
 40
0.9046510188819457
 40
1.0
 40
1.0
 40
1.0
 40
1.0
 10
5.310403156248231
 20
6.974946217306467
 30
0.0
 10
5.347025620921659
 20
6.743638539438336
 30
0.0
 10
5.501150850538966
 20
6.28539167335424
 30
0.0
 10
5.828433640291496
 20
5.853720538577192
 30
0.0
 10
6.045680594201872
 20
5.660472869051261
 30
0.0
 10
6.084528621722189
 20
5.62821876504546
 30
0.0
  0
SPLINE
  5
829E
330
1F
100
AcDbEntity
  8
AM_0
100
AcDbSpline
210
0.0
220
0.0
230
1.0
 70
     8
 71
     2
 72
     6
 73
     3
 74
     0
 42
0.0000000001
 43
0.0000000001
 40
0.0
 40
0.0
 40
0.0
 40
1.0
 40
1.0
 40
1.0
 10
23.99362459402391
 20
-55.80986717143426
 30
0.0
 10
23.88405583704446
 20
-55.72335210808867
 30
0.0
 10
23.77155591437338
 20
-55.67261313895906
 30
0.0
  0
SPLINE
  5
82A0
330
1F
100
AcDbEntity
  8
AM_0
100
AcDbSpline
210
0.0
220
0.0
230
1.0
 70
    24
 71
     1
 72
     4
 73
     2
 74
     0
 42
0.0000000001
 43
0.0000000001
 40
0.0
 40
0.0
 40
1.0
 40
1.0
 10
17.86565095514736
 20
18.13287773551752
 30
0.0
 10
17.33514555358663
 20
17.68195168865219
 30
0.0
  0
SPLINE
  5
82A1
330
1F
100
AcDbEntity
  8
AM_0
100
AcDbSpline
210
0.0
220
0.0
230
1.0
 70
     8
 71
     3
 72
     8
 73
     4
 74
     0
 42
0.0000000001
 43
0.0000000001
 40
0.0
 40
0.0
 40
0.0
 40
0.0
 40
1.0
 40
1.0
 40
1.0
 40
1.0
 10
-62.57101545705275
 20
19.08020668846712
 30
0.0
 10
-62.51248675038637
 20
19.04401512790003
 30
0.0
 10
-62.4543493394461
 20
18.99775966338349
 30
0.0
 10
-62.40053230811345
 20
18.94456636463986
 30
0.0
  0
SPLINE
  5
82A2
330
1F
100
AcDbEntity
  8
AM_0
100
AcDbSpline
210
0.0
220
0.0
230
1.0
 70
     8
 71
     3
 72
     9
 73
     5
 74
     0
 42
0.0000000001
 43
0.0000000001
 40
0.0
 40
0.0
 40
0.0
 40
0.0
 40
0.5219242175615915
 40
1.0
 40
1.0
 40
1.0
 40
1.0
 10
20.68033248036789
 20
7.339189884034965
 30
0.0
 10
20.19765510637335
 20
7.080634112467976
 30
0.0
 10
19.22844775355832
 20
6.677953437845815
 30
0.0
 10
18.27165224978892
 20
6.493148452839989
 30
0.0
 10
17.837285664911
 20
6.45845840663145
 30
0.0
  0
SPLINE
  5
82A3
330
1F
100
AcDbEntity
  8
AM_0
100
AcDbSpline
210
0.0
220
0.0
230
1.0
 70
     8
 71
     3
 72
    13
 73
     9
 74
     0
 42
0.0000000001
 43
0.0000000001
 40
0.0
 40
0.0
 40
0.0
 40
0.0
 40
0.0475761771274733
 40
0.276792677404064
 40
0.5117665287057628
 40
0.7501985862989101
 40
0.9904818955328009
 40
1.0
 40
1.0
 40
1.0
 40
1.0
 10
16.8833738444996
 20
-57.09551129281297
 30
0.0
 10
16.87521070729906
 20
-57.10483523977692
 30
0.0
 10
16.82861919535401
 20
-57.16014914353937
 30
0.0
 10
16.74977216345712
 20
-57.27540688509444
 30
0.0
 10
16.67047666786936
 20
-57.45594690134126
 30
0.0
 10
16.62616901353146
 20
-57.6542770992393
 30
0.0
 10
16.623359526292
 20
-57.79429904376278
 30
0.0
 10
16.62934453479556
 20
-57.86514303365428
 30
0.0
 10
16.62958329873777
 20
-57.8678426155001
 30
0.0
  0
SPLINE
  5
82A4
330
1F
100
AcDbEntity
  8
AM_0
100
AcDbSpline
210
0.0
220
0.0
230
1.0
 70
     8
 71
     3
 72
    11
 73
     7
 74
     0
 42
0.0000000001
 43
0.0000000001
 40
0.0
 40
0.0
 40
0.0
 40
0.0
 40
0.2499763971421576
 40
0.5070165626960703
 40
0.7502420944273571
 40
1.0
 40
1.0
 40
1.0
 40
1.0
 10
19.43647274746393
 20
10.14844586257976
 30
0.0
 10
19.67788295880921
 20
10.08801329253578
 30
0.0
 10
20.1693676451162
 20
10.00600252887426
 30
0.0
 10
20.91283604673042
 20
10.00736763739741
 30
0.0
 10
21.64076439631201
 20
10.12690462875486
 30
0.0
 10
22.09657076095509
 20
10.2812472282813
 30
0.0
 10
22.3227585726509
 20
10.37895482006496
 30
0.0
  0
SPLINE
  5
82A6
330
1F
100
AcDbEntity
  8
AM_0
100
AcDbSpline
210
0.0
220
0.0
230
1.0
 70
     8
 71
     3
 72
    10
 73
     6
 74
     0
 42
0.0000000001
 43
0.0000000001
 40
0.0
 40
0.0
 40
0.0
 40
0.0
 40
0.4171664345964495
 40
0.8350069679594165
 40
1.0
 40
1.0
 40
1.0
 40
1.0
 10
5.310403156248231
 20
6.974946217306467
 30
0.0
 10
5.289876218626023
 20
7.104991477276541
 30
0.0
 10
5.278486064142885
 20
7.36451746539177
 30
0.0
 10
5.341505080267825
 20
7.696804344798863
 30
0.0
 10
5.402745671091043
 20
7.870744470160104
 30
0.0
 10
5.4222697894666
 20
7.919356378608824
 30
0.0
  0
SPLINE
  5
82A7
330
1F
100
AcDbEntity
  8
AM_0
100
AcDbSpline
210
0.0
220
0.0
230
1.0
 70
     8
 71
     3
 72
    11
 73
     7
 74
     0
 42
0.0000000001
 43
0.0000000001
 40
0.0
 40
0.0
 40
0.0
 40
0.0
 40
0.2499763971421576
 40
0.5070165626960703
 40
0.7502420944273571
 40
1.0
 40
1.0
 40
1.0
 40
1.0
 10
19.42219214352133
 20
-58.07432108682078
 30
0.0
 10
19.6636023548665
 20
-58.06454502279237
 30
0.0
 10
20.1550870411736
 20
-58.03780554207029
 30
0.0
 10
20.89855544278782
 20
-57.9941175874516
 30
0.0
 10
21.6264837923693
 20
-57.89764339327305
 30
0.0
 10
22.08229015701249
 20
-57.83510544663343
 30
0.0
 10
22.3084779687083
 20
-57.80067230177784
 30
0.0
  0
SPLINE
  5
82A9
330
1F
100
AcDbEntity
  8
AM_0
100
AcDbSpline
210
0.0
220
0.0
230
1.0
 70
     8
 71
     3
 72
     8
 73
     4
 74
     0
 42
0.0000000001
 43
0.0000000001
 40
0.0
 40
0.0
 40
0.0
 40
0.0
 40
1.0
 40
1.0
 40
1.0
 40
1.0
 10
-64.97939310407487
 20
5.259531347159974
 30
0.0
 10
-65.01951206165593
 20
5.244514102261529
 30
0.0
 10
-65.04323739564911
 20
5.237261606940602
 30
0.0
 10
-65.05024053099937
 20
5.237874301892826
 30
0.0
  0
SPLINE
  5
82AD
330
1F
100
AcDbEntity
  8
AM_0
100
AcDbSpline
210
0.0
220
0.0
230
1.0
 70
    24
 71
     1
 72
     4
 73
     2
 74
     0
 42
0.0000000001
 43
0.0000000001
 40
0.0
 40
0.0
 40
1.0
 40
1.0
 10
5.275910012953886
 20
-66.23767612510234
 30
0.0
 10
5.283593749672377
 20
-66.20025336523453
 30
0.0
  0
SPLINE
  5
82AE
330
1F
100
AcDbEntity
  8
AM_0
100
AcDbSpline
210
0.0
220
0.0
230
1.0
 70
    24
 71
     1
 72
     4
 73
     2
 74
     0
 42
0.0000000001
 43
0.0000000001
 40
0.0
 40
0.0
 40
1.0
 40
1.0
 10
5.296122552305632
 20
-66.31174398825307
 30
0.0
 10
5.275910012953886
 20
-66.23767612510234
 30
0.0
  0
SPLINE
  5
82AF
330
1F
100
AcDbEntity
  8
AM_0
100
AcDbSpline
210
0.0
220
0.0
230
1.0
 70
     8
 71
     3
 72
    10
 73
     6
 74
     0
 42
0.0000000001
 43
0.0000000001
 40
0.0
 40
0.0
 40
0.0
 40
0.0
 40
0.4876691799927528
 40
0.9753383599855055
 40
1.0
 40
1.0
 40
1.0
 40
1.0
 10
-62.84841302836465
 20
16.61748183905957
 30
0.0
 10
-62.79050217269953
 20
17.00533060795852
 30
0.0
 10
-62.66403692065246
 20
17.76332912559418
 30
0.0
 10
-62.5261787478599
 20
18.42252715497944
 30
0.0
 10
-62.45724240796445
 20
18.70987622285748
 30
0.0
 10
-62.45392842347367
 20
18.72359087848396
 30
0.0
  0
SPLINE
  5
82B0
330
1F
100
AcDbEntity
  8
AM_0
100
AcDbSpline
210
0.0
220
0.0
230
1.0
 70
     8
 71
     3
 72
    11
 73
     7
 74
     0
 42
0.0000000001
 43
0.0000000001
 40
0.0
 40
0.0
 40
0.0
 40
0.0
 40
0.0160195469917631
 40
0.3532389325942185
 40
0.6723344490342224
 40
1.0
 40
1.0
 40
1.0
 40
1.0
 10
17.33514555358663
 20
17.68195168865219
 30
0.0
 10
17.32671373250007
 20
17.67355114301659
 30
0.0
 10
17.14157809823034
 20
17.48760057175747
 30
0.0
 10
16.82005263523119
 20
17.10111653554912
 30
0.0
 10
16.44625978434174
 20
16.4612888968839
 30
0.0
 10
16.27349783103527
 20
16.01012129902079
 30
0.0
 10
16.20382165503922
 20
15.77221121318058
 30
0.0
  0
SPLINE
  5
82B2
330
1F
100
AcDbEntity
  8
AM_0
100
AcDbSpline
210
0.0
220
0.0
230
1.0
 70
     8
 71
     3
 72
    12
 73
     8
 74
     0
 42
0.0000000001
 43
0.0000000001
 40
0.0
 40
0.0
 40
0.0
 40
0.0
 40
0.2398476049169737
 40
0.4738633723129152
 40
0.6940763998412371
 40
0.9039989825203859
 40
1.0
 40
1.0
 40
1.0
 40
1.0
 10
-56.50540110759784
 20
10.68568341523724
 30
0.0
 10
-56.43556226961955
 20
10.67985812473001
 30
0.0
 10
-56.30001472229283
 20
10.68167169577522
 30
0.0
 10
-56.10435432905259
 20
10.72417777418082
 30
0.0
 10
-55.93131020773201
 20
10.79780496594095
 30
0.0
 10
-55.80932136514237
 20
10.87718652304159
 30
0.0
 10
-55.74691997090607
 20
10.9286536324919
 30
0.0
 10
-55.72808625896342
 20
10.94546344183221
 30
0.0
  0
SPLINE
  5
82B3
330
1F
100
AcDbEntity
  8
AM_0
100
AcDbSpline
210
0.0
220
0.0
230
1.0
 70
     8
 71
     3
 72
    10
 73
     6
 74
     0
 42
0.0000000001
 43
0.0000000001
 40
0.0
 40
0.0
 40
0.0
 40
0.0
 40
0.4523255094409729
 40
0.9046510188819457
 40
1.0
 40
1.0
 40
1.0
 40
1.0
 10
5.296122552305632
 20
-66.31174398825307
 30
0.0
 10
5.33274501697906
 20
-66.40782819000539
 30
0.0
 10
5.486870246596367
 20
-66.52407254593221
 30
0.0
 10
5.814153036348898
 20
-66.46813836414664
 30
0.0
 10
6.031399990259274
 20
-66.37883775026877
 30
0.0
 10
6.07024801777959
 20
-66.36158146389904
 30
0.0
  0
SPLINE
  5
82B6
330
1F
100
AcDbEntity
  8
AM_0
100
AcDbSpline
210
0.0
220
0.0
230
1.0
 70
     8
 71
     3
 72
    10
 73
     6
 74
     0
 42
0.0000000001
 43
0.0000000001
 40
0.0
 40
0.0
 40
0.0
 40
0.0
 40
0.4876691799927528
 40
0.9753383599855055
 40
1.0
 40
1.0
 40
1.0
 40
1.0
 10
12.00490769956575
 20
16.60490606687466
 30
0.0
 10
12.27794010040184
 20
16.99275483577361
 30
0.0
 10
12.96282986052613
 20
17.75075335340926
 30
0.0
 10
13.87587029041167
 20
18.40995138279453
 30
0.0
 10
14.37456227074976
 20
18.69730045067257
 30
0.0
 10
14.39863467849618
 20
18.71101510629893
 30
0.0
  0
SPLINE
  5
82B8
330
1F
100
AcDbEntity
  8
AM_0
100
AcDbSpline
210
0.0
220
0.0
230
1.0
 70
     8
 71
     2
 72
     6
 73
     3
 74
     0
 42
0.0000000001
 43
0.0000000001
 40
0.0
 40
0.0
 40
0.0
 40
1.0
 40
1.0
 40
1.0
 10
-56.34790663169299
 20
10.29550612309561
 30
0.0
 10
-56.3248584573774
 20
10.39114162021861
 30
0.0
 10
-56.32396780995209
 20
10.49015048912964
 30
0.0
  0
SPLINE
  5
82BA
330
1F
100
AcDbEntity
  8
AM_0
100
AcDbSpline
210
0.0
220
0.0
230
1.0
 70
     8
 71
     3
 72
    10
 73
     6
 74
     0
 42
0.0000000001
 43
0.0000000001
 40
0.0
 40
0.0
 40
0.0
 40
0.0
 40
0.3663177553493844
 40
0.7306636280070944
 40
1.0
 40
1.0
 40
1.0
 40
1.0
 10
6.944137804587512
 20
-66.33902095273403
 30
0.0
 10
6.826588641729244
 20
-66.30260932770956
 30
0.0
 10
6.600385674761469
 20
-66.25845823079477
 30
0.0
 10
6.297594531754498
 20
-66.28230564294939
 30
0.0
 10
6.135488101225973
 20
-66.33293423649686
 30
0.0
 10
6.07024801777959
 20
-66.36158146389904
 30
0.0
  0
SPLINE
  5
82BF
330
1F
100
AcDbEntity
  8
AM_0
100
AcDbSpline
210
0.0
220
0.0
230
1.0
 70
     8
 71
     3
 72
     8
 73
     4
 74
     0
 42
0.0000000001
 43
0.0000000001
 40
0.0
 40
0.0
 40
0.0
 40
0.0
 40
1.0
 40
1.0
 40
1.0
 40
1.0
 10
6.944137804587512
 20
-66.33902095273403
 30
0.0
 10
7.116938505909502
 20
-66.40013253966493
 30
0.0
 10
7.290143743206385
 20
-66.42308758174182
 30
0.0
 10
7.458218034462561
 20
-66.40715245667628
 30
0.0
  0
SPLINE
  5
82C3
330
1F
100
AcDbEntity
  8
AM_0
100
AcDbSpline
210
0.0
220
0.0
230
1.0
 70
     8
 71
     3
 72
    33
 73
    29
 74
     0
 42
0.0000000001
 43
0.0000000001
 40
0.0
 40
0.0
 40
0.0
 40
0.0
 40
0.0256149417281369
 40
0.0482009997048562
 40
0.0770948286380237
 40
0.1189880044723687
 40
0.1672006775846444
 40
0.2118824088194845
 40
0.2588971103630171
 40
0.3039488260163967
 40
0.3480707451175244
 40
0.3917081017454749
 40
0.4350799794609121
 40
0.4783157503234304
 40
0.521506248686094
 40
0.5647185604788719
 40
0.608017043669082
 40
0.6514968418765155
 40
0.6952940491221664
 40
0.7396338145234475
 40
0.7849450704124208
 40
0.8322020795326814
 40
0.8843601398943011
 40
0.919267157297234
 40
0.9429888271492494
 40
0.9656651373305241
 40
0.9883003872336805
 40
1.0
 40
1.0
 40
1.0
 40
1.0
 10
23.77155591437338
 20
-55.67261313895906
 30
0.0
 10
23.72016707172349
 20
-55.64998786556296
 30
0.0
 10
23.62851368587371
 20
-55.61404711256947
 30
0.0
 10
23.49881922930433
 20
-55.58066056890917
 30
0.0
 10
23.35667849388574
 20
-55.55465110119306
 30
0.0
 10
23.17940156126917
 20
-55.53511005484793
 30
0.0
 10
22.95916421160996
 20
-55.522497561434
 30
0.0
 10
22.69979088788943
 20
-55.51719566075249
 30
0.0
 10
22.41524139033743
 20
-55.51881242722598
 30
0.0
 10
22.10317427139603
 20
-55.52694676356114
 30
0.0
 10
21.77574489742767
 20
-55.54082513013648
 30
0.0
 10
21.43488305153699
 20
-55.56004770148106
 30
0.0
 10
21.0844297721842
 20
-55.58424486638458
 30
0.0
 10
20.72911484164774
 20
-55.6130142174949
 30
0.0
 10
20.37408513172488
 20
-55.64590680400548
 30
0.0
 10
20.02462978428787
 20
-55.68243118371166
 30
0.0
 10
19.68591108109797
 20
-55.72207498553499
 30
0.0
 10
19.36270544273759
 20
-55.76434540301355
 30
0.0
 10
19.0591127793142
 20
-55.8088347628881
 30
0.0
 10
18.77810042661826
 20
-55.85537046502683
 30
0.0
 10
18.52053273520698
 20
-55.90432776746846
 30
0.0
 10
18.28155626032287
 20
-55.95809332930335
 30
0.0
 10
18.08711327992103
 20
-56.01255332960775
 30
0.0
 10
17.92710649180094
 20
-56.07146183711839
 30
0.0
 10
17.79659909126656
 20
-56.13374594383984
 30
0.0
 10
17.67420818035271
 20
-56.20868028138753
 30
0.0
 10
17.56942085339426
 20
-56.29364352188978
 30
0.0
 10
17.51068449086631
 20
-56.35482022956549
 30
0.0
 10
17.49089785566434
 20
-56.37685240208807
 30
0.0
  0
SPLINE
  5
82C4
330
1F
100
AcDbEntity
  8
AM_0
100
AcDbSpline
210
0.0
220
0.0
230
1.0
 70
     8
 71
     3
 72
    10
 73
     6
 74
     0
 42
0.0000000001
 43
0.0000000001
 40
0.0
 40
0.0
 40
0.0
 40
0.0
 40
0.4523255094409729
 40
0.9046510188819457
 40
1.0
 40
1.0
 40
1.0
 40
1.0
 10
-64.95211613959391
 20
6.98752198949138
 30
0.0
 10
-65.04820034134623
 20
6.756214311623249
 30
0.0
 10
-65.16444469727305
 20
6.297967445539153
 30
0.0
 10
-65.10851051548748
 20
5.866296310762106
 30
0.0
 10
-65.01920990160961
 20
5.673048641236288
 30
0.0
 10
-65.00195361523989
 20
5.640794537230373
 30
0.0
  0
SPLINE
  5
82C5
330
1F
100
AcDbEntity
  8
AM_0
100
AcDbSpline
210
0.0
220
0.0
230
1.0
 70
     8
 71
     3
 72
    13
 73
     9
 74
     0
 42
0.0000000001
 43
0.0000000001
 40
0.0
 40
0.0
 40
0.0
 40
0.0
 40
0.0444280641289888
 40
0.2737693030056675
 40
0.5088415158582086
 40
0.7473585089360243
 40
0.9877234303296368
 40
1.0
 40
1.0
 40
1.0
 40
1.0
 10
-55.05078932697968
 20
18.77077581534196
 30
0.0
 10
-55.05805607717316
 20
18.77978091545868
 30
0.0
 10
-55.10394981193072
 20
18.83462419463786
 30
0.0
 10
-55.20306636990877
 20
18.93172905858934
 30
0.0
 10
-55.36701530369597
 20
19.0412964848606
 30
0.0
 10
-55.55458677541738
 20
19.11952113809697
 30
0.0
 10
-55.69276028434792
 20
19.14686928625157
 30
0.0
 10
-55.76435277114088
 20
19.1533238565163
 30
0.0
 10
-55.76783513592745
 20
19.15362002267739
 30
0.0
  0
SPLINE
  5
82C6
330
1F
100
AcDbEntity
  8
AM_0
100
AcDbSpline
210
0.0
220
0.0
230
1.0
 70
     8
 71
     3
 72
     8
 73
     4
 74
     0
 42
0.0000000001
 43
0.0000000001
 40
0.8152650426861695
 40
0.8152650426861695
 40
0.8152650426861695
 40
0.8152650426861695
 40
1.0
 40
1.0
 40
1.0
 40
1.0
 10
-63.85489378961257
 20
12.82988724699201
 30
0.0
 10
-63.82712369198817
 20
12.81116868830265
 30
0.0
 10
-63.79927713179933
 20
12.79317262738029
 30
0.0
 10
-63.77140157492416
 20
12.7759356173308
 30
0.0
  0
LINE
  5
832D
330
1F
100
AcDbEntity
  8
AM_0
100
AcDbLine
 10
-63.22777987456131
 20
24.99882223096803
 30
0.0
 11
-64.10417531295728
 21
19.99974262728694
 31
0.0
  0
LINE
  5
832E
330
1F
100
AcDbEntity
  8
AM_0
100
AcDbLine
 10
-62.20886625885056
 20
24.99882223096803
 30
0.0
 11
-62.344489702201
 21
24.15416178248798
 31
0.0
  0
LINE
  5
832F
330
1F
100
AcDbEntity
  8
AM_0
100
AcDbLine
 10
-86.08291025419367
 20
24.99882223096803
 30
0.0
 11
-62.20886625885056
 21
24.99882223096803
 31
0.0
  0
LINE
  5
8331
330
1F
100
AcDbEntity
  8
AM_0
100
AcDbLine
 10
-62.60039680237373
 20
24.17655075266889
 30
0.0
 11
-62.66270300672227
 21
23.61300413418345
 31
0.0
  0
LINE
  5
8332
330
1F
100
AcDbEntity
  8
AM_0
100
AcDbLine
 10
-62.45227383853851
 20
23.4828840543253
 30
0.0
 11
-63.10214255107791
 21
19.435513005293
 31
0.0
  0
LINE
  5
834A
330
1F
100
AcDbEntity
  8
AM_0
100
AcDbLine
 10
9.299492097678847
 20
-66.3308975040887
 30
0.0
 11
9.290928983763819
 21
-66.2333931150911
 31
0.0
  0
LINE
  5
834B
330
1F
100
AcDbEntity
  8
AM_0
100
AcDbLine
 10
13.05640994376046
 20
-65.33514765361385
 30
0.0
 11
11.58437733618961
 21
-65.47532137124119
 31
0.0
  0
ELLIPSE
  5
834E
330
1F
100
AcDbEntity
  8
AM_0
100
AcDbEllipse
 10
29.23326583460511
 20
-64.48131552709535
 30
0.0
 11
1.773217710882374
 21
0.1552383645014011
 31
0.0
210
0.0
220
0.0
230
1.0
 40
0.0870985468184394
 41
4.014198528062126
 42
6.832082692986755
  0
LINE
  5
834F
330
1F
100
AcDbEntity
  8
AM_0
100
AcDbLine
 10
28.10374086063388
 20
-64.69941347143882
 30
0.0
 11
27.27575290287223
 21
-64.71130434129318
 31
0.0
  0
LINE
  5
8353
330
1F
100
AcDbEntity
  8
AM_0
100
AcDbLine
 10
30.7530967031052
 20
-64.42945248761976
 30
0.0
 11
30.21880287578199
 21
-58.34568509934801
 31
0.0
  0
LINE
  5
8367
330
1F
100
AcDbEntity
  8
AM_0
100
AcDbLine
 10
-86.0829102541937
 20
1.139536225657891
 30
0.0
 11
-86.08291025419367
 21
24.99882223096803
 31
0.0
  0
LINE
  5
8372
330
1F
100
AcDbEntity
  8
AM_5
100
AcDbLine
 10
-66.0829102541937
 20
1.139536225657867
 30
0.0
 11
-66.0829102541937
 21
-0.3173357729060626
 31
0.0
  0
DIMENSION
  5
8374
330
1F
100
AcDbEntity
  8
AM_5
100
AcDbDimension
  2
*D32
 10
-64.94720498296124
 20
12.05177817708966
 30
0.0
 11
-72.0435973179514
 21
-18.62544429610013
 31
0.0
 70
   162
  1
-<>
 71
     5
 42
0.0944799442824902
  3
AM_JIS$2
100
AcDb2LineAngularDimension
 13
-66.0829102541937
 23
1.139536225657867
 33
0.0
 14
-66.0829102541937
 24
-0.3173357729060626
 34
0.0
 15
-66.00717720406573
 25
0.8661618278166089
 35
0.0
 16
-66.70070033524254
 26
-19.54309061687005
 36
0.0
1001
ACAD
1000
DSTYLE
1002
{
1070
    79
1070
     2
1070
   371
1070
    -1
1070
   372
1070
    -1
1002
}
  0
LINE
  5
83D1
330
1F
100
AcDbEntity
  8
AM_5
100
AcDbLine
 10
-0.2669988962368279
 20
-67.63148259105769
 30
0.0
 11
-1.425448438582634
 21
-67.63148259105769
 31
0.0
  0
DIMENSION
  5
8424
330
1F
100
AcDbEntity
  8
AM_5
100
AcDbDimension
  2
*D33
 10
-1.425448438582634
 20
-67.63148259105769
 30
0.0
 11
-8.924572941464585
 21
-62.76970632796921
 31
0.0
 70
   162
  1
-<>
 71
     5
 42
0.0949383333251897
  3
AM_JIS$2
100
AcDb2LineAngularDimension
 13
12.05095341815546
 23
-66.54242584601274
 33
0.0
 14
0.8727911114730684
 24
-67.60686189091472
 34
0.0
 15
-0.2669988962368279
 25
-67.63148259105769
 35
0.0
 16
-10.07066805745144
 26
-68.30865845999006
 36
0.0
1001
ACAD
1000
DSTYLE
1002
{
1070
    79
1070
     2
1070
   371
1070
    -1
1070
   372
1070
    -1
1002
}
  0
ENDSEC
  0
SECTION
  2
OBJECTS
  0
DICTIONARY
  5
C
330
0
100
AcDbDictionary
281
     1
  3
ACAD_COLOR
350
75FA
  3
ACAD_GROUP
350
D
  3
ACAD_LAYOUT
350
1A
  3
ACAD_MATERIAL
350
75F9
  3
ACAD_MLINESTYLE
350
17
  3
ACAD_PLOTSETTINGS
350
19
  3
ACAD_PLOTSTYLENAME
350
E
  3
ACAD_TABLESTYLE
350
75FB
  3
ACDBHEADERROUNDTRIPXREC
350
8483
  3
ACDBVARIABLEDICTIONARY
350
30
  3
ACMDICTIONARY
350
4D
  3
AMG
350
3F
  3
AMGSNAPSETTINGS
350
73
  3
ASE_INDEX_DICTIONARY
350
7BF5
  3
DWGPROPS
350
8482
  3
ENG_DATA
350
21C6
  3
FILENAME
350
21C9
  3
HOLD_DIC_DATA
350
21C4
  3
TABLE_DIC_DATA
350
1C0B
  3
ZWKSIZE
350
21CB
  0
DICTIONARY
  5
7C10
330
2
100
AcDbDictionary
280
     1
281
     1
  3
ACAD_LAYERSTATES
360
7C11
  0
DICTIONARY
  5
165
330
1F
100
AcDbDictionary
280
     1
281
     1
  3
ACAD_INDEX
360
75AB
  3
ACAD_LAYOUTSELFREF
360
75D7
  3
ACAD_SORTENTS
360
8320
  0
DICTIONARY
  5
75D5
330
1B
100
AcDbDictionary
280
     1
281
     1
  3
ACAD_LAYOUTSELFREF
360
75D6
  0
DICTIONARY
  5
75FA
102
{ACAD_REACTORS
330
C
102
}
330
C
100
AcDbDictionary
281
     1
  0
DICTIONARY
  5
D
102
{ACAD_REACTORS
330
C
102
}
330
C
100
AcDbDictionary
281
     1
  0
DICTIONARY
  5
1A
102
{ACAD_REACTORS
330
C
102
}
330
C
100
AcDbDictionary
281
     1
  3
Model
350
75FD
  3
レイアウト1
350
75FE
  0
DICTIONARY
  5
75F9
102
{ACAD_REACTORS
330
C
102
}
330
C
100
AcDbDictionary
281
     1
  0
DICTIONARY
  5
17
102
{ACAD_REACTORS
330
C
102
}
330
C
100
AcDbDictionary
281
     1
  3
STANDARD
350
18
  0
DICTIONARY
  5
19
102
{ACAD_REACTORS
330
C
102
}
330
C
100
AcDbDictionary
281
     1
  0
ACDBDICTIONARYWDFLT
  5
E
102
{ACAD_REACTORS
330
C
102
}
330
C
100
AcDbDictionary
281
     1
  3
Normal
350
F
100
AcDbDictionaryWithDefault
340
F
  0
DICTIONARY
  5
75FB
102
{ACAD_REACTORS
330
C
102
}
330
C
100
AcDbDictionary
281
     1
  3
Standard
350
75FC
  0
DICTIONARY
  5
8483
102
{ACAD_REACTORS
330
C
102
}
330
C
100
AcDbDictionary
281
     1
  0
DICTIONARY
  5
30
102
{ACAD_REACTORS
330
C
102
}
330
C
100
AcDbDictionary
281
     1
  3
CTABLESTYLE
350
7BCF
  3
DIMASSOC
350
847F
  3
INDEXCTL
350
31
  3
PROJECTNAME
350
8480
  3
SORTENTS
350
42BE
  0
DICTIONARY
  5
4D
102
{ACAD_REACTORS
330
C
102
}
330
C
100
AcDbDictionary
281
     1
  3
ACMSTDDICTIONARY
350
17E
  3
AMDTSECTSYM_ARROWCOLOR
350
7676
  0
DICTIONARY
  5
3F
102
{ACAD_REACTORS
330
C
102
}
330
C
100
AcDbDictionary
281
     1
  0
DICTIONARY
  5
73
102
{ACAD_REACTORS
330
C
102
}
330
C
100
AcDbDictionary
281
     1
  0
DICTIONARY
  5
7BF5
102
{ACAD_REACTORS
330
C
102
}
330
C
100
AcDbDictionary
281
     1
  3
ASEBlockHierarchyIndexRecord
350
7BF7
1001
DCO15
1040
1711367147.796
  0
XRECORD
  5
8482
102
{ACAD_REACTORS
330
C
102
}
330
C
100
AcDbXrecord
280
     1
  1
DWGPROPS COOKIE
  2

  3

  4

  6

  7

  8

  9

300
AmdtFileType=82
301
=
302
=
303
=
304
=
305
=
306
=
307
=
308
=
309
=
 40
0.4177395601851853
 41
2451943.610431666
 42
2455610.70198838
  1

 90
        1
  0
DICTIONARY
  5
21C6
102
{ACAD_REACTORS
330
C
102
}
330
C
100
AcDbDictionary
281
     1
  3
ENG_ID
350
21C7
  0
DICTIONARY
  5
21C9
102
{ACAD_REACTORS
330
C
102
}
330
C
100
AcDbDictionary
281
     1
  3
FILENAME
350
21CA
  0
DICTIONARY
  5
21C4
102
{ACAD_REACTORS
330
C
102
}
330
C
100
AcDbDictionary
281
     1
  3
HOLD_DATA
350
21C5
  0
DICTIONARY
  5
1C0B
102
{ACAD_REACTORS
330
C
102
}
330
C
100
AcDbDictionary
281
     1
  3
INPUT_DATA
350
1C0D
  3
TABLE_DATA
350
1C0C
  0
DICTIONARY
  5
21CB
102
{ACAD_REACTORS
330
C
102
}
330
C
100
AcDbDictionary
281
     1
  3
ZWKSIZE
350
21CC
  0
DICTIONARY
  5
7C11
102
{ACAD_REACTORS
330
7C10
102
}
330
7C10
100
AcDbDictionary
281
     1
  0
DICTIONARY
  5
75AB
102
{ACAD_REACTORS
330
165
102
}
330
165
100
AcDbDictionary
281
     1
  3
*A1
350
75AC
  0
XRECORD
  5
75D7
102
{ACAD_REACTORS
330
165
102
}
330
165
100
AcDbXrecord
280
     1
340
1F
  0
SORTENTSTABLE
  5
8320
102
{ACAD_REACTORS
330
165
102
}
330
165
100
AcDbSortentsTable
330
1F
331
8261
  5
8277
331
8150
  5
8168
331
8283
  5
8299
331
8172
  5
8192
331
829D
  5
82B4
331
811C
  5
8136
331
8332
  5
7189
331
82BF
  5
834D
331
81D0
  5
81E9
331
702E
  5
704B
331
822E
  5
8243
331
81F2
  5
820A
331
813F
  5
815A
331
7188
  5
71A3
331
8250
  5
8266
331
7FD8
  5
7FFB
331
8294
  5
82A6
331
7FFA
  5
800B
331
812D
  5
8141
331
81A5
  5
81C0
331
7068
  5
706A
331
82AE
  5
831F
331
81E1
  5
81FB
331
8203
  5
821C
331
807A
  5
8095
331
7177
  5
718C
331
7FAD
  5
7FD6
331
7057
  5
7058
331
71D5
  5
7905
331
70B5
  5
70B6
331
701D
  5
701D
331
8281
  5
8298
331
8374
  5
83D1
331
829B
  5
82B3
331
8192
  5
81AB
331
7118
  5
7121
331
702C
  5
702D
331
824E
  5
8265
331
822C
  5
8240
331
81F0
  5
8209
331
8270
  5
828D
331
80E7
  5
8110
331
8181
  5
81A4
331
8292
  5
82A5
331
8109
  5
8125
331
7108
  5
7114
331
803C
  5
8062
331
81DF
  5
81FA
331
825F
  5
8274
331
823D
  5
8253
331
7FAB
  5
7FD3
331
7197
  5
71D7
331
7055
  5
7056
331
70E6
  5
70EA
331
7066
  5
7067
331
8372
  5
8374
331
8299
  5
82AC
331
8029
  5
803E
331
7114
  5
711F
331
702A
  5
702B
331
822A
  5
823F
331
8210
  5
8228
331
8087
  5
80B6
331
8065
  5
8087
331
813B
  5
8159
331
824C
  5
8263
331
80C3
  5
80E6
331
826E
  5
828A
331
817F
  5
81A2
331
8107
  5
8122
331
7106
  5
710E
331
8290
  5
82A3
331
8018
  5
8036
331
81A1
  5
81BD
331
7127
  5
7133
331
81BB
  5
81D7
331
803A
  5
8059
331
81DD
  5
81F9
331
8054
  5
8082
331
81FF
  5
8218
331
7F87
  5
7FAC
331
7FA9
  5
7FD2
331
7053
  5
7054
331
8129
  5
813F
331
70E4
  5
70E6
331
70C2
  5
70D6
331
825D
  5
8272
331
823B
  5
8252
331
80F6
  5
811E
331
827F
  5
8295
331
8007
  5
802A
331
832E
  5
7183
331
70B1
  5
70B2
331
7064
  5
7065
331
81A8
  5
81C7
331
820E
  5
8226
331
8085
  5
80AE
331
8228
  5
823E
331
80A7
  5
80CA
331
7182
  5
7190
331
8139
  5
8157
331
824A
  5
825F
331
7FD2
  5
7FF3
331
826C
  5
8288
331
815B
  5
817A
331
7028
  5
7029
331
828E
  5
82A1
331
819F
  5
81B9
331
817D
  5
819D
331
81DB
  5
81F7
331
81B9
  5
81D1
331
821F
  5
8236
331
7F85
  5
7F99
331
834E
  5
8371
331
816C
  5
8186
331
8116
  5
812F
331
7017
  5
7017
331
81C8
  5
81E3
331
81EA
  5
8203
331
8083
  5
80AD
331
7F94
  5
7FB2
331
719A
  5
72DA
331
8137
  5
8151
331
73FE
  5
7F8B
331
80BF
  5
80E3
331
7060
  5
7061
331
8248
  5
825B
331
8159
  5
8173
331
828C
  5
829F
331
826A
  5
8282
331
819D
  5
81B7
331
8125
  5
813E
331
80E1
  5
810E
331
7FD0
  5
7FE8
331
82A6
  5
82C2
331
8036
  5
8057
331
81B7
  5
81CE
331
81D9
  5
81F3
331
8050
  5
8075
331
8259
  5
826E
331
8237
  5
8250
331
81FB
  5
8215
331
8072
  5
8092
331
818C
  5
81A7
331
816A
  5
8184
331
8114
  5
812B
331
8025
  5
803A
331
704F
  5
7051
331
7026
  5
7027
331
7015
  5
7015
331
8135
  5
814D
331
80A3
  5
80C9
331
7F92
  5
7FB1
331
80BD
  5
80E1
331
8268
  5
8281
331
80DF
  5
810C
331
7FCE
  5
7FE2
331
8179
  5
819C
331
828A
  5
829C
331
819B
  5
81AF
331
7121
  5
7130
331
7100
  5
7101
331
82A4
  5
82C1
331
8034
  5
8051
331
81B5
  5
81CD
331
82C6
  5
8351
331
81F9
  5
8212
331
8070
  5
808E
331
8235
  5
824D
331
7FC5
  5
7FDE
331
704D
  5
704E
331
8279
  5
8293
331
8001
  5
8027
331
8112
  5
812A
331
834A
  5
8038
331
81C6
  5
81E1
331
8023
  5
8039
331
70EF
  5
70F0
331
7013
  5
7013
331
8244
  5
8259
331
8222
  5
823B
331
8208
  5
8223
331
8266
  5
827F
331
8155
  5
8171
331
8177
  5
8199
331
80FF
  5
8120
331
8199
  5
81AE
331
8121
  5
813C
331
82A2
  5
82BA
331
8032
  5
8048
331
81B3
  5
81CA
331
82C4
  5
834F
331
81D5
  5
81EB
331
806E
  5
808B
331
7F7F
  5
7F98
331
704B
  5
704C
331
711F
  5
712F
331
8255
  5
826B
331
8233
  5
824B
331
7FFF
  5
8015
331
82B3
  5
8349
331
81C4
  5
81DF
331
7130
  5
7169
331
805D
  5
8083
331
717C
  5
718D
331
70ED
  5
70EE
331
70A9
  5
70B0
331
8220
  5
8237
331
8131
  5
8148
331
8242
  5
8258
331
80B9
  5
80D9
331
8424
  5
847D
331
8153
  5
816F
331
8264
  5
827B
331
82A0
  5
82B6
331
800E
  5
8032
331
81B1
  5
81C8
331
711D
  5
712B
331
7F7D
  5
7F96
331
718B
  5
71A9
331
706B
  5
708D
331
8231
  5
8248
331
80B0
  5
80CE
331
8253
  5
8268
331
8142
  5
815E
331
8275
  5
8292
331
7FFD
  5
8012
331
8297
  5
82A9
331
712E
  5
7142
331
70EB
  5
70ED
331
708D
  5
70A1
331
81C2
  5
81DB
331
8206
  5
821F
331
81E4
  5
8201
331
809F
  5
80C3
331
705A
  5
705B
331
7020
  5
7020
331
8151
  5
816C
331
8262
  5
827A
331
80D9
  5
80FA
331
811D
  5
8137
331
800C
  5
802D
331
829E
  5
82B5
331
802E
  5
8040
331
711B
  5
7125
331
81D1
  5
81EA
331
81F3
  5
820C
331
8215
  5
822F
331
808C
  5
80B9
331
7189
  5
71A5
331
80C8
  5
80EC
331
8162
  5
817C
331
7FD9
  5
7FFE
331
7FBF
  5
7FDD
331
80EA
  5
811B
331
70FA
  5
70FB
331
8295
  5
82A7
331
81A6
  5
81C1
331
82AF
  5
8321
331
812E
  5
8146
331
710B
  5
711C
331
81E2
  5
81FF
331
807B
  5
80A1
331
8204
  5
821D
331
7F8C
  5
7FAF
331
7FAE
  5
7FDC
331
71D6
  5
7906
331
70B6
  5
70C2
331
7058
  5
7059
331
8260
  5
8276
331
8331
  5
835D
331
8171
  5
818C
331
811B
  5
8135
331
8353
  5
7FAD
331
70F8
  5
70FA
331
81CF
  5
81E7
331
822D
  5
8241
331
8213
  5
822E
331
80C6
  5
80E8
331
7495
  5
7F90
331
71A1
  5
73FF
331
7187
  5
719E
331
8271
  5
8290
331
7FD7
  5
7FF9
331
702D
  5
702E
331
8182
  5
81A5
331
81A4
  5
81BF
331
810A
  5
8129
331
82AD
  5
830A
331
803D
  5
8064
331
81BE
  5
81D8
331
8202
  5
821A
331
8079
  5
8093
331
7FAC
  5
7FD4
331
823E
  5
8255
331
71D4
  5
7904
331
809B
  5
80BF
331
80D7
  5
80F7
331
70D6
  5
70DB
331
7109
  5
7118
331
8280
  5
8297
331
8191
  5
81A8
331
829A
  5
82AF
331
8119
  5
8134
331
8044
  5
806B
331
702B
  5
702C
331
83D1
  5
8424
331
81EF
  5
8208
331
824D
  5
8264
331
8211
  5
822C
331
80E6
  5
810F
331
8180
  5
81A3
331
7FF7
  5
8006
331
8291
  5
82A4
331
8108
  5
8123
331
812A
  5
8140
331
7054
  5
7055
331
81A2
  5
81BE
331
832F
  5
8352
331
825E
  5
8273
331
816F
  5
8189
331
70B2
  5
70B5
331
7065
  5
7066
331
8298
  5
82AA
331
82BA
  5
834C
331
81CB
  5
81E5
331
7029
  5
702A
331
820F
  5
8227
331
813A
  5
8158
331
80A8
  5
80CC
331
7183
  5
7191
331
824B
  5
8260
331
80C2
  5
80E5
331
817E
  5
81A1
331
7FF5
  5
8005
331
8106
  5
8121
331
828F
  5
82A2
331
81A0
  5
81BA
331
7126
  5
7132
331
7063
  5
7064
331
82A9
  5
82C5
331
81BA
  5
81D6
331
81FE
  5
8216
331
8053
  5
8081
331
7FA8
  5
7FC9
331
7052
  5
7053
331
814B
  5
8165
331
80D3
  5
80F2
331
71D0
  5
7902
331
7FE4
  5
8003
331
834F
  5
8372
331
816D
  5
8187
331
8117
  5
8131
331
832D
  5
711E
331
70B0
  5
70B1
331
7018
  5
7018
331
82B8
  5
834B
331
81EB
  5
8204
331
8227
  5
823D
331
820D
  5
8225
331
7F95
  5
7FC3
331
8249
  5
825C
331
8138
  5
8156
331
73FF
  5
7F8F
331
719B
  5
73FE
331
826B
  5
8287
331
815A
  5
8179
331
828D
  5
82A0
331
7103
  5
710B
331
70E1
  5
70E4
331
82A7
  5
82C4
331
8037
  5
8058
331
81B8
  5
81CF
331
821E
  5
8235
331
81DA
  5
81F6
331
8051
  5
8078
331
8238
  5
8251
331
825A
  5
8271
331
8149
  5
8163
331
71CE
  5
7495
331
827C
  5
8294
331
816B
  5
8185
331
8115
  5
812E
331
8026
  5
803B
331
7027
  5
7028
331
7016
  5
7016
331
8225
  5
823C
331
8136
  5
814F
331
8247
  5
825A
331
7FCF
  5
7FE4
331
8158
  5
8172
331
828B
  5
829E
331
80E0
  5
810D
331
819C
  5
81B4
331
8035
  5
8055
331
81FA
  5
8213
331
81D8
  5
81F2
331
8236
  5
824F
331
80B5
  5
80D5
331
8147
  5
8162
331
80CF
  5
80F1
331
7FE0
  5
8001
331
704E
  5
704F
331
8169
  5
8183
331
80F1
  5
811D
331
834B
  5
8367
331
8002
  5
8029
331
82B6
  5
834A
331
81C7
  5
81E2
331
705F
  5
7060
331
70F0
  5
70F8
331
7014
  5
7014
331
8209
  5
8224
331
8080
  5
80A9
331
8134
  5
814B
331
80A2
  5
80C7
331
80BC
  5
80DD
331
7FEF
  5
8004
331
70DD
  5
70E1
331
8122
  5
813D
331
8011
  5
8033
331
70FF
  5
7100
331
82A3
  5
82BC
331
81B4
  5
81CB
331
82C5
  5
8350
331
804D
  5
8071
331
821A
  5
8234
331
81F8
  5
820F
331
81D6
  5
81F0
331
8234
  5
824C
331
80B3
  5
80D1
331
8256
  5
826C
331
7FDE
  5
8000
331
704C
  5
704D
331
8167
  5
8180
331
81C5
  5
81E0
331
8000
  5
801C
331
81E7
  5
8202
331
805E
  5
8085
331
717D
  5
718E
331
705D
  5
705E
331
70EE
  5
70EF
331
7012
  5
7012
331
8221
  5
8238
331
80A0
  5
80C5
331
8132
  5
8149
331
8154
  5
8170
331
8265
  5
827D
331
80DC
  5
8107
331
70DB
  5
70DD
331
80FE
  5
811F
331
8287
  5
829B
331
8198
  5
81AD
331
711E
  5
712E
331
82A1
  5
82B8
331
8120
  5
813B
331
82C3
  5
834E
331
81B2
  5
81C9
331
8232
  5
824A
331
8218
  5
8233
331
808F
  5
80BB
331
8143
  5
8161
331
8254
  5
826A
331
80CB
  5
80ED
331
712F
  5
715B
331
710E
  5
711D
331
718C
  5
71D6
331
70FD
  5
70FE
331
82B2
  5
8331
331
81C3
  5
81DD
331
705B
  5
705D
331
7021
  5
7021
331
8241
  5
8256
331
8152
  5
816E
331
80DA
  5
80FF
331
8174
  5
8198
331
8285
  5
829A
331
8196
  5
81AC
331
711C
  5
7126
331
811E
  5
813A
331
802F
  5
8041
331
72DA
  5
7F89
331
8216
  5
8231
331
81F4
  5
820E
331
806B
  5
808A
331
706A
  5
706B
331
70FB
  5
70FD
331
8230
  5
8246
331
8252
  5
8267
331
8141
  5
815C
331
8163
  5
817F
331
80EB
  5
811C
331
8274
  5
8291
331
7FFC
  5
8010
331
8185
  5
81A6
331
8296
  5
82A8
331
712D
  5
713E
331
81A7
  5
81C2
331
8367
  5
7106
331
70EA
  5
70EB
331
70A6
  5
70A9
331
82B0
  5
8322
331
81E3
  5
8200
331
807C
  5
80A6
331
7F8D
  5
7FB0
331
7153
  5
718B
331
71D7
  5
7907
331
701F
  5
701F
  0
XRECORD
  5
75D6
102
{ACAD_REACTORS
330
75D5
102
}
330
75D5
100
AcDbXrecord
280
     1
340
1B
  0
LAYOUT
  5
75FD
102
{ACAD_XDICTIONARY
360
8484
102
}
102
{ACAD_REACTORS
330
1A
102
}
330
1A
100
AcDbPlotSettings
  1

  2
SII LP-1010 (C2 VR)2R
  4

  6

 40
0.0
 41
0.0
 42
0.0
 43
0.0
 44
0.0
 45
0.0
 46
0.0
 47
0.0
 48
0.0
 49
0.0
140
0.0
141
0.0
142
1.0
143
1.0
 70
  1712
 72
     0
 73
     0
 74
     0
  7
sei_cad.ctb
 75
     0
147
1.0
148
0.0
149
0.0
100
AcDbLayout
  1
Model
 70
     1
 71
     0
 10
0.0
 20
0.0
 11
12.0
 21
9.0
 12
0.0
 22
0.0
 32
0.0
 14
0.0
 24
0.0
 34
0.0
 15
0.0
 25
0.0
 35
0.0
146
0.0
 13
0.0
 23
0.0
 33
0.0
 16
1.0
 26
0.0
 36
0.0
 17
0.0
 27
1.0
 37
0.0
 76
     0
330
1F
  0
LAYOUT
  5
75FE
102
{ACAD_XDICTIONARY
360
8486
102
}
102
{ACAD_REACTORS
330
1A
102
}
330
1A
100
AcDbPlotSettings
  1

  2
SII LP-1010 (C2 VR)2R
  4

  6

 40
0.0
 41
0.0
 42
0.0
 43
0.0
 44
0.0
 45
0.0
 46
0.0
 47
0.0
 48
0.0
 49
0.0
140
0.0
141
0.0
142
1.0
143
1.0
 70
   688
 72
     0
 73
     0
 74
     5
  7
sei_cad.ctb
 75
    16
147
1.0
148
0.0
149
0.0
100
AcDbLayout
  1
レイアウト1
 70
     1
 71
     1
 10
0.0
 20
0.0
 11
420.0
 21
297.0
 12
0.0
 22
0.0
 32
0.0
 14
1.000000000000000E+20
 24
1.000000000000000E+20
 34
1.000000000000000E+20
 15
-1.000000000000000E+20
 25
-1.000000000000000E+20
 35
-1.000000000000000E+20
146
0.0
 13
0.0
 23
0.0
 33
0.0
 16
1.0
 26
0.0
 36
0.0
 17
0.0
 27
1.0
 37
0.0
 76
     0
330
1B
  0
MLINESTYLE
  5
18
102
{ACAD_REACTORS
330
17
102
}
330
17
100
AcDbMlineStyle
  2
STANDARD
 70
     0
  3

 62
   256
 51
90.0
 52
90.0
 71
     2
 49
0.5
 62
   256
  6
BYLAYER
 49
-0.5
 62
   256
  6
BYLAYER
  0
ACDBPLACEHOLDER
  5
F
102
{ACAD_REACTORS
330
E
102
}
330
E
  0
TABLESTYLE
  5
75FC
102
{ACAD_REACTORS
330
75FB
102
}
330
75FB
100
AcDbTableStyle
  3
Standard
 70
     0
 71
     0
 40
1.5
 41
1.5
280
     0
281
     0
  7
STANDARD
140
4.5
170
     2
 62
     0
 63
     7
283
     0
274
    -2
284
     1
 64
     0
275
    -2
285
     1
 65
     0
276
    -2
286
     1
 66
     0
277
    -2
287
     1
 67
     0
278
    -2
288
     1
 68
     0
279
    -2
289
     1
 69
     0
  7
STANDARD
140
6.0
170
     5
 62
     0
 63
     7
283
     0
274
    -2
284
     1
 64
     0
275
    -2
285
     1
 65
     0
276
    -2
286
     1
 66
     0
277
    -2
287
     1
 67
     0
278
    -2
288
     1
 68
     0
279
    -2
289
     1
 69
     0
  7
STANDARD
140
4.5
170
     5
 62
     0
 63
     7
283
     0
274
    -2
284
     1
 64
     0
275
    -2
285
     1
 65
     0
276
    -2
286
     1
 66
     0
277
    -2
287
     1
 67
     0
278
    -2
288
     1
 68
     0
279
    -2
289
     1
 69
     0
  0
DICTIONARYVAR
  5
7BCF
102
{ACAD_REACTORS
330
30
102
}
330
30
100
DictionaryVariables
280
     0
  1
STANDARD
  0
DICTIONARYVAR
  5
847F
102
{ACAD_REACTORS
330
30
102
}
330
30
100
DictionaryVariables
280
     0
  1
1
  0
DICTIONARYVAR
  5
31
102
{ACAD_REACTORS
330
30
102
}
330
30
100
DictionaryVariables
280
     0
  1
1
  0
DICTIONARYVAR
  5
8480
102
{ACAD_REACTORS
330
30
102
}
330
30
100
DictionaryVariables
280
     0
  1

  0
DICTIONARYVAR
  5
42BE
102
{ACAD_REACTORS
330
30
102
}
330
30
100
DictionaryVariables
280
     0
  1
96
  0
DICTIONARY
  5
17E
102
{ACAD_REACTORS
330
4D
102
}
330
4D
100
AcDbDictionary
281
     1
  0
XRECORD
  5
7676
102
{ACAD_REACTORS
330
4D
102
}
330
4D
100
AcDbXrecord
280
     1
 90
-1023410169
  0
XRECORD
  5
7BF7
102
{ACAD_REACTORS
330
7BF5
102
}
330
7BF5
100
AcDbXrecord
280
     1
330
7710
330
7711
330
7707
330
7708
330
76EA
330
76EB
330
76E1
330
76E2
330
76F3
330
76F4
330
76FC
330
76FD
330
7719
330
771A
330
83C9
330
83CA
330
846B
330
846C
  0
XRECORD
  5
21C7
102
{ACAD_REACTORS
330
21C6
102
}
330
21C6
100
AcDbXrecord
280
     1
  1
HOLD
  0
XRECORD
  5
21CA
102
{ACAD_REACTORS
330
21C9
102
}
330
21C9
100
AcDbXrecord
280
     1
  1
21000065__00___
  0
XRECORD
  5
21C5
102
{ACAD_REACTORS
330
21C4
102
}
330
21C4
100
AcDbXrecord
280
     1
  1
クランクシャフト加工用 ^M^J１コーナー型 ^M^J15.875 ^M^J20 ^M^Jクランプオン ^M^J９０° ^M^J1 ^M^J鋼 ^M^J ^M^J ^M^J ^M^J ^M^J
  0
XRECORD
  5
1C0D
102
{ACAD_REACTORS
330
1C0B
102
}
330
1C0B
100
AcDbXrecord
280
     1
  1
1,,,,,,,,,^M^J2,,,,,,,,,^M^J3,,,,,,,,,^M^J4,,,,,,,,,^M^J5,,,,,,,,,^M^J6,,,,,,,,,^M^J7,,,,,,,,,^M^J8,,,,,,,,,^M^J9,,,,,,,,,^M^J10,,,,,,,,,
  0
XRECORD
  5
1C0C
102
{ACAD_REACTORS
330
1C0B
102
}
330
1C0B
100
AcDbXrecord
280
     1
  1
10,10
  0
XRECORD
  5
21CC
102
{ACAD_REACTORS
330
21CB
102
}
330
21CB
100
AcDbXrecord
280
     1
  1
3
  0
LAYER_INDEX
  5
75AC
102
{ACAD_REACTORS
330
75AB
102
}
330
75AB
100
AcDbIndex
 40
2455610.70198838
100
AcDbLayerIndex
  8
0
360
7BF8
 90
        0
  8
AM_5
360
7BF9
 90
       11
  8
DEFPOINTS
360
7BFA
 90
        0
  8
AM_0
360
7BFB
 90
      494
  8
AM_6
360
7BFC
 90
        1
  8
AM_1
360
7BFD
 90
        2
  0
DICTIONARY
  5
8484
330
75FD
100
AcDbDictionary
280
     1
281
     1
  3
ACAD_XREC_ROUNDTRIP
360
8485
  0
DICTIONARY
  5
8486
330
75FE
100
AcDbDictionary
280
     1
281
     1
  3
ACAD_XREC_ROUNDTRIP
360
8487
  0
IDBUFFER
  5
7BF8
330
0
100
AcDbIdBuffer
  0
IDBUFFER
  5
7BF9
330
0
100
AcDbIdBuffer
330
7016
330
704B
330
7114
330
7153
330
71D4
330
71D7
330
72DA
330
8372
330
8374
330
83D1
330
8424
  0
IDBUFFER
  5
7BFA
330
0
100
AcDbIdBuffer
  0
IDBUFFER
  5
7BFB
330
0
100
AcDbIdBuffer
330
820D
330
820E
330
820F
330
8210
330
8211
330
8213
330
8215
330
8216
330
8218
330
821A
330
821E
330
821F
330
8220
330
8221
330
8222
330
8225
330
8227
330
8228
330
822A
330
822C
330
822D
330
822E
330
8230
330
8231
330
8232
330
8233
330
8234
330
8235
330
8236
330
8237
330
8238
330
823B
330
823D
330
823E
330
8241
330
8242
330
8244
330
8247
330
8248
330
8249
330
824A
330
824B
330
824C
330
824D
330
824E
330
8250
330
8252
330
8253
330
8254
330
8255
330
8256
330
8259
330
825A
330
825D
330
825E
330
825F
330
8260
330
8261
330
8262
330
8264
330
8265
330
8266
330
8268
330
826A
330
826B
330
826C
330
826E
330
8270
330
8271
330
8274
330
8275
330
8279
330
827C
330
827F
330
8280
330
8281
330
8283
330
8285
330
8287
330
828A
330
828B
330
828C
330
828D
330
828E
330
828F
330
8290
330
8291
330
8292
330
8294
330
8295
330
8296
330
8297
330
8298
330
8299
330
829A
330
829B
330
829D
330
829E
330
82A0
330
82A1
330
82A2
330
82A3
330
82A4
330
82A6
330
82A7
330
82A9
330
82AD
330
82AE
330
82AF
330
82B0
330
82B2
330
82B3
330
82B6
330
82B8
330
82BA
330
82BF
330
82C3
330
82C4
330
82C5
330
82C6
330
832D
330
832E
330
832F
330
8331
330
8332
330
834A
330
834B
330
834E
330
834F
330
8353
330
8367
330
7012
330
7013
330
7014
330
7015
330
7017
330
7018
330
701D
330
701F
330
7020
330
7021
330
7026
330
7027
330
7028
330
7029
330
702A
330
702B
330
702C
330
702D
330
702E
330
704C
330
704D
330
704E
330
704F
330
7052
330
7053
330
7054
330
7055
330
7057
330
7058
330
705A
330
705B
330
705D
330
705F
330
7060
330
7063
330
7064
330
7065
330
7066
330
7068
330
706A
330
706B
330
708D
330
70A6
330
70A9
330
70B0
330
70B1
330
70B2
330
70B5
330
70B6
330
70C2
330
70D6
330
70DB
330
70DD
330
70E1
330
70E4
330
70E6
330
70EA
330
70EB
330
70ED
330
70EE
330
70EF
330
70F0
330
70F8
330
70FA
330
70FB
330
70FD
330
70FF
330
7100
330
7103
330
7106
330
7108
330
7109
330
710B
330
710E
330
7118
330
711B
330
711C
330
711D
330
711E
330
711F
330
7121
330
7126
330
7127
330
712D
330
712E
330
712F
330
7130
330
7177
330
717C
330
717D
330
7182
330
7183
330
7187
330
7188
330
7189
330
718B
330
718C
330
7197
330
719A
330
719B
330
71A1
330
71CE
330
71D0
330
71D5
330
71D6
330
7F7D
330
7F7F
330
7F85
330
7F87
330
7F8C
330
7F8D
330
7F92
330
7F94
330
7F95
330
7FA8
330
7FA9
330
7FAB
330
7FAC
330
7FAD
330
7FAE
330
7FBF
330
7FC5
330
7FCE
330
7FCF
330
7FD0
330
7FD2
330
7FD7
330
7FD8
330
7FD9
330
7FDE
330
7FE0
330
7FE4
330
7FEF
330
7FF5
330
7FF7
330
7FFA
330
7FFC
330
7FFD
330
7FFF
330
8000
330
8001
330
8002
330
8007
330
800C
330
800E
330
8011
330
8018
330
8023
330
8025
330
8026
330
8029
330
802E
330
802F
330
8032
330
8034
330
8035
330
8036
330
8037
330
803A
330
803C
330
803D
330
8044
330
804D
330
8050
330
8051
330
8053
330
8054
330
805D
330
805E
330
8065
330
806B
330
806E
330
8070
330
8072
330
8079
330
807A
330
807B
330
807C
330
8080
330
8083
330
8085
330
8087
330
808C
330
808F
330
809B
330
809F
330
80A0
330
80A2
330
80A3
330
80A7
330
80A8
330
80B0
330
80B3
330
80B5
330
80B9
330
80BC
330
80BD
330
80BF
330
80C2
330
80C3
330
80C6
330
80C8
330
80CB
330
80CF
330
80D3
330
80D7
330
80D9
330
80DA
330
80DC
330
80DF
330
80E0
330
80E1
330
80E6
330
80E7
330
80EA
330
80EB
330
80F1
330
80F6
330
80FE
330
80FF
330
8106
330
8107
330
8108
330
8109
330
810A
330
8112
330
8114
330
8115
330
8116
330
8117
330
8119
330
811B
330
811C
330
811D
330
811E
330
8120
330
8121
330
8122
330
8125
330
8129
330
812A
330
812D
330
812E
330
8131
330
8132
330
8134
330
8135
330
8136
330
8137
330
8138
330
8139
330
813A
330
813B
330
813F
330
8141
330
8142
330
8143
330
8147
330
8149
330
814B
330
8150
330
8151
330
8152
330
8153
330
8154
330
8155
330
8158
330
8159
330
815A
330
815B
330
8162
330
8163
330
8167
330
8169
330
816A
330
816B
330
816C
330
816D
330
816F
330
8171
330
8172
330
8174
330
8177
330
8179
330
817D
330
817E
330
817F
330
8180
330
8181
330
8182
330
8185
330
818C
330
8191
330
8192
330
8196
330
8198
330
8199
330
819B
330
819C
330
819D
330
819F
330
81A0
330
81A1
330
81A2
330
81A4
330
81A5
330
81A6
330
81A7
330
81A8
330
81B1
330
81B2
330
81B3
330
81B4
330
81B5
330
81B7
330
81B8
330
81B9
330
81BA
330
81BB
330
81BE
330
81C2
330
81C3
330
81C4
330
81C5
330
81C6
330
81C7
330
81C8
330
81CB
330
81CF
330
81D0
330
81D1
330
81D5
330
81D6
330
81D8
330
81D9
330
81DA
330
81DB
330
81DD
330
81DF
330
81E1
330
81E2
330
81E3
330
81E4
330
81E7
330
81EA
330
81EB
330
81EF
330
81F0
330
81F2
330
81F3
330
81F4
330
81F8
330
81F9
330
81FA
330
81FB
330
81FE
330
81FF
330
8202
330
8203
330
8204
330
8206
330
8208
330
8209
  0
IDBUFFER
  5
7BFC
330
0
100
AcDbIdBuffer
330
7495
  0
IDBUFFER
  5
7BFD
330
0
100
AcDbIdBuffer
330
73FE
330
73FF
  0
XRECORD
  5
8485
102
{ACAD_REACTORS
330
8484
102
}
330
8484
100
AcDbXrecord
280
     1
102
SHADEPLOT
 70
     0
102
SHADEPLOTRESLEVEL
 70
     2
102
SHADEPLOTCUSTOMDPI
 70
   300
  0
XRECORD
  5
8487
102
{ACAD_REACTORS
330
8486
102
}
330
8486
100
AcDbXrecord
280
     1
102
SHADEPLOT
 70
     0
102
SHADEPLOTRESLEVEL
 70
     2
102
SHADEPLOTCUSTOMDPI
 70
   300
  0
ENDSEC
  0
EOF
