  0
SECTION
  2
HEADER
  9
$ACADVER
  1
AC1015
  9
$ACADMAINTVER
 70
    20
  9
$DWGCODEPAGE
  3
ANSI_932
  9
$INSBASE
 10
0.0
 20
0.0
 30
0.0
  9
$EXTMIN
 10
-91.09552326066477
 20
-101.8464190007308
 30
-0.0000000000022887
  9
$EXTMAX
 10
165.5047932205068
 20
32.00928620839397
 30
0.0000000000000001
  9
$LIMMIN
 10
-213.3024795535801
 20
-90.95588373145028
  9
$LIMMAX
 10
143.3961809310303
 20
133.343975728676
  9
$ORTHOMODE
 70
     1
  9
$REGENMODE
 70
     1
  9
$FILLMODE
 70
     1
  9
$QTEXTMODE
 70
     0
  9
$MIRRTEXT
 70
     1
  9
$LTSCALE
 40
1.0
  9
$ATTMODE
 70
     1
  9
$TEXTSIZE
 40
2.5
  9
$TRACEWID
 40
1.0
  9
$TEXTSTYLE
  7
STANDARD
  9
$CLAYER
  8
AM_5
  9
$CELTYPE
  6
BYLAYER
  9
$CECOLOR
 62
   256
  9
$CELTSCALE
 40
1.0
  9
$DISPSILH
 70
     0
  9
$DIMSCALE
 40
1.0
  9
$DIMASZ
 40
2.5
  9
$DIMEXO
 40
0.0
  9
$DIMDLI
 40
10.0
  9
$DIMRND
 40
0.0
  9
$DIMDLE
 40
0.0
  9
$DIMEXE
 40
1.0
  9
$DIMTP
 40
0.1
  9
$DIMTM
 40
0.1000000001
  9
$DIMTXT
 40
3.799999999999998
  9
$DIMCEN
 40
0.0
  9
$DIMTSZ
 40
0.0
  9
$DIMTOL
 70
     0
  9
$DIMLIM
 70
     0
  9
$DIMTIH
 70
     0
  9
$DIMTOH
 70
     0
  9
$DIMSE1
 70
     0
  9
$DIMSE2
 70
     0
  9
$DIMTAD
 70
     3
  9
$DIMZIN
 70
     9
  9
$DIMBLK
  1
OPEN30
  9
$DIMASO
 70
     1
  9
$DIMSHO
 70
     1
  9
$DIMPOST
  1

  9
$DIMAPOST
  1
"
  9
$DIMALT
 70
     0
  9
$DIMALTD
 70
     2
  9
$DIMALTF
 40
0.0393701
  9
$DIMLFAC
 40
1.0
  9
$DIMTOFL
 70
     1
  9
$DIMTVP
 40
0.0
  9
$DIMTIX
 70
     0
  9
$DIMSOXD
 70
     0
  9
$DIMSAH
 70
     0
  9
$DIMBLK1
  1

  9
$DIMBLK2
  1

  9
$DIMSTYLE
  2
AM_JIS
  9
$DIMCLRD
 70
   256
  9
$DIMCLRE
 70
   256
  9
$DIMCLRT
 70
     2
  9
$DIMTFAC
 40
0.71
  9
$DIMGAP
 40
1.5
  9
$DIMJUST
 70
     0
  9
$DIMSD1
 70
     0
  9
$DIMSD2
 70
     0
  9
$DIMTOLJ
 70
     0
  9
$DIMTZIN
 70
     8
  9
$DIMALTZ
 70
     0
  9
$DIMALTTZ
 70
     0
  9
$DIMUPT
 70
     0
  9
$DIMDEC
 70
     2
  9
$DIMTDEC
 70
     2
  9
$DIMALTU
 70
     2
  9
$DIMALTTD
 70
     2
  9
$DIMTXSTY
  7
STANDARD
  9
$DIMAUNIT
 70
     1
  9
$DIMADEC
 70
     0
  9
$DIMALTRND
 40
0.0
  9
$DIMAZIN
 70
     2
  9
$DIMDSEP
 70
    46
  9
$DIMATFIT
 70
     3
  9
$DIMFRAC
 70
     0
  9
$DIMLDRBLK
  1
OPEN30
  9
$DIMLUNIT
 70
     2
  9
$DIMLWD
 70
    -1
  9
$DIMLWE
 70
    -1
  9
$DIMTMOVE
 70
     0
  9
$LUNITS
 70
     2
  9
$LUPREC
 70
     2
  9
$SKETCHINC
 40
1.0
  9
$FILLETRAD
 40
0.0
  9
$AUNITS
 70
     1
  9
$AUPREC
 70
     5
  9
$MENU
  1
.
  9
$ELEVATION
 40
0.0
  9
$PELEVATION
 40
0.0
  9
$THICKNESS
 40
0.0
  9
$LIMCHECK
 70
     0
  9
$CHAMFERA
 40
0.5
  9
$CHAMFERB
 40
0.5
  9
$CHAMFERC
 40
20.0
  9
$CHAMFERD
 40
0.0
  9
$SKPOLY
 70
     0
  9
$TDCREATE
 40
2451943.610431666
  9
$TDUCREATE
 40
2451943.235431667
  9
$TDUPDATE
 40
2455610.665905671
  9
$TDUUPDATE
 40
2455610.290905671
  9
$TDINDWG
 40
0.3813750579
  9
$TDUSRTIMER
 40
0.3813747106
  9
$USRTIMER
 70
     1
  9
$ANGBASE
 50
0.0
  9
$ANGDIR
 70
     0
  9
$PDMODE
 70
     0
  9
$PDSIZE
 40
0.0
  9
$PLINEWID
 40
0.0
  9
$SPLFRAME
 70
     0
  9
$SPLINETYPE
 70
     6
  9
$SPLINESEGS
 70
     8
  9
$HANDSEED
  5
7772
  9
$SURFTAB1
 70
     6
  9
$SURFTAB2
 70
     6
  9
$SURFTYPE
 70
     6
  9
$SURFU
 70
     6
  9
$SURFV
 70
     6
  9
$UCSBASE
  2

  9
$UCSNAME
  2

  9
$UCSORG
 10
0.0
 20
0.0
 30
0.0
  9
$UCSXDIR
 10
1.0
 20
0.0
 30
0.0
  9
$UCSYDIR
 10
0.0
 20
1.0
 30
0.0
  9
$UCSORTHOREF
  2

  9
$UCSORTHOVIEW
 70
     0
  9
$UCSORGTOP
 10
0.0
 20
0.0
 30
0.0
  9
$UCSORGBOTTOM
 10
0.0
 20
0.0
 30
0.0
  9
$UCSORGLEFT
 10
0.0
 20
0.0
 30
0.0
  9
$UCSORGRIGHT
 10
0.0
 20
0.0
 30
0.0
  9
$UCSORGFRONT
 10
0.0
 20
0.0
 30
0.0
  9
$UCSORGBACK
 10
0.0
 20
0.0
 30
0.0
  9
$PUCSBASE
  2

  9
$PUCSNAME
  2

  9
$PUCSORG
 10
0.0
 20
0.0
 30
0.0
  9
$PUCSXDIR
 10
1.0
 20
0.0
 30
0.0
  9
$PUCSYDIR
 10
0.0
 20
1.0
 30
0.0
  9
$PUCSORTHOREF
  2

  9
$PUCSORTHOVIEW
 70
     0
  9
$PUCSORGTOP
 10
0.0
 20
0.0
 30
0.0
  9
$PUCSORGBOTTOM
 10
0.0
 20
0.0
 30
0.0
  9
$PUCSORGLEFT
 10
0.0
 20
0.0
 30
0.0
  9
$PUCSORGRIGHT
 10
0.0
 20
0.0
 30
0.0
  9
$PUCSORGFRONT
 10
0.0
 20
0.0
 30
0.0
  9
$PUCSORGBACK
 10
0.0
 20
0.0
 30
0.0
  9
$USERI1
 70
     0
  9
$USERI2
 70
     0
  9
$USERI3
 70
     0
  9
$USERI4
 70
     0
  9
$USERI5
 70
     0
  9
$USERR1
 40
0.0
  9
$USERR2
 40
0.0
  9
$USERR3
 40
0.0
  9
$USERR4
 40
0.0
  9
$USERR5
 40
0.0
  9
$WORLDVIEW
 70
     1
  9
$SHADEDGE
 70
     3
  9
$SHADEDIF
 70
    70
  9
$TILEMODE
 70
     1
  9
$MAXACTVP
 70
    64
  9
$PINSBASE
 10
0.0
 20
0.0
 30
0.0
  9
$PLIMCHECK
 70
     0
  9
$PEXTMIN
 10
1.000000000000000E+20
 20
1.000000000000000E+20
 30
1.000000000000000E+20
  9
$PEXTMAX
 10
-1.000000000000000E+20
 20
-1.000000000000000E+20
 30
-1.000000000000000E+20
  9
$PLIMMIN
 10
0.0
 20
0.0
  9
$PLIMMAX
 10
420.0
 20
297.0
  9
$UNITMODE
 70
     0
  9
$VISRETAIN
 70
     1
  9
$PLINEGEN
 70
     0
  9
$PSLTSCALE
 70
     1
  9
$TREEDEPTH
 70
  3020
  9
$CMLSTYLE
  2
STANDARD
  9
$CMLJUST
 70
     0
  9
$CMLSCALE
 40
20.0
  9
$PROXYGRAPHICS
 70
     1
  9
$MEASUREMENT
 70
     1
  9
$CELWEIGHT
370
    -1
  9
$ENDCAPS
280
     0
  9
$JOINSTYLE
280
     0
  9
$LWDISPLAY
290
     0
  9
$INSUNITS
 70
     4
  9
$HYPERLINKBASE
  1

  9
$STYLESHEET
  1
sei_cad.ctb
  9
$XEDIT
290
     1
  9
$CEPSNTYPE
380
     0
  9
$PSTYLEMODE
290
     1
  9
$FINGERPRINTGUID
  2
{C77AB3BE-9CA2-11D3-BAF3-006094EB760E}
  9
$VERSIONGUID
  2
{243748FC-0992-449F-BB1F-ECB60EEA693B}
  9
$EXTNAMES
290
     1
  9
$PSVPSCALE
 40
0.0
  9
$OLESTARTUP
290
     0
  0
ENDSEC
  0
SECTION
  2
CLASSES
  0
CLASS
  1
ACDBDICTIONARYWDFLT
  2
AcDbDictionaryWithDefault
  3
ObjectDBX Classes
 90
        0
280
     0
281
     0
  0
CLASS
  1
ACDBPLACEHOLDER
  2
AcDbPlaceHolder
  3
ObjectDBX Classes
 90
        0
280
     0
281
     0
  0
CLASS
  1
LAYOUT
  2
AcDbLayout
  3
ObjectDBX Classes
 90
        0
280
     0
281
     0
  0
CLASS
  1
ACME_DOCUMENT
  2
AcMeDbDoc
  3
AcMeServices
 90
        0
280
     0
281
     0
  0
CLASS
  1
ACMESCOPE
  2
AcMeScope
  3
AcMeServices
 90
        0
280
     0
281
     0
  0
CLASS
  1
ACMECOMMANDHISTORY
  2
AcMeCommandHistory
  3
AcMeServices
 90
        0
280
     0
281
     0
  0
CLASS
  1
DICTIONARYVAR
  2
AcDbDictionaryVar
  3
ObjectDBX Classes
 90
        0
280
     0
281
     0
  0
CLASS
  1
ACIMSYSVARMAN
  2
AcImSysVarManager
  3
AcMeServices
 90
        0
280
     0
281
     0
  0
CLASS
  1
ACIMREALSYSVAR
  2
AcImRealSysVar
  3
AcMeServices
 90
        0
280
     0
281
     0
  0
CLASS
  1
ACIMINTSYSVAR
  2
AcImIntSysVar
  3
AcMeServices
 90
        0
280
     0
281
     0
  0
CLASS
  1
ACMEDRAWINGMAN
  2
AcMeDrawingMan
  3
AcMeServices
 90
        0
280
     0
281
     0
  0
CLASS
  1
ACMEVIEW
  2
AcMeView
  3
AcMeServices
 90
        0
280
     0
281
     0
  0
CLASS
  1
ACDBENTITYCACHE
  2
AcMeEntityCache
  3
AcMeServices
 90
        0
280
     0
281
     0
  0
CLASS
  1
GSMANAGER
  2
AcMeGSManager
  3
AcMeServices
 90
        0
280
     0
281
     0
  0
CLASS
  1
AMDTINTERNALREACTOR
  2
AmdtInternalReactor
  3
AcMeServices
 90
        0
280
     0
281
     0
  0
CLASS
  1
ACMESTATEMGR
  2
AcMeStateMgr
  3
AcMeServices
 90
        0
280
     0
281
     0
  0
CLASS
  1
ACME_DATABASE
  2
AcMeDbDatabase
  3
AcMeServices
 90
        0
280
     0
281
     0
  0
CLASS
  1
ACRFINSADJUSTERMGR
  2
AcRfInsAdjusterMgr
  3
AcMeServices
 90
        0
280
     0
281
     0
  0
CLASS
  1
AMGSETTINGSOBJ
  2
AmgSettingsObj
  3
"AcadM|Product Description: AutoCAD Mechanical 2000|Company: Autodesk"
 90
        0
280
     0
281
     0
  0
CLASS
  1
AMGOBJPROPCFG
  2
AmgObjPropCfg
  3
"AmgLay|Product Description: AutoCAD Mechanical 2000|Company: Autodesk"
 90
        1
280
     0
281
     0
  0
CLASS
  1
ACMDATADICTIONARY
  2
AcmDataDictionary
  3
"AcmSymBB|Product Description: AutoCAD Mechanical 2004 DX|Company: Autodesk"
 90
        0
280
     0
281
     0
  0
CLASS
  1
ACMDATAENTRYBLOCK
  2
AcmDataEntryBlock
  3
"AcmSymBB|Product Description: AutoCAD Mechanical 2004 DX|Company: Autodesk"
 90
    32768
280
     0
281
     0
  0
CLASS
  1
ACIMSTRSYSVAR
  2
AcImStrSysVar
  3
AcMeServices
 90
        0
280
     0
281
     0
  0
CLASS
  1
ACAMGFILTERDAT
  2
AcAmgFilterDat
  3
"AcadM|Product Description: AutoCAD Mechanical 2000|Company: Autodesk"
 90
    32768
280
     0
281
     0
  0
CLASS
  1
LAYER_INDEX
  2
AcDbLayerIndex
  3
ObjectDBX Classes
 90
        0
280
     0
281
     0
  0
CLASS
  1
IDBUFFER
  2
AcDbIdBuffer
  3
ObjectDBX Classes
 90
        0
280
     0
281
     0
  0
CLASS
  1
ACMSTANDARDJIS
  2
AcmStandardJIS
  3
"Amdt_StdImp|Product Description: AutoCAD Mechanical 2004 DX|Company: Autodesk"
 90
    32768
280
     0
281
     0
  0
CLASS
  1
ACMSURFSTANDARDJIS
  2
AcmSurfTextStdJIS
  3
"Amdt_StdImp|Product Description: AutoCAD Mechanical 2004 DX|Company: Autodesk"
 90
    32768
280
     0
281
     0
  0
CLASS
  1
ACMFCFSTANDARDJIS
  2
AcmFCFStdJIS
  3
"Amdt_StdImp|Product Description: AutoCAD Mechanical 2004 DX|Company: Autodesk"
 90
    32768
280
     0
281
     0
  0
CLASS
  1
ACMWELDSTANDARDJIS
  2
AcmWeldingStdJIS
  3
"Amdt_StdImp|Product Description: AutoCAD Mechanical 2004 DX|Company: Autodesk"
 90
    32768
280
     0
281
     0
  0
CLASS
  1
ACMIDSTANDARDJIS
  2
AcmIdStdJIS
  3
"Amdt_StdImp|Product Description: AutoCAD Mechanical 2004 DX|Company: Autodesk"
 90
    32768
280
     0
281
     0
  0
CLASS
  1
ACMDATUMSTANDARDJIS
  2
AcmDatumStdJIS
  3
"Amdt_StdImp|Product Description: AutoCAD Mechanical 2004 DX|Company: Autodesk"
 90
    32768
280
     0
281
     0
  0
CLASS
  1
ACMBOMSTANDARDJIS
  2
AcmBOMStdJIS
  3
"Amdt_StdImp|Product Description: AutoCAD Mechanical 2004 DX|Company: Autodesk"
 90
    32768
280
     0
281
     0
  0
CLASS
  1
AMDTNOTE
  2
AmdtNote
  3
"AcmSymBB|Product Description: AutoCAD Mechanical 2004 DX|Company: Autodesk"
 90
    33791
280
     0
281
     1
  0
CLASS
  1
ACMDATAENTRYPART
  2
AcmDataEntryPart
  3
"AcmSymBB|Product Description: AutoCAD Mechanical 2004 DX|Company: Autodesk"
 90
    32768
280
     0
281
     0
  0
CLASS
  1
ACMPARTREF
  2
AcmPartRef
  3
"AcmSymBB|Product Description: AutoCAD Mechanical 2004 DX|Company: Autodesk"
 90
    33791
280
     0
281
     1
  0
CLASS
  1
ACDB_PROXY_ENTITY_DATA
  2
AcDbProxyEntityData
  3
ObjectDBX Classes
 90
    32768
280
     0
281
     0
  0
CLASS
  1
TABLESTYLE
  2
AcDbTableStyle
  3
ObjectDBX Classes
 90
     2047
280
     0
281
     0
  0
CLASS
  1
ACGREFMASTER
  2
AcGrefMaster
  3
AcAttribServices
 90
        0
280
     0
281
     0
  0
CLASS
  1
AM_DRAWING_MGR
  2
AcDmDwgMgr
  3
AcMechDwgViewMgmt
 90
        0
280
     0
281
     0
  0
CLASS
  1
AM_DWG_DOCUMENT
  2
AcDmDwgDocument
  3
AcMechDwgViewMgmt
 90
        0
280
     0
281
     0
  0
CLASS
  1
AM_DWG_SHEET
  2
AcDmSheet
  3
AcMechDwgViewMgmt
 90
        0
280
     0
281
     0
  0
CLASS
  1
AM_VIEWDIMPARMAP
  2
AcDmViewDimParMap
  3
AcMechDwgViewMgmt
 90
        0
280
     0
281
     0
  0
CLASS
  1
AM_DWGMGR_NAME
  2
AcDmDwgMgrName
  3
AcMechDwgViewMgmt
 90
        0
280
     0
281
     0
  0
CLASS
  1
ACGREFACADMASTER
  2
AcGrefacadMaster
  3
AcGrefServices
 90
        0
280
     0
281
     0
  0
CLASS
  1
AMDTMENUSTATEMGR
  2
AmdtMenuStateMgr
  3
McadcomServices
 90
        0
280
     0
281
     0
  0
CLASS
  1
AMDTMCOMMENUSTATE
  2
AmdtMcomMenuState
  3
McadcomServices
 90
        0
280
     0
281
     0
  0
CLASS
  1
AMIMASTER
  2
AmiMaster
  3
AmiServices
 90
        0
280
     0
281
     0
  0
CLASS
  1
MAPIAMMOUDLE
  2
MApiAmModule
  3
MApiAmServices
 90
        0
280
     0
281
     0
  0
CLASS
  1
AMDTADMENUSTATE
  2
AmdtAdMenuState
  3
DesignerServices
 90
        0
280
     0
281
     0
  0
CLASS
  1
ADAPPL
  2
AcAdAppl
  3
DesignerServices
 90
        0
280
     0
281
     0
  0
CLASS
  1
DEPMGR
  2
AcAdDepMgr
  3
DesignerServices
 90
        0
280
     0
281
     0
  0
CLASS
  1
PARAMMGR
  2
AcAdParamMgr
  3
DesignerServices
 90
        0
280
     0
281
     0
  0
CLASS
  1
PARAMSCOPE
  2
AcAdParamScope
  3
DesignerServices
 90
        0
280
     0
281
     0
  0
CLASS
  1
NAMEDAPPL
  2
AcAdNamedAppl
  3
DesignerServices
 90
        0
280
     0
281
     0
  0
CLASS
  1
AMDTDMMENUSTATE
  2
AmdtDmMenuState
  3
AcMechDwgViewMgmt
 90
        0
280
     0
281
     0
  0
CLASS
  1
AMDTAMMENUSTATE
  2
AmdtAmMenuState
  3
DesignerAssemblies
 90
        0
280
     0
281
     0
  0
CLASS
  1
ACAMPROJECT
  2
AcAmProject
  3
DesignerAssemblies
 90
        0
280
     0
281
     0
  0
CLASS
  1
ACAMGRCOMPDEF
  2
AcAmGrCompDef
  3
DesignerAssemblies
 90
        0
280
     0
281
     0
  0
CLASS
  1
ACCMCONTEXT
  2
AcCmContext
  3
DesignerAssemblies
 90
        0
280
     0
281
     0
  0
CLASS
  1
ACAMCOMPDEF
  2
AcAmCompDef
  3
DesignerAssemblies
 90
        0
280
     0
281
     0
  0
CLASS
  1
ACAMCOMPDEFMGR
  2
AcAmCompDefMgr
  3
DesignerAssemblies
 90
        0
280
     0
281
     0
  0
CLASS
  1
AMCONTEXTMGR
  2
AcAmContextMgr
  3
DesignerAssemblies
 90
        0
280
     0
281
     0
  0
CLASS
  1
ACAMCONTEXTMODELER
  2
AcAmContextModeler
  3
DesignerAssemblies
 90
        0
280
     0
281
     0
  0
CLASS
  1
CATALOGSTATE
  2
AcAmCatalogState
  3
DesignerAssemblies
 90
        0
280
     0
281
     0
  0
CLASS
  1
ACAMGRCOMPDEFSET
  2
AcAmGrCompDefSet
  3
DesignerAssemblies
 90
        0
280
     0
281
     0
  0
CLASS
  1
AMDTBROWSERDBTAB
  2
AmdtBrowserDbTab
  3
McadcomServices
 90
        0
280
     0
281
     0
  0
CLASS
  1
CBROWSERAPPOBJECT
  2
CBrowserAppObject
  3
McadcomServices
 90
        0
280
     0
281
     0
  0
CLASS
  1
DM_PLACEHOLDER
  2
AcDmSelsetPlaceholder
  3
AcMechDwgViewMgmt
 90
        0
280
     0
281
     0
  0
CLASS
  1
ACMSTANDARDISO
  2
AcmStandardISO
  3
"Amdt_StdImp|Product Description: AutoCAD Mechanical 2004 DX|Company: Autodesk"
 90
        0
280
     0
281
     0
  0
CLASS
  1
AMDTEDGESTANDARDISO13715
  2
AmdtEdgeStdISO13715
  3
"Amdt_StdImp|Product Description: AutoCAD Mechanical 2004 DX|Company: Autodesk"
 90
        0
280
     0
281
     0
  0
CLASS
  1
ACMSURFSTANDARDISO
  2
AcmSurfTextStdISO
  3
"Amdt_StdImp|Product Description: AutoCAD Mechanical 2004 DX|Company: Autodesk"
 90
        0
280
     0
281
     0
  0
CLASS
  1
ACMFCFSTANDARDISO
  2
AcmFCFStdISO
  3
"Amdt_StdImp|Product Description: AutoCAD Mechanical 2004 DX|Company: Autodesk"
 90
        0
280
     0
281
     0
  0
CLASS
  1
ACMWELDSTANDARDISO
  2
AcmWeldingStdISO
  3
"Amdt_StdImp|Product Description: AutoCAD Mechanical 2004 DX|Company: Autodesk"
 90
        0
280
     0
281
     0
  0
CLASS
  1
ACMIDSTANDARDISO
  2
AcmIdStdISO
  3
"Amdt_StdImp|Product Description: AutoCAD Mechanical 2004 DX|Company: Autodesk"
 90
        0
280
     0
281
     0
  0
CLASS
  1
ACMDATUMSTANDARDISO
  2
AcmDatumStdISO
  3
"Amdt_StdImp|Product Description: AutoCAD Mechanical 2004 DX|Company: Autodesk"
 90
        0
280
     0
281
     0
  0
CLASS
  1
ACMBOMSTANDARDISO
  2
AcmBOMStdISO
  3
"Amdt_StdImp|Product Description: AutoCAD Mechanical 2004 DX|Company: Autodesk"
 90
        0
280
     0
281
     0
  0
CLASS
  1
ACMDETAILSTANDARDISO
  2
AmdtDetailSymStdISO
  3
"Amdt_StdImp|Product Description: AutoCAD Mechanical 2004 DX|Company: Autodesk"
 90
        0
280
     0
281
     0
  0
CLASS
  1
ACMSECTIONSTANDARDISO
  2
AmdtSectionSymStdISO
  3
"Amdt_StdImp|Product Description: AutoCAD Mechanical 2004 DX|Company: Autodesk"
 90
        0
280
     0
281
     0
  0
CLASS
  1
ACMCENTERLINESTANDARDISO
  2
AmdtCenterLineStdISO
  3
"Amdt_StdImp|Product Description: AutoCAD Mechanical 2004 DX|Company: Autodesk"
 90
        0
280
     0
281
     0
  0
CLASS
  1
ACMTHREADLINESTANDARDISO
  2
AmdtThreadLineStdISO
  3
"Amdt_StdImp|Product Description: AutoCAD Mechanical 2004 DX|Company: Autodesk"
 90
        0
280
     0
281
     0
  0
CLASS
  1
ACMNOTESTANDARDISO
  2
AmdtNoteStdISO
  3
"Amdt_StdImp|Product Description: AutoCAD Mechanical 2004 DX|Company: Autodesk"
 90
        0
280
     0
281
     0
  0
CLASS
  1
AMDTNOTETEMPLATEDB
  2
AmdtNoteTemplateDB
  3
AMDT_STDIMP_MODULE_NAME
 90
        0
280
     0
281
     0
  0
CLASS
  1
ACAMGLAYSTD
  2
AcAmgLayStd
  3
"AcAmgLayStd|Product Description: AutoCAD Mechanical 2000|Company: Autodesk"
 90
        0
280
     0
281
     0
  0
CLASS
  1
ACAMGDIMSTD
  2
AcAmgDimStd
  3
"AcAmgDimStd|Product Description: AutoCAD Mechanical 2000|Company: Autodesk"
 90
        0
280
     0
281
     0
  0
CLASS
  1
ACAMGHOLECHARTSTDISO
  2
AcAmgHoleChartStdISO
  3
ACMSYMBB_MODULE_NAME
 90
        0
280
     0
281
     0
  0
CLASS
  1
ACAMGTITLESTD
  2
AcAmgTitleStd
  3
"TITLEAPP"
 90
        0
280
     0
281
     0
  0
CLASS
  1
SORTENTSTABLE
  2
AcDbSortentsTable
  3
ObjectDBX Classes
 90
        0
280
     0
281
     0
  0
ENDSEC
  0
SECTION
  2
TABLES
  0
TABLE
  2
VPORT
  5
8
330
0
100
AcDbSymbolTable
 70
    53
  0
VPORT
  5
776B
330
8
100
AcDbSymbolTableRecord
100
AcDbViewportTableRecord
  2
*Active
 70
     0
 10
0.0
 20
0.0
 11
1.0
 21
1.0
 12
37.20463497992102
 22
-34.91856639616842
 13
0.0
 23
0.0
 14
2.5
 24
2.5
 15
10.0
 25
10.0
 16
0.0
 26
0.0
 36
1.0
 17
0.0
 27
0.0
 37
0.0
 40
134.8460063574044
 41
2.259259259259259
 42
50.0
 43
0.0
 44
0.0
 50
0.0
 51
0.0
 71
     0
 72
  2000
 73
     1
 74
     3
 75
     0
 76
     0
 77
     0
 78
     0
281
     0
 65
     0
110
0.0
120
0.0
130
0.0
111
1.0
121
0.0
131
0.0
112
0.0
122
1.0
132
0.0
 79
     0
146
0.0
  0
ENDTAB
  0
TABLE
  2
LTYPE
  5
5
330
0
100
AcDbSymbolTable
 70
    16
  0
LTYPE
  5
14
330
5
100
AcDbSymbolTableRecord
100
AcDbLinetypeTableRecord
  2
BYBLOCK
 70
     0
  3

 72
    65
 73
     0
 40
0.0
  0
LTYPE
  5
15
330
5
100
AcDbSymbolTableRecord
100
AcDbLinetypeTableRecord
  2
BYLAYER
 70
     0
  3

 72
    65
 73
     0
 40
0.0
  0
LTYPE
  5
16
330
5
100
AcDbSymbolTableRecord
100
AcDbLinetypeTableRecord
  2
CONTINUOUS
 70
     0
  3
Solid line
 72
    65
 73
     0
 40
0.0
  0
LTYPE
  5
43
330
5
100
AcDbSymbolTableRecord
100
AcDbLinetypeTableRecord
  2
AM_ISO02W050
 70
     0
  3
__ __ __ __ __ __ __ __ __ __ __ __ __ __ __
 72
    65
 73
     2
 40
7.5
 49
6.0
 74
     0
 49
-1.5
 74
     0
  0
LTYPE
  5
44
330
5
100
AcDbSymbolTableRecord
100
AcDbLinetypeTableRecord
  2
AM_ISO08W050
 70
     0
  3
____ . ____ . ____ . ____ . ____ . ____ . ____
 72
    65
 73
     4
 40
18.0
 49
12.0
 74
     0
 49
-1.5
 74
     0
 49
3.0
 74
     0
 49
-1.5
 74
     0
  0
LTYPE
  5
45
330
5
100
AcDbSymbolTableRecord
100
AcDbLinetypeTableRecord
  2
AM_ISO09W050
 70
     0
  3
_____ . . _____ . . _____ . . ____ .. ____
 72
    65
 73
     6
 40
22.5
 49
12.0
 74
     0
 49
-1.5
 74
     0
 49
3.0
 74
     0
 49
-1.5
 74
     0
 49
3.0
 74
     0
 49
-1.5
 74
     0
  0
LTYPE
  5
46
330
5
100
AcDbSymbolTableRecord
100
AcDbLinetypeTableRecord
  2
AMCONSTR
 70
     0
  3
_______________________
 72
    65
 73
     2
 40
9999.0
 49
9999.0
 74
     0
 49
0.0
 74
     0
  0
LTYPE
  5
47
330
5
100
AcDbSymbolTableRecord
100
AcDbLinetypeTableRecord
  2
AM_ISO02W050X2
 70
     0
  3
 _ _ _ _ _ _ _ _ _ _ _ _
 72
    65
 73
     2
 40
3.75
 49
3.0
 74
     0
 49
-0.75
 74
     0
  0
LTYPE
  5
48
330
5
100
AcDbSymbolTableRecord
100
AcDbLinetypeTableRecord
  2
AM_ISO08W050X2
 70
     0
  3
__ . __ . __ . __ . __ . __
 72
    65
 73
     4
 40
9.0
 49
6.0
 74
     0
 49
-0.75
 74
     0
 49
1.5
 74
     0
 49
-0.75
 74
     0
  0
LTYPE
  5
4B
330
5
100
AcDbSymbolTableRecord
100
AcDbLinetypeTableRecord
  2
AMZIGZAG
 70
     0
  3
/\/-/\/-/\/-/\/-/\/-/\/
 72
    65
 73
     2
 40
11.00009999999999
 49
0.0001
 74
     4
 75
   135
340
4A
 46
0.04
 50
0.0
 44
0.0
 45
0.0
 49
-11.0
 74
     0
  0
LTYPE
  5
757B
330
5
100
AcDbSymbolTableRecord
100
AcDbLinetypeTableRecord
  2
HIDDEN
 70
     0
  3
Hidden __ __ __ __ __ __ __ __ __ __ __ __ __ _
 72
    65
 73
     2
 40
9.524999999999998
 49
6.349999999999999
 74
     0
 49
-3.174999999999999
 74
     0
  0
LTYPE
  5
757C
330
5
100
AcDbSymbolTableRecord
100
AcDbLinetypeTableRecord
  2
PHANTOM2
 70
     0
  3
Phantom (.5x) ___ _ _ ___ _ _ ___ _ _ ___ _ _
 72
    65
 73
     6
 40
31.75
 49
15.875
 74
     0
 49
-3.174999999999999
 74
     0
 49
3.174999999999999
 74
     0
 49
-3.174999999999999
 74
     0
 49
3.174999999999999
 74
     0
 49
-3.174999999999999
 74
     0
  0
LTYPE
  5
757D
330
5
100
AcDbSymbolTableRecord
100
AcDbLinetypeTableRecord
  2
CENTER
 70
     0
  3
Center ____ _ ____ _ ____ _ ____ _ ____ _ ____
 72
    65
 73
     4
 40
50.8
 49
31.75
 74
     0
 49
-6.349999999999999
 74
     0
 49
6.349999999999999
 74
     0
 49
-6.349999999999999
 74
     0
  0
LTYPE
  5
75BD
330
5
100
AcDbSymbolTableRecord
100
AcDbLinetypeTableRecord
  2
ACISOWELD
 70
     0
  3
_ _ _ _ _
 72
    65
 73
     2
 40
2.0
 49
2.0
 74
     0
 49
-1.0
 74
     0
  0
LTYPE
  5
75BE
330
5
100
AcDbSymbolTableRecord
100
AcDbLinetypeTableRecord
  2
ACISOTGB
 70
     0
  3
__ . . __ . .
 72
    65
 73
     6
 40
9.0
 49
4.0
 74
     0
 49
-1.0
 74
     0
 49
1.0
 74
     0
 49
-1.0
 74
     0
 49
1.0
 74
     0
 49
-1.0
 74
     0
  0
LTYPE
  5
75BF
330
5
100
AcDbSymbolTableRecord
100
AcDbLinetypeTableRecord
  2
ACISOTGL
 70
     0
  3
_ _ _ _ _
 72
    65
 73
     2
 40
3.0
 49
2.0
 74
     0
 49
-1.0
 74
     0
  0
ENDTAB
  0
TABLE
  2
LAYER
  5
2
330
0
100
AcDbSymbolTable
 70
     7
  0
LAYER
  5
10
330
2
100
AcDbSymbolTableRecord
100
AcDbLayerTableRecord
  2
0
 70
     0
 62
     7
  6
CONTINUOUS
370
    -3
390
F
  0
LAYER
  5
7D
330
2
100
AcDbSymbolTableRecord
100
AcDbLayerTableRecord
  2
AM_5
 70
     0
 62
     3
  6
CONTINUOUS
370
    -3
390
F
  0
LAYER
  5
7F
330
2
100
AcDbSymbolTableRecord
100
AcDbLayerTableRecord
  2
DEFPOINTS
 70
     0
 62
     7
  6
CONTINUOUS
290
     0
370
    -3
390
F
  0
LAYER
  5
12B1
330
2
100
AcDbSymbolTableRecord
100
AcDbLayerTableRecord
  2
AM_0
 70
     0
 62
     7
  6
CONTINUOUS
370
    -3
390
F
  0
LAYER
  5
2222
330
2
100
AcDbSymbolTableRecord
100
AcDbLayerTableRecord
  2
AM_6
 70
     0
 62
     2
  6
CONTINUOUS
370
    -3
390
F
  0
LAYER
  5
4379
330
2
100
AcDbSymbolTableRecord
100
AcDbLayerTableRecord
  2
AM_1
 70
     0
 62
     3
  6
CONTINUOUS
370
    -3
390
F
  0
ENDTAB
  0
TABLE
  2
STYLE
  5
3
330
0
100
AcDbSymbolTable
 70
     6
  0
STYLE
  5
11
330
3
100
AcDbSymbolTableRecord
100
AcDbTextStyleTableRecord
  2
STANDARD
 70
     0
 40
0.0
 41
1.0
 50
0.0
 71
     0
 42
2.5
  3
ISOCP.SHX
  4
EXTFONT.SHX
  0
STYLE
  5
4A
330
3
100
AcDbSymbolTableRecord
100
AcDbTextStyleTableRecord
  2

 70
     1
 40
0.0
 41
1.0
 50
0.0
 71
     0
 42
2.5
  3
ltypeshp.shx
  4

  0
STYLE
  5
75AF
330
3
100
AcDbSymbolTableRecord
100
AcDbTextStyleTableRecord
  2
ACISOTS
 70
     0
 40
1.0
 41
1.0
 50
0.0
 71
     0
 42
2.5
  3
isocp.shx
  4
extfont.shx
  0
STYLE
  5
75BC
330
3
100
AcDbSymbolTableRecord
100
AcDbTextStyleTableRecord
  2
ACISOGDT
 70
     0
 40
0.0
 41
1.0
 50
0.0
 71
     0
 42
2.5
  3
amgdt.shx
  4

  0
ENDTAB
  0
TABLE
  2
VIEW
  5
6
330
0
100
AcDbSymbolTable
 70
     6
  0
VIEW
  5
A30
330
6
100
AcDbSymbolTableRecord
100
AcDbViewTableRecord
  2
AM_VIEW1
 70
     0
 40
148.5
 10
112.0719649561952
 20
222.75
 41
224.1439299123904
 11
0.0
 21
0.0
 31
1.0
 12
0.0
 22
0.0
 32
0.0
 42
50.0
 43
0.0
 44
0.0
 50
0.0
 71
     0
281
     0
 72
     0
  0
VIEW
  5
A31
330
6
100
AcDbSymbolTableRecord
100
AcDbViewTableRecord
  2
AM_VIEW2
 70
     0
 40
148.5
 10
307.9280350438047
 20
222.75
 41
224.1439299123904
 11
0.0
 21
0.0
 31
1.0
 12
0.0
 22
0.0
 32
0.0
 42
50.0
 43
0.0
 44
0.0
 50
0.0
 71
     0
281
     0
 72
     0
  0
VIEW
  5
A32
330
6
100
AcDbSymbolTableRecord
100
AcDbViewTableRecord
  2
AM_VIEW3
 70
     0
 40
148.5
 10
112.0719649561952
 20
74.25
 41
224.1439299123904
 11
0.0
 21
0.0
 31
1.0
 12
0.0
 22
0.0
 32
0.0
 42
50.0
 43
0.0
 44
0.0
 50
0.0
 71
     0
281
     0
 72
     0
  0
VIEW
  5
A33
330
6
100
AcDbSymbolTableRecord
100
AcDbViewTableRecord
  2
AM_VIEW4
 70
     0
 40
148.5
 10
307.9280350438047
 20
74.25
 41
224.1439299123904
 11
0.0
 21
0.0
 31
1.0
 12
0.0
 22
0.0
 32
0.0
 42
50.0
 43
0.0
 44
0.0
 50
0.0
 71
     0
281
     0
 72
     0
  0
VIEW
  5
A34
330
6
100
AcDbSymbolTableRecord
100
AcDbViewTableRecord
  2
AM_VIEW5
 70
     0
 40
148.5
 10
210.0
 20
148.5
 41
224.1439299123904
 11
0.0
 21
0.0
 31
1.0
 12
0.0
 22
0.0
 32
0.0
 42
50.0
 43
0.0
 44
0.0
 50
0.0
 71
     0
281
     0
 72
     0
  0
VIEW
  5
A35
330
6
100
AcDbSymbolTableRecord
100
AcDbViewTableRecord
  2
AM_VIEW6
 70
     0
 40
296.9970299999999
 10
210.0
 20
148.5
 41
448.2833769461826
 11
0.0
 21
0.0
 31
1.0
 12
0.0
 22
0.0
 32
0.0
 42
50.0
 43
0.0
 44
0.0
 50
0.0
 71
     0
281
     0
 72
     0
  0
ENDTAB
  0
TABLE
  2
UCS
  5
7
330
0
100
AcDbSymbolTable
 70
     0
  0
ENDTAB
  0
TABLE
  2
APPID
  5
9
330
0
100
AcDbSymbolTable
 70
    42
  0
APPID
  5
12
330
9
100
AcDbSymbolTableRecord
100
AcDbRegAppTableRecord
  2
ACAD
 70
     0
  0
APPID
  5
2C
330
9
100
AcDbSymbolTableRecord
100
AcDbRegAppTableRecord
  2
MCAD_NO_VIS
 70
     0
  0
APPID
  5
2D
330
9
100
AcDbSymbolTableRecord
100
AcDbRegAppTableRecord
  2
ACAD_TEMP_GRAPHIC
 70
     0
  0
APPID
  5
B9
330
9
100
AcDbSymbolTableRecord
100
AcDbRegAppTableRecord
  2
GENIUS_GENDTOL_13
 70
     0
  0
APPID
  5
359
330
9
100
AcDbSymbolTableRecord
100
AcDbRegAppTableRecord
  2
GENIUS_GENREC_14
 70
     0
  0
APPID
  5
35A
330
9
100
AcDbSymbolTableRecord
100
AcDbRegAppTableRecord
  2
GENIUS_GENODEF_13
 70
     0
  0
APPID
  5
35B
330
9
100
AcDbSymbolTableRecord
100
AcDbRegAppTableRecord
  2
GENIUS_GENOBJ-N-REC_13
 70
     0
  0
APPID
  5
667
330
9
100
AcDbSymbolTableRecord
100
AcDbRegAppTableRecord
  2
GENIUS_GENCFG_13
 70
     0
  0
APPID
  5
668
330
9
100
AcDbSymbolTableRecord
100
AcDbRegAppTableRecord
  2
GENIUS_GENCFG0_13
 70
     0
  0
APPID
  5
669
330
9
100
AcDbSymbolTableRecord
100
AcDbRegAppTableRecord
  2
GENIUS_GENCFG1_13
 70
     0
  0
APPID
  5
66A
330
9
100
AcDbSymbolTableRecord
100
AcDbRegAppTableRecord
  2
GENIUS_GENCFG2_13
 70
     0
  0
APPID
  5
66B
330
9
100
AcDbSymbolTableRecord
100
AcDbRegAppTableRecord
  2
GENIUS_GENCFG3_13
 70
     0
  0
APPID
  5
66C
330
9
100
AcDbSymbolTableRecord
100
AcDbRegAppTableRecord
  2
GENIUS_GENCFG4_13
 70
     0
  0
APPID
  5
A76
330
9
100
AcDbSymbolTableRecord
100
AcDbRegAppTableRecord
  2
GENIUS_GENBLLY_14
 70
     0
  0
APPID
  5
A77
330
9
100
AcDbSymbolTableRecord
100
AcDbRegAppTableRecord
  2
GENIUS_GENOBJ-N-CEN_13
 70
     0
  0
APPID
  5
A83
330
9
100
AcDbSymbolTableRecord
100
AcDbRegAppTableRecord
  2
GENIUS_GENTRA_14
 70
     0
  0
APPID
  5
A8D
330
9
100
AcDbSymbolTableRecord
100
AcDbRegAppTableRecord
  2
GENIUS_GENOBJ-N-TIT_13
 70
     0
  0
APPID
  5
A8E
330
9
100
AcDbSymbolTableRecord
100
AcDbRegAppTableRecord
  2
GENIUS_GENTITLE_13
 70
     0
  0
APPID
  5
A8F
330
9
100
AcDbSymbolTableRecord
100
AcDbRegAppTableRecord
  2
GENIUS_GENOENT_13
 70
     0
  0
APPID
  5
A90
330
9
100
AcDbSymbolTableRecord
100
AcDbRegAppTableRecord
  2
GENIUS_GENOREF_13
 70
     0
  0
APPID
  5
A91
330
9
100
AcDbSymbolTableRecord
100
AcDbRegAppTableRecord
  2
GENIUS_GENOLIS_13
 70
     0
  0
APPID
  5
A92
330
9
100
AcDbSymbolTableRecord
100
AcDbRegAppTableRecord
  2
GENIUS_GENZVEED_13
 70
     0
  0
APPID
  5
A93
330
9
100
AcDbSymbolTableRecord
100
AcDbRegAppTableRecord
  2
GENIUS_GENSCREG_15
 70
     0
  0
APPID
  5
A94
330
9
100
AcDbSymbolTableRecord
100
AcDbRegAppTableRecord
  2
GENIUS_GENOBJ-N-SDF_13
 70
     0
  0
APPID
  5
12B5
330
9
100
AcDbSymbolTableRecord
100
AcDbRegAppTableRecord
  2
GENIUS_GENOBJ-N-RSBK_13
 70
     0
  0
APPID
  5
12B6
330
9
100
AcDbSymbolTableRecord
100
AcDbRegAppTableRecord
  2
GENIUS_GENOBJ-N-LIB_13
 70
     0
  0
APPID
  5
12B7
330
9
100
AcDbSymbolTableRecord
100
AcDbRegAppTableRecord
  2
GENIUS_GENSCALE_13
 70
     0
  0
APPID
  5
12B8
330
9
100
AcDbSymbolTableRecord
100
AcDbRegAppTableRecord
  2
GENIUS_GENOBJ-N-HTC_13
 70
     0
  0
APPID
  5
12B9
330
9
100
AcDbSymbolTableRecord
100
AcDbRegAppTableRecord
  2
GENIUS_GENHATCH_13
 70
     0
  0
APPID
  5
1C0A
330
9
100
AcDbSymbolTableRecord
100
AcDbRegAppTableRecord
  2
BASE_TYPE
 70
     0
  0
APPID
  5
276B
330
9
100
AcDbSymbolTableRecord
100
AcDbRegAppTableRecord
  2
GENIUS_GENOBJ-N-FIL_13
 70
     0
  0
APPID
  5
3640
330
9
100
AcDbSymbolTableRecord
100
AcDbRegAppTableRecord
  2
GENIUS_GENBH_13
 70
     0
  0
APPID
  5
36D1
330
9
100
AcDbSymbolTableRecord
100
AcDbRegAppTableRecord
  2
GENIUS_GENOBJ-F-SPR_13
 70
     0
  0
APPID
  5
36DA
330
9
100
AcDbSymbolTableRecord
100
AcDbRegAppTableRecord
  2
GENIUS_GEFSPRING_13
 70
     0
  0
APPID
  5
36DB
330
9
100
AcDbSymbolTableRecord
100
AcDbRegAppTableRecord
  2
GENIUS_GEFSPRINGP_13
 70
     0
  0
APPID
  5
4D67
330
9
100
AcDbSymbolTableRecord
100
AcDbRegAppTableRecord
  2
GENIUS_GENFIL_13
 70
     0
  0
APPID
  5
4D68
330
9
100
AcDbSymbolTableRecord
100
AcDbRegAppTableRecord
  2
GENIUS_GENOBJ-N-CHA_13
 70
     0
  0
APPID
  5
757F
330
9
100
AcDbSymbolTableRecord
100
AcDbRegAppTableRecord
  2
AD_DRAW
 70
     0
  0
APPID
  5
7582
330
9
100
AcDbSymbolTableRecord
100
AcDbRegAppTableRecord
  2
ACATTRIBSERVICES
 70
     0
  0
APPID
  5
75A0
330
9
100
AcDbSymbolTableRecord
100
AcDbRegAppTableRecord
  2
DESIGNERASSEMBLIES
 70
     0
  0
APPID
  5
75A5
330
9
100
AcDbSymbolTableRecord
100
AcDbRegAppTableRecord
  2
ACADM_DIM_EDIT
 70
     0
  0
APPID
  5
75A6
330
9
100
AcDbSymbolTableRecord
100
AcDbRegAppTableRecord
  2
AMDT_DM_ADJ
 70
     0
  0
ENDTAB
  0
TABLE
  2
DIMSTYLE
  5
A
330
0
100
AcDbSymbolTable
 70
    17
100
AcDbDimStyleTable
 71
     1
340
58
  0
DIMSTYLE
105
58
102
{ACAD_REACTORS
330
7016
330
704B
330
71D4
330
71D7
102
}
330
A
100
AcDbSymbolTableRecord
100
AcDbDimStyleTableRecord
  2
AM_JIS
 70
     0
  4
"
 41
2.5
 42
0.0
 43
10.0
 44
1.0
 47
0.1
 48
0.1000000001
 73
     0
 74
     0
 77
     3
 78
     9
140
3.799999999999998
141
0.0
143
0.0393701
146
0.71
147
1.5
172
     1
176
   256
177
   256
178
     2
271
     2
272
     2
275
     1
283
     0
284
     8
340
11
341
59
342
59
  0
DIMSTYLE
105
65F
330
A
100
AcDbSymbolTableRecord
100
AcDbDimStyleTableRecord
  2
STANDARD
 70
     0
340
11
  0
DIMSTYLE
105
1761
102
{ACAD_REACTORS
330
7114
330
72DA
102
}
330
A
100
AcDbSymbolTableRecord
100
AcDbDimStyleTableRecord
  2
AM_JIS$0
 70
     0
  4
"
 41
2.5
 42
0.0
 43
10.0
 44
1.0
 47
0.1
 48
0.1000000001
 73
     0
 74
     0
 77
     3
 78
     9
140
3.799999999999998
141
0.0
143
0.0393701
146
0.71
147
1.5
172
     1
176
     3
177
     3
178
     2
271
     2
272
     2
275
     1
283
     0
284
     8
340
11
341
59
342
59
  0
DIMSTYLE
105
1762
102
{ACAD_REACTORS
330
7153
330
7660
330
76D4
102
}
330
A
100
AcDbSymbolTableRecord
100
AcDbDimStyleTableRecord
  2
AM_JIS$2
 70
     0
  4
"
 41
2.5
 42
0.0
 43
10.0
 44
1.0
 47
0.1
 48
0.1000000001
 73
     0
 74
     0
 77
     3
 78
     9
140
3.799999999999998
141
0.0
143
0.0393701
146
0.71
147
1.5
172
     1
176
     3
177
     3
178
     2
271
     2
272
     2
275
     1
283
     0
284
     8
340
11
341
59
342
59
  0
DIMSTYLE
105
75C8
330
A
100
AcDbSymbolTableRecord
100
AcDbDimStyleTableRecord
  2
AM_ISO
 70
     0
  4
"
 41
2.5
 42
1.0
 43
10.0
 44
1.0
 47
0.1
 48
0.1
 73
     0
 74
     0
 77
     1
 78
     8
 79
     2
140
3.5
141
0.0
143
0.0393701
146
0.71
147
1.5
172
     1
176
   256
177
   256
178
     2
271
     2
272
     3
274
     4
283
     0
284
     8
340
11
371
    -1
372
    -1
  0
DIMSTYLE
105
75C9
330
A
100
AcDbSymbolTableRecord
100
AcDbDimStyleTableRecord
  2
AM_ISO$3
 70
     0
  4
"
 41
2.5
 42
1.0
 43
10.0
 44
1.0
 47
0.1
 48
0.1
 73
     0
 77
     1
 78
     8
 79
     2
140
3.5
141
0.0
143
0.0393701
146
0.71
147
1.5
176
   256
177
   256
178
     2
271
     2
272
     3
274
     4
283
     0
284
     8
288
     1
289
     0
340
11
371
    -1
372
    -1
  0
DIMSTYLE
105
75CA
330
A
100
AcDbSymbolTableRecord
100
AcDbDimStyleTableRecord
  2
AM_ISO$4
 70
     0
  4
"
 41
2.5
 42
1.0
 43
10.0
 44
1.0
 47
0.1
 48
0.1
 73
     0
 77
     1
 78
     8
 79
     2
140
3.5
141
0.0
143
0.0393701
146
0.71
147
1.5
176
   256
177
   256
178
     2
271
     2
272
     3
274
     4
283
     0
284
     8
288
     1
289
     0
340
11
371
    -1
372
    -1
  0
DIMSTYLE
105
75CB
330
A
100
AcDbSymbolTableRecord
100
AcDbDimStyleTableRecord
  2
AM_ISO$6
 70
     0
  4
"
 41
2.5
 42
1.0
 43
10.0
 44
1.0
 47
0.1
 48
0.1
 73
     0
 74
     0
 78
     8
 79
     2
140
3.5
141
0.0
143
0.0393701
146
0.71
147
1.5
172
     1
176
   256
177
   256
178
     2
271
     2
272
     3
274
     4
283
     0
284
     8
340
11
371
    -1
372
    -1
  0
DIMSTYLE
105
75CC
330
A
100
AcDbSymbolTableRecord
100
AcDbDimStyleTableRecord
  2
AM_ISO$7
 70
     0
  4
"
 41
2.5
 42
1.0
 43
10.0
 44
1.0
 47
0.1
 48
0.1
 73
     0
 74
     0
 77
     1
 78
     8
 79
     2
140
5.0
141
0.0
143
0.0393701
146
0.71
147
1.5
172
     1
176
   256
177
   256
178
     2
271
     2
272
     3
274
     4
283
     0
284
     8
340
11
371
    -1
372
    -1
  0
DIMSTYLE
105
75CD
330
A
100
AcDbSymbolTableRecord
100
AcDbDimStyleTableRecord
  2
AM_ISO$SF
 70
     0
  4
"
 41
2.5
 42
1.0
 43
10.0
 44
1.0
 47
0.1
 48
0.1
 73
     0
 74
     0
 75
     1
 76
     1
 77
     1
 78
     8
 79
     2
140
3.5
141
0.0
143
0.0393701
146
0.71
147
1.5
172
     1
176
   256
177
   256
178
     2
271
     2
272
     3
274
     4
283
     0
284
     8
340
11
371
    -1
372
    -1
  0
DIMSTYLE
105
75CE
330
A
100
AcDbSymbolTableRecord
100
AcDbDimStyleTableRecord
  2
AM_ISO$SH
 70
     0
  4
"
 41
2.5
 42
1.0
 43
10.0
 44
1.0
 47
0.1
 48
0.1
 73
     0
 74
     0
 75
     1
 76
     1
 77
     1
 78
     8
 79
     2
140
3.5
141
0.0
143
0.0393701
144
2.0
146
0.71
147
1.5
172
     1
173
     1
176
   256
177
   256
178
     2
271
     2
272
     3
274
     4
283
     0
284
     8
340
11
343
64
371
    -1
372
    -1
  0
ENDTAB
  0
TABLE
  2
BLOCK_RECORD
  5
1
330
0
100
AcDbSymbolTable
 70
    14
  0
BLOCK_RECORD
  5
1F
102
{ACAD_XDICTIONARY
360
165
102
}
330
1
100
AcDbSymbolTableRecord
100
AcDbBlockTableRecord
  2
*MODEL_SPACE
340
7547
  0
BLOCK_RECORD
  5
1B
102
{ACAD_XDICTIONARY
360
751F
102
}
330
1
100
AcDbSymbolTableRecord
100
AcDbBlockTableRecord
  2
*PAPER_SPACE
340
7548
  0
BLOCK_RECORD
  5
59
330
1
100
AcDbSymbolTableRecord
100
AcDbBlockTableRecord
  2
_OPEN30
340
0
102
{BLKREFS
331
75FA
331
75FB
331
7603
331
7604
331
760C
331
760D
331
7615
331
7616
331
7620
331
7621
331
7629
331
762A
331
7632
331
7633
331
7743
331
7744
331
7760
331
7761
102
}
  0
BLOCK_RECORD
  5
64
330
1
100
AcDbSymbolTableRecord
100
AcDbBlockTableRecord
  2
GENAXEH
340
0
  0
BLOCK_RECORD
  5
71D8
330
1
100
AcDbSymbolTableRecord
100
AcDbBlockTableRecord
  2
*D2
340
0
  0
BLOCK_RECORD
  5
71E4
330
1
100
AcDbSymbolTableRecord
100
AcDbBlockTableRecord
  2
*D3
340
0
  0
BLOCK_RECORD
  5
71F0
330
1
100
AcDbSymbolTableRecord
100
AcDbBlockTableRecord
  2
*D4
340
0
  0
BLOCK_RECORD
  5
71FC
330
1
100
AcDbSymbolTableRecord
100
AcDbBlockTableRecord
  2
*D5
340
0
  0
BLOCK_RECORD
  5
7208
330
1
100
AcDbSymbolTableRecord
100
AcDbBlockTableRecord
  2
*D6
340
0
  0
BLOCK_RECORD
  5
7220
330
1
100
AcDbSymbolTableRecord
100
AcDbBlockTableRecord
  2
*D7
340
0
  0
BLOCK_RECORD
  5
72DB
330
1
100
AcDbSymbolTableRecord
100
AcDbBlockTableRecord
  2
*D8
340
0
  0
BLOCK_RECORD
  5
7661
330
1
100
AcDbSymbolTableRecord
100
AcDbBlockTableRecord
  2
*D12
340
0
  0
BLOCK_RECORD
  5
76D5
330
1
100
AcDbSymbolTableRecord
100
AcDbBlockTableRecord
  2
*D13
340
0
  0
ENDTAB
  0
ENDSEC
  0
SECTION
  2
BLOCKS
  0
BLOCK
  5
20
330
1F
100
AcDbEntity
  8
0
100
AcDbBlockBegin
  2
*MODEL_SPACE
 70
     0
 10
0.0
 20
0.0
 30
0.0
  3
*MODEL_SPACE
  1

  0
ENDBLK
  5
21
330
1F
100
AcDbEntity
  8
0
100
AcDbBlockEnd
  0
BLOCK
  5
1C
330
1B
100
AcDbEntity
 67
     1
  8
0
100
AcDbBlockBegin
  2
*PAPER_SPACE
 70
     0
 10
0.0
 20
0.0
 30
0.0
  3
*PAPER_SPACE
  1

  0
ENDBLK
  5
1D
330
1B
100
AcDbEntity
 67
     1
  8
0
100
AcDbBlockEnd
  0
BLOCK
  5
5D
330
59
100
AcDbEntity
  8
0
100
AcDbBlockBegin
  2
_OPEN30
 70
     0
 10
0.0
 20
0.0
 30
0.0
  3
_OPEN30
  1

  0
LINE
  5
5A
330
59
100
AcDbEntity
  8
0
 62
     0
100
AcDbLine
 10
-1.0
 20
0.26794919
 30
0.0
 11
0.0
 21
0.0
 31
0.0
  0
LINE
  5
5B
330
59
100
AcDbEntity
  8
0
 62
     0
100
AcDbLine
 10
0.0
 20
0.0
 30
0.0
 11
-1.0
 21
-0.26794919
 31
0.0
  0
LINE
  5
5C
330
59
100
AcDbEntity
  8
0
 62
     0
100
AcDbLine
 10
0.0
 20
0.0
 30
0.0
 11
-1.0
 21
0.0
 31
0.0
  0
ENDBLK
  5
5E
330
59
100
AcDbEntity
  8
0
100
AcDbBlockEnd
  0
BLOCK
  5
66
330
64
100
AcDbEntity
  8
0
100
AcDbBlockBegin
  2
GENAXEH
 70
     0
 10
0.0
 20
0.0
 30
0.0
  3
GENAXEH
  1

  0
LINE
  5
65
330
64
100
AcDbEntity
  8
0
100
AcDbLine
 10
-1.0
 20
0.0
 30
0.0
 11
1.0
 21
0.0
 31
0.0
  0
ENDBLK
  5
67
330
64
100
AcDbEntity
  8
0
100
AcDbBlockEnd
  0
BLOCK
  5
71E2
330
71D8
100
AcDbEntity
  8
0
100
AcDbBlockBegin
  2
*D2
 70
     1
 10
0.0
 20
0.0
 30
0.0
  3
*D2
  1

  0
LINE
  5
7626
330
71D8
100
AcDbEntity
  8
AM_5
370
    -2
100
AcDbLine
 10
150.0064029664723
 20
32.00000032216679
 30
0.0
 11
165.4780730589431
 21
32.00000032216679
 31
0.0
  0
LINE
  5
7627
330
71D8
100
AcDbEntity
  8
AM_5
370
    -2
100
AcDbLine
 10
150.0064029664723
 20
7.000000322166821
 30
0.0
 11
165.4780730589431
 21
7.000000322166817
 31
0.0
  0
LINE
  5
7628
330
71D8
100
AcDbEntity
  8
AM_5
370
    -2
100
AcDbLine
 10
164.4780730589431
 20
29.50000032216679
 30
0.0
 11
164.4780730589431
 21
9.500000322166817
 31
0.0
  0
INSERT
  5
7629
330
71D8
100
AcDbEntity
  8
AM_5
370
    -2
100
AcDbBlockReference
  2
_OPEN30
 10
164.4780730589431
 20
32.00000032216679
 30
0.0
 41
2.5
 42
2.5
 43
2.5
 50
90.0
  0
INSERT
  5
762A
330
71D8
100
AcDbEntity
  8
AM_5
370
    -2
100
AcDbBlockReference
  2
_OPEN30
 10
164.4780730589431
 20
7.000000322166817
 30
0.0
 41
2.5
 42
2.5
 43
2.5
 50
270.0
  0
MTEXT
  5
762B
330
71D8
100
AcDbEntity
  8
AM_5
 62
     2
100
AcDbMText
 10
161.077699043195
 20
19.50000032216683
 30
0.0
 40
3.799999999999998
 41
0.0
 71
     5
 72
     1
  1
25
 11
0.0000000000000001
 21
1.0
 31
0.0
 73
     1
 44
1.0
1001
ACAD
1000
MTEXTBEGIN
1070
    73
1070
     1
1070
    44
1040
1.0
1070
    74
1070
     0
1000
MTEXTEND
  0
POINT
  5
762C
330
71D8
100
AcDbEntity
  8
DEFPOINTS
 62
     0
100
AcDbPoint
 10
150.0064029664723
 20
32.00000032216679
 30
0.0
  0
POINT
  5
762D
330
71D8
100
AcDbEntity
  8
DEFPOINTS
 62
     0
100
AcDbPoint
 10
150.0064029664723
 20
7.000000322166821
 30
0.0
  0
POINT
  5
762E
330
71D8
100
AcDbEntity
  8
DEFPOINTS
 62
     0
100
AcDbPoint
 10
164.4780730589431
 20
7.000000322166817
 30
0.0
  0
ENDBLK
  5
71E3
330
71D8
100
AcDbEntity
  8
0
100
AcDbBlockEnd
  0
BLOCK
  5
71EE
330
71E4
100
AcDbEntity
  8
0
100
AcDbBlockBegin
  2
*D3
 70
     1
 10
0.0
 20
0.0
 30
0.0
  3
*D3
  1

  0
LINE
  5
761D
330
71E4
100
AcDbEntity
  8
AM_5
370
    -2
100
AcDbLine
 10
150.0064029664723
 20
-65.63030443245039
 30
0.0
 11
165.2738773056935
 21
-65.6303044324504
 31
0.0
  0
LINE
  5
761E
330
71E4
100
AcDbEntity
  8
AM_5
370
    -2
100
AcDbLine
 10
150.0064029664723
 20
-90.63030443245038
 30
0.0
 11
165.2738773056935
 21
-90.6303044324504
 31
0.0
  0
LINE
  5
761F
330
71E4
100
AcDbEntity
  8
AM_5
370
    -2
100
AcDbLine
 10
164.2738773056935
 20
-68.1303044324504
 30
0.0
 11
164.2738773056935
 21
-88.1303044324504
 31
0.0
  0
INSERT
  5
7620
330
71E4
100
AcDbEntity
  8
AM_5
370
    -2
100
AcDbBlockReference
  2
_OPEN30
 10
164.2738773056935
 20
-65.6303044324504
 30
0.0
 41
2.5
 42
2.5
 43
2.5
 50
90.0
  0
INSERT
  5
7621
330
71E4
100
AcDbEntity
  8
AM_5
370
    -2
100
AcDbBlockReference
  2
_OPEN30
 10
164.2738773056935
 20
-90.6303044324504
 30
0.0
 41
2.5
 42
2.5
 43
2.5
 50
270.0
  0
MTEXT
  5
7622
330
71E4
100
AcDbEntity
  8
AM_5
 62
     2
100
AcDbMText
 10
160.8735032899455
 20
-78.13030443245037
 30
0.0
 40
3.799999999999998
 41
0.0
 71
     5
 72
     1
  1
25
 11
0.0000000000000001
 21
1.0
 31
0.0
 73
     1
 44
1.0
1001
ACAD
1000
MTEXTBEGIN
1070
    73
1070
     1
1070
    44
1040
1.0
1070
    74
1070
     0
1000
MTEXTEND
  0
POINT
  5
7623
330
71E4
100
AcDbEntity
  8
DEFPOINTS
 62
     0
100
AcDbPoint
 10
150.0064029664723
 20
-65.63030443245039
 30
0.0
  0
POINT
  5
7624
330
71E4
100
AcDbEntity
  8
DEFPOINTS
 62
     0
100
AcDbPoint
 10
150.0064029664723
 20
-90.63030443245038
 30
0.0
  0
POINT
  5
7625
330
71E4
100
AcDbEntity
  8
DEFPOINTS
 62
     0
100
AcDbPoint
 10
164.2738773056935
 20
-90.6303044324504
 30
0.0
  0
ENDBLK
  5
71EF
330
71E4
100
AcDbEntity
  8
0
100
AcDbBlockEnd
  0
BLOCK
  5
71FA
330
71F0
100
AcDbEntity
  8
0
100
AcDbBlockBegin
  2
*D4
 70
     1
 10
0.0
 20
0.0
 30
0.0
  3
*D4
  1

  0
LINE
  5
7600
330
71F0
100
AcDbEntity
  8
AM_5
370
    -2
100
AcDbLine
 10
1.134315805274115
 20
-90.63030443245038
 30
0.0
 11
-16.47983701508908
 21
-90.63030443245038
 31
0.0
  0
LINE
  5
7601
330
71F0
100
AcDbEntity
  8
AM_5
370
    -2
100
AcDbLine
 10
0.3671471805332577
 20
-65.63030449985888
 30
0.0
 11
-16.47983701508907
 21
-65.63030449985888
 31
0.0
  0
LINE
  5
7602
330
71F0
100
AcDbEntity
  8
AM_5
370
    -2
100
AcDbLine
 10
-15.47983701508907
 20
-88.13030443245038
 30
0.0
 11
-15.47983701508907
 21
-68.13030449985888
 31
0.0
  0
INSERT
  5
7603
330
71F0
100
AcDbEntity
  8
AM_5
370
    -2
100
AcDbBlockReference
  2
_OPEN30
 10
-15.47983701508907
 20
-90.63030443245038
 30
0.0
 41
2.5
 42
2.5
 43
2.5
 50
270.0
  0
INSERT
  5
7604
330
71F0
100
AcDbEntity
  8
AM_5
370
    -2
100
AcDbBlockReference
  2
_OPEN30
 10
-15.47983701508907
 20
-65.63030449985888
 30
0.0
 41
2.5
 42
2.5
 43
2.5
 50
90.0
  0
MTEXT
  5
7605
330
71F0
100
AcDbEntity
  8
AM_5
 62
     2
100
AcDbMText
 10
-18.88021103083709
 20
-78.13030446615463
 30
0.0
 40
3.799999999999998
 41
0.0
 71
     5
 72
     1
  1
25
 11
0.0000000000000001
 21
1.0
 31
0.0
 73
     1
 44
1.0
1001
ACAD
1000
MTEXTBEGIN
1070
    73
1070
     1
1070
    44
1040
1.0
1070
    74
1070
     0
1000
MTEXTEND
  0
POINT
  5
7606
330
71F0
100
AcDbEntity
  8
DEFPOINTS
 62
     0
100
AcDbPoint
 10
1.134315805274115
 20
-90.63030443245038
 30
0.0
  0
POINT
  5
7607
330
71F0
100
AcDbEntity
  8
DEFPOINTS
 62
     0
100
AcDbPoint
 10
0.3671471805332577
 20
-65.63030449985888
 30
0.0
  0
POINT
  5
7608
330
71F0
100
AcDbEntity
  8
DEFPOINTS
 62
     0
100
AcDbPoint
 10
-15.47983701508907
 20
-65.63030449985888
 30
0.0
  0
ENDBLK
  5
71FB
330
71F0
100
AcDbEntity
  8
0
100
AcDbBlockEnd
  0
BLOCK
  5
7206
330
71FC
100
AcDbEntity
  8
0
100
AcDbBlockBegin
  2
*D5
 70
     1
 10
0.0
 20
0.0
 30
0.0
  3
*D5
  1

  0
LINE
  5
75F7
330
71FC
100
AcDbEntity
  8
AM_5
370
    -2
100
AcDbLine
 10
0.0000000000000001
 20
0.8631570119175078
 30
0.0
 11
-0.0000000000000022
 21
-37.34006668225378
 31
0.0
  0
LINE
  5
75F8
330
71FC
100
AcDbEntity
  8
AM_5
370
    -2
100
AcDbLine
 10
149.9999999664724
 20
6.998196322166799
 30
0.0
 11
149.9999999664724
 21
-37.34006668225378
 31
0.0
  0
LINE
  5
75F9
330
71FC
100
AcDbEntity
  8
AM_5
370
    -2
100
AcDbLine
 10
2.499999999999997
 20
-36.34006668225378
 30
0.0
 11
147.4999999664724
 21
-36.34006668225378
 31
0.0
  0
INSERT
  5
75FA
330
71FC
100
AcDbEntity
  8
AM_5
370
    -2
100
AcDbBlockReference
  2
_OPEN30
 10
-0.0000000000000022
 20
-36.34006668225378
 30
0.0
 41
2.5
 42
2.5
 43
2.5
 50
180.0
  0
INSERT
  5
75FB
330
71FC
100
AcDbEntity
  8
AM_5
370
    -2
100
AcDbBlockReference
  2
_OPEN30
 10
149.9999999664724
 20
-36.34006668225378
 30
0.0
 41
2.5
 42
2.5
 43
2.5
  0
MTEXT
  5
75FC
330
71FC
100
AcDbEntity
  8
AM_5
 62
     2
100
AcDbMText
 10
74.9999999832362
 20
-32.94006668225378
 30
0.0
 40
3.799999999999998
 41
0.0
 71
     5
 72
     1
  1
150
 73
     1
 44
1.0
1001
ACAD
1000
MTEXTBEGIN
1070
    73
1070
     1
1070
    44
1040
1.0
1070
    74
1070
     0
1000
MTEXTEND
  0
POINT
  5
75FD
330
71FC
100
AcDbEntity
  8
DEFPOINTS
 62
     0
100
AcDbPoint
 10
0.0000000000000001
 20
0.8631570119175078
 30
0.0
  0
POINT
  5
75FE
330
71FC
100
AcDbEntity
  8
DEFPOINTS
 62
     0
100
AcDbPoint
 10
149.9999999664724
 20
6.998196322166799
 30
0.0
  0
POINT
  5
75FF
330
71FC
100
AcDbEntity
  8
DEFPOINTS
 62
     0
100
AcDbPoint
 10
149.9999999664724
 20
-36.34006668225378
 30
0.0
  0
ENDBLK
  5
7207
330
71FC
100
AcDbEntity
  8
0
100
AcDbBlockEnd
  0
BLOCK
  5
7212
330
7208
100
AcDbEntity
  8
0
100
AcDbBlockBegin
  2
*D6
 70
     1
 10
0.0
 20
0.0
 30
0.0
  3
*D6
  1

  0
LINE
  5
7609
330
7208
100
AcDbEntity
  8
AM_5
 62
     3
370
    -2
100
AcDbLine
 10
0.7475473259099772
 20
-0.0000000000000001
 30
0.0
 11
-16.49102151202936
 21
0.0000000000000048
 31
0.0
  0
LINE
  5
760A
330
7208
100
AcDbEntity
  8
AM_5
 62
     3
370
    -2
100
AcDbLine
 10
14.56035317772
 20
32.00000032216684
 30
0.0
 11
-16.49102151202935
 21
32.00000032216685
 31
0.0
  0
LINE
  5
760B
330
7208
100
AcDbEntity
  8
AM_5
 62
     3
370
    -2
100
AcDbLine
 10
-15.49102151202936
 20
2.500000000000004
 30
0.0
 11
-15.49102151202935
 21
29.50000032216685
 31
0.0
  0
INSERT
  5
760C
330
7208
100
AcDbEntity
  8
AM_5
 62
     3
370
    -2
100
AcDbBlockReference
  2
_OPEN30
 10
-15.49102151202936
 20
0.0000000000000045
 30
0.0
 41
2.5
 42
2.5
 43
2.5
 50
270.0
  0
INSERT
  5
760D
330
7208
100
AcDbEntity
  8
AM_5
 62
     3
370
    -2
100
AcDbBlockReference
  2
_OPEN30
 10
-15.49102151202935
 20
32.00000032216684
 30
0.0
 41
2.5
 42
2.5
 43
2.5
 50
90.0
  0
MTEXT
  5
760E
330
7208
100
AcDbEntity
  8
AM_5
 62
     2
100
AcDbMText
 10
-18.89139552777739
 20
16.00000016108342
 30
0.0
 40
3.799999999999998
 41
0.0
 71
     5
 72
     1
  1
32
 11
0.0000000000000001
 21
1.0
 31
0.0
 73
     1
 44
1.0
1001
ACAD
1000
MTEXTBEGIN
1070
    73
1070
     1
1070
    44
1040
1.0
1070
    74
1070
     0
1000
MTEXTEND
  0
POINT
  5
760F
330
7208
100
AcDbEntity
  8
DEFPOINTS
 62
     0
100
AcDbPoint
 10
0.7475473259099772
 20
-0.0000000000000001
 30
0.0
  0
POINT
  5
7610
330
7208
100
AcDbEntity
  8
DEFPOINTS
 62
     0
100
AcDbPoint
 10
14.56035317772
 20
32.00000032216684
 30
0.0
  0
POINT
  5
7611
330
7208
100
AcDbEntity
  8
DEFPOINTS
 62
     0
100
AcDbPoint
 10
-15.49102151202935
 20
32.00000032216684
 30
0.0
  0
ENDBLK
  5
7213
330
7208
100
AcDbEntity
  8
0
100
AcDbBlockEnd
  0
BLOCK
  5
722C
330
7220
100
AcDbEntity
  8
0
100
AcDbBlockBegin
  2
*D7
 70
     1
 10
0.0
 20
0.0
 30
0.0
  3
*D7
  1

  0
LINE
  5
7612
330
7220
100
AcDbEntity
  8
AM_5
 62
     3
370
    -2
100
AcDbLine
 10
-0.0000000000000002
 20
-2.414925130565109
 30
0.0
 11
-0.0000000000000195
 21
-16.6747800112478
 31
0.0
  0
LINE
  5
7613
330
7220
100
AcDbEntity
  8
AM_5
 62
     3
370
    -2
100
AcDbLine
 10
12.02751318337317
 20
0.9771911847349485
 30
0.0
 11
16.53653327059376
 21
1.371679326249054
 31
0.0
  0
ARC
  5
7614
330
7220
100
AcDbEntity
  8
AM_5
 62
     3
370
    -2
100
AcDbCircle
 10
0.0000000000000029
 20
-0.0750798699433975
 30
0.0
 40
15.5997001413044
100
AcDbArc
 50
279.1920470787966
 51
355.8079529246289
  0
INSERT
  5
7615
330
7220
100
AcDbEntity
  8
AM_5
 62
     3
370
    -2
100
AcDbBlockReference
  2
_OPEN30
 10
-0.0000000000000195
 20
-15.6747800112478
 30
0.0
 41
2.5
 42
2.5
 43
2.5
 50
184.5960235393982
  0
INSERT
  5
7616
330
7220
100
AcDbEntity
  8
AM_5
 62
     3
370
    -2
100
AcDbBlockReference
  2
_OPEN30
 10
15.54033857250722
 20
1.284523583441839
 30
0.0
 41
2.5
 42
2.5
 43
2.5
 50
90.40397646402723
  0
MTEXT
  5
7617
330
7220
100
AcDbEntity
  8
AM_5
 62
     2
100
AcDbMText
 10
8.994562430309379
 20
-8.317077820987178
 30
0.0
 40
3.799999999999998
 41
0.0
 71
     5
 72
     1
  1
95°
 11
0.6755902075936201
 21
0.7372773368303204
 31
0.0
 73
     1
 44
1.0
1001
ACAD
1000
MTEXTBEGIN
1070
    73
1070
     1
1070
    44
1040
1.0
1070
    74
1070
     0
1000
MTEXTEND
  0
POINT
  5
7618
330
7220
100
AcDbEntity
  8
DEFPOINTS
 62
     0
100
AcDbPoint
 10
8.189477234691132
 20
-13.3522447450622
 30
0.0
  0
POINT
  5
7619
330
7220
100
AcDbEntity
  8
DEFPOINTS
 62
     0
100
AcDbPoint
 10
12.02751318337317
 20
0.9771911847349485
 30
0.0
  0
POINT
  5
761A
330
7220
100
AcDbEntity
  8
DEFPOINTS
 62
     0
100
AcDbPoint
 10
0.0
 20
0.0
 30
0.0
  0
POINT
  5
761B
330
7220
100
AcDbEntity
  8
DEFPOINTS
 62
     0
100
AcDbPoint
 10
-0.0000000000000002
 20
-2.414925130565109
 30
0.0
  0
POINT
  5
761C
330
7220
100
AcDbEntity
  8
DEFPOINTS
 62
     0
100
AcDbPoint
 10
0.8713301062376784
 20
0.0011516365937325
 30
0.0
  0
ENDBLK
  5
722D
330
7220
100
AcDbEntity
  8
0
100
AcDbBlockEnd
  0
BLOCK
  5
72E5
330
72DB
100
AcDbEntity
  8
0
100
AcDbBlockBegin
  2
*D8
 70
     1
 10
0.0
 20
0.0
 30
0.0
  3
*D8
  1

  0
LINE
  5
762F
330
72DB
100
AcDbEntity
  8
AM_5
 62
     3
370
    -2
100
AcDbLine
 10
0.0000000000000001
 20
0.8631570119175078
 30
0.0
 11
-0.0000000000000017
 21
-27.87276207481903
 31
0.0
  0
LINE
  5
7630
330
72DB
100
AcDbEntity
  8
AM_5
 62
     3
370
    -2
100
AcDbLine
 10
31.99999996647238
 20
6.998196322166844
 30
0.0
 11
31.99999996647238
 21
-27.87276207481903
 31
0.0
  0
LINE
  5
7631
330
72DB
100
AcDbEntity
  8
AM_5
 62
     3
370
    -2
100
AcDbLine
 10
2.499999999999998
 20
-26.87276207481903
 30
0.0
 11
29.49999996647238
 21
-26.87276207481903
 31
0.0
  0
INSERT
  5
7632
330
72DB
100
AcDbEntity
  8
AM_5
 62
     3
370
    -2
100
AcDbBlockReference
  2
_OPEN30
 10
-0.0000000000000016
 20
-26.87276207481903
 30
0.0
 41
2.5
 42
2.5
 43
2.5
 50
180.0
  0
INSERT
  5
7633
330
72DB
100
AcDbEntity
  8
AM_5
 62
     3
370
    -2
100
AcDbBlockReference
  2
_OPEN30
 10
31.99999996647238
 20
-26.87276207481903
 30
0.0
 41
2.5
 42
2.5
 43
2.5
  0
MTEXT
  5
7634
330
72DB
100
AcDbEntity
  8
AM_5
 62
     2
100
AcDbMText
 10
15.99999998323619
 20
-23.472388059071
 30
0.0
 40
3.799999999999998
 41
0.0
 71
     5
 72
     1
  1
32
 73
     1
 44
1.0
1001
ACAD
1000
MTEXTBEGIN
1070
    73
1070
     1
1070
    44
1040
1.0
1070
    74
1070
     0
1000
MTEXTEND
  0
POINT
  5
7635
330
72DB
100
AcDbEntity
  8
DEFPOINTS
 62
     0
100
AcDbPoint
 10
0.0000000000000001
 20
0.8631570119175078
 30
0.0
  0
POINT
  5
7636
330
72DB
100
AcDbEntity
  8
DEFPOINTS
 62
     0
100
AcDbPoint
 10
31.99999996647238
 20
6.998196322166844
 30
0.0
  0
POINT
  5
7637
330
72DB
100
AcDbEntity
  8
DEFPOINTS
 62
     0
100
AcDbPoint
 10
31.99999996647238
 20
-26.87276207481903
 30
0.0
  0
ENDBLK
  5
72E6
330
72DB
100
AcDbEntity
  8
0
100
AcDbBlockEnd
  0
BLOCK
  5
76A1
330
7661
100
AcDbEntity
  8
0
100
AcDbBlockBegin
  2
*D12
 70
     1
 10
0.0
 20
0.0
 30
0.0
  3
*D12
  1

  0
LINE
  5
773E
330
7661
100
AcDbEntity
  8
AM_5
 62
     3
100
AcDbLine
 10
-0.7468224096392078
 20
-65.63030449985888
 30
0.0
 11
-12.46421647547506
 21
-65.63030449985891
 31
0.0
  0
LINE
  5
773F
330
7661
100
AcDbEntity
  8
AM_5
 62
     3
100
AcDbLine
 10
0.6142371254253156
 20
-65.63030449985888
 30
0.0
 11
-12.40532080359453
 21
-66.87008670807152
 31
0.0
  0
ARC
  5
7740
330
7661
100
AcDbEntity
  8
AM_5
 62
     3
100
AcDbCircle
 10
0.6142371254253156
 20
-65.63030449985888
 30
0.0
 40
12.07845360090038
100
AcDbArc
 50
156.2392801591807
 51
168.1196400795904
  0
ARC
  5
7741
330
7661
100
AcDbEntity
  8
AM_5
 62
     3
100
AcDbCircle
 10
0.6142371254253156
 20
-65.63030449985888
 30
0.0
 40
12.07845360090038
100
AcDbArc
 50
197.3199257339492
 51
209.2002856543589
  0
ARC
  5
7742
330
7661
100
AcDbEntity
  8
AM_5
 62
     3
100
AcDbCircle
 10
0.6142371254253156
 20
-65.63030449985888
 30
0.0
 40
12.07845360090038
100
AcDbArc
 50
180.0000000000001
 51
185.4395658135395
  0
INSERT
  5
7743
330
7661
100
AcDbEntity
  8
AM_5
 62
     3
100
AcDbBlockReference
  2
_OPEN30
 10
-11.46421647547507
 20
-65.63030449985891
 30
0.0
 41
2.5
 42
2.5
 43
2.5
 50
264.0598200397953
  0
INSERT
  5
7744
330
7661
100
AcDbEntity
  8
AM_5
 62
     3
100
AcDbBlockReference
  2
_OPEN30
 10
-11.40982406320593
 20
-66.77529092823045
 30
0.0
 41
2.5
 42
2.5
 43
2.5
 50
101.3797457737443
  0
MTEXT
  5
7745
330
7661
100
AcDbEntity
  8
AM_5
 62
     2
100
AcDbMText
 10
-12.58305878305109
 20
-57.54241808996551
 30
0.0
 40
3.799999999999998
 41
0.0
 71
     5
 72
     1
  1
-5°
 11
0.5225254808027398
 21
0.8526236695705005
 31
0.0
 73
     1
 44
1.0
1001
ACAD
1000
MTEXTBEGIN
1070
    73
1070
     1
1070
    44
1040
1.0
1070
    74
1070
     0
1000
MTEXTEND
  0
POINT
  5
7746
330
7661
100
AcDbEntity
  8
DEFPOINTS
 62
     0
100
AcDbPoint
 10
-11.44003197928237
 20
-66.39426637089233
 30
0.0
  0
POINT
  5
7747
330
7661
100
AcDbEntity
  8
DEFPOINTS
 62
     0
100
AcDbPoint
 10
-0.1850438502738143
 20
-65.63030449985888
 30
0.0
  0
POINT
  5
7748
330
7661
100
AcDbEntity
  8
DEFPOINTS
 62
     0
100
AcDbPoint
 10
12.05095341815546
 20
-64.54124775481393
 30
0.0
  0
POINT
  5
7749
330
7661
100
AcDbEntity
  8
DEFPOINTS
 62
     0
100
AcDbPoint
 10
0.8727911114730702
 20
-65.60568379971591
 30
0.0
  0
POINT
  5
774A
330
7661
100
AcDbEntity
  8
DEFPOINTS
 62
     0
100
AcDbPoint
 10
-0.7468224096392078
 20
-65.63030449985888
 30
0.0
  0
ENDBLK
  5
76A2
330
7661
100
AcDbEntity
  8
0
100
AcDbBlockEnd
  0
BLOCK
  5
7704
330
76D5
100
AcDbEntity
  8
0
100
AcDbBlockBegin
  2
*D13
 70
     1
 10
0.0
 20
0.0
 30
0.0
  3
*D13
  1

  0
LINE
  5
775B
330
76D5
100
AcDbEntity
  8
AM_5
 62
     3
100
AcDbLine
 10
-66.08291025419369
 20
0.0654239714227387
 30
0.0
 11
-67.37580778984078
 21
-13.57819378074786
 31
0.0
  0
LINE
  5
775C
330
76D5
100
AcDbEntity
  8
AM_5
 62
     3
100
AcDbLine
 10
-66.08291025419369
 20
-0.1325013491898517
 30
0.0
 11
-66.08291025419369
 21
-13.63931569794081
 31
0.0
  0
ARC
  5
775D
330
76D5
100
AcDbEntity
  8
AM_5
 62
     3
100
AcDbCircle
 10
-66.08291025419369
 20
0.0654239714227387
 30
0.0
 40
12.70473966936356
100
AcDbArc
 50
242.0011802520789
 51
253.2939390980304
  0
ARC
  5
775E
330
76D5
100
AcDbEntity
  8
AM_5
 62
     3
100
AcDbCircle
 10
-66.08291025419369
 20
0.0654239714227387
 30
0.0
 40
12.70473966936356
100
AcDbArc
 50
281.2927588459515
 51
292.585517691903
  0
ARC
  5
775F
330
76D5
100
AcDbEntity
  8
AM_5
 62
     3
100
AcDbCircle
 10
-66.08291025419369
 20
0.0654239714227387
 30
0.0
 40
12.70473966936356
100
AcDbArc
 50
264.586697943982
 51
270.0
  0
INSERT
  5
7760
330
76D5
100
AcDbEntity
  8
AM_5
 62
     3
100
AcDbBlockReference
  2
_OPEN30
 10
-67.28146834474081
 20
-12.58265369160115
 30
0.0
 41
2.5
 42
2.5
 43
2.5
 50
348.9403185210062
  0
INSERT
  5
7761
330
76D5
100
AcDbEntity
  8
AM_5
 62
     3
100
AcDbBlockReference
  2
_OPEN30
 10
-66.08291025419369
 20
-12.63931569794081
 30
0.0
 41
2.5
 42
2.5
 43
2.5
 50
185.6463794229757
  0
MTEXT
  5
7762
330
76D5
100
AcDbEntity
  8
AM_5
 62
     2
100
AcDbMText
 10
-70.05281534276344
 20
-8.349921173155461
 30
0.0
 40
3.799999999999998
 41
0.0
 71
     5
 72
     1
  1
-5°
 11
0.9044148943023355
 21
-0.4266540741210559
 31
0.0
 73
     1
 44
1.0
1001
ACAD
1000
MTEXTBEGIN
1070
    73
1070
     1
1070
    44
1040
1.0
1070
    74
1070
     0
1000
MTEXTEND
  0
POINT
  5
7763
330
76D5
100
AcDbEntity
  8
DEFPOINTS
 62
     0
100
AcDbPoint
 10
-66.4829584820052
 20
-12.63301575484777
 30
0.0
  0
POINT
  5
7764
330
76D5
100
AcDbEntity
  8
DEFPOINTS
 62
     0
100
AcDbPoint
 10
-66.08291025419369
 20
-0.1325013491898517
 30
0.0
  0
POINT
  5
7765
330
76D5
100
AcDbEntity
  8
DEFPOINTS
 62
     0
100
AcDbPoint
 10
-66.00717720406573
 20
0.8646155226965177
 30
0.0
  0
POINT
  5
7766
330
76D5
100
AcDbEntity
  8
DEFPOINTS
 62
     0
100
AcDbPoint
 10
-64.94720498296124
 20
12.05023187196958
 30
0.0
  0
POINT
  5
7767
330
76D5
100
AcDbEntity
  8
DEFPOINTS
 62
     0
100
AcDbPoint
 10
-66.08291025419369
 20
1.104096370001112
 30
0.0
  0
ENDBLK
  5
7705
330
76D5
100
AcDbEntity
  8
0
100
AcDbBlockEnd
  0
ENDSEC
  0
SECTION
  2
ENTITIES
  0
LINE
  5
7012
330
1F
100
AcDbEntity
  8
AM_0
100
AcDbLine
 10
32.00640296647236
 20
32.00000032216689
 30
0.0
 11
149.9999999664724
 21
32.00000032216679
 31
0.0
  0
LINE
  5
7013
330
1F
100
AcDbEntity
  8
AM_0
100
AcDbLine
 10
31.99999996647238
 20
7.000000322166836
 30
0.0
 11
149.9999999664724
 21
7.000000322166793
 31
0.0
  0
LINE
  5
7014
330
1F
100
AcDbEntity
  8
AM_0
100
AcDbLine
 10
149.9999999664724
 20
-90.63030443245038
 30
0.0
 11
32.00640296647235
 21
-90.63030443245038
 31
0.0
  0
LINE
  5
7015
330
1F
100
AcDbEntity
  8
AM_0
100
AcDbLine
 10
32.00640296647235
 20
-65.63030443245037
 30
0.0
 11
149.9999999664724
 21
-65.63030443245039
 31
0.0
  0
DIMENSION
  5
7016
330
1F
100
AcDbEntity
  8
AM_5
100
AcDbDimension
  2
*D5
 10
149.9999999664724
 20
-36.34006668225378
 30
0.0
 11
74.9999999832362
 21
-32.94006668225378
 31
0.0
 70
    32
  1
<>
 71
     5
 42
149.9999999664724
  3
AM_JIS
100
AcDbAlignedDimension
 13
0.0000000000000001
 23
0.8631570119175078
 33
0.0
 14
149.9999999664724
 24
6.998196322166799
 34
0.0
100
AcDbRotatedDimension
1001
GENIUS_GENDTOL_13
1000

1000
h7
1000

1040
0.0
1001
ACAD
1000
DSTYLE
1002
{
1070
   271
1070
     6
1002
}
  0
ELLIPSE
  5
7017
330
1F
100
AcDbEntity
  8
AM_0
100
AcDbEllipse
 10
12.00660813190028
 20
-63.57004467779511
 30
0.0
 11
2.739521744340748
 21
0.2398345518982332
 31
0.0
210
0.0
220
0.0
230
1.0
 40
0.0870985468184394
 41
5.243065783370978
 42
7.165356472375567
  0
LINE
  5
7018
330
1F
100
AcDbEntity
  8
AM_0
100
AcDbLine
 10
12.798995468879
 20
-64.38026502710721
 30
0.0
 11
30.02985421097985
 21
-62.73946337952851
 31
0.0
  0
LINE
  5
7019
330
1F
100
AcDbEntity
  8
AM_0
100
AcDbLine
 10
5.20444341120747
 20
-64.42411413735175
 30
0.0
 11
8.224554035164876
 21
-59.72222816249047
 31
0.0
  0
LINE
  5
701D
330
1F
100
AcDbEntity
  8
AM_0
100
AcDbLine
 10
6.062112047998133
 20
-63.08884512355638
 30
0.0
 11
2.558549177720116
 21
-63.70305949121399
 31
0.0
  0
LINE
  5
701E
330
1F
100
AcDbEntity
  8
AM_0
100
AcDbLine
 10
11.58613920168271
 20
-63.50930454898293
 30
0.0
 11
17.96769263038367
 21
-62.68856109911059
 31
0.0
  0
LINE
  5
701F
330
1F
100
AcDbEntity
  8
AM_0
100
AcDbLine
 10
32.00640296647235
 20
-65.63030443245037
 30
0.0
 11
31.14634059069833
 21
-62.4719979483835
 31
0.0
  0
LINE
  5
7020
330
1F
100
AcDbEntity
  8
AM_0
100
AcDbLine
 10
30.02985421097985
 20
-90.63030443245038
 30
0.0
 11
30.02985421097985
 21
-62.73946337952851
 31
0.0
  0
ELLIPSE
  5
7021
330
1F
100
AcDbEntity
  8
AM_0
100
AcDbEllipse
 10
12.86946333256951
 20
-63.41820275232823
 30
0.0
 11
0.7969517801718541
 21
0.0697700514613039
 31
0.0
210
0.0
220
0.0
230
1.0
 40
0.0870985468184395
 41
6.195860093055039
 42
7.941189345049404
  0
SPLINE
  5
7022
330
1F
100
AcDbEntity
  8
AM_0
100
AcDbSpline
210
0.0
220
0.0
230
1.0
 70
     8
 71
     3
 72
    14
 73
    10
 74
     0
 42
0.0000000001
 43
0.0000000001
 40
-2.647852437354806
 40
-2.647852437354806
 40
-2.647852437354806
 40
-2.647852437354806
 40
-2.63808045123974
 40
-2.63808045123974
 40
-2.201983172992291
 40
-2.201983172992291
 40
-1.765885894744844
 40
-1.765885894744844
 40
-1.717671851544118
 40
-1.717671851544118
 40
-1.717671851544118
 40
-1.717671851544118
 10
5.198825870028988
 20
-64.46684134482109
 30
0.0
 10
5.198739628467357
 20
-64.46585608729748
 30
0.0
 10
5.198662064805479
 20
-64.464890837072
 30
0.0
 10
5.195514335791918
 20
-64.42174875107554
 30
0.0
 10
5.209862247305911
 20
-64.40680642674492
 30
0.0
 10
5.280351182280916
 20
-64.4209983726127
 30
0.0
 10
5.336601832545047
 20
-64.45102777361199
 30
0.0
 10
5.408796786428288
 20
-64.50192152459584
 30
0.0
 10
5.416195559476356
 20
-64.50725505830366
 30
0.0
 10
5.4237938301166
 20
-64.51285967754353
 30
0.0
  0
ELLIPSE
  5
7023
330
1F
100
AcDbEntity
  8
AM_0
100
AcDbEllipse
 10
7.055637807838869
 20
-62.74388976029053
 30
0.0
 11
-1.699469644862597
 21
-1.71102284839115
 31
0.0
210
0.0
220
0.0
230
1.0
 40
0.5003007459341155
 41
0.0736798134718362
 42
0.8717756693177475
  0
ELLIPSE
  5
7024
330
1F
100
AcDbEntity
  8
AM_0
100
AcDbEllipse
 10
6.90047659254474
 20
-60.97155328995206
 30
0.0
 11
1.361950410519783
 21
-3.469034836597248
 31
0.0
210
0.0
220
0.0
230
1.0
 40
0.4754650882910834
 41
5.910222974457527
 42
6.164264139403218
  0
SPLINE
  5
7025
330
1F
100
AcDbEntity
  8
AM_0
100
AcDbSpline
210
0.0
220
0.0
230
1.0
 70
     8
 71
     3
 72
    14
 73
    10
 74
     0
 42
0.0000000001
 43
0.0000000001
 40
1.717671851546747
 40
1.717671851546747
 40
1.717671851546747
 40
1.717671851546747
 40
1.765885894744826
 40
1.765885894744826
 40
2.20198317299225
 40
2.20198317299225
 40
2.638080451239673
 40
2.638080451239673
 40
2.664546665281524
 40
2.664546665281524
 40
2.664546665281524
 40
2.664546665281524
 10
6.617347468429833
 20
-64.49571885943834
 30
0.0
 10
6.631722005052599
 20
-64.48979868513657
 30
0.0
 10
6.646144582549076
 20
-64.48415177146052
 30
0.0
 10
6.791158065693073
 20
-64.43013865475217
 30
0.0
 10
6.942954291292998
 20
-64.39712145869946
 30
0.0
 10
7.250267696557378
 20
-64.37750383191893
 30
0.0
 10
7.405721697777202
 20
-64.39000760333778
 30
0.0
 10
7.550987211023246
 20
-64.43272573037147
 30
0.0
 10
7.559369206832164
 20
-64.43531443515809
 30
0.0
 10
7.567792585321162
 20
-64.43805411273075
 30
0.0
  0
ELLIPSE
  5
7026
330
1F
100
AcDbEntity
  8
AM_0
100
AcDbEllipse
 10
6.833394193456333
 20
-64.48040688533149
 30
0.0
 11
2.570169491054229
 21
0.2250084159627049
 31
0.0
210
0.0
220
0.0
230
1.0
 40
0.0870985468184394
 41
2.252709572876989
 42
3.141533902065008
  0
ELLIPSE
  5
7027
330
1F
100
AcDbEntity
  8
AM_0
100
AcDbEllipse
 10
1.691301025887177
 20
-64.48263879723025
 30
0.0
 11
0.7969517801718541
 21
0.0697700514613039
 31
0.0
210
0.0
220
0.0
230
1.0
 40
0.0870985468184395
 41
1.658004037869889
 42
3.054267439465281
  0
ELLIPSE
  5
7028
330
1F
100
AcDbEntity
  8
AM_0
100
AcDbEllipse
 10
11.9754873610256
 20
-64.47817497343272
 30
0.0
 11
0.7969517801718541
 21
0.0697700514613039
 31
0.0
210
0.0
220
0.0
230
1.0
 40
0.0870985468184395
 41
4.799596691459612
 42
6.195860093055039
  0
ELLIPSE
  5
7029
330
1F
100
AcDbEntity
  8
AM_0
100
AcDbEllipse
 10
12.38904154199695
 20
-69.20201756519822
 30
0.0
 11
0.7969517801718533
 21
0.0697700514613111
 31
0.0
210
0.0
220
0.0
230
1.0
 40
0.0870985468184394
 41
4.799596691459565
 42
6.176141813055017
  0
ELLIPSE
  5
702A
330
1F
100
AcDbEntity
  8
AM_0
100
AcDbEllipse
 10
12.37177170082002
 20
-73.92604715498771
 30
0.0
 11
1.195427670257779
 21
0.1046550771919696
 31
0.0
210
0.0
220
0.0
230
1.0
 40
0.0870985468184296
 41
4.799596691459591
 42
6.164737688286103
  0
ELLIPSE
  5
702B
330
1F
100
AcDbEntity
  8
AM_0
100
AcDbEllipse
 10
1.210879235314555
 20
-70.2664536101002
 30
0.0
 11
0.7969517801718533
 21
0.0697700514613111
 31
0.0
210
0.0
220
0.0
230
1.0
 40
0.0870985468184394
 41
3.141592653589798
 42
4.799596691459565
  0
ELLIPSE
  5
702C
330
1F
100
AcDbEntity
  8
AM_0
100
AcDbEllipse
 10
0.7973250543432675
 20
-65.54261101833468
 30
0.0
 11
0.7969517801718541
 21
0.0697700514613039
 31
0.0
210
0.0
220
0.0
230
1.0
 40
0.0870985468184395
 41
3.054267439465265
 42
4.799596691459612
  0
ELLIPSE
  5
702D
330
1F
100
AcDbEntity
  8
AM_0
100
AcDbEllipse
 10
2.130158127941048
 20
-74.90130072045196
 30
0.0
 11
1.195427670257779
 21
0.1046550771919681
 31
0.0
210
0.0
220
0.0
230
1.0
 40
0.0870985468184344
 41
3.141592653589835
 42
4.799596691459489
  0
ELLIPSE
  5
702E
330
1F
100
AcDbEntity
  8
AM_0
100
AcDbEllipse
 10
6.833394193456333
 20
-64.48040688533149
 30
0.0
 11
2.570169491054229
 21
0.2250084159627049
 31
0.0
210
0.0
220
0.0
230
1.0
 40
0.0870985468184394
 41
3.141533902064993
 42
5.971441717810547
  0
DIMENSION
  5
704B
330
1F
100
AcDbEntity
  8
AM_5
100
AcDbDimension
  2
*D4
 10
-15.47983701508907
 20
-65.63030449985888
 30
0.0
 11
-18.88021103083709
 21
-78.13030446615463
 31
0.0
 70
    32
  1
<>
 71
     5
 42
24.99999993259149
  3
AM_JIS
100
AcDbAlignedDimension
 13
1.134315805274115
 23
-90.63030443245038
 33
0.0
 14
0.3671471805332577
 24
-65.63030449985888
 34
0.0
 50
270.0
100
AcDbRotatedDimension
1001
GENIUS_GENDTOL_13
1000

1000
h7
1000

1040
0.0
1001
ACAD
1000
DSTYLE
1002
{
1070
   271
1070
     6
1002
}
  0
LINE
  5
704C
330
1F
100
AcDbEntity
  8
AM_0
100
AcDbLine
 10
32.00640296647235
 20
-90.63030443245038
 30
0.0
 11
30.02985421097985
 21
-90.63030443245038
 31
0.0
  0
LINE
  5
704D
330
1F
100
AcDbEntity
  8
AM_0
100
AcDbLine
 10
2.221471547935424
 20
-90.63030443245038
 30
0.0
 11
2.221471547935426
 21
-74.99797615530344
 31
0.0
  0
LINE
  5
704E
330
1F
100
AcDbEntity
  8
AM_0
100
AcDbLine
 10
1.134315805274115
 20
-90.63030443245038
 30
0.0
 11
1.134315805274117
 21
-75.04586016030912
 31
0.0
  0
LINE
  5
704F
330
1F
100
AcDbEntity
  8
AM_0
100
AcDbLine
 10
30.02985421097985
 20
-90.63030443245038
 30
0.0
 11
1.134315805274115
 21
-90.63030443245038
 31
0.0
  0
LINE
  5
7052
330
1F
100
AcDbEntity
  8
AM_0
100
AcDbLine
 10
0.5281570109943827
 20
-70.36185098013504
 30
0.0
 11
0.934730457683306
 21
-75.00595579764393
 31
0.0
  0
LINE
  5
7053
330
1F
100
AcDbEntity
  8
AM_0
100
AcDbLine
 10
2.243357213635694
 20
-74.99590989252379
 30
0.0
 11
12.48497078651478
 21
-74.0206563270595
 31
0.0
  0
LINE
  5
7054
330
1F
100
AcDbEntity
  8
AM_0
100
AcDbLine
 10
1.286345292444357
 20
-70.32952639148145
 30
0.0
 11
12.46450759912675
 21
-69.26509034657946
 31
0.0
  0
LINE
  5
7055
330
1F
100
AcDbEntity
  8
AM_0
100
AcDbLine
 10
12.05095341815546
 20
-64.54124775481393
 30
0.0
 11
0.8727911114730693
 21
-65.60568379971591
 31
0.0
  0
LINE
  5
7057
330
1F
100
AcDbEntity
  8
AM_0
100
AcDbLine
 10
0.0003732741714009
 20
-65.61238106979601
 30
0.0
 11
0.4139274551427463
 21
-70.3362236615615
 31
0.0
  0
LINE
  5
7058
330
1F
100
AcDbEntity
  8
AM_0
100
AcDbLine
 10
1.983802932840823
 20
-64.38452641331031
 30
0.0
 11
5.441350781752297
 21
-64.05528279916501
 31
0.0
  0
LINE
  5
7059
330
1F
100
AcDbEntity
  8
AM_0
100
AcDbLine
 10
1.615834968757261
 20
-64.41956601584904
 30
0.0
 11
5.441350781752297
 21
-64.05528279916501
 31
0.0
  0
LINE
  5
705A
330
1F
100
AcDbEntity
  8
AM_0
100
AcDbLine
 10
2.558549177720116
 20
-63.70305949121399
 30
0.0
 11
1.983802932840823
 21
-64.38452641331031
 31
0.0
  0
LINE
  5
705B
330
1F
100
AcDbEntity
  8
AM_0
100
AcDbLine
 10
0.0028800086966987
 20
-65.60606138232242
 30
0.0
 11
0.8968559802406081
 21
-64.54608916121792
 31
0.0
  0
LINE
  5
705C
330
1F
100
AcDbEntity
  8
AM_0
100
AcDbLine
 10
5.198825870028988
 20
-64.4668413448212
 30
0.0
 11
5.227645826915298
 21
-64.79603869331055
 31
0.0
  0
LINE
  5
705D
330
1F
100
AcDbEntity
  8
AM_0
100
AcDbLine
 10
13.56519176250514
 20
-73.90017262197893
 30
0.0
 11
12.798995468879
 21
-64.38026502710721
 31
0.0
  0
LINE
  5
705F
330
1F
100
AcDbEntity
  8
AM_0
100
AcDbLine
 10
13.56519176250491
 20
-73.90017262197893
 30
0.0
 11
13.12483350136596
 21
-73.94210556166678
 31
0.0
  0
LINE
  5
7060
330
1F
100
AcDbEntity
  8
AM_0
100
AcDbLine
 10
13.15409771188472
 20
-69.15514791324216
 30
0.0
 11
13.51602401367317
 21
-73.28926856329343
 31
0.0
  0
LINE
  5
7062
330
1F
100
AcDbEntity
  8
AM_0
100
AcDbLine
 10
8.057120671247041
 20
-64.49291424535231
 30
0.0
 11
11.37785450084799
 21
-64.06582849423154
 31
0.0
  0
LINE
  5
7063
330
1F
100
AcDbEntity
  8
AM_0
100
AcDbLine
 10
9.203500217772035
 20
-64.34547624073633
 30
0.0
 11
9.20489019147663
 21
-64.36135328246263
 31
0.0
  0
LINE
  5
7064
330
1F
100
AcDbEntity
  8
AM_0
100
AcDbLine
 10
13.4111433736113
 20
-63.65445158818108
 30
0.0
 11
12.798995468879
 21
-64.38026502710721
 31
0.0
  0
LINE
  5
7065
330
1F
100
AcDbEntity
  8
AM_0
100
AcDbLine
 10
13.66390837821608
 20
-63.35475238834056
 30
0.0
 11
13.68660529935327
 21
-63.61400906546538
 31
0.0
  0
LINE
  5
7066
330
1F
100
AcDbEntity
  8
AM_0
100
AcDbLine
 10
13.66390837821602
 20
-63.35475238834056
 30
0.0
 11
12.76993240667211
 21
-64.41472460944503
 31
0.0
  0
LINE
  5
7067
330
1F
100
AcDbEntity
  8
AM_0
100
AcDbLine
 10
12.75894515303064
 20
-63.35846779531556
 30
0.0
 11
12.79399727543965
 21
-63.35512997094707
 31
0.0
  0
LINE
  5
7068
330
1F
100
AcDbEntity
  8
AM_0
100
AcDbLine
 10
13.66641511274138
 20
-63.34843270086697
 30
0.0
 11
13.68962430314177
 21
-63.61354079837473
 31
0.0
  0
LINE
  5
7069
330
1F
100
AcDbEntity
  8
AM_0
100
AcDbLine
 10
11.37785450084804
 20
-64.06582849423154
 30
0.0
 11
11.58613920168277
 21
-63.50930454898293
 31
0.0
  0
LINE
  5
706A
330
1F
100
AcDbEntity
  8
AM_0
100
AcDbLine
 10
12.76993240667211
 20
-64.41472460944499
 30
0.0
 11
13.16457180144657
 21
-68.92251214298096
 31
0.0
  0
LINE
  5
706B
330
1F
100
AcDbEntity
  8
AM_0
100
AcDbLine
 10
32.00640296647235
 20
-90.63030443245038
 30
0.0
 11
32.00640296647235
 21
-65.63030443245037
 31
0.0
  0
ELLIPSE
  5
706C
330
1F
100
AcDbEntity
  8
AM_0
100
AcDbEllipse
 10
22.02231821480001
 20
25.09714966636426
 30
0.0
 11
1.061984812740322
 21
-1.05933387442718
 31
0.0
210
0.0
220
0.0
230
1.0
 40
0.9924039058330912
 41
0.755052241378337
 42
1.032289442742378
  0
ELLIPSE
  5
706D
330
1F
100
AcDbEntity
  8
AM_0
100
AcDbEllipse
 10
22.02231821480001
 20
25.09714966636426
 30
0.0
 11
1.061984812740322
 21
-1.05933387442718
 31
0.0
210
0.0
220
0.0
230
1.0
 40
0.9924039058330912
 41
2.28884437011668
 42
2.566081571480669
  0
ELLIPSE
  5
706E
330
1F
100
AcDbEntity
  8
AM_0
100
AcDbEllipse
 10
21.86708584402868
 20
24.88440445660148
 30
0.0
 11
1.026585318982311
 21
-1.024022745279607
 31
0.0
210
0.0
220
0.0
230
1.0
 40
0.9924039058330915
 41
1.053261932045064
 42
2.267871880813929
  0
ELLIPSE
  5
7070
330
1F
100
AcDbEntity
  8
AM_0
100
AcDbEllipse
 10
17.75621942101389
 20
27.80831594757262
 30
0.0
 11
1.136086903722947
 21
1.245949213943611
 31
0.0
210
0.0
220
0.0
230
1.0
 40
0.8893674561964132
 41
1.191356841047899
 42
1.520388684481901
  0
ELLIPSE
  5
7071
330
1F
100
AcDbEntity
  8
AM_0
100
AcDbEllipse
 10
17.81305227054747
 20
27.86529101891357
 30
0.0
 11
1.061984812740322
 21
-1.059333874427179
 31
0.0
210
0.0
220
0.0
230
1.0
 40
0.9924039058330915
 41
1.660566906429564
 42
2.812560810155819
  0
ELLIPSE
  5
7074
330
1F
100
AcDbEntity
  8
AM_0
100
AcDbEllipse
 10
16.80461581472144
 20
29.03322622389941
 30
0.0
 11
-1.260221977785182
 21
1.257076197653586
 31
0.0
210
0.0
220
0.0
230
1.0
 40
0.9924039058330912
 41
4.802159560019324
 42
7.910603719955871
  0
SPLINE
  5
7075
330
1F
100
AcDbEntity
  8
AM_0
100
AcDbSpline
210
0.0
220
0.0
230
1.0
 70
     8
 71
     3
 72
    26
 73
    22
 74
     0
 42
0.0000000001
 43
0.0000000001
 40
0.0
 40
0.0
 40
0.0
 40
0.0
 40
0.2713201130182744
 40
0.2713201130182744
 40
0.542640226036549
 40
0.542640226036549
 40
0.817001064955096
 40
0.817001064955096
 40
1.091361903873643
 40
1.091361903873643
 40
1.60365369899741
 40
1.60365369899741
 40
2.115945494121179
 40
2.115945494121179
 40
2.454564954443045
 40
2.454564954443045
 40
2.793184414764913
 40
2.793184414764913
 40
2.985940191262558
 40
2.985940191262558
 40
3.172648487972998
 40
3.172648487972998
 40
3.172648487972998
 40
3.172648487972998
 10
17.78078941942715
 20
30.20225725031059
 30
0.0
 10
17.71133409379973
 20
30.26017411513685
 30
0.0
 10
17.628334554307
 20
30.31317068676276
 30
0.0
 10
17.45219834689868
 20
30.39239383111584
 30
0.0
 10
17.35907549804892
 20
30.4186456250801
 30
0.0
 10
17.1851472275793
 20
30.44465958679301
 30
0.0
 10
17.09002070104838
 20
30.44629456636363
 30
0.0
 10
16.90692645561131
 20
30.42210696263595
 30
0.0
 10
16.81896676464657
 20
30.39635262605104
 30
0.0
 10
16.60280026594472
 20
30.30148003278282
 30
0.0
 10
16.47636283371082
 20
30.20185908294127
 30
0.0
 10
16.29372527354092
 20
29.95631500817955
 30
0.0
 10
16.23759313668529
 20
29.8106165835336
 30
0.0
 10
16.20661142177254
 20
29.57277819852356
 30
0.0
 10
16.20917578221406
 20
29.46754672300448
 30
0.0
 10
16.25157514230193
 20
29.25963610460019
 30
0.0
 10
16.2913248300461
 20
29.15692672515353
 30
0.0
 10
16.37365571853678
 20
29.01316626951319
 30
0.0
 10
16.41170042787217
 20
28.95770992692921
 30
0.0
 10
16.49806270907544
 20
28.85493173645443
 30
0.0
 10
16.54608130960707
 20
28.80738755771256
 30
0.0
 10
16.59389539609168
 20
28.76705951517408
 30
0.0
  0
ELLIPSE
  5
7076
330
1F
100
AcDbEntity
  8
AM_0
100
AcDbEllipse
 10
17.34778904996682
 20
29.64123025672801
 30
0.0
 11
0.7079898751602158
 21
-0.7062225829514535
 31
0.0
210
0.0
220
0.0
230
1.0
 40
0.9924039058330915
 41
3.267754531614854
 42
4.796098500657143
  0
SPLINE
  5
7077
330
1F
100
AcDbEntity
  8
AM_0
100
AcDbSpline
210
0.0
220
0.0
230
1.0
 70
     8
 71
     3
 72
    26
 73
    22
 74
     0
 42
0.0000000001
 43
0.0000000001
 40
-3.178695967760196
 40
-3.178695967760196
 40
-3.178695967760196
 40
-3.178695967760196
 40
-2.985940191262549
 40
-2.985940191262549
 40
-2.793184414764902
 40
-2.793184414764902
 40
-2.454564954443034
 40
-2.454564954443034
 40
-2.115945494121163
 40
-2.115945494121163
 40
-1.603653698997391
 40
-1.603653698997391
 40
-1.091361903873622
 40
-1.091361903873622
 40
-0.8170010649550754
 40
-0.8170010649550754
 40
-0.5426402260365279
 40
-0.5426402260365279
 40
-0.2713201130182643
 40
-0.2713201130182643
 40
0.0
 40
0.0
 40
0.0
 40
0.0
 10
26.58216428743112
 20
20.43809899420011
 30
0.0
 10
26.63150790252212
 20
20.39695272558144
 30
0.0
 10
26.68850780144147
 20
20.35691265247862
 30
0.0
 10
26.80649033381183
 20
20.28978365286866
 30
0.0
 10
26.86751225549671
 20
20.26263108640557
 30
0.0
 10
27.02263681629193
 20
20.2083840453663
 30
0.0
 10
27.12988184259894
 20
20.18851861997312
 30
0.0
 10
27.3399896404884
 20
20.18587054033496
 30
0.0
 10
27.44286721633665
 20
20.20317691700892
 30
0.0
 10
27.6686775826177
 20
20.2785531068792
 30
0.0
 10
27.8002302725335
 20
20.36136042940677
 30
0.0
 10
28.00578059598405
 20
20.58779818796107
 30
0.0
 10
28.0795633137364
 20
20.73132644013753
 30
0.0
 10
28.1321318960371
 20
20.96261878703113
 30
0.0
 10
28.14099121349789
 20
21.05433272568455
 30
0.0
 10
28.13071376291357
 20
21.23976760999909
 30
0.0
 10
28.11151055808943
 20
21.33346901445213
 30
0.0
 10
28.05390597940602
 20
21.50052385784658
 30
0.0
 10
28.01102469585833
 20
21.58768212827572
 30
0.0
 10
27.90101683949576
 20
21.74706656242784
 30
0.0
 10
27.8338676668397
 20
21.81927482695806
 30
0.0
 10
27.76441234121223
 20
21.87719169178433
 30
0.0
  0
ELLIPSE
  5
7078
330
1F
100
AcDbEntity
  8
AM_0
100
AcDbEllipse
 10
27.3314119717519
 20
21.31616469820176
 30
0.0
 11
0.7079898751602158
 21
-0.7062225829514535
 31
0.0
210
0.0
220
0.0
230
1.0
 40
0.9924039058330915
 41
4.802159560019293
 42
6.161896911166406
  0
ELLIPSE
  5
707A
330
1F
100
AcDbEntity
  8
AM_0
100
AcDbEllipse
 10
25.49276221038212
 20
21.46139443543182
 30
0.0
 11
1.061984812740322
 21
-1.059333874427179
 31
0.0
210
0.0
220
0.0
230
1.0
 40
0.9924039058330915
 41
0.5085730027032157
 42
1.660566906429489
  0
ELLIPSE
  5
707B
330
1F
100
AcDbEntity
  8
AM_0
100
AcDbEllipse
 10
25.43592936084854
 20
21.4044193640908
 30
0.0
 11
1.136086903722939
 21
1.245949213943619
 31
0.0
210
0.0
220
0.0
230
1.0
 40
0.8893674561964132
 41
4.751751917706283
 42
5.170554340774899
  0
ELLIPSE
  5
7084
330
1F
100
AcDbEntity
  8
AM_0
100
AcDbEllipse
 10
16.76368344367938
 20
18.93675397086184
 30
0.0
 11
-3.18595443822097
 21
3.178001623281538
 31
0.0
210
0.0
220
0.0
230
1.0
 40
0.9924039058330915
 41
0.0897705796346354
 42
0.1970433886569511
  0
ELLIPSE
  5
7085
330
1F
100
AcDbEntity
  8
AM_0
100
AcDbEllipse
 10
17.6849557663034
 20
19.98727479756398
 30
0.0
 11
3.18595443822097
 21
-3.178001623281538
 31
0.0
210
0.0
220
0.0
230
1.0
 40
0.9924039058330915
 41
3.187061766820879
 42
3.231363233224415
  0
SPLINE
  5
7086
330
1F
100
AcDbEntity
  8
AM_0
100
AcDbSpline
210
0.0
220
0.0
230
1.0
 70
     8
 71
     1
 72
     8
 73
     6
 74
     0
 42
0.0000000001
 43
0.0000000001
 40
0.0
 40
0.0
 40
0.0034116200960073
 40
0.0068232401920145
 40
0.0102348602880218
 40
0.013646480384029
 40
0.0170581004800363
 40
0.0170581004800363
 10
12.55239193548254
 20
24.01186354439392
 30
0.0
 10
12.55439038247266
 20
24.01430686238807
 30
0.0
 10
12.55639411983469
 20
24.01674773390686
 30
0.0
 10
12.55840317266756
 20
24.01918613196687
 30
0.0
 10
12.56041756607015
 20
24.02162202958459
 30
0.0
 10
12.56243732514127
 20
24.02405539977678
 30
0.0
  0
ELLIPSE
  5
7087
330
1F
100
AcDbEntity
  8
AM_0
100
AcDbEllipse
 10
17.36767347024408
 20
19.60572698646335
 30
0.0
 11
3.008956969430915
 21
-3.001445977543674
 31
0.0
210
0.0
220
0.0
230
1.0
 40
0.9924039058330912
 41
1.660566906429519
 42
3.141592653589794
  0
SPLINE
  5
7088
330
1F
100
AcDbEntity
  8
AM_0
100
AcDbSpline
210
0.0
220
0.0
230
1.0
 70
     8
 71
     3
 72
    18
 73
    14
 74
     0
 42
0.0000000001
 43
0.0000000001
 40
1.72586746760331
 40
1.72586746760331
 40
1.72586746760331
 40
1.72586746760331
 40
1.76289570234622
 40
1.76289570234622
 40
2.458497849458609
 40
2.458497849458609
 40
3.154099996570998
 40
3.154099996570998
 40
3.849702143683386
 40
3.849702143683386
 40
4.545304290795776
 40
4.545304290795776
 40
4.582332525538683
 40
4.582332525538683
 40
4.582332525538683
 40
4.582332525538683
 10
19.89395313633883
 20
15.70390417858613
 30
0.0
 10
19.88477824736446
 20
15.69502515656597
 30
0.0
 10
19.87556155812166
 20
15.68618254249452
 30
0.0
 10
19.6923860197146
 20
15.5119605779181
 30
0.0
 10
19.50370921967396
 20
15.35990303559271
 30
0.0
 10
19.10759937284575
 20
15.09089829874687
 30
0.0
 10
18.90013552549908
 20
14.97394015044193
 30
0.0
 10
18.48292754898393
 20
14.77872676249956
 30
0.0
 10
18.25896161481949
 20
14.69381707977339
 30
0.0
 10
17.79493363448432
 20
14.56035966634954
 30
0.0
 10
17.55488758972404
 20
14.51181596485179
 30
0.0
 10
17.30284284391058
 20
14.48239650604608
 30
0.0
 10
17.29010663451066
 20
14.48096726540609
 30
0.0
 10
17.27737424987782
 20
14.47959578086317
 30
0.0
  0
ELLIPSE
  5
7089
330
1F
100
AcDbEntity
  8
AM_0
100
AcDbEllipse
 10
16.76368344367938
 20
18.93675397086184
 30
0.0
 11
-3.18595443822097
 21
3.178001623281538
 31
0.0
210
0.0
220
0.0
230
1.0
 40
0.9924039058330915
 41
3.124090424202221
 42
3.231363233224396
  0
ELLIPSE
  5
708A
330
1F
100
AcDbEntity
  8
AM_0
100
AcDbEllipse
 10
16.93326781796327
 20
19.17023425237118
 30
0.0
 11
-1.83071061716645
 21
1.826140776941708
 31
0.0
210
0.0
220
0.0
230
1.0
 40
0.9924039058330915
 41
0.0000000000000011
 42
6.283185307179587
  0
ELLIPSE
  5
708B
330
1F
100
AcDbEntity
  8
AM_0
100
AcDbEllipse
 10
17.36767347024408
 20
19.60572698646335
 30
0.0
 11
3.008956969430915
 21
-3.001445977543674
 31
0.0
210
0.0
220
0.0
230
1.0
 40
0.9924039058330912
 41
0.0000000000000004
 42
1.660566906429524
  0
ELLIPSE
  5
708C
330
1F
100
AcDbEntity
  8
AM_0
100
AcDbEllipse
 10
18.03062069807799
 20
11.74929079999502
 30
0.0
 11
-1.073363601117784
 21
-1.292735618755369
 31
0.0
210
0.0
220
0.0
230
1.0
 40
0.5951088184267671
 41
0.9012567125591854
 42
1.569541609931162
  0
ELLIPSE
  5
708D
330
1F
100
AcDbEntity
  8
AM_0
100
AcDbEllipse
 10
12.38904154199696
 20
2.187660821303664
 30
0.0
 11
0.5663919001281724
 21
-0.564978066361163
 31
0.0
210
0.0
220
0.0
230
1.0
 40
0.9924039058330915
 41
-0.0000000000000122
 42
0.678638172147376
  0
ELLIPSE
  5
708F
330
1F
100
AcDbEntity
  8
AM_0
100
AcDbEllipse
 10
26.78823873650657
 20
20.70816066537314
 30
0.0
 11
-1.260221977785182
 21
1.257076197653586
 31
0.0
210
0.0
220
0.0
230
1.0
 40
0.9924039058330912
 41
1.660566906429496
 42
4.802159560019324
  0
ELLIPSE
  5
7091
330
1F
100
AcDbEntity
  8
AM_0
100
AcDbEllipse
 10
17.39824803579806
 20
-55.57803680793761
 30
0.0
 11
4.482853763466677
 21
0.3924565394698342
 31
0.0
210
0.0
220
0.0
230
1.0
 40
0.0870985468184395
 41
5.584994854857028
 42
6.80080125101291
  0
SPLINE
  5
7096
330
1F
100
AcDbEntity
  8
AM_0
100
AcDbSpline
210
0.0
220
0.0
230
1.0
 70
     8
 71
     1
 72
    17
 73
    15
 74
     0
 42
0.0000000001
 43
0.0000000001
 40
0.0076249937243964
 40
0.0076249937243964
 40
0.0134611659904973
 40
0.0192973382565982
 40
0.025133510522699
 40
0.0309696827887999
 40
0.0368058550549008
 40
0.0426420273210016
 40
0.0484781995871025
 40
0.0543143718532034
 40
0.0601505441193042
 40
0.0659867163854051
 40
0.071822888651506
 40
0.0776590609176068
 40
0.0864133193167582
 40
0.0951675777159095
 40
0.0951675777159095
 10
21.31166290574571
 20
-55.23313227658485
 30
0.0
 10
21.30340395422347
 20
-55.16508386540562
 30
0.0
 10
21.29074201089718
 20
-55.09830753091772
 30
0.0
 10
21.27400398218547
 20
-55.03360388718267
 30
0.0
 10
21.25364774439974
 20
-54.97165574874622
 30
0.0
 10
21.23022080265279
 20
-54.91299749287072
 30
0.0
 10
21.20431549545803
 20
-54.85800222733757
 30
0.0
 10
21.17652729437553
 20
-54.80688541584989
 30
0.0
 10
21.14742084050078
 20
-54.75972111967958
 30
0.0
 10
21.11750594829344
 20
-54.71646595942195
 30
0.0
 10
21.0872236526302
 20
-54.6769861209329
 30
0.0
 10
21.05694090445347
 20
-54.64108374534743
 30
0.0
 10
21.02695181214544
 20
-54.60852033816997
 30
0.0
 10
20.98299857859478
 20
-54.56536522258097
 30
0.0
 10
20.94072778468142
 20
-54.52824334555679
 30
0.0
  0
ELLIPSE
  5
7097
330
1F
100
AcDbEntity
  8
AM_0
100
AcDbEllipse
 10
24.85852995805213
 20
-56.33759974171795
 30
0.0
 11
-0.0215395231202753
 21
1.49984534167485
 31
0.0
210
0.0
220
0.0
230
1.0
 40
0.6403896583481769
 41
0.000000000000042
 42
0.1136466330154638
  0
ELLIPSE
  5
7099
330
1F
100
AcDbEntity
  8
AM_0
100
AcDbEllipse
 10
26.78823873650657
 20
-61.51953354042047
 30
0.0
 11
1.773217710882374
 21
0.1552383645014011
 31
0.0
210
0.0
220
0.0
230
0.9999999999999998
 40
0.0870985468184394
 41
4.014198528062126
 42
7.155791181651951
  0
SPLINE
  5
709A
330
1F
100
AcDbEntity
  8
AM_0
100
AcDbSpline
210
0.0
220
0.0
230
1.0
 70
     8
 71
     3
 72
    18
 73
    14
 74
     0
 42
0.0000000001
 43
0.0000000001
 40
1.72586746760331
 40
1.72586746760331
 40
1.72586746760331
 40
1.72586746760331
 40
1.76289570234622
 40
1.76289570234622
 40
2.458497849458609
 40
2.458497849458609
 40
3.154099996570998
 40
3.154099996570998
 40
3.849702143683386
 40
3.849702143683386
 40
4.545304290795776
 40
4.545304290795776
 40
4.582332525538683
 40
4.582332525538683
 40
4.582332525538683
 40
4.582332525538683
 10
19.89395313633882
 20
-55.71025248904827
 30
0.0
 10
19.88477824736445
 20
-55.71183498447357
 30
0.0
 10
19.87556155812165
 20
-55.71344406741825
 30
0.0
 10
19.69238601971459
 20
-55.74576799890877
 30
0.0
 10
19.50370921967395
 20
-55.78474646900399
 30
0.0
 10
19.10759937284574
 20
-55.85753335173074
 30
0.0
 10
18.90013552549907
 20
-55.89113351070874
 30
0.0
 10
18.48292754898391
 20
-55.94479140416449
 30
0.0
 10
18.25896161481948
 20
-55.96667823142133
 30
0.0
 10
17.79493363448431
 20
-56.0045152736556
 30
0.0
 10
17.55488758972403
 20
-56.0206756456327
 30
0.0
 10
17.30284284391057
 20
-56.04432620397711
 30
0.0
 10
17.29010663451065
 20
-56.0455405241376
 30
0.0
 10
17.27737424987781
 20
-56.04677556389692
 30
0.0
  0
ELLIPSE
  5
709B
330
1F
100
AcDbEntity
  8
AM_0
100
AcDbEllipse
 10
16.76368344367937
 20
-55.70056374296207
 30
0.0
 11
4.482853763466677
 21
0.3924565394698342
 31
0.0
210
0.0
220
0.0
230
1.0
 40
0.0870985468184395
 41
5.477722045834853
 42
5.584994854857031
  0
ELLIPSE
  5
709D
330
1F
100
AcDbEntity
  8
AM_0
100
AcDbEllipse
 10
17.07785657358271
 20
-55.60378567497304
 30
0.0
 11
4.233806332162968
 21
0.370653398388215
 31
0.0
210
0.0
220
0.0
230
1.0
 40
0.0870985468184395
 41
3.14159265358979
 42
4.014198528062098
  0
SPLINE
  5
709E
330
1F
100
AcDbEntity
  8
AM_0
100
AcDbSpline
210
0.0
220
0.0
230
1.0
 70
     8
 71
     1
 72
    16
 73
    14
 74
     0
 42
0.0000000001
 43
0.0000000001
 40
3.061675063322674
 40
3.061675063322674
 40
3.070429321721826
 40
3.079183580120977
 40
3.087937838520128
 40
3.096692096919279
 40
3.102528269185381
 40
3.108364441451482
 40
3.114200613717582
 40
3.120036785983683
 40
3.125872958249783
 40
3.131709130515884
 40
3.137545302781986
 40
3.143381475048087
 40
3.149217647314189
 40
3.149217647314189
 10
13.08686080625408
 20
-55.21581907709856
 30
0.0
 10
13.05168335500194
 20
-55.25972124897265
 30
0.0
 10
13.0158973961661
 20
-55.30985722299596
 30
0.0
 10
12.98017534352316
 20
-55.36701541244127
 30
0.0
 10
12.94547746260632
 20
-55.43189550255789
 30
0.0
 10
12.92353367679816
 20
-55.47969068985839
 30
0.0
 10
12.9030652848006
 20
-55.53119507238482
 30
0.0
 10
12.88458188337186
 20
-55.58636278402582
 30
0.0
 10
12.86862665532645
 20
-55.64502277780292
 30
0.0
 10
12.85574857478842
 20
-55.70685939821209
 30
0.0
 10
12.846466138178
 20
-55.77140228816215
 30
0.0
 10
12.84122566825435
 20
-55.8380300645976
 30
0.0
 10
12.84035942987451
 20
-55.90599073916388
 30
0.0
 10
12.84405024141971
 20
-55.97443907336121
 30
0.0
  0
ELLIPSE
  5
709F
330
1F
100
AcDbEntity
  8
AM_0
100
AcDbEllipse
 10
16.93326781796326
 20
-53.95221363553361
 30
0.0
 11
2.575933880763747
 21
0.2255130660264633
 31
0.0
210
0.0
220
0.0
230
1.0
 40
0.0870985468184395
 41
2.353631621632628
 42
8.636816928812212
  0
SPLINE
  5
70A0
330
1F
100
AcDbEntity
  8
AM_0
100
AcDbSpline
210
0.0
220
0.0
230
1.0
 70
     8
 71
     1
 72
    85
 73
    83
 74
     0
 42
0.0000000001
 43
0.0000000001
 40
3.221510243856899
 40
3.221510243856899
 40
3.231396133066168
 40
3.241282022275435
 40
3.251167911484703
 40
3.261053800693971
 40
3.270939689903238
 40
3.284283195434651
 40
3.297626700966063
 40
3.310970206497477
 40
3.324313712028888
 40
3.337657217560301
 40
3.36053064318706
 40
3.38340406881382
 40
3.406277494440578
 40
3.429150920067337
 40
3.452024345694096
 40
3.498820092595967
 40
3.545615839497838
 40
3.592411586399707
 40
3.639207333301578
 40
3.686003080203448
 40
3.732798827105318
 40
3.779594574007187
 40
3.826390320909058
 40
3.873186067810928
 40
3.919981814712798
 40
3.965910138554173
 40
4.011838462395544
 40
4.057766786236919
 40
4.103695110078291
 40
4.149623433919665
 40
4.195551757761037
 40
4.241480081602412
 40
4.287408405443785
 40
4.329450357154871
 40
4.37149230886596
 40
4.413534260577046
 40
4.455576212288133
 40
4.497618163999222
 40
4.539660115710308
 40
4.581702067421396
 40
4.623744019132483
 40
4.665102678839041
 40
4.706461338545604
 40
4.74781999825216
 40
4.78917865795872
 40
4.83053731766528
 40
4.871895977371837
 40
4.913254637078398
 40
4.954613296784956
 40
4.996172636642298
 40
5.037731976499637
 40
5.079291316356978
 40
5.120850656214318
 40
5.162409996071659
 40
5.203969335928999
 40
5.245528675786339
 40
5.287088015643679
 40
5.33010932355009
 40
5.373130631456501
 40
5.416151939362912
 40
5.459173247269321
 40
5.502194555175731
 40
5.545215863082143
 40
5.588237170988553
 40
5.631258478894964
 40
5.676959176520112
 40
5.722659874145262
 40
5.768360571770411
 40
5.814061269395561
 40
5.85976196702071
 40
5.90546266464586
 40
5.951163362271008
 40
5.996864059896156
 40
6.042564757521307
 40
6.066806919511705
 40
6.091049081502101
 40
6.115291243492497
 40
6.129836540686736
 40
6.144381837880972
 40
6.158927135075211
 40
6.173472432269447
 40
6.188017729463687
 40
6.188017729463687
 10
13.68874318138175
 20
-54.50398378218387
 30
0.0
 10
13.72664124841531
 20
-54.46153134059414
 30
0.0
 10
13.76278759724248
 20
-54.42496446999689
 30
0.0
 10
13.79702676654931
 20
-54.39334219075653
 30
0.0
 10
13.82933690068994
 20
-54.36585667512708
 30
0.0
 10
13.85977889682623
 20
-54.34182766295714
 30
0.0
 10
13.89810176491089
 20
-54.31388852475851
 30
0.0
 10
13.93355080576224
 20
-54.29010932108888
 30
0.0
 10
13.96647537040296
 20
-54.26962820166472
 30
0.0
 10
13.99721233543344
 20
-54.25178024596989
 30
0.0
 10
14.02607102033407
 20
-54.23605048924851
 30
0.0
 10
14.07194988513167
 20
-54.21290403100353
 30
0.0
 10
14.11427577709536
 20
-54.19336606884093
 30
0.0
 10
14.15396950940963
 20
-54.17644206321455
 30
0.0
 10
14.19175033423839
 20
-54.16144797073065
 30
0.0
 10
14.22818032338715
 20
-54.14790331028275
 30
0.0
 10
14.30025361412673
 20
-54.12336490358177
 30
0.0
 10
14.37111979193831
 20
-54.10164426121031
 30
0.0
 10
14.44248354870744
 20
-54.08168249380008
 30
0.0
 10
14.51544130429964
 20
-54.06286218864778
 30
0.0
 10
14.59070529229875
 20
-54.04480929925989
 30
0.0
 10
14.66873587893711
 20
-54.02729132216308
 30
0.0
 10
14.74982233789818
 20
-54.01016190895854
 30
0.0
 10
14.83413379447249
 20
-53.99332922862829
 30
0.0
 10
14.92175235883899
 20
-53.97673711292107
 30
0.0
 10
15.01269530315408
 20
-53.96035339404176
 30
0.0
 10
15.10515396608984
 20
-53.94446085523651
 30
0.0
 10
15.20071689540161
 20
-53.92875013504266
 30
0.0
 10
15.29928817651891
 20
-53.91322514891625
 30
0.0
 10
15.40074825965262
 20
-53.89789545321576
 30
0.0
 10
15.50495798520323
 20
-53.88277473519242
 30
0.0
 10
15.61176172211678
 20
-53.86787971227192
 30
0.0
 10
15.72098987199637
 20
-53.8532293133672
 30
0.0
 10
15.83246091407089
 20
-53.83884405806663
 30
0.0
 10
15.93630253453601
 20
-53.82592690929181
 30
0.0
 10
16.04170943423746
 20
-53.81326718720736
 30
0.0
 10
16.1485227612424
 20
-53.80088235020872
 30
0.0
 10
16.25657908633614
 20
-53.78879001367501
 30
0.0
 10
16.3657110802735
 20
-53.77700781478546
 30
0.0
 10
16.47574814230437
 20
-53.76555329805245
 30
0.0
 10
16.5865169915907
 20
-53.75444381742028
 30
0.0
 10
16.69784223074787
 20
-53.74369645183725
 30
0.0
 10
16.8077293021547
 20
-53.73349333219511
 30
0.0
 10
16.91781409085335
 20
-53.72367238442432
 30
0.0
 10
17.02792662667831
 20
-53.71424871078687
 30
0.0
 10
17.13789691695926
 20
-53.70523693179318
 30
0.0
 10
17.24755542325168
 20
-53.69665114786251
 30
0.0
 10
17.35673354299898
 20
-53.68850490696132
 30
0.0
 10
17.46526410060896
 20
-53.68081117823368
 30
0.0
 10
17.5729818529483
 20
-53.67358233188025
 30
0.0
 10
17.68023930850221
 20
-53.66679854321654
 30
0.0
 10
17.78634958384849
 20
-53.66050733249659
 30
0.0
 10
17.89115425048406
 20
-53.65471937455236
 30
0.0
 10
17.99449920494855
 20
-53.64944473217281
 30
0.0
 10
18.09623538292412
 20
-53.64469288448351
 30
0.0
 10
18.19621955451696
 20
-53.64047277291557
 30
0.0
 10
18.2943152251738
 20
-53.63679287003112
 30
0.0
 10
18.39039367467147
 20
-53.6336612786301
 30
0.0
 10
18.48759954475581
 20
-53.63100549773895
 30
0.0
 10
18.58239457116836
 20
-53.62895442041025
 30
0.0
 10
18.67467192100837
 20
-53.62751703752514
 30
0.0
 10
18.76434157152305
 20
-53.62670309723916
 30
0.0
 10
18.85133372740778
 20
-53.62652377414059
 30
0.0
 10
18.93560328435847
 20
-53.62699264014924
 30
0.0
 10
19.01713577946718
 20
-53.62812709445012
 30
0.0
 10
19.09595548996303
 20
-53.62995050725515
 30
0.0
 10
19.17679679014047
 20
-53.6326788435357
 30
0.0
 10
19.25483295229138
 20
-53.63627879659856
 30
0.0
 10
19.33035175352966
 20
-53.64083740892364
 30
0.0
 10
19.40380646531581
 20
-53.6464912463196
 30
0.0
 10
19.47589370593157
 20
-53.65346157336893
 30
0.0
 10
19.54768089245248
 20
-53.66212026242219
 30
0.0
 10
19.62082252863165
 20
-53.6731201646682
 30
0.0
 10
19.69794076133637
 20
-53.68766983370164
 30
0.0
 10
19.78331515582288
 20
-53.70815655260031
 30
0.0
 10
19.834245271543
 20
-53.72298685667459
 30
0.0
 10
19.89101009326889
 20
-53.74216263213333
 30
0.0
 10
19.95567584545766
 20
-53.76782761094097
 30
0.0
 10
19.9993382166903
 20
-53.78771866707673
 30
0.0
 10
20.04743337636972
 20
-53.81227746240262
 30
0.0
 10
20.10062795855883
 20
-53.84301387573703
 30
0.0
 10
20.15949733015776
 20
-53.88196402032424
 30
0.0
 10
20.22431241031512
 20
-53.93181992889111
 30
0.0
  0
ELLIPSE
  5
70A1
330
1F
100
AcDbEntity
  8
AM_0
100
AcDbEllipse
 10
18.03062069807798
 20
-62.5686792517302
 30
0.0
 11
1.320509516455357
 21
0.1763989347355085
 31
0.0
210
0.0
220
0.0
230
1.0
 40
0.083082087239339
 41
4.653621497757769
 42
5.321906395129746
  0
ELLIPSE
  5
70A2
330
1F
100
AcDbEntity
  8
AM_0
100
AcDbEllipse
 10
17.6717574268428
 20
-62.38764683511476
 30
0.0
 11
4.233806332162973
 21
0.3706533983881767
 31
0.0
210
0.0
220
0.0
230
1.0
 40
0.0870985468184395
 41
4.546045491445846
 42
6.429080365996139
  0
ELLIPSE
  5
70A3
330
1F
100
AcDbEntity
  8
AM_0
100
AcDbEllipse
 10
17.07785657358271
 20
-55.60378567497304
 30
0.0
 11
4.233806332162968
 21
0.370653398388215
 31
0.0
210
0.0
220
0.0
230
1.0
 40
0.0870985468184395
 41
4.014198528062083
 42
6.283185307179588
  0
ELLIPSE
  5
70A4
330
1F
100
AcDbEntity
  8
AM_0
100
AcDbEllipse
 10
9.582939764259664
 20
18.79357704182473
 30
0.0
 11
-1.073363601117781
 21
-1.292735618755366
 31
0.0
210
0.0
220
0.0
230
1.0
 40
0.5951088184267686
 41
4.726274083492298
 42
5.379419160892979
  0
ELLIPSE
  5
70A6
330
1F
100
AcDbEntity
  8
AM_0
100
AcDbEllipse
 10
2.104855206858531
 20
12.39531469066526
 30
0.0
 11
0.5663919001281724
 21
-0.564978066361163
 31
0.0
210
0.0
220
0.0
230
1.0
 40
0.9924039058330915
 41
2.465068607682276
 42
3.141592653589718
  0
ELLIPSE
  5
70A8
330
1F
100
AcDbEntity
  8
AM_0
100
AcDbEllipse
 10
6.900476592544748
 20
7.017775917296203
 30
0.0
 11
0.4828427846114249
 21
-2.055428574732407
 31
0.0
210
0.0
220
0.0
230
1.0
 40
0.7944520800722799
 41
4.126192092596301
 42
4.380233257541973
  0
ELLIPSE
  5
70A9
330
1F
100
AcDbEntity
  8
AM_0
100
AcDbEllipse
 10
7.246948374427631
 20
7.291487755984461
 30
0.0
 11
1.826613877913355
 21
-1.822054264014749
 31
0.0
210
0.0
220
0.0
230
1.0
 40
0.9924039058330912
 41
3.256197704548303
 42
3.929494934022145
  0
ELLIPSE
  5
70AB
330
1F
100
AcDbEntity
  8
AM_0
100
AcDbEllipse
 10
7.055637807838878
 20
7.173325416983286
 30
0.0
 11
-1.477391300307955
 21
1.348686192457584
 31
0.0
210
0.0
220
0.0
230
1.0
 40
0.8892271278866045
 41
1.222155653376592
 42
2.020251509222504
  0
ELLIPSE
  5
70AC
330
1F
100
AcDbEntity
  8
AM_0
100
AcDbEllipse
 10
6.900476592544748
 20
7.017775917296262
 30
0.0
 11
2.126248899993524
 21
-0.2922388797505568
 31
0.0
210
0.0
220
0.0
230
1.0
 40
0.7989232145227573
 41
5.139024862351327
 42
5.393066027297019
  0
SPLINE
  5
70AD
330
1F
100
AcDbEntity
  8
AM_0
100
AcDbSpline
210
0.0
220
0.0
230
1.0
 70
     8
 71
     3
 72
    14
 73
    10
 74
     0
 42
0.0000000001
 43
0.0000000001
 40
1.717671851546747
 40
1.717671851546747
 40
1.717671851546747
 40
1.717671851546747
 40
1.765885894744826
 40
1.765885894744826
 40
2.20198317299225
 40
2.20198317299225
 40
2.638080451239673
 40
2.638080451239673
 40
2.664546665281524
 40
2.664546665281524
 40
2.664546665281524
 40
2.664546665281524
 10
6.617347468429842
 20
5.404093826963444
 30
0.0
 10
6.631722005052608
 20
5.399094944173553
 30
0.0
 10
6.646144582549085
 20
5.394302948821801
 30
0.0
 10
6.791158065693082
 20
5.348307161032265
 30
0.0
 10
6.942954291293006
 20
5.3193981102886
 30
0.0
 10
7.250267696557387
 20
5.304172673873494
 30
0.0
 10
7.405721697777211
 20
5.31774872797632
 30
0.0
 10
7.550987211023254
 20
5.346851639162422
 30
0.0
 10
7.559369206832173
 20
5.348591125215873
 30
0.0
 10
7.567792585321171
 20
5.350401993146987
 30
0.0
  0
ELLIPSE
  5
70AE
330
1F
100
AcDbEntity
  8
AM_0
100
AcDbEllipse
 10
7.246948374427121
 20
7.291487755984233
 30
0.0
 11
-1.415979750320175
 21
1.412445165903161
 31
0.0
210
0.0
220
0.0
230
1.0
 40
0.9924039058330915
 41
2.166255846393751
 42
3.006832450308773
  0
SPLINE
  5
70AF
330
1F
100
AcDbEntity
  8
AM_0
100
AcDbSpline
210
0.0
220
0.0
230
1.0
 70
     8
 71
     3
 72
    14
 73
    10
 74
     0
 42
0.0000000001
 43
0.0000000001
 40
-2.664546665281591
 40
-2.664546665281591
 40
-2.664546665281591
 40
-2.664546665281591
 40
-2.63808045123974
 40
-2.63808045123974
 40
-2.201983172992291
 40
-2.201983172992291
 40
-1.765885894744844
 40
-1.765885894744844
 40
-1.717671851544118
 40
-1.717671851544118
 40
-1.717671851544118
 40
-1.717671851544118
 10
5.199344762524277
 20
7.32538477757373
 30
0.0
 10
5.199029673198539
 20
7.316812632761466
 30
0.0
 10
5.198779922011169
 20
7.3082918940363
 30
0.0
 10
5.195514335791926
 20
7.160779192029109
 30
0.0
 10
5.20986224730592
 20
7.005610044262082
 30
0.0
 10
5.280351182280925
 20
6.7057966139954
 30
0.0
 10
5.336601832545056
 20
6.561221159726867
 30
0.0
 10
5.408796786428297
 20
6.426092871388106
 30
0.0
 10
5.416195559476364
 20
6.412688649267122
 30
0.0
 10
5.423793830116552
 20
6.399365019036848
 30
0.0
  0
ELLIPSE
  5
70B0
330
1F
100
AcDbEntity
  8
AM_0
100
AcDbEllipse
 10
6.833394193456342
 20
6.876898673128663
 30
0.0
 11
-1.826613877913355
 21
1.822054264014749
 31
0.0
210
0.0
220
0.0
230
1.0
 40
0.9924039058330912
 41
5.986509023863004
 42
7.071087587611966
  0
ELLIPSE
  5
70B1
330
1F
100
AcDbEntity
  8
AM_0
100
AcDbEllipse
 10
6.833394193456342
 20
6.876898673128663
 30
0.0
 11
-1.826613877913355
 21
1.822054264014749
 31
0.0
210
0.0
220
0.0
230
1.0
 40
0.9924039058330912
 41
0.7879022804323636
 42
3.617810096177734
  0
ELLIPSE
  5
70B2
330
1F
100
AcDbEntity
  8
AM_0
100
AcDbEllipse
 10
7.246948374427631
 20
7.291487755984461
 30
0.0
 11
1.826613877913355
 21
-1.822054264014749
 31
0.0
210
0.0
220
0.0
230
1.0
 40
0.9924039058330912
 41
3.929494934022129
 42
6.168580256221186
  0
ELLIPSE
  5
70B5
330
1F
100
AcDbEntity
  8
AM_0
100
AcDbEllipse
 10
1.691301025887186
 20
11.98072560780951
 30
0.0
 11
-0.5663919001281724
 21
0.564978066361163
 31
0.0
210
0.0
220
0.0
230
1.0
 40
0.9924039058330915
 41
5.587557723416837
 42
6.983821125012232
  0
ELLIPSE
  5
70B6
330
1F
100
AcDbEntity
  8
AM_0
100
AcDbEllipse
 10
0.7973250543432756
 20
0.7951092585364563
 30
0.0
 11
-0.5663919001281724
 21
0.564978066361163
 31
0.0
210
0.0
220
0.0
230
1.0
 40
0.9924039058330915
 41
0.7006358178326279
 42
2.445965069826974
  0
ELLIPSE
  5
70B7
330
1F
100
AcDbEntity
  8
AM_0
100
AcDbEllipse
 10
11.51242319007785
 20
-57.47918893860447
 30
0.0
 11
-0.3908336960771015
 21
0.9204613093502148
 31
0.0
210
0.0
220
0.0
230
1.0
 40
0.9622398689024615
 41
5.957480599908874
 42
6.283185307179573
  0
SPLINE
  5
70BB
330
1F
100
AcDbEntity
  8
AM_0
100
AcDbSpline
210
0.0
220
0.0
230
1.0
 70
     8
 71
     1
 72
    37
 73
    35
 74
     0
 42
0.0000000001
 43
0.0000000001
 40
0.0
 40
0.0
 40
0.1907039454292121
 40
0.3814078908584242
 40
0.5721118362876363
 40
0.7628157817168484
 40
0.9535197271460603
 40
1.144223672575272
 40
1.334927618004484
 40
1.525631563433696
 40
1.716335508862908
 40
1.907039454292121
 40
2.097743399721331
 40
2.288447345150545
 40
2.479151290579756
 40
2.672171230093798
 40
2.865191169607841
 40
3.058211109121883
 40
3.251231048635925
 40
3.444250988149966
 40
3.63727092766401
 40
3.830290867178051
 40
4.023310806692093
 40
4.216330746206136
 40
4.409350685720178
 40
4.602370625234219
 40
4.795390564748262
 40
4.988410504262303
 40
5.21332620996
 40
5.438241915657697
 40
5.663157621355396
 40
5.888073327053092
 40
6.11298903275079
 40
6.337904738448487
 40
6.562820444146185
 40
6.787736149843881
 40
6.787736149843881
 10
8.224554035164819
 20
-59.72222816249047
 30
0.0
 10
8.31483521635612
 20
-59.58265833497654
 30
0.0
 10
8.404849680010379
 20
-59.44547132959968
 30
0.0
 10
8.494535743886778
 20
-59.31075886056106
 30
0.0
 10
8.583831725744794
 20
-59.17861264206175
 30
0.0
 10
8.672675943343385
 20
-59.0491243883029
 30
0.0
 10
8.761006714442139
 20
-58.92238581348568
 30
0.0
 10
8.848762356800186
 20
-58.79848863181115
 30
0.0
 10
8.935881188176772
 20
-58.6775245574804
 30
0.0
 10
9.022301526331252
 20
-58.55958530469461
 30
0.0
 10
9.107961689022879
 20
-58.44476258765491
 30
0.0
 10
9.192799994010945
 20
-58.33314812056238
 30
0.0
 10
9.276754759054647
 20
-58.22483361761817
 30
0.0
 10
9.359764301913337
 20
-58.11991079302338
 30
0.0
 10
9.442862950797168
 20
-58.01706170976451
 30
0.0
 10
9.525148063763984
 20
-57.91740645300813
 30
0.0
 10
9.6066588505929
 20
-57.82093397987745
 30
0.0
 10
9.68743452106286
 20
-57.72763324749583
 30
0.0
 10
9.767514284952817
 20
-57.63749321298639
 30
0.0
 10
9.846937352041825
 20
-57.55050283347265
 30
0.0
 10
9.925742932108837
 20
-57.46665106607764
 30
0.0
 10
10.00397023493291
 20
-57.38592686792486
 30
0.0
 10
10.08165847029299
 20
-57.30831919613734
 30
0.0
 10
10.15884684796804
 20
-57.23381700783857
 30
0.0
 10
10.23557457773721
 20
-57.16240926015182
 30
0.0
 10
10.31188086937941
 20
-57.09408491020025
 30
0.0
 10
10.38780493267357
 20
-57.02883291510709
 30
0.0
 10
10.4760193388173
 20
-56.95641089931161
 30
0.0
 10
10.56441185843879
 20
-56.88770482532742
 30
0.0
 10
10.65339467251651
 20
-56.82280798725805
 30
0.0
 10
10.74337996202921
 20
-56.7618136792069
 30
0.0
 10
10.83477990795534
 20
-56.70481519527754
 30
0.0
 10
10.92800669127364
 20
-56.65190582957332
 30
0.0
 10
11.02347249296257
 20
-56.60317887619777
 30
0.0
 10
11.12158949400076
 20
-56.55872762925429
 30
0.0
  0
SPLINE
  5
70BC
330
1F
100
AcDbEntity
  8
AM_0
100
AcDbSpline
210
0.0
220
0.0
230
1.0
 70
     8
 71
     3
 72
    18
 73
    14
 74
     0
 42
0.0000000001
 43
0.0000000001
 40
9.28033164244842
 40
9.28033164244842
 40
9.28033164244842
 40
9.28033164244842
 40
9.31735987719081
 40
9.31735987719081
 40
10.01296202430314
 40
10.01296202430314
 40
10.70856417141548
 40
10.70856417141548
 40
11.40416631852782
 40
11.40416631852782
 40
12.09976846564015
 40
12.09976846564015
 40
12.13679670038254
 40
12.13679670038254
 40
12.13679670038254
 40
12.13679670038254
 10
12.2932435826367
 20
18.63572375986649
 30
0.0
 10
12.29228544241453
 20
18.64851139241898
 30
0.0
 10
12.29138377538402
 20
18.66131287901123
 30
0.0
 10
12.27466328251028
 20
18.9148481973051
 30
0.0
 10
12.279034776895
 20
19.15991435339907
 30
0.0
 10
12.32634236606594
 20
19.64086331404939
 30
0.0
 10
12.36927381089589
 20
19.87673262374373
 30
0.0
 10
12.48546360640824
 20
20.32295670297418
 30
0.0
 10
12.56268264026857
 20
20.54852237977115
 30
0.0
 10
12.75491802217243
 20
20.98753236416104
 30
0.0
 10
12.86994314164195
 20
21.20100599501995
 30
0.0
 10
13.00786974435266
 20
21.41295978892071
 30
0.0
 10
13.01488515548146
 20
21.42363798760436
 30
0.0
 10
13.02194433351667
 20
21.43428124214886
 30
0.0
  0
ELLIPSE
  5
70BE
330
1F
100
AcDbEntity
  8
AM_0
100
AcDbEllipse
 10
16.76368344367938
 20
18.93675397086184
 30
0.0
 11
-3.18595443822097
 21
3.178001623281538
 31
0.0
210
0.0
220
0.0
230
1.0
 40
0.9924039058330915
 41
0.8551623966094606
 42
2.465971416249425
  0
ELLIPSE
  5
70BF
330
1F
100
AcDbEntity
  8
AM_0
100
AcDbEllipse
 10
17.05039117418476
 20
19.22417917536266
 30
0.0
 11
3.18595443822097
 21
-3.178001623281538
 31
0.0
210
0.0
220
0.0
230
1.0
 40
0.9924039058330915
 41
3.231363233224429
 42
6.23771619394841
  0
ELLIPSE
  5
70C2
330
1F
100
AcDbEntity
  8
AM_0
100
AcDbEllipse
 10
11.97548736102561
 20
1.773071738447866
 30
0.0
 11
-0.5663919001281724
 21
0.564978066361163
 31
0.0
210
0.0
220
0.0
230
1.0
 40
0.9924039058330915
 41
2.445965069826975
 42
3.842228471422401
  0
SPLINE
  5
70C3
330
1F
100
AcDbEntity
  8
AM_0
100
AcDbSpline
210
0.0
220
0.0
230
1.0
 70
     8
 71
     1
 72
   101
 73
    99
 74
     0
 42
0.0000000001
 43
0.0000000001
 40
2.361256615356975
 40
2.361256615356975
 40
2.393154887707293
 40
2.425053160057613
 40
2.45695143240793
 40
2.48884970475825
 40
2.520747977108568
 40
2.552646249458886
 40
2.584544521809204
 40
2.616442794159523
 40
2.648341066509843
 40
2.680239338860161
 40
2.712158046804125
 40
2.744076754748091
 40
2.775995462692057
 40
2.807914170636021
 40
2.839832878579986
 40
2.871751586523951
 40
2.903670294467917
 40
2.935589002411883
 40
2.967507710355848
 40
2.999426418299813
 40
3.031397869944842
 40
3.063369321589872
 40
3.095340773234902
 40
3.12731222487993
 40
3.159283676524961
 40
3.191255128169991
 40
3.223226579815019
 40
3.255198031460048
 40
3.287169483105078
 40
3.319140934750107
 40
3.351175878157404
 40
3.383210821564699
 40
3.415245764971996
 40
3.447280708379293
 40
3.479315651786587
 40
3.511350595193883
 40
3.54338553860118
 40
3.575420482008476
 40
3.607455425415772
 40
3.639490368823067
 40
3.671574524109778
 40
3.703658679396487
 40
3.735742834683196
 40
3.767826989969906
 40
3.799911145256616
 40
3.831995300543326
 40
3.864079455830035
 40
3.896163611116744
 40
3.928247766403453
 40
3.960331921690163
 40
3.992432276376662
 40
4.024532631063163
 40
4.056632985749661
 40
4.088733340436162
 40
4.12083369512266
 40
4.152934049809161
 40
4.185034404495659
 40
4.217134759182159
 40
4.249235113868658
 40
4.281335468555158
 40
4.313412926119855
 40
4.345490383684553
 40
4.377567841249251
 40
4.409645298813948
 40
4.441722756378646
 40
4.473800213943342
 40
4.505877671508041
 40
4.537955129072738
 40
4.570032586637436
 40
4.602110044202134
 40
4.634134007975532
 40
4.666157971748931
 40
4.698181935522329
 40
4.73020589929573
 40
4.762229863069127
 40
4.794253826842528
 40
4.826277790615925
 40
4.858301754389326
 40
4.890325718162724
 40
4.922349681936124
 40
4.954310078397818
 40
4.986270474859513
 40
5.018230871321208
 40
5.050191267782905
 40
5.082151664244599
 40
5.114112060706294
 40
5.146072457167988
 40
5.178032853629684
 40
5.209993250091379
 40
5.241953646553075
 40
5.274565599352285
 40
5.307177552151499
 40
5.33978950495071
 40
5.372401457749921
 40
5.405013410549132
 40
5.437625363348343
 40
5.470237316147556
 40
5.502849268946768
 40
5.502849268946768
 10
14.06889960415185
 20
22.31663081279305
 30
0.0
 10
13.97509492622447
 20
22.21951896895859
 30
0.0
 10
13.88445911133556
 20
22.11944229947516
 30
0.0
 10
13.79708527217911
 20
22.01650383183931
 30
0.0
 10
13.71306308202997
 20
21.91080958584604
 30
0.0
 10
13.63247867625904
 20
21.80246845360409
 30
0.0
 10
13.55541455867256
 20
21.69159207598443
 30
0.0
 10
13.48194951282738
 20
21.57829471575422
 30
0.0
 10
13.41215851845646
 20
21.46269312765543
 30
0.0
 10
13.34611267311947
 20
21.34490642569471
 30
0.0
 10
13.28387911917599
 20
21.22505594791573
 30
0.0
 10
13.22548484409827
 20
21.1031864985241
 30
0.0
 10
13.17103009338637
 20
20.97949982459516
 30
0.0
 10
13.12056986143596
 20
20.85412335009277
 30
0.0
 10
13.07415493898224
 20
20.72718616650797
 30
0.0
 10
13.03183186731337
 20
20.59881888869625
 30
0.0
 10
12.9936428980036
 20
20.46915350982749
 30
0.0
 10
12.95962595813318
 20
20.3383232557066
 30
0.0
 10
12.92981462094576
 20
20.20646243871698
 30
0.0
 10
12.90423808187881
 20
20.07370631162893
 30
0.0
 10
12.8829211398895
 20
19.94019092150392
 30
0.0
 10
12.8658595829425
 20
19.80583086966885
 30
0.0
 10
12.85310821369694
 20
19.6709840717001
 30
0.0
 10
12.84467862749124
 20
19.53578876886729
 30
0.0
 10
12.84057797020199
 20
19.40038341850277
 30
0.0
 10
12.84080894455996
 20
19.26490655028038
 30
0.0
 10
12.84536982112376
 20
19.12949662374137
 30
0.0
 10
12.8542544537737
 20
18.99429188721177
 30
0.0
 10
12.86745229958216
 20
18.85943023824387
 30
0.0
 10
12.88494844291915
 20
18.7250490856976
 30
0.0
 10
12.90672362364682
 20
18.59128521356922
 30
0.0
 10
12.93281017928705
 20
18.45801134175786
 30
0.0
 10
12.96314109753501
 20
18.32562970864097
 30
0.0
 10
12.99768408850718
 20
18.19427522261929
 30
0.0
 10
13.03640263541916
 20
18.06408163199444
 30
0.0
 10
13.07925604160425
 20
17.93518139742951
 30
0.0
 10
13.12619948084227
 20
17.80770556656654
 30
0.0
 10
13.17718405087703
 20
17.68178365083059
 30
0.0
 10
13.2321568300062
 20
17.55754350444408
 30
0.0
 10
13.29106093663563
 20
17.43511120566682
 30
0.0
 10
13.35383559169633
 20
17.31461094027236
 30
0.0
 10
13.42052135772155
 20
17.19598457333882
 30
0.0
 10
13.49095606791905
 20
17.0795393470658
 30
0.0
 10
13.56506731147436
 20
16.96539363158717
 30
0.0
 10
13.64277903456212
 20
16.85366344615226
 30
0.0
 10
13.72401161641585
 20
16.7444623529945
 30
0.0
 10
13.80868194783488
 20
16.63790135344737
 30
0.0
 10
13.89670351208252
 20
16.53408878630381
 30
0.0
 10
13.98798646813367
 20
16.43313022841477
 30
0.0
 10
14.08243773623803
 20
16.33512839752631
 30
0.0
 10
14.17996108577187
 20
16.2401830573562
 30
0.0
 10
14.28050869996587
 20
16.14834539108437
 30
0.0
 10
14.38392969120258
 20
16.05975783809583
 30
0.0
 10
14.49011876449083
 20
15.97451088742599
 30
0.0
 10
14.59896784240197
 20
15.89269171018048
 30
0.0
 10
14.71036616440244
 20
15.81438407577491
 30
0.0
 10
14.8242003884265
 20
15.73966827052788
 30
0.0
 10
14.94035469469162
 20
15.66862101864751
 30
0.0
 10
15.05871089176122
 20
15.6013154056568
 30
0.0
 10
15.17914852485984
 20
15.5378208043129
 30
0.0
 10
15.30154498644606
 20
15.47820280308138
 30
0.0
 10
15.42568639182564
 20
15.42256143586576
 30
0.0
 10
15.55153306173906
 20
15.37091048175749
 30
0.0
 10
15.67895689277264
 20
15.32330366301732
 30
0.0
 10
15.80782809829548
 20
15.27979067018213
 30
0.0
 10
15.93801532988811
 20
15.2404171047176
 30
0.0
 10
16.06938580099551
 20
15.20522442474896
 30
0.0
 10
16.20180541278279
 20
15.1742498939837
 30
0.0
 10
16.33513888216322
 20
15.14752653394913
 30
0.0
 10
16.4692498719628
 20
15.12508307967191
 30
0.0
 10
16.6040011231725
 20
15.10694393893243
 30
0.0
 10
16.7390286933205
 20
15.0931485843584
 30
0.0
 10
16.87441880016655
 20
15.08367874866132
 30
0.0
 10
17.01003292902333
 20
15.07854560627652
 30
0.0
 10
17.14573219396919
 20
15.07775590966605
 30
0.0
 10
17.28137747827321
 20
15.08131196873296
 30
0.0
 10
17.41682957637346
 20
15.08921163463014
 30
0.0
 10
17.55194933727807
 20
15.10144828810774
 30
0.0
 10
17.68659780924474
 20
15.11801083253999
 30
0.0
 10
17.82063638558105
 20
15.13888369176652
 30
0.0
 10
17.95392695139378
 20
15.16404681288111
 30
0.0
 10
18.08607017549178
 20
15.19341305109121
 30
0.0
 10
18.21719554834464
 20
15.22699931170893
 30
0.0
 10
18.3471681213125
 20
15.26477239126666
 30
0.0
 10
18.47585402096223
 20
15.30669470733835
 30
0.0
 10
18.60312059605269
 20
15.35272432740947
 30
0.0
 10
18.72883656417315
 20
15.40281500321452
 30
0.0
 10
18.85287215778208
 20
15.45691621059501
 30
0.0
 10
18.97509926938693
 20
15.51497319491363
 30
0.0
 10
19.09539159559693
 20
15.5769270220436
 30
0.0
 10
19.2136247797776
 20
15.64271463493514
 30
0.0
 10
19.33201889330513
 20
15.71372556048538
 30
0.0
 10
19.44801424629463
 20
15.78858269066528
 30
0.0
 10
19.56148589510263
 20
15.86720618579783
 30
0.0
 10
19.67231160976746
 20
15.94951204535169
 30
0.0
 10
19.78037201929419
 20
16.03541220094347
 30
0.0
 10
19.88555075347005
 20
16.12481461518223
 30
0.0
 10
19.98773458090641
 20
16.21762338620231
 30
0.0
 10
20.08681354301359
 20
16.31373885770574
 30
0.0
  0
SPLINE
  5
70C4
330
1F
100
AcDbEntity
  8
AM_0
100
AcDbSpline
210
0.0
220
0.0
230
1.0
 70
     8
 71
     3
 72
    16
 73
    12
 74
     0
 42
0.0000000001
 43
0.0000000001
 40
9.28033164244842
 40
9.28033164244842
 40
9.28033164244842
 40
9.28033164244842
 40
9.31735987719081
 40
9.31735987719081
 40
10.01296202430314
 40
10.01296202430314
 40
10.70856417141548
 40
10.70856417141548
 40
11.40416631852782
 40
11.40416631852782
 40
11.79977556721341
 40
11.79977556721341
 40
11.79977556721341
 40
11.79977556721341
 10
12.29324358263669
 20
-56.11835347580448
 30
0.0
 10
12.29228544241452
 20
-56.1173150479014
 30
0.0
 10
12.29138377538401
 20
-56.11629658350454
 30
0.0
 10
12.27466328251027
 20
-56.09650580650674
 30
0.0
 10
12.27903477689499
 20
-56.08372999511442
 30
0.0
 10
12.32634236606593
 20
-56.05187754225795
 30
0.0
 10
12.36927381089588
 20
-56.03259058077412
 30
0.0
 10
12.48546360640823
 20
-55.98325565842025
 30
0.0
 10
12.56268264026856
 20
-55.95152596641202
 30
0.0
 10
12.71346526815425
 20
-55.89673103347315
 30
0.0
 10
12.77424586760655
 20
-55.87589807877073
 30
0.0
 10
12.84055334309873
 20
-55.85616818331459
 30
0.0
  0
ELLIPSE
  5
70C5
330
1F
100
AcDbEntity
  8
AM_0
100
AcDbEllipse
 10
16.76368344367937
 20
-55.70056374296207
 30
0.0
 11
4.482853763466677
 21
0.3924565394698342
 31
0.0
210
0.0
220
0.0
230
1.0
 40
0.0870985468184395
 41
3.208794018242093
 42
4.81960303788206
  0
ELLIPSE
  5
70C9
330
1F
100
AcDbEntity
  8
AM_0
100
AcDbEllipse
 10
17.39824803579807
 20
19.69984959306315
 30
0.0
 11
-3.18595443822097
 21
3.178001623281538
 31
0.0
210
0.0
220
0.0
230
1.0
 40
0.9924039058330915
 41
3.231363233224394
 42
6.372955886814205
  0
ELLIPSE
  5
70CA
330
1F
100
AcDbEntity
  8
AM_0
100
AcDbEllipse
 10
17.07785657358272
 20
19.31518483524939
 30
0.0
 11
3.008956969430915
 21
-3.001445977543674
 31
0.0
210
0.0
220
0.0
230
1.0
 40
0.9924039058330912
 41
0.0000000000000004
 42
3.141592653589792
  0
ELLIPSE
  5
70CB
330
1F
100
AcDbEntity
  8
AM_0
100
AcDbEllipse
 10
-56.84900512813158
 20
27.229471627139
 30
0.0
 11
1.499777594823673
 21
0.0258295579697542
 31
0.0
210
0.0
220
0.0
230
1.0
 40
0.7679709939834663
 41
6.147116769194981
 42
6.283185307179572
  0
SPLINE
  5
70CC
330
1F
100
AcDbEntity
  8
AM_0
100
AcDbSpline
210
0.0
220
0.0
230
1.0
 70
     8
 71
     1
 72
    16
 73
    14
 74
     0
 42
0.0000000001
 43
0.0000000001
 40
1.483474493795088
 40
1.483474493795088
 40
1.492206677095069
 40
1.500938860395049
 40
1.509671043695031
 40
1.518403226995011
 40
1.524224682528331
 40
1.530046138061653
 40
1.535867593594973
 40
1.541689049128294
 40
1.547510504661613
 40
1.553331960194935
 40
1.559153415728255
 40
1.564974871261575
 40
1.570796326794896
 40
1.570796326794896
 10
-54.92864957030724
 20
23.17791011984162
 30
0.0
 10
-54.96575087849827
 20
23.22017442477744
 30
0.0
 10
-55.00888479977039
 20
23.26412365505127
 30
0.0
 10
-55.05894466355242
 20
23.30923282316099
 30
0.0
 10
-55.11678649578152
 20
23.35467805646556
 30
0.0
 10
-55.16002673124592
 20
23.38459570762922
 30
0.0
 10
-55.2071760819739
 20
23.41370634121603
 30
0.0
 10
-55.25827802634035
 20
23.44150017568388
 30
0.0
 10
-55.31325861912064
 20
23.46741258238649
 30
0.0
 10
-55.3719025267809
 20
23.49084807544137
 30
0.0
 10
-55.43383678039742
 20
23.51121426963874
 30
0.0
 10
-55.49852714231184
 20
23.52796357703459
 30
0.0
 10
-55.56529092839975
 20
23.54063800161447
 30
0.0
 10
-55.6333276350757
 20
23.54891048358156
 30
0.0
  0
ELLIPSE
  5
70CD
330
1F
100
AcDbEntity
  8
AM_0
100
AcDbEllipse
 10
-54.3533294572769
 20
19.17023425237114
 30
0.0
 11
0.2260730945899063
 21
2.575884791080102
 31
0.0
210
0.0
220
0.0
230
1.0
 40
0.0868811304561617
 41
0.7904602885620791
 42
7.073645595741662
  0
SPLINE
  5
70CE
330
1F
100
AcDbEntity
  8
AM_0
100
AcDbSpline
210
0.0
220
0.0
230
1.0
 70
     8
 71
     1
 72
    85
 73
    83
 74
     0
 42
0.0000000001
 43
0.0000000001
 40
4.799710813384498
 40
4.799710813384498
 40
4.809573252520643
 40
4.819435691656789
 40
4.829298130792933
 40
4.839160569929076
 40
4.849023009065223
 40
4.86232813171135
 40
4.87563325435748
 40
4.888938377003608
 40
4.902243499649737
 40
4.915548622295865
 40
4.938311809969945
 40
4.961074997644026
 40
4.983838185318105
 40
5.006601372992184
 40
5.029364560666263
 40
5.075586068254325
 40
5.121807575842383
 40
5.168029083430443
 40
5.214250591018505
 40
5.260472098606562
 40
5.306693606194624
 40
5.352915113782684
 40
5.399136621370744
 40
5.445358128958804
 40
5.491579636546862
 40
5.537657018302173
 40
5.583734400057483
 40
5.629811781812795
 40
5.675889163568103
 40
5.721966545323413
 40
5.768043927078725
 40
5.814121308834035
 40
5.860198690589344
 40
5.902258797013081
 40
5.944318903436816
 40
5.986379009860552
 40
6.028439116284286
 40
6.070499222708022
 40
6.112559329131759
 40
6.154619435555495
 40
6.19667954197923
 40
6.238037971529437
 40
6.279396401079644
 40
6.320754830629849
 40
6.362113260180056
 40
6.403471689730263
 40
6.444830119280472
 40
6.486188548830677
 40
6.527546978380883
 40
6.569092216245668
 40
6.610637454110455
 40
6.65218269197524
 40
6.693727929840026
 40
6.735273167704811
 40
6.776818405569597
 40
6.818363643434382
 40
6.859908881299167
 40
6.90287668836937
 40
6.945844495439574
 40
6.988812302509777
 40
7.031780109579981
 40
7.074747916650182
 40
7.117715723720387
 40
7.160683530790591
 40
7.203651337860794
 40
7.249003727057524
 40
7.294356116254258
 40
7.33970850545099
 40
7.385060894647722
 40
7.430413283844451
 40
7.475765673041185
 40
7.521118062237918
 40
7.566470451434647
 40
7.611822840631381
 40
7.637629000688598
 40
7.663435160745812
 40
7.689241320803026
 40
7.704725016837357
 40
7.720208712871684
 40
7.735692408906015
 40
7.751176104940342
 40
7.766659800974673
 40
7.766659800974673
 10
-54.33234526186186
 20
22.46134902363122
 30
0.0
 10
-54.29713869089443
 20
22.41665131820992
 30
0.0
 10
-54.26742446219009
 20
22.37470456848582
 30
0.0
 10
-54.24224853254713
 20
22.33549813361822
 30
0.0
 10
-54.22081130464636
 20
22.29891292106447
 30
0.0
 10
-54.20245326966004
 20
22.26477052110909
 30
0.0
 10
-54.18162866827902
 20
22.22221599542713
 30
0.0
 10
-54.16439756744956
 20
22.18321477491185
 30
0.0
 10
-54.14997289270734
 20
22.14727342499833
 30
0.0
 10
-54.13775905660981
 20
22.11394498537124
 30
0.0
 10
-54.12730316130286
 20
22.08283564186065
 30
0.0
 10
-54.11253788731801
 20
22.03380244135787
 30
0.0
 10
-54.10069647964679
 20
21.98888679225292
 30
0.0
 10
-54.09096408016444
 20
21.94701512712879
 30
0.0
 10
-54.08279464720432
 20
21.90736441361543
 30
0.0
 10
-54.07581420608021
 20
21.86930046250075
 30
0.0
 10
-54.06429807607458
 20
21.79497133205178
 30
0.0
 10
-54.05530751648012
 20
21.7223470131916
 30
0.0
 10
-54.04810950070902
 20
21.64960145791742
 30
0.0
 10
-54.0422922207905
 20
21.57556594049504
 30
0.0
 10
-54.03761346792141
 20
21.49948230446995
 30
0.0
 10
-54.03392521873701
 20
21.42085921627433
 30
0.0
 10
-54.03113393913435
 20
21.33938525942392
 30
0.0
 10
-54.02917865052268
 20
21.25487452697957
 30
0.0
 10
-54.02801829384889
 20
21.16723144611951
 30
0.0
 10
-54.02762418225086
 20
21.07642735338533
 30
0.0
 10
-54.02797311375019
 20
20.98278221277576
 30
0.0
 10
-54.02904663587918
 20
20.88607899778396
 30
0.0
 10
-54.030831535939
 20
20.78641004481779
 30
0.0
 10
-54.03331618731908
 20
20.68389293281752
 30
0.0
 10
-54.03648971022818
 20
20.57866603163763
 30
0.0
 10
-54.04034139942449
 20
20.47088505937837
 30
0.0
 10
-54.0448603308701
 20
20.3607203569282
 30
0.0
 10
-54.05003509079303
 20
20.24835467910942
 30
0.0
 10
-54.05532100736802
 20
20.14402785695842
 30
0.0
 10
-54.06113354292022
 20
20.03818176284489
 30
0.0
 10
-54.06746231601629
 20
19.93097545848469
 30
0.0
 10
-54.07429630540161
 20
19.8225726403382
 30
0.0
 10
-54.0816238331655
 20
19.71314094058999
 30
0.0
 10
-54.0894325601268
 20
19.60285128157266
 30
0.0
 10
-54.0977094912812
 20
19.49187727106914
 30
0.0
 10
-54.10644098980362
 20
19.38039462856222
 30
0.0
 10
-54.11545625610973
 20
19.27044774762482
 30
0.0
 10
-54.12488315198111
 20
19.16035000268216
 30
0.0
 10
-54.13470704256518
 20
19.05027139856565
 30
0.0
 10
-54.14491280995344
 20
18.94038194158504
 30
0.0
 10
-54.15548489746693
 20
18.83085116398598
 30
0.0
 10
-54.16640736057671
 20
18.72184764516255
 30
0.0
 10
-54.17766392520582
 20
18.61353852526617
 30
0.0
 10
-54.18923805448661
 20
18.50608900641806
 30
0.0
 10
-54.2011673194919
 20
18.39918368705349
 30
0.0
 10
-54.21338310053942
 20
18.29347188809687
 30
0.0
 10
-54.22586835460093
 20
18.18911189018997
 30
0.0
 10
-54.23860616927753
 20
18.08625770620922
 30
0.0
 10
-54.25157991064043
 20
17.98505839380738
 30
0.0
 10
-54.26477340127689
 20
17.88565729401956
 30
0.0
 10
-54.27817113754223
 20
17.78819117369863
 30
0.0
 10
-54.29175855834818
 20
17.69278924239706
 30
0.0
 10
-54.30599665465503
 20
17.59642015315279
 30
0.0
 10
-54.32041069392277
 20
17.50250981944232
 30
0.0
 10
-54.33499053804883
 20
17.41116669544879
 30
0.0
 10
-54.34972954911329
 20
17.32248328895315
 30
0.0
 10
-54.36462577939199
 20
17.23653304478677
 30
0.0
 10
-54.37968361132011
 20
17.15336630249335
 30
0.0
 10
-54.39491606273042
 20
17.0730049464159
 30
0.0
 10
-54.41034809646305
 20
16.99543517967613
 30
0.0
 10
-54.42689955555398
 20
16.91652226329807
 30
0.0
 10
-54.44379877383521
 20
16.84050986387661
 30
0.0
 10
-54.46116952635264
 20
16.76715418970236
 30
0.0
 10
-54.47920556094743
 20
16.69606967626152
 30
0.0
 10
-54.49821298456829
 20
16.62666576515898
 30
0.0
 10
-54.51868594406062
 20
16.55804554342882
 30
0.0
 10
-54.54144889123745
 20
16.48883804116867
 30
0.0
 10
-54.56794044269134
 20
16.41691237260864
 30
0.0
 10
-54.60082005435828
 20
16.33888059830604
 30
0.0
 10
-54.62421438515912
 20
16.28977486313675
 30
0.0
 10
-54.6529502185001
 20
16.23551841378201
 30
0.0
 10
-54.68966134535309
 20
16.17422202015434
 30
0.0
 10
-54.71719702109481
 20
16.13311132268593
 30
0.0
 10
-54.75044187903813
 20
16.08808649100268
 30
0.0
 10
-54.79122213441804
 20
16.03864506591072
 30
0.0
 10
-54.84198705392896
 20
15.98448079213626
 30
0.0
 10
-54.90594109902975
 20
15.92577788073317
 30
0.0
  0
ELLIPSE
  5
70D0
330
1F
100
AcDbEntity
  8
AM_0
100
AcDbEllipse
 10
-62.06402579623522
 20
29.03322622389948
 30
0.0
 11
0.1556238761695042
 21
1.773183918595578
 31
0.0
210
0.0
220
0.0
230
1.0
 40
0.0868811304561617
 41
5.592619848581398
 42
8.734212502171189
  0
SPLINE
  5
70D1
330
1F
100
AcDbEntity
  8
AM_0
100
AcDbSpline
210
0.0
220
0.0
230
1.0
 70
     8
 71
     3
 72
    18
 73
    14
 74
     0
 42
0.0000000001
 43
0.0000000001
 40
9.28033164244842
 40
9.28033164244842
 40
9.28033164244842
 40
9.28033164244842
 40
9.31735987719081
 40
9.31735987719081
 40
10.01296202430314
 40
10.01296202430314
 40
10.70856417141548
 40
10.70856417141548
 40
11.40416631852782
 40
11.40416631852782
 40
12.09976846564015
 40
12.09976846564015
 40
12.13679670038254
 40
12.13679670038254
 40
12.13679670038254
 40
12.13679670038254
 10
-56.5194692975478
 20
18.63572375986649
 30
0.0
 10
-56.51843086964469
 20
18.64851139241899
 30
0.0
 10
-56.51741240524785
 20
18.66131287901124
 30
0.0
 10
-56.49762162825004
 20
18.91484819730504
 30
0.0
 10
-56.48484581685773
 20
19.15991435339908
 30
0.0
 10
-56.45299336400125
 20
19.64086331404945
 30
0.0
 10
-56.43370640251743
 20
19.87673262374374
 30
0.0
 10
-56.38437148016357
 20
20.32295670297418
 30
0.0
 10
-56.35264178815532
 20
20.54852237977122
 30
0.0
 10
-56.28278277980928
 20
20.98753236416104
 30
0.0
 10
-56.24486203348897
 20
21.20100599502002
 30
0.0
 10
-56.21318792933038
 20
21.41295978892072
 30
0.0
 10
-56.21161045929897
 20
21.42363798760436
 30
0.0
 10
-56.21005834794296
 20
21.43428124214887
 30
0.0
  0
ELLIPSE
  5
70D5
330
1F
100
AcDbEntity
  8
AM_0
100
AcDbEllipse
 10
-56.10167956470537
 20
18.93675397086185
 30
0.0
 11
0.3934311476195335
 21
4.482768333528153
 31
0.0
210
0.0
220
0.0
230
1.0
 40
0.0868811304561617
 41
0.8802308681967176
 42
0.9875036772190334
  0
ELLIPSE
  5
70D6
330
1F
100
AcDbEntity
  8
AM_0
100
AcDbEllipse
 10
-63.09111359461088
 20
18.79357704182474
 30
0.0
 11
-0.1818506633688379
 21
-1.4418840915496
 31
0.0
210
0.0
220
0.0
230
1.0
 40
0.0696421520705625
 41
4.260983755987258
 42
4.929268653359231
  0
SPLINE
  5
70D8
330
1F
100
AcDbEntity
  8
AM_0
100
AcDbSpline
210
0.0
220
0.0
230
1.0
 70
     8
 71
     3
 72
    14
 73
    10
 74
     0
 42
0.0000000001
 43
0.0000000001
 40
2.726505290855667
 40
2.726505290855667
 40
2.726505290855667
 40
2.726505290855667
 40
3.154099996570998
 40
3.154099996570998
 40
3.849702143683386
 40
3.849702143683386
 40
4.545304290795776
 40
4.545304290795776
 40
4.582332525538683
 40
4.582332525538683
 40
4.582332525538683
 40
4.582332525538683
 10
-56.26296460300772
 20
15.07781518912241
 30
0.0
 10
-56.28353550956649
 20
15.00364573038319
 30
0.0
 10
-56.30258621453004
 20
14.93633342305753
 30
0.0
 10
-56.34590722590782
 20
14.77872676249957
 30
0.0
 10
-56.36779405316463
 20
14.6938170797734
 30
0.0
 10
-56.40563109539892
 20
14.56035966634954
 30
0.0
 10
-56.421791467376
 20
14.51181596485179
 30
0.0
 10
-56.44544202572035
 20
14.48239650604609
 30
0.0
 10
-56.44665634588091
 20
14.48096726540609
 30
0.0
 10
-56.44789138564021
 20
14.47959578086318
 30
0.0
  0
ELLIPSE
  5
70D9
330
1F
100
AcDbEntity
  8
AM_0
100
AcDbEllipse
 10
-57.84101065264599
 20
13.10884724839588
 30
0.0
 11
0.9642379517953168
 21
-0.265038058243666
 31
0.0
210
0.0
220
0.0
230
1.0
 40
0.8996693977594349
 41
0.0000000000000171
 42
0.2003451977738724
  0
ELLIPSE
  5
70DA
330
1F
100
AcDbEntity
  8
AM_0
100
AcDbEllipse
 10
-56.00490149671635
 20
19.31518483524939
 30
0.0
 11
0.3715738616406326
 21
4.233725648332148
 31
0.0
210
0.0
220
0.0
230
1.0
 40
0.0868811304561617
 41
2.451027194991533
 42
3.14159265358974
  0
ELLIPSE
  5
70DB
330
1F
100
AcDbEntity
  8
AM_0
100
AcDbEllipse
 10
-63.81931857407153
 20
12.95868808772094
 30
0.0
 11
0.0699433151323615
 21
0.7969365926272274
 31
0.0
210
0.0
220
0.0
230
1.0
 40
0.0868811304561617
 41
0.0431273725619319
 42
0.0948327047992638
  0
ELLIPSE
  5
70DC
330
1F
100
AcDbEntity
  8
AM_0
100
AcDbEllipse
 10
-56.10167956470537
 20
18.93675397086185
 30
0.0
 11
0.3934311476195335
 21
4.482768333528153
 31
0.0
210
0.0
220
0.0
230
1.0
 40
0.0868811304561617
 41
1.645622685171541
 42
3.256431704811505
  0
ELLIPSE
  5
70DD
330
1F
100
AcDbEntity
  8
AM_0
100
AcDbEllipse
 10
-63.97116049953843
 20
12.08929718035888
 30
0.0
 11
0.2404301457674926
 21
2.739469537156093
 31
0.0
210
0.0
220
0.0
230
1.0
 40
0.0868811304561621
 41
5.889322324692941
 42
7.330812321663071
  0
ELLIPSE
  5
70E0
330
1F
100
AcDbEntity
  8
AM_0
100
AcDbEllipse
 10
-61.37266911169525
 20
7.017775917296211
 30
0.0
 11
-3.530871509750848
 21
0.9763142298663842
 31
0.0
210
0.0
220
0.0
230
1.0
 40
0.5236622767976737
 41
0.0841234317452968
 42
0.3381645966909676
  0
ELLIPSE
  5
70E1
330
1F
100
AcDbEntity
  8
AM_0
100
AcDbEllipse
 10
-64.88152270707478
 20
6.876898673128672
 30
0.0
 11
0.2255671913018657
 21
2.570120511222808
 31
0.0
210
0.0
220
0.0
230
1.0
 40
0.0868811304561617
 41
0.4937840052453111
 42
1.578362568994451
  0
ELLIPSE
  5
70E2
330
1F
100
AcDbEntity
  8
AM_0
100
AcDbEllipse
 10
-63.14500558203382
 20
7.17332541698324
 30
0.0
 11
-1.779353262841826
 21
-1.74367819559643
 31
0.0
210
0.0
220
0.0
230
1.0
 40
0.3991575797910714
 41
5.522824529589049
 42
6.32092038543496
  0
SPLINE
  5
70E3
330
1F
100
AcDbEntity
  8
AM_0
100
AcDbSpline
210
0.0
220
0.0
230
1.0
 70
     8
 71
     3
 72
    12
 73
     8
 74
     0
 42
0.0000000001
 43
0.0000000001
 40
1.717671851546747
 40
1.717671851546747
 40
1.717671851546747
 40
1.717671851546747
 40
1.765885894744826
 40
1.765885894744826
 40
2.20198317299225
 40
2.20198317299225
 40
2.290038642716884
 40
2.290038642716884
 40
2.290038642716884
 40
2.290038642716884
 10
-64.89683468118164
 20
5.404093826963453
 30
0.0
 10
-64.89091450687988
 20
5.399094944173562
 30
0.0
 10
-64.88526759320382
 20
5.39430294882181
 30
0.0
 10
-64.83125447649546
 20
5.348307161032274
 30
0.0
 10
-64.79823728044277
 20
5.319398110288553
 30
0.0
 10
-64.7864479005285
 20
5.310248254586505
 30
0.0
 10
-64.7853770290053
 20
5.309574993707379
 30
0.0
 10
-64.78528189341886
 20
5.309605084638924
 30
0.0
  0
ELLIPSE
  5
70E4
330
1F
100
AcDbEntity
  8
AM_0
100
AcDbEllipse
 10
-64.87929079517602
 20
1.773071738447876
 30
0.0
 11
0.0699433151323615
 21
0.7969365926272274
 31
0.0
210
0.0
220
0.0
230
1.0
 40
0.0868811304561617
 41
3.236425358389058
 42
4.632688759984485
  0
SPLINE
  5
70E5
330
1F
100
AcDbEntity
  8
AM_0
100
AcDbSpline
210
0.0
220
0.0
230
1.0
 70
     8
 71
     3
 72
    14
 73
    10
 74
     0
 42
0.0000000001
 43
0.0000000001
 40
-2.664546665281591
 40
-2.664546665281591
 40
-2.664546665281591
 40
-2.664546665281591
 40
-2.63808045123974
 40
-2.63808045123974
 40
-2.201983172992291
 40
-2.201983172992291
 40
-1.765885894744844
 40
-1.765885894744844
 40
-1.717671851544118
 40
-1.717671851544118
 40
-1.717671851544118
 40
-1.717671851544118
 10
-64.8731835992304
 20
7.325384777573739
 30
0.0
 10
-64.87032747719706
 20
7.316812632761475
 30
0.0
 10
-64.86762198392161
 20
7.308291894036309
 30
0.0
 10
-64.82286457281884
 20
7.160779192029118
 30
0.0
 10
-64.80792224848824
 20
7.00561004426215
 30
0.0
 10
-64.822114194356
 20
6.705796613995355
 30
0.0
 10
-64.8521435953553
 20
6.56122115972682
 30
0.0
 10
-64.90303734633915
 20
6.426092871388115
 30
0.0
 10
-64.90837088004695
 20
6.412688649267075
 30
0.0
 10
-64.91397549928684
 20
6.399365019036856
 30
0.0
  0
ELLIPSE
  5
70E6
330
1F
100
AcDbEntity
  8
AM_0
100
AcDbEllipse
 10
-64.88152270707478
 20
6.876898673128672
 30
0.0
 11
0.2255671913018657
 21
2.570120511222808
 31
0.0
210
0.0
220
0.0
230
1.0
 40
0.0868811304561617
 41
1.578362568994436
 42
4.066518445574772
  0
ELLIPSE
  5
70EA
330
1F
100
AcDbEntity
  8
AM_0
100
AcDbEllipse
 10
-69.60759721073907
 20
12.39531469066531
 30
0.0
 11
0.0699433151323543
 21
0.796936592627228
 31
0.0
210
0.0
220
0.0
230
1.0
 40
0.0868811304561618
 41
0.1122903802158279
 42
1.491096106394676
  0
ELLIPSE
  5
70EB
330
1F
100
AcDbEntity
  8
AM_0
100
AcDbEllipse
 10
-64.88375461897357
 20
11.98072560780952
 30
0.0
 11
0.0699433151323615
 21
0.7969365926272274
 31
0.0
210
0.0
220
0.0
230
1.0
 40
0.0868811304561617
 41
0.0948327047993344
 42
1.491096106394727
  0
SPLINE
  5
70EC
330
1F
100
AcDbEntity
  8
AM_0
100
AcDbSpline
210
0.0
220
0.0
230
1.0
 70
     8
 71
     1
 72
    37
 73
    35
 74
     0
 42
0.0000000001
 43
0.0000000001
 40
0.0
 40
0.0
 40
0.2186736776860185
 40
0.4373473553720371
 40
0.6560210330580555
 40
0.8746947107440739
 40
1.093368388430091
 40
1.31204206611611
 40
1.530715743802129
 40
1.749389421488147
 40
1.968063099174166
 40
2.186736776860183
 40
2.405410454546203
 40
2.62408413223222
 40
2.84275780991824
 40
3.061431487604258
 40
3.280105165290276
 40
3.478957230766051
 40
3.677809296241825
 40
3.876661361717598
 40
4.075513427193373
 40
4.274365492669146
 40
4.473217558144919
 40
4.672069623620693
 40
4.870921689096467
 40
5.069773754572241
 40
5.268625820048016
 40
5.467477885523789
 40
5.666329950999562
 40
5.865182016475337
 40
6.064034081951112
 40
6.262886147426883
 40
6.461738212902659
 40
6.605143968085942
 40
6.748549723269227
 40
6.891955478452513
 40
6.891955478452513
 10
-56.87677270085067
 20
12.84380919015218
 30
0.0
 10
-56.9118816398979
 20
12.72438932451479
 30
0.0
 10
-56.9515927209315
 20
12.60474663165417
 30
0.0
 10
-56.99586592486355
 20
12.48487603610539
 30
0.0
 10
-57.04466123260613
 20
12.36477246240349
 30
0.0
 10
-57.09793862507126
 20
12.24443083508361
 30
0.0
 10
-57.15565808317103
 20
12.12384607868079
 30
0.0
 10
-57.21777958781752
 20
12.00301311773017
 30
0.0
 10
-57.28426311992279
 20
11.88192687676672
 30
0.0
 10
-57.35506866039894
 20
11.76058228032566
 30
0.0
 10
-57.43015619015807
 20
11.63897425294193
 30
0.0
 10
-57.50948569011217
 20
11.51709771915075
 30
0.0
 10
-57.59301714117339
 20
11.39494760348696
 30
0.0
 10
-57.68071052425368
 20
11.27251883048598
 30
0.0
 10
-57.77252582026529
 20
11.14980632468262
 30
0.0
 10
-57.86842301012011
 20
11.02680501061207
 30
0.0
 10
-57.95939598861725
 20
10.91448488974442
 30
0.0
 10
-58.05416425877121
 20
10.80154472653209
 30
0.0
 10
-58.15264711916791
 20
10.68806057397978
 30
0.0
 10
-58.25476386839307
 20
10.57410848509215
 30
0.0
 10
-58.36043380503269
 20
10.45976451287379
 30
0.0
 10
-58.46957622767263
 20
10.34510471032934
 30
0.0
 10
-58.58211043489859
 20
10.2302051304635
 30
0.0
 10
-58.69795572529648
 20
10.11514182628087
 30
0.0
 10
-58.81703139745218
 20
9.99999085078611
 30
0.0
 10
-58.93925674995159
 20
9.884828256983785
 30
0.0
 10
-59.06455108138039
 20
9.769730097878671
 30
0.0
 10
-59.19283369032462
 20
9.654772426475295
 30
0.0
 10
-59.32402387537003
 20
9.540031295778426
 30
0.0
 10
-59.45804093510247
 20
9.425582758792534
 30
0.0
 10
-59.59480416810778
 20
9.311502868522387
 30
0.0
 10
-59.7342328729719
 20
9.197867677972574
 30
0.0
 10
-59.83643845495305
 20
9.116176155736932
 30
0.0
 10
-59.94003414066736
 20
9.034669289905373
 30
0.0
 10
-60.04496809943987
 20
8.953384329198861
 30
0.0
  0
ELLIPSE
  5
70ED
330
1F
100
AcDbEntity
  8
AM_0
100
AcDbEllipse
 10
-74.33125280448064
 20
12.38228584115536
 30
0.0
 11
0.1049149726985262
 21
1.195404888940841
 31
0.0
210
0.0
220
0.0
230
0.9999999999999998
 40
0.0868811304561585
 41
0.1592032923256483
 42
1.491096106394681
  0
ELLIPSE
  5
70EE
330
1F
100
AcDbEntity
  8
AM_0
100
AcDbEllipse
 10
-75.30241654219526
 20
2.133842753578401
 30
0.0
 11
0.1049149726985255
 21
1.195404888940841
 31
0.0
210
0.0
220
0.0
230
0.9999999999999998
 40
0.0868811304561629
 41
1.491096106394775
 42
3.141592653589786
  0
ELLIPSE
  5
70EF
330
1F
100
AcDbEntity
  8
AM_0
100
AcDbEllipse
 10
-65.94372684007804
 20
0.7951092585364644
 30
0.0
 11
0.0699433151323615
 21
0.7969365926272274
 31
0.0
210
0.0
220
0.0
230
1.0
 40
0.0868811304561617
 41
1.491096106394708
 42
3.236425358389056
  0
ELLIPSE
  5
70F0
330
1F
100
AcDbEntity
  8
AM_0
100
AcDbEllipse
 10
-70.6675694318435
 20
1.209698341392262
 30
0.0
 11
0.0699433151323543
 21
0.796936592627228
 31
0.0
210
0.0
220
0.0
230
1.0
 40
0.0868811304561618
 41
1.49109610639466
 42
3.14159265358974
  0
ELLIPSE
  5
70F1
330
1F
100
AcDbEntity
  8
AM_0
100
AcDbEllipse
 10
-62.78876265685807
 20
19.91057190032774
 30
0.0
 11
0.3715738616406704
 21
4.233725648332145
 31
0.0
210
0.0
220
0.0
230
1.0
 40
0.0868811304561618
 41
6.104125306362522
 42
8.340762334091706
  0
ELLIPSE
  5
70F4
330
1F
100
AcDbEntity
  8
AM_0
100
AcDbEllipse
 10
-55.97915262968093
 20
19.69984959306317
 30
0.0
 11
0.3934311476195335
 21
4.482768333528153
 31
0.0
210
0.0
220
0.0
230
1.0
 40
0.0868811304561617
 41
5.73722388418145
 42
7.163416175376287
  0
ELLIPSE
  5
70F5
330
1F
100
AcDbEntity
  8
AM_0
100
AcDbEllipse
 10
-56.00490149671635
 20
19.31518483524939
 30
0.0
 11
0.3715738616406326
 21
4.233725648332148
 31
0.0
210
0.0
220
0.0
230
1.0
 40
0.0868811304561617
 41
-0.000000000000052
 42
2.451027194991548
  0
SPLINE
  5
70F6
330
1F
100
AcDbEntity
  8
AM_0
100
AcDbSpline
210
0.0
220
0.0
230
1.0
 70
     8
 71
     1
 72
    17
 73
    15
 74
     0
 42
0.0000000001
 43
0.0000000001
 40
4.712388980384688
 40
4.712388980384688
 40
4.71821043591801
 40
4.72403189145133
 40
4.729853346984651
 40
4.735674802517971
 40
4.741496258051292
 40
4.747317713584611
 40
4.753139169117932
 40
4.758960624651253
 40
4.764782080184573
 40
4.770603535717893
 40
4.776424991251214
 40
4.782246446784535
 40
4.790978630084516
 40
4.799710813384496
 40
4.799710813384496
 10
-56.37647535835703
 20
15.08145918691725
 30
0.0
 10
-56.30803780418677
 20
15.07775397539887
 30
0.0
 10
-56.2400869418575
 20
15.07860513926476
 30
0.0
 10
-56.17346800721175
 20
15.08383005740035
 30
0.0
 10
-56.10893302543171
 20
15.09309665136897
 30
0.0
 10
-56.04710345054286
 20
15.10595876276084
 30
0.0
 10
-55.98844973644361
 20
15.12189802955573
 30
0.0
 10
-55.9332876516289
 20
15.14036557815707
 30
0.0
 10
-55.88178836280565
 20
15.1608182922214
 30
0.0
 10
-55.83399785447307
 20
15.18274661015705
 30
0.0
 10
-55.789861093485
 20
15.20569296301131
 30
0.0
 10
-55.74924709197012
 20
15.22926158915117
 30
0.0
 10
-55.71197217396543
 20
15.25312138485793
 30
0.0
 10
-55.66184221185835
 20
15.28888528991769
 30
0.0
 10
-55.617946132962
 20
15.32404084138131
 30
0.0
  0
LINE
  5
70F7
330
1F
100
AcDbEntity
  8
AM_0
100
AcDbLine
 10
-91.08291025419369
 20
31.99819632216685
 30
0.0
 11
-62.00043900657647
 21
31.99819632216684
 31
0.0
  0
LINE
  5
70F8
330
1F
100
AcDbEntity
  8
AM_0
100
AcDbLine
 10
-64.82068183759236
 20
12.77465677514721
 30
0.0
 11
-69.35795970126156
 21
13.17287196365487
 31
0.0
  0
LINE
  5
70FA
330
1F
100
AcDbEntity
  8
AM_0
100
AcDbLine
 10
-74.30628815488728
 20
13.56899447656406
 30
0.0
 11
-64.78564223505355
 21
12.80684980051348
 31
0.0
  0
LINE
  5
70FB
330
1F
100
AcDbEntity
  8
AM_0
100
AcDbLine
 10
-66.01367015521038
 20
-0.0018273340908114
 30
0.0
 11
-70.73751274697588
 21
0.4127617487649874
 31
0.0
  0
LINE
  5
70FD
330
1F
100
AcDbEntity
  8
AM_0
100
AcDbLine
 10
-64.10417531295728
 20
19.99819632216684
 30
0.0
 11
-91.08291025419369
 21
19.99819632216685
 31
0.0
  0
LINE
  5
70FE
330
1F
100
AcDbEntity
  8
AM_0
100
AcDbLine
 10
-91.08291025419369
 20
19.99819632216685
 30
0.0
 11
-91.08291025419369
 21
31.99819632216685
 31
0.0
  0
LINE
  5
70FF
330
1F
100
AcDbEntity
  8
AM_0
100
AcDbLine
 10
-69.6710475747268
 20
12.46482095482538
 30
0.0
 11
-70.73101979583123
 21
1.279204605552316
 31
0.0
  0
LINE
  5
7100
330
1F
100
AcDbEntity
  8
AM_0
100
AcDbLine
 10
-74.42642835046223
 20
12.48654523739555
 30
0.0
 11
-75.39759208817684
 21
2.238102149818425
 31
0.0
  0
LINE
  5
7101
330
1F
100
AcDbEntity
  8
AM_0
100
AcDbLine
 10
-91.08291025419369
 20
2.217657808951297
 30
0.0
 11
-91.08291025419369
 21
19.99819632216685
 31
0.0
  0
LINE
  5
7103
330
1F
100
AcDbEntity
  8
AM_0
100
AcDbLine
 10
-75.44704903215325
 20
1.1379899205378
 30
0.0
 11
-91.08291025419369
 21
1.137989920537802
 31
0.0
  0
LINE
  5
7104
330
1F
100
AcDbEntity
  8
AM_0
100
AcDbLine
 10
-91.08291025419369
 20
1.137989920537802
 30
0.0
 11
-91.08291025419369
 21
2.217657808951297
 31
0.0
  0
LINE
  5
7106
330
1F
100
AcDbEntity
  8
AM_0
100
AcDbLine
 10
-70.7632459889668
 20
0.5308486781870644
 30
0.0
 11
-75.40733151489383
 21
0.9384378646375443
 31
0.0
  0
LINE
  5
7108
330
1F
100
AcDbEntity
  8
AM_0
100
AcDbLine
 10
-69.55959005329749
 20
13.16269995728078
 30
0.0
 11
-72.9708935566632
 21
13.4620937586891
 31
0.0
  0
LINE
  5
7109
330
1F
100
AcDbEntity
  8
AM_0
100
AcDbLine
 10
-74.34804430076805
 20
13.12835252506063
 30
0.0
 11
-74.30628815488728
 21
13.56899447656406
 31
0.0
  0
LINE
  5
710A
330
1F
100
AcDbEntity
  8
AM_0
100
AcDbLine
 10
17.93414078869268
 20
30.39153643141776
 30
0.0
 11
27.91776371047774
 21
22.06647087289149
 31
0.0
  0
LINE
  5
710B
330
1F
100
AcDbEntity
  8
AM_0
100
AcDbLine
 10
14.56035317772
 20
32.00000032216684
 30
0.0
 11
2.558549177720126
 21
19.9981963221669
 31
0.0
  0
LINE
  5
710C
330
1F
100
AcDbEntity
  8
AM_0
100
AcDbLine
 10
19.3277915032603
 20
31.9981963221669
 30
0.0
 11
30.80063160053225
 21
20.5539948560783
 31
0.0
  0
LINE
  5
710D
330
1F
100
AcDbEntity
  8
AM_0
100
AcDbLine
 10
30.8006316005322
 20
20.55399485607825
 30
0.0
 11
30.8006316005322
 21
32.00000032216684
 31
0.0
  0
LINE
  5
710E
330
1F
100
AcDbEntity
  8
AM_0
100
AcDbLine
 10
31.99999996647238
 20
32.00000032216689
 30
0.0
 11
31.99999996647238
 21
7.000000322166836
 31
0.0
  0
LINE
  5
710F
330
1F
100
AcDbEntity
  8
AM_0
100
AcDbLine
 10
27.76441234121227
 20
21.87719169178433
 30
0.0
 11
17.78078941942715
 21
30.20225725031059
 31
0.0
  0
LINE
  5
7111
330
1F
100
AcDbEntity
  8
AM_0
100
AcDbLine
 10
-61.84592785189175
 20
30.39153643141783
 30
0.0
 11
-61.82492382198677
 21
29.17195019268462
 31
0.0
  0
LINE
  5
7112
330
1F
100
AcDbEntity
  8
AM_0
100
AcDbLine
 10
-61.58291025419367
 20
31.99819632216684
 30
0.0
 11
-61.58291025419367
 21
29.15070981873886
 31
0.0
  0
LINE
  5
7113
330
1F
100
AcDbEntity
  8
AM_0
100
AcDbLine
 10
-62.00043900657647
 20
31.99819632216684
 30
0.0
 11
-64.10417531295728
 21
19.99819632216684
 31
0.0
  0
DIMENSION
  5
7114
330
1F
100
AcDbEntity
  8
AM_5
100
AcDbDimension
  2
*D6
 10
-15.49102151202935
 20
32.00000032216684
 30
0.0
 11
-18.89139552777739
 21
16.00000016108342
 31
0.0
 70
    32
  1
<>
 71
     5
 42
32.00000032216684
  3
AM_JIS$0
100
AcDbAlignedDimension
 13
0.7475473259099772
 23
-0.0000000000000001
 33
0.0
 14
14.56035317772
 24
32.00000032216684
 34
0.0
 50
270.0
100
AcDbRotatedDimension
1001
GENIUS_GENDTOL_13
1000

1000
h7
1000

1040
0.0
1001
ACAD
1000
DSTYLE
1002
{
1070
   271
1070
     6
1002
}
  0
LINE
  5
7118
330
1F
100
AcDbEntity
  8
AM_0
100
AcDbLine
 10
-63.03764481741193
 20
5.584883714433154
 30
0.0
 11
-62.93958838037474
 21
6.728350764132025
 31
0.0
  0
LINE
  5
711A
330
1F
100
AcDbEntity
  8
AM_0
100
AcDbLine
 10
-60.04496809943987
 20
8.953384329198861
 30
0.0
 11
-64.78528189341893
 21
5.309605084638924
 31
0.0
  0
LINE
  5
711B
330
1F
100
AcDbEntity
  8
AM_0
100
AcDbLine
 10
-66.00717720406573
 20
0.8646155226965188
 30
0.0
 11
-64.94720498296124
 21
12.05023187196958
 31
0.0
  0
LINE
  5
711C
330
1F
100
AcDbEntity
  8
AM_0
100
AcDbLine
 10
-64.94236357655721
 20
0.9791405711102434
 30
0.0
 11
-66.00679962145921
 21
0.0011780911988321
 31
0.0
  0
LINE
  5
711D
330
1F
100
AcDbEntity
  8
AM_0
100
AcDbLine
 10
-63.34116006414536
 20
3.390427550680505
 30
0.0
 11
-63.03764481741189
 21
5.584883714433154
 31
0.0
  0
LINE
  5
711E
330
1F
100
AcDbEntity
  8
AM_0
100
AcDbLine
 10
-64.4496787612087
 20
5.567576134806594
 30
0.0
 11
-64.78138084885053
 21
2.067208652771519
 31
0.0
  0
LINE
  5
711F
330
1F
100
AcDbEntity
  8
AM_0
100
AcDbLine
 10
-64.4496787612087
 20
5.567576134806594
 30
0.0
 11
-64.81584043118835
 21
1.703565474287821
 31
0.0
  0
LINE
  5
7120
330
1F
100
AcDbEntity
  8
AM_0
100
AcDbLine
 10
-64.78531271484621
 20
5.309599375242108
 30
0.0
 11
-65.19560824399525
 21
5.345609052496406
 31
0.0
  0
LINE
  5
7121
330
1F
100
AcDbEntity
  8
AM_0
100
AcDbLine
 10
-64.78138084885053
 20
2.067208652771519
 30
0.0
 11
-63.34116006414536
 21
3.390427550680505
 31
0.0
  0
LINE
  5
7125
330
1F
100
AcDbEntity
  8
AM_0
100
AcDbLine
 10
-56.88790085451468
 20
15.30333719831952
 30
0.0
 11
-56.5194692975478
 21
18.63572375986644
 31
0.0
  0
LINE
  5
7126
330
1F
100
AcDbEntity
  8
AM_0
100
AcDbLine
 10
-64.10417531295728
 20
19.99819632216684
 30
0.0
 11
-64.78564223505362
 21
12.80684980051314
 31
0.0
  0
LINE
  5
7127
330
1F
100
AcDbEntity
  8
AM_0
100
AcDbLine
 10
-63.22830837949618
 20
18.49567524277422
 30
0.0
 11
-63.98292828281569
 21
11.67029566454284
 31
0.0
  0
LINE
  5
712A
330
1F
100
AcDbEntity
  8
AM_0
100
AcDbLine
 10
-64.54133517842469
 20
11.38696331134361
 30
0.0
 11
-64.93401258361149
 21
7.835278111410225
 31
0.0
  0
LINE
  5
712B
330
1F
100
AcDbEntity
  8
AM_0
100
AcDbLine
 10
-63.98292828281569
 20
11.67029566454284
 30
0.0
 11
-64.54133517842469
 21
11.38696331134361
 31
0.0
  0
LINE
  5
712D
330
1F
100
AcDbEntity
  8
AM_0
100
AcDbLine
 10
-63.75624579269038
 20
13.75261925505863
 30
0.0
 11
-64.01336679294614
 21
13.77518553613339
 31
0.0
  0
LINE
  5
712E
330
1F
100
AcDbEntity
  8
AM_0
100
AcDbLine
 10
-63.75234368901464
 20
13.75588520526589
 30
0.0
 11
-64.01281301682167
 21
13.77874535304385
 31
0.0
  0
LINE
  5
712F
330
1F
100
AcDbEntity
  8
AM_0
100
AcDbLine
 10
-64.78564223505362
 20
12.80684980051314
 30
0.0
 11
-64.05720710524838
 21
13.4761076947857
 31
0.0
  0
LINE
  5
7130
330
1F
100
AcDbEntity
  8
AM_0
100
AcDbLine
 10
-64.82068183759236
 20
12.77465677514715
 30
0.0
 11
-63.75624579269038
 21
13.75261925505857
 31
0.0
  0
LINE
  5
7132
330
1F
100
AcDbEntity
  8
AM_0
100
AcDbLine
 10
-54.90594109902975
 20
15.92577788073306
 30
0.0
 11
-55.61794613296207
 21
15.32404084138131
 31
0.0
  0
LINE
  5
7133
330
1F
100
AcDbEntity
  8
AM_0
100
AcDbLine
 10
-56.84860674681296
 20
13.02174870157746
 30
0.0
 11
-56.88790085451468
 21
15.30333719831959
 31
0.0
  0
LINE
  5
7134
330
1F
100
AcDbEntity
  8
AM_0
100
AcDbLine
 10
-56.44789138564021
 20
14.47959578086318
 30
0.0
 11
-56.84860674681296
 21
13.0217487015774
 31
0.0
  0
LINE
  5
7135
330
1F
100
AcDbEntity
  8
AM_0
100
AcDbLine
 10
-56.37913154347273
 20
14.6542831028384
 30
0.0
 11
-56.87677270085067
 21
12.84380919015218
 31
0.0
  0
LINE
  5
7136
330
1F
100
AcDbEntity
  8
AM_0
100
AcDbLine
 10
-56.37647535835703
 20
15.08145918691725
 30
0.0
 11
-56.63908944224772
 21
15.10450756968407
 31
0.0
  0
LINE
  5
7138
330
1F
100
AcDbEntity
  8
AM_0
100
AcDbLine
 10
-56.71786141225835
 20
28.72372773831507
 30
0.0
 11
-62.20355568269742
 21
29.20518090112217
 31
0.0
  0
LINE
  5
713B
330
1F
100
AcDbEntity
  8
AM_0
100
AcDbLine
 10
-61.81287771336752
 20
27.4634857060878
 30
0.0
 11
-63.10214255107791
 21
19.4339667001729
 31
0.0
  0
LINE
  5
713F
330
1F
100
AcDbEntity
  8
AM_0
100
AcDbLine
 10
-62.23337944698972
 20
24.84460821607906
 30
0.0
 11
-62.28212374057864
 21
27.67491601638114
 31
0.0
  0
LINE
  5
7140
330
1F
100
AcDbEntity
  8
AM_0
100
AcDbLine
 10
-62.04837716671147
 20
27.48415436734779
 30
0.0
 11
-62.02524292786705
 21
26.14087884042045
 31
0.0
  0
LINE
  5
7141
330
1F
100
AcDbEntity
  8
AM_0
100
AcDbLine
 10
-62.04837716671147
 20
27.48415436734779
 30
0.0
 11
-61.81287771336747
 21
27.4634857060878
 31
0.0
  0
LINE
  5
7142
330
1F
100
AcDbEntity
  8
AM_0
100
AcDbLine
 10
-62.28246055591142
 20
27.69705939979958
 30
0.0
 11
-62.04837716671147
 21
27.48415436734779
 31
0.0
  0
LINE
  5
7144
330
1F
100
AcDbEntity
  8
AM_0
100
AcDbLine
 10
-55.36039926938189
 20
27.09882380691136
 30
0.0
 11
-55.29773907568789
 21
23.46049771942547
 31
0.0
  0
LINE
  5
7145
330
1F
100
AcDbEntity
  8
AM_0
100
AcDbLine
 10
-55.34922753330785
 20
27.25530118510875
 30
0.0
 11
-55.28376060706428
 21
23.45400387692063
 31
0.0
  0
LINE
  5
7146
330
1F
100
AcDbEntity
  8
AM_0
100
AcDbLine
 10
-56.07768138404356
 20
22.63160326089308
 30
0.0
 11
-55.36039926938189
 21
27.09882380691131
 31
0.0
  0
LINE
  5
7147
330
1F
100
AcDbEntity
  8
AM_0
100
AcDbLine
 10
-54.33234526186192
 20
22.46134902363127
 30
0.0
 11
-54.92864957030729
 21
23.17791011984168
 31
0.0
  0
LINE
  5
7148
330
1F
100
AcDbEntity
  8
AM_0
100
AcDbLine
 10
-55.6333276350757
 20
23.54891048358156
 30
0.0
 11
-55.84081268315708
 21
23.56712045440913
 31
0.0
  0
LINE
  5
7149
330
1F
100
AcDbEntity
  8
AM_0
100
AcDbLine
 10
-56.21005834794296
 20
21.43428124214887
 30
0.0
 11
-56.07768138404356
 21
22.63160326089308
 31
0.0
  0
LINE
  5
714A
330
1F
100
AcDbEntity
  8
AM_0
100
AcDbLine
 10
-56.15130986880696
 20
21.81850743342858
 30
0.0
 11
-56.02878293378257
 21
22.58160305562995
 31
0.0
  0
ARC
  5
7151
330
1F
100
AcDbEntity
  8
AM_0
100
AcDbCircle
 10
-56.84900512813161
 20
27.22947162713897
 30
0.0
 40
1.5
100
AcDbArc
 50
0.9866652037097798
 51
84.98427524125258
  0
DIMENSION
  5
7153
330
1F
100
AcDbEntity
  8
AM_5
100
AcDbDimension
  2
*D7
 10
0.8713301062376784
 20
0.0011516365937324
 30
0.0
 11
8.994562430309379
 21
-8.317077820987176
 31
0.0
 70
    34
  1
<>
 71
     5
 42
1.658062789454401
  3
AM_JIS$2
100
AcDb2LineAngularDimension
 13
0.0
 23
0.0
 33
0.0
 14
-0.0000000000000003
 24
-2.414925130565109
 34
0.0
 15
12.02751318337317
 25
0.9771911847349469
 35
0.0
 16
8.189477234691132
 26
-13.3522447450622
 36
0.0
1001
GENIUS_GENDTOL_13
1000

1000
h7
1000

1040
0.0
1001
ACAD
1000
DSTYLE
1002
{
1070
   271
1070
     0
1002
}
  0
LINE
  5
7155
330
1F
100
AcDbEntity
  8
AM_0
100
AcDbLine
 10
14.66459375384049
 20
-54.11575346630627
 30
0.0
 11
16.13005790615215
 21
-53.83278963062901
 31
0.0
  0
LINE
  5
7156
330
1F
100
AcDbEntity
  8
AM_0
100
AcDbLine
 10
15.46780366565166
 20
-54.23517747121088
 30
0.0
 11
14.66459375384055
 21
-54.11575346630627
 31
0.0
  0
LINE
  5
7157
330
1F
100
AcDbEntity
  8
AM_0
100
AcDbLine
 10
17.27737424987781
 20
-56.04677556389692
 30
0.0
 11
14.16167897698522
 21
-56.44749092506963
 31
0.0
  0
LINE
  5
715A
330
1F
100
AcDbEntity
  8
AM_0
100
AcDbLine
 10
13.68874318138175
 20
-54.50398378218387
 30
0.0
 11
13.08686080625414
 21
-55.21581907709856
 31
0.0
  0
LINE
  5
715B
330
1F
100
AcDbEntity
  8
AM_0
100
AcDbLine
 10
12.84405024141976
 20
-55.97443907336121
 30
0.0
 11
12.86673904090081
 21
-56.2336029804772
 31
0.0
  0
LINE
  5
715C
330
1F
100
AcDbEntity
  8
AM_0
100
AcDbLine
 10
11.42554205962163
 20
-56.48678503277135
 30
0.0
 11
12.29324358263669
 21
-56.11835347580448
 31
0.0
  0
LINE
  5
715D
330
1F
100
AcDbEntity
  8
AM_0
100
AcDbLine
 10
14.16167897698527
 20
-56.44749092506959
 30
0.0
 11
11.42554205962169
 21
-56.48678503277135
 31
0.0
  0
LINE
  5
715E
330
1F
100
AcDbEntity
  8
AM_0
100
AcDbLine
 10
11.12158949400076
 20
-56.55872762925429
 30
0.0
 11
12.84171611800399
 21
-55.8283509807731
 31
0.0
  0
LINE
  5
715F
330
1F
100
AcDbEntity
  8
AM_0
100
AcDbLine
 10
24.72820826236789
 20
-54.84899388296833
 30
0.0
 11
21.01341826591827
 21
-55.56627599762993
 31
0.0
  0
LINE
  5
7160
330
1F
100
AcDbEntity
  8
AM_0
100
AcDbLine
 10
21.22414457429373
 20
-54.8993163120395
 30
0.0
 11
24.72820826236789
 21
-54.84899388296827
 31
0.0
  0
LINE
  5
7162
330
1F
100
AcDbEntity
  8
AM_0
100
AcDbLine
 10
21.21973111453154
 20
-54.88970245001786
 30
0.0
 11
24.83699043493186
 21
-54.83775440004308
 31
0.0
  0
LINE
  5
7163
330
1F
100
AcDbEntity
  8
AM_0
100
AcDbLine
 10
25.65871376253533
 20
-61.73763148476393
 30
0.0
 11
22.83547100807304
 21
-61.77817653357276
 31
0.0
  0
LINE
  5
7164
330
1F
100
AcDbEntity
  8
AM_0
100
AcDbLine
 10
18.79859169206143
 20
-62.55765029526314
 30
0.0
 11
25.47566898703893
 21
-61.26838545755282
 31
0.0
  0
LINE
  5
7167
330
1F
100
AcDbEntity
  8
AM_0
100
AcDbLine
 10
21.36269821991003
 20
-62.0625515805927
 30
0.0
 11
21.37868248827237
 21
-62.24513265742013
 31
0.0
  0
LINE
  5
7168
330
1F
100
AcDbEntity
  8
AM_0
100
AcDbLine
 10
21.27901202912055
 20
-62.07871039655667
 30
0.0
 11
21.29532406869633
 21
-62.26503545588872
 31
0.0
  0
LINE
  5
7169
330
1F
100
AcDbEntity
  8
AM_0
100
AcDbLine
 10
20.1883389747461
 20
-62.46782657461193
 30
0.0
 11
20.17297002948872
 21
-62.29227405564875
 31
0.0
  0
LINE
  5
716A
330
1F
100
AcDbEntity
  8
AM_0
100
AcDbLine
 10
18.39873197027491
 20
-53.66924979985634
 30
0.0
 11
19.20194188208602
 21
-53.7886738047609
 31
0.0
  0
LINE
  5
716B
330
1F
100
AcDbEntity
  8
AM_0
100
AcDbLine
 10
18.39873197027491
 20
-53.66924979985634
 30
0.0
 11
18.42236514457754
 21
-53.93920087395071
 31
0.0
  0
LINE
  5
716C
330
1F
100
AcDbEntity
  8
AM_0
100
AcDbLine
 10
19.20194188208602
 20
-53.7886738047609
 30
0.0
 11
17.73647772977442
 21
-54.07163764043815
 31
0.0
  0
LINE
  5
716D
330
1F
100
AcDbEntity
  8
AM_0
100
AcDbLine
 10
16.13005790615215
 20
-53.83278963062901
 30
0.0
 11
16.16091130388126
 21
-54.18521405528617
 31
0.0
  0
LINE
  5
716E
330
1F
100
AcDbEntity
  8
AM_0
100
AcDbLine
 10
16.13005790615215
 20
-53.83278963062901
 30
0.0
 11
18.39873197027491
 21
-53.66924979985634
 31
0.0
  0
LINE
  5
716F
330
1F
100
AcDbEntity
  8
AM_0
100
AcDbLine
 10
17.73647772977442
 20
-54.07163764043815
 30
0.0
 11
15.46780366565166
 21
-54.23517747121088
 31
0.0
  0
LINE
  5
7170
330
1F
100
AcDbEntity
  8
AM_0
100
AcDbLine
 10
21.31166290574565
 20
-55.23313227658485
 30
0.0
 11
21.32853305139257
 21
-55.42583232945077
 31
0.0
  0
LINE
  5
7171
330
1F
100
AcDbEntity
  8
AM_0
100
AcDbLine
 10
20.85411750872367
 20
-55.52840650383604
 30
0.0
 11
20.21955291660498
 21
-55.65093343886043
 31
0.0
  0
LINE
  5
7172
330
1F
100
AcDbEntity
  8
AM_0
100
AcDbLine
 10
21.01341826591822
 20
-55.56627599762993
 30
0.0
 11
19.89395313633882
 21
-55.71025248904827
 31
0.0
  0
LINE
  5
7173
330
1F
100
AcDbEntity
  8
AM_0
100
AcDbLine
 10
20.22431241031512
 20
-53.93181992889111
 30
0.0
 11
20.94072778468142
 21
-54.52824334555679
 31
0.0
  0
LINE
  5
7175
330
1F
100
AcDbEntity
  8
AM_0
100
AcDbLine
 10
26.35281454587437
 20
-56.20678089522796
 30
0.0
 11
26.83121889933562
 21
-61.67137771216374
 31
0.0
  0
LINE
  5
7176
330
1F
100
AcDbEntity
  8
AM_0
100
AcDbLine
 10
26.80023692195361
 20
-61.3174845802157
 30
0.0
 11
27.91776371047773
 21
-61.30143559607706
 31
0.0
  0
LINE
  5
7177
330
1F
100
AcDbEntity
  8
AM_0
100
AcDbLine
 10
26.78835777339293
 20
-61.18179443245037
 30
0.0
 11
30.80063160053224
 21
-61.18179443245038
 31
0.0
  0
LINE
  5
7178
330
1F
100
AcDbEntity
  8
AM_0
100
AcDbLine
 10
27.337880263611
 20
-61.61974172812126
 30
0.0
 11
26.82734025204955
 21
-61.62707367634101
 31
0.0
  0
LINE
  5
7179
330
1F
100
AcDbEntity
  8
AM_0
100
AcDbLine
 10
25.47566898703893
 20
-61.26838545755282
 30
0.0
 11
25.4962860549566
 21
-61.50388491089683
 31
0.0
  0
LINE
  5
717A
330
1F
100
AcDbEntity
  8
AM_0
100
AcDbLine
 10
25.49628605495666
 20
-61.50388491089678
 30
0.0
 11
25.67670996440387
 21
-61.73735573143313
 31
0.0
  0
LINE
  5
717B
330
1F
100
AcDbEntity
  8
AM_0
100
AcDbLine
 10
24.15636362735488
 20
-61.52312775501325
 30
0.0
 11
25.49628605495666
 21
-61.50388491089678
 31
0.0
  0
LINE
  5
717C
330
1F
100
AcDbEntity
  8
AM_0
100
AcDbLine
 10
30.02985421097985
 20
-62.73946337952851
 30
0.0
 11
31.14634059069833
 21
-62.4719979483835
 31
0.0
  0
LINE
  5
717D
330
1F
100
AcDbEntity
  8
AM_0
100
AcDbLine
 10
31.14634059069833
 20
-62.4719979483835
 30
0.0
 11
30.8006316005322
 21
-61.18179443245038
 31
0.0
  0
ARC
  5
717F
330
1F
100
AcDbEntity
  8
AM_0
100
AcDbCircle
 10
24.85852995805207
 20
-56.33759974171801
 30
0.0
 40
1.499999999999999
100
AcDbArc
 50
5.003268080820584
 51
90.82277745618002
  0
LINE
  5
7180
330
1F
100
AcDbEntity
  8
AM_0
100
AcDbLine
 10
31.99999996647238
 20
7.000000322166836
 30
0.0
 11
31.13993759069836
 21
5.50852458964783
 31
0.0
  0
LINE
  5
7181
330
1F
100
AcDbEntity
  8
AM_0
100
AcDbLine
 10
31.14634059069834
 20
5.50852458964783
 30
0.0
 11
30.8006316005322
 21
20.55399485607825
 31
0.0
  0
LINE
  5
7182
330
1F
100
AcDbEntity
  8
AM_0
100
AcDbLine
 10
13.29387322911748
 20
8.259223809795456
 30
0.0
 11
12.79899546887901
 21
2.067208652771453
 31
0.0
  0
LINE
  5
7183
330
1F
100
AcDbEntity
  8
AM_0
100
AcDbLine
 10
13.29387322911742
 20
8.259223809795511
 30
0.0
 11
12.76993240667212
 21
1.703565474287754
 31
0.0
  0
LINE
  5
7186
330
1F
100
AcDbEntity
  8
AM_0
100
AcDbLine
 10
8.057120671247048
 20
5.513717575015447
 30
0.0
 11
11.377854500848
 21
7.067503067675259
 31
0.0
  0
LINE
  5
7187
330
1F
100
AcDbEntity
  8
AM_0
100
AcDbLine
 10
0.0028800086967068
 20
0.8646155226965673
 30
0.0
 11
0.8968559802406176
 21
12.05023187196957
 31
0.0
  0
LINE
  5
7188
330
1F
100
AcDbEntity
  8
AM_0
100
AcDbLine
 10
12.79899546887901
 20
2.067208652771453
 30
0.0
 11
30.02349984895853
 21
3.574157519376565
 31
0.0
  0
LINE
  5
7189
330
1F
100
AcDbEntity
  8
AM_0
100
AcDbLine
 10
12.05095341815547
 20
0.979140571110234
 30
0.0
 11
0.8727911114730773
 21
0.0011780911988239
 31
0.0
  0
LINE
  5
718A
330
1F
100
AcDbEntity
  8
AM_0
100
AcDbLine
 10
12.76993240667212
 20
1.703565474287754
 30
0.0
 11
13.16457180144669
 21
2.099192437492544
 31
0.0
  0
LINE
  5
718B
330
1F
100
AcDbEntity
  8
AM_0
100
AcDbLine
 10
12.54187926115378
 20
1.208093672086702
 30
0.0
 11
12.95543344212512
 21
1.6226827549425
 31
0.0
  0
LINE
  5
718C
330
1F
100
AcDbEntity
  8
AM_0
100
AcDbLine
 10
30.02345121097989
 20
3.574713454016883
 30
0.0
 11
31.13993759069836
 21
5.50852458964783
 31
0.0
  0
LINE
  5
718D
330
1F
100
AcDbEntity
  8
AM_0
100
AcDbLine
 10
16.16787684359894
 20
21.32549859809994
 30
0.0
 11
14.92523714520905
 21
19.8311622837321
 31
0.0
  0
LINE
  5
718E
330
1F
100
AcDbEntity
  8
AM_0
100
AcDbLine
 10
14.6645937538405
 20
19.56986664327678
 30
0.0
 11
16.13005790615216
 21
21.33216049485821
 31
0.0
  0
LINE
  5
7190
330
1F
100
AcDbEntity
  8
AM_0
100
AcDbLine
 10
14.92523714520905
 20
19.83116228373205
 30
0.0
 11
15.72844705702016
 21
17.66923604124501
 31
0.0
  0
LINE
  5
7191
330
1F
100
AcDbEntity
  8
AM_0
100
AcDbLine
 10
15.46780366565167
 20
17.40794040078968
 30
0.0
 11
14.66459375384056
 21
19.56986664327678
 31
0.0
  0
LINE
  5
7193
330
1F
100
AcDbEntity
  8
AM_0
100
AcDbLine
 10
11.58613920168272
 20
7.460167789858926
 30
0.0
 11
17.96769263038368
 21
10.44612380047378
 31
0.0
  0
LINE
  5
7195
330
1F
100
AcDbEntity
  8
AM_0
100
AcDbLine
 10
12.56243732514127
 20
24.02405539977678
 30
0.0
 11
16.02548643364826
 21
28.18854495212757
 31
0.0
  0
LINE
  5
7197
330
1F
100
AcDbEntity
  8
AM_0
100
AcDbLine
 10
2.558549177720126
 20
19.9981963221669
 30
0.0
 11
1.983802932840832
 21
12.80684980051307
 31
0.0
  0
LINE
  5
7198
330
1F
100
AcDbEntity
  8
AM_0
100
AcDbLine
 10
8.314472998120836
 20
18.49567524277414
 30
0.0
 11
6.537250534338683
 21
11.67029566454283
 31
0.0
  0
LINE
  5
719A
330
1F
100
AcDbEntity
  8
AM_0
100
AcDbLine
 10
1.983802932840832
 20
12.80684980051313
 30
0.0
 11
6.946239212005197
 21
13.24100671797646
 31
0.0
  0
LINE
  5
719B
330
1F
100
AcDbEntity
  8
AM_0
100
AcDbLine
 10
1.61583496875727
 20
12.77465677514715
 30
0.0
 11
6.946239212005197
 21
13.24100671797634
 31
0.0
  0
LINE
  5
719E
330
1F
100
AcDbEntity
  8
AM_0
100
AcDbLine
 10
6.537250534338683
 20
11.67029566454289
 30
0.0
 11
6.197851773510934
 21
11.3869633113436
 31
0.0
  0
LINE
  5
719F
330
1F
100
AcDbEntity
  8
AM_0
100
AcDbLine
 10
6.197851773510934
 20
11.3869633113436
 30
0.0
 11
5.273048302985102
 21
7.835278111410216
 31
0.0
  0
LINE
  5
71A0
330
1F
100
AcDbEntity
  8
AM_0
100
AcDbLine
 10
1.61583496875727
 20
12.7746567751472
 30
0.0
 11
2.013056128076869
 21
13.17287196365384
 31
0.0
  0
LINE
  5
71A1
330
1F
100
AcDbEntity
  8
AM_0
100
AcDbLine
 10
1.124909125759019
 20
12.54570367417068
 30
0.0
 11
1.538463306730364
 21
12.96029275702642
 31
0.0
  0
LINE
  5
71A3
330
1F
100
AcDbEntity
  8
AM_0
100
AcDbLine
 10
11.37785450084805
 20
7.067503067675259
 30
0.0
 11
11.58613920168278
 21
7.460167789858926
 31
0.0
  0
LINE
  5
71A5
330
1F
100
AcDbEntity
  8
AM_0
100
AcDbLine
 10
12.55239193548254
 20
24.01186354439392
 30
0.0
 11
8.798792271858191
 21
19.41433442062901
 31
0.0
  0
LINE
  5
71A8
330
1F
100
AcDbEntity
  8
AM_0
100
AcDbLine
 10
13.30781397075378
 20
21.81850743342863
 30
0.0
 11
13.59452170125911
 21
22.10593263792947
 31
0.0
  0
LINE
  5
71A9
330
1F
100
AcDbEntity
  8
AM_0
100
AcDbLine
 10
13.30781397075378
 20
21.81850743342863
 30
0.0
 11
13.94237856287247
 21
22.58160305562995
 31
0.0
  0
LINE
  5
71AA
330
1F
100
AcDbEntity
  8
AM_0
100
AcDbLine
 10
13.94237856287247
 20
22.58160305562995
 30
0.0
 11
14.2290862933778
 21
22.86902826013079
 31
0.0
  0
LINE
  5
71AB
330
1F
100
AcDbEntity
  8
AM_0
100
AcDbLine
 10
14.2290862933778
 20
22.86902826013079
 30
0.0
 11
13.59452170125911
 21
22.10593263792941
 31
0.0
  0
LINE
  5
71AC
330
1F
100
AcDbEntity
  8
AM_0
100
AcDbLine
 10
14.66459375384056
 20
19.56986664327678
 30
0.0
 11
14.92523714520905
 21
19.8311622837321
 31
0.0
  0
LINE
  5
71AD
330
1F
100
AcDbEntity
  8
AM_0
100
AcDbLine
 10
14.06889960415179
 20
22.31663081279305
 30
0.0
 11
14.35871650081316
 21
22.60717296400702
 31
0.0
  0
LINE
  5
71B0
330
1F
100
AcDbEntity
  8
AM_0
100
AcDbLine
 10
19.20194188208603
 20
18.77060186146547
 30
0.0
 11
17.73647772977443
 21
17.00830800988409
 31
0.0
  0
LINE
  5
71B1
330
1F
100
AcDbEntity
  8
AM_0
100
AcDbLine
 10
18.79859169206144
 20
11.1089011416468
 30
0.0
 11
25.47566898703895
 21
19.13842014756146
 31
0.0
  0
LINE
  5
71B4
330
1F
100
AcDbEntity
  8
AM_0
100
AcDbLine
 10
15.46780366565167
 20
17.40794040078974
 30
0.0
 11
15.72844705702016
 21
17.66923604124507
 31
0.0
  0
LINE
  5
71B5
330
1F
100
AcDbEntity
  8
AM_0
100
AcDbLine
 10
15.72844705702016
 20
17.66923604124507
 30
0.0
 11
17.95930218369619
 21
17.27626554709768
 31
0.0
  0
LINE
  5
71B6
330
1F
100
AcDbEntity
  8
AM_0
100
AcDbLine
 10
17.73647772977443
 20
17.00830800988409
 30
0.0
 11
15.46780366565167
 21
17.40794040078974
 31
0.0
  0
LINE
  5
71B7
330
1F
100
AcDbEntity
  8
AM_0
100
AcDbLine
 10
20.08681354301364
 20
16.31373885770567
 30
0.0
 11
20.37663043967501
 21
16.60428100891965
 31
0.0
  0
LINE
  5
71B8
330
1F
100
AcDbEntity
  8
AM_0
100
AcDbLine
 10
20.85411750872367
 20
16.81809613049631
 30
0.0
 11
20.21955291660499
 21
16.05500050829499
 31
0.0
  0
LINE
  5
71BB
330
1F
100
AcDbEntity
  8
AM_0
100
AcDbLine
 10
26.44460909856013
 20
22.60603786873383
 30
0.0
 11
22.6047541286428
 21
25.80798616047474
 31
0.0
  0
LINE
  5
71BD
330
1F
100
AcDbEntity
  8
AM_0
100
AcDbLine
 10
18.39873197027493
 20
20.93252810395255
 30
0.0
 11
19.20194188208603
 21
18.77060186146547
 31
0.0
  0
LINE
  5
71BE
330
1F
100
AcDbEntity
  8
AM_0
100
AcDbLine
 10
16.13005790615216
 20
21.33216049485821
 30
0.0
 11
18.39873197027493
 21
20.93252810395255
 31
0.0
  0
LINE
  5
71BF
330
1F
100
AcDbEntity
  8
AM_0
100
AcDbLine
 10
22.6047541286428
 20
25.80798616047468
 30
0.0
 11
18.76489915872542
 21
29.00993445221557
 31
0.0
  0
ARC
  5
71C1
330
1F
100
AcDbEntity
  8
AM_0
100
AcDbCircle
 10
17.17882001821746
 20
27.22947162713896
 30
0.0
 40
1.5
100
AcDbArc
 50
135.0716005091297
 51
140.2542316367349
  0
LINE
  5
71C2
330
1F
100
AcDbEntity
  8
AM_0
100
AcDbLine
 10
16.11683520547717
 20
28.28880550156617
 30
0.0
 11
16.70676346422323
 21
28.88021003088272
 31
0.0
  0
LINE
  5
71C3
330
1F
100
AcDbEntity
  8
AM_0
100
AcDbLine
 10
25.65871376253535
 20
19.34985045785481
 30
0.0
 11
25.65851194881713
 21
19.35001874470298
 31
0.0
  0
LINE
  5
71C4
330
1F
100
AcDbEntity
  8
AM_0
100
AcDbLine
 10
25.65871376253535
 20
19.34985045785481
 30
0.0
 11
26.58216428743112
 21
20.43809899420011
 31
0.0
  0
LINE
  5
71C5
330
1F
100
AcDbEntity
  8
AM_0
100
AcDbLine
 10
26.58216428743112
 20
20.43809899420011
 30
0.0
 11
26.69684737963326
 21
20.55306907600044
 31
0.0
  0
LINE
  5
71C6
330
1F
100
AcDbEntity
  8
AM_0
100
AcDbLine
 10
26.68259870440613
 20
20.56495065008607
 30
0.0
 11
26.69684737963326
 21
20.55306907600048
 31
0.0
  0
LINE
  5
71C7
330
1F
100
AcDbEntity
  8
AM_0
100
AcDbLine
 10
25.47566898703895
 20
19.13842014756153
 30
0.0
 11
25.49628605495661
 21
19.15908880882152
 31
0.0
  0
LINE
  5
71CA
330
1F
100
AcDbEntity
  8
AM_0
100
AcDbLine
 10
25.49628605495668
 20
19.15908880882152
 30
0.0
 11
25.92565305957033
 21
19.66442746166932
 31
0.0
  0
LINE
  5
71CC
330
1F
100
AcDbEntity
  8
AM_0
100
AcDbLine
 10
-62.00043900657647
 20
31.99819632216684
 30
0.0
 11
-61.58291025419367
 21
31.99819632216684
 31
0.0
  0
LINE
  5
71CE
330
1F
100
AcDbEntity
  8
AM_0
100
AcDbLine
 10
30.8006316005322
 20
32.00000032216689
 30
0.0
 11
32.00640296647232
 21
32.00000032216689
 31
0.0
  0
LINE
  5
71D0
330
1F
100
AcDbEntity
  8
AM_0
100
AcDbLine
 10
30.8006316005322
 20
32.00000032216684
 30
0.0
 11
14.56035317772
 21
32.00000032216684
 31
0.0
  0
DIMENSION
  5
71D4
330
1F
100
AcDbEntity
  8
AM_5
100
AcDbDimension
  2
*D3
 10
164.2738773056935
 20
-90.6303044324504
 30
0.0
 11
160.8735032899455
 21
-78.13030443245037
 31
0.0
 70
    32
  1
<>
 71
     5
 42
25.0
  3
AM_JIS
100
AcDbAlignedDimension
 13
150.0064029664723
 23
-65.63030443245039
 33
0.0
 14
150.0064029664723
 24
-90.63030443245038
 34
0.0
 50
89.99999999999998
100
AcDbRotatedDimension
1001
GENIUS_GENDTOL_13
1000

1000
h7
1000

1040
0.0
1001
ACAD
1000
DSTYLE
1002
{
1070
   271
1070
     4
1002
}
  0
LINE
  5
71D5
330
1F
100
AcDbEntity
  8
AM_0
100
AcDbLine
 10
149.9999999664724
 20
-65.63030443245039
 30
0.0
 11
149.9999999664724
 21
-90.63030443245038
 31
0.0
  0
LINE
  5
71D6
330
1F
100
AcDbEntity
  8
AM_0
100
AcDbLine
 10
149.9999999664724
 20
32.00000032216679
 30
0.0
 11
149.9999999664724
 21
7.000000322166793
 31
0.0
  0
DIMENSION
  5
71D7
330
1F
100
AcDbEntity
  8
AM_5
100
AcDbDimension
  2
*D2
 10
164.4780730589431
 20
7.000000322166817
 30
0.0
 11
161.077699043195
 21
19.50000032216683
 31
0.0
 70
    32
  1
<>
 71
     5
 42
24.99999999999997
  3
AM_JIS
100
AcDbAlignedDimension
 13
150.0064029664723
 23
32.00000032216679
 33
0.0
 14
150.0064029664723
 24
7.000000322166821
 34
0.0
 50
89.99999999999998
100
AcDbRotatedDimension
1001
GENIUS_GENDTOL_13
1000

1000
h7
1000

1040
0.0
1001
ACAD
1000
DSTYLE
1002
{
1070
   271
1070
     6
1002
}
  0
DIMENSION
  5
72DA
330
1F
100
AcDbEntity
  8
AM_5
100
AcDbDimension
  2
*D8
 10
31.99999996647238
 20
-26.87276207481903
 30
0.0
 11
15.99999998323619
 21
-23.472388059071
 31
0.0
 70
    32
 71
     5
 42
31.99999996647238
  3
AM_JIS$0
100
AcDbAlignedDimension
 13
0.0000000000000001
 23
0.8631570119175078
 33
0.0
 14
31.99999996647238
 24
6.998196322166844
 34
0.0
100
AcDbRotatedDimension
1001
ACAD
1000
DSTYLE
1002
{
1070
   271
1070
     6
1002
}
  0
LINE
  5
73FE
330
1F
100
AcDbEntity
  8
AM_1
100
AcDbLine
 10
150.0064029664723
 20
-65.68179443245039
 30
0.0
 11
149.9999999664724
 21
6.998196322166799
 31
0.0
  0
LINE
  5
73FF
330
1F
100
AcDbEntity
  8
AM_1
100
AcDbLine
 10
0.0019424012741558
 20
-65.63030449985888
 30
0.0
 11
-0.0000000000000003
 21
-2.414925130565109
 31
0.0
  0
TEXT
  5
7495
330
1F
100
AcDbEntity
  8
AM_6
100
AcDbText
 10
55.53519080909215
 20
-102.0808325780601
 30
0.0
 40
5.0
  1
DCLNR2525M12
 72
     4
 11
77.43533844688744
 21
-99.58083257806009
 31
0.0
100
AcDbText
  0
LINE
  5
7638
330
1F
100
AcDbEntity
  8
AM_5
100
AcDbLine
 10
-0.1850438502738144
 20
-65.63030449985888
 30
0.0
 11
-0.7468224096392078
 21
-65.63030449985888
 31
0.0
  0
DIMENSION
  5
7660
330
1F
100
AcDbEntity
  8
AM_5
100
AcDbDimension
  2
*D12
 10
-0.7468224096392078
 20
-65.63030449985888
 30
0.0
 11
-9.684138306511393
 21
-59.31900472469482
 31
0.0
 70
   162
  1
-<>
 71
     5
 42
0.0949383333251852
  3
AM_JIS$2
100
AcDb2LineAngularDimension
 13
12.05095341815546
 23
-64.54124775481393
 33
0.0
 14
0.8727911114730702
 24
-65.60568379971591
 34
0.0
 15
-0.1850438502738144
 25
-65.63030449985888
 35
0.0
 16
-11.44003197928237
 26
-66.39426637089233
 36
0.0
1001
ACAD
1000
DSTYLE
1002
{
1070
    79
1070
     2
1070
   371
1070
    -1
1070
   372
1070
    -1
1002
}
  0
LINE
  5
76D2
330
1F
100
AcDbEntity
  8
AM_5
100
AcDbLine
 10
-66.08291025419369
 20
-0.1325013491898517
 30
0.0
 11
-66.08291025419369
 21
1.104096370001116
 31
0.0
  0
DIMENSION
  5
76D4
330
1F
100
AcDbEntity
  8
AM_5
100
AcDbDimension
  2
*D13
 10
-66.08291025419369
 20
1.104096370001116
 30
0.0
 11
-71.50343919477503
 21
-11.4249318137834
 31
0.0
 70
   162
  1
-<>
 71
     5
 42
0.0944799442824938
  3
AM_JIS$2
100
AcDb2LineAngularDimension
 13
-66.00717720406573
 23
0.8646155226965188
 33
0.0
 14
-64.94720498296124
 24
12.05023187196958
 34
0.0
 15
-66.08291025419369
 25
-0.1325013491898517
 35
0.0
 16
-66.4829584820052
 26
-12.63301575484777
 36
0.0
1001
ACAD
1000
DSTYLE
1002
{
1070
    79
1070
     2
1070
   371
1070
    -1
1070
   372
1070
    -1
1002
}
  0
ENDSEC
  0
SECTION
  2
OBJECTS
  0
DICTIONARY
  5
C
330
0
100
AcDbDictionary
281
     1
  3
ACAD_COLOR
350
7544
  3
ACAD_GROUP
350
D
  3
ACAD_LAYOUT
350
1A
  3
ACAD_MATERIAL
350
7543
  3
ACAD_MLINESTYLE
350
17
  3
ACAD_PLOTSETTINGS
350
19
  3
ACAD_PLOTSTYLENAME
350
E
  3
ACAD_TABLESTYLE
350
7545
  3
ACDBHEADERROUNDTRIPXREC
350
776D
  3
ACDBVARIABLEDICTIONARY
350
30
  3
ACMDICTIONARY
350
4D
  3
AMG
350
3F
  3
AMGSNAPSETTINGS
350
73
  3
DWGPROPS
350
776C
  3
ENG_DATA
350
21C6
  3
FILENAME
350
21C9
  3
HOLD_DIC_DATA
350
21C4
  3
TABLE_DIC_DATA
350
1C0B
  3
ZWKSIZE
350
21CB
  0
DICTIONARY
  5
165
330
1F
100
AcDbDictionary
280
     1
281
     1
  3
ACAD_INDEX
360
74F5
  3
ACAD_LAYOUTSELFREF
360
7521
  3
ACAD_SORTENTS
360
76D1
  0
DICTIONARY
  5
751F
330
1B
100
AcDbDictionary
280
     1
281
     1
  3
ACAD_LAYOUTSELFREF
360
7520
  0
DICTIONARY
  5
7544
102
{ACAD_REACTORS
330
C
102
}
330
C
100
AcDbDictionary
281
     1
  0
DICTIONARY
  5
D
102
{ACAD_REACTORS
330
C
102
}
330
C
100
AcDbDictionary
281
     1
  0
DICTIONARY
  5
1A
102
{ACAD_REACTORS
330
C
102
}
330
C
100
AcDbDictionary
281
     1
  3
Model
350
7547
  3
レイアウト1
350
7548
  0
DICTIONARY
  5
7543
102
{ACAD_REACTORS
330
C
102
}
330
C
100
AcDbDictionary
281
     1
  0
DICTIONARY
  5
17
102
{ACAD_REACTORS
330
C
102
}
330
C
100
AcDbDictionary
281
     1
  3
STANDARD
350
18
  0
DICTIONARY
  5
19
102
{ACAD_REACTORS
330
C
102
}
330
C
100
AcDbDictionary
281
     1
  0
ACDBDICTIONARYWDFLT
  5
E
102
{ACAD_REACTORS
330
C
102
}
330
C
100
AcDbDictionary
281
     1
  3
Normal
350
F
100
AcDbDictionaryWithDefault
340
F
  0
DICTIONARY
  5
7545
102
{ACAD_REACTORS
330
C
102
}
330
C
100
AcDbDictionary
281
     1
  3
Standard
350
7546
  0
DICTIONARY
  5
776D
102
{ACAD_REACTORS
330
C
102
}
330
C
100
AcDbDictionary
281
     1
  0
DICTIONARY
  5
30
102
{ACAD_REACTORS
330
C
102
}
330
C
100
AcDbDictionary
281
     1
  3
CTABLESTYLE
350
7768
  3
DIMASSOC
350
7769
  3
INDEXCTL
350
31
  3
PROJECTNAME
350
776A
  3
SORTENTS
350
42BE
  0
DICTIONARY
  5
4D
102
{ACAD_REACTORS
330
C
102
}
330
C
100
AcDbDictionary
281
     1
  3
ACMSTDDICTIONARY
350
17E
  3
AMDTSECTSYM_ARROWCOLOR
350
75C0
  0
DICTIONARY
  5
3F
102
{ACAD_REACTORS
330
C
102
}
330
C
100
AcDbDictionary
281
     1
  0
DICTIONARY
  5
73
102
{ACAD_REACTORS
330
C
102
}
330
C
100
AcDbDictionary
281
     1
  0
XRECORD
  5
776C
102
{ACAD_REACTORS
330
C
102
}
330
C
100
AcDbXrecord
280
     1
  1
DWGPROPS COOKIE
  2

  3

  4

  6

  7

  8

  9

300
AmdtFileType=82
301
=
302
=
303
=
304
=
305
=
306
=
307
=
308
=
309
=
 40
0.3813746990740741
 41
2451943.610431666
 42
2455610.665905671
  1

 90
        1
  0
DICTIONARY
  5
21C6
102
{ACAD_REACTORS
330
C
102
}
330
C
100
AcDbDictionary
281
     1
  3
ENG_ID
350
21C7
  0
DICTIONARY
  5
21C9
102
{ACAD_REACTORS
330
C
102
}
330
C
100
AcDbDictionary
281
     1
  3
FILENAME
350
21CA
  0
DICTIONARY
  5
21C4
102
{ACAD_REACTORS
330
C
102
}
330
C
100
AcDbDictionary
281
     1
  3
HOLD_DATA
350
21C5
  0
DICTIONARY
  5
1C0B
102
{ACAD_REACTORS
330
C
102
}
330
C
100
AcDbDictionary
281
     1
  3
INPUT_DATA
350
1C0D
  3
TABLE_DATA
350
1C0C
  0
DICTIONARY
  5
21CB
102
{ACAD_REACTORS
330
C
102
}
330
C
100
AcDbDictionary
281
     1
  3
ZWKSIZE
350
21CC
  0
DICTIONARY
  5
74F5
102
{ACAD_REACTORS
330
165
102
}
330
165
100
AcDbDictionary
281
     1
  3
*A1
350
74F6
  0
XRECORD
  5
7521
102
{ACAD_REACTORS
330
165
102
}
330
165
100
AcDbXrecord
280
     1
340
1F
  0
SORTENTSTABLE
  5
76D1
102
{ACAD_REACTORS
330
165
102
}
330
165
100
AcDbSortentsTable
330
1F
331
71B8
  5
71B8
331
7121
  5
7121
331
70FF
  5
70FF
331
70DD
  5
70DD
331
70BB
  5
70BB
331
7099
  5
7099
331
716D
  5
716D
331
7132
  5
7132
331
70EE
  5
70EE
331
70CC
  5
70CC
331
706E
  5
706E
331
704C
  5
704C
331
715C
  5
715C
331
705D
  5
705D
331
7023
  5
7023
331
7012
  5
7012
331
7114
  5
7114
331
716B
  5
716B
331
7141
  5
7141
331
711F
  5
711F
331
70FD
  5
70FD
331
70DB
  5
70DB
331
71A5
  5
71A5
331
718D
  5
718D
331
71C7
  5
71C7
331
7130
  5
7130
331
710E
  5
710E
331
70EC
  5
70EC
331
70CA
  5
70CA
331
70A8
  5
70A8
331
706C
  5
706C
331
715A
  5
715A
331
717C
  5
717C
331
71B6
  5
71B6
331
705B
  5
705B
331
7021
  5
7021
331
7112
  5
7112
331
7169
  5
7169
331
713F
  5
713F
331
711D
  5
711D
331
70FB
  5
70FB
331
70D9
  5
70D9
331
71A3
  5
71A3
331
718B
  5
718B
331
71C5
  5
71C5
331
712E
  5
712E
331
710C
  5
710C
331
70EA
  5
70EA
331
70A6
  5
70A6
331
708C
  5
708C
331
706A
  5
706A
331
717A
  5
717A
331
71D6
  5
71D6
331
71B4
  5
71B4
331
70B7
  5
70B7
331
707B
  5
707B
331
7059
  5
7059
331
701F
  5
701F
331
711B
  5
711B
331
7167
  5
7167
331
71A1
  5
71A1
331
7189
  5
7189
331
71C3
  5
71C3
331
7495
  5
7495
331
7638
  5
7638
331
710A
  5
710A
331
70A4
  5
70A4
331
708A
  5
708A
331
7068
  5
7068
331
702E
  5
702E
331
7178
  5
7178
331
71D4
  5
71D4
331
70B5
  5
70B5
331
7057
  5
7057
331
701D
  5
701D
331
713B
  5
713B
331
719F
  5
719F
331
7187
  5
7187
331
71C1
  5
71C1
331
712A
  5
712A
331
7108
  5
7108
331
70E6
  5
70E6
331
70C4
  5
70C4
331
70A2
  5
70A2
331
7088
  5
7088
331
7066
  5
7066
331
702C
  5
702C
331
7176
  5
7176
331
71B0
  5
71B0
331
70F7
  5
70F7
331
70D5
  5
70D5
331
7077
  5
7077
331
7055
  5
7055
331
7163
  5
7163
331
71BF
  5
71BF
331
7106
  5
7106
331
70E4
  5
70E4
331
70C2
  5
70C2
331
70A0
  5
70A0
331
7086
  5
7086
331
7064
  5
7064
331
702A
  5
702A
331
714A
  5
714A
331
71D0
  5
71D0
331
7156
  5
7156
331
70F5
  5
70F5
331
70B1
  5
70B1
331
7097
  5
7097
331
7075
  5
7075
331
7053
  5
7053
331
7019
  5
7019
331
719B
  5
719B
331
7183
  5
7183
331
71BD
  5
71BD
331
73FF
  5
73FF
331
7126
  5
7126
331
7104
  5
7104
331
70E2
  5
70E2
331
709E
  5
709E
331
7084
  5
7084
331
7062
  5
7062
331
7028
  5
7028
331
7148
  5
7148
331
7172
  5
7172
331
71AC
  5
71AC
331
71CE
  5
71CE
331
70D1
  5
70D1
331
70AF
  5
70AF
331
7017
  5
7017
331
7181
  5
7181
331
71BB
  5
71BB
331
70E0
  5
70E0
331
70BE
  5
70BE
331
7060
  5
7060
331
7146
  5
7146
331
7170
  5
7170
331
71AA
  5
71AA
331
71CC
  5
71CC
331
7135
  5
7135
331
70F1
  5
70F1
331
70AD
  5
70AD
331
7071
  5
7071
331
704F
  5
704F
331
715F
  5
715F
331
7026
  5
7026
331
7015
  5
7015
331
7660
  5
7660
331
7100
  5
7100
331
70BC
  5
70BC
331
709A
  5
709A
331
7144
  5
7144
331
716E
  5
716E
331
71A8
  5
71A8
331
7190
  5
7190
331
71CA
  5
71CA
331
7133
  5
7133
331
70EF
  5
70EF
331
70CD
  5
70CD
331
70AB
  5
70AB
331
7091
  5
7091
331
704D
  5
704D
331
715D
  5
715D
331
717F
  5
717F
331
7024
  5
7024
331
7013
  5
7013
331
7142
  5
7142
331
7120
  5
7120
331
70FE
  5
70FE
331
70DC
  5
70DC
331
716C
  5
716C
331
718E
  5
718E
331
710F
  5
710F
331
70ED
  5
70ED
331
70CB
  5
70CB
331
70A9
  5
70A9
331
708F
  5
708F
331
706D
  5
706D
331
704B
  5
704B
331
715B
  5
715B
331
717D
  5
717D
331
71B7
  5
71B7
331
705C
  5
705C
331
7022
  5
7022
331
7113
  5
7113
331
716A
  5
716A
331
7140
  5
7140
331
711E
  5
711E
331
70DA
  5
70DA
331
718C
  5
718C
331
71C6
  5
71C6
331
712F
  5
712F
331
710D
  5
710D
331
70EB
  5
70EB
331
70C9
  5
70C9
331
708D
  5
708D
331
706B
  5
706B
331
717B
  5
717B
331
71D7
  5
71D7
331
71B5
  5
71B5
331
705A
  5
705A
331
7020
  5
7020
331
7111
  5
7111
331
7168
  5
7168
331
711C
  5
711C
331
70FA
  5
70FA
331
70D8
  5
70D8
331
718A
  5
718A
331
71C4
  5
71C4
331
712D
  5
712D
331
710B
  5
710B
331
708B
  5
708B
331
7069
  5
7069
331
7179
  5
7179
331
71D5
  5
71D5
331
70B6
  5
70B6
331
707A
  5
707A
331
7058
  5
7058
331
701E
  5
701E
331
711A
  5
711A
331
70F8
  5
70F8
331
71A0
  5
71A0
331
7188
  5
7188
331
71C2
  5
71C2
331
712B
  5
712B
331
7109
  5
7109
331
70C5
  5
70C5
331
70A3
  5
70A3
331
7089
  5
7089
331
7067
  5
7067
331
702D
  5
702D
331
7177
  5
7177
331
71B1
  5
71B1
331
70D6
  5
70D6
331
7078
  5
7078
331
7118
  5
7118
331
7164
  5
7164
331
719E
  5
719E
331
7186
  5
7186
331
70E5
  5
70E5
331
70C3
  5
70C3
331
70A1
  5
70A1
331
7087
  5
7087
331
7065
  5
7065
331
702B
  5
702B
331
7175
  5
7175
331
7197
  5
7197
331
7157
  5
7157
331
70F6
  5
70F6
331
70B2
  5
70B2
331
7076
  5
7076
331
7054
  5
7054
331
7138
  5
7138
331
7162
  5
7162
331
71BE
  5
71BE
331
7127
  5
7127
331
70E3
  5
70E3
331
709F
  5
709F
331
7085
  5
7085
331
7063
  5
7063
331
7029
  5
7029
331
7149
  5
7149
331
7173
  5
7173
331
71AD
  5
71AD
331
7195
  5
7195
331
7155
  5
7155
331
70F4
  5
70F4
331
70B0
  5
70B0
331
7096
  5
7096
331
7074
  5
7074
331
7052
  5
7052
331
7018
  5
7018
331
7160
  5
7160
331
719A
  5
719A
331
7182
  5
7182
331
73FE
  5
73FE
331
72DA
  5
72DA
331
7125
  5
7125
331
7103
  5
7103
331
70E1
  5
70E1
331
70BF
  5
70BF
331
709D
  5
709D
331
7171
  5
7171
331
7147
  5
7147
331
71AB
  5
71AB
331
7193
  5
7193
331
7153
  5
7153
331
7136
  5
7136
331
70D0
  5
70D0
331
70AE
  5
70AE
331
7027
  5
7027
331
7016
  5
7016
331
7198
  5
7198
331
7180
  5
7180
331
7101
  5
7101
331
709B
  5
709B
331
7145
  5
7145
331
716F
  5
716F
331
71A9
  5
71A9
331
7191
  5
7191
331
7151
  5
7151
331
7134
  5
7134
331
70F0
  5
70F0
331
70CE
  5
70CE
331
70AC
  5
70AC
331
7070
  5
7070
331
704E
  5
704E
331
715E
  5
715E
331
705F
  5
705F
331
7025
  5
7025
331
7014
  5
7014
  0
XRECORD
  5
7520
102
{ACAD_REACTORS
330
751F
102
}
330
751F
100
AcDbXrecord
280
     1
340
1B
  0
LAYOUT
  5
7547
102
{ACAD_XDICTIONARY
360
776E
102
}
102
{ACAD_REACTORS
330
1A
102
}
330
1A
100
AcDbPlotSettings
  1

  2
SII LP-1010 (C2 VR)2R
  4

  6

 40
0.0
 41
0.0
 42
0.0
 43
0.0
 44
0.0
 45
0.0
 46
0.0
 47
0.0
 48
0.0
 49
0.0
140
0.0
141
0.0
142
1.0
143
1.0
 70
  1712
 72
     0
 73
     0
 74
     0
  7
sei_cad.ctb
 75
     0
147
1.0
148
0.0
149
0.0
100
AcDbLayout
  1
Model
 70
     1
 71
     0
 10
0.0
 20
0.0
 11
12.0
 21
9.0
 12
0.0
 22
0.0
 32
0.0
 14
0.0
 24
0.0
 34
0.0
 15
0.0
 25
0.0
 35
0.0
146
0.0
 13
0.0
 23
0.0
 33
0.0
 16
1.0
 26
0.0
 36
0.0
 17
0.0
 27
1.0
 37
0.0
 76
     0
330
1F
  0
LAYOUT
  5
7548
102
{ACAD_XDICTIONARY
360
7770
102
}
102
{ACAD_REACTORS
330
1A
102
}
330
1A
100
AcDbPlotSettings
  1

  2
SII LP-1010 (C2 VR)2R
  4

  6

 40
0.0
 41
0.0
 42
0.0
 43
0.0
 44
0.0
 45
0.0
 46
0.0
 47
0.0
 48
0.0
 49
0.0
140
0.0
141
0.0
142
1.0
143
1.0
 70
   688
 72
     0
 73
     0
 74
     5
  7
sei_cad.ctb
 75
    16
147
1.0
148
0.0
149
0.0
100
AcDbLayout
  1
レイアウト1
 70
     1
 71
     1
 10
0.0
 20
0.0
 11
420.0
 21
297.0
 12
0.0
 22
0.0
 32
0.0
 14
1.000000000000000E+20
 24
1.000000000000000E+20
 34
1.000000000000000E+20
 15
-1.000000000000000E+20
 25
-1.000000000000000E+20
 35
-1.000000000000000E+20
146
0.0
 13
0.0
 23
0.0
 33
0.0
 16
1.0
 26
0.0
 36
0.0
 17
0.0
 27
1.0
 37
0.0
 76
     0
330
1B
  0
MLINESTYLE
  5
18
102
{ACAD_REACTORS
330
17
102
}
330
17
100
AcDbMlineStyle
  2
STANDARD
 70
     0
  3

 62
   256
 51
90.0
 52
90.0
 71
     2
 49
0.5
 62
   256
  6
BYLAYER
 49
-0.5
 62
   256
  6
BYLAYER
  0
ACDBPLACEHOLDER
  5
F
102
{ACAD_REACTORS
330
E
102
}
330
E
  0
TABLESTYLE
  5
7546
102
{ACAD_REACTORS
330
7545
102
}
330
7545
100
AcDbTableStyle
  3
Standard
 70
     0
 71
     0
 40
1.5
 41
1.5
280
     0
281
     0
  7
STANDARD
140
4.5
170
     2
 62
     0
 63
     7
283
     0
274
    -2
284
     1
 64
     0
275
    -2
285
     1
 65
     0
276
    -2
286
     1
 66
     0
277
    -2
287
     1
 67
     0
278
    -2
288
     1
 68
     0
279
    -2
289
     1
 69
     0
  7
STANDARD
140
6.0
170
     5
 62
     0
 63
     7
283
     0
274
    -2
284
     1
 64
     0
275
    -2
285
     1
 65
     0
276
    -2
286
     1
 66
     0
277
    -2
287
     1
 67
     0
278
    -2
288
     1
 68
     0
279
    -2
289
     1
 69
     0
  7
STANDARD
140
4.5
170
     5
 62
     0
 63
     7
283
     0
274
    -2
284
     1
 64
     0
275
    -2
285
     1
 65
     0
276
    -2
286
     1
 66
     0
277
    -2
287
     1
 67
     0
278
    -2
288
     1
 68
     0
279
    -2
289
     1
 69
     0
  0
DICTIONARYVAR
  5
7768
102
{ACAD_REACTORS
330
30
102
}
330
30
100
DictionaryVariables
280
     0
  1
STANDARD
  0
DICTIONARYVAR
  5
7769
102
{ACAD_REACTORS
330
30
102
}
330
30
100
DictionaryVariables
280
     0
  1
1
  0
DICTIONARYVAR
  5
31
102
{ACAD_REACTORS
330
30
102
}
330
30
100
DictionaryVariables
280
     0
  1
1
  0
DICTIONARYVAR
  5
776A
102
{ACAD_REACTORS
330
30
102
}
330
30
100
DictionaryVariables
280
     0
  1

  0
DICTIONARYVAR
  5
42BE
102
{ACAD_REACTORS
330
30
102
}
330
30
100
DictionaryVariables
280
     0
  1
96
  0
DICTIONARY
  5
17E
102
{ACAD_REACTORS
330
4D
102
}
330
4D
100
AcDbDictionary
281
     1
  0
XRECORD
  5
75C0
102
{ACAD_REACTORS
330
4D
102
}
330
4D
100
AcDbXrecord
280
     1
 90
-1023410169
  0
XRECORD
  5
21C7
102
{ACAD_REACTORS
330
21C6
102
}
330
21C6
100
AcDbXrecord
280
     1
  1
HOLD
  0
XRECORD
  5
21CA
102
{ACAD_REACTORS
330
21C9
102
}
330
21C9
100
AcDbXrecord
280
     1
  1
21000065__00___
  0
XRECORD
  5
21C5
102
{ACAD_REACTORS
330
21C4
102
}
330
21C4
100
AcDbXrecord
280
     1
  1
クランクシャフト加工用 ^M^J１コーナー型 ^M^J15.875 ^M^J20 ^M^Jクランプオン ^M^J９０° ^M^J1 ^M^J鋼 ^M^J ^M^J ^M^J ^M^J ^M^J
  0
XRECORD
  5
1C0D
102
{ACAD_REACTORS
330
1C0B
102
}
330
1C0B
100
AcDbXrecord
280
     1
  1
1,,,,,,,,,^M^J2,,,,,,,,,^M^J3,,,,,,,,,^M^J4,,,,,,,,,^M^J5,,,,,,,,,^M^J6,,,,,,,,,^M^J7,,,,,,,,,^M^J8,,,,,,,,,^M^J9,,,,,,,,,^M^J10,,,,,,,,,
  0
XRECORD
  5
1C0C
102
{ACAD_REACTORS
330
1C0B
102
}
330
1C0B
100
AcDbXrecord
280
     1
  1
10,10
  0
XRECORD
  5
21CC
102
{ACAD_REACTORS
330
21CB
102
}
330
21CB
100
AcDbXrecord
280
     1
  1
3
  0
LAYER_INDEX
  5
74F6
102
{ACAD_REACTORS
330
74F5
102
}
330
74F5
100
AcDbIndex
 40
2455610.665905671
100
AcDbLayerIndex
  8
0
360
74F7
 90
        0
  8
AM_5
360
74F8
 90
       11
  8
DEFPOINTS
360
74F9
 90
        0
  8
AM_0
360
74FA
 90
      298
  8
AM_6
360
74FB
 90
        1
  8
AM_1
360
74FC
 90
        2
  0
DICTIONARY
  5
776E
330
7547
100
AcDbDictionary
280
     1
281
     1
  3
ACAD_XREC_ROUNDTRIP
360
776F
  0
DICTIONARY
  5
7770
330
7548
100
AcDbDictionary
280
     1
281
     1
  3
ACAD_XREC_ROUNDTRIP
360
7771
  0
IDBUFFER
  5
74F7
330
0
100
AcDbIdBuffer
  0
IDBUFFER
  5
74F8
330
0
100
AcDbIdBuffer
330
76D2
330
76D4
330
7016
330
704B
330
7114
330
7153
330
71D4
330
71D7
330
72DA
330
7638
330
7660
  0
IDBUFFER
  5
74F9
330
0
100
AcDbIdBuffer
  0
IDBUFFER
  5
74FA
330
0
100
AcDbIdBuffer
330
7012
330
7013
330
7014
330
7015
330
7017
330
7018
330
7019
330
701D
330
701E
330
701F
330
7020
330
7021
330
7022
330
7023
330
7024
330
7025
330
7026
330
7027
330
7028
330
7029
330
702A
330
702B
330
702C
330
702D
330
702E
330
704C
330
704D
330
704E
330
704F
330
7052
330
7053
330
7054
330
7055
330
7057
330
7058
330
7059
330
705A
330
705B
330
705C
330
705D
330
705F
330
7060
330
7062
330
7063
330
7064
330
7065
330
7066
330
7067
330
7068
330
7069
330
706A
330
706B
330
706C
330
706D
330
706E
330
7070
330
7071
330
7074
330
7075
330
7076
330
7077
330
7078
330
707A
330
707B
330
7084
330
7085
330
7086
330
7087
330
7088
330
7089
330
708A
330
708B
330
708C
330
708D
330
708F
330
7091
330
7096
330
7097
330
7099
330
709A
330
709B
330
709D
330
709E
330
709F
330
70A0
330
70A1
330
70A2
330
70A3
330
70A4
330
70A6
330
70A8
330
70A9
330
70AB
330
70AC
330
70AD
330
70AE
330
70AF
330
70B0
330
70B1
330
70B2
330
70B5
330
70B6
330
70B7
330
70BB
330
70BC
330
70BE
330
70BF
330
70C2
330
70C3
330
70C4
330
70C5
330
70C9
330
70CA
330
70CB
330
70CC
330
70CD
330
70CE
330
70D0
330
70D1
330
70D5
330
70D6
330
70D8
330
70D9
330
70DA
330
70DB
330
70DC
330
70DD
330
70E0
330
70E1
330
70E2
330
70E3
330
70E4
330
70E5
330
70E6
330
70EA
330
70EB
330
70EC
330
70ED
330
70EE
330
70EF
330
70F0
330
70F1
330
70F4
330
70F5
330
70F6
330
70F7
330
70F8
330
70FA
330
70FB
330
70FD
330
70FE
330
70FF
330
7100
330
7101
330
7103
330
7104
330
7106
330
7108
330
7109
330
710A
330
710B
330
710C
330
710D
330
710E
330
710F
330
7111
330
7112
330
7113
330
7118
330
711A
330
711B
330
711C
330
711D
330
711E
330
711F
330
7120
330
7121
330
7125
330
7126
330
7127
330
712A
330
712B
330
712D
330
712E
330
712F
330
7130
330
7132
330
7133
330
7134
330
7135
330
7136
330
7138
330
713B
330
713F
330
7140
330
7141
330
7142
330
7144
330
7145
330
7146
330
7147
330
7148
330
7149
330
714A
330
7151
330
7155
330
7156
330
7157
330
715A
330
715B
330
715C
330
715D
330
715E
330
715F
330
7160
330
7162
330
7163
330
7164
330
7167
330
7168
330
7169
330
716A
330
716B
330
716C
330
716D
330
716E
330
716F
330
7170
330
7171
330
7172
330
7173
330
7175
330
7176
330
7177
330
7178
330
7179
330
717A
330
717B
330
717C
330
717D
330
717F
330
7180
330
7181
330
7182
330
7183
330
7186
330
7187
330
7188
330
7189
330
718A
330
718B
330
718C
330
718D
330
718E
330
7190
330
7191
330
7193
330
7195
330
7197
330
7198
330
719A
330
719B
330
719E
330
719F
330
71A0
330
71A1
330
71A3
330
71A5
330
71A8
330
71A9
330
71AA
330
71AB
330
71AC
330
71AD
330
71B0
330
71B1
330
71B4
330
71B5
330
71B6
330
71B7
330
71B8
330
71BB
330
71BD
330
71BE
330
71BF
330
71C1
330
71C2
330
71C3
330
71C4
330
71C5
330
71C6
330
71C7
330
71CA
330
71CC
330
71CE
330
71D0
330
71D5
330
71D6
  0
IDBUFFER
  5
74FB
330
0
100
AcDbIdBuffer
330
7495
  0
IDBUFFER
  5
74FC
330
0
100
AcDbIdBuffer
330
73FE
330
73FF
  0
XRECORD
  5
776F
102
{ACAD_REACTORS
330
776E
102
}
330
776E
100
AcDbXrecord
280
     1
102
SHADEPLOT
 70
     0
102
SHADEPLOTRESLEVEL
 70
     2
102
SHADEPLOTCUSTOMDPI
 70
   300
  0
XRECORD
  5
7771
102
{ACAD_REACTORS
330
7770
102
}
330
7770
100
AcDbXrecord
280
     1
102
SHADEPLOT
 70
     0
102
SHADEPLOTRESLEVEL
 70
     2
102
SHADEPLOTCUSTOMDPI
 70
   300
  0
ENDSEC
  0
EOF
