  0
SECTION
  2
HEADER
  9
$ACADVER
  1
AC1015
  9
$ACADMAINTVER
 70
     6
  9
$DWGCODEPAGE
  3
ANSI_932
  9
$INSBASE
 10
0.0
 20
0.0
 30
0.0
  9
$EXTMIN
 10
-94.45887859140066
 20
-129.4027687691144
 30
-0.0015258207003583
  9
$EXTMAX
 10
187.8977067225985
 20
40.01845410911244
 30
0.0000000349246037
  9
$LIMMIN
 10
0.0
 20
0.0
  9
$LIMMAX
 10
420.0
 20
297.0
  9
$ORTHOMODE
 70
     1
  9
$REGENMODE
 70
     1
  9
$FILLMODE
 70
     1
  9
$QTEXTMODE
 70
     0
  9
$MIRRTEXT
 70
     1
  9
$LTSCALE
 40
1.0
  9
$ATTMODE
 70
     1
  9
$TEXTSIZE
 40
10.0
  9
$TRACEWID
 40
1.0
  9
$TEXTSTYLE
  7
STANDARD
  9
$CLAYER
  8
AM_0
  9
$CELTYPE
  6
ByLayer
  9
$CECOLOR
 62
   256
  9
$CELTSCALE
 40
1.0
  9
$DISPSILH
 70
     0
  9
$DIMSCALE
 40
1.0
  9
$DIMASZ
 40
2.5
  9
$DIMEXO
 40
0.0
  9
$DIMDLI
 40
10.0
  9
$DIMRND
 40
0.0
  9
$DIMDLE
 40
0.0
  9
$DIMEXE
 40
1.0
  9
$DIMTP
 40
0.1
  9
$DIMTM
 40
0.1000000001
  9
$DIMTXT
 40
3.8
  9
$DIMCEN
 40
0.0
  9
$DIMTSZ
 40
0.0
  9
$DIMTOL
 70
     0
  9
$DIMLIM
 70
     0
  9
$DIMTIH
 70
     0
  9
$DIMTOH
 70
     0
  9
$DIMSE1
 70
     0
  9
$DIMSE2
 70
     0
  9
$DIMTAD
 70
     3
  9
$DIMZIN
 70
     1
  9
$DIMBLK
  1
Open30
  9
$DIMASO
 70
     1
  9
$DIMSHO
 70
     1
  9
$DIMPOST
  1

  9
$DIMAPOST
  1
"
  9
$DIMALT
 70
     0
  9
$DIMALTD
 70
     2
  9
$DIMALTF
 40
0.0393701
  9
$DIMLFAC
 40
1.0
  9
$DIMTOFL
 70
     1
  9
$DIMTVP
 40
0.0
  9
$DIMTIX
 70
     0
  9
$DIMSOXD
 70
     0
  9
$DIMSAH
 70
     0
  9
$DIMBLK1
  1

  9
$DIMBLK2
  1

  9
$DIMSTYLE
  2
AM_JIS
  9
$DIMCLRD
 70
   256
  9
$DIMCLRE
 70
   256
  9
$DIMCLRT
 70
     2
  9
$DIMTFAC
 40
0.71
  9
$DIMGAP
 40
1.5
  9
$DIMJUST
 70
     0
  9
$DIMSD1
 70
     0
  9
$DIMSD2
 70
     0
  9
$DIMTOLJ
 70
     0
  9
$DIMTZIN
 70
     8
  9
$DIMALTZ
 70
     0
  9
$DIMALTTZ
 70
     0
  9
$DIMUPT
 70
     0
  9
$DIMDEC
 70
     0
  9
$DIMTDEC
 70
     2
  9
$DIMALTU
 70
     2
  9
$DIMALTTD
 70
     2
  9
$DIMTXSTY
  7
STANDARD
  9
$DIMAUNIT
 70
     1
  9
$DIMADEC
 70
     0
  9
$DIMALTRND
 40
0.0
  9
$DIMAZIN
 70
     2
  9
$DIMDSEP
 70
    46
  9
$DIMATFIT
 70
     3
  9
$DIMFRAC
 70
     0
  9
$DIMLDRBLK
  1
Open30
  9
$DIMLUNIT
 70
     2
  9
$DIMLWD
 70
    -1
  9
$DIMLWE
 70
    -1
  9
$DIMTMOVE
 70
     0
  9
$LUNITS
 70
     2
  9
$LUPREC
 70
     2
  9
$SKETCHINC
 40
1.0
  9
$FILLETRAD
 40
10.0
  9
$AUNITS
 70
     1
  9
$AUPREC
 70
     5
  9
$MENU
  1
.
  9
$ELEVATION
 40
0.0
  9
$PELEVATION
 40
0.0
  9
$THICKNESS
 40
0.0
  9
$LIMCHECK
 70
     0
  9
$CHAMFERA
 40
0.5
  9
$CHAMFERB
 40
0.5
  9
$CHAMFERC
 40
20.0
  9
$CHAMFERD
 40
0.0
  9
$SKPOLY
 70
     0
  9
$TDCREATE
 40
2451943.610431667
  9
$TDUCREATE
 40
2451943.235431667
  9
$TDUPDATE
 40
2455440.79874294
  9
$TDUUPDATE
 40
2455440.42374294
  9
$TDINDWG
 40
1.5136432523
  9
$TDUSRTIMER
 40
1.5136430787
  9
$USRTIMER
 70
     1
  9
$ANGBASE
 50
0.0
  9
$ANGDIR
 70
     0
  9
$PDMODE
 70
     0
  9
$PDSIZE
 40
0.0
  9
$PLINEWID
 40
0.0
  9
$SPLFRAME
 70
     0
  9
$SPLINETYPE
 70
     6
  9
$SPLINESEGS
 70
     8
  9
$HANDSEED
  5
152AD
  9
$SURFTAB1
 70
     6
  9
$SURFTAB2
 70
     6
  9
$SURFTYPE
 70
     6
  9
$SURFU
 70
     6
  9
$SURFV
 70
     6
  9
$UCSBASE
  2

  9
$UCSNAME
  2

  9
$UCSORG
 10
0.0
 20
0.0
 30
0.0
  9
$UCSXDIR
 10
1.0
 20
0.0
 30
0.0
  9
$UCSYDIR
 10
0.0
 20
1.0
 30
0.0
  9
$UCSORTHOREF
  2

  9
$UCSORTHOVIEW
 70
     0
  9
$UCSORGTOP
 10
0.0
 20
0.0
 30
0.0
  9
$UCSORGBOTTOM
 10
0.0
 20
0.0
 30
0.0
  9
$UCSORGLEFT
 10
0.0
 20
0.0
 30
0.0
  9
$UCSORGRIGHT
 10
0.0
 20
0.0
 30
0.0
  9
$UCSORGFRONT
 10
0.0
 20
0.0
 30
0.0
  9
$UCSORGBACK
 10
0.0
 20
0.0
 30
0.0
  9
$PUCSBASE
  2

  9
$PUCSNAME
  2

  9
$PUCSORG
 10
0.0
 20
0.0
 30
0.0
  9
$PUCSXDIR
 10
1.0
 20
0.0
 30
0.0
  9
$PUCSYDIR
 10
0.0
 20
1.0
 30
0.0
  9
$PUCSORTHOREF
  2

  9
$PUCSORTHOVIEW
 70
     0
  9
$PUCSORGTOP
 10
0.0
 20
0.0
 30
0.0
  9
$PUCSORGBOTTOM
 10
0.0
 20
0.0
 30
0.0
  9
$PUCSORGLEFT
 10
0.0
 20
0.0
 30
0.0
  9
$PUCSORGRIGHT
 10
0.0
 20
0.0
 30
0.0
  9
$PUCSORGFRONT
 10
0.0
 20
0.0
 30
0.0
  9
$PUCSORGBACK
 10
0.0
 20
0.0
 30
0.0
  9
$USERI1
 70
     0
  9
$USERI2
 70
     0
  9
$USERI3
 70
     0
  9
$USERI4
 70
     0
  9
$USERI5
 70
     0
  9
$USERR1
 40
0.0
  9
$USERR2
 40
0.0
  9
$USERR3
 40
0.0
  9
$USERR4
 40
0.0
  9
$USERR5
 40
0.0
  9
$WORLDVIEW
 70
     1
  9
$SHADEDGE
 70
     3
  9
$SHADEDIF
 70
    70
  9
$TILEMODE
 70
     1
  9
$MAXACTVP
 70
    64
  9
$PINSBASE
 10
0.0
 20
0.0
 30
0.0
  9
$PLIMCHECK
 70
     0
  9
$PEXTMIN
 10
1.000000000000000E+20
 20
1.000000000000000E+20
 30
1.000000000000000E+20
  9
$PEXTMAX
 10
-1.000000000000000E+20
 20
-1.000000000000000E+20
 30
-1.000000000000000E+20
  9
$PLIMMIN
 10
0.0
 20
0.0
  9
$PLIMMAX
 10
420.0
 20
297.0
  9
$UNITMODE
 70
     0
  9
$VISRETAIN
 70
     1
  9
$PLINEGEN
 70
     0
  9
$PSLTSCALE
 70
     1
  9
$TREEDEPTH
 70
  3020
  9
$CMLSTYLE
  2
Standard
  9
$CMLJUST
 70
     0
  9
$CMLSCALE
 40
20.0
  9
$PROXYGRAPHICS
 70
     1
  9
$MEASUREMENT
 70
     1
  9
$CELWEIGHT
370
    -1
  9
$ENDCAPS
280
     0
  9
$JOINSTYLE
280
     0
  9
$LWDISPLAY
290
     0
  9
$INSUNITS
 70
     4
  9
$HYPERLINKBASE
  1

  9
$STYLESHEET
  1
sei_cad.ctb
  9
$XEDIT
290
     1
  9
$CEPSNTYPE
380
     0
  9
$PSTYLEMODE
290
     1
  9
$FINGERPRINTGUID
  2
{C77AB3BE-9CA2-11D3-BAF3-006094EB760E}
  9
$VERSIONGUID
  2
{A2D4245C-B85A-4E35-8951-5073ADFB19E1}
  9
$EXTNAMES
290
     1
  9
$PSVPSCALE
 40
0.0
  9
$OLESTARTUP
290
     0
  0
ENDSEC
  0
SECTION
  2
CLASSES
  0
CLASS
  1
ACDBDICTIONARYWDFLT
  2
AcDbDictionaryWithDefault
  3
ObjectDBX Classes
 90
        0
280
     0
281
     0
  0
CLASS
  1
ACDBPLACEHOLDER
  2
AcDbPlaceHolder
  3
ObjectDBX Classes
 90
        0
280
     0
281
     0
  0
CLASS
  1
LAYOUT
  2
AcDbLayout
  3
ObjectDBX Classes
 90
        0
280
     0
281
     0
  0
CLASS
  1
ACME_DOCUMENT
  2
AcMeDbDoc
  3
AcMeServices
 90
        0
280
     1
281
     0
  0
CLASS
  1
ACMESCOPE
  2
AcMeScope
  3
AcMeServices
 90
        0
280
     1
281
     0
  0
CLASS
  1
ACMECOMMANDHISTORY
  2
AcMeCommandHistory
  3
AcMeServices
 90
        0
280
     1
281
     0
  0
CLASS
  1
DICTIONARYVAR
  2
AcDbDictionaryVar
  3
ObjectDBX Classes
 90
        0
280
     0
281
     0
  0
CLASS
  1
ACIMSYSVARMAN
  2
AcImSysVarManager
  3
AcMeServices
 90
        0
280
     1
281
     0
  0
CLASS
  1
ACIMREALSYSVAR
  2
AcImRealSysVar
  3
AcMeServices
 90
        0
280
     1
281
     0
  0
CLASS
  1
ACIMINTSYSVAR
  2
AcImIntSysVar
  3
AcMeServices
 90
        0
280
     1
281
     0
  0
CLASS
  1
ACMEDRAWINGMAN
  2
AcMeDrawingMan
  3
AcMeServices
 90
        0
280
     1
281
     0
  0
CLASS
  1
ACMEVIEW
  2
AcMeView
  3
AcMeServices
 90
        0
280
     1
281
     0
  0
CLASS
  1
ACDBENTITYCACHE
  2
AcMeEntityCache
  3
AcMeServices
 90
        0
280
     1
281
     0
  0
CLASS
  1
GSMANAGER
  2
AcMeGSManager
  3
AcMeServices
 90
        0
280
     1
281
     0
  0
CLASS
  1
AMDTINTERNALREACTOR
  2
AmdtInternalReactor
  3
AcMeServices
 90
        0
280
     1
281
     0
  0
CLASS
  1
ACMESTATEMGR
  2
AcMeStateMgr
  3
AcMeServices
 90
        0
280
     1
281
     0
  0
CLASS
  1
ACME_DATABASE
  2
AcMeDbDatabase
  3
AcMeServices
 90
        0
280
     1
281
     0
  0
CLASS
  1
ACRFINSADJUSTERMGR
  2
AcRfInsAdjusterMgr
  3
AcMeServices
 90
        0
280
     1
281
     0
  0
CLASS
  1
AMGSETTINGSOBJ
  2
AmgSettingsObj
  3
"AcadM|Product Description: AutoCAD Mechanical 2000|Company: Autodesk"
 90
        0
280
     1
281
     0
  0
CLASS
  1
AMGOBJPROPCFG
  2
AmgObjPropCfg
  3
"AmgLay|Product Description: AutoCAD Mechanical 2000|Company: Autodesk"
 90
        1
280
     1
281
     0
  0
CLASS
  1
ACMDATADICTIONARY
  2
AcmDataDictionary
  3
"AcmSymBB|Product Description: AutoCAD Mechanical 2004 DX|Company: Autodesk"
 90
        0
280
     1
281
     0
  0
CLASS
  1
ACMDATAENTRYBLOCK
  2
AcmDataEntryBlock
  3
"AcmSymBB|Product Description: AutoCAD Mechanical 2004 DX|Company: Autodesk"
 90
        0
280
     1
281
     0
  0
CLASS
  1
ACIMSTRSYSVAR
  2
AcImStrSysVar
  3
AcMeServices
 90
        0
280
     1
281
     0
  0
CLASS
  1
ACAMGFILTERDAT
  2
AcAmgFilterDat
  3
"AcadM|Product Description: AutoCAD Mechanical 2000|Company: Autodesk"
 90
        0
280
     1
281
     0
  0
CLASS
  1
LAYER_INDEX
  2
AcDbLayerIndex
  3
ObjectDBX Classes
 90
        0
280
     0
281
     0
  0
CLASS
  1
IDBUFFER
  2
AcDbIdBuffer
  3
ObjectDBX Classes
 90
        0
280
     0
281
     0
  0
CLASS
  1
ACMSTANDARDJIS
  2
AcmStandardJIS
  3
"Amdt_StdImp|Product Description: AutoCAD Mechanical 2004 DX|Company: Autodesk"
 90
        0
280
     1
281
     0
  0
CLASS
  1
ACMSURFSTANDARDJIS
  2
AcmSurfTextStdJIS
  3
"Amdt_StdImp|Product Description: AutoCAD Mechanical 2004 DX|Company: Autodesk"
 90
        0
280
     1
281
     0
  0
CLASS
  1
ACMFCFSTANDARDJIS
  2
AcmFCFStdJIS
  3
"Amdt_StdImp|Product Description: AutoCAD Mechanical 2004 DX|Company: Autodesk"
 90
        0
280
     1
281
     0
  0
CLASS
  1
ACMWELDSTANDARDJIS
  2
AcmWeldingStdJIS
  3
"Amdt_StdImp|Product Description: AutoCAD Mechanical 2004 DX|Company: Autodesk"
 90
        0
280
     1
281
     0
  0
CLASS
  1
ACMIDSTANDARDJIS
  2
AcmIdStdJIS
  3
"Amdt_StdImp|Product Description: AutoCAD Mechanical 2004 DX|Company: Autodesk"
 90
        0
280
     1
281
     0
  0
CLASS
  1
ACMDATUMSTANDARDJIS
  2
AcmDatumStdJIS
  3
"Amdt_StdImp|Product Description: AutoCAD Mechanical 2004 DX|Company: Autodesk"
 90
        0
280
     1
281
     0
  0
CLASS
  1
ACMBOMSTANDARDJIS
  2
AcmBOMStdJIS
  3
"Amdt_StdImp|Product Description: AutoCAD Mechanical 2004 DX|Company: Autodesk"
 90
        0
280
     1
281
     0
  0
CLASS
  1
AMDTNOTE
  2
AmdtNote
  3
"AcmSymBB|Product Description: AutoCAD Mechanical 2004 DX|Company: Autodesk"
 90
     1023
280
     1
281
     1
  0
CLASS
  1
TABLESTYLE
  2
AcDbTableStyle
  3
ObjectDBX Classes
 90
     2047
280
     0
281
     0
  0
CLASS
  1
ACGREFMASTER
  2
AcGrefMaster
  3
AcAttribServices
 90
        0
280
     1
281
     0
  0
CLASS
  1
AM_DRAWING_MGR
  2
AcDmDwgMgr
  3
AcMechDwgViewMgmt
 90
        0
280
     1
281
     0
  0
CLASS
  1
AM_DWG_DOCUMENT
  2
AcDmDwgDocument
  3
AcMechDwgViewMgmt
 90
        0
280
     1
281
     0
  0
CLASS
  1
AM_DWG_SHEET
  2
AcDmSheet
  3
AcMechDwgViewMgmt
 90
        0
280
     1
281
     0
  0
CLASS
  1
AM_VIEWDIMPARMAP
  2
AcDmViewDimParMap
  3
AcMechDwgViewMgmt
 90
        0
280
     1
281
     0
  0
CLASS
  1
AM_DWGMGR_NAME
  2
AcDmDwgMgrName
  3
AcMechDwgViewMgmt
 90
        0
280
     1
281
     0
  0
CLASS
  1
ACGREFACADMASTER
  2
AcGrefacadMaster
  3
AcGrefServices
 90
        0
280
     1
281
     0
  0
CLASS
  1
AMDTMENUSTATEMGR
  2
AmdtMenuStateMgr
  3
McadcomServices
 90
        0
280
     1
281
     0
  0
CLASS
  1
AMDTMCOMMENUSTATE
  2
AmdtMcomMenuState
  3
McadcomServices
 90
        0
280
     1
281
     0
  0
CLASS
  1
AMIMASTER
  2
AmiMaster
  3
AmiServices
 90
        0
280
     1
281
     0
  0
CLASS
  1
MAPIAMMOUDLE
  2
MApiAmModule
  3
MApiAmServices
 90
        0
280
     1
281
     0
  0
CLASS
  1
AMDTADMENUSTATE
  2
AmdtAdMenuState
  3
DesignerServices
 90
        0
280
     1
281
     0
  0
CLASS
  1
ADAPPL
  2
AcAdAppl
  3
DesignerServices
 90
        0
280
     1
281
     0
  0
CLASS
  1
DEPMGR
  2
AcAdDepMgr
  3
DesignerServices
 90
        0
280
     1
281
     0
  0
CLASS
  1
PARAMMGR
  2
AcAdParamMgr
  3
DesignerServices
 90
        0
280
     1
281
     0
  0
CLASS
  1
PARAMSCOPE
  2
AcAdParamScope
  3
DesignerServices
 90
        0
280
     1
281
     0
  0
CLASS
  1
NAMEDAPPL
  2
AcAdNamedAppl
  3
DesignerServices
 90
        0
280
     1
281
     0
  0
CLASS
  1
AMDTDMMENUSTATE
  2
AmdtDmMenuState
  3
AcMechDwgViewMgmt
 90
        0
280
     1
281
     0
  0
CLASS
  1
AMDTAMMENUSTATE
  2
AmdtAmMenuState
  3
DesignerAssemblies
 90
        0
280
     1
281
     0
  0
CLASS
  1
ACAMPROJECT
  2
AcAmProject
  3
DesignerAssemblies
 90
        0
280
     1
281
     0
  0
CLASS
  1
ACAMGRCOMPDEF
  2
AcAmGrCompDef
  3
DesignerAssemblies
 90
        0
280
     1
281
     0
  0
CLASS
  1
ACCMCONTEXT
  2
AcCmContext
  3
DesignerAssemblies
 90
        0
280
     1
281
     0
  0
CLASS
  1
ACAMCOMPDEF
  2
AcAmCompDef
  3
DesignerAssemblies
 90
        0
280
     1
281
     0
  0
CLASS
  1
ACAMCOMPDEFMGR
  2
AcAmCompDefMgr
  3
DesignerAssemblies
 90
        0
280
     1
281
     0
  0
CLASS
  1
AMCONTEXTMGR
  2
AcAmContextMgr
  3
DesignerAssemblies
 90
        0
280
     1
281
     0
  0
CLASS
  1
ACAMCONTEXTMODELER
  2
AcAmContextModeler
  3
DesignerAssemblies
 90
        0
280
     1
281
     0
  0
CLASS
  1
ACAMGTITLESTD
  2
AcAmgTitleStd
  3
"TITLEAPP"
 90
        0
280
     1
281
     0
  0
CLASS
  1
ACMDETAILSTANDARDJIS
  2
AmdtDetailSymStdJIS
  3
"Amdt_StdImp|Product Description: AutoCAD Mechanical 2004 DX|Company: Autodesk"
 90
        0
280
     1
281
     0
  0
CLASS
  1
ACMSECTIONSTANDARDJIS
  2
AmdtSectionSymStdJIS
  3
"Amdt_StdImp|Product Description: AutoCAD Mechanical 2004 DX|Company: Autodesk"
 90
        0
280
     1
281
     0
  0
CLASS
  1
ACMCENTERLINESTANDARDJIS
  2
AmdtCenterLineStdJIS
  3
"Amdt_StdImp|Product Description: AutoCAD Mechanical 2004 DX|Company: Autodesk"
 90
        0
280
     1
281
     0
  0
CLASS
  1
ACMTHREADLINESTANDARDJIS
  2
AmdtThreadLineStdJIS
  3
"Amdt_StdImp|Product Description: AutoCAD Mechanical 2004 DX|Company: Autodesk"
 90
        0
280
     1
281
     0
  0
CLASS
  1
ACMNOTESTANDARDJIS
  2
AmdtNoteStdJIS
  3
"Amdt_StdImp|Product Description: AutoCAD Mechanical 2004 DX|Company: Autodesk"
 90
        0
280
     1
281
     0
  0
CLASS
  1
AMDTNOTETEMPLATEDB
  2
AmdtNoteTemplateDB
  3
AMDT_STDIMP_MODULE_NAME
 90
        0
280
     1
281
     0
  0
CLASS
  1
ACAMGLAYSTD
  2
AcAmgLayStd
  3
"AcAmgLayStd|Product Description: AutoCAD Mechanical 2000|Company: Autodesk"
 90
        0
280
     1
281
     0
  0
CLASS
  1
ACAMGDIMSTD
  2
AcAmgDimStd
  3
"AcAmgDimStd|Product Description: AutoCAD Mechanical 2000|Company: Autodesk"
 90
        0
280
     1
281
     0
  0
CLASS
  1
ACAMGHOLECHARTSTDJIS
  2
AcAmgHoleChartStdJIS
  3
ACMSYMBB_MODULE_NAME
 90
        0
280
     1
281
     0
  0
CLASS
  1
CATALOGSTATE
  2
AcAmCatalogState
  3
DesignerAssemblies
 90
        0
280
     1
281
     0
  0
CLASS
  1
ACAMGRCOMPDEFSET
  2
AcAmGrCompDefSet
  3
DesignerAssemblies
 90
        0
280
     1
281
     0
  0
CLASS
  1
AMDTBROWSERDBTAB
  2
AmdtBrowserDbTab
  3
McadcomServices
 90
        0
280
     1
281
     0
  0
CLASS
  1
CBROWSERAPPOBJECT
  2
CBrowserAppObject
  3
McadcomServices
 90
        0
280
     1
281
     0
  0
CLASS
  1
DM_PLACEHOLDER
  2
AcDmSelsetPlaceholder
  3
AcMechDwgViewMgmt
 90
        0
280
     1
281
     0
  0
CLASS
  1
SORTENTSTABLE
  2
AcDbSortentsTable
  3
ObjectDBX Classes
 90
        0
280
     0
281
     0
  0
CLASS
  1
ACMSTANDARDISO
  2
AcmStandardISO
  3
"Amdt_StdImp|Product Description: AutoCAD Mechanical 2004 DX|Company: Autodesk"
 90
        0
280
     1
281
     0
  0
CLASS
  1
AMDTEDGESTANDARDISO13715
  2
AmdtEdgeStdISO13715
  3
"Amdt_StdImp|Product Description: AutoCAD Mechanical 2004 DX|Company: Autodesk"
 90
        0
280
     1
281
     0
  0
CLASS
  1
ACMSURFSTANDARDISO
  2
AcmSurfTextStdISO
  3
"Amdt_StdImp|Product Description: AutoCAD Mechanical 2004 DX|Company: Autodesk"
 90
        0
280
     1
281
     0
  0
CLASS
  1
ACMFCFSTANDARDISO
  2
AcmFCFStdISO
  3
"Amdt_StdImp|Product Description: AutoCAD Mechanical 2004 DX|Company: Autodesk"
 90
        0
280
     1
281
     0
  0
CLASS
  1
ACMWELDSTANDARDISO
  2
AcmWeldingStdISO
  3
"Amdt_StdImp|Product Description: AutoCAD Mechanical 2004 DX|Company: Autodesk"
 90
        0
280
     1
281
     0
  0
CLASS
  1
ACMIDSTANDARDISO
  2
AcmIdStdISO
  3
"Amdt_StdImp|Product Description: AutoCAD Mechanical 2004 DX|Company: Autodesk"
 90
        0
280
     1
281
     0
  0
CLASS
  1
ACMDATUMSTANDARDISO
  2
AcmDatumStdISO
  3
"Amdt_StdImp|Product Description: AutoCAD Mechanical 2004 DX|Company: Autodesk"
 90
        0
280
     1
281
     0
  0
CLASS
  1
ACMBOMSTANDARDISO
  2
AcmBOMStdISO
  3
"Amdt_StdImp|Product Description: AutoCAD Mechanical 2004 DX|Company: Autodesk"
 90
        0
280
     1
281
     0
  0
CLASS
  1
ACMDETAILSTANDARDISO
  2
AmdtDetailSymStdISO
  3
"Amdt_StdImp|Product Description: AutoCAD Mechanical 2004 DX|Company: Autodesk"
 90
        0
280
     1
281
     0
  0
CLASS
  1
ACMSECTIONSTANDARDISO
  2
AmdtSectionSymStdISO
  3
"Amdt_StdImp|Product Description: AutoCAD Mechanical 2004 DX|Company: Autodesk"
 90
        0
280
     1
281
     0
  0
CLASS
  1
ACMCENTERLINESTANDARDISO
  2
AmdtCenterLineStdISO
  3
"Amdt_StdImp|Product Description: AutoCAD Mechanical 2004 DX|Company: Autodesk"
 90
        0
280
     1
281
     0
  0
CLASS
  1
ACMTHREADLINESTANDARDISO
  2
AmdtThreadLineStdISO
  3
"Amdt_StdImp|Product Description: AutoCAD Mechanical 2004 DX|Company: Autodesk"
 90
        0
280
     1
281
     0
  0
CLASS
  1
ACMNOTESTANDARDISO
  2
AmdtNoteStdISO
  3
"Amdt_StdImp|Product Description: AutoCAD Mechanical 2004 DX|Company: Autodesk"
 90
        0
280
     1
281
     0
  0
CLASS
  1
ACAMGHOLECHARTSTDISO
  2
AcAmgHoleChartStdISO
  3
ACMSYMBB_MODULE_NAME
 90
        0
280
     1
281
     0
  0
CLASS
  1
AMDTFORMULAUPDATEDISPATCHER
  2
AmdtFormulaUpdateDispatcher
  3
AcMeServices
 90
        0
280
     1
281
     0
  0
ENDSEC
  0
SECTION
  2
TABLES
  0
TABLE
  2
VPORT
  5
8
330
0
100
AcDbSymbolTable
 70
    16
  0
VPORT
  5
152A6
330
8
100
AcDbSymbolTableRecord
100
AcDbViewportTableRecord
  2
*Active
 70
     0
 10
0.0
 20
0.0
 11
1.0
 21
1.0
 12
46.71941406559893
 22
-44.69215733000095
 13
0.0
 23
0.0
 14
2.5
 24
2.5
 15
10.0
 25
10.0
 16
0.0
 26
0.0
 36
1.0
 17
0.0
 27
0.0
 37
0.0
 40
170.9139208771539
 41
1.697058823529412
 42
50.0
 43
0.0
 44
0.0
 50
0.0
 51
0.0
 71
    16
 72
 20000
 73
     1
 74
     3
 75
     0
 76
     0
 77
     0
 78
     0
281
     0
 65
     1
110
0.0
120
0.0
130
0.0
111
1.0
121
0.0
131
0.0
112
0.0
122
1.0
132
0.0
 79
     0
146
0.0
  0
ENDTAB
  0
TABLE
  2
LTYPE
  5
5
330
0
100
AcDbSymbolTable
 70
    16
  0
LTYPE
  5
14
330
5
100
AcDbSymbolTableRecord
100
AcDbLinetypeTableRecord
  2
ByBlock
 70
     0
  3

 72
    65
 73
     0
 40
0.0
  0
LTYPE
  5
15
330
5
100
AcDbSymbolTableRecord
100
AcDbLinetypeTableRecord
  2
ByLayer
 70
     0
  3

 72
    65
 73
     0
 40
0.0
  0
LTYPE
  5
16
330
5
100
AcDbSymbolTableRecord
100
AcDbLinetypeTableRecord
  2
Continuous
 70
     0
  3
Solid line
 72
    65
 73
     0
 40
0.0
  0
LTYPE
  5
43
330
5
100
AcDbSymbolTableRecord
100
AcDbLinetypeTableRecord
  2
AM_ISO02W050
 70
     0
  3
__ __ __ __ __ __ __ __ __ __ __ __ __ __ __
 72
    65
 73
     2
 40
7.5
 49
6.0
 74
     0
 49
-1.5
 74
     0
  0
LTYPE
  5
44
330
5
100
AcDbSymbolTableRecord
100
AcDbLinetypeTableRecord
  2
AM_ISO08W050
 70
     0
  3
____ . ____ . ____ . ____ . ____ . ____ . ____
 72
    65
 73
     4
 40
18.0
 49
12.0
 74
     0
 49
-1.5
 74
     0
 49
3.0
 74
     0
 49
-1.5
 74
     0
  0
LTYPE
  5
45
330
5
100
AcDbSymbolTableRecord
100
AcDbLinetypeTableRecord
  2
AM_ISO09W050
 70
     0
  3
_____ . . _____ . . _____ . . ____ .. ____
 72
    65
 73
     6
 40
22.5
 49
12.0
 74
     0
 49
-1.5
 74
     0
 49
3.0
 74
     0
 49
-1.5
 74
     0
 49
3.0
 74
     0
 49
-1.5
 74
     0
  0
LTYPE
  5
46
330
5
100
AcDbSymbolTableRecord
100
AcDbLinetypeTableRecord
  2
Amconstr
 70
     0
  3
_______________________
 72
    65
 73
     2
 40
9999.0
 49
9999.0
 74
     0
 49
0.0
 74
     0
  0
LTYPE
  5
47
330
5
100
AcDbSymbolTableRecord
100
AcDbLinetypeTableRecord
  2
AM_ISO02W050x2
 70
     0
  3
 _ _ _ _ _ _ _ _ _ _ _ _
 72
    65
 73
     2
 40
3.75
 49
3.0
 74
     0
 49
-0.75
 74
     0
  0
LTYPE
  5
48
330
5
100
AcDbSymbolTableRecord
100
AcDbLinetypeTableRecord
  2
AM_ISO08W050x2
 70
     0
  3
__ . __ . __ . __ . __ . __
 72
    65
 73
     4
 40
9.0
 49
6.0
 74
     0
 49
-0.75
 74
     0
 49
1.5
 74
     0
 49
-0.75
 74
     0
  0
LTYPE
  5
4B
330
5
100
AcDbSymbolTableRecord
100
AcDbLinetypeTableRecord
  2
Amzigzag
 70
     0
  3
/\/-/\/-/\/-/\/-/\/-/\/
 72
    65
 73
     2
 40
11.0001
 49
0.0001
 74
     4
 75
   135
340
4A
 46
0.04
 50
0.0
 44
0.0
 45
0.0
 49
-11.0
 74
     0
  0
LTYPE
  5
188
330
5
100
AcDbSymbolTableRecord
100
AcDbLinetypeTableRecord
  2
ACJISTGB
 70
     0
  3
__ . . __ . .
 72
    65
 73
     6
 40
9.0
 49
4.0
 74
     0
 49
-1.0
 74
     0
 49
1.0
 74
     0
 49
-1.0
 74
     0
 49
1.0
 74
     0
 49
-1.0
 74
     0
  0
LTYPE
  5
189
330
5
100
AcDbSymbolTableRecord
100
AcDbLinetypeTableRecord
  2
ACJISTGL
 70
     0
  3
_ _ _ _ _
 72
    65
 73
     2
 40
3.0
 49
2.0
 74
     0
 49
-1.0
 74
     0
  0
LTYPE
  5
652
330
5
100
AcDbSymbolTableRecord
100
AcDbLinetypeTableRecord
  2
CENTER
 70
     0
  3
____ _ ____ _ ____ _ ____ _ ____ _ ____ _ ____
 72
    65
 73
     4
 40
17.5
 49
13.0
 74
     0
 49
-1.5
 74
     0
 49
1.5
 74
     0
 49
-1.5
 74
     0
  0
LTYPE
  5
12AB
330
5
100
AcDbSymbolTableRecord
100
AcDbLinetypeTableRecord
  2
HIDDEN
 70
     0
  3
Hidden __ __ __ __ __ __ __ __ __ __ __ __ __ _
 72
    65
 73
     2
 40
0.375
 49
0.25
 74
     0
 49
-0.125
 74
     0
  0
LTYPE
  5
12AC
330
5
100
AcDbSymbolTableRecord
100
AcDbLinetypeTableRecord
  2
PHANTOM2
 70
     0
  3
Phantom (.5x) ___ _ _ ___ _ _ ___ _ _ ___ _ _
 72
    65
 73
     6
 40
1.25
 49
0.625
 74
     0
 49
-0.125
 74
     0
 49
0.125
 74
     0
 49
-0.125
 74
     0
 49
0.125
 74
     0
 49
-0.125
 74
     0
  0
LTYPE
  5
F5A5
330
5
100
AcDbSymbolTableRecord
100
AcDbLinetypeTableRecord
  2
ACISOWELD
 70
     0
  3
_ _ _ _ _
 72
    65
 73
     2
 40
2.0
 49
2.0
 74
     0
 49
-1.0
 74
     0
  0
LTYPE
  5
F5A6
330
5
100
AcDbSymbolTableRecord
100
AcDbLinetypeTableRecord
  2
ACISOTGB
 70
     0
  3
__ . . __ . .
 72
    65
 73
     6
 40
9.0
 49
4.0
 74
     0
 49
-1.0
 74
     0
 49
1.0
 74
     0
 49
-1.0
 74
     0
 49
1.0
 74
     0
 49
-1.0
 74
     0
  0
LTYPE
  5
F5A7
330
5
100
AcDbSymbolTableRecord
100
AcDbLinetypeTableRecord
  2
ACISOTGL
 70
     0
  3
_ _ _ _ _
 72
    65
 73
     2
 40
3.0
 49
2.0
 74
     0
 49
-1.0
 74
     0
  0
ENDTAB
  0
TABLE
  2
LAYER
  5
2
102
{ACAD_XDICTIONARY
360
EDC8
102
}
330
0
100
AcDbSymbolTable
 70
     5
  0
LAYER
  5
10
330
2
100
AcDbSymbolTableRecord
100
AcDbLayerTableRecord
  2
0
 70
     0
 62
     7
  6
Continuous
370
    -3
390
F
  0
LAYER
  5
7D
330
2
100
AcDbSymbolTableRecord
100
AcDbLayerTableRecord
  2
AM_5
 70
     0
 62
     3
  6
Continuous
370
    13
390
F
  0
LAYER
  5
7F
330
2
100
AcDbSymbolTableRecord
100
AcDbLayerTableRecord
  2
Defpoints
 70
     0
 62
     7
  6
Continuous
290
     0
370
    -3
390
F
  0
LAYER
  5
12B1
330
2
100
AcDbSymbolTableRecord
100
AcDbLayerTableRecord
  2
AM_0
 70
     0
 62
     7
  6
Continuous
370
    30
390
F
  0
LAYER
  5
18A5
330
2
100
AcDbSymbolTableRecord
100
AcDbLayerTableRecord
  2
AM_6
 70
     0
 62
     2
  6
Continuous
370
    30
390
F
  0
ENDTAB
  0
TABLE
  2
STYLE
  5
3
330
0
100
AcDbSymbolTable
 70
     6
  0
STYLE
  5
11
330
3
100
AcDbSymbolTableRecord
100
AcDbTextStyleTableRecord
  2
STANDARD
 70
     0
 40
0.0
 41
1.0
 50
0.0
 71
     0
 42
10.0
  3
ISOCP.SHX
  4
EXTFONT.SHX
  0
STYLE
  5
4A
330
3
100
AcDbSymbolTableRecord
100
AcDbTextStyleTableRecord
  2

 70
     1
 40
0.0
 41
1.0
 50
0.0
 71
     0
 42
2.5
  3
ltypeshp.shx
  4

  0
STYLE
  5
180
330
3
100
AcDbSymbolTableRecord
100
AcDbTextStyleTableRecord
  2
ACJISTS
 70
     0
 40
1.0
 41
1.0
 50
0.0
 71
     0
 42
2.5
  3
isocp.shx
  4
bigfont.shx
  0
STYLE
  5
187
330
3
100
AcDbSymbolTableRecord
100
AcDbTextStyleTableRecord
  2
ACJISGDT
 70
     0
 40
0.0
 41
1.0
 50
0.0
 71
     0
 42
2.5
  3
amgdt.shx
  4

  0
STYLE
  5
F5A9
330
3
100
AcDbSymbolTableRecord
100
AcDbTextStyleTableRecord
  2
ACISOTS
 70
     0
 40
1.0
 41
1.0
 50
0.0
 71
     0
 42
1.0
  3
isocp.shx
  4
extfont.shx
  0
STYLE
  5
F5AA
330
3
100
AcDbSymbolTableRecord
100
AcDbTextStyleTableRecord
  2
ACISOGDT
 70
     0
 40
0.0
 41
1.0
 50
0.0
 71
     0
 42
1.0
  3
amgdt.shx
  4

  0
ENDTAB
  0
TABLE
  2
VIEW
  5
6
330
0
100
AcDbSymbolTable
 70
     6
  0
VIEW
  5
A30
330
6
100
AcDbSymbolTableRecord
100
AcDbViewTableRecord
  2
AM_VIEW1
 70
     0
 40
148.5
 10
109.5616966580977
 20
222.75
 41
219.1233933161954
 11
0.0
 21
0.0
 31
1.0
 12
0.0
 22
0.0
 32
0.0
 42
50.0
 43
0.0
 44
0.0
 50
0.0
 71
    16
281
     0
 72
     0
  0
VIEW
  5
A31
330
6
100
AcDbSymbolTableRecord
100
AcDbViewTableRecord
  2
AM_VIEW2
 70
     0
 40
148.5
 10
310.4383033419023
 20
222.75
 41
219.1233933161954
 11
0.0
 21
0.0
 31
1.0
 12
0.0
 22
0.0
 32
0.0
 42
50.0
 43
0.0
 44
0.0
 50
0.0
 71
    16
281
     0
 72
     0
  0
VIEW
  5
A32
330
6
100
AcDbSymbolTableRecord
100
AcDbViewTableRecord
  2
AM_VIEW3
 70
     0
 40
148.5
 10
109.5616966580977
 20
74.25
 41
219.1233933161954
 11
0.0
 21
0.0
 31
1.0
 12
0.0
 22
0.0
 32
0.0
 42
50.0
 43
0.0
 44
0.0
 50
0.0
 71
    16
281
     0
 72
     0
  0
VIEW
  5
A33
330
6
100
AcDbSymbolTableRecord
100
AcDbViewTableRecord
  2
AM_VIEW4
 70
     0
 40
148.5
 10
310.4383033419023
 20
74.25
 41
219.1233933161954
 11
0.0
 21
0.0
 31
1.0
 12
0.0
 22
0.0
 32
0.0
 42
50.0
 43
0.0
 44
0.0
 50
0.0
 71
    16
281
     0
 72
     0
  0
VIEW
  5
A34
330
6
100
AcDbSymbolTableRecord
100
AcDbViewTableRecord
  2
AM_VIEW5
 70
     0
 40
148.5
 10
210.0
 20
148.5
 41
219.1233933161954
 11
0.0
 21
0.0
 31
1.0
 12
0.0
 22
0.0
 32
0.0
 42
50.0
 43
0.0
 44
0.0
 50
0.0
 71
    16
281
     0
 72
     0
  0
VIEW
  5
A35
330
6
100
AcDbSymbolTableRecord
100
AcDbViewTableRecord
  2
AM_VIEW6
 70
     0
 40
296.99703
 10
210.0
 20
148.5
 41
438.2424041645245
 11
0.0
 21
0.0
 31
1.0
 12
0.0
 22
0.0
 32
0.0
 42
50.0
 43
0.0
 44
0.0
 50
0.0
 71
    16
281
     0
 72
     0
  0
ENDTAB
  0
TABLE
  2
UCS
  5
7
330
0
100
AcDbSymbolTable
 70
     0
  0
ENDTAB
  0
TABLE
  2
APPID
  5
9
330
0
100
AcDbSymbolTable
 70
    45
  0
APPID
  5
12
330
9
100
AcDbSymbolTableRecord
100
AcDbRegAppTableRecord
  2
ACAD
 70
     0
  0
APPID
  5
2C
330
9
100
AcDbSymbolTableRecord
100
AcDbRegAppTableRecord
  2
MCAD_NO_VIS
 70
     0
  0
APPID
  5
2D
330
9
100
AcDbSymbolTableRecord
100
AcDbRegAppTableRecord
  2
ACAD_TEMP_GRAPHIC
 70
     0
  0
APPID
  5
B9
330
9
100
AcDbSymbolTableRecord
100
AcDbRegAppTableRecord
  2
GENIUS_GENDTOL_13
 70
     0
  0
APPID
  5
359
330
9
100
AcDbSymbolTableRecord
100
AcDbRegAppTableRecord
  2
GENIUS_GENREC_14
 70
     0
  0
APPID
  5
35A
330
9
100
AcDbSymbolTableRecord
100
AcDbRegAppTableRecord
  2
GENIUS_GENODEF_13
 70
     0
  0
APPID
  5
35B
330
9
100
AcDbSymbolTableRecord
100
AcDbRegAppTableRecord
  2
GENIUS_GENOBJ-N-REC_13
 70
     0
  0
APPID
  5
667
330
9
100
AcDbSymbolTableRecord
100
AcDbRegAppTableRecord
  2
GENIUS_GENCFG_13
 70
     0
  0
APPID
  5
668
330
9
100
AcDbSymbolTableRecord
100
AcDbRegAppTableRecord
  2
GENIUS_GENCFG0_13
 70
     0
  0
APPID
  5
669
330
9
100
AcDbSymbolTableRecord
100
AcDbRegAppTableRecord
  2
GENIUS_GENCFG1_13
 70
     0
  0
APPID
  5
66A
330
9
100
AcDbSymbolTableRecord
100
AcDbRegAppTableRecord
  2
GENIUS_GENCFG2_13
 70
     0
  0
APPID
  5
66B
330
9
100
AcDbSymbolTableRecord
100
AcDbRegAppTableRecord
  2
GENIUS_GENCFG3_13
 70
     0
  0
APPID
  5
66C
330
9
100
AcDbSymbolTableRecord
100
AcDbRegAppTableRecord
  2
GENIUS_GENCFG4_13
 70
     0
  0
APPID
  5
A76
330
9
100
AcDbSymbolTableRecord
100
AcDbRegAppTableRecord
  2
GENIUS_GENBLLY_14
 70
     0
  0
APPID
  5
A77
330
9
100
AcDbSymbolTableRecord
100
AcDbRegAppTableRecord
  2
GENIUS_GENOBJ-N-CEN_13
 70
     0
  0
APPID
  5
A83
330
9
100
AcDbSymbolTableRecord
100
AcDbRegAppTableRecord
  2
GENIUS_GENTRA_14
 70
     0
  0
APPID
  5
A8D
330
9
100
AcDbSymbolTableRecord
100
AcDbRegAppTableRecord
  2
GENIUS_GENOBJ-N-TIT_13
 70
     0
  0
APPID
  5
A8E
330
9
100
AcDbSymbolTableRecord
100
AcDbRegAppTableRecord
  2
GENIUS_GENTITLE_13
 70
     0
  0
APPID
  5
A8F
330
9
100
AcDbSymbolTableRecord
100
AcDbRegAppTableRecord
  2
GENIUS_GENOENT_13
 70
     0
  0
APPID
  5
A90
330
9
100
AcDbSymbolTableRecord
100
AcDbRegAppTableRecord
  2
GENIUS_GENOREF_13
 70
     0
  0
APPID
  5
A91
330
9
100
AcDbSymbolTableRecord
100
AcDbRegAppTableRecord
  2
GENIUS_GENOLIS_13
 70
     0
  0
APPID
  5
A92
330
9
100
AcDbSymbolTableRecord
100
AcDbRegAppTableRecord
  2
GENIUS_GENZVEED_13
 70
     0
  0
APPID
  5
A93
330
9
100
AcDbSymbolTableRecord
100
AcDbRegAppTableRecord
  2
GENIUS_GENSCREG_15
 70
     0
  0
APPID
  5
A94
330
9
100
AcDbSymbolTableRecord
100
AcDbRegAppTableRecord
  2
GENIUS_GENOBJ-N-SDF_13
 70
     0
  0
APPID
  5
12B5
330
9
100
AcDbSymbolTableRecord
100
AcDbRegAppTableRecord
  2
GENIUS_GENOBJ-N-RSBK_13
 70
     0
  0
APPID
  5
12B6
330
9
100
AcDbSymbolTableRecord
100
AcDbRegAppTableRecord
  2
GENIUS_GENOBJ-N-LIB_13
 70
     0
  0
APPID
  5
12B7
330
9
100
AcDbSymbolTableRecord
100
AcDbRegAppTableRecord
  2
GENIUS_GENSCALE_13
 70
     0
  0
APPID
  5
12B8
330
9
100
AcDbSymbolTableRecord
100
AcDbRegAppTableRecord
  2
GENIUS_GENOBJ-N-HTC_13
 70
     0
  0
APPID
  5
12B9
330
9
100
AcDbSymbolTableRecord
100
AcDbRegAppTableRecord
  2
GENIUS_GENHATCH_13
 70
     0
  0
APPID
  5
18AA
330
9
100
AcDbSymbolTableRecord
100
AcDbRegAppTableRecord
  2
BASE_TYPE
 70
     0
  0
APPID
  5
18AB
330
9
100
AcDbSymbolTableRecord
100
AcDbRegAppTableRecord
  2
GENIUS_GENOBJ-N-FIL_13
 70
     0
  0
APPID
  5
1E91
330
9
100
AcDbSymbolTableRecord
100
AcDbRegAppTableRecord
  2
GENIUS_GENOBJ-N-CRS_13
 70
     0
  0
APPID
  5
3B24
330
9
100
AcDbSymbolTableRecord
100
AcDbRegAppTableRecord
  2
GENIUS_GENDIMSH_14
 70
     0
  0
APPID
  5
4D78
330
9
100
AcDbSymbolTableRecord
100
AcDbRegAppTableRecord
  2
GENIUS_GENOBJ-N-DIM_13
 70
     0
  0
APPID
  5
4D79
330
9
100
AcDbSymbolTableRecord
100
AcDbRegAppTableRecord
  2
GENIUS_GENDIM_13
 70
     0
  0
APPID
  5
517C
330
9
100
AcDbSymbolTableRecord
100
AcDbRegAppTableRecord
  2
GENIUS_GENFIL_13
 70
     0
  0
APPID
  5
517D
330
9
100
AcDbSymbolTableRecord
100
AcDbRegAppTableRecord
  2
GENIUS_GENOBJ-N-CHA_13
 70
     0
  0
APPID
  5
ED83
330
9
100
AcDbSymbolTableRecord
100
AcDbRegAppTableRecord
  2
AD_DRAW
 70
     0
  0
APPID
  5
ED86
330
9
100
AcDbSymbolTableRecord
100
AcDbRegAppTableRecord
  2
ACATTRIBSERVICES
 70
     0
  0
APPID
  5
EDA4
330
9
100
AcDbSymbolTableRecord
100
AcDbRegAppTableRecord
  2
DESIGNERASSEMBLIES
 70
     0
  0
APPID
  5
EDB7
330
9
100
AcDbSymbolTableRecord
100
AcDbRegAppTableRecord
  2
ACADM_DIM_EDIT
 70
     0
  0
APPID
  5
EDB8
330
9
100
AcDbSymbolTableRecord
100
AcDbRegAppTableRecord
  2
AMDT_DM_ADJ
 70
     0
  0
APPID
  5
F08C
330
9
100
AcDbSymbolTableRecord
100
AcDbRegAppTableRecord
  2
ACAD_PSEXT
 70
     0
  0
APPID
  5
F2B1
330
9
100
AcDbSymbolTableRecord
100
AcDbRegAppTableRecord
  2
GENIUS_GENCEN_19
 70
     0
  0
APPID
  5
10513
330
9
100
AcDbSymbolTableRecord
100
AcDbRegAppTableRecord
  2
ACAD_DSTYLE_DIMTEXT_FILL
 70
     0
  0
ENDTAB
  0
TABLE
  2
DIMSTYLE
  5
A
330
0
100
AcDbSymbolTable
 70
    17
100
AcDbDimStyleTable
  0
DIMSTYLE
105
58
330
A
100
AcDbSymbolTableRecord
100
AcDbDimStyleTableRecord
  2
AM_JIS
 70
     0
  4
"
 41
2.5
 42
0.0
 43
10.0
 44
1.0
 47
0.1
 48
0.1000000001
 73
     0
 74
     0
 77
     3
 78
     1
 79
     2
140
3.8
141
0.0
143
0.0393701
146
0.71
147
1.5
172
     1
176
   256
177
   256
178
     2
179
     1
271
     2
272
     2
275
     1
283
     0
284
     8
340
11
341
59
342
59
371
    -1
372
    -1
  0
DIMSTYLE
105
5F
330
A
100
AcDbSymbolTableRecord
100
AcDbDimStyleTableRecord
  2
AM_JIS$3
 70
     0
  4
"
 41
2.5
 42
0.0
 43
10.0
 44
1.0
 47
0.1
 48
0.1000000001
 73
     0
 77
     3
 78
     1
 79
     2
140
3.8
141
0.0
143
0.0393701
146
0.71
147
1.5
172
     1
176
   256
177
   256
178
     2
179
     1
271
     2
272
     2
275
     1
283
     0
284
     8
288
     1
289
     0
340
11
341
59
342
59
371
    -1
372
    -1
  0
DIMSTYLE
105
60
330
A
100
AcDbSymbolTableRecord
100
AcDbDimStyleTableRecord
  2
AM_JIS$4
 70
     0
  4
"
 41
2.5
 42
0.0
 43
10.0
 44
1.0
 47
0.1
 48
0.1000000001
 73
     0
 77
     3
 78
     1
 79
     2
140
3.8
141
0.0
143
0.0393701
146
0.71
147
1.5
172
     1
176
   256
177
   256
178
     2
179
     1
271
     2
272
     2
275
     1
283
     0
284
     8
288
     1
289
     0
340
11
341
59
342
59
371
    -1
372
    -1
  0
DIMSTYLE
105
61
330
A
100
AcDbSymbolTableRecord
100
AcDbDimStyleTableRecord
  2
AM_JIS$6
 70
     0
  4
"
 41
2.5
 42
0.0
 43
10.0
 44
1.0
 47
0.1
 48
0.1000000001
 73
     0
 74
     0
 78
     1
 79
     2
140
3.8
141
0.0
143
0.0393701
146
0.71
147
1.5
172
     1
176
   256
177
   256
178
     2
179
     1
271
     2
272
     2
275
     1
283
     0
284
     8
340
11
341
59
342
59
371
    -1
372
    -1
  0
DIMSTYLE
105
62
330
A
100
AcDbSymbolTableRecord
100
AcDbDimStyleTableRecord
  2
AM_JIS$7
 70
     0
  4
"
 41
2.5
 42
0.0
 43
10.0
 44
1.0
 47
0.1
 48
0.1000000001
 73
     0
 74
     0
 77
     3
 78
     1
 79
     2
140
5.0
141
0.0
143
0.0393701
146
0.71
147
1.5
172
     1
176
   256
177
   256
178
     2
179
     1
271
     2
272
     2
275
     1
283
     0
284
     8
340
11
341
59
342
59
371
    -1
372
    -1
  0
DIMSTYLE
105
63
330
A
100
AcDbSymbolTableRecord
100
AcDbDimStyleTableRecord
  2
AM_JIS$SF
 70
     0
  4
"
 41
2.5
 42
1.0
 43
10.0
 44
1.0
 47
0.1
 48
0.1
 73
     0
 74
     0
 75
     1
 76
     1
 77
     3
 78
     8
 79
     2
140
3.5
141
0.0
143
0.0393701
146
0.71
147
1.5
176
   256
177
   256
178
     2
271
     2
272
     3
274
     4
340
11
341
59
342
59
343
59
344
59
371
    -1
372
    -1
  0
DIMSTYLE
105
68
330
A
100
AcDbSymbolTableRecord
100
AcDbDimStyleTableRecord
  2
AM_JIS$SH
 70
     0
  4
"
 41
2.5
 42
1.0
 43
10.0
 44
1.0
 47
0.1
 48
0.1
 73
     0
 74
     0
 75
     1
 76
     1
 77
     3
 78
     8
 79
     2
140
3.5
141
0.0
143
0.0393701
144
2.0
146
0.71
147
1.5
173
     1
176
   256
177
   256
178
     2
271
     2
272
     3
274
     4
340
11
341
59
342
59
343
64
344
59
371
    -1
372
    -1
  0
DIMSTYLE
105
65F
330
A
100
AcDbSymbolTableRecord
100
AcDbDimStyleTableRecord
  2
STANDARD
 70
     0
340
11
  0
DIMSTYLE
105
18A8
102
{ACAD_REACTORS
330
139C8
330
13A3B
330
13A77
330
13B18
330
13B3A
330
14FE7
102
}
330
A
100
AcDbSymbolTableRecord
100
AcDbDimStyleTableRecord
  2
AM_JIS$0
 70
     0
  4
"
 41
2.5
 42
0.0
 43
10.0
 44
1.0
 47
0.1
 48
0.1000000001
 73
     0
 74
     0
 77
     3
 78
     1
 79
     2
140
3.8
141
0.0
143
0.0393701
146
0.71
147
1.5
172
     1
176
     3
177
     3
178
     2
271
     2
272
     2
275
     1
283
     0
284
     8
289
     0
340
11
341
59
342
59
371
    13
372
    13
  0
DIMSTYLE
105
18A9
102
{ACAD_REACTORS
330
14FF5
330
150A0
330
150F4
330
15159
102
}
330
A
100
AcDbSymbolTableRecord
100
AcDbDimStyleTableRecord
  2
AM_JIS$2
 70
     0
  4
"
 41
2.5
 42
0.0
 43
10.0
 44
1.0
 47
0.1
 48
0.1000000001
 73
     0
 74
     0
 77
     3
 78
     1
 79
     2
140
3.8
141
0.0
143
0.0393701
146
0.71
147
1.5
172
     1
176
     3
177
     3
178
     2
271
     2
272
     2
275
     1
283
     0
284
     8
289
     0
340
11
341
59
342
59
371
    13
372
    13
  0
DIMSTYLE
105
F5AE
330
A
100
AcDbSymbolTableRecord
100
AcDbDimStyleTableRecord
  2
AM_ISO
 70
     0
  4
"
 41
2.5
 42
1.0
 43
10.0
 44
1.0
 47
0.1
 48
0.1
 73
     0
 74
     0
 77
     1
 78
     8
 79
     2
140
3.5
141
0.0
143
0.0393701
146
0.71
147
1.5
172
     1
176
   256
177
   256
178
     2
271
     2
272
     3
274
     4
283
     0
284
     8
340
11
371
    -1
372
    -1
  0
DIMSTYLE
105
F5AF
330
A
100
AcDbSymbolTableRecord
100
AcDbDimStyleTableRecord
  2
AM_ISO$3
 70
     0
  4
"
 41
2.5
 42
1.0
 43
10.0
 44
1.0
 47
0.1
 48
0.1
 73
     0
 77
     1
 78
     8
 79
     2
140
3.5
141
0.0
143
0.0393701
146
0.71
147
1.5
176
   256
177
   256
178
     2
271
     2
272
     3
274
     4
283
     0
284
     8
288
     1
289
     0
340
11
371
    -1
372
    -1
  0
DIMSTYLE
105
F5B0
330
A
100
AcDbSymbolTableRecord
100
AcDbDimStyleTableRecord
  2
AM_ISO$4
 70
     0
  4
"
 41
2.5
 42
1.0
 43
10.0
 44
1.0
 47
0.1
 48
0.1
 73
     0
 77
     1
 78
     8
 79
     2
140
3.5
141
0.0
143
0.0393701
146
0.71
147
1.5
176
   256
177
   256
178
     2
271
     2
272
     3
274
     4
283
     0
284
     8
288
     1
289
     0
340
11
371
    -1
372
    -1
  0
DIMSTYLE
105
F5B1
330
A
100
AcDbSymbolTableRecord
100
AcDbDimStyleTableRecord
  2
AM_ISO$6
 70
     0
  4
"
 41
2.5
 42
1.0
 43
10.0
 44
1.0
 47
0.1
 48
0.1
 73
     0
 74
     0
 78
     8
 79
     2
140
3.5
141
0.0
143
0.0393701
146
0.71
147
1.5
172
     1
176
   256
177
   256
178
     2
271
     2
272
     3
274
     4
283
     0
284
     8
340
11
371
    -1
372
    -1
  0
DIMSTYLE
105
F5B2
330
A
100
AcDbSymbolTableRecord
100
AcDbDimStyleTableRecord
  2
AM_ISO$7
 70
     0
  4
"
 41
2.5
 42
1.0
 43
10.0
 44
1.0
 47
0.1
 48
0.1
 73
     0
 74
     0
 77
     1
 78
     8
 79
     2
140
5.0
141
0.0
143
0.0393701
146
0.71
147
1.5
172
     1
176
   256
177
   256
178
     2
271
     2
272
     3
274
     4
283
     0
284
     8
340
11
371
    -1
372
    -1
  0
DIMSTYLE
105
F5B3
330
A
100
AcDbSymbolTableRecord
100
AcDbDimStyleTableRecord
  2
AM_ISO$SF
 70
     0
  4
"
 41
2.5
 42
1.0
 43
10.0
 44
1.0
 47
0.1
 48
0.1
 73
     0
 74
     0
 75
     1
 76
     1
 77
     1
 78
     8
 79
     2
140
3.5
141
0.0
143
0.0393701
146
0.71
147
1.5
172
     1
176
   256
177
   256
178
     2
271
     2
272
     3
274
     4
283
     0
284
     8
340
11
371
    -1
372
    -1
  0
DIMSTYLE
105
F5B4
330
A
100
AcDbSymbolTableRecord
100
AcDbDimStyleTableRecord
  2
AM_ISO$SH
 70
     0
  4
"
 41
2.5
 42
1.0
 43
10.0
 44
1.0
 47
0.1
 48
0.1
 73
     0
 74
     0
 75
     1
 76
     1
 77
     1
 78
     8
 79
     2
140
3.5
141
0.0
143
0.0393701
144
2.0
146
0.71
147
1.5
172
     1
173
     1
176
   256
177
   256
178
     2
271
     2
272
     3
274
     4
283
     0
284
     8
340
11
343
64
371
    -1
372
    -1
  0
ENDTAB
  0
TABLE
  2
BLOCK_RECORD
  5
1
330
0
100
AcDbSymbolTable
 70
    14
  0
BLOCK_RECORD
  5
1F
102
{ACAD_XDICTIONARY
360
165
102
}
330
1
100
AcDbSymbolTableRecord
100
AcDbBlockTableRecord
  2
*Model_Space
340
22
  0
BLOCK_RECORD
  5
1B
330
1
100
AcDbSymbolTableRecord
100
AcDbBlockTableRecord
  2
*Paper_Space
340
1E
  0
BLOCK_RECORD
  5
23
330
1
100
AcDbSymbolTableRecord
100
AcDbBlockTableRecord
  2
*Paper_Space0
340
26
  0
BLOCK_RECORD
  5
59
330
1
100
AcDbSymbolTableRecord
100
AcDbBlockTableRecord
  2
_Open30
340
0
102
{BLKREFS
331
151EC
331
151ED
331
151F5
331
151F6
331
151FE
331
151FF
331
15207
331
15208
331
15210
331
15211
331
15219
331
1521A
331
15222
331
15223
331
1522F
331
15230
331
1523C
331
1523D
331
15247
331
15248
102
}
  0
BLOCK_RECORD
  5
64
330
1
100
AcDbSymbolTableRecord
100
AcDbBlockTableRecord
  2
GENAXEH
340
0
  0
BLOCK_RECORD
  5
ED9B
330
1
100
AcDbSymbolTableRecord
100
AcDbBlockTableRecord
  2
*U3
340
0
  0
BLOCK_RECORD
  5
139C9
330
1
100
AcDbSymbolTableRecord
100
AcDbBlockTableRecord
  2
*D4
340
0
  0
BLOCK_RECORD
  5
13A3C
330
1
100
AcDbSymbolTableRecord
100
AcDbBlockTableRecord
  2
*D5
340
0
  0
BLOCK_RECORD
  5
13A78
330
1
100
AcDbSymbolTableRecord
100
AcDbBlockTableRecord
  2
*D6
340
0
  0
BLOCK_RECORD
  5
13B19
330
1
100
AcDbSymbolTableRecord
100
AcDbBlockTableRecord
  2
*D7
340
0
  0
BLOCK_RECORD
  5
13B3B
330
1
100
AcDbSymbolTableRecord
100
AcDbBlockTableRecord
  2
*D8
340
0
  0
BLOCK_RECORD
  5
14FE8
330
1
100
AcDbSymbolTableRecord
100
AcDbBlockTableRecord
  2
*D9
340
0
  0
BLOCK_RECORD
  5
14FF6
330
1
100
AcDbSymbolTableRecord
100
AcDbBlockTableRecord
  2
*D10
340
0
  0
BLOCK_RECORD
  5
150A1
330
1
100
AcDbSymbolTableRecord
100
AcDbBlockTableRecord
  2
*D11
340
0
  0
BLOCK_RECORD
  5
150F5
330
1
100
AcDbSymbolTableRecord
100
AcDbBlockTableRecord
  2
*D12
340
0
  0
BLOCK_RECORD
  5
1515A
330
1
100
AcDbSymbolTableRecord
100
AcDbBlockTableRecord
  2
*D13
340
0
  0
ENDTAB
  0
ENDSEC
  0
SECTION
  2
BLOCKS
  0
BLOCK
  5
20
330
1F
100
AcDbEntity
  8
0
100
AcDbBlockBegin
  2
*Model_Space
 70
     0
 71
     0
 10
0.0
 20
0.0
 30
0.0
  3
*Model_Space
  1

  0
ENDBLK
  5
21
330
1F
100
AcDbEntity
  8
0
100
AcDbBlockEnd
  0
BLOCK
  5
1C
330
1B
100
AcDbEntity
 67
     1
  8
0
100
AcDbBlockBegin
  2
*Paper_Space
 70
     0
 71
     0
 10
0.0
 20
0.0
 30
0.0
  3
*Paper_Space
  1

  0
ENDBLK
  5
1D
330
1B
100
AcDbEntity
 67
     1
  8
0
100
AcDbBlockEnd
  0
BLOCK
  5
24
330
23
100
AcDbEntity
  8
0
100
AcDbBlockBegin
  2
*Paper_Space0
 70
     0
 71
     0
 10
0.0
 20
0.0
 30
0.0
  3
*Paper_Space0
  1

  0
ENDBLK
  5
25
330
23
100
AcDbEntity
  8
0
100
AcDbBlockEnd
  0
BLOCK
  5
5D
330
59
100
AcDbEntity
  8
0
100
AcDbBlockBegin
  2
_Open30
 70
     0
 71
     0
 10
0.0
 20
0.0
 30
0.0
  3
_Open30
  1

  0
LINE
  5
5A
330
59
100
AcDbEntity
  8
0
 62
     0
370
    -2
100
AcDbLine
 10
-1.0
 20
0.26794919
 30
0.0
 11
0.0
 21
0.0
 31
0.0
  0
LINE
  5
5B
330
59
100
AcDbEntity
  8
0
 62
     0
370
    -2
100
AcDbLine
 10
0.0
 20
0.0
 30
0.0
 11
-1.0
 21
-0.26794919
 31
0.0
  0
LINE
  5
5C
330
59
100
AcDbEntity
  8
0
 62
     0
370
    -2
100
AcDbLine
 10
0.0
 20
0.0
 30
0.0
 11
-1.0
 21
0.0
 31
0.0
  0
ENDBLK
  5
5E
330
59
100
AcDbEntity
  8
0
100
AcDbBlockEnd
  0
BLOCK
  5
66
330
64
100
AcDbEntity
  8
0
100
AcDbBlockBegin
  2
GENAXEH
 70
     0
 71
     0
 10
0.0
 20
0.0
 30
0.0
  3
GENAXEH
  1

  0
LINE
  5
65
330
64
100
AcDbEntity
  8
0
100
AcDbLine
 10
-1.0
 20
0.0
 30
0.0
 11
1.0
 21
0.0
 31
0.0
  0
ENDBLK
  5
67
330
64
100
AcDbEntity
  8
0
100
AcDbBlockEnd
  0
BLOCK
  5
ED9C
330
ED9B
100
AcDbEntity
  8
0
100
AcDbBlockBegin
  2
*U3
 70
     1
 71
     0
 10
0.0
 20
0.0
 30
0.0
  3
*U3
  1

  0
ENDBLK
  5
ED9D
330
ED9B
100
AcDbEntity
  8
0
100
AcDbBlockEnd
  0
BLOCK
  5
139DF
330
139C9
100
AcDbEntity
  8
0
100
AcDbBlockBegin
  2
*D4
 70
     1
 71
     0
 10
0.0
 20
0.0
 30
0.0
  3
*D4
  1

  0
LINE
  5
151E9
330
139C9
100
AcDbEntity
  8
AM_5
 62
     3
370
    13
100
AcDbLine
 10
0.0
 20
-6.910614677578309
 30
0.0
 11
-0.0000000000000019
 21
-37.31866386517061
 31
0.0
  0
LINE
  5
151EA
330
139C9
100
AcDbEntity
  8
AM_5
 62
     3
370
    13
100
AcDbLine
 10
170.0
 20
8.0
 30
0.0
 11
170.0
 21
-37.31866386517061
 31
0.0
  0
LINE
  5
151EB
330
139C9
100
AcDbEntity
  8
AM_5
 62
     3
370
    13
100
AcDbLine
 10
2.499999999999998
 20
-36.31866386517061
 30
0.0
 11
167.5
 21
-36.31866386517061
 31
0.0
  0
INSERT
  5
151EC
330
139C9
100
AcDbEntity
  8
AM_5
 62
     3
370
    13
100
AcDbBlockReference
  2
_Open30
 10
-0.0000000000000018
 20
-36.31866386517061
 30
0.0
 41
2.5
 42
2.5
 43
2.5
 50
180.0
  0
INSERT
  5
151ED
330
139C9
100
AcDbEntity
  8
AM_5
 62
     3
370
    13
100
AcDbBlockReference
  2
_Open30
 10
170.0
 20
-36.31866386517061
 30
0.0
 41
2.5
 42
2.5
 43
2.5
  0
MTEXT
  5
151EE
330
139C9
100
AcDbEntity
  8
AM_5
 62
     2
370
    13
100
AcDbMText
 10
83.88507476536935
 20
-32.91866386517061
 30
0.0
 40
3.8
 41
0.0
 71
     5
 72
     1
  1
170
 73
     1
 44
1.0
  0
POINT
  5
151EF
330
139C9
100
AcDbEntity
  8
Defpoints
 62
     0
100
AcDbPoint
 10
0.0
 20
-6.910614677578309
 30
0.0
  0
POINT
  5
151F0
330
139C9
100
AcDbEntity
  8
Defpoints
 62
     0
100
AcDbPoint
 10
170.0
 20
8.0
 30
0.0
  0
POINT
  5
151F1
330
139C9
100
AcDbEntity
  8
Defpoints
 62
     0
100
AcDbPoint
 10
170.0
 20
-36.31866386517061
 30
0.0
  0
ENDBLK
  5
139E0
330
139C9
100
AcDbEntity
  8
0
100
AcDbBlockEnd
  0
BLOCK
  5
13A52
330
13A3C
100
AcDbEntity
  8
0
100
AcDbBlockBegin
  2
*D5
 70
     1
 71
     0
 10
0.0
 20
0.0
 30
0.0
  3
*D5
  1

  0
LINE
  5
151F2
330
13A3C
100
AcDbEntity
  8
AM_5
 62
     3
370
    13
100
AcDbLine
 10
0.0
 20
-78.24431145334319
 30
0.0
 11
-20.21724526719955
 21
-78.24431145334319
 31
0.0
  0
LINE
  5
151F3
330
13A3C
100
AcDbEntity
  8
AM_5
 62
     3
370
    13
100
AcDbLine
 10
1.231869065912775
 20
-110.2443114533432
 30
0.0
 11
-20.21724526719956
 21
-110.2443114533432
 31
0.0
  0
LINE
  5
151F4
330
13A3C
100
AcDbEntity
  8
AM_5
 62
     3
370
    13
100
AcDbLine
 10
-19.21724526719955
 20
-80.74431145334319
 30
0.0
 11
-19.21724526719956
 21
-107.7443114533432
 31
0.0
  0
INSERT
  5
151F5
330
13A3C
100
AcDbEntity
  8
AM_5
 62
     3
370
    13
100
AcDbBlockReference
  2
_Open30
 10
-19.21724526719955
 20
-78.24431145334319
 30
0.0
 41
2.5
 42
2.5
 43
2.5
 50
90.0
  0
INSERT
  5
151F6
330
13A3C
100
AcDbEntity
  8
AM_5
 62
     3
370
    13
100
AcDbBlockReference
  2
_Open30
 10
-19.21724526719956
 20
-110.2443114533432
 30
0.0
 41
2.5
 42
2.5
 43
2.5
 50
270.0
  0
MTEXT
  5
151F7
330
13A3C
100
AcDbEntity
  8
AM_5
 62
     2
370
    13
100
AcDbMText
 10
-22.61761928294757
 20
-94.24431145334319
 30
0.0
 40
3.8
 41
0.0
 71
     5
 72
     1
  1
32
 11
6.123031769111886E-17
 21
1.0
 31
0.0
 73
     1
 44
1.0
  0
POINT
  5
151F8
330
13A3C
100
AcDbEntity
  8
Defpoints
 62
     0
100
AcDbPoint
 10
0.0
 20
-78.24431145334319
 30
0.0
  0
POINT
  5
151F9
330
13A3C
100
AcDbEntity
  8
Defpoints
 62
     0
100
AcDbPoint
 10
1.231869065912775
 20
-110.2443114533432
 30
0.0
  0
POINT
  5
151FA
330
13A3C
100
AcDbEntity
  8
Defpoints
 62
     0
100
AcDbPoint
 10
-19.21724526719956
 20
-110.2443114533432
 30
0.0
  0
ENDBLK
  5
13A53
330
13A3C
100
AcDbEntity
  8
0
100
AcDbBlockEnd
  0
BLOCK
  5
13A8E
330
13A78
100
AcDbEntity
  8
0
100
AcDbBlockBegin
  2
*D6
 70
     1
 71
     0
 10
0.0
 20
0.0
 30
0.0
  3
*D6
  1

  0
LINE
  5
151FB
330
13A78
100
AcDbEntity
  8
AM_5
 62
     3
370
    13
100
AcDbLine
 10
32.00000000000003
 20
8.0
 30
0.0
 11
32.00000000000003
 21
-27.09253644700368
 31
0.0
  0
LINE
  5
151FC
330
13A78
100
AcDbEntity
  8
AM_5
 62
     3
370
    13
100
AcDbLine
 10
0.0
 20
-6.910614677578309
 30
0.0
 11
-0.0000000000000012
 21
-27.09253644700368
 31
0.0
  0
LINE
  5
151FD
330
13A78
100
AcDbEntity
  8
AM_5
 62
     3
370
    13
100
AcDbLine
 10
29.50000000000003
 20
-26.09253644700368
 30
0.0
 11
2.499999999999999
 21
-26.09253644700368
 31
0.0
  0
INSERT
  5
151FE
330
13A78
100
AcDbEntity
  8
AM_5
 62
     3
370
    13
100
AcDbBlockReference
  2
_Open30
 10
32.00000000000003
 20
-26.09253644700368
 30
0.0
 41
2.5
 42
2.5
 43
2.5
  0
INSERT
  5
151FF
330
13A78
100
AcDbEntity
  8
AM_5
 62
     3
370
    13
100
AcDbBlockReference
  2
_Open30
 10
-0.0000000000000012
 20
-26.09253644700368
 30
0.0
 41
2.5
 42
2.5
 43
2.5
 50
180.0
  0
MTEXT
  5
15200
330
13A78
100
AcDbEntity
  8
AM_5
 62
     2
370
    13
100
AcDbMText
 10
15.66141077460017
 20
-22.69216243125565
 30
0.0
 40
3.8
 41
0.0
 71
     5
 72
     1
  1
32
 73
     1
 44
1.0
  0
POINT
  5
15201
330
13A78
100
AcDbEntity
  8
Defpoints
 62
     0
100
AcDbPoint
 10
32.00000000000003
 20
8.0
 30
0.0
  0
POINT
  5
15202
330
13A78
100
AcDbEntity
  8
Defpoints
 62
     0
100
AcDbPoint
 10
0.0
 20
-6.910614677578309
 30
0.0
  0
POINT
  5
15203
330
13A78
100
AcDbEntity
  8
Defpoints
 62
     0
100
AcDbPoint
 10
-0.0000000000000012
 20
-26.09253644700368
 30
0.0
  0
ENDBLK
  5
13A8F
330
13A78
100
AcDbEntity
  8
0
100
AcDbBlockEnd
  0
BLOCK
  5
13B51
330
13B19
100
AcDbEntity
  8
0
100
AcDbBlockBegin
  2
*D7
 70
     1
 71
     0
 10
0.0
 20
0.0
 30
0.0
  3
*D7
  1

  0
LINE
  5
15204
330
13B19
100
AcDbEntity
  8
AM_5
 62
     3
370
    13
100
AcDbLine
 10
170.0
 20
40.0
 30
0.0
 11
187.864128865471
 21
39.99999999999999
 31
0.0
  0
LINE
  5
15205
330
13B19
100
AcDbEntity
  8
AM_5
 62
     3
370
    13
100
AcDbLine
 10
170.0
 20
7.999999999999999
 30
0.0
 11
187.864128865471
 21
7.999999999999994
 31
0.0
  0
LINE
  5
15206
330
13B19
100
AcDbEntity
  8
AM_5
 62
     3
370
    13
100
AcDbLine
 10
186.864128865471
 20
37.49999999999999
 30
0.0
 11
186.864128865471
 21
10.5
 31
0.0
  0
INSERT
  5
15207
330
13B19
100
AcDbEntity
  8
AM_5
 62
     3
370
    13
100
AcDbBlockReference
  2
_Open30
 10
186.864128865471
 20
39.99999999999999
 30
0.0
 41
2.5
 42
2.5
 43
2.5
 50
90.0
  0
INSERT
  5
15208
330
13B19
100
AcDbEntity
  8
AM_5
 62
     3
370
    13
100
AcDbBlockReference
  2
_Open30
 10
186.864128865471
 20
7.999999999999994
 30
0.0
 41
2.5
 42
2.5
 43
2.5
 50
270.0
  0
MTEXT
  5
15209
330
13B19
100
AcDbEntity
  8
AM_5
 62
     2
370
    13
100
AcDbMText
 10
183.4637548497229
 20
24.04097428562773
 30
0.0
 40
3.8
 41
0.0
 71
     5
 72
     1
  1
32
 11
6.123031769111886E-17
 21
1.0
 31
0.0
 73
     1
 44
1.0
  0
POINT
  5
1520A
330
13B19
100
AcDbEntity
  8
Defpoints
 62
     0
100
AcDbPoint
 10
170.0
 20
40.0
 30
0.0
  0
POINT
  5
1520B
330
13B19
100
AcDbEntity
  8
Defpoints
 62
     0
100
AcDbPoint
 10
170.0
 20
7.999999999999999
 30
0.0
  0
POINT
  5
1520C
330
13B19
100
AcDbEntity
  8
Defpoints
 62
     0
100
AcDbPoint
 10
186.864128865471
 20
7.999999999999994
 30
0.0
  0
ENDBLK
  5
13B52
330
13B19
100
AcDbEntity
  8
0
100
AcDbBlockEnd
  0
BLOCK
  5
13B53
330
13B3B
100
AcDbEntity
  8
0
100
AcDbBlockBegin
  2
*D8
 70
     1
 71
     0
 10
0.0
 20
0.0
 30
0.0
  3
*D8
  1

  0
LINE
  5
1520D
330
13B3B
100
AcDbEntity
  8
AM_5
 62
     3
370
    13
100
AcDbLine
 10
170.0
 20
-78.24431145334319
 30
0.0
 11
187.3271552240214
 21
-78.24431145334319
 31
0.0
  0
LINE
  5
1520E
330
13B3B
100
AcDbEntity
  8
AM_5
 62
     3
370
    13
100
AcDbLine
 10
170.0
 20
-110.2443114533432
 30
0.0
 11
187.3271552240214
 21
-110.2443114533432
 31
0.0
  0
LINE
  5
1520F
330
13B3B
100
AcDbEntity
  8
AM_5
 62
     3
370
    13
100
AcDbLine
 10
186.3271552240214
 20
-80.74431145334319
 30
0.0
 11
186.3271552240214
 21
-107.7443114533432
 31
0.0
  0
INSERT
  5
15210
330
13B3B
100
AcDbEntity
  8
AM_5
 62
     3
370
    13
100
AcDbBlockReference
  2
_Open30
 10
186.3271552240214
 20
-78.24431145334319
 30
0.0
 41
2.5
 42
2.5
 43
2.5
 50
90.0
  0
INSERT
  5
15211
330
13B3B
100
AcDbEntity
  8
AM_5
 62
     3
370
    13
100
AcDbBlockReference
  2
_Open30
 10
186.3271552240214
 20
-110.2443114533432
 30
0.0
 41
2.5
 42
2.5
 43
2.5
 50
270.0
  0
MTEXT
  5
15212
330
13B3B
100
AcDbEntity
  8
AM_5
 62
     2
370
    13
100
AcDbMText
 10
182.9267812082734
 20
-93.95974355442797
 30
0.0
 40
3.8
 41
0.0
 71
     5
 72
     1
  1
32
 11
6.123031769111886E-17
 21
1.0
 31
0.0
 73
     1
 44
1.0
  0
POINT
  5
15213
330
13B3B
100
AcDbEntity
  8
Defpoints
 62
     0
100
AcDbPoint
 10
170.0
 20
-78.24431145334319
 30
0.0
  0
POINT
  5
15214
330
13B3B
100
AcDbEntity
  8
Defpoints
 62
     0
100
AcDbPoint
 10
170.0
 20
-110.2443114533432
 30
0.0
  0
POINT
  5
15215
330
13B3B
100
AcDbEntity
  8
Defpoints
 62
     0
100
AcDbPoint
 10
186.3271552240214
 20
-110.2443114533432
 30
0.0
  0
ENDBLK
  5
13B54
330
13B3B
100
AcDbEntity
  8
0
100
AcDbBlockEnd
  0
BLOCK
  5
14FF2
330
14FE8
100
AcDbEntity
  8
0
100
AcDbBlockBegin
  2
*D9
 70
     1
 71
     0
 10
0.0
 20
0.0
 30
0.0
  3
*D9
  1

  0
LINE
  5
15216
330
14FE8
100
AcDbEntity
  8
AM_5
 62
     3
370
    13
100
AcDbLine
 10
-4.439231472578541
 20
0.0
 30
0.0
 11
-19.41923912795826
 21
0.0000000000000042
 31
0.0
  0
LINE
  5
15217
330
14FE8
100
AcDbEntity
  8
AM_5
 62
     3
370
    13
100
AcDbLine
 10
20.82820481571014
 20
40.0
 30
0.0
 11
-19.41923912795825
 21
40.00000000000001
 31
0.0
  0
LINE
  5
15218
330
14FE8
100
AcDbEntity
  8
AM_5
 62
     3
370
    13
100
AcDbLine
 10
-18.41923912795826
 20
2.500000000000004
 30
0.0
 11
-18.41923912795826
 21
37.50000000000001
 31
0.0
  0
INSERT
  5
15219
330
14FE8
100
AcDbEntity
  8
AM_5
 62
     3
370
    13
100
AcDbBlockReference
  2
_Open30
 10
-18.41923912795826
 20
0.000000000000004
 30
0.0
 41
2.5
 42
2.5
 43
2.5
 50
270.0
  0
INSERT
  5
1521A
330
14FE8
100
AcDbEntity
  8
AM_5
 62
     3
370
    13
100
AcDbBlockReference
  2
_Open30
 10
-18.41923912795825
 20
40.00000000000001
 30
0.0
 41
2.5
 42
2.5
 43
2.5
 50
90.0
  0
MTEXT
  5
1521B
330
14FE8
100
AcDbEntity
  8
AM_5
 62
     2
370
    13
100
AcDbMText
 10
-21.81923912795826
 20
20.57509987471576
 30
0.0
 40
3.8
 41
0.0
 71
     5
 72
     1
  1
40
 11
6.123031769111886E-17
 21
1.0
 31
0.0
 73
     1
 44
1.0
  0
POINT
  5
1521C
330
14FE8
100
AcDbEntity
  8
Defpoints
 62
     0
100
AcDbPoint
 10
-4.439231472578541
 20
0.0
 30
0.0
  0
POINT
  5
1521D
330
14FE8
100
AcDbEntity
  8
Defpoints
 62
     0
100
AcDbPoint
 10
20.82820481571014
 20
40.0
 30
0.0
  0
POINT
  5
1521E
330
14FE8
100
AcDbEntity
  8
Defpoints
 62
     0
100
AcDbPoint
 10
-18.41923912795825
 20
40.00000000000001
 30
0.0
  0
ENDBLK
  5
14FF3
330
14FE8
100
AcDbEntity
  8
0
100
AcDbBlockEnd
  0
BLOCK
  5
15002
330
14FF6
100
AcDbEntity
  8
0
100
AcDbBlockBegin
  2
*D10
 70
     1
 71
     0
 10
0.0
 20
0.0
 30
0.0
  3
*D10
  1

  0
LINE
  5
1521F
330
14FF6
100
AcDbEntity
  8
AM_5
 62
     3
370
    13
100
AcDbLine
 10
-0.1096339505414976
 20
-0.1195427025613666
 30
0.0
 11
-19.34086599348152
 21
-1.802057491955116
 31
0.0
  0
LINE
  5
15220
330
14FF6
100
AcDbEntity
  8
AM_5
 62
     3
370
    13
100
AcDbLine
 10
-0.1096339505414976
 20
-0.1195427025613666
 30
0.0
 11
-1.647612842797898
 21
-19.36287304927905
 31
0.0
  0
ARC
  5
15221
330
14FF6
100
AcDbEntity
  8
AM_5
 62
     3
370
    13
100
AcDbCircle
 10
-0.1096339505414976
 20
-0.1195427025613666
 30
0.0
 40
18.30469222510247
100
AcDbArc
 50
192.8313806013871
 51
257.5990990414459
  0
INSERT
  5
15222
330
14FF6
100
AcDbEntity
  8
AM_5
 62
     3
370
    13
100
AcDbBlockReference
  2
_Open30
 10
-18.34467129538977
 20
-1.714901749207458
 30
0.0
 41
2.5
 42
2.5
 43
2.5
 50
98.91569030069354
  0
INSERT
  5
15223
330
14FF6
100
AcDbEntity
  8
AM_5
 62
     3
370
    13
100
AcDbBlockReference
  2
_Open30
 10
-1.567944186373708
 20
-18.36605164843356
 30
0.0
 41
2.5
 42
2.5
 43
2.5
 50
351.5147893421394
  0
MTEXT
  5
15224
330
14FF6
100
AcDbEntity
  8
AM_5
 62
     2
370
    13
100
AcDbMText
 10
-9.118265717789802
 20
-11.99364915345503
 30
0.0
 40
3.8
 41
0.0
 71
     5
 72
     1
  1
80°
 11
0.7966690134597552
 21
-0.6044158196085377
 31
0.0
 73
     1
 44
1.0
  0
POINT
  5
15225
330
14FF6
100
AcDbEntity
  8
Defpoints
 62
     0
100
AcDbPoint
 10
-15.66494745609767
 20
-9.768064827715485
 30
0.0
  0
POINT
  5
15226
330
14FF6
100
AcDbEntity
  8
Defpoints
 62
     0
100
AcDbPoint
 10
0.0037948473195398
 20
1.299688626984818
 30
0.0
  0
POINT
  5
15227
330
14FF6
100
AcDbEntity
  8
Defpoints
 62
     0
100
AcDbPoint
 10
14.87866198843992
 20
1.191763277671156
 30
0.0
  0
POINT
  5
15228
330
14FF6
100
AcDbEntity
  8
Defpoints
 62
     0
100
AcDbPoint
 10
1.30867200950874
 20
0.004542990354281
 30
0.0
  0
POINT
  5
15229
330
14FF6
100
AcDbEntity
  8
Defpoints
 62
     0
100
AcDbPoint
 10
1.089052678600155
 20
14.87853230542834
 30
0.0
  0
ENDBLK
  5
15003
330
14FF6
100
AcDbEntity
  8
0
100
AcDbBlockEnd
  0
BLOCK
  5
150B1
330
150A1
100
AcDbEntity
  8
0
100
AcDbBlockBegin
  2
*D11
 70
     1
 71
     0
 10
0.0
 20
0.0
 30
0.0
  3
*D11
  1

  0
LINE
  5
1522A
330
150A1
100
AcDbEntity
  8
AM_5
 62
     3
370
    13
100
AcDbLine
 10
-1.279885005374155
 20
-78.24431145334319
 30
0.0
 11
-12.37230935801621
 21
-78.24431145334322
 31
0.0
  0
LINE
  5
1522B
330
150A1
100
AcDbEntity
  8
AM_5
 62
     3
370
    13
100
AcDbLine
 10
0.1011224249308924
 20
-78.24431145334319
 30
0.0
 11
-12.31623391904778
 21
-79.42573511591621
 31
0.0
  0
ARC
  5
1522C
330
150A1
100
AcDbEntity
  8
AM_5
 62
     3
370
    13
100
AcDbCircle
 10
0.1011224249308924
 20
-78.24431145334319
 30
0.0
 40
11.47343178294711
100
AcDbArc
 50
154.981445856763
 51
167.4907229283815
  0
ARC
  5
1522D
330
150A1
100
AcDbEntity
  8
AM_5
 62
     3
370
    13
100
AcDbCircle
 10
0.1011224249308924
 20
-78.24431145334319
 30
0.0
 40
11.47343178294711
100
AcDbArc
 50
197.9442054864205
 51
210.4534825580391
  0
ARC
  5
1522E
330
150A1
100
AcDbEntity
  8
AM_5
 62
     3
370
    13
100
AcDbCircle
 10
0.1011224249308924
 20
-78.24431145334319
 30
0.0
 40
11.47343178294711
100
AcDbArc
 50
180.0000000000001
 51
185.4349284148019
  0
INSERT
  5
1522F
330
150A1
100
AcDbEntity
  8
AM_5
 62
     3
370
    13
100
AcDbBlockReference
  2
_Open30
 10
-11.37230935801621
 20
-78.24431145334322
 30
0.0
 41
2.5
 42
2.5
 43
2.5
 50
263.7453614641909
  0
INSERT
  5
15230
330
150A1
100
AcDbEntity
  8
AM_5
 62
     3
370
    13
100
AcDbBlockReference
  2
_Open30
 10
-11.32072950935077
 20
-79.33101990977798
 30
0.0
 41
2.5
 42
2.5
 43
2.5
 50
101.6895669506112
  0
MTEXT
  5
15231
330
150A1
100
AcDbEntity
  8
AM_5
 62
     2
370
    13
100
AcDbMText
 10
-12.66349143016204
 20
-70.60994139862677
 30
0.0
 40
3.8
 41
0.0
 71
     5
 72
     1
  1
-5°
 11
0.5132890758587032
 21
0.8582157797454662
 31
0.0
 73
     1
 44
1.0
  0
POINT
  5
15232
330
150A1
100
AcDbEntity
  8
Defpoints
 62
     0
100
AcDbPoint
 10
-11.34937542818525
 20
-78.96938785878157
 30
0.0
  0
POINT
  5
15233
330
150A1
100
AcDbEntity
  8
Defpoints
 62
     0
100
AcDbPoint
 10
-0.0000000000000071
 20
-78.24431145334319
 30
0.0
  0
POINT
  5
15234
330
150A1
100
AcDbEntity
  8
Defpoints
 62
     0
100
AcDbPoint
 10
14.87866198843991
 20
-76.83833304446839
 30
0.0
  0
POINT
  5
15235
330
150A1
100
AcDbEntity
  8
Defpoints
 62
     0
100
AcDbPoint
 10
1.30867200950874
 20
-78.12942164802306
 30
0.0
  0
POINT
  5
15236
330
150A1
100
AcDbEntity
  8
Defpoints
 62
     0
100
AcDbPoint
 10
-1.279885005374155
 20
-78.24431145334319
 30
0.0
  0
ENDBLK
  5
150B2
330
150A1
100
AcDbEntity
  8
0
100
AcDbBlockEnd
  0
BLOCK
  5
15105
330
150F5
100
AcDbEntity
  8
0
100
AcDbBlockBegin
  2
*D12
 70
     1
 71
     0
 10
0.0
 20
0.0
 30
0.0
  3
*D12
  1

  0
LINE
  5
15237
330
150F5
100
AcDbEntity
  8
AM_5
 62
     3
370
    13
100
AcDbLine
 10
-62.44318022922007
 20
-0.158098842963188
 30
0.0
 11
-63.79691854856634
 21
-14.43298187047036
 31
0.0
  0
LINE
  5
15238
330
150F5
100
AcDbEntity
  8
AM_5
 62
     3
370
    13
100
AcDbLine
 10
-62.44318022922008
 20
-0.9110567416933009
 30
0.0
 11
-62.44318022922014
 21
-14.49702812259487
 31
0.0
  0
ARC
  5
15239
330
150F5
100
AcDbEntity
  8
AM_5
 62
     3
370
    13
100
AcDbCircle
 10
-62.44318022922007
 20
-0.158098842963188
 30
0.0
 40
13.33892927963168
100
AcDbArc
 50
243.0741749610523
 51
253.8284061295705
  0
ARC
  5
1523A
330
150F5
100
AcDbEntity
  8
AM_5
 62
     3
370
    13
100
AcDbCircle
 10
-62.44318022922007
 20
-0.158098842963188
 30
0.0
 40
13.33892927963168
100
AcDbArc
 50
280.7542311685181
 51
291.5084623370364
  0
ARC
  5
1523B
330
150F5
100
AcDbEntity
  8
AM_5
 62
     3
370
    13
100
AcDbCircle
 10
-62.44318022922007
 20
-0.158098842963188
 30
0.0
 40
13.33892927963168
100
AcDbArc
 50
264.5826372980889
 51
269.9999999999998
  0
INSERT
  5
1523C
330
150F5
100
AcDbEntity
  8
AM_5
 62
     3
370
    13
100
AcDbBlockReference
  2
_Open30
 10
-63.70250854814398
 20
-13.43744846981509
 30
0.0
 41
2.5
 42
2.5
 43
2.5
 50
349.2055217138297
  0
INSERT
  5
1523D
330
150F5
100
AcDbEntity
  8
AM_5
 62
     3
370
    13
100
AcDbBlockReference
  2
_Open30
 10
-62.44318022922013
 20
-13.49702812259487
 30
0.0
 41
2.5
 42
2.5
 43
2.5
 50
185.3771155842589
  0
MTEXT
  5
1523E
330
150F5
100
AcDbEntity
  8
AM_5
 62
     2
370
    13
100
AcDbMText
 10
-66.67362211318203
 20
-9.15174530543548
 30
0.0
 40
3.8
 41
0.0
 71
     5
 72
     1
  1
-5°
 11
0.9048908800370866
 21
-0.425643624674101
 31
0.0
 73
     1
 44
1.0
  0
POINT
  5
1523F
330
150F5
100
AcDbEntity
  8
Defpoints
 62
     0
100
AcDbPoint
 10
-62.86351284951243
 20
-13.49040377554456
 30
0.0
  0
POINT
  5
15240
330
150F5
100
AcDbEntity
  8
Defpoints
 62
     0
100
AcDbPoint
 10
-62.44318022922008
 20
-0.2407773686300914
 30
0.0
  0
POINT
  5
15241
330
150F5
100
AcDbEntity
  8
Defpoints
 62
     0
100
AcDbPoint
 10
-62.32864141467818
 20
1.049688626984821
 30
0.0
  0
POINT
  5
15242
330
150F5
100
AcDbEntity
  8
Defpoints
 62
     0
100
AcDbPoint
 10
-61.04091100144117
 20
14.62853230542834
 30
0.0
  0
POINT
  5
15243
330
150F5
100
AcDbEntity
  8
Defpoints
 62
     0
100
AcDbPoint
 10
-62.44318022922008
 20
-0.9110567416933009
 30
0.0
  0
ENDBLK
  5
15106
330
150F5
100
AcDbEntity
  8
0
100
AcDbBlockEnd
  0
BLOCK
  5
15166
330
1515A
100
AcDbEntity
  8
0
100
AcDbBlockBegin
  2
*D13
 70
     1
 71
     0
 10
0.0
 20
0.0
 30
0.0
  3
*D13
  1

  0
LINE
  5
15244
330
1515A
100
AcDbEntity
  8
AM_0
 62
     3
370
    13
100
AcDbLine
 10
0.0
 20
-6.91061467757831
 30
0.0
 11
-0.0000000000000036
 21
-19.49942075891153
 31
0.0
  0
LINE
  5
15245
330
1515A
100
AcDbEntity
  8
AM_0
 62
     3
370
    13
100
AcDbLine
 10
14.87866198843992
 20
1.191763277671156
 30
0.0
 11
19.31568699779041
 21
1.579952665770318
 31
0.0
  0
ARC
  5
15246
330
1515A
100
AcDbEntity
  8
AM_0
 62
     3
370
    13
100
AcDbCircle
 10
-0.0000000000000001
 20
-0.1099509747514237
 30
0.0
 40
18.38946978416011
100
AcDbArc
 50
277.7952211175047
 51
357.2047788824954
  0
INSERT
  5
15247
330
1515A
100
AcDbEntity
  8
AM_0
 62
     3
370
    13
100
AcDbBlockReference
  2
_Open30
 10
-0.0000000000000036
 20
-18.49942075891154
 30
0.0
 41
2.5
 42
2.5
 43
2.5
 50
183.8976105587524
  0
INSERT
  5
15248
330
1515A
100
AcDbEntity
  8
AM_0
 62
     3
370
    13
100
AcDbBlockReference
  2
_Open30
 10
18.31949229969866
 20
1.492796923022663
 30
0.0
 41
2.5
 42
2.5
 43
2.5
 50
91.10238944124768
  0
MTEXT
  5
15249
330
1515A
100
AcDbEntity
  8
AM_0
 62
     2
100
AcDbMText
 10
12.39691332445561
 20
-8.53614492197244
 30
0.0
 40
3.8
 41
0.0
 71
     5
 72
     1
  1
95°
 11
0.5621408941445863
 21
0.8270414833188992
 31
0.0
 73
     1
 44
1.0
  0
POINT
  5
1524A
330
1515A
100
AcDbEntity
  8
Defpoints
 62
     0
100
AcDbPoint
 10
9.654040961454093
 20
-15.76153530532653
 30
0.0
  0
POINT
  5
1524B
330
1515A
100
AcDbEntity
  8
Defpoints
 62
     0
100
AcDbPoint
 10
0.0
 20
0.9545454584022366
 30
0.0
  0
POINT
  5
1524C
330
1515A
100
AcDbEntity
  8
Defpoints
 62
     0
100
AcDbPoint
 10
14.87866198843992
 20
1.191763277671156
 30
0.0
  0
POINT
  5
1524D
330
1515A
100
AcDbEntity
  8
Defpoints
 62
     0
100
AcDbPoint
 10
1.30867200950874
 20
0.004542990354281
 30
0.0
  0
POINT
  5
1524E
330
1515A
100
AcDbEntity
  8
Defpoints
 62
     0
100
AcDbPoint
 10
0.0
 20
-6.91061467757831
 30
0.0
  0
ENDBLK
  5
15167
330
1515A
100
AcDbEntity
  8
0
100
AcDbBlockEnd
  0
ENDSEC
  0
SECTION
  2
ENTITIES
  0
LINE
  5
13975
330
1F
100
AcDbEntity
  8
AM_5
100
AcDbLine
 10
0.0
 20
0.9545454584022366
 30
0.0
 11
0.0
 21
-6.910614677578309
 31
0.0
  0
DIMENSION
  5
139C8
330
1F
100
AcDbEntity
  8
AM_5
370
    13
100
AcDbDimension
  2
*D4
 10
170.0
 20
-36.31866386517061
 30
0.0
 11
83.88507476536935
 21
-36.31866386517061
 31
0.0
 70
   160
 71
     5
 42
170.0
  3
AM_JIS$0
100
AcDbAlignedDimension
 13
0.0
 23
-6.910614677578309
 33
0.0
 14
170.0
 24
8.0
 34
0.0
100
AcDbRotatedDimension
1001
ACAD
1000
DSTYLE
1002
{
1070
   179
1070
     0
1070
   271
1070
     0
1002
}
  0
DIMENSION
  5
13A3B
330
1F
100
AcDbEntity
  8
AM_5
370
    13
100
AcDbDimension
  2
*D5
 10
-19.21724526719956
 20
-110.2443114533432
 30
0.0
 11
-22.61761928294757
 21
-94.24431145334319
 31
0.0
 70
    32
 71
     5
 42
32.0
  3
AM_JIS$0
100
AcDbAlignedDimension
 13
0.0
 23
-78.24431145334319
 33
0.0
 14
1.231869065912775
 24
-110.2443114533432
 34
0.0
 50
90.0
100
AcDbRotatedDimension
1001
ACAD
1000
DSTYLE
1002
{
1070
   179
1070
     0
1070
   271
1070
     0
1002
}
  0
DIMENSION
  5
13A77
330
1F
100
AcDbEntity
  8
AM_5
370
    13
100
AcDbDimension
  2
*D6
 10
-0.0000000000000012
 20
-26.09253644700368
 30
0.0
 11
15.66141077460017
 21
-26.09253644700368
 31
0.0
 70
   160
 71
     5
 42
32.00000000000003
  3
AM_JIS$0
100
AcDbAlignedDimension
 13
32.00000000000003
 23
8.0
 33
0.0
 14
0.0
 24
-6.910614677578309
 34
0.0
100
AcDbRotatedDimension
1001
ACAD
1000
DSTYLE
1002
{
1070
   179
1070
     0
1070
   271
1070
     0
1002
}
  0
DIMENSION
  5
13B18
330
1F
100
AcDbEntity
  8
AM_5
370
    13
100
AcDbDimension
  2
*D7
 10
186.864128865471
 20
7.999999999999994
 30
0.0
 11
186.864128865471
 21
24.04097428562773
 31
0.0
 70
   160
 71
     5
 42
32.0
  3
AM_JIS$0
100
AcDbAlignedDimension
 13
170.0
 23
40.0
 33
0.0
 14
170.0
 24
8.0
 34
0.0
 50
90.0
100
AcDbRotatedDimension
1001
ACAD
1000
DSTYLE
1002
{
1070
   179
1070
     0
1070
   271
1070
     0
1002
}
  0
DIMENSION
  5
13B3A
330
1F
100
AcDbEntity
  8
AM_5
370
    13
100
AcDbDimension
  2
*D8
 10
186.3271552240214
 20
-110.2443114533432
 30
0.0
 11
186.3271552240214
 21
-93.95974355442797
 31
0.0
 70
   160
 71
     5
 42
32.0
  3
AM_JIS$0
100
AcDbAlignedDimension
 13
170.0
 23
-78.24431145334319
 33
0.0
 14
170.0
 24
-110.2443114533432
 34
0.0
 50
90.0
100
AcDbRotatedDimension
1001
ACAD
1000
DSTYLE
1002
{
1070
   179
1070
     0
1070
   271
1070
     0
1002
}
  0
LINE
  5
14B63
330
1F
100
AcDbEntity
  8
AM_0
370
    30
100
AcDbLine
 10
28.32494067306661
 20
22.20554443702721
 30
0.0
 11
27.40159665666292
 21
21.11720171872582
 31
0.0
  0
LINE
  5
14B66
330
1F
100
AcDbEntity
  8
AM_0
370
    30
100
AcDbLine
 10
28.32493427323945
 20
22.20554977357784
 30
0.0
 11
28.32494067306661
 21
22.20554443702719
 31
0.0
  0
LINE
  5
14B6C
330
1F
100
AcDbEntity
  8
AM_0
370
    30
100
AcDbLine
 10
170.0
 20
8.0
 30
0.0
 11
170.0
 21
40.0
 31
0.0
  0
LINE
  5
14B6D
330
1F
100
AcDbEntity
  8
AM_0
370
    30
100
AcDbLine
 10
32.00000000000003
 20
8.0
 30
0.0
 11
170.0
 21
8.0
 31
0.0
  0
LINE
  5
14B6E
330
1F
100
AcDbEntity
  8
AM_0
370
    30
100
AcDbLine
 10
31.08242109238026
 20
6.410706712048921
 30
0.0
 11
29.3167081574953
 21
3.35240219724659
 31
0.0
  0
LINE
  5
14B70
330
1F
100
AcDbEntity
  8
AM_0
370
    30
100
AcDbLine
 10
2.806488515751255
 20
21.97828370004103
 30
0.0
 11
18.10003958144503
 21
37.27183476573487
 31
0.0
  0
LINE
  5
14B71
330
1F
100
AcDbEntity
  8
AM_0
370
    30
100
AcDbLine
 10
2.327018935791955
 20
15.97911715437905
 30
0.0
 11
2.806488515751255
 21
21.97828370004103
 31
0.0
  0
LINE
  5
14B72
330
1F
100
AcDbEntity
  8
AM_0
370
    30
100
AcDbLine
 10
29.3167081574953
 20
3.35240219724659
 30
0.0
 11
15.9455622547309
 21
2.182578512403609
 31
0.0
  0
LINE
  5
14B73
330
1F
100
AcDbEntity
  8
AM_0
370
    30
100
AcDbLine
 10
16.60470947907257
 20
10.38086291257616
 30
0.0
 11
15.96962942580515
 21
2.434684117035744
 31
0.0
  0
LINE
  5
14B74
330
1F
100
AcDbEntity
  8
AM_0
370
    30
100
AcDbLine
 10
2.325421133940751
 20
15.97897736483051
 30
0.0
 11
8.727307142311503
 21
16.53906981574824
 31
0.0
  0
LINE
  5
14B75
330
1F
100
AcDbEntity
  8
AM_0
370
    30
100
AcDbLine
 10
170.0
 20
40.0
 30
0.0
 11
32.00000000000003
 21
40.0
 31
0.0
  0
LINE
  5
14B77
330
1F
100
AcDbEntity
  8
AM_0
370
    30
100
AcDbLine
 10
18.10003958144503
 20
37.27183476573487
 30
0.0
 11
20.82820481571011
 21
39.99999999999997
 31
0.0
  0
LINE
  5
14B78
330
1F
100
AcDbEntity
  8
AM_0
370
    30
100
AcDbLine
 10
20.82820481571011
 20
40.0
 30
0.0
 11
30.6602540378444
 21
40.0
 31
0.0
  0
LINE
  5
14B79
330
1F
100
AcDbEntity
  8
AM_0
370
    30
100
AcDbLine
 10
31.08242109238026
 20
6.410706712048921
 30
0.0
 11
30.6602540378444
 21
24.76683172854749
 31
0.0
  0
LINE
  5
14B7A
330
1F
100
AcDbEntity
  8
AM_0
370
    30
100
AcDbLine
 10
30.6602540378444
 20
24.76683172854746
 30
0.0
 11
30.6602540378444
 21
39.99999999999997
 31
0.0
  0
LINE
  5
14B7B
330
1F
100
AcDbEntity
  8
AM_0
370
    30
100
AcDbLine
 10
30.6602540378444
 20
40.0
 30
0.0
 11
32.00000000000003
 21
40.0
 31
0.0
  0
LINE
  5
14B7C
330
1F
100
AcDbEntity
  8
AM_0
370
    30
100
AcDbLine
 10
32.00000000000003
 20
40.0
 30
0.0
 11
32.00000000000003
 21
8.0
 31
0.0
  0
LINE
  5
14B7D
330
1F
100
AcDbEntity
  8
AM_0
370
    30
100
AcDbLine
 10
32.00000000000003
 20
8.0
 30
0.0
 11
31.08242109238026
 21
6.410706712048921
 31
0.0
  0
LINE
  5
14B86
330
1F
100
AcDbEntity
  8
AM_0
370
    30
100
AcDbLine
 10
2.343815407474637
 20
16.4228087628735
 30
0.0
 11
2.364109050230212
 21
16.44319200503293
 31
0.0
  0
LINE
  5
14B87
330
1F
100
AcDbEntity
  8
AM_0
370
    30
100
AcDbLine
 10
14.87866198843992
 20
1.191763277671157
 30
0.0
 11
1.30867200950874
 21
0.0045429903542811
 31
0.0
  0
LINE
  5
14B88
330
1F
100
AcDbEntity
  8
AM_0
370
    30
100
AcDbLine
 10
0.0037948473195399
 20
1.299688626984818
 30
0.0
 11
1.089052678600154
 21
14.87853230542834
 31
0.0
  0
LINE
  5
14B89
330
1F
100
AcDbEntity
  8
AM_0
370
    30
100
AcDbLine
 10
2.167529033453803
 20
15.9651635959776
 30
0.0
 11
2.327018935791926
 21
15.97911715437905
 31
0.0
  0
LINE
  5
14B8A
330
1F
100
AcDbEntity
  8
AM_0
370
    30
100
AcDbLine
 10
2.16752903345386
 20
15.9651635959776
 30
0.0
 11
2.33972702120704
 21
16.13812186305751
 31
0.0
  0
LINE
  5
14B8B
330
1F
100
AcDbEntity
  8
AM_0
370
    30
100
AcDbLine
 10
15.96962942580515
 20
2.434684117035744
 30
0.0
 11
15.95713834329362
 21
2.278394568220392
 31
0.0
  0
LINE
  5
14B8D
330
1F
100
AcDbEntity
  8
AM_0
370
    30
100
AcDbLine
 10
1.430334300838609
 20
15.62093215396504
 30
0.0
 11
1.981471980817759
 21
16.17450318749093
 31
0.0
  0
LINE
  5
14B8E
330
1F
100
AcDbEntity
  8
AM_0
370
    30
100
AcDbLine
 10
15.61585672105511
 20
1.535994719683686
 30
0.0
 11
16.1669944010342
 21
2.08956575320957
 31
0.0
  0
ELLIPSE
  5
14B8F
330
1F
100
AcDbEntity
  8
AM_0
370
    30
100
AcDbEllipse
 10
1.195471605840993
 20
1.195431453944167
 30
0.0
 11
-0.8503951362829738
 21
0.84665702157737
 31
0.0
210
0.0
220
0.0
230
1.0
 40
0.992404739848785
 41
0.6996836252005853
 42
2.445012877194925
  0
ELLIPSE
  5
14B90
330
1F
100
AcDbEntity
  8
AM_0
370
    30
100
AcDbEllipse
 10
2.280729437121607
 20
14.77427513238769
 30
0.0
 11
-0.8503951362829738
 21
0.84665702157737
 31
0.0
210
0.0
220
0.0
230
1.0
 40
0.992404739848785
 41
5.586605530784694
 42
6.98286893238016
  0
ELLIPSE
  5
14B91
330
1F
100
AcDbEntity
  8
AM_0
370
    30
100
AcDbEllipse
 10
2.8318671171007
 20
15.32784616591357
 30
0.0
 11
0.8503951362829738
 21
-0.84665702157737
 31
0.0
210
0.0
220
0.0
230
1.0
 40
0.992404739848785
 41
2.753074922663599
 42
3.141592653589797
  0
ELLIPSE
  5
14B92
330
1F
100
AcDbEntity
  8
AM_0
370
    30
100
AcDbEllipse
 10
14.76546158477211
 20
2.382651741261071
 30
0.0
 11
-0.8503951362829738
 21
0.84665702157737
 31
0.0
210
0.0
220
0.0
230
1.0
 40
0.992404739848785
 41
2.445012877194909
 42
3.841276278790355
  0
ELLIPSE
  5
14B93
330
1F
100
AcDbEntity
  8
AM_0
370
    30
100
AcDbEllipse
 10
15.31659926475126
 20
2.936222774786927
 30
0.0
 11
0.8503951362829738
 21
-0.84665702157737
 31
0.0
210
0.0
220
0.0
230
1.0
 40
0.992404739848785
 41
-0.0000000000000082
 42
0.135353017272812
  0
ELLIPSE
  5
14B94
330
1F
100
AcDbEntity
  8
AM_0
370
    30
100
AcDbEllipse
 10
8.523095510946831
 20
8.578463436824393
 30
0.0
 11
-2.250003798082034
 21
2.240113369590125
 31
0.0
210
0.0
220
0.0
230
1.0
 40
0.9924047398487847
 41
6.01218319402624
 42
9.874272577184266
  0
LINE
  5
14B96
330
1F
100
AcDbEntity
  8
AM_0
370
    30
100
AcDbLine
 10
16.08964204400732
 20
20.95313865346938
 30
0.0
 11
17.55511678553907
 21
22.71542231079741
 31
0.0
  0
LINE
  5
14B97
330
1F
100
AcDbEntity
  8
AM_0
370
    30
100
AcDbLine
 10
17.58629767438819
 20
22.70992984187745
 30
0.0
 11
16.30662538258181
 21
21.17108000525121
 31
0.0
  0
LINE
  5
14B98
330
1F
100
AcDbEntity
  8
AM_0
370
    30
100
AcDbLine
 10
17.55511678553907
 20
22.71542231079741
 30
0.0
 11
19.82380842129763
 21
22.31579552791075
 31
0.0
  0
LINE
  5
14B99
330
1F
100
AcDbEntity
  8
AM_0
370
    30
100
AcDbLine
 10
19.82380842129763
 20
22.31579552791075
 30
0.0
 11
20.62702531552449
 21
20.1538850876961
 31
0.0
  0
LINE
  5
14B9A
330
1F
100
AcDbEntity
  8
AM_0
370
    30
100
AcDbLine
 10
20.62702531552449
 20
20.1538850876961
 30
0.0
 11
19.16155057399274
 21
18.39160143036807
 31
0.0
  0
LINE
  5
14B9B
330
1F
100
AcDbEntity
  8
AM_0
370
    30
100
AcDbLine
 10
19.16155057399274
 20
18.39160143036807
 30
0.0
 11
16.89285893823418
 21
18.79122821325473
 31
0.0
  0
LINE
  5
14B9C
330
1F
100
AcDbEntity
  8
AM_0
370
    30
100
AcDbLine
 10
17.10984227680862
 20
19.00916956503656
 30
0.0
 11
19.347353023718
 21
18.61503525106986
 31
0.0
  0
LINE
  5
14B9D
330
1F
100
AcDbEntity
  8
AM_0
370
    30
100
AcDbLine
 10
16.89285893823418
 20
18.79122821325473
 30
0.0
 11
17.10984227680862
 21
19.00916956503656
 31
0.0
  0
LINE
  5
14B9E
330
1F
100
AcDbEntity
  8
AM_0
370
    30
100
AcDbLine
 10
16.89285893823418
 20
18.79122821325473
 30
0.0
 11
16.08964204400732
 21
20.95313865346938
 31
0.0
  0
LINE
  5
14B9F
330
1F
100
AcDbEntity
  8
AM_0
370
    30
100
AcDbLine
 10
16.08964204400732
 20
20.95313865346938
 30
0.0
 11
16.30662538258181
 21
21.17108000525121
 31
0.0
  0
LINE
  5
14BA0
330
1F
100
AcDbEntity
  8
AM_0
370
    30
100
AcDbLine
 10
16.30662538258181
 20
21.17108000525121
 30
0.0
 11
17.10984227680862
 21
19.00916956503653
 31
0.0
  0
LINE
  5
14BA1
330
1F
100
AcDbEntity
  8
AM_0
370
    30
100
AcDbLine
 10
21.47864145672199
 20
17.66390559505379
 30
0.0
 11
21.80411646458364
 21
17.99081762272655
 31
0.0
  0
LINE
  5
14BA2
330
1F
100
AcDbEntity
  8
AM_0
370
    30
100
AcDbLine
 10
15.45500924138426
 20
23.66105949789352
 30
0.0
 11
15.78048424924597
 21
23.98797152556628
 31
0.0
  0
ELLIPSE
  5
14BA3
330
1F
100
AcDbEntity
  8
AM_0
370
    30
100
AcDbEllipse
 10
18.79230035691481
 20
20.98939457414642
 30
0.0
 11
-3.011816107668865
 21
2.998576951419851
 31
0.0
210
0.0
220
0.0
230
1.0
 40
0.9924047398487845
 41
3.141592653589791
 42
6.28318530717959
  0
ELLIPSE
  5
14BA4
330
1F
100
AcDbEntity
  8
AM_0
370
    30
100
AcDbEllipse
 10
18.35833367976588
 20
20.55351187058272
 30
0.0
 11
-2.125987840707435
 21
2.116642553943424
 31
0.0
210
0.0
220
0.0
230
0.9999999999999998
 40
0.992404739848785
 41
0.0000000000000011
 42
6.283185307179587
  0
ELLIPSE
  5
14BA5
330
1F
100
AcDbEntity
  8
AM_0
370
    30
100
AcDbEllipse
 10
18.4668253490531
 20
20.66248254647366
 30
0.0
 11
-3.011816107668865
 21
2.998576951419851
 31
0.0
210
0.0
220
0.0
230
1.0
 40
0.9924047398487846
 41
0.0000000000000011
 42
6.283185307179587
  0
LINE
  5
14BA6
330
1F
100
AcDbEntity
  8
AM_0
370
    30
100
AcDbLine
 10
14.73270066507021
 20
23.20189576180331
 30
0.0
 11
15.01911867198848
 21
23.48957834615533
 31
0.0
  0
LINE
  5
14BA7
330
1F
100
AcDbEntity
  8
AM_0
370
    30
100
AcDbLine
 10
15.65368784937394
 20
24.25266955411544
 30
0.0
 11
15.01911867198848
 21
23.48957834615533
 31
0.0
  0
LINE
  5
14BA8
330
1F
100
AcDbEntity
  8
AM_0
370
    30
100
AcDbLine
 10
15.36726984245567
 20
23.9649869697634
 30
0.0
 11
15.65368784937394
 21
24.25266955411541
 31
0.0
  0
LINE
  5
14BA9
330
1F
100
AcDbEntity
  8
AM_0
370
    30
100
AcDbLine
 10
14.52505008612403
 20
9.41146240222136
 30
0.0
 11
14.03944110508255
 21
8.71201368871715
 31
0.0
  0
LINE
  5
14BAA
330
1F
100
AcDbEntity
  8
AM_0
370
    30
100
AcDbLine
 10
10.01257802461842
 20
6.827849232084418
 30
0.0
 11
14.03944110508255
 21
8.71201368871715
 31
0.0
  0
ELLIPSE
  5
14BAB
330
1F
100
AcDbEntity
  8
AM_0
370
    30
100
AcDbEllipse
 10
27.1773765923696
 20
23.1699133459519
 30
0.0
 11
1.13549042319489
 21
1.246489879833413
 31
0.0
210
0.0
220
0.0
230
1.0
 40
0.8893736011383837
 41
4.754667881414792
 42
5.170897651244522
  0
ELLIPSE
  5
14BAC
330
1F
100
AcDbEntity
  8
AM_0
370
    30
100
AcDbEllipse
 10
8.567144025944884
 20
8.707567644922904
 30
0.0
 11
-2.657736094470158
 21
0.3640197899847239
 31
0.0
210
0.0
220
0.0
230
1.0
 40
0.7989094964151488
 41
1.95194314081621
 42
2.250974558479734
  0
ARC
  5
14BAD
330
1F
100
AcDbEntity
  8
AM_0
370
    30
100
AcDbCircle
 10
8.504592963700333
 20
8.979176760862572
 30
0.0
 40
2.066371020225628
100
AcDbArc
 50
180.0952944311421
 51
206.8081163788826
  0
LINE
  5
14BAF
330
1F
100
AcDbEntity
  8
AM_0
370
    30
100
AcDbLine
 10
26.87405502203606
 20
20.49618368235164
 30
0.0
 11
27.40159663291783
 21
21.11720169070162
 31
0.0
  0
LINE
  5
14BB0
330
1F
100
AcDbEntity
  8
AM_0
370
    30
100
AcDbLine
 10
22.27906403492281
 20
18.20152821778547
 30
0.0
 11
21.64449485753741
 21
17.43843700982535
 31
0.0
  0
LINE
  5
14BB1
330
1F
100
AcDbEntity
  8
AM_0
370
    30
100
AcDbLine
 10
14.73270066507016
 20
23.20189576180331
 30
0.0
 11
15.36726984245567
 21
23.96498696976343
 31
0.0
  0
ELLIPSE
  5
14BB4
330
1F
100
AcDbEntity
  8
AM_0
370
    30
100
AcDbEllipse
 10
8.760899553382359
 20
8.902178631380878
 30
0.0
 11
-1.847546182103077
 21
1.684957171175597
 31
0.0
210
0.0
220
0.0
230
1.0
 40
0.8892325226268162
 41
1.169832537612967
 42
2.071504995424732
  0
ARC
  5
14BB9
330
1F
100
AcDbEntity
  8
AM_0
370
    30
100
AcDbCircle
 10
8.919021374564665
 20
8.675132517420707
 30
0.0
 40
2.106084643384254
100
AcDbArc
 50
253.8560196124602
 51
280.0302269213005
  0
LINE
  5
14BBE
330
1F
100
AcDbEntity
  8
AM_0
370
    30
100
AcDbLine
 10
24.34621712086224
 20
27.57359521174732
 30
0.0
 11
20.50633145838046
 21
30.77551674062397
 31
0.0
  0
LINE
  5
14BBF
330
1F
100
AcDbEntity
  8
AM_0
370
    30
100
AcDbLine
 10
28.18610278334401
 20
24.37167368287066
 30
0.0
 11
24.34621712086224
 21
27.57359521174732
 31
0.0
  0
ELLIPSE
  5
14BC1
330
1F
100
AcDbEntity
  8
AM_0
370
    30
100
AcDbEllipse
 10
19.49760526740604
 20
29.5737564037052
 30
0.0
 11
1.13549042319489
 21
1.246489879833413
 31
0.0
210
0.0
220
0.0
230
1.0
 40
0.8893736011383836
 41
1.190178778982585
 42
1.520923501316103
  0
LINE
  5
14BC3
330
1F
100
AcDbEntity
  8
AM_0
370
    30
100
AcDbLine
 10
18.96365079971267
 20
11.4882784087801
 30
0.0
 11
14.52505008612403
 21
9.41146240222136
 31
0.0
  0
LINE
  5
14BC4
330
1F
100
AcDbEntity
  8
AM_0
370
    30
100
AcDbLine
 10
20.21000858829521
 20
12.48243920144597
 30
0.0
 11
26.87405502203606
 21
20.49618368235164
 31
0.0
  0
ELLIPSE
  5
14BC7
330
1F
100
AcDbEntity
  8
AM_0
370
    30
100
AcDbEllipse
 10
8.567144025944884
 20
8.707567644922932
 30
0.0
 11
-0.6047987037073707
 21
2.569213772361595
 31
0.0
210
0.0
220
0.0
230
1.0
 40
0.7944860926729568
 41
0.984095952606981
 42
1.283127370270533
  0
LINE
  5
14BC8
330
1F
100
AcDbEntity
  8
AM_0
370
    30
100
AcDbLine
 10
7.653914344733693
 20
14.03663983760208
 30
0.0
 11
6.532459747380784
 21
9.729775647185619
 31
0.0
  0
LINE
  5
14BC9
330
1F
100
AcDbEntity
  8
AM_0
370
    30
100
AcDbLine
 10
7.653914344733693
 20
14.03663983760211
 30
0.0
 11
8.239436182042454
 21
14.65277536065915
 31
0.0
  0
LINE
  5
14BCA
330
1F
100
AcDbEntity
  8
AM_0
370
    30
100
AcDbLine
 10
8.239436182042454
 20
14.65277536065912
 30
0.0
 11
9.475556972991825
 21
19.40000666376784
 31
0.0
  0
ELLIPSE
  5
14BD0
330
1F
100
AcDbEntity
  8
AM_0
370
    30
100
AcDbEllipse
 10
11.37827156458715
 20
19.84685871786223
 30
0.0
 11
-1.610072382256377
 21
-1.939079464618881
 31
0.0
210
0.0
220
0.0
230
1.0
 40
0.5951098857367538
 41
4.72612645734503
 42
5.379432460775981
  0
ELLIPSE
  5
14BD9
330
1F
100
AcDbEntity
  8
AM_0
370
    30
100
AcDbEllipse
 10
19.05804288955071
 20
13.44301566010896
 30
0.0
 11
-1.610072382256384
 21
-1.939079464618891
 31
0.0
210
0.0
220
0.0
230
1.0
 40
0.5951098857367508
 41
0.9012700124422042
 42
1.569554909814196
  0
LINE
  5
14BDF
330
1F
100
AcDbEntity
  8
AM_0
370
    30
100
AcDbLine
 10
17.85789242331114
 20
30.05281245845254
 30
0.0
 11
18.44699513477818
 21
30.64451614463863
 31
0.0
  0
LINE
  5
14BE0
330
1F
100
AcDbEntity
  8
AM_0
370
    30
100
AcDbLine
 10
10.20229745485241
 20
20.77830107699418
 30
0.0
 11
13.72805817895554
 21
25.09586532922
 31
0.0
  0
LINE
  5
14BE1
330
1F
100
AcDbEntity
  8
AM_0
370
    30
100
AcDbLine
 10
17.76755889349178
 20
29.95357188333927
 30
0.0
 11
13.73429352226683
 21
25.10343189256216
 31
0.0
  0
ELLIPSE
  5
14BE3
330
1F
100
AcDbEntity
  8
AM_0
370
    30
100
AcDbEllipse
 10
18.47501576822205
 20
20.60784897016634
 30
0.0
 11
3.188981761061151
 21
-3.174963830915139
 31
0.0
210
0.0
220
0.0
230
1.0
 40
0.9924047398487846
 41
3.230411040592365
 42
6.237718720600576
  0
ELLIPSE
  5
14BE4
330
1F
100
AcDbEntity
  8
AM_0
370
    30
100
AcDbEllipse
 10
19.10958494560751
 20
21.37094017812646
 30
0.0
 11
3.188981761061151
 21
-3.174963830915139
 31
0.0
210
0.0
220
0.0
230
1.0
 40
0.9924047398487846
 41
3.187059240168799
 42
3.230411040592367
  0
ELLIPSE
  5
14BE5
330
1F
100
AcDbEntity
  8
AM_0
370
    30
100
AcDbEllipse
 10
27.2342490172658
 20
23.22703687093051
 30
0.0
 11
1.062993920353717
 21
-1.058321276971713
 31
0.0
210
0.0
220
0.0
230
0.9999999999999998
 40
0.992404739848785
 41
0.5083814963386445
 42
1.659614713797468
  0
ELLIPSE
  5
14BE7
330
1F
100
AcDbEntity
  8
AM_0
370
    30
100
AcDbEllipse
 10
18.18859776130378
 20
20.32016638581433
 30
0.0
 11
-3.188981761061151
 21
3.174963830915139
 31
0.0
210
0.0
220
0.0
230
1.0
 40
0.9924047398487846
 41
0.0888183870025723
 42
3.230411040592365
  0
ELLIPSE
  5
14BE8
330
1F
100
AcDbEntity
  8
AM_0
370
    30
100
AcDbEllipse
 10
18.82316693868924
 20
21.08325759377445
 30
0.0
 11
-3.188981761061151
 21
3.174963830915139
 31
0.0
210
0.0
220
0.0
230
1.0
 40
0.9924047398487846
 41
3.230411040592365
 42
6.372003694182158
  0
ELLIPSE
  5
14BEB
330
1F
100
AcDbEntity
  8
AM_0
370
    30
100
AcDbEllipse
 10
19.55447769230224
 20
29.63087992868378
 30
0.0
 11
1.062993920353717
 21
-1.058321276971713
 31
0.0
210
0.0
220
0.0
230
1.0
 40
0.9924047398487846
 41
1.659614713797467
 42
2.810847931256292
  0
ARC
  5
14BF7
330
1F
100
AcDbEntity
  8
AM_0
370
    30
100
AcDbCircle
 10
18.92088634366488
 20
28.99449118148081
 30
0.0
 40
1.5
100
AcDbArc
 50
135.1262058143504
 51
140.2538651645916
  0
LINE
  5
14BFA
330
1F
100
AcDbEntity
  8
AM_0
370
    30
100
AcDbLine
 10
170.0
 20
-78.24431145334319
 30
0.0
 11
170.0
 21
-110.2443114533432
 31
0.0
  0
LINE
  5
14BFB
330
1F
100
AcDbEntity
  8
AM_0
370
    30
100
AcDbLine
 10
32.00000000000003
 20
-110.2443114533432
 30
0.0
 11
170.0
 21
-110.2443114533432
 31
0.0
  0
LINE
  5
14BFC
330
1F
100
AcDbEntity
  8
AM_0
370
    30
100
AcDbLine
 10
32.00000000000003
 20
-78.24431145334319
 30
0.0
 11
32.00000000000003
 21
-110.2443114533432
 31
0.0
  0
LINE
  5
14BFD
330
1F
100
AcDbEntity
  8
AM_0
370
    30
100
AcDbLine
 10
29.3167081574953
 20
-110.2443114533432
 30
0.0
 11
32.00000000000003
 21
-110.2443114533432
 31
0.0
  0
LINE
  5
14BFE
330
1F
100
AcDbEntity
  8
AM_0
370
    30
100
AcDbLine
 10
32.00000000000003
 20
-78.24431145334319
 30
0.0
 11
170.0
 21
-78.24431145334319
 31
0.0
  0
LINE
  5
14BFF
330
1F
100
AcDbEntity
  8
AM_0
370
    30
100
AcDbLine
 10
31.08242109238026
 20
-74.81986035015254
 30
0.0
 11
29.3167081574953
 21
-75.24293826001897
 31
0.0
  0
LINE
  5
14C02
330
1F
100
AcDbEntity
  8
AM_0
370
    30
100
AcDbLine
 10
2.828204815710222
 20
-75.92148448162669
 30
0.0
 11
7.359250543959973
 21
-75.1271861147529
 31
0.0
  0
LINE
  5
14C03
330
1F
100
AcDbEntity
  8
AM_0
370
    30
100
AcDbLine
 10
2.326250301639249
 20
-76.51708681242772
 30
0.0
 11
2.828204815710222
 21
-75.92148448162672
 31
0.0
  0
LINE
  5
14C04
330
1F
100
AcDbEntity
  8
AM_0
370
    30
100
AcDbLine
 10
29.3167081574953
 20
-75.24293826001897
 30
0.0
 11
15.95998285970623
 21
-76.5137362369932
 31
0.0
  0
LINE
  5
14C05
330
1F
100
AcDbEntity
  8
AM_0
370
    30
100
AcDbLine
 10
29.3167081574953
 20
-110.2443114533432
 30
0.0
 11
29.3167081574953
 21
-75.24293826001897
 31
0.0
  0
LINE
  5
14C06
330
1F
100
AcDbEntity
  8
AM_0
370
    30
100
AcDbLine
 10
2.31902480866043
 20
-110.2443114533432
 30
0.0
 11
29.3167081574953
 21
-110.2443114533432
 31
0.0
  0
LINE
  5
14C07
330
1F
100
AcDbEntity
  8
AM_0
370
    30
100
AcDbLine
 10
2.31902480866043
 20
-110.2443114533432
 30
0.0
 11
2.31902480866043
 21
-89.14514255121205
 31
0.0
  0
LINE
  5
14C08
330
1F
100
AcDbEntity
  8
AM_0
370
    30
100
AcDbLine
 10
16.82040095999221
 20
-75.49279308053573
 30
0.0
 11
15.95998285970629
 21
-76.5137362369932
 31
0.0
  0
LINE
  5
14C09
330
1F
100
AcDbEntity
  8
AM_0
370
    30
100
AcDbLine
 10
15.95998285970629
 20
-76.5137362369932
 30
0.0
 11
16.86274067045983
 21
-87.74379277962314
 31
0.0
  0
LINE
  5
14C0A
330
1F
100
AcDbEntity
  8
AM_0
370
    30
100
AcDbLine
 10
2.327018935791983
 20
-76.63709318377048
 30
0.0
 11
2.326250301639249
 21
-76.51708681242775
 31
0.0
  0
LINE
  5
14C0B
330
1F
100
AcDbEntity
  8
AM_0
370
    30
100
AcDbLine
 10
2.326250301639249
 20
-76.51708681242775
 30
0.0
 11
6.735891227964856
 21
-76.09754065546031
 31
0.0
  0
LINE
  5
14C0C
330
1F
100
AcDbEntity
  8
AM_0
370
    30
100
AcDbLine
 10
16.86274067045983
 20
-87.74379277962314
 30
0.0
 11
16.42489846418809
 21
-87.78545036990508
 31
0.0
  0
LINE
  5
14C0D
330
1F
100
AcDbEntity
  8
AM_0
370
    30
100
AcDbLine
 10
18.29356024690318
 20
-75.01768680610218
 30
0.0
 11
18.01425154730086
 21
-75.08185919147843
 31
0.0
  0
LINE
  5
14C0E
330
1F
100
AcDbEntity
  8
AM_0
370
    30
100
AcDbLine
 10
18.01425154730086
 20
-75.08185919147846
 30
0.0
 11
18.03067626399874
 21
-75.26966124587509
 31
0.0
  0
LINE
  5
14C12
330
1F
100
AcDbEntity
  8
AM_0
370
    30
100
AcDbLine
 10
28.52177986711101
 20
-73.24431145334319
 30
0.0
 11
30.6602540378444
 21
-73.24431145334319
 31
0.0
  0
LINE
  5
14C13
330
1F
100
AcDbEntity
  8
AM_0
370
    30
100
AcDbLine
 10
31.08242109238026
 20
-74.81986035015254
 30
0.0
 11
30.6602540378444
 21
-73.24431145334319
 31
0.0
  0
LINE
  5
14C14
330
1F
100
AcDbEntity
  8
AM_0
370
    30
100
AcDbLine
 10
32.00000000000003
 20
-78.24431145334319
 30
0.0
 11
31.08242109238026
 21
-74.81986035015254
 31
0.0
  0
LINE
  5
14C17
330
1F
100
AcDbEntity
  8
AM_0
370
    30
100
AcDbLine
 10
1.231869065912775
 20
-89.19288824099232
 30
0.0
 11
1.231869065912775
 21
-110.2443114533432
 31
0.0
  0
ELLIPSE
  5
14C18
330
1F
100
AcDbEntity
  8
AM_0
370
    30
100
AcDbEllipse
 10
28.53112979240902
 20
-73.6537592649828
 30
0.0
 11
1.773231344484942
 21
0.155082555228342
 31
0.0
210
0.0
220
0.0
230
1.0
 40
0.0871765407127361
 41
4.014199795375328
 42
4.727197826234169
  0
LINE
  5
14C19
330
1F
100
AcDbEntity
  8
AM_0
370
    30
100
AcDbLine
 10
2.31902480866043
 20
-110.2443114533432
 30
0.0
 11
1.231869065912775
 21
-110.2443114533432
 31
0.0
  0
ELLIPSE
  5
14C1A
330
1F
100
AcDbEntity
  8
AM_0
370
    30
100
AcDbEllipse
 10
15.50356098549307
 20
-75.3960574192902
 30
0.0
 11
2.73954280749077
 21
0.239593835324687
 31
0.0
210
0.0
220
0.0
230
1.0
 40
0.087176540712736
 41
5.206177514944429
 42
6.687274082743507
  0
ELLIPSE
  5
14C1D
330
1F
100
AcDbEntity
  8
AM_0
370
    30
100
AcDbEllipse
 10
19.09412134359772
 20
-74.58301263108533
 30
0.0
 11
4.233838884303916
 21
0.3702813818654218
 31
0.0
210
0.0
220
0.0
230
1.0
 40
0.0871765407127361
 41
4.514538855898344
 42
5.341263905879743
  0
LINE
  5
14C1E
330
1F
100
AcDbEntity
  8
AM_0
370
    30
100
AcDbLine
 10
16.45291007795512
 20
-82.97939781343374
 30
0.0
 11
16.78483178146175
 21
-86.77462782951196
 31
0.0
  0
LINE
  5
14C20
330
1F
100
AcDbEntity
  8
AM_0
370
    30
100
AcDbLine
 10
2.340920213861949
 20
-89.14307718057799
 30
0.0
 11
15.78502902415724
 21
-87.86396528021027
 31
0.0
  0
LINE
  5
14C22
330
1F
100
AcDbEntity
  8
AM_0
370
    30
100
AcDbLine
 10
0.6227097135636939
 20
-84.46980901498318
 30
0.0
 11
1.032282948743585
 21
-89.15291536059144
 31
0.0
  0
ELLIPSE
  5
14C23
330
1F
100
AcDbEntity
  8
AM_0
370
    30
100
AcDbEllipse
 10
15.67182862048944
 20
-87.76925342299111
 30
0.0
 11
1.195436861450517
 21
0.1045500372326015
 31
0.0
210
0.0
220
0.0
230
1.0
 40
0.087176540712736
 41
4.799597958772676
 42
6.148009148079985
  0
ELLIPSE
  5
14C24
330
1F
100
AcDbEntity
  8
AM_0
370
    30
100
AcDbEllipse
 10
2.227719810194088
 20
-89.04836532335884
 30
0.0
 11
1.195436861450517
 21
0.1045500372326015
 31
0.0
210
0.0
220
0.0
230
1.0
 40
0.087176540712736
 41
3.141592653589792
 42
4.79959795877269
  0
LINE
  5
14C25
330
1F
100
AcDbEntity
  8
AM_0
370
    30
100
AcDbLine
 10
14.87866198843992
 20
-76.83833304446839
 30
0.0
 11
1.30867200950874
 21
-78.12942164802306
 31
0.0
  0
LINE
  5
14C26
330
1F
100
AcDbEntity
  8
AM_0
370
    30
100
AcDbLine
 10
1.859809689487832
 20
-84.43119174606284
 30
0.0
 11
15.42979966841901
 21
-83.14010314250814
 31
0.0
  0
LINE
  5
14C28
330
1F
100
AcDbEntity
  8
AM_0
370
    30
100
AcDbLine
 10
0.0037948473195399
 20
-78.12977263880123
 30
0.0
 11
1.089052678600154
 21
-76.8420422255642
 31
0.0
  0
LINE
  5
14C29
330
1F
100
AcDbEntity
  8
AM_0
370
    30
100
AcDbLine
 10
2.167529033453803
 20
-76.65226752034775
 30
0.0
 11
6.653730008341512
 21
-76.22543721605675
 31
0.0
  0
LINE
  5
14C2A
330
1F
100
AcDbEntity
  8
AM_0
370
    30
100
AcDbLine
 10
14.39369513253539
 20
-75.48903425781779
 30
0.0
 11
15.73751901238492
 21
-75.36117891679308
 31
0.0
  0
LINE
  5
14C2B
330
1F
100
AcDbEntity
  8
AM_0
370
    30
100
AcDbLine
 10
17.04239617457424
 20
-75.36082792601488
 30
0.0
 11
16.94576040082743
 21
-75.47549268241991
 31
0.0
  0
LINE
  5
14C2C
330
1F
100
AcDbEntity
  8
AM_0
370
    30
100
AcDbLine
 10
15.96962942580515
 20
-76.63373684118872
 30
0.0
 11
15.95713834329357
 21
-76.64855833925194
 31
0.0
  0
LINE
  5
14C2D
330
1F
100
AcDbEntity
  8
AM_0
370
    30
100
AcDbLine
 10
17.04239617457424
 20
-75.36082792601488
 30
0.0
 11
17.05109784710348
 21
-75.46032382647687
 31
0.0
  0
LINE
  5
14C2F
330
1F
100
AcDbEntity
  8
AM_0
370
    30
100
AcDbLine
 10
15.95713834329357
 20
-76.64855833925194
 30
0.0
 11
16.12639588312712
 21
-78.58386804885348
 31
0.0
  0
LINE
  5
14C30
330
1F
100
AcDbEntity
  8
AM_0
370
    30
100
AcDbLine
 10
0.00003474439049
 20
-78.1392598280365
 30
0.0
 11
0.5511724243695824
 21
-84.44102992607631
 31
0.0
  0
LINE
  5
14C31
330
1F
100
AcDbEntity
  8
AM_0
370
    30
100
AcDbLine
 10
17.04615627750329
 20
-75.35134073677961
 30
0.0
 11
17.0556293994832
 21
-75.4596574768556
 31
0.0
  0
ELLIPSE
  5
14C32
330
1F
100
AcDbEntity
  8
AM_0
370
    30
100
AcDbEllipse
 10
1.195471605840993
 20
-78.03470979080393
 30
0.0
 11
1.195436861450518
 21
0.1045500372325907
 31
0.0
210
0.0
220
0.0
230
1.0
 40
0.087176540712736
 41
3.054268706778399
 42
4.799597958772741
  0
ELLIPSE
  5
14C33
330
1F
100
AcDbEntity
  8
AM_0
370
    30
100
AcDbEllipse
 10
1.746609285820085
 20
-84.33647988884368
 30
0.0
 11
1.195436861450517
 21
0.1045500372326015
 31
0.0
210
0.0
220
0.0
230
1.0
 40
0.087176540712736
 41
3.141592653589794
 42
4.799597958772687
  0
ELLIPSE
  5
14C34
330
1F
100
AcDbEntity
  8
AM_0
370
    30
100
AcDbEllipse
 10
2.280729437121607
 20
-76.7469793775669
 30
0.0
 11
1.195436861450518
 21
0.1045500372325907
 31
0.0
210
0.0
220
0.0
230
1.0
 40
0.087176540712736
 41
1.658005305182923
 42
3.05426870677839
  0
ELLIPSE
  5
14C35
330
1F
100
AcDbEntity
  8
AM_0
370
    30
100
AcDbEllipse
 10
15.85071941605278
 20
-75.4558907740122
 30
0.0
 11
1.195436861450518
 21
0.1045500372325907
 31
0.0
210
0.0
220
0.0
230
1.0
 40
0.087176540712736
 41
6.195861360368206
 42
7.941190612362517
  0
ELLIPSE
  5
14C36
330
1F
100
AcDbEntity
  8
AM_0
370
    30
100
AcDbEllipse
 10
14.76546158477211
 20
-76.74362118724923
 30
0.0
 11
1.195436861450518
 21
0.1045500372325907
 31
0.0
210
0.0
220
0.0
230
1.0
 40
0.087176540712736
 41
4.799597958772724
 42
6.19586136036817
  0
ELLIPSE
  5
14C37
330
1F
100
AcDbEntity
  8
AM_0
370
    30
100
AcDbEllipse
 10
15.31659926475126
 20
-83.04539128528901
 30
0.0
 11
1.195436861450517
 21
0.1045500372326015
 31
0.0
210
0.0
220
0.0
230
1.0
 40
0.087176540712736
 41
4.799597958772672
 42
6.039485670359142
  0
ELLIPSE
  5
14C38
330
1F
100
AcDbEntity
  8
AM_0
370
    30
100
AcDbEllipse
 10
8.523095510946831
 20
-76.74530028240807
 30
0.0
 11
3.162926695921162
 21
0.2766219735112294
 31
0.0
210
0.0
220
0.0
230
1.0
 40
0.087176540712736
 41
2.279350433389457
 42
6.330082518011272
  0
LINE
  5
14C39
330
1F
100
AcDbEntity
  8
AM_0
370
    30
100
AcDbLine
 10
16.08964204400732
 20
-66.33324350334212
 30
0.0
 11
17.55511678553907
 21
-66.05027101990871
 31
0.0
  0
LINE
  5
14C3B
330
1F
100
AcDbEntity
  8
AM_0
370
    30
100
AcDbLine
 10
17.55511678553907
 20
-66.05027101990871
 30
0.0
 11
19.82380842129763
 21
-65.88696140729482
 31
0.0
  0
LINE
  5
14C3D
330
1F
100
AcDbEntity
  8
AM_0
370
    30
100
AcDbLine
 10
19.82380842129763
 20
-65.88696140729482
 30
0.0
 11
20.62702531552449
 21
-66.00662427811429
 31
0.0
  0
LINE
  5
14C3E
330
1F
100
AcDbEntity
  8
AM_0
370
    30
100
AcDbLine
 10
20.62702531552449
 20
-66.00662427811429
 30
0.0
 11
19.16155057399274
 21
-66.2895967615477
 31
0.0
  0
LINE
  5
14C3F
330
1F
100
AcDbEntity
  8
AM_0
370
    30
100
AcDbLine
 10
19.16155057399274
 20
-66.2895967615477
 30
0.0
 11
16.89285893823418
 21
-66.45290637416159
 31
0.0
  0
LINE
  5
14C40
330
1F
100
AcDbEntity
  8
AM_0
370
    30
100
AcDbLine
 10
16.89285893823418
 20
-66.45290637416159
 30
0.0
 11
16.08964204400732
 21
-66.33324350334212
 31
0.0
  0
LINE
  5
14C41
330
1F
100
AcDbEntity
  8
AM_0
370
    30
100
AcDbLine
 10
16.61874789405098
 20
-74.97370912089119
 30
0.0
 11
16.64802364882038
 21
-75.30845138712587
 31
0.0
  0
LINE
  5
14C42
330
1F
100
AcDbEntity
  8
AM_0
370
    30
100
AcDbLine
 10
21.57130882510555
 20
-74.2130579863468
 30
0.0
 11
21.61071919128293
 21
-74.66368053702934
 31
0.0
  0
LINE
  5
14C43
330
1F
100
AcDbEntity
  8
AM_0
370
    30
100
AcDbLine
 10
14.23298646474925
 20
-67.78072119740463
 30
0.0
 11
14.29162095919466
 21
-68.45115458861091
 31
0.0
  0
LINE
  5
14C44
330
1F
100
AcDbEntity
  8
AM_0
370
    30
100
AcDbLine
 10
22.70066423335706
 20
-67.04015843367372
 30
0.0
 11
22.75348070264911
 21
-67.64406787220352
 31
0.0
  0
LINE
  5
14C45
330
1F
100
AcDbEntity
  8
AM_0
370
    30
100
AcDbLine
 10
15.37921278313925
 20
-66.407506911138
 30
0.0
 11
14.246404078832
 21
-67.74700159445305
 31
0.0
  0
LINE
  5
14C46
330
1F
100
AcDbEntity
  8
AM_0
370
    30
100
AcDbLine
 10
21.3334666234347
 20
-65.88676216855083
 30
0.0
 11
22.68159701925057
 21
-67.00927987578791
 31
0.0
  0
ELLIPSE
  5
14C47
330
1F
100
AcDbEntity
  8
AM_0
370
    30
100
AcDbEllipse
 10
18.35833367976588
 20
-66.1699338907282
 30
0.0
 11
2.988592153626294
 21
0.2613750930814766
 31
0.0
210
0.0
220
0.0
230
0.9999999999999999
 40
0.0871765407127359
 41
2.354585081577815
 42
8.637770388757399
  0
ELLIPSE
  5
14C48
330
1F
100
AcDbEntity
  8
AM_0
370
    30
100
AcDbEllipse
 10
18.4668253490531
 20
-67.41043981553918
 30
0.0
 11
4.233838884303916
 21
0.3702813818654251
 31
0.0
210
0.0
220
0.0
230
0.9999999999999999
 40
0.0871765407127359
 41
3.053970875350642
 42
6.370807085418834
  0
LINE
  5
14C4B
330
1F
100
AcDbEntity
  8
AM_0
370
    30
100
AcDbLine
 10
14.52505008612403
 20
-75.24287402925913
 30
0.0
 11
14.03944110508255
 21
-76.15290912498642
 31
0.0
  0
LINE
  5
14C4C
330
1F
100
AcDbEntity
  8
AM_0
370
    30
100
AcDbLine
 10
10.01257802461842
 20
-76.67060094658527
 30
0.0
 11
14.03944110508255
 21
-76.15290912498642
 31
0.0
  0
ELLIPSE
  5
14C4E
330
1F
100
AcDbEntity
  8
AM_0
370
    30
100
AcDbEllipse
 10
8.567144025944884
 20
-72.26862647551948
 30
0.0
 11
1.702006911109176
 21
-4.336603952034047
 31
0.0
210
0.0
220
0.0
230
0.9999999999999999
 40
0.4754573734421007
 41
5.865264065230631
 42
6.164295482894154
  0
SPLINE
  5
14C4F
330
1F
100
AcDbEntity
  8
AM_0
370
    30
100
AcDbSpline
210
0.0
220
0.0
230
1.0
 70
     8
 71
     3
 72
    14
 73
    10
 74
     0
 42
0.0000000001
 43
0.0000000001
 40
-2.731310280445193
 40
-2.731310280445193
 40
-2.731310280445193
 40
-2.731310280445193
 40
-2.693528203951146
 40
-2.693528203951146
 40
-2.260672009070322
 40
-2.260672009070322
 40
-1.827815814189497
 40
-1.827815814189497
 40
-1.778111397632678
 40
-1.778111397632678
 40
-1.778111397632678
 40
-1.778111397632678
 10
6.438224801512632
 20
-76.60089468408773
 30
0.0
 10
6.438228606131446
 20
-76.59599160287951
 30
0.0
 10
6.438344239818974
 20
-76.59144394725834
 30
0.0
 10
6.441080513629998
 20
-76.53904043645343
 30
0.0
 10
6.458844518035988
 20
-76.52287046483713
 30
0.0
 10
6.528878359599815
 20
-76.54108747308391
 30
0.0
 10
6.58125038687578
 20
-76.57626262941406
 30
0.0
 10
6.64636364480819
 20
-76.63290722165166
 30
0.0
 10
6.653252363390578
 20
-76.63903644343569
 30
0.0
 10
6.660311493424075
 20
-76.64546187537516
 30
0.0
  0
LINE
  5
14C51
330
1F
100
AcDbEntity
  8
AM_0
370
    30
100
AcDbLine
 10
26.87405502203606
 20
-73.18913637389099
 30
0.0
 11
27.40159665423724
 21
-73.87186387575005
 31
0.0
  0
LINE
  5
14C52
330
1F
100
AcDbEntity
  8
AM_0
370
    30
100
AcDbLine
 10
22.27906403492281
 20
-67.74665402414607
 30
0.0
 11
21.64449485753741
 21
-67.86918470375872
 31
0.0
  0
ELLIPSE
  5
14C55
330
1F
100
AcDbEntity
  8
AM_0
370
    30
100
AcDbEllipse
 10
8.760899553382359
 20
-74.48404892528095
 30
0.0
 11
-2.124454758065136
 21
-2.138718013747305
 31
0.0
210
0.0
220
0.0
230
1.0
 40
0.500338566120581
 41
0.0218322003737603
 42
0.9235046581855252
  0
ARC
  5
14C5A
330
1F
100
AcDbEntity
  8
AM_0
370
    30
100
AcDbCircle
 10
8.886373074237525
 20
-77.7843420075229
 30
0.0
 40
1.28744597233766
100
AcDbArc
 50
71.92429354810588
 51
115.4355790436294
  0
LINE
  5
14C5F
330
1F
100
AcDbEntity
  8
AM_0
370
    30
100
AcDbLine
 10
18.96365079971267
 20
-74.67224939096053
 30
0.0
 11
14.52505008612403
 21
-75.2428740292591
 31
0.0
  0
LINE
  5
14C60
330
1F
100
AcDbEntity
  8
AM_0
370
    30
100
AcDbLine
 10
20.21000858829521
 20
-74.47591513276615
 30
0.0
 11
26.87405502203606
 21
-73.18913637389099
 31
0.0
  0
ELLIPSE
  5
14C61
330
1F
100
AcDbEntity
  8
AM_0
370
    30
100
AcDbEllipse
 10
8.567144025944884
 20
-72.26862647551954
 30
0.0
 11
-2.088380697157859
 21
-4.455153457521151
 31
0.0
210
0.0
220
0.0
230
1.0
 40
0.0928088548800828
 41
6.08733826344126
 42
6.124512809093935
  0
ELLIPSE
  5
14C67
330
1F
100
AcDbEntity
  8
AM_0
370
    30
100
AcDbEllipse
 10
19.05804288955071
 20
-74.49228266093908
 30
0.0
 11
1.980778970163463
 21
0.2645064206867867
 31
0.0
210
0.0
220
0.0
230
0.9999999999999999
 40
0.0831562856853599
 41
4.653615893714617
 42
5.321900791086609
  0
LINE
  5
14C6D
330
1F
100
AcDbEntity
  8
AM_0
370
    30
100
AcDbLine
 10
28.09495374544153
 20
-68.36393366697834
 30
0.0
 11
28.57090642054604
 21
-73.80602997977135
 31
0.0
  0
LINE
  5
14C6E
330
1F
100
AcDbEntity
  8
AM_0
370
    30
100
AcDbLine
 10
6.439665173158829
 20
-76.63718883582706
 30
0.0
 11
6.483173976333916
 21
-77.13467337519037
 31
0.0
  0
LINE
  5
14C6F
330
1F
100
AcDbEntity
  8
AM_0
370
    30
100
AcDbLine
 10
11.445561205166
 20
-76.48637723243488
 30
0.0
 11
11.45506782800177
 21
-76.5950770250569
 31
0.0
  0
LINE
  5
14C70
330
1F
100
AcDbEntity
  8
AM_0
370
    30
100
AcDbLine
 10
6.449018130635153
 20
-76.54410270315546
 30
0.0
 11
9.404542576932357
 21
-71.94337485158263
 31
0.0
  0
ARC
  5
14C71
330
1F
100
AcDbEntity
  8
AM_0
370
    30
100
AcDbCircle
 10
16.82245874159079
 20
-75.82808527073811
 30
0.0
 40
8.373556906512041
100
AcDbArc
 50
122.6767455965105
 51
152.359265907586
  0
LINE
  5
14C72
330
1F
100
AcDbEntity
  8
AM_0
370
    30
100
AcDbLine
 10
14.02091710312627
 20
-68.04941368668699
 30
0.0
 11
12.30158595650804
 21
-68.77981140207396
 31
0.0
  0
LINE
  5
14C73
330
1F
100
AcDbEntity
  8
AM_0
370
    30
100
AcDbLine
 10
26.57934729932728
 20
-66.99477259843812
 30
0.0
 11
22.70151360151456
 21
-67.04987020452828
 31
0.0
  0
SPLINE
  5
14C74
330
1F
100
AcDbEntity
  8
AM_0
370
    30
100
AcDbSpline
210
0.0
220
0.0
230
1.0
 70
     8
 71
     3
 72
     8
 73
     4
 74
     0
 42
0.0000000001
 43
0.0000000001
 40
0.0
 40
0.0
 40
0.0
 40
0.0
 40
0.2805429374159605
 40
0.2805429374159605
 40
0.2805429374159605
 40
0.2805429374159605
 10
14.02091710312627
 20
-68.04941368668699
 30
0.0
 10
14.08957298285023
 20
-68.0202476369723
 30
0.0
 10
14.16735640365633
 20
-67.99462066640697
 30
0.0
 10
14.2502342510081
 20
-67.97793432155103
 30
0.0
  0
ELLIPSE
  5
14C76
330
1F
100
AcDbEntity
  8
AM_0
370
    30
100
AcDbEllipse
 10
18.18859776130378
 20
-67.91828728827747
 30
0.0
 11
4.482888230439443
 21
0.3920626396222152
 31
0.0
210
0.0
220
0.0
230
1.0
 40
0.0871765407127359
 41
2.632154614208461
 42
5.584996122170177
  0
ELLIPSE
  5
14C77
330
1F
100
AcDbEntity
  8
AM_0
370
    30
100
AcDbEllipse
 10
18.82316693868924
 20
-67.79575660866482
 30
0.0
 11
4.482888230439443
 21
0.3920626396222152
 31
0.0
210
0.0
220
0.0
230
1.0
 40
0.0871765407127359
 41
5.58499612217018
 42
6.792623346561009
  0
ELLIPSE
  5
14C7E
330
1F
100
AcDbEntity
  8
AM_0
370
    30
100
AcDbEllipse
 10
14.41191354092055
 20
-68.96980587789253
 30
0.0
 11
-0.3909964377943157
 21
0.9203921912055512
 31
0.0
210
0.0
220
0.0
230
1.0
 40
0.9622336061462411
 41
6.034564904023604
 42
6.283185307179576
  0
ARC
  5
14C81
330
1F
100
AcDbEntity
  8
AM_0
370
    30
100
AcDbCircle
 10
26.60065766862837
 20
-68.49462121351908
 30
0.0
 40
1.5
100
AcDbArc
 50
4.998233628831724
 51
90.81402353203748
  0
LINE
  5
14C84
330
1F
100
AcDbEntity
  8
AM_0
370
    30
100
AcDbLine
 10
-59.01872912602951
 20
6.410706712048921
 30
0.0
 11
-59.44180703589589
 21
3.35240219724659
 31
0.0
  0
LINE
  5
14C88
330
1F
100
AcDbEntity
  8
AM_0
370
    30
100
AcDbLine
 10
-94.44318022922008
 20
40.0
 30
0.0
 11
-94.44318022922008
 21
22.00000000000003
 31
0.0
  0
LINE
  5
14C89
330
1F
100
AcDbEntity
  8
AM_0
370
    30
100
AcDbLine
 10
-60.12035325750358
 20
22.0
 30
0.0
 11
-57.44318022922008
 21
37.27183476573487
 31
0.0
  0
LINE
  5
14C8A
330
1F
100
AcDbEntity
  8
AM_0
370
    30
100
AcDbLine
 10
-94.44318022922008
 20
22.0
 30
0.0
 11
-94.44318022922008
 21
2.066274317276879
 31
0.0
  0
LINE
  5
14C8B
330
1F
100
AcDbEntity
  8
AM_0
370
    30
100
AcDbLine
 10
-94.44318022922008
 20
22.0
 30
0.0
 11
-60.12035325750358
 21
22.0
 31
0.0
  0
LINE
  5
14C8C
330
1F
100
AcDbEntity
  8
AM_0
370
    30
100
AcDbLine
 10
-60.71595558830464
 20
15.71949993466907
 30
0.0
 11
-60.1203532575037
 21
22.0
 31
0.0
  0
LINE
  5
14C8D
330
1F
100
AcDbEntity
  8
AM_0
370
    30
100
AcDbLine
 10
-94.44318022922008
 20
2.066274317276907
 30
0.0
 11
-73.34421934083505
 21
2.066274317276907
 31
0.0
  0
LINE
  5
14C8E
330
1F
100
AcDbEntity
  8
AM_0
370
    30
100
AcDbLine
 10
-59.44180703589589
 20
3.35240219724659
 30
0.0
 11
-60.71260501287011
 21
2.183840151860125
 31
0.0
  0
LINE
  5
14C8F
330
1F
100
AcDbEntity
  8
AM_0
370
    30
100
AcDbLine
 10
-60.29106623484327
 20
6.628877026340945
 30
0.0
 11
-60.71260501287011
 21
2.183840151860125
 31
0.0
  0
LINE
  5
14C90
330
1F
100
AcDbEntity
  8
AM_0
370
    30
100
AcDbLine
 10
-60.71260501287011
 20
2.183840151860125
 30
0.0
 11
-60.83260561706564
 21
2.184684117035715
 31
0.0
  0
LINE
  5
14C91
330
1F
100
AcDbEntity
  8
AM_0
370
    30
100
AcDbLine
 10
-71.94655183979504
 20
16.61951141252268
 30
0.0
 11
-60.71595558830464
 21
15.71949993466907
 31
0.0
  0
LINE
  5
14C92
330
1F
100
AcDbEntity
  8
AM_0
370
    30
100
AcDbLine
 10
-60.71595558830464
 20
15.71949993466907
 30
0.0
 11
-59.69266755424306
 21
16.66046425769221
 31
0.0
  0
LINE
  5
14C93
330
1F
100
AcDbEntity
  8
AM_0
370
    30
100
AcDbLine
 10
-71.98810049126726
 20
16.18138970817242
 30
0.0
 11
-71.94655183979504
 21
16.61951141252268
 31
0.0
  0
LINE
  5
14C97
330
1F
100
AcDbEntity
  8
AM_0
370
    30
100
AcDbLine
 10
-59.35537861975504
 20
18.10126258905754
 30
0.0
 11
-59.35319167130027
 21
18.1010704793332
 31
0.0
  0
LINE
  5
14C98
330
1F
100
AcDbEntity
  8
AM_0
370
    30
100
AcDbLine
 10
-59.35319167130015
 20
18.10107047933317
 30
0.0
 11
-59.30013098694022
 21
18.4751752736085
 31
0.0
  0
LINE
  5
14C99
330
1F
100
AcDbEntity
  8
AM_0
370
    30
100
AcDbLine
 10
-94.44318022922008
 20
40.0
 30
0.0
 11
-57.44318022922008
 21
40.0
 31
0.0
  0
LINE
  5
14C9A
330
1F
100
AcDbEntity
  8
AM_0
370
    30
100
AcDbLine
 10
-57.44318022922008
 20
37.27183476573489
 30
0.0
 11
-57.44318022922008
 21
30.65791275809269
 31
0.0
  0
LINE
  5
14C9B
330
1F
100
AcDbEntity
  8
AM_0
370
    30
100
AcDbLine
 10
-57.44318022922008
 20
37.27183476573487
 30
0.0
 11
-57.44318022922008
 21
39.99999999999997
 31
0.0
  0
LINE
  5
14C9C
330
1F
100
AcDbEntity
  8
AM_0
370
    30
100
AcDbLine
 10
-59.01872912602951
 20
6.410706712048921
 30
0.0
 11
-58.90881553481691
 21
7.691268442246781
 31
0.0
  0
LINE
  5
14C9D
330
1F
100
AcDbEntity
  8
AM_0
370
    30
100
AcDbLine
 10
-73.39188684479851
 20
0.9866056608527174
 30
0.0
 11
-94.44318022922008
 21
0.9866056608527174
 31
0.0
  0
ELLIPSE
  5
14C9E
330
1F
100
AcDbEntity
  8
AM_0
370
    30
100
AcDbEllipse
 10
-57.9944799516916
 20
30.55050004397401
 30
0.0
 11
0.1557620357126056
 21
1.773171787569018
 31
0.0
210
0.0
220
0.0
230
1.0
 40
0.0867933354297812
 41
7.76665544829793
 42
8.734212878943186
  0
LINE
  5
14C9F
330
1F
100
AcDbEntity
  8
AM_0
370
    30
100
AcDbLine
 10
-94.44318022922008
 20
0.9866056608527174
 30
0.0
 11
-94.44318022922008
 21
2.066274317276907
 31
0.0
  0
ELLIPSE
  5
14CA0
330
1F
100
AcDbEntity
  8
AM_0
370
    30
100
AcDbEllipse
 10
-59.59492619516712
 20
15.36174470910379
 30
0.0
 11
0.2406435944998104
 21
2.739450795401558
 31
0.0
210
0.0
220
0.0
230
0.9999999999999999
 40
0.086793335429782
 41
6.278586341171348
 42
7.367702234174741
  0
ELLIPSE
  5
14CA1
330
1F
100
AcDbEntity
  8
AM_0
370
    30
100
AcDbEllipse
 10
-58.7818814069623
 20
21.0425481446739
 30
0.0
 11
0.3719037369542526
 21
4.233696683802404
 31
0.0
210
0.0
220
0.0
230
0.9999999999999998
 40
0.0867933354297813
 41
7.225106708479451
 42
8.51312649873935
  0
LINE
  5
14CA3
330
1F
100
AcDbEntity
  8
AM_0
370
    30
100
AcDbLine
 10
-72.06651208513929
 20
15.53958861063595
 30
0.0
 11
-73.34229694723311
 21
2.086708231621259
 31
0.0
  0
LINE
  5
14CA5
330
1F
100
AcDbEntity
  8
AM_0
370
    30
100
AcDbLine
 10
-67.18117641547261
 20
16.21374427994931
 30
0.0
 11
-70.27982959954252
 21
16.48594155451784
 31
0.0
  0
LINE
  5
14CA6
330
1F
100
AcDbEntity
  8
AM_0
370
    30
100
AcDbLine
 10
-68.6690360027292
 20
0.375664014380277
 30
0.0
 11
-73.35224221319928
 21
0.7870543478599359
 31
0.0
  0
ELLIPSE
  5
14CA7
330
1F
100
AcDbEntity
  8
AM_0
370
    30
100
AcDbEllipse
 10
-73.24723409923573
 20
1.982451058580637
 30
0.0
 11
0.1050081139635428
 21
1.19539671072068
 31
0.0
210
0.0
220
0.0
230
0.9999999999999999
 40
0.0867933354297821
 41
1.491096483166818
 42
3.141592653589741
  0
ELLIPSE
  5
14CA8
330
1F
100
AcDbEntity
  8
AM_0
370
    30
100
AcDbEllipse
 10
-71.97144923714191
 20
15.4353314375953
 30
0.0
 11
0.1050081139635428
 21
1.19539671072068
 31
0.0
210
0.0
220
0.0
230
0.9999999999999999
 40
0.0867933354297821
 41
0.1720517858566937
 42
1.491096483166793
  0
LINE
  5
14CA9
330
1F
100
AcDbEntity
  8
AM_0
370
    30
100
AcDbLine
 10
-61.03720182034536
 20
0.9417632776711571
 30
0.0
 11
-62.32829042389997
 21
-0.2454570096457189
 31
0.0
  0
LINE
  5
14CAA
330
1F
100
AcDbEntity
  8
AM_0
370
    30
100
AcDbLine
 10
-62.32864141467817
 20
1.049688626984818
 30
0.0
 11
-61.04091100144117
 21
14.62853230542834
 31
0.0
  0
LINE
  5
14CAC
330
1F
100
AcDbEntity
  8
AM_0
370
    30
100
AcDbLine
 10
-67.34268109948098
 20
15.18210333895422
 30
0.0
 11
-68.63041151271798
 21
1.603259660510702
 31
0.0
  0
LINE
  5
14CAE
330
1F
100
AcDbEntity
  8
AM_0
370
    30
100
AcDbLine
 10
-60.85113629622472
 20
15.7151635959776
 30
0.0
 11
-60.83596195964745
 21
15.72911715437903
 31
0.0
  0
LINE
  5
14CAF
330
1F
100
AcDbEntity
  8
AM_0
370
    30
100
AcDbLine
 10
-59.67377128359092
 20
16.79780937623428
 30
0.0
 11
-59.56004769267
 21
16.90238388329456
 31
0.0
  0
LINE
  5
14CB0
330
1F
100
AcDbEntity
  8
AM_0
370
    30
100
AcDbLine
 10
-60.85113629622472
 20
15.7151635959776
 30
0.0
 11
-62.82006741740113
 21
15.88812186305717
 31
0.0
  0
LINE
  5
14CB1
330
1F
100
AcDbEntity
  8
AM_0
370
    30
100
AcDbLine
 10
-59.56004769267
 20
16.90238388329459
 30
0.0
 11
-59.65747689693686
 21
16.91094242866558
 31
0.0
  0
LINE
  5
14CB2
330
1F
100
AcDbEntity
  8
AM_0
370
    30
100
AcDbLine
 10
-59.5596967018918
 20
15.60723824666403
 30
0.0
 11
-59.6837064714247
 21
14.29958156807865
 31
0.0
  0
LINE
  5
14CB3
330
1F
100
AcDbEntity
  8
AM_0
370
    30
100
AcDbLine
 10
-60.42058750568529
 20
6.529327584031307
 30
0.0
 11
-60.84742711512891
 21
2.028394568220392
 31
0.0
  0
LINE
  5
14CB4
330
1F
100
AcDbEntity
  8
AM_0
370
    30
100
AcDbLine
 10
-62.33858668064445
 20
-0.2499652567765054
 30
0.0
 11
-68.64035677868415
 21
0.3036057767493787
 31
0.0
  0
LINE
  5
14CB5
330
1F
100
AcDbEntity
  8
AM_0
370
    30
100
AcDbLine
 10
-59.54975143592563
 20
16.90689213042535
 30
0.0
 11
-59.65668981274749
 21
16.91628599704694
 31
0.0
  0
ELLIPSE
  5
14CB6
330
1F
100
AcDbEntity
  8
AM_0
370
    30
100
AcDbEllipse
 10
-62.2335785666809
 20
0.9454314539441668
 30
0.0
 11
0.1050081139635536
 21
1.195396710720679
 31
0.0
210
0.0
220
0.0
230
1.0
 40
0.0867933354297821
 41
1.491096483166865
 42
3.236425735161202
  0
ELLIPSE
  5
14CB7
330
1F
100
AcDbEntity
  8
AM_0
370
    30
100
AcDbEllipse
 10
-68.5353486647206
 20
1.499002487470051
 30
0.0
 11
0.1050081139635428
 21
1.19539671072068
 31
0.0
210
0.0
220
0.0
230
0.9999999999999999
 40
0.0867933354297821
 41
1.491096483166812
 42
3.141592653589741
  0
ELLIPSE
  5
14CB8
330
1F
100
AcDbEntity
  8
AM_0
370
    30
100
AcDbEllipse
 10
-60.94584815344379
 20
14.52427513238769
 30
0.0
 11
0.1050081139635536
 21
1.195396710720679
 31
0.0
210
0.0
220
0.0
230
1.0
 40
0.0867933354297821
 41
0.094833081571387
 42
1.491096483166853
  0
ELLIPSE
  5
14CB9
330
1F
100
AcDbEntity
  8
AM_0
370
    30
100
AcDbEllipse
 10
-67.2476182514836
 20
15.07784616591357
 30
0.0
 11
0.1050081139635428
 21
1.19539671072068
 31
0.0
210
0.0
220
0.0
230
0.9999999999999999
 40
0.0867933354297821
 41
0.2549671027546631
 42
1.491096483166805
  0
ELLIPSE
  5
14CBA
330
1F
100
AcDbEntity
  8
AM_0
370
    30
100
AcDbEllipse
 10
-59.65475954988918
 20
15.71149541970465
 30
0.0
 11
0.1050081139635536
 21
1.195396710720679
 31
0.0
210
0.0
220
0.0
230
1.0
 40
0.0867933354297821
 41
4.632689136756669
 42
6.378018388750981
  0
ELLIPSE
  5
14CBB
330
1F
100
AcDbEntity
  8
AM_0
370
    30
100
AcDbEllipse
 10
-60.94248996312618
 20
2.132651741261071
 30
0.0
 11
0.1050081139635536
 21
1.195396710720679
 31
0.0
210
0.0
220
0.0
230
1.0
 40
0.0867933354297821
 41
3.236425735161189
 42
4.632689136756635
  0
ELLIPSE
  5
14CBC
330
1F
100
AcDbEntity
  8
AM_0
370
    30
100
AcDbEllipse
 10
-60.94416905828498
 20
8.328463436824393
 30
0.0
 11
0.2778339681952355
 21
3.162820463781797
 31
0.0
210
0.0
220
0.0
230
0.9999999999999999
 40
0.086793335429782
 41
0.1103071019937636
 42
4.039161671322354
  0
LINE
  5
14CBD
330
1F
100
AcDbEntity
  8
AM_0
370
    30
100
AcDbLine
 10
-50.53211227921909
 20
20.70313865346938
 30
0.0
 11
-50.24913979578562
 21
22.46542231079741
 31
0.0
  0
LINE
  5
14CBE
330
1F
100
AcDbEntity
  8
AM_0
370
    30
100
AcDbLine
 10
-50.24913979578562
 20
22.46542231079741
 30
0.0
 11
-50.08583018317179
 21
22.06579552791075
 31
0.0
  0
LINE
  5
14CC0
330
1F
100
AcDbEntity
  8
AM_0
370
    30
100
AcDbLine
 10
-50.08583018317179
 20
22.06579552791075
 30
0.0
 11
-50.20549305399121
 21
19.9038850876961
 31
0.0
  0
LINE
  5
14CC2
330
1F
100
AcDbEntity
  8
AM_0
370
    30
100
AcDbLine
 10
-50.20549305399121
 20
19.9038850876961
 30
0.0
 11
-50.48846553742467
 21
18.14160143036807
 31
0.0
  0
LINE
  5
14CC3
330
1F
100
AcDbEntity
  8
AM_0
370
    30
100
AcDbLine
 10
-50.48846553742467
 20
18.14160143036807
 30
0.0
 11
-50.6517751500385
 21
18.54122821325473
 31
0.0
  0
LINE
  5
14CC4
330
1F
100
AcDbEntity
  8
AM_0
370
    30
100
AcDbLine
 10
-50.6517751500385
 20
18.54122821325473
 30
0.0
 11
-50.53211227921909
 21
20.70313865346938
 31
0.0
  0
LINE
  5
14CC5
330
1F
100
AcDbEntity
  8
AM_0
370
    30
100
AcDbLine
 10
-58.34197101490068
 20
23.51353188833485
 30
0.0
 11
-58.86027296331284
 21
23.55906146824609
 31
0.0
  0
LINE
  5
14CC6
330
1F
100
AcDbEntity
  8
AM_0
370
    30
100
AcDbLine
 10
-59.07137521851919
 20
18.55835124651273
 30
0.0
 11
-59.29780677149429
 21
18.57824184024327
 31
0.0
  0
LINE
  5
14CC7
330
1F
100
AcDbEntity
  8
AM_0
370
    30
100
AcDbLine
 10
-51.23740485446186
 20
24.64617923027606
 30
0.0
 11
-51.85578251022778
 21
24.70049983427876
 31
0.0
  0
LINE
  5
14CC8
330
1F
100
AcDbEntity
  8
AM_0
370
    30
100
AcDbLine
 10
-51.98121232837039
 20
16.17878586267125
 30
0.0
 11
-52.65466290912175
 21
16.2379442781982
 31
0.0
  0
LINE
  5
14CC9
330
1F
100
AcDbEntity
  8
AM_0
370
    30
100
AcDbLine
 10
-50.08468274480177
 20
23.27865524903683
 30
0.0
 11
-51.20680536886144
 21
24.62726899928362
 31
0.0
  0
LINE
  5
14CCA
330
1F
100
AcDbEntity
  8
AM_0
370
    30
100
AcDbLine
 10
-50.60772692159983
 20
17.32439833587145
 30
0.0
 11
-51.94778461932529
 21
16.19207170563266
 31
0.0
  0
ELLIPSE
  5
14CCB
330
1F
100
AcDbEntity
  8
AM_0
370
    30
100
AcDbEllipse
 10
-50.36880266660515
 20
20.30351187058272
 30
0.0
 11
0.2625202849088837
 21
2.988491776801697
 31
0.0
210
0.0
220
0.0
230
0.9999999999999999
 40
0.086793335429782
 41
0.7914128579662753
 42
7.074598165145861
  0
ELLIPSE
  5
14CCC
330
1F
100
AcDbEntity
  8
AM_0
370
    30
100
AcDbEllipse
 10
-51.60930859141618
 20
20.41248254647366
 30
0.0
 11
0.3719037369542519
 21
4.233696683802403
 31
0.0
210
0.0
220
0.0
230
1.0
 40
0.086793335429782
 41
6.195952610980707
 42
9.512010656968249
  0
ARC
  5
14CD1
330
1F
100
AcDbEntity
  8
AM_0
370
    30
100
AcDbCircle
 10
-61.95610606279243
 20
8.315921156711596
 30
0.0
 40
1.226816887548623
100
AcDbArc
 50
334.9891406939037
 51
19.51481065408617
  0
LINE
  5
14CD2
330
1F
100
AcDbEntity
  8
AM_0
370
    30
100
AcDbLine
 10
-52.16625864867311
 20
22.95189576180331
 30
0.0
 11
-52.04372796906048
 21
23.71498696976343
 31
0.0
  0
ELLIPSE
  5
14CD5
330
1F
100
AcDbEntity
  8
AM_0
370
    30
100
AcDbEllipse
 10
-58.68291770115789
 20
8.652178631380878
 30
0.0
 11
-2.22425652437797
 21
-2.179479745647364
 31
0.0
210
0.0
220
0.0
230
0.9999999999999999
 40
0.3991127557553986
 41
5.470979793688674
 42
6.372652251500439
  0
LINE
  5
14CD9
330
1F
100
AcDbEntity
  8
AM_0
370
    30
100
AcDbLine
 10
-60.82053107492268
 20
6.402141180832075
 30
0.0
 11
-60.69382193389359
 21
6.319220210360243
 31
0.0
  0
LINE
  5
14CDC
330
1F
100
AcDbEntity
  8
AM_0
370
    30
100
AcDbLine
 10
-58.21258456264232
 20
29.19219769104473
 30
0.0
 11
-57.52985706059988
 21
28.57117965743089
 31
0.0
  0
LINE
  5
14CDE
330
1F
100
AcDbEntity
  8
AM_0
370
    30
100
AcDbLine
 10
-57.52985706059988
 20
28.57117965743089
 30
0.0
 11
-58.81663581947501
 21
20.55743517652519
 31
0.0
  0
ELLIPSE
  5
14CE1
330
1F
100
AcDbEntity
  8
AM_0
370
    30
100
AcDbEllipse
 10
-56.46749525139651
 20
8.457567644922932
 30
0.0
 11
-4.41330466605753
 21
1.220779745350747
 31
0.0
210
0.0
220
0.0
230
1.0
 40
0.5236791545794415
 41
0.0841490386096615
 42
0.3831804562732135
  0
LINE
  5
14CE2
330
1F
100
AcDbEntity
  8
AM_0
370
    30
100
AcDbLine
 10
-60.44250567970508
 20
13.78663983760208
 30
0.0
 11
-60.91891644992111
 21
9.479775647185619
 31
0.0
  0
LINE
  5
14CE3
330
1F
100
AcDbEntity
  8
AM_0
370
    30
100
AcDbLine
 10
-60.44250567970508
 20
13.78663983760211
 30
0.0
 11
-59.53105098746406
 21
14.40277536065915
 31
0.0
  0
LINE
  5
14CE4
330
1F
100
AcDbEntity
  8
AM_0
370
    30
100
AcDbLine
 10
-59.53105098746406
 20
14.40277536065912
 30
0.0
 11
-59.00592829459154
 21
19.15000666376784
 31
0.0
  0
ELLIPSE
  5
14CE8
330
1F
100
AcDbEntity
  8
AM_0
370
    30
100
AcDbEllipse
 10
-58.80026829130216
 20
19.59685871786223
 30
0.0
 11
-0.2728605272263466
 21
-2.162812643657595
 31
0.0
210
0.0
220
0.0
230
1.0
 40
0.0695719566216681
 41
4.260978701415809
 42
4.929263598787803
  0
LINE
  5
14CF2
330
1F
100
AcDbEntity
  8
AM_0
370
    30
100
AcDbLine
 10
-60.71312844920661
 20
11.34014704620444
 30
0.0
 11
-60.7644987976212
 21
11.34465960956712
 31
0.0
  0
LINE
  5
14CF3
330
1F
100
AcDbEntity
  8
AM_0
370
    30
100
AcDbLine
 10
-60.69397596501668
 20
6.319210387759028
 30
0.0
 11
-61.33201895300479
 21
6.375258468028477
 31
0.0
  0
LINE
  5
14CF4
330
1F
100
AcDbEntity
  8
AM_0
370
    30
100
AcDbLine
 10
-56.05710804074025
 20
9.883077469598817
 30
0.0
 11
-60.69396332528302
 21
6.319212209120423
 31
0.0
  0
LINE
  5
14CF5
330
1F
100
AcDbEntity
  8
AM_0
370
    30
100
AcDbLine
 10
-52.88897987261046
 20
13.77344916046107
 30
0.0
 11
-52.22227288711443
 21
16.19996152293339
 31
0.0
  0
ARC
  5
14CF6
330
1F
100
AcDbEntity
  8
AM_0
370
    30
100
AcDbCircle
 10
-60.63577041538932
 20
16.84688591404512
 30
0.0
 40
8.334193253817006
100
AcDbArc
 50
303.3246803505468
 51
338.3599514845936
  0
LINE
  5
14CF7
330
1F
100
AcDbEntity
  8
AM_0
370
    30
100
AcDbLine
 10
-52.67134670142767
 20
30.23873706988167
 30
0.0
 11
-58.13420818695605
 21
30.71861523609616
 31
0.0
  0
LINE
  5
14CF8
330
1F
100
AcDbEntity
  8
AM_0
370
    30
100
AcDbLine
 10
-51.23254310836617
 20
24.64537363107689
 30
0.0
 11
-51.30282454919293
 21
28.77004638714942
 31
0.0
  0
ELLIPSE
  5
14CFA
330
1F
100
AcDbEntity
  8
AM_0
370
    30
100
AcDbEllipse
 10
-52.11715606415444
 20
20.07016638581433
 30
0.0
 11
0.3937804273633255
 21
4.482737665202547
 31
0.0
210
0.0
220
0.0
230
1.0
 40
0.0867933354297821
 41
0.880231244968845
 42
3.6794849481534
  0
ELLIPSE
  5
14CFB
330
1F
100
AcDbEntity
  8
AM_0
370
    30
100
AcDbEllipse
 10
-51.99462538454182
 20
20.83325759377445
 30
0.0
 11
0.3937804273633255
 21
4.482737665202547
 31
0.0
210
0.0
220
0.0
230
1.0
 40
0.0867933354297821
 41
5.745293012615975
 42
7.163416552148432
  0
ARC
  5
14D04
330
1F
100
AcDbEntity
  8
AM_0
370
    30
100
AcDbCircle
 10
-52.80260684388216
 20
28.74449118148081
 30
0.0
 40
1.5
100
AcDbArc
 50
0.976184180163275
 51
84.97981096334689
  0
LINE
  5
14FE5
330
1F
100
AcDbEntity
  8
AM_5
370
    13
100
AcDbLine
 10
1.256745392148361
 20
0.0
 30
0.0
 11
-4.439231472578541
 21
0.0
 31
0.0
  0
DIMENSION
  5
14FE7
330
1F
100
AcDbEntity
  8
AM_5
370
    13
100
AcDbDimension
  2
*D9
 10
-18.41923912795825
 20
40.00000000000001
 30
0.0
 11
-18.41923912795826
 21
20.57509987471576
 31
0.0
 70
   160
 71
     5
 42
40.00000000000001
  3
AM_JIS$0
100
AcDbAlignedDimension
 13
-4.439231472578541
 23
0.0
 33
0.0
 14
20.82820481571014
 24
40.0
 34
0.0
 50
90.0
100
AcDbRotatedDimension
1001
ACAD
1000
DSTYLE
1002
{
1070
   271
1070
     0
1002
}
  0
DIMENSION
  5
14FF5
330
1F
100
AcDbEntity
  8
AM_5
370
    13
100
AcDbDimension
  2
*D10
 10
1.089052678600154
 20
14.87853230542834
 30
0.0
 11
-11.17327950445884
 21
-14.7023237992182
 31
0.0
 70
   162
 71
     5
 42
1.403776688725707
  3
AM_JIS$2
100
AcDb2LineAngularDimension
 13
14.87866198843992
 23
1.191763277671157
 33
0.0
 14
1.30867200950874
 24
0.0045429903542811
 34
0.0
 15
0.0037948473195399
 25
1.299688626984818
 35
0.0
 16
-15.66494745609767
 26
-9.768064827715485
 36
0.0
1001
ACAD
1000
DSTYLE
1002
{
1070
   271
1070
     0
1002
}
  0
LINE
  5
1509E
330
1F
100
AcDbEntity
  8
AM_5
370
    13
100
AcDbLine
 10
0.3204327654934644
 20
-78.24431145334319
 30
0.0
 11
-1.279885005374155
 21
-78.24431145334319
 31
0.0
  0
DIMENSION
  5
150A0
330
1F
100
AcDbEntity
  8
AM_5
370
    13
100
AcDbDimension
  2
*D11
 10
-1.279885005374155
 20
-78.24431145334319
 30
0.0
 11
-9.74555777902745
 21
-72.35512425654636
 31
0.0
 70
   162
  1
-<>
 71
     5
 42
0.0948573954484861
  3
AM_JIS$2
100
AcDb2LineAngularDimension
 13
14.87866198843992
 23
-76.83833304446839
 33
0.0
 14
1.30867200950874
 24
-78.12942164802306
 34
0.0
 15
0.0
 25
-78.24431145334319
 35
0.0
 16
-11.34937542818525
 26
-78.96938785878157
 36
0.0
1001
ACAD
1000
DSTYLE
1002
{
1070
   271
1070
     0
1002
}
  0
LINE
  5
150F2
330
1F
100
AcDbEntity
  8
AM_0
370
    30
100
AcDbLine
 10
-62.44318022922008
 20
-0.2407773686300914
 30
0.0
 11
-62.44318022922008
 21
-0.9110567416933009
 31
0.0
  0
DIMENSION
  5
150F4
330
1F
100
AcDbEntity
  8
AM_5
370
    13
100
AcDbDimension
  2
*D12
 10
-62.44318022922008
 20
-0.9110567416933009
 30
0.0
 11
-68.12081043707399
 21
-12.22837429756158
 31
0.0
 70
   162
  1
-<>
 71
     5
 42
0.0945508159230801
  3
AM_JIS$2
100
AcDb2LineAngularDimension
 13
-62.32864141467817
 23
1.049688626984818
 33
0.0
 14
-61.04091100144117
 24
14.62853230542834
 34
0.0
 15
-62.44318022922008
 25
-0.2407773686300914
 35
0.0
 16
-62.86351284951243
 26
-13.49040377554456
 36
0.0
1001
ACAD
1000
DSTYLE
1002
{
1070
   271
1070
     0
1002
}
  0
TEXT
  5
1514B
330
1F
100
AcDbEntity
  8
AM_6
  6
Continuous
 62
     0
370
    30
100
AcDbText
 10
66.83328159932981
 20
-129.3633307927928
 30
0.0
 40
3.8
  1
DCLNR3232P16
  7
ACISOTS
100
AcDbText
  0
LINE
  5
15153
330
1F
100
AcDbEntity
  8
AM_5
370
    13
100
AcDbLine
 10
0.0037948473195399
 20
1.299688626984818
 30
0.0
 11
-0.109633950541479
 21
-0.1195427025613469
 31
0.0
  0
LINE
  5
15154
330
1F
100
AcDbEntity
  8
AM_5
370
    13
100
AcDbLine
 10
1.308672009508769
 20
0.0045429903542527
 30
0.0
 11
-0.109633950541479
 21
-0.1195427025613469
 31
0.0
  0
DIMENSION
  5
15159
330
1F
100
AcDbEntity
  8
AM_0
100
AcDbDimension
  2
*D13
 10
0.0
 20
-6.910614677578309
 30
0.0
 11
15.20885436773986
 21
-10.44742396206404
 31
0.0
 70
   162
 71
     5
 42
1.658062789394613
  3
AM_JIS$2
100
AcDb2LineAngularDimension
 13
14.87866198843992
 23
1.191763277671157
 33
0.0
 14
1.30867200950874
 24
0.0045429903542811
 34
0.0
 15
0.0
 25
0.9545454584022366
 35
0.0
 16
9.654040961454093
 26
-15.76153530532653
 36
0.0
1001
ACAD
1000
DSTYLE
1002
{
1070
   271
1070
     0
1002
}
  0
ENDSEC
  0
SECTION
  2
OBJECTS
  0
DICTIONARY
  5
C
330
0
100
AcDbDictionary
281
     1
  3
ACAD_COLOR
350
ED4C
  3
ACAD_GROUP
350
D
  3
ACAD_LAYOUT
350
1A
  3
ACAD_MATERIAL
350
ED4B
  3
ACAD_MLINESTYLE
350
17
  3
ACAD_PLOTSETTINGS
350
19
  3
ACAD_PLOTSTYLENAME
350
E
  3
ACAD_TABLESTYLE
350
ED4D
  3
AcAmCatalogState
350
EDB4
  3
ACDBHEADERROUNDTRIPXREC
350
152A9
  3
AcDbVariableDictionary
350
30
  3
ACDMSYSVARMGR
350
ED67
  3
ACGREF_MASTER
350
ED5F
  3
ACGREFACAD_MASTER
350
ED87
  3
AcmDictionary
350
4D
  3
ACME_BOM_MANAGER_NAME
350
36
  3
ACME_COMMAND_HISTORY
350
2F
  3
ACME_SCOPE_NAME
350
2E
  3
ACMESTATEMGR
350
3B
  3
AcmeSysVarManager
350
32
  3
AcmSystemVariableManager
350
6A
  3
AD_APPL
350
ED92
  3
ADSYSVARMGR
350
ED91
  3
AmdtNamedDwgMgr
350
ED82
  3
AMG
350
3F
  3
AMGSNAPSETTINGS
350
73
  3
AMI_MASTER
350
ED8A
  3
AUTOCAD_ASSEMBLIES_PROJECT
350
ED9A
  3
Designer_Assemblies_SysVars
350
ED95
  3
DWGPROPS
350
152AC
  3
FILENAME
350
217A
  3
GREFAM_MODULE
350
ED8B
  3
ZWKSIZE
350
217C
  0
DICTIONARY
  5
EDC8
330
2
100
AcDbDictionary
280
     1
281
     1
  3
ACAD_LAYERSTATES
360
F5B5
  3
AMLAYER_GROUPCOLORS
360
EDC9
  0
DICTIONARY
  5
165
330
1F
100
AcDbDictionary
280
     1
281
     1
  3
ACAD_SORTENTS
360
F11C
  0
DICTIONARY
  5
ED4C
102
{ACAD_REACTORS
330
C
102
}
330
C
100
AcDbDictionary
281
     1
  0
DICTIONARY
  5
D
102
{ACAD_REACTORS
330
C
102
}
330
C
100
AcDbDictionary
281
     1
  0
DICTIONARY
  5
1A
102
{ACAD_REACTORS
330
C
102
}
330
C
100
AcDbDictionary
281
     1
  3
Model
350
22
  3
ﾚｲｱｳﾄ1
350
1E
  3
ﾚｲｱｳﾄ2
350
26
  0
DICTIONARY
  5
ED4B
102
{ACAD_REACTORS
330
C
102
}
330
C
100
AcDbDictionary
281
     1
  0
DICTIONARY
  5
17
102
{ACAD_REACTORS
330
C
102
}
330
C
100
AcDbDictionary
281
     1
  3
Standard
350
18
  0
DICTIONARY
  5
19
102
{ACAD_REACTORS
330
C
102
}
330
C
100
AcDbDictionary
281
     1
  0
ACDBDICTIONARYWDFLT
  5
E
102
{ACAD_REACTORS
330
C
102
}
330
C
100
AcDbDictionary
281
     1
  3
Normal
350
F
100
AcDbDictionaryWithDefault
340
F
  0
DICTIONARY
  5
ED4D
102
{ACAD_REACTORS
330
C
102
}
330
C
100
AcDbDictionary
281
     1
  3
Standard
350
ED4E
  0
ACAD_PROXY_OBJECT
  5
EDB4
102
{ACAD_REACTORS
330
C
102
}
330
C
100
AcDbProxyObject
 90
      499
 91
      571
 95
       25
 70
     0
 93
      184
310
3FFFFFFFE00A028140285221D2E31B0B2483ECB65400AA
  0
DICTIONARY
  5
152A9
102
{ACAD_REACTORS
330
C
102
}
330
C
100
AcDbDictionary
281
     1
  3
COLORDICT
350
152AA
  3
MATERIALDICT
350
152AB
  0
DICTIONARY
  5
30
102
{ACAD_REACTORS
330
C
102
}
330
C
100
AcDbDictionary
281
     1
  3
CTABLESTYLE
350
EE09
  3
HIDETEXT
350
152A8
  3
INDEXCTL
350
152A7
  0
ACAD_PROXY_OBJECT
  5
ED67
102
{ACAD_REACTORS
330
C
102
}
330
C
100
AcDbProxyObject
 90
      499
 91
      507
 95
       25
 70
     0
 93
      240
310
4C51A47A0000000000000000000000000000000000000000000000000000
330
ED68
330
ED69
330
ED6A
330
ED6B
330
ED6C
330
ED6D
330
ED6E
330
ED6F
330
ED70
330
ED71
330
ED72
330
ED73
330
ED74
330
ED75
330
ED76
330
ED77
330
ED78
330
ED79
330
ED7A
330
ED7B
330
ED7C
330
ED7D
330
ED7E
330
ED7F
330
ED80
330
ED81
 94
        0
  0
ACAD_PROXY_OBJECT
  5
ED5F
102
{ACAD_REACTORS
330
C
102
}
330
C
100
AcDbProxyObject
 90
      499
 91
      535
 95
       25
 70
     0
 93
       34
310
0400004280
  0
ACAD_PROXY_OBJECT
  5
ED87
102
{ACAD_REACTORS
330
C
102
}
330
C
100
AcDbProxyObject
 90
      499
 91
      541
 95
       25
 70
     0
 93
      114
310
04000041C080000000000000000000
  0
DICTIONARY
  5
4D
102
{ACAD_REACTORS
330
C
102
}
330
C
100
AcDbDictionary
281
     1
  3
AcmBOMDATA
350
4E
  3
AcmStdDictionary
350
17E
  3
AMDTSECTSYM_ARROWCOLOR
350
EDA8
  0
ACAD_PROXY_OBJECT
  5
36
102
{ACAD_REACTORS
330
C
102
}
330
C
100
AcDbProxyObject
 90
      499
 91
      510
 95
       25
 70
     0
 93
       50
310
00010040400000
330
0
330
0
330
37
 94
        0
  0
ACAD_PROXY_OBJECT
  5
2F
102
{ACAD_REACTORS
330
C
102
}
330
C
100
AcDbProxyObject
 90
      499
 91
      505
 95
       25
 70
     0
 93
     2656
310
47805045452494D80505455241534580505455241534580505455241534580505455241534580505455241534580505455241534580505455241534580505455241534580505455241534580505455241534580504554E444F8050545524153458050545524153458050545524153458050545524153458050545524153458
310
05054552415345805054552415345805054552415345805045452494D805045452494D8050A50524F50455254494553805054552415345805045452494D805054552415345805045A4F4F4D40405184D5347202D20436F6D6D616E642043414E43454C4C45442E0142541051D154D155155410101461354D1C80B4810DBDB5
310
B585B990810D05390D1531311510B805055055524745805055153415645404052D4D5347202D205050413A2020206465736B746F702E6172782046696C6556657273696F6E3A20392E322E302E34
  0
ACAD_PROXY_OBJECT
  5
2E
102
{ACAD_REACTORS
330
C
102
}
330
C
100
AcDbProxyObject
 90
      499
 91
      504
 95
       25
 70
     0
 93
      594
310
09000046408000000000000000001354E60000000000000000000000000000000000000000000000000000000000000000000000000000000000000000000000000000000000AAA406AA80
360
33
360
34
360
35
360
37
360
6B
360
6C
360
ED60
360
ED61
360
ED62
360
ED63
360
ED64
360
ED65
360
ED68
360
ED69
360
ED6A
360
ED6B
360
ED6C
360
ED6D
360
ED6E
360
ED6F
360
ED70
360
ED71
360
ED72
360
ED73
360
ED74
360
ED75
360
ED76
360
ED77
360
ED78
360
ED79
360
ED7A
360
ED7B
360
ED7C
360
ED7D
360
ED7E
360
ED7F
360
ED80
360
ED81
360
ED8D
360
ED8E
360
ED8F
360
ED90
360
ED96
360
ED97
360
ED98
360
ED99
360
ED9E
360
ED9F
360
EDA0
360
EDA1
360
EDA2
360
EDA3
360
EDCB
 94
        0
  0
ACAD_PROXY_OBJECT
  5
3B
102
{ACAD_REACTORS
330
C
102
}
330
C
100
AcDbProxyObject
 90
      499
 91
      515
 95
       25
 70
     0
 93
       50
310
09000042641280
  0
ACAD_PROXY_OBJECT
  5
32
102
{ACAD_REACTORS
330
C
102
}
330
C
100
AcDbProxyObject
 90
      499
 91
      507
 95
       25
 70
     0
 93
       48
310
903412000000
330
33
330
34
330
35
 94
        0
  0
ACAD_PROXY_OBJECT
  5
6A
102
{ACAD_REACTORS
330
C
102
}
330
C
100
AcDbProxyObject
 90
      499
 91
      507
 95
       25
 70
     0
 93
       48
310
903412000000
330
6B
330
6C
330
EDCB
 94
        0
  0
ACAD_PROXY_OBJECT
  5
ED92
102
{ACAD_REACTORS
330
C
102
}
330
C
100
AcDbProxyObject
 90
      499
 91
      551
 95
       25
 70
     0
 93
       42
310
000900004040
330
ED8D
 94
        0
  0
ACAD_PROXY_OBJECT
  5
ED91
102
{ACAD_REACTORS
330
C
102
}
330
C
100
AcDbProxyObject
 90
      499
 91
      507
 95
       25
 70
     0
 93
        8
310
AA
  0
ACAD_PROXY_OBJECT
  5
ED82
102
{ACAD_REACTORS
330
C
102
}
330
C
100
AcDbProxyObject
 90
      499
 91
      540
 95
       25
 70
     0
 93
       42
310
000100005E80
330
ED60
 94
        0
  0
DICTIONARY
  5
3F
102
{ACAD_REACTORS
330
C
102
}
330
C
100
AcDbDictionary
281
     1
  3
AcMgSettings
350
40
  3
AMGLAYCFG
350
42
  0
DICTIONARY
  5
73
102
{ACAD_REACTORS
330
C
102
}
330
C
100
AcDbDictionary
281
     1
  3
DIMENSION
350
62F
  3
FEA
350
630
  3
HATCH (1)
350
631
  3
HATCH (2)
350
632
  3
SYMBOLS
350
633
  0
ACAD_PROXY_OBJECT
  5
ED8A
102
{ACAD_REACTORS
330
C
102
}
330
C
100
AcDbProxyObject
 90
      499
 91
      544
 95
       25
 70
     0
 93
       34
310
0500004280
  0
ACAD_PROXY_OBJECT
  5
ED9A
102
{ACAD_REACTORS
330
C
102
}
330
C
100
AcDbProxyObject
 90
      499
 91
      554
 95
       25
 70
     0
 93
       98
310
0900004E400000000000000000
330
EDA1
330
0
330
EDA2
330
0
330
0
330
0
330
0
330
0
 94
        0
  0
ACAD_PROXY_OBJECT
  5
ED95
102
{ACAD_REACTORS
330
C
102
}
330
C
100
AcDbProxyObject
 90
      499
 91
      507
 95
       25
 70
     0
 93
       56
310
90441600000000
330
ED96
330
ED97
330
ED98
330
ED99
 94
        0
  0
XRECORD
  5
152AC
102
{ACAD_REACTORS
330
C
102
}
330
C
100
AcDbXrecord
280
     1
  1
DWGPROPS COOKIE
  2

  3

  4

  6

  7

  8

  9

300
AmdtFileType=84
301
=
302
=
303
=
304
=
305
=
306
=
307
=
308
=
309
=
 40
0.0
 41
2451943.235431667
 42
2455440.42374294
  1

 90
        1
  0
DICTIONARY
  5
217A
102
{ACAD_REACTORS
330
C
102
}
330
C
100
AcDbDictionary
281
     1
  3
FILENAME
350
217B
  0
ACAD_PROXY_OBJECT
  5
ED8B
102
{ACAD_REACTORS
330
C
102
}
330
C
100
AcDbProxyObject
 90
      499
 91
      545
 95
       25
 70
     0
 93
        8
310
05
  0
DICTIONARY
  5
217C
102
{ACAD_REACTORS
330
C
102
}
330
C
100
AcDbDictionary
281
     1
  3
ZWKSIZE
350
217D
  0
DICTIONARY
  5
F5B5
102
{ACAD_REACTORS
330
EDC8
102
}
330
EDC8
100
AcDbDictionary
281
     1
  0
DICTIONARY
  5
EDC9
102
{ACAD_REACTORS
330
EDC8
102
}
330
EDC8
100
AcDbDictionary
280
     1
281
     1
  3
基本画層グループ
360
EDCA
  0
SORTENTSTABLE
  5
F11C
102
{ACAD_REACTORS
330
165
102
}
330
165
100
AcDbSortentsTable
330
1F
331
0
  5
14B76
331
13975
  5
13BDC
331
139C8
  5
13BDE
331
13A3B
  5
13BEC
331
13A77
  5
13BED
331
13B18
  5
13C13
331
13B3A
  5
13C14
331
14B63
  5
14B63
331
14B66
  5
14B66
331
14B6C
  5
14B6C
331
14B6D
  5
14B6D
331
14B6E
  5
14B6E
331
14B70
  5
14B70
331
14B71
  5
14B71
331
14B72
  5
14B72
331
14B73
  5
14B73
331
14B74
  5
14B74
331
14B75
  5
14B75
331
14B77
  5
14B77
331
14B78
  5
14B78
331
14B79
  5
14B79
331
14B7A
  5
14B7A
331
14B7B
  5
14B7B
331
14B7C
  5
14B7C
331
14B7D
  5
14B7D
331
14B86
  5
14B86
331
14B87
  5
14B87
331
14B88
  5
14B88
331
14B89
  5
14B89
331
14B8A
  5
14B8A
331
14B8B
  5
14B8B
331
14B8D
  5
14B8D
331
14B8E
  5
14B8E
331
14B8F
  5
14B8F
331
14B90
  5
14B90
331
14B91
  5
14B91
331
14B92
  5
14B92
331
14B93
  5
14B93
331
14B94
  5
14B94
331
14B96
  5
14B96
331
14B97
  5
14B97
331
14B98
  5
14B98
331
14B99
  5
14B99
331
14B9A
  5
14B9A
331
14B9B
  5
14B9B
331
14B9C
  5
14B9C
331
14B9D
  5
14B9D
331
14B9E
  5
14B9E
331
14B9F
  5
14B9F
331
14BA0
  5
14BA0
331
14BA1
  5
14BA1
331
14BA2
  5
14BA2
331
14BA3
  5
14BA3
331
14BA4
  5
14BA4
331
14BA5
  5
14BA5
331
14BA6
  5
14BA6
331
14BA7
  5
14BA7
331
14BA8
  5
14BA8
331
14BA9
  5
14BA9
331
14BAA
  5
14BAA
331
14BAB
  5
14BAB
331
14BAC
  5
14BAC
331
14BAD
  5
14BAD
331
14BAF
  5
14BAF
331
14BB0
  5
14BB0
331
14BB1
  5
14BB1
331
14BB4
  5
14BB4
331
14BB9
  5
14BB9
331
14BBE
  5
14BBE
331
14BBF
  5
14BBF
331
14BC1
  5
14BC1
331
14BC3
  5
14BC3
331
14BC4
  5
14BC4
331
14BC7
  5
14BC7
331
14BC8
  5
14BC8
331
14BC9
  5
14BC9
331
14BCA
  5
14BCA
331
14BD0
  5
14BD0
331
14BD9
  5
14BD9
331
14BDF
  5
14BDF
331
14BE0
  5
14BE0
331
14BE1
  5
14BE1
331
14BE3
  5
14BE3
331
14BE4
  5
14BE4
331
14BE5
  5
14BE5
331
14BE7
  5
14BE7
331
14BE8
  5
14BE8
331
14BEB
  5
14BEB
331
14BF7
  5
14BF7
331
14BFA
  5
14BFA
331
14BFB
  5
14BFB
331
14BFC
  5
14BFC
331
14BFD
  5
14BFD
331
14BFE
  5
14BFE
331
14BFF
  5
14BFF
331
14C02
  5
14C02
331
14C03
  5
14C03
331
14C04
  5
14C04
331
14C05
  5
14C05
331
14C06
  5
14C06
331
14C07
  5
14C07
331
14C08
  5
14C08
331
14C09
  5
14C09
331
14C0A
  5
14C0A
331
14C0B
  5
14C0B
331
14C0C
  5
14C0C
331
14C0D
  5
14C0D
331
14C0E
  5
14C0E
331
14C12
  5
14C12
331
14C13
  5
14C13
331
14C14
  5
14C14
331
14C17
  5
14C17
331
14C18
  5
14C18
331
14C19
  5
14C19
331
14C1A
  5
14C1A
331
14C1D
  5
14C1D
331
14C1E
  5
14C20
331
14C20
  5
14C22
331
14C22
  5
14C23
331
14C23
  5
14C24
331
14C24
  5
14C25
331
14C25
  5
14C26
331
14C26
  5
14C28
331
14C28
  5
14C29
331
14C29
  5
14C2A
331
14C2A
  5
14C2B
331
14C2B
  5
14C2C
331
14C2C
  5
14C2D
331
14C2D
  5
14C2F
331
14C2F
  5
14C30
331
14C30
  5
14C31
331
14C31
  5
14C32
331
14C32
  5
14C33
331
14C33
  5
14C34
331
14C34
  5
14C35
331
14C35
  5
14C36
331
14C36
  5
14C37
331
14C37
  5
14C38
331
14C38
  5
14C39
331
14C39
  5
14C3B
331
14C3B
  5
14C3D
331
14C3D
  5
14C3E
331
14C3E
  5
14C3F
331
14C3F
  5
14C40
331
14C40
  5
14C41
331
14C41
  5
14C42
331
14C42
  5
14C43
331
14C43
  5
14C44
331
14C44
  5
14C45
331
14C45
  5
14C46
331
14C46
  5
14C47
331
14C47
  5
14C48
331
14C48
  5
14C4B
331
14C4B
  5
14C4C
331
14C4C
  5
14C4E
331
14C4E
  5
14C4F
331
14C4F
  5
14C51
331
14C51
  5
14C52
331
14C52
  5
14C55
331
14C55
  5
14C5A
331
14C5A
  5
14C5F
331
14C5F
  5
14C60
331
14C60
  5
14C61
331
14C61
  5
14C67
331
14C67
  5
14C6D
331
14C6D
  5
14C6E
331
14C6E
  5
14C6F
331
14C6F
  5
14C70
331
14C70
  5
14C71
331
14C71
  5
14C72
331
14C72
  5
14C73
331
14C73
  5
14C74
331
14C74
  5
14C76
331
14C76
  5
14C77
331
14C77
  5
14C7E
331
14C7E
  5
14C81
331
14C81
  5
14C84
331
14C84
  5
14C85
331
14C88
  5
14C89
331
14C89
  5
14C8A
331
14C8A
  5
14C8B
331
14C8B
  5
14C8C
331
14C8C
  5
14C8D
331
14C8D
  5
14C8E
331
14C8E
  5
14C8F
331
14C8F
  5
14C90
331
14C90
  5
14C91
331
14C91
  5
14C92
331
14C92
  5
14C93
331
14C93
  5
14C94
331
14C97
  5
14C98
331
14C98
  5
14C99
331
14C99
  5
14C9A
331
14C9A
  5
14C9B
331
14C9B
  5
14C9C
331
14C9C
  5
14C9D
331
14C9D
  5
14C9E
331
14C9E
  5
14C9F
331
14C9F
  5
14CA0
331
14CA0
  5
14CA1
331
14CA1
  5
14CA2
331
14CA3
  5
14CA4
331
14CA5
  5
14CA6
331
14CA6
  5
14CA7
331
14CA7
  5
14CA8
331
14CA8
  5
14CA9
331
14CA9
  5
14CAA
331
14CAA
  5
14CAB
331
14CAC
  5
14CAD
331
14CAE
  5
14CAF
331
14CAF
  5
14CB0
331
14CB0
  5
14CB1
331
14CB1
  5
14CB2
331
14CB2
  5
14CB3
331
14CB3
  5
14CB4
331
14CB4
  5
14CB5
331
14CB5
  5
14CB6
331
14CB6
  5
14CB7
331
14CB7
  5
14CB8
331
14CB8
  5
14CB9
331
14CB9
  5
14CBA
331
14CBA
  5
14CBB
331
14CBB
  5
14CBC
331
14CBC
  5
14CBD
331
14CBD
  5
14CBE
331
14CBE
  5
14CC0
331
14CC0
  5
14CC2
331
14CC2
  5
14CC3
331
14CC3
  5
14CC4
331
14CC4
  5
14CC5
331
14CC5
  5
14CC6
331
14CC6
  5
14CC7
331
14CC7
  5
14CC8
331
14CC8
  5
14CC9
331
14CC9
  5
14CCA
331
14CCA
  5
14CCB
331
14CCB
  5
14CCC
331
14CCC
  5
14CD1
331
14CD1
  5
14CD2
331
14CD2
  5
14CD5
331
14CD5
  5
14CD9
331
14CD9
  5
14CDC
331
14CDC
  5
14CDE
331
14CDE
  5
14CE1
331
14CE1
  5
14CE2
331
14CE2
  5
14CE3
331
14CE3
  5
14CE4
331
14CE4
  5
14CE8
331
14CE8
  5
14CF2
331
14CF2
  5
14CF3
331
14CF3
  5
14CF4
331
14CF4
  5
14CF5
331
14CF5
  5
14CF6
331
14CF6
  5
14CF7
331
14CF7
  5
14CF8
331
14CF8
  5
14CFA
331
14CFA
  5
14CFB
331
14CFB
  5
14D04
331
14D04
  5
14FE5
331
14FE5
  5
14FE7
331
14FE7
  5
14FF5
331
14FF5
  5
1509E
331
1509E
  5
150A0
331
150A0
  5
150F2
331
150F2
  5
150F4
331
150F4
  5
1514B
331
1514B
  5
15153
331
15153
  5
15154
331
15154
  5
15159
331
15159
  5
152A3
  0
LAYOUT
  5
22
102
{ACAD_REACTORS
330
1A
102
}
330
1A
100
AcDbPlotSettings
  1

  2
SII LP-2150 (D-SCAN C2)
  4
User120
  6
AM_VIEW1
 40
3.174999952316284
 41
3.174999952316284
 42
3.17498779296875
 43
3.17498779296875
 44
296.9259948730469
 45
419.9889831542969
 46
0.0
 47
0.0
 48
0.0
 49
0.0
140
420.0
141
297.0
142
1.0
143
1.022107788374329
 70
 11952
 72
     1
 73
     1
 74
     4
  7
sei_cad.ctb
 75
     0
147
0.9783703943695685
148
0.0
149
0.0
100
AcDbLayout
  1
Model
 70
     1
 71
     0
 10
0.0
 20
0.0
 11
12.0
 21
9.0
 12
0.0
 22
0.0
 32
0.0
 14
0.0
 24
0.0
 34
0.0
 15
0.0
 25
0.0
 35
0.0
146
0.0
 13
0.0
 23
0.0
 33
0.0
 16
1.0
 26
0.0
 36
0.0
 17
0.0
 27
1.0
 37
0.0
 76
     0
330
1F
1001
ACAD_PSEXT
1000
SII LP-2150 (D-SCAN C2)
1000
SII LP-2150 (D-SCAN C2)
1000
133.153.16.130#3000
1000

1070
     0
  0
LAYOUT
  5
1E
102
{ACAD_REACTORS
330
1A
102
}
330
1A
100
AcDbPlotSettings
  1

  2
Canon LASER SHOT LBP-2030
  4

  6

 40
0.0
 41
0.0
 42
0.0
 43
0.0
 44
0.0
 45
0.0
 46
0.0
 47
0.0
 48
0.0
 49
0.0
140
0.0
141
0.0
142
1.0
143
1.0
 70
   688
 72
     0
 73
     0
 74
     5
  7
sei_cad.ctb
 75
    16
147
1.0
148
0.0
149
0.0
100
AcDbLayout
  1
ﾚｲｱｳﾄ1
 70
     1
 71
     1
 10
0.0
 20
0.0
 11
420.0
 21
297.0
 12
0.0
 22
0.0
 32
0.0
 14
1.000000000000000E+20
 24
1.000000000000000E+20
 34
1.000000000000000E+20
 15
-1.000000000000000E+20
 25
-1.000000000000000E+20
 35
-1.000000000000000E+20
146
0.0
 13
0.0
 23
0.0
 33
0.0
 16
1.0
 26
0.0
 36
0.0
 17
0.0
 27
1.0
 37
0.0
 76
     0
330
1B
  0
LAYOUT
  5
26
102
{ACAD_REACTORS
330
1A
102
}
330
1A
100
AcDbPlotSettings
  1

  2
Canon LASER SHOT LBP-2030
  4

  6

 40
0.0
 41
0.0
 42
0.0
 43
0.0
 44
0.0
 45
0.0
 46
0.0
 47
0.0
 48
0.0
 49
0.0
140
0.0
141
0.0
142
1.0
143
1.0
 70
   688
 72
     0
 73
     0
 74
     5
  7
sei_cad.ctb
 75
    16
147
1.0
148
0.0
149
0.0
100
AcDbLayout
  1
ﾚｲｱｳﾄ2
 70
     1
 71
     2
 10
0.0
 20
0.0
 11
12.0
 21
9.0
 12
0.0
 22
0.0
 32
0.0
 14
0.0
 24
0.0
 34
0.0
 15
0.0
 25
0.0
 35
0.0
146
0.0
 13
0.0
 23
0.0
 33
0.0
 16
1.0
 26
0.0
 36
0.0
 17
0.0
 27
1.0
 37
0.0
 76
     0
330
23
  0
MLINESTYLE
  5
18
102
{ACAD_REACTORS
330
17
102
}
330
17
100
AcDbMlineStyle
  2
STANDARD
 70
     0
  3

 62
   256
 51
90.0
 52
90.0
 71
     2
 49
0.5
 62
   256
  6
BYLAYER
 49
-0.5
 62
   256
  6
BYLAYER
  0
ACDBPLACEHOLDER
  5
F
102
{ACAD_REACTORS
330
E
102
}
330
E
  0
TABLESTYLE
  5
ED4E
102
{ACAD_REACTORS
330
ED4D
102
}
330
ED4D
100
AcDbTableStyle
  3
Standard
 70
     0
 71
     8
 40
1.5
 41
1.5
280
     0
281
     0
  7
STANDARD
140
4.5
170
     2
 62
     0
 63
     7
283
     0
274
    -2
284
     1
 64
     0
275
    -2
285
     1
 65
     0
276
    -2
286
     1
 66
     0
277
    -2
287
     1
 67
     0
278
    -2
288
     1
 68
     0
279
    -2
289
     1
 69
     0
  7
STANDARD
140
6.0
170
     5
 62
     0
 63
     7
283
     0
274
    -2
284
     1
 64
     0
275
    -2
285
     1
 65
     0
276
    -2
286
     1
 66
     0
277
    -2
287
     1
 67
     0
278
    -2
288
     1
 68
     0
279
    -2
289
     1
 69
     0
  7
STANDARD
140
4.5
170
     5
 62
     0
 63
     7
283
     0
274
    -2
284
     1
 64
     0
275
    -2
285
     1
 65
     0
276
    -2
286
     1
 66
     0
277
    -2
287
     1
 67
     0
278
    -2
288
     1
 68
     0
279
    -2
289
     1
 69
     0
  0
XRECORD
  5
152AA
102
{ACAD_REACTORS
330
152A9
102
}
330
152A9
100
AcDbXrecord
280
     1
340
ED4C
  0
XRECORD
  5
152AB
102
{ACAD_REACTORS
330
152A9
102
}
330
152A9
100
AcDbXrecord
280
     1
340
ED4B
  0
DICTIONARYVAR
  5
EE09
102
{ACAD_REACTORS
330
30
102
}
330
30
100
DictionaryVariables
280
     0
  1
STANDARD
  0
DICTIONARYVAR
  5
152A8
102
{ACAD_REACTORS
330
30
102
}
330
30
100
DictionaryVariables
280
     0
  1
0
  0
DICTIONARYVAR
  5
152A7
102
{ACAD_REACTORS
330
30
102
}
330
30
100
DictionaryVariables
280
     0
  1
1
  0
ACAD_PROXY_OBJECT
  5
4E
102
{ACAD_REACTORS
330
4D
102
}
330
4D
100
AcDbProxyObject
 90
      499
 91
      520
 95
       25
 70
     0
 93
      118
310
405010040CA904C415CD5B075DD198
350
4F
 94
        0
  0
DICTIONARY
  5
17E
102
{ACAD_REACTORS
330
4D
102
}
330
4D
100
AcDbDictionary
281
     1
  3
ISO
350
F94D
  3
JIS
350
17F
  0
XRECORD
  5
EDA8
102
{ACAD_REACTORS
330
4D
102
}
330
4D
100
AcDbXrecord
280
     1
 90
-1023410169
  0
ACAD_PROXY_OBJECT
  5
33
330
2E
100
AcDbProxyObject
 90
      499
 91
      508
 95
       25
 70
     0
 93
      156
310
00010143D050D351505391D5531054925390D490
330
2E
 94
        0
  0
ACAD_PROXY_OBJECT
  5
34
330
2E
100
AcDbProxyObject
 90
      499
 91
      508
 95
       25
 70
     0
 93
      148
310
000101439050D351531253915054925390D490
330
2E
 94
        0
  0
ACAD_PROXY_OBJECT
  5
35
330
2E
100
AcDbProxyObject
 90
      499
 91
      509
 95
       25
 70
     0
 93
      156
310
000101439050D35154D6535093D314D256915080
330
2E
 94
        0
  0
ACAD_PROXY_OBJECT
  5
37
330
2E
100
AcDbProxyObject
 90
      499
 91
      511
 95
       25
 70
     0
 93
       88
310
000101411093D34C402B00
330
2E
330
0
330
0
 94
        0
  0
ACAD_PROXY_OBJECT
  5
6B
330
2E
100
AcDbProxyObject
 90
      499
 91
      509
 95
       25
 70
     0
 93
      108
310
00010142505351D153D35054D4E0
330
2E
 94
        0
  0
ACAD_PROXY_OBJECT
  5
6C
330
2E
100
AcDbProxyObject
 90
      499
 91
      522
 95
       25
 70
     0
 93
      140
310
00010142105350D55494D511005034A49530
330
2E
 94
        0
  0
ACAD_PROXY_OBJECT
  5
ED60
330
2E
100
AcDbProxyObject
 90
      499
 91
      536
 95
       25
 70
     0
 93
      478
310
0001014124FEA55D00507392E312E302E34014124FEA55D00507392E322E302E3240501000041111054D20182D4454FB21E93F0CCCCCCCCCCCF4CFD8
330
2E
330
ED61
330
ED67
 94
        0
  0
ACAD_PROXY_OBJECT
  5
ED61
330
2E
100
AcDbProxyObject
 90
      499
 91
      537
 95
       25
 70
     0
 93
       56
310
000190240E0000
330
2E
330
ED62
330
ED64
 94
        0
  0
ACAD_PROXY_OBJECT
  5
ED62
330
2E
100
AcDbProxyObject
 90
      499
 91
      538
 95
       25
 70
     0
 93
       48
310
0001AA000000
330
2E
330
1E
330
ED63
330
0
 94
        0
  0
ACAD_PROXY_OBJECT
  5
ED63
330
2E
100
AcDbProxyObject
 90
      499
 91
      539
 95
       25
 70
     0
 93
       28
310
0001AAA0
330
2E
 94
        0
  0
ACAD_PROXY_OBJECT
  5
ED64
330
2E
100
AcDbProxyObject
 90
      499
 91
      538
 95
       25
 70
     0
 93
       48
310
0001AA000000
330
2E
330
26
330
ED65
330
0
 94
        0
  0
ACAD_PROXY_OBJECT
  5
ED65
330
2E
100
AcDbProxyObject
 90
      499
 91
      539
 95
       25
 70
     0
 93
       28
310
0001AAA0
330
2E
 94
        0
  0
ACAD_PROXY_OBJECT
  5
ED68
330
2E
100
AcDbProxyObject
 90
      499
 91
      509
 95
       25
 70
     0
 93
      108
310
000101421053521310D05310D010
330
2E
 94
        0
  0
ACAD_PROXY_OBJECT
  5
ED69
330
2E
100
AcDbProxyObject
 90
      499
 91
      509
 95
       25
 70
     0
 93
      124
310
00010142905354915554D15112535010
330
2E
 94
        0
  0
ACAD_PROXY_OBJECT
  5
ED6A
330
2E
100
AcDbProxyObject
 90
      499
 91
      509
 95
       25
 70
     0
 93
      132
310
00010143105354D150D51253D391125360
330
2E
 94
        0
  0
ACAD_PROXY_OBJECT
  5
ED6B
330
2E
100
AcDbProxyObject
 90
      499
 91
      509
 95
       25
 70
     0
 93
      124
310
00010142905355941093D49111549010
330
2E
 94
        0
  0
ACAD_PROXY_OBJECT
  5
ED6C
330
2E
100
AcDbProxyObject
 90
      499
 91
      509
 95
       25
 70
     0
 93
      116
310
0001014290535115D1D0D3D313D4A0
330
2E
 94
        0
  0
ACAD_PROXY_OBJECT
  5
ED6D
330
2E
100
AcDbProxyObject
 90
      499
 91
      509
 95
       25
 70
     0
 93
      148
310
00010143505355925155D49151949154D21010
330
2E
 94
        0
  0
ACAD_PROXY_OBJECT
  5
ED6E
330
2E
100
AcDbProxyObject
 90
      499
 91
      509
 95
       25
 70
     0
 93
      172
310
00010144105350539393D51154149154D15495915010
330
2E
 94
        0
  0
ACAD_PROXY_OBJECT
  5
ED6F
330
2E
100
AcDbProxyObject
 90
      499
 91
      509
 95
       25
 70
     0
 93
      172
310
00010144105350555513D11253505494905391D15010
330
2E
 94
        0
  0
ACAD_PROXY_OBJECT
  5
ED70
330
2E
100
AcDbProxyObject
 90
      499
 91
      509
 95
       25
 70
     0
 93
      124
310
00010142D05351561514915191125360
330
2E
 94
        0
  0
ACAD_PROXY_OBJECT
  5
ED71
330
2E
100
AcDbProxyObject
 90
      499
 91
      509
 95
       25
 70
     0
 93
      132
310
00010142D05355105410539393D5115010
330
2E
 94
        0
  0
ACAD_PROXY_OBJECT
  5
ED72
330
2E
100
AcDbProxyObject
 90
      499
 91
      509
 95
       25
 70
     0
 93
      108
310
00010142105350555513D0D31010
330
2E
 94
        0
  0
ACAD_PROXY_OBJECT
  5
ED73
330
2E
100
AcDbProxyObject
 90
      499
 91
      509
 95
       25
 70
     0
 93
      108
310
00010142105350D3119150551050
330
2E
 94
        0
  0
ACAD_PROXY_OBJECT
  5
ED74
330
2E
100
AcDbProxyObject
 90
      499
 91
      509
 95
       25
 70
     0
 93
      108
310
00010142105350D315925155D3F0
330
2E
 94
        0
  0
ACAD_PROXY_OBJECT
  5
ED75
330
2E
100
AcDbProxyObject
 90
      499
 91
      509
 95
       25
 70
     0
 93
      148
310
0001014350535212511156915493D112535010
330
2E
 94
        0
  0
ACAD_PROXY_OBJECT
  5
ED76
330
2E
100
AcDbProxyObject
 90
      499
 91
      509
 95
       25
 70
     0
 93
      124
310
00010142905352105510D21254D3D010
330
2E
 94
        0
  0
ACAD_PROXY_OBJECT
  5
ED77
330
2E
100
AcDbProxyObject
 90
      499
 91
      509
 95
       25
 70
     0
 93
      148
310
00010143905354D25391D31152105513105660
330
2E
 94
        0
  0
ACAD_PROXY_OBJECT
  5
ED78
330
2E
100
AcDbProxyObject
 90
      499
 91
      509
 95
       25
 70
     0
 93
      124
310
00010142D0535115D1D193111254D420
330
2E
 94
        0
  0
ACAD_PROXY_OBJECT
  5
ED79
330
2E
100
AcDbProxyObject
 90
      499
 91
      509
 95
       25
 70
     0
 93
      100
310
00010142105350555513D213A0
330
2E
 94
        0
  0
ACAD_PROXY_OBJECT
  5
ED7A
330
2E
100
AcDbProxyObject
 90
      499
 91
      509
 95
       25
 70
     0
 93
      116
310
000101425053521390D3D553951010
330
2E
 94
        0
  0
ACAD_PROXY_OBJECT
  5
ED7B
330
2E
100
AcDbProxyObject
 90
      499
 91
      509
 95
       25
 70
     0
 93
      108
310
0001014210535213941493D29010
330
2E
 94
        0
  0
ACAD_PROXY_OBJECT
  5
ED7C
330
2E
100
AcDbProxyObject
 90
      499
 91
      509
 95
       25
 70
     0
 93
      108
310
0001014210535213951654115070
330
2E
 94
        0
  0
ACAD_PROXY_OBJECT
  5
ED7D
330
2E
100
AcDbProxyObject
 90
      499
 91
      509
 95
       25
 70
     0
 93
      108
310
000101421053521395925155D0F0
330
2E
 94
        0
  0
ACAD_PROXY_OBJECT
  5
ED7E
330
2E
100
AcDbProxyObject
 90
      499
 91
      509
 95
       25
 70
     0
 93
      140
310
00010143505354D150D51253D390D3D41660
330
2E
 94
        0
  0
ACAD_PROXY_OBJECT
  5
ED7F
330
2E
100
AcDbProxyObject
 90
      499
 91
      509
 95
       25
 70
     0
 93
      108
310
00010142105350D3141493D29030
330
2E
 94
        0
  0
ACAD_PROXY_OBJECT
  5
ED80
330
2E
100
AcDbProxyObject
 90
      499
 91
      508
 95
       25
 70
     0
 93
      212
310
00010143905350555513D2105510D21493D500000000000002E400
330
2E
 94
        0
  0
ACAD_PROXY_OBJECT
  5
ED81
330
2E
100
AcDbProxyObject
 90
      499
 91
      509
 95
       25
 70
     0
 93
      156
310
00010143905350555513D2105510D21111551010
330
2E
 94
        0
  0
ACAD_PROXY_OBJECT
  5
ED8D
330
2E
100
AcDbProxyObject
 90
      499
 91
      547
 95
       25
 70
     0
 93
      698
310
0001000000009AA6A9AA4051E546875204170722032312030303A33303A353620323030352028555443290141CE4B8C4B8C0B8D00518547565204175672033312031393A31303A313120323031300141CE4B8C8B8C0B8C80
330
2E
330
ED8E
330
ED8F
330
ED91
330
0
 94
        0
  0
ACAD_PROXY_OBJECT
  5
ED8E
330
2E
100
AcDbProxyObject
 90
      499
 91
      548
 95
       25
 70
     0
 93
       70
310
0001AAA80820000000
330
2E
330
ED8E
330
ED8E
 94
        0
  0
ACAD_PROXY_OBJECT
  5
ED8F
330
2E
100
AcDbProxyObject
 90
      499
 91
      549
 95
       25
 70
     0
 93
       48
310
000100000000
330
2E
330
0
330
ED90
330
0
330
0
 94
        0
  0
ACAD_PROXY_OBJECT
  5
ED90
330
2E
100
AcDbProxyObject
 90
      499
 91
      550
 95
       25
 70
     0
 93
       40
310
000100AAAA
330
2E
330
0
 94
        0
  0
ACAD_PROXY_OBJECT
  5
ED96
330
2E
100
AcDbProxyObject
 90
      499
 91
      522
 95
       25
 70
     0
 93
      180
310
00010143105050D3D35411119390535140504434F4D500
330
2E
 94
        0
  0
ACAD_PROXY_OBJECT
  5
ED97
330
2E
100
AcDbProxyObject
 90
      499
 91
      522
 95
       25
 70
     0
 93
      212
310
0001014390505193D311115491119390535140506466F6C6465720
330
2E
 94
        0
  0
ACAD_PROXY_OBJECT
  5
ED98
330
2E
100
AcDbProxyObject
 90
      499
 91
      522
 95
       25
 70
     0
 93
      180
310
00010143105050539393D1119390535140504284156290
330
2E
 94
        0
  0
ACAD_PROXY_OBJECT
  5
ED99
330
2E
100
AcDbProxyObject
 90
      499
 91
      522
 95
       25
 70
     0
 93
      436
310
00010143905050D3D35415925155D31254D50052295BD96CA0A90B396CA0A894591A496CA0A8DB691A496CA0A89BA96CA0A95E28F95310
330
2E
 94
        0
  0
ACAD_PROXY_OBJECT
  5
ED9E
330
2E
100
AcDbProxyObject
 90
      499
 91
      555
 95
       25
 70
     0
 93
       32
310
00010000
330
2E
340
ED9B
330
EDA0
330
ED9B
 94
        0
  0
ACAD_PROXY_OBJECT
  5
ED9F
330
2E
100
AcDbProxyObject
 90
      499
 91
      556
 95
       25
 70
     0
 93
       18
310
000180
330
2E
 94
        0
  0
ACAD_PROXY_OBJECT
  5
EDA0
330
2E
100
AcDbProxyObject
 90
      499
 91
      557
 95
       25
 70
     0
 93
      186
310
000101431110D313948CCC8CCC940C4D9050055401550000
330
2E
330
ED9E
330
ED9F
 94
        0
  0
ACAD_PROXY_OBJECT
  5
EDA1
330
2E
100
AcDbProxyObject
 90
      499
 91
      558
 95
       25
 70
     0
 93
      178
310
000100AAAAAABAC03B2E67439410EA36E89D743EA29000
330
2E
330
EDA0
 94
        0
  0
ACAD_PROXY_OBJECT
  5
EDA2
330
2E
100
AcDbProxyObject
 90
      499
 91
      559
 95
       25
 70
     0
 93
      108
310
000190140A000000000000AAAAA0
330
2E
330
EDA3
330
EDA3
330
EDA3
330
EDA3
330
EDA3
330
0
 94
        0
  0
ACAD_PROXY_OBJECT
  5
EDA3
330
2E
100
AcDbProxyObject
 90
      499
 91
      560
 95
       25
 70
     0
 93
       51
310
00010000AAAA80
330
2E
330
EDA2
330
EDA0
 94
        0
  0
ACAD_PROXY_OBJECT
  5
EDCB
330
2E
100
AcDbProxyObject
 90
      499
 91
      509
 95
       25
 70
     0
 93
      140
310
0001014350535311D0D3D313D49353D11160
330
2E
 94
        0
  0
DICTIONARY
  5
40
102
{ACAD_REACTORS
330
3F
102
}
330
3F
100
AcDbDictionary
281
     1
  3
DWGSETTINGS
350
41
  3
FEM
350
69
  3
Shaft
350
56
  3
TRANSSETTINGS
350
4C
  0
ACAD_PROXY_OBJECT
  5
42
102
{ACAD_REACTORS
330
3F
102
}
330
3F
100
AcDbProxyObject
 90
      499
 91
      519
 95
       25
 70
     0
 93
    23232
310
41502491013041105357CC201C00030C011E441013141105357CC603800030C011E441013241105357CCA01400030C011E441013341105357CCE01800030C010D9013441105357CD200C00030C010D9013541105357CD600C00030C010D9013641105357CDA00800030C011E9013741105357CDE01000030C010D901384110
310
5357CE200400030C011E9013941105357CE63F400030C0241102324141505357CC4C201C00030C011E902344141505357CC4C600C00030C010D902495041505357CC4CA01C00030C011E40902304E41505357CC13A01C00030C011E902314E41505357CC53A03800030C011E902324E41505357CC93A01400030C011E90233
310
4E41505357CCD3A01800030C010D902344E41505357CD13A00C00030C010D902354E41505357CD53A00C00030C010D902364E41505357CD93A00800030C011E902374E41505357CDD3A01000030C010D902384E41505357CE13A00400030C011E902394E41505357CE53A3F400030C024110332414E41905357CC4C13A01C0
310
0030C011E90334414E41905357CC4C53A00C00030C010D90349504E41905357CC4C93A01C00030C011E409044B4C494E41505357D0D3200400030C011E42504494E464F42105357D410549151A01000030C010D42D055241484D3541905357D093D4A01C00030C011E425045649455742105357D5925155D4E00400030C011
310
E42D06424548494E4441905357D25395A3F400030C0243505545241494C41505357D514A00C00030C010D4250348494441905357D21251201C00030C011E4250356495341905357D59254E01C00030C011E4250650415244494D42505357D41054911253600C00030C010D4250652454644494D42505357D49151911253601
310
000030C010D425774110531514901348070000C300479034110915312501348000000C0003FFFFFFFD034110921395901398000000C0003FFFFFFFE415092139594D06424548494E448000000C0003FFFFFFFE411093125110234418000000C0003FFFFFFFD03411093D05410234418000000C0003FFFFFFFD03411093D48C
310
9055241484D358010000C30047A411093D48CD055241484D358020000C30047A411093D48D5055241484D358000000C0003FFFFFFFE411093D48DD055241484D3581E0000C30047903411094105410234418000000C0003FFFFFFFD03411094115610234418000000C0003FFFFFFFD034110951112501358000000C0003FFF
310
FFFFD034110D0530C901348000000C0003FFFFFFFE4110D0530CD01348020000C30047A4110D0530D501348070000C30047A4110D0530DD013481E0000C30047A4110D15393901378000000C0003FFFFFFFE4110D15395D01378000000C0003FFFFFFFE4110D312539044B4C494E8000000C0003FFFFFFFE4110D3D38C5013
310
08000000C0003FFFFFFFD034110D3D38C901318000000C0003FFFFFFFD034110D3D38CD01328000000C0003FFFFFFFD034110D3D38D101328000000C0003FFFFFFFD034111115494101348000000C0003FFFFFFFD034111115510501348000000C0003FFFFFFFE4111125051D01358000000C0003FFFFFFFE4111125312501
310
358000000C0003FFFFFFFE411112535410650415244494D8000000C0003FFFFFFFE411112535490652454644494D8000000C0003FFFFFFFE411156135410234418000000C0003FFFFFFFD034111915353901388000000C0003FFFFFFFE415191535413901388030000C3004364151915354D410234418000000C0003FFFFFF
310
FE4151915354D510234418030000C300436415191535593901328000000C0003FFFFFFFE415191535595101328030000C3004364111931055101308000000C0003FFFFFFFD03411194905490234418000000C0003FFFFFFFD034111D49312501358000000C0003FFFFFFFD034111D5931250234418000000C0003FFFFFFFD0
310
34112105510D01388000000C0003FFFFFFFD014112125113901338000000C0003FFFFFFFD034112125115D01338000000C0003FFFFFFFD034112131253901348000000C0003FFFFFFFD01411213D0D3901378000000C0003FFFFFFFE411213D0D5D01378000000C0003FFFFFFFE4112539193D04494E464F8000000C0003FF
310
FFFFFE4113105112501348000000C0003FFFFFFFD034113115051101358000000C0003FFFFFFFE419397D0921395902394E8000000C0003FFFFFFFE419397D0D3D38C502304E8000000C0003FFFFFFFD03419397D0D3D38C902314E8000000C0003FFFFFFFD03419397D0D3D38CD02324E8000000C0003FFFFFFFD03419397
310
D0D3D38D102324E8000000C0003FFFFFFFD03419397D0D15393902374E8000000C0003FFFFFFFE419397D0D15395D02374E8000000C0003FFFFFFFE419397D1125312502354E8000000C0003FFFFFFFE419397D2105510D02384E8000000C0003FFFFFFFD01419397D2125113902334E8000000C0003FFFFFFFD03419397D2
310
125115D02334E8000000C0003FFFFFFFD03419397D3115051102354E8000000C0003FFFFFFFE419397D391D25410349504E8000000C0003FFFFFFFE419397D412105390334414E8000000C0003FFFFFFFE419397D510D3D3902304E8000000C0003FFFFFFFD03419397D5121312502344E8000000C0003FFFFFFFD01419397
310
D5131153902304E8000000C0003FFFFFFFD03419397D516150CD02364E8000000C0003FFFFFFFD03419397D594131250332414E8000000C0003FFFFFFFE411391D25410249508000000C0003FFFFFFFE411410530C9055241484D358010000C30047A411410530CD055241484D358020000C30047A411410530D5055241484
310
D358000000C0003FFFFFFFE411410530DD055241484D3581E0000C30047903411412105390234418000000C0003FFFFFFFE411413D4D3901368070000C30047A419413D4D49151901368050000C30047903411413D4D6101368000000C0003FFFFFFFD03411414D150D0234418000000C0003FFFFFFFD03411490D1D390137
310
8000000C0003FFFFFFFE411490D1D5D01378000000C0003FFFFFFFE4114919112501348000000C0003FFFFFFFD034114945514901348070000C30047903411494D093D01348000000C0003FFFFFFFD034114D09492D01348000000C0003FFFFFFFD014114D0D153901378000000C0003FFFFFFFD034114D150D51013480000
310
00C0003FFFFFFFD014114D15313901378000000C0003FFFFFFFD034114D15315D01378000000C0003FFFFFFFD034114D4D654D01308000000C0003FFFFFFFD034114D51312501348070000C300479034114D6508C501358000000C0003FFFFFFFD034114D6508C901358000000C0003FFFFFFFD034114D6508CD0135802000
310
0C30047A4114D6508D501358070000C300479034114D65353901378000000C0003FFFFFFFD034114D65355D01378000000C0003FFFFFFFD03411510D3D3901308000000C0003FFFFFFFD034115121312501348000000C0003FFFFFFFD01411512550C9055241484D358010000C30047A411512550CD055241484D358020000
310
C30047A411512550D5055241484D358000000C0003FFFFFFFE411512550DD055241484D3581E0000C300479034115131153901308000000C0003FFFFFFFD03415514905253105545241494C8000000C0003FFFFFFFE41151492D3901378000000C0003FFFFFFFD0341151492D5D01378000000C0003FFFFFFFD03411514931
310
2501348000000C0003FFFFFFFD01411516150C501368030000C300436411516150C901368030000C300436411516150CD01368000000C0003FFFFFFFE411516150D501368070000C30047A411516150DD013681E0000C30047A4115925155D04564945578000000C0003FFFFFFFE41159151121034849448000000C0003FFF
310
FFFFD0241159151159035649538000000C0003FFFFFFFD02411594131250232418000000C0003FFFFFFFE4116925690501348000000C0003FFFFFFFD01411354D653501358020000C30047AAAA3F400030C01013F90A4051E4091E40D0D4110D4151E4190D41D1E4391E4791E7F6
340
16
340
16
340
16
340
43
340
16
340
16
340
16
340
44
340
16
340
16
340
44
340
45
340
16
340
16
340
16
340
16
340
43
340
16
340
16
340
16
340
44
340
16
340
16
340
44
340
45
340
16
340
46
340
16
340
16
340
16
340
16
340
16
340
43
340
16
340
16
340
16
340
47
340
15
340
15
340
15
340
15
340
15
340
15
340
15
340
15
340
15
340
15
340
15
340
15
340
15
340
15
340
15
340
15
340
48
340
15
340
15
340
15
340
15
340
15
340
15
340
15
340
15
340
15
340
15
340
15
340
15
340
15
340
15
340
15
340
16
340
15
340
15
340
15
340
15
340
15
340
15
340
15
340
15
340
47
340
15
340
15
340
48
340
15
340
15
340
15
340
15
340
15
340
15
340
15
340
15
340
15
340
48
340
15
340
15
340
15
340
47
340
15
340
15
340
15
340
15
340
15
340
15
340
15
340
15
340
15
340
15
340
15
340
15
340
15
340
15
340
15
340
15
340
15
340
15
340
15
340
48
340
15
340
15
340
48
340
15
340
15
340
16
340
15
340
48
340
15
340
15
340
47
340
15
340
15
340
16
340
15
340
48
340
15
340
15
340
15
340
15
340
15
340
15
340
15
340
15
340
15
340
48
340
15
340
15
340
15
340
15
340
15
340
15
340
15
340
15
340
15
340
15
340
15
340
4B
340
16
 94
        0
  0
ACAD_PROXY_OBJECT
  5
62F
102
{ACAD_REACTORS
330
73
102
}
330
73
100
AcDbProxyObject
 90
      499
 91
      523
 95
       25
 70
     0
 93
      253
310
43D1444494D454E53494F4E2C414D44545F2A5F44494D404A9012A404A9012A0
  0
ACAD_PROXY_OBJECT
  5
630
102
{ACAD_REACTORS
330
73
102
}
330
73
100
AcDbProxyObject
 90
      499
 91
      523
 95
       25
 70
     0
 93
      181
310
43D012A42D05357D191504B505357CA9012A404A9012A8
  0
ACAD_PROXY_OBJECT
  5
631
102
{ACAD_REACTORS
330
73
102
}
330
73
100
AcDbProxyObject
 90
      499
 91
      523
 95
       25
 70
     0
 93
      133
310
43D054841544348404A9012A404A9012A8
  0
ACAD_PROXY_OBJECT
  5
632
102
{ACAD_REACTORS
330
73
102
}
330
73
100
AcDbProxyObject
 90
      499
 91
      523
 95
       25
 70
     0
 93
      549
310
43D044C494E4549CE0B0E138B0A8B4E0B0A8B4E138B105357CE0B105357CE138B0A8B505357CE0B0A8B505357CE139012A404A910494E534552542C5354445041525432448
  0
ACAD_PROXY_OBJECT
  5
633
102
{ACAD_REACTORS
330
73
102
}
330
73
100
AcDbProxyObject
 90
      499
 91
      523
 95
       25
 70
     0
 93
      909
310
43D6641434D46434652414D452C41434D444154554D5441524745542C41434D444154554D49442C41434D57454C4453594D2C41434D5355524653594D2C41434D4645415449442C41434D504152545245462C41434D42414C4C4F4F4E2C414D44544544474553594D404A9012A404A9012A8
  0
XRECORD
  5
217B
102
{ACAD_REACTORS
330
217A
102
}
330
217A
100
AcDbXrecord
280
     1
  1
21000753__00___
  0

  0
XRECORD
  5
217D
102
{ACAD_REACTORS
330
217C
102
}
330
217C
100
AcDbXrecord
280
     1
  1
3
  0

  0
XRECORD
  5
EDCA
102
{ACAD_REACTORS
330
EDC9
102
}
330
EDC9
100
AcDbXrecord
280
     1
 90
-1073741824
  0
ACAD_PROXY_OBJECT
  5
4F
102
{ACAD_REACTORS
330
4E
102
}
330
4E
100
AcDbProxyObject
 90
      499
 91
      521
 95
       25
 70
     0
 93
      157
310
057356C1D77406406AA8FFFFFFFF05DD01009010
330
1F
330
0
330
EDA0
 94
        0
  0
ACAD_PROXY_OBJECT
  5
F94D
102
{ACAD_REACTORS
330
17E
102
}
330
17E
100
AcDbProxyObject
 90
      499
 91
      577
 95
       25
 70
     0
 93
     2497
310
5DC0000000000000C408030000C30040D254D3D01640600800030C0200800030C000000000000000C40C88A2085A0B6B23A22B233B2A9BA3220480A1C82C6DAA6EAE4CCA8CAF0E8A6E8C88120284A0B1B6A321A329BA3220480A1A82C6DAAECAD8C8D2DCCEA6E8C8812028420B1B6A4B229BA3220480A1682C6DA88C2E8EAD
310
AA6E8C88120284A0B1B6A127A6A9BA3220480A2082DAC8E888CAE8C2D2D8A6F2DAA6E8C88120288A0B6B23A29B2B1BA34B7B729BCB6A9BA3220480A2282DAC8E886CADCE8CAE498D2DCCAA6E8C88120288A0B6B23A2A343932B0B22634B732A9BA3220480A1682DAC8E89CDEE8CAA6E8C88120285A0B1A0B6B3A630BCA9BA3
310
220480A1682C682DACE88D2DAA6E8C88120288A0B1A0B6B3A437B632A1B430B93A29BA3220480A1A82C682DACEA8D2E8D8CAA6E8C8812032048080
340
F5A9
360
F94E
360
F94F
360
F950
360
F951
360
F952
360
F953
360
F954
360
F955
360
F956
360
F957
360
F958
360
F959
360
F95F
360
F960
360
F961
360
F962
340
0
340
0
 94
        0
  0
ACAD_PROXY_OBJECT
  5
17F
102
{ACAD_REACTORS
330
17E
102
}
330
17E
100
AcDbProxyObject
 90
      499
 91
      526
 95
       25
 70
     0
 93
     2379
310
5DC33333333333309408000000C00040D29254D01640600800030C0200800030C003333333333330940C8121E8720B1B6A9BAB9332A32BC3A29BA3220480A1282C6DA8C868CA6E8C88120286A0B1B6ABB2B63234B733A9BA3220480A1082C6DA92C8A6E8C88120285A0B1B6A230BA3AB6A9BA3220480A1282C6DA849E9AA6E
310
8C88120286A0B1A0B6B3AA34BA3632A9BA3220480A2082DAC8E888CAE8C2D2D8A6F2DAA6E8C88120288A0B6B23A29B2B1BA34B7B729BCB6A9BA3220480A2282DAC8E886CADCE8CAE498D2DCCAA6E8C88120288A0B6B23A2A343932B0B22634B732A9BA3220480A1682DAC8E89CDEE8CAA6E8C88120285A0B1A0B6B3A630BCA
310
9BA3220480A1682C682DACE88D2DAA6E8C88120288A0B1A0B6B3A437B632A1B430B93A29BA3220480C812020
340
180
360
181
360
182
360
183
360
184
360
185
360
186
360
EDA5
360
EDA6
360
EDA7
360
EDA9
360
EDAA
360
EDAB
360
EDB1
360
EDB2
360
EDB3
340
0
340
0
 94
        0
  0
ACAD_PROXY_OBJECT
  5
41
102
{ACAD_REACTORS
330
40
102
}
330
40
100
AcDbProxyObject
 90
      499
 91
      518
 95
       25
 70
     0
 93
     2970
310
4050B44574753455454494E4753A0E8482A68AA6A88882A069492A684A1A0A723A0A92920ACA0A811A1AA0C868A9C829C8E82A12686AF87260F862666A8321A2A72224A0A50602A2140ECC009A020E868A9C889282A682A106260F86460F8666083A1A2A72224A9AA250000000000000042020C868A9C988A9C94000000000
310
000048808321A2A727A323250000000000000122020E868A9C9E8C8C62940000000000000488083A1A2A727A32319250000000000000122021CC6D0C2DACCCAE4C8D2DADADEC8CA9FC84A1A624A720A92920ACA0A8299991718182108698929C8AA8B2A082A0AB098929C8A84A22BA3AAA9A1A0A622A50A0E9882A6A89E849
310
482A02608426A0A5A2AB24A2ABA7E8120CA0A68682988A0C00800010652455649534941501304154D0D0531150540CC4E8C5085354414E44415244415034A4953425512535154D51053541282A4C837CDB4ADCD050756455253494F4E4150531352E3030441ED115D1D4D15515125391D4D153911F40
  0
ACAD_PROXY_OBJECT
  5
69
102
{ACAD_REACTORS
330
40
102
}
330
40
100
AcDbProxyObject
 90
      499
 91
      518
 95
       25
 70
     0
 93
      411
310
4050346454D21092DCC6E486DECACC942842630BCA3B937BAB820A8320A6AFA322A0A20F688AE8EA68AA8A8929C8EA68A9C88FA0
  0
ACAD_PROXY_OBJECT
  5
56
102
{ACAD_REACTORS
330
40
102
}
330
40
100
AcDbProxyObject
 90
      499
 91
      518
 95
       25
 70
     0
 93
      583
310
40505536861667421292DCE8CAE4E4EAE0E89FA0484A634B3B43A2634B732A7F21A98D2CED0E898D2DCCAACD2CAEE9FC8229B4B232A7E80A20F688AE8EA68AA8A8929C8EA68A9C88FA
  0
ACAD_PROXY_OBJECT
  5
4C
102
{ACAD_REACTORS
330
40
102
}
330
40
100
AcDbProxyObject
 90
      499
 91
      518
 95
       25
 70
     0
 93
      852
310
4050D5452414E5353455454494E4753A2488A482AE929C8EA8A4829CA69882A8929E9C0C00800050D4F524947494E414C4C595F4F4E0600400028529A7AAA921A2A620A723A0A81A52827212AAA0A48AA68AA4AC8A0C0080001107B44574753455454494E4753454E447D0
  0
ACAD_PROXY_OBJECT
  5
F94E
330
F94D
100
AcDbProxyObject
 90
      499
 91
      578
 95
       25
 70
     0
 93
       13
310
5DD8
  0
ACAD_PROXY_OBJECT
  5
F94F
330
F94D
100
AcDbProxyObject
 90
      499
 91
      579
 95
       25
 70
     0
 93
       96
310
5DEA0E80A0280A0280A0280F
  0
ACAD_PROXY_OBJECT
  5
F950
330
F94D
100
AcDbProxyObject
 90
      499
 91
      580
 95
       25
 70
     0
 93
      272
310
5DD0E4050140501405014050140501405014050140D01405012C0000000000000040
340
F5AA
 94
        0
  0
ACAD_PROXY_OBJECT
  5
F951
330
F94D
100
AcDbProxyObject
 90
      499
 91
      581
 95
       25
 70
     0
 93
      497
310
5DE8666666666667A67E199999999999E99FD22405014050140501405014050140501405014050140501405014050140501405014050140501405014050100
340
F5A5
 94
        0
  0
ACAD_PROXY_OBJECT
  5
F952
330
F94D
100
AcDbProxyObject
 90
      499
 91
      582
 95
       25
 70
     0
 93
       10
310
5DC0
  0
ACAD_PROXY_OBJECT
  5
F953
330
F94D
100
AcDbProxyObject
 90
      499
 91
      583
 95
       25
 70
     0
 93
      257
310
5DE290EA22A7D90F49F80000000000001081400000000000004204010000618000
340
F5A6
340
F5A7
 94
        0
  0
ACAD_PROXY_OBJECT
  5
F954
330
F94D
100
AcDbProxyObject
 90
      499
 91
      584
 95
       25
 70
     0
 93
    13013
310
5DD0E411255115350141236025B690140501406901000000000000091013347454E545241434F2C4A504E2C302C8D8096DA2C47454E54524154582C25732C2847454E4D53472067656E647767203232322940690120281A8AA2CA0282484A4BE52028120280A0320200000000000012202668E8A9CA8A482869E5894A09C58
310
605921292F94588E8A9CA8A482A8B0584AE658508E8A9C9AA68E40CECADCC8EECE406464665280D202405044E414D454050496BC914F4051C40640A80000000000004E404CD1D15395149050D3CB1294138B0C0B25AF2453CB11D15395149055160B095CCB0A11D1539354D1C819D95B991DD9C80C8C8D8A50192C3D494628
310
4953424C414E4B28504152543A4E414D45292C424C4F434B3A4E414D452C504152543A4E414D452940480A0A888AA686A480A09251B1DBE80A3A80C81D0000000000100A28099A3A2A72A2920A1A7962528271618164946C76F9623A2A72A2920AA2C1612B9961423A2A726A9A39033B2B7323BB39019189B94A0348090142
310
14D51053911054911014122D2E29A50147501904A000000000000125013347454E545241434F2C4A504E2C302C8B4B8A692C47454E54524154582C25732C2847454E4D53472067656E64776720323138294069012028426A0AA22A924A0A62028246EF4BDFA028EA0320B40000000000001CA02668E8A9CA8A482869E5894A
310
09C5860591BBD2F7E588E8A9CA8A482A8B0584AE658508E8A9C9AA68E40CECADCC8EECE406464625280D202405044E4F544540504928D8B4C4051D40641A80000000000003E404CD1D15395149050D3CB1294138B0C0B24A362D30B11D15395149055160B095CCB0A11D1539354D1C819D95B991DD9C80C8C8D4A501240480
310
A0CAC8A9C889EA480A1106F1072706BF02B680A3A80C83D00000000000007C809BA3A2A72A2920A1A79625282716181641BC41C9C1AFC0AD9623A2A72A2920AA2C1612B9961423A2A726A9A39033B2B7323BB39019191A14A0248090141911154D0D48C90141A43825AF880C90147501908A000000000020145013447454E5
310
45241434F2C4A504E2C302C90E096BE20322C47454E54524154582C25732C2847454E4D53472067656E6477672033362940490120284A9AA20A72220A922192028345A5C53490192028EA03213400000000000024A026A8E8A9CA8A482869E5894A09C586059169714D24064588E8A9CA8A482A8B0584AE658508E8A9C9AA6
310
8E40CECADCC8EECE4064646052809202405094D4154455249414C32405068DDE97BF20324051D40642A8713D0AD7A37045404D11D15395149050D3CB1294138B0C0B2377A5EFC80C8B11D15395149055160B095CCB0A11D1539354D1C819D95B991DD9C80D0C0A501240480A089A82A6A680A091D7F2F9480A3A80A0485A06
310
8100000000000007C809923A2A72A2920A1A796252827161816475FCBE51623A2A72A2920AA2C1612B9961423A2A726A9A39033B2B7323BB3901A1914A024809014154149250D150141226FE29A501475014090C409020000000000000F9013247454E545241434F2C4A504E2C302C89BF8A692C47454E54524154582C2573
310
2C2847454E4D53472067656E6477672034332940490120281A224A6A02824850CB202028EA028121A81A040000000000001F202648E8A9CA8A482869E5894A09C58605921432C80588E8A9CA8A482A8B0584AE658508E8A9C9AA68E40CECADCC8EECE406868528092024050E445020000000000000510201C00030C0001018
310
0000000000003E400000000000000F901073D3C4954454D3E4050180000000000003E400000000000000F901073D3C4954454D3E40501800000000000034400000000000000D101073D3C4954454D3E40501800000000000034400000000000000D101073D3C4954454D3E405029010000000000000F9000000000000003E4
310
041CF4F125511534F901418F4F1455164F9014060000000000000F9000000000000003E4041CF4F125511534F9014060000000000000D100000000000000344041CF4F125511534F901901000000000000000F9000000000000003E40A2200000000000008204018000618048220681A048120280C88214844882034852034
310
8452028521485214814000000000000F0BF0000000000003C2FD018020000C3008070000C3003373333333333B0FCCDCCCCCCCCCCEC3F000000000000031012034164050341105901A000000000000062040100006180401000061804008000618008098A02808
340
0
340
0
 94
        0
  0
ACAD_PROXY_OBJECT
  5
F955
330
F94D
100
AcDbProxyObject
 90
      499
 91
      585
 95
       25
 70
     0
 93
      898
310
5DC4000000000000144048CF4F11115510525317D3105091530F880A0F11115510525317D05094D4D0D053114F8A51141C9A9999999999B93F26A666666666724FC000000000000E03F400000000000000400000000000000510000000000000024408070000C300000000000000051000
340
16
340
F5A9
 94
        0
  0
ACAD_PROXY_OBJECT
  5
F956
330
F94D
100
AcDbProxyObject
 90
      499
 91
      586
 95
       25
 70
     0
 93
      823
310
5DC0B00000000000002880959E9E29A2A1AA24A7A72FA620A122A62FA324A929AA1F169E29A2A1AA24A7A72FA620A122A62FA620A9AA1F000000000000048803FFFE01C00030C0088C0380006180000000000000048800000000000000A2000000000000002880
340
652
340
F5A9
 94
        0
  0
ACAD_PROXY_OBJECT
  5
F957
330
F94D
100
AcDbProxyObject
 90
      499
 91
      587
 95
       25
 70
     0
 93
      152
310
5DE80000000000000840A3D0A5723F0BD1F200
  0
ACAD_PROXY_OBJECT
  5
F958
330
F94D
100
AcDbProxyObject
 90
      499
 91
      588
 95
       25
 70
     0
 93
       14
310
5DE0
340
0
 94
        0
  0
ACAD_PROXY_OBJECT
  5
F959
330
F94D
100
AcDbProxyObject
 90
      499
 91
      589
 95
       25
 70
     0
 93
     8619
310
5DD084050BA4050AA405024050E836583938376838C815B836720314043A013D2525633C486F6C653A63746469613E2078203C486F6C653A637464657074683E20555C503C696628657175616C28486F6C653A7461707065642C223022292C22252563222C486F6C653A6E6F6D696E616C202220782022293E3C6966286571
310
75616C28486F6C653A7461707065642C223022292C486F6C653A6469612C486F6C653A706974636864657363293E3C696628657175616C28486F6C653A7461707065642C223122292C22207820222C2222293E3C696628657175616C28486F6C653A7461707065642C223122292C486F6C653A74617064657074682C222229
310
3E203C696628657175616C28486F6C653A7465726D696E6174696F6E2C223022292C22202F20222C2222293E3C696628657175616C28486F6C653A7465726D696E6174696F6E2C223022292C486F6C653A64657074682C2222293E406901405034050E836583938376838C815B836720314043B013D2525633C486F6C653A6
310
3746469613E2078203C486F6C653A6374616E676C653E2525645C503C696628657175616C28486F6C653A7461707065642C223022292C22252563222C486F6C653A6E6F6D696E616C202220782022293E3C696628657175616C28486F6C653A7461707065642C223022292C486F6C653A6469612C486F6C653A70697463686
310
4657363293E3C696628657175616C28486F6C653A7461707065642C223122292C22207820222C2222293E3C696628657175616C28486F6C653A7461707065642C223122292C486F6C653A74617064657074682C2222293E203C696628657175616C28486F6C653A7465726D696E6174696F6E2C223022292C22202F20222C2
310
222293E3C696628657175616C28486F6C653A7465726D696E6174696F6E2C223022292C486F6C653A64657074682C2222293E406901405014050E836583938376838C815B8367203140416013D3C696628657175616C28486F6C653A7461707065642C223022292C22252563222C486F6C653A6E6F6D696E616C2022207820
310
22293E3C696628657175616C28486F6C653A7461707065642C223022292C486F6C653A6469612C486F6C653A706974636864657363293E3C696628657175616C28486F6C653A7461707065642C223122292C22207820222C2222293E3C696628657175616C28486F6C653A7461707065642C223122292C486F6C653A746170
310
64657074682C2222293E203C696628657175616C28486F6C653A7465726D696E6174696F6E2C223022292C22202F20222C2222293E3C696628657175616C28486F6C653A7465726D696E6174696F6E2C223022292C486F6C653A64657074682C2222293E4069014051E4090E836583938376838C815B83672032405173D3C5
310
35444503A444553433E203C535444503A5354443E40690E836583938376838C815B836720314050C3D3C535444503A444553433E40690240515AAABBA120
360
F95A
330
F95A
360
F95B
330
F95B
360
F95C
330
F95C
360
F95D
360
F95E
330
F95D
330
F95E
 94
        0
  0
ACAD_PROXY_OBJECT
  5
F95F
330
F94D
100
AcDbProxyObject
 90
      499
 91
      568
 95
       25
 70
     0
 93
       26
310
5DD02A80
340
0
 94
        0
  0
ACAD_PROXY_OBJECT
  5
F960
330
F94D
100
AcDbProxyObject
 90
      499
 91
      569
 95
       25
 70
     0
 93
      250
310
5DD020000000000000A1000000000000002440408F0F9023C3E409A0DCFFFF80
340
F5AE
340
0
340
0
340
F5AF
340
F5B0
340
F5B1
340
F5B2
340
F5B3
340
F5B4
340
0
 94
        0
  0
ACAD_PROXY_OBJECT
  5
F961
330
F94D
100
AcDbProxyObject
 90
      499
 91
      590
 95
       25
 70
     0
 93
    13889
310
5DD1D003FFFFFFFD030300030000000000000310200800030C01030300030000000000000310200800030C00050C8DC0955782CC838A83588367014ED1D15395149050D3CB1294138B0C0B23702555E0B320E2A0D620D9CB11D15395149055160B095CCB0A11D1539354D1C819D95B991A5B5E880CCC0A78000C0000000000
310
00000000000000000000010000000000000310200800030C010000000000000310200800030C020143CF4F111959985D5B1D151A5D1B194F8050A8C8A8365815B8375838B014E51D15395149050D3CB1294138B0C0B2322A0D96056E0DD60E2CB11D15395149055160B095CCB0A11D1539354D1C819D95B991A5B5E880CCC4
310
A78000C000000000000000000000000000000010000000000000310200800030C010000000000000310200800030C020143CF4F111959985D5B1D151A5D1B194F90D44111409034110541D0C4350F4050E44D03449074510F000141232D24D7C053247454E545241434F2C4A504E2C302C8CB4935F2C47454E54524154582C
310
25732C2847454E4D53472067656E64696D7A20312900010104002214000281464500A608E8A9CA8A482869E5894A09C5860591914588E8A9CA8A482A8B0584AE658508E8A9C9AA68E40CECADCC8D2DAF4406452029E9E9E27B934B3B4B71F1E24A31427A91424A9A12620A7259427B934B3B4B7149624A9A12620A7259424B
310
A32B6949496111116111711149F1E24BA32B69F00808200111A000140560052F47454E545241434F2C4A504E2C302C582C47454E54524154582C25732C2847454E4D53472067656E64696D7A20332900010100002054000280AC80A5E8E8A9CA8A482869E5894A09C586058B2588E8A9CA8A482A8B0584AE658508E8A9C9AA
310
68E40CECADCC8D2DAF4406852000202000040E800050152014BD1D15395149050D3CB1294138B0C0B148B11D15395149055160B095CCB0A11D1539354D1C819D95B991A5B5E880D8A400040400008250000A0507A6029823A2A72A2920A1A79625282716181641E99623A2A72A2920AA2C1612B9961423A2A726A9A39033B2
310
B73234B6BD101B948000808180105A000140A0F4C053047454E545241434F2C4A504E2C302C83D32C47454E54524154582C25732C2847454E4D53472067656E64696D7A203829000101010020F400028248704B5F00A668E8A9CA8A482869E5894A09C58605921C12D7C588E8A9CA8A482A8B0584AE658508E8A9C9AA68E40
310
CECADCC8D2DAF440646052000200080043280005048B4B8A69014CD1D15395149050D3CB1294138B0C0B22D2E29A4B11D15395149055160B095CCB0A11D1539354D1C819D95B991A5B5E880C8C4A4000400100086D0000A09196926BE029923A2A72A2920A1A796252827161816465A49AF9623A2A72A2920AA2C1612B9961
310
423A2A726A9A39033B2B73234B6BD10189480A02620202080043E80005048D8096DA014CD1D15395149050D3CB1294138B0C0B236025B68B11D15395149055160B095CCB0A11D1539354D1C819D95B991A5B5E880C4D0A4000404140280D0000A190687072706CD06C5069D06B0029DA3A2A72A2920A1A7962528271618164
310
1A1C1C9C1B341B141A741AC1623A2A72A2920AA2C1612B9961423A2A726A9A39033B2B73234B6BD10189A94800080828050EA000143A322A0D0E0E4E0D9A0D8A0D3A0D60053D47454E545241434F2C4A504E2C302C8C8A8343839383668362834E83582C47454E54524154582C25732C2847454E4D53472067656E64696D7A
310
2031372900010105002274000281464500A628E8A9CA8A482869E5894A09C5860591914588E8A9CA8A482A8B0584AE658508E8A9C9AA68E40CECADCC8D2DAF440626C52000202080044A8000504909497CA014CD1D15395149050D3CB1294138B0C0B242525F28B11D15395149055160B095CCB0A11D1539354D1C819D95B9
310
91A5B5E880C4E4A400040418008A521E000000000000001CA040C00000000000034408080000000000006881010000000000000D102040000000000001A204080000000000003440818000000000000728103000000000000125020600000000004028A040000000000000034408000000000000004881000000000000000D
310
102000000000000001A204000000000000003440818000000000000508143C0000000000000039408180000000000006881030000000000000D102060000000000001A2040C00000000000034408180000000000006881030000000000000E5020600000000000024A040C0000000000805140800000000000000688100000
310
00000000009102000000000000001A2040000000000000034408180000000000006881030000000000000A10284220000000878000002020000008380000020400000081800000208000000828000002028900000000
340
0
340
0
340
0
340
0
340
F5A9
340
F5A9
 94
        0
  0
ACAD_PROXY_OBJECT
  5
F962
330
F94D
100
AcDbProxyObject
 90
      499
 91
      561
 95
       25
 70
     0
 93
     7018
310
5DD9740D254D3D0649534F5F4133429254D3D7D5125513115051349534F5F42525F5265766973696F6E6C69737446111413478342028323937783834316D6D2920421254D3D7D04D1E0D11141327835202835393478323130326D6D29421254D3D7D04C9E0D51141347839202832393778313839326D6D29421254D3D7D04D
310
1E0E51141337837202834323078323038306D6D29421254D3D7D04CDE0DD1141347838202832393778313638326D6D29421254D3D7D04D1E0E11141327834202835393478313638326D6D29421254D3D7D04C9E0D10E41312028353934783834316D6D29419254D3D7D04C51141347837202832393778313437316D6D29421
310
254D3D7D04D1E0DD1141347836202832393778313236316D6D29421254D3D7D04D1E0D91141347835202832393778313035316D6D29421254D3D7D04D1E0D5104130202838343078313138396D6D2920419254D3D7D04C10E41332028323937783432306D6D29419254D3D7D04CD1141327833202835393478313236316D6D
310
29421254D3D7D04C9E0CD10413478332028323937783633306D6D29421254D3D7D04D1E0CD1141337834202834323078313138396D6D29421254D3D7D04CDE0D11141337836202834323078313738336D6D29421254D3D7D04CDE0D91141337835202834323078313438366D6D29421254D3D7D04CDE0D50E4132202834323
310
0783539346D6D29419254D3D7D04C910413378332028343230783839316D6D29421254D3D7D04CDE0CD0E41342028323937783231306D6D29419254D3D7D04D1124130783220283131383978313638326D6D29421254D3D7D04C1E0C9124130783320283131383978323532336D6D29421254D3D7D04C1E0CD114131783420
310
2838343178323337386D6D29421254D3D7D04C5E0D11141317833202838343178313738336D6D29421254D3D7D04C5E0CD02431254D3C82557247A25E4C81050A49534F5F5449544C4541431254D3C82557247A25E4C81090A49534F5F5449544C45424110E979A97F0838A835883675F42525F44D254D3D7D09497D4995D9
310
A5CDA5BDB9B1A5CDD10E979A97F0838A835883675F54525F44D254D3D7D51497D4995D9A5CDA5BDB9B1A5CDD10E979A97F0838A835883675F424C5F44D254D3D7D09317D4995D9A5CDA5BDB9B1A5CDD10E979A97F0838A835883675F544C5F44D254D3D7D51317D4995D9A5CDA5BDB9B1A5CDD00
  0
ACAD_PROXY_OBJECT
  5
181
330
17F
100
AcDbProxyObject
 90
      499
 91
      527
 95
       25
 70
     0
 93
       86
310
5DEA0C80A0280A0280A034
  0
ACAD_PROXY_OBJECT
  5
182
330
17F
100
AcDbProxyObject
 90
      499
 91
      528
 95
       25
 70
     0
 93
      282
310
5DD0E4050140501405014050140501405014050141101405014041000000000000001000
340
187
 94
        0
  0
ACAD_PROXY_OBJECT
  5
183
330
17F
100
AcDbProxyObject
 90
      499
 91
      529
 95
       25
 70
     0
 93
      323
310
5DCC199999999999E99F91740501405014050140501405014050140501405014050140501405014040
340
0
 94
        0
  0
ACAD_PROXY_OBJECT
  5
184
330
17F
100
AcDbProxyObject
 90
      499
 91
      530
 95
       25
 70
     0
 93
       10
310
5DC0
  0
ACAD_PROXY_OBJECT
  5
185
330
17F
100
AcDbProxyObject
 90
      499
 91
      531
 95
       25
 70
     0
 93
      257
310
5DE0C16A22A7D90F49F80000000000001081400000000000004204010000618000
340
188
340
189
 94
        0
  0
ACAD_PROXY_OBJECT
  5
186
330
17F
100
AcDbProxyObject
 90
      499
 91
      532
 95
       25
 70
     0
 93
     5277
310
5DD06411255115350141236025B6901405014069010000000000000910240690120281A8AA2CA0282484A4BE52028120280A032020000000000001220480D202405044E414D454050496BC914F4051C40640A80000000000004E4090193C3D3C4946284953424C414E4B28504152543A4E414D45292C424C4F434B3A4E414D
310
452C504152543A4E414D45293E3C41435F44455343524950544E3E40480A109A82A88AA492829880A091BBD2F7E80A3A80C81D0E27A15AF46E08A81203480901411393D5115014124A363B7D0147501904A0000000000000F902406428F4F1050D7D393D5114F901202832B22A72227A92028366EF6EE06F582028EA0320B4
310
0000000000001F20480C879E9E20A1AFAB27222FA620A122A61F20240506445020000000000000490201C00030C00010180000000000003E400000000000000F901073D3C4954454D3E4050180000000000003E400000000000000F901073D3C4954454D3E40501800000000000034400000000000000D101073D3C4954454
310
D3E40501800000000000034400000000000000D101073D3C4954454D3E405029010000000000000F9000000000000003E4041CF4F125511534F901418F4F1455164F9014060000000000000F9000000000000003E4041CF4F125511534F901800000000000034400000000000000D101073D3C4954454D3E40640400000000
310
0000003E400000000000000F90288800000000000020810000001800120881A068120480A032208521122080D21480D211480A1485214852050000000000003C2FC000000000000F0BF40600800030C0200400030C00CDCCCCCCCCCCEC3F3373333333333B0FC3333333333330940C80D069014090341504901A1999999999
310
9984A040100006180400800061804010000618008098A02808
340
0
340
0
 94
        0
  0
ACAD_PROXY_OBJECT
  5
EDA5
330
17F
100
AcDbProxyObject
 90
      499
 91
      561
 95
       25
 70
     0
 93
     3042
310
5DD9740D29254D064A49535F413342929254D7D512551311505134A49535F42525F5265766973696F6E6C6973744190F4134522028323937783231306D6D2941D29254D7D04D1490E41312028353934783834316D6D2941929254D7D04C50E41332028323937783432306D6D2941929254D7D04CD0F41344C2028323130783
310
239376D6D2941D29254D7D04D1310E41322028343230783539346D6D2941929254D7D04C90F4130202838343178313138396D6D2941929254D7D04C10243129254C82557247A25E4C81050A4A49535F5449544C454143129254C82557247A25E4C81090A4A49535F5449544C45424110E979A97F0838A835883675F42525F4
310
4D29254D7D09497D4995D9A5CDA5BDB9B1A5CDD10E979A97F0838A835883675F54525F44D29254D7D51497D4995D9A5CDA5BDB9B1A5CDD10E979A97F0838A835883675F424C5F44D29254D7D09317D4995D9A5CDA5BDB9B1A5CDD10E979A97F0838A835883675F544C5F44D29254D7D51317D4995D9A5CDA5BDB9B1A5CDD00
  0
ACAD_PROXY_OBJECT
  5
EDA6
330
17F
100
AcDbProxyObject
 90
      499
 91
      562
 95
       25
 70
     0
 93
      898
310
5DC4000000000000124048CF4F11115510525317D3105091530F880A0F11115510525317D05094D4D0D053114F8A50241C9A9999999999B93F26A666666666724FC000000000000E03F400000000000000400000000000000510000000000000024408070000C300000000000000049000
340
16
340
180
 94
        0
  0
ACAD_PROXY_OBJECT
  5
EDA7
330
17F
100
AcDbProxyObject
 90
      499
 91
      563
 95
       25
 70
     0
 93
      823
310
5DC0B00000000000002480959E9E29A2A1AA24A7A72FA620A122A62FA324A929AA1F169E29A2A1AA24A7A72FA620A122A62FA620A9AA1F000000000000048803FFFE01C00030C008140380006180000000000000048800000000000000A2000000000000002480
340
652
340
180
 94
        0
  0
ACAD_PROXY_OBJECT
  5
EDA9
330
17F
100
AcDbProxyObject
 90
      499
 91
      564
 95
       25
 70
     0
 93
      152
310
5DE8273108AC1C5A0640A3D0A5723F0BD1F200
  0
ACAD_PROXY_OBJECT
  5
EDAA
330
17F
100
AcDbProxyObject
 90
      499
 91
      565
 95
       25
 70
     0
 93
       14
310
5DE0
340
0
 94
        0
  0
ACAD_PROXY_OBJECT
  5
EDAB
330
17F
100
AcDbProxyObject
 90
      499
 91
      566
 95
       25
 70
     0
 93
     6059
310
5DD084050BA4050AA405024050E836583938376838C815B83672031405983D3C486F6C653A6469613E3C696628657175616C28486F6C653A7465726D696E6174696F6E2C223022292C2220905B82B320222C22208368838A838B22293E3C696628657175616C28486F6C653A7465726D696E6174696F6E2C223022292C486F
310
6C653A64657074682C2222293E2C203C486F6C653A63746469613E2082B482AE82E882CC905B82B3203C486F6C653A637464657074683E406901405034050E836583938376838C815B83672031405EF3D3C486F6C653A6374616E676C653E252564202525633C486F6C653A63746469613E208E4D8C8A2C203C69662865717
310
5616C28486F6C653A7461707065642C223022292C22252563222C486F6C653A6E6F6D696E616C202220782022293E3C696628657175616C28486F6C653A7461707065642C223022292C486F6C653A6469612C486F6C653A706974636864657363293E203C696628657175616C28486F6C653A7465726D696E6174696F6E2C2
310
23022292C22905B82B320222C222022293E3C696628657175616C28486F6C653A7465726D696E6174696F6E2C223022292C486F6C653A64657074682C2222293E406901405014050E836583938376838C815B83672031405C73D3C696628657175616C28486F6C653A7461707065642C223022292C22252563222C486F6C65
310
3A6E6F6D696E616C202220782022293E3C696628657175616C28486F6C653A7461707065642C223022292C486F6C653A6469612C486F6C653A706974636864657363293E203C696628657175616C28486F6C653A7465726D696E6174696F6E2C223022292C22905B82B320222C222022293E3C696628657175616C28486F6C
310
653A7465726D696E6174696F6E2C223022292C486F6C653A64657074682C2222293E4069014051E4090E836583938376838C815B83672032405173D3C535444503A444553433E203C535444503A5354443E40690E836583938376838C815B836720314050C3D3C535444503A444553433E40690240515AAABBA120
360
EDAF
330
EDAF
360
EDB0
330
EDB0
360
EDAE
330
EDAE
360
EDAD
360
EDAC
330
EDAD
330
EDAC
 94
        0
  0
ACAD_PROXY_OBJECT
  5
EDB1
330
17F
100
AcDbProxyObject
 90
      499
 91
      568
 95
       25
 70
     0
 93
       26
310
5DD02A80
340
42
 94
        0
  0
ACAD_PROXY_OBJECT
  5
EDB2
330
17F
100
AcDbProxyObject
 90
      499
 91
      569
 95
       25
 70
     0
 93
      250
310
5DD020000000000000A1000000000000002440408F0F9023C3E409A0DCFFFF80
340
58
340
18A8
340
18A9
340
5F
340
60
340
61
340
62
340
63
340
68
340
0
 94
        0
  0
ACAD_PROXY_OBJECT
  5
EDB3
330
17F
100
AcDbProxyObject
 90
      499
 91
      570
 95
       25
 70
     0
 93
    13889
310
5DD1D003FFFFFFFD030300030CCCCCCCCCCCC250200800030C01030300030CCCCCCCCCCCC250200800030C00050C8DC0955782CC838A83588367014ED1D15395149050D3CB1294138B0C0B23702555E0B320E2A0D620D9CB11D15395149055160B095CCB0A11D1539354D1C819D95B991A5B5E880CCC0A78000C0000000000
310
00000000000000000000010CCCCCCCCCCCC250200800030C010CCCCCCCCCCCC250200800030C020143CF4F111959985D5B1D151A5D1B194F8050A8C8A8365815B8375838B014E51D15395149050D3CB1294138B0C0B2322A0D96056E0DD60E2CB11D15395149055160B095CCB0A11D1539354D1C819D95B991A5B5E880CCC4
310
A78000C000000000000000000000000000000010CCCCCCCCCCCC250200800030C010CCCCCCCCCCCC250200800030C020143CF4F111959985D5B1D151A5D1B194F90D44111409034110541D0C4350F4050E44D03449074510F000141232D24D7C053247454E545241434F2C4A504E2C302C8CB4935F2C47454E54524154582C
310
25732C2847454E4D53472067656E64696D7A20312900010104002214000281464500A608E8A9CA8A482869E5894A09C5860591914588E8A9CA8A482A8B0584AE658508E8A9C9AA68E40CECADCC8D2DAF4406452029E9E9E27B934B3B4B71F1E24A31427A91424A9A12620A7259427B934B3B4B7149624A9A12620A7259424B
310
A32B6949496111116111711149F1E24BA32B69F00808200111A000140560052F47454E545241434F2C4A504E2C302C582C47454E54524154582C25732C2847454E4D53472067656E64696D7A20332900010100002054000280AC80A5E8E8A9CA8A482869E5894A09C586058B2588E8A9CA8A482A8B0584AE658508E8A9C9AA
310
68E40CECADCC8D2DAF4406852000202000040E800050152014BD1D15395149050D3CB1294138B0C0B148B11D15395149055160B095CCB0A11D1539354D1C819D95B991A5B5E880D8A400040400008250000A0507A6029823A2A72A2920A1A79625282716181641E99623A2A72A2920AA2C1612B9961423A2A726A9A39033B2
310
B73234B6BD101B948000808180105A000140A0F4C053047454E545241434F2C4A504E2C302C83D32C47454E54524154582C25732C2847454E4D53472067656E64696D7A203829000101010020F400028248704B5F00A668E8A9CA8A482869E5894A09C58605921C12D7C588E8A9CA8A482A8B0584AE658508E8A9C9AA68E40
310
CECADCC8D2DAF440646052000200080043280005048B4B8A69014CD1D15395149050D3CB1294138B0C0B22D2E29A4B11D15395149055160B095CCB0A11D1539354D1C819D95B991A5B5E880C8C4A4000400100086D0000A09196926BE029923A2A72A2920A1A796252827161816465A49AF9623A2A72A2920AA2C1612B9961
310
423A2A726A9A39033B2B73234B6BD10189480A02620202080043E80005048D8096DA014CD1D15395149050D3CB1294138B0C0B236025B68B11D15395149055160B095CCB0A11D1539354D1C819D95B991A5B5E880C4D0A4000404140280D0000A190687072706CD06C5069D06B0029DA3A2A72A2920A1A7962528271618164
310
1A1C1C9C1B341B141A741AC1623A2A72A2920AA2C1612B9961423A2A726A9A39033B2B73234B6BD10189A94800080820050EA000143A322A0D0E0E4E0D9A0D8A0D3A0D60053D47454E545241434F2C4A504E2C302C8C8A8343839383668362834E83582C47454E54524154582C25732C2847454E4D53472067656E64696D7A
310
2031372900010105002274000281464500A628E8A9CA8A482869E5894A09C5860591914588E8A9CA8A482A8B0584AE658508E8A9C9AA68E40CECADCC8D2DAF440626C52000202080044A8000504909497CA014CD1D15395149050D3CB1294138B0C0B242525F28B11D15395149055160B095CCB0A11D1539354D1C819D95B9
310
91A5B5E880C4E4A400040418008A521E000000000000001CA040C00000000000034408080000000000006881010000000000000D102040000000000001A204080000000000003440818000000000000728103000000000000125020600000000004028A040000000000000034408000000000000004881000000000000000D
310
102000000000000001A204000000000000003440818000000000000508143C0000000000000039408180000000000006881030000000000000D102060000000000001A2040C00000000000034408180000000000006881030000000000000E5020600000000000024A040C0000000000805140800000000000000688100000
310
00000000009102000000000000001A2040000000000000034408180000000000006881030000000000000A10284220000000878000002020000008380000020400000081800000208000000828000002028900000000
340
0
340
0
340
0
340
0
340
180
340
180
 94
        0
  0
ACAD_PROXY_OBJECT
  5
F95A
330
F959
100
AcDbProxyObject
 90
      499
 91
      567
 95
       25
 70
     0
 93
     2680
310
5DE0143A0D960E4E0DDA0E32056E0D9C80C4043A013D2525633C486F6C653A63746469613E2078203C486F6C653A637464657074683E20555C503C696628657175616C28486F6C653A7461707065642C223022292C22252563222C486F6C653A6E6F6D696E616C202220782022293E3C696628657175616C28486F6C653A74
310
61707065642C223022292C486F6C653A6469612C486F6C653A706974636864657363293E3C696628657175616C28486F6C653A7461707065642C223122292C22207820222C2222293E3C696628657175616C28486F6C653A7461707065642C223122292C486F6C653A74617064657074682C2222293E203C69662865717561
310
6C28486F6C653A7465726D696E6174696F6E2C223022292C22202F20222C2222293E3C696628657175616C28486F6C653A7465726D696E6174696F6E2C223022292C486F6C653A64657074682C2222293E
  0
ACAD_PROXY_OBJECT
  5
F95B
330
F959
100
AcDbProxyObject
 90
      499
 91
      567
 95
       25
 70
     0
 93
     2688
310
5DE0143A0D960E4E0DDA0E32056E0D9C80C4043B013D2525633C486F6C653A63746469613E2078203C486F6C653A6374616E676C653E2525645C503C696628657175616C28486F6C653A7461707065642C223022292C22252563222C486F6C653A6E6F6D696E616C202220782022293E3C696628657175616C28486F6C653A
310
7461707065642C223022292C486F6C653A6469612C486F6C653A706974636864657363293E3C696628657175616C28486F6C653A7461707065642C223122292C22207820222C2222293E3C696628657175616C28486F6C653A7461707065642C223122292C486F6C653A74617064657074682C2222293E203C696628657175
310
616C28486F6C653A7465726D696E6174696F6E2C223022292C22202F20222C2222293E3C696628657175616C28486F6C653A7465726D696E6174696F6E2C223022292C486F6C653A64657074682C2222293E
  0
ACAD_PROXY_OBJECT
  5
F95C
330
F959
100
AcDbProxyObject
 90
      499
 91
      567
 95
       25
 70
     0
 93
     2392
310
5DE0143A0D960E4E0DDA0E32056E0D9C80C40416013D3C696628657175616C28486F6C653A7461707065642C223022292C22252563222C486F6C653A6E6F6D696E616C202220782022293E3C696628657175616C28486F6C653A7461707065642C223022292C486F6C653A6469612C486F6C653A706974636864657363293E
310
3C696628657175616C28486F6C653A7461707065642C223122292C22207820222C2222293E3C696628657175616C28486F6C653A7461707065642C223122292C486F6C653A74617064657074682C2222293E203C696628657175616C28486F6C653A7465726D696E6174696F6E2C223022292C22202F20222C2222293E3C69
310
6628657175616C28486F6C653A7465726D696E6174696F6E2C223022292C486F6C653A64657074682C2222293E
  0
ACAD_PROXY_OBJECT
  5
F95D
330
F959
100
AcDbProxyObject
 90
      499
 91
      567
 95
       25
 70
     0
 93
      344
310
5DE0143A0D960E4E0DDA0E32056E0D9C80C805173D3C535444503A444553433E203C535444503A5354443E
  0
ACAD_PROXY_OBJECT
  5
F95E
330
F959
100
AcDbProxyObject
 90
      499
 91
      567
 95
       25
 70
     0
 93
      256
310
5DE0143A0D960E4E0DDA0E32056E0D9C80C4050C3D3C535444503A444553433E
  0
ACAD_PROXY_OBJECT
  5
EDAF
330
EDAB
100
AcDbProxyObject
 90
      499
 91
      567
 95
       25
 70
     0
 93
     1376
310
5DE0143A0D960E4E0DDA0E32056E0D9C80C405983D3C486F6C653A6469613E3C696628657175616C28486F6C653A7465726D696E6174696F6E2C223022292C2220905B82B320222C22208368838A838B22293E3C696628657175616C28486F6C653A7465726D696E6174696F6E2C223022292C486F6C653A64657074682C22
310
22293E2C203C486F6C653A63746469613E2082B482AE82E882CC905B82B3203C486F6C653A637464657074683E
  0
ACAD_PROXY_OBJECT
  5
EDB0
330
EDAB
100
AcDbProxyObject
 90
      499
 91
      567
 95
       25
 70
     0
 93
     2072
310
5DE0143A0D960E4E0DDA0E32056E0D9C80C405EF3D3C486F6C653A6374616E676C653E252564202525633C486F6C653A63746469613E208E4D8C8A2C203C696628657175616C28486F6C653A7461707065642C223022292C22252563222C486F6C653A6E6F6D696E616C202220782022293E3C696628657175616C28486F6C
310
653A7461707065642C223022292C486F6C653A6469612C486F6C653A706974636864657363293E203C696628657175616C28486F6C653A7465726D696E6174696F6E2C223022292C22905B82B320222C222022293E3C696628657175616C28486F6C653A7465726D696E6174696F6E2C223022292C486F6C653A6465707468
310
2C2222293E
  0
ACAD_PROXY_OBJECT
  5
EDAE
330
EDAB
100
AcDbProxyObject
 90
      499
 91
      567
 95
       25
 70
     0
 93
     1752
310
5DE0143A0D960E4E0DDA0E32056E0D9C80C405C73D3C696628657175616C28486F6C653A7461707065642C223022292C22252563222C486F6C653A6E6F6D696E616C202220782022293E3C696628657175616C28486F6C653A7461707065642C223022292C486F6C653A6469612C486F6C653A706974636864657363293E20
310
3C696628657175616C28486F6C653A7465726D696E6174696F6E2C223022292C22905B82B320222C222022293E3C696628657175616C28486F6C653A7465726D696E6174696F6E2C223022292C486F6C653A64657074682C2222293E
  0
ACAD_PROXY_OBJECT
  5
EDAD
330
EDAB
100
AcDbProxyObject
 90
      499
 91
      567
 95
       25
 70
     0
 93
      344
310
5DE0143A0D960E4E0DDA0E32056E0D9C80C805173D3C535444503A444553433E203C535444503A5354443E
  0
ACAD_PROXY_OBJECT
  5
EDAC
330
EDAB
100
AcDbProxyObject
 90
      499
 91
      567
 95
       25
 70
     0
 93
      256
310
5DE0143A0D960E4E0DDA0E32056E0D9C80C4050C3D3C535444503A444553433E
  0
ENDSEC
  0
EOF
