  0
SECTION
  2
HEADER
  9
$ACADVER
  1
AC1015
  9
$ACADMAINTVER
 70
     6
  9
$DWGCODEPAGE
  3
ANSI_932
  9
$INSBASE
 10
0.0
 20
0.0
 30
0.0
  9
$EXTMIN
 10
-91.10490923875716
 20
-122.377230764952
 30
-0.0000000000000111
  9
$EXTMAX
 10
163.0126025362981
 20
32.03048051252779
 30
0.0000000000000042
  9
$LIMMIN
 10
0.0
 20
0.0
  9
$LIMMAX
 10
420.0
 20
297.0
  9
$ORTHOMODE
 70
     0
  9
$REGENMODE
 70
     1
  9
$FILLMODE
 70
     1
  9
$QTEXTMODE
 70
     0
  9
$MIRRTEXT
 70
     1
  9
$LTSCALE
 40
1.0
  9
$ATTMODE
 70
     1
  9
$TEXTSIZE
 40
5.0
  9
$TRACEWID
 40
1.0
  9
$TEXTSTYLE
  7
STANDARD
  9
$CLAYER
  8
AM_0
  9
$CELTYPE
  6
ByLayer
  9
$CECOLOR
 62
   256
  9
$CELTSCALE
 40
1.0
  9
$DISPSILH
 70
     0
  9
$DIMSCALE
 40
1.0
  9
$DIMASZ
 40
2.5
  9
$DIMEXO
 40
0.0
  9
$DIMDLI
 40
10.0
  9
$DIMRND
 40
0.0
  9
$DIMDLE
 40
0.0
  9
$DIMEXE
 40
1.0
  9
$DIMTP
 40
0.1
  9
$DIMTM
 40
0.1000000001
  9
$DIMTXT
 40
3.8
  9
$DIMCEN
 40
0.0
  9
$DIMTSZ
 40
0.0
  9
$DIMTOL
 70
     0
  9
$DIMLIM
 70
     0
  9
$DIMTIH
 70
     0
  9
$DIMTOH
 70
     0
  9
$DIMSE1
 70
     0
  9
$DIMSE2
 70
     0
  9
$DIMTAD
 70
     3
  9
$DIMZIN
 70
     1
  9
$DIMBLK
  1
Open30
  9
$DIMASO
 70
     1
  9
$DIMSHO
 70
     1
  9
$DIMPOST
  1

  9
$DIMAPOST
  1
"
  9
$DIMALT
 70
     0
  9
$DIMALTD
 70
     2
  9
$DIMALTF
 40
0.0393701
  9
$DIMLFAC
 40
1.0
  9
$DIMTOFL
 70
     1
  9
$DIMTVP
 40
0.0
  9
$DIMTIX
 70
     0
  9
$DIMSOXD
 70
     0
  9
$DIMSAH
 70
     0
  9
$DIMBLK1
  1

  9
$DIMBLK2
  1

  9
$DIMSTYLE
  2
AM_JIS
  9
$DIMCLRD
 70
   256
  9
$DIMCLRE
 70
   256
  9
$DIMCLRT
 70
     2
  9
$DIMTFAC
 40
0.71
  9
$DIMGAP
 40
1.5
  9
$DIMJUST
 70
     0
  9
$DIMSD1
 70
     0
  9
$DIMSD2
 70
     0
  9
$DIMTOLJ
 70
     0
  9
$DIMTZIN
 70
     8
  9
$DIMALTZ
 70
     0
  9
$DIMALTTZ
 70
     0
  9
$DIMUPT
 70
     0
  9
$DIMDEC
 70
     0
  9
$DIMTDEC
 70
     2
  9
$DIMALTU
 70
     2
  9
$DIMALTTD
 70
     2
  9
$DIMTXSTY
  7
STANDARD
  9
$DIMAUNIT
 70
     1
  9
$DIMADEC
 70
     1
  9
$DIMALTRND
 40
0.0
  9
$DIMAZIN
 70
     2
  9
$DIMDSEP
 70
    46
  9
$DIMATFIT
 70
     3
  9
$DIMFRAC
 70
     0
  9
$DIMLDRBLK
  1
Open30
  9
$DIMLUNIT
 70
     2
  9
$DIMLWD
 70
    -1
  9
$DIMLWE
 70
    -1
  9
$DIMTMOVE
 70
     0
  9
$LUNITS
 70
     2
  9
$LUPREC
 70
     2
  9
$SKETCHINC
 40
1.0
  9
$FILLETRAD
 40
0.8
  9
$AUNITS
 70
     1
  9
$AUPREC
 70
     5
  9
$MENU
  1
.
  9
$ELEVATION
 40
0.0
  9
$PELEVATION
 40
0.0
  9
$THICKNESS
 40
0.0
  9
$LIMCHECK
 70
     0
  9
$CHAMFERA
 40
10.0
  9
$CHAMFERB
 40
10.0
  9
$CHAMFERC
 40
20.0
  9
$CHAMFERD
 40
0.0
  9
$SKPOLY
 70
     0
  9
$TDCREATE
 40
2451943.610431667
  9
$TDUCREATE
 40
2451943.235431667
  9
$TDUPDATE
 40
2455441.361594502
  9
$TDUUPDATE
 40
2455440.986594502
  9
$TDINDWG
 40
1.6357350231
  9
$TDUSRTIMER
 40
1.6357348495
  9
$USRTIMER
 70
     1
  9
$ANGBASE
 50
0.0
  9
$ANGDIR
 70
     0
  9
$PDMODE
 70
     0
  9
$PDSIZE
 40
0.0
  9
$PLINEWID
 40
0.0
  9
$SPLFRAME
 70
     0
  9
$SPLINETYPE
 70
     6
  9
$SPLINESEGS
 70
     8
  9
$HANDSEED
  5
18B4F
  9
$SURFTAB1
 70
     6
  9
$SURFTAB2
 70
     6
  9
$SURFTYPE
 70
     6
  9
$SURFU
 70
     6
  9
$SURFV
 70
     6
  9
$UCSBASE
  2

  9
$UCSNAME
  2

  9
$UCSORG
 10
0.0
 20
0.0
 30
0.0
  9
$UCSXDIR
 10
1.0
 20
0.0
 30
0.0
  9
$UCSYDIR
 10
0.0
 20
1.0
 30
0.0
  9
$UCSORTHOREF
  2

  9
$UCSORTHOVIEW
 70
     0
  9
$UCSORGTOP
 10
0.0
 20
0.0
 30
0.0
  9
$UCSORGBOTTOM
 10
0.0
 20
0.0
 30
0.0
  9
$UCSORGLEFT
 10
0.0
 20
0.0
 30
0.0
  9
$UCSORGRIGHT
 10
0.0
 20
0.0
 30
0.0
  9
$UCSORGFRONT
 10
0.0
 20
0.0
 30
0.0
  9
$UCSORGBACK
 10
0.0
 20
0.0
 30
0.0
  9
$PUCSBASE
  2

  9
$PUCSNAME
  2

  9
$PUCSORG
 10
0.0
 20
0.0
 30
0.0
  9
$PUCSXDIR
 10
1.0
 20
0.0
 30
0.0
  9
$PUCSYDIR
 10
0.0
 20
1.0
 30
0.0
  9
$PUCSORTHOREF
  2

  9
$PUCSORTHOVIEW
 70
     0
  9
$PUCSORGTOP
 10
0.0
 20
0.0
 30
0.0
  9
$PUCSORGBOTTOM
 10
0.0
 20
0.0
 30
0.0
  9
$PUCSORGLEFT
 10
0.0
 20
0.0
 30
0.0
  9
$PUCSORGRIGHT
 10
0.0
 20
0.0
 30
0.0
  9
$PUCSORGFRONT
 10
0.0
 20
0.0
 30
0.0
  9
$PUCSORGBACK
 10
0.0
 20
0.0
 30
0.0
  9
$USERI1
 70
     0
  9
$USERI2
 70
     0
  9
$USERI3
 70
     0
  9
$USERI4
 70
     0
  9
$USERI5
 70
     0
  9
$USERR1
 40
0.0
  9
$USERR2
 40
0.0
  9
$USERR3
 40
0.0
  9
$USERR4
 40
0.0
  9
$USERR5
 40
0.0
  9
$WORLDVIEW
 70
     1
  9
$SHADEDGE
 70
     3
  9
$SHADEDIF
 70
    70
  9
$TILEMODE
 70
     1
  9
$MAXACTVP
 70
    64
  9
$PINSBASE
 10
0.0
 20
0.0
 30
0.0
  9
$PLIMCHECK
 70
     0
  9
$PEXTMIN
 10
1.000000000000000E+20
 20
1.000000000000000E+20
 30
1.000000000000000E+20
  9
$PEXTMAX
 10
-1.000000000000000E+20
 20
-1.000000000000000E+20
 30
-1.000000000000000E+20
  9
$PLIMMIN
 10
0.0
 20
0.0
  9
$PLIMMAX
 10
420.0
 20
297.0
  9
$UNITMODE
 70
     0
  9
$VISRETAIN
 70
     1
  9
$PLINEGEN
 70
     0
  9
$PSLTSCALE
 70
     1
  9
$TREEDEPTH
 70
  3020
  9
$CMLSTYLE
  2
Standard
  9
$CMLJUST
 70
     0
  9
$CMLSCALE
 40
20.0
  9
$PROXYGRAPHICS
 70
     1
  9
$MEASUREMENT
 70
     1
  9
$CELWEIGHT
370
    -1
  9
$ENDCAPS
280
     0
  9
$JOINSTYLE
280
     0
  9
$LWDISPLAY
290
     0
  9
$INSUNITS
 70
     4
  9
$HYPERLINKBASE
  1

  9
$STYLESHEET
  1
sei_cad.ctb
  9
$XEDIT
290
     1
  9
$CEPSNTYPE
380
     0
  9
$PSTYLEMODE
290
     1
  9
$FINGERPRINTGUID
  2
{C77AB3BE-9CA2-11D3-BAF3-006094EB760E}
  9
$VERSIONGUID
  2
{E263D10D-A65D-4DCB-ADD2-50DDE56B44ED}
  9
$EXTNAMES
290
     1
  9
$PSVPSCALE
 40
0.0
  9
$OLESTARTUP
290
     0
  0
ENDSEC
  0
SECTION
  2
CLASSES
  0
CLASS
  1
ACDBDICTIONARYWDFLT
  2
AcDbDictionaryWithDefault
  3
ObjectDBX Classes
 90
        0
280
     0
281
     0
  0
CLASS
  1
ACDBPLACEHOLDER
  2
AcDbPlaceHolder
  3
ObjectDBX Classes
 90
        0
280
     0
281
     0
  0
CLASS
  1
LAYOUT
  2
AcDbLayout
  3
ObjectDBX Classes
 90
        0
280
     0
281
     0
  0
CLASS
  1
ACME_DOCUMENT
  2
AcMeDbDoc
  3
AcMeServices
 90
        0
280
     1
281
     0
  0
CLASS
  1
ACMESCOPE
  2
AcMeScope
  3
AcMeServices
 90
        0
280
     1
281
     0
  0
CLASS
  1
ACMECOMMANDHISTORY
  2
AcMeCommandHistory
  3
AcMeServices
 90
        0
280
     1
281
     0
  0
CLASS
  1
DICTIONARYVAR
  2
AcDbDictionaryVar
  3
ObjectDBX Classes
 90
        0
280
     0
281
     0
  0
CLASS
  1
ACIMSYSVARMAN
  2
AcImSysVarManager
  3
AcMeServices
 90
        0
280
     1
281
     0
  0
CLASS
  1
ACIMREALSYSVAR
  2
AcImRealSysVar
  3
AcMeServices
 90
        0
280
     1
281
     0
  0
CLASS
  1
ACIMINTSYSVAR
  2
AcImIntSysVar
  3
AcMeServices
 90
        0
280
     1
281
     0
  0
CLASS
  1
ACMEDRAWINGMAN
  2
AcMeDrawingMan
  3
AcMeServices
 90
        0
280
     1
281
     0
  0
CLASS
  1
ACMEVIEW
  2
AcMeView
  3
AcMeServices
 90
        0
280
     1
281
     0
  0
CLASS
  1
ACDBENTITYCACHE
  2
AcMeEntityCache
  3
AcMeServices
 90
        0
280
     1
281
     0
  0
CLASS
  1
GSMANAGER
  2
AcMeGSManager
  3
AcMeServices
 90
        0
280
     1
281
     0
  0
CLASS
  1
AMDTINTERNALREACTOR
  2
AmdtInternalReactor
  3
AcMeServices
 90
        0
280
     1
281
     0
  0
CLASS
  1
ACMESTATEMGR
  2
AcMeStateMgr
  3
AcMeServices
 90
        0
280
     1
281
     0
  0
CLASS
  1
ACME_DATABASE
  2
AcMeDbDatabase
  3
AcMeServices
 90
        0
280
     1
281
     0
  0
CLASS
  1
ACRFINSADJUSTERMGR
  2
AcRfInsAdjusterMgr
  3
AcMeServices
 90
        0
280
     1
281
     0
  0
CLASS
  1
AMGSETTINGSOBJ
  2
AmgSettingsObj
  3
"AcadM|Product Description: AutoCAD Mechanical 2000|Company: Autodesk"
 90
        0
280
     1
281
     0
  0
CLASS
  1
AMGOBJPROPCFG
  2
AmgObjPropCfg
  3
"AmgLay|Product Description: AutoCAD Mechanical 2000|Company: Autodesk"
 90
        1
280
     1
281
     0
  0
CLASS
  1
ACMDATADICTIONARY
  2
AcmDataDictionary
  3
"AcmSymBB|Product Description: AutoCAD Mechanical 2004 DX|Company: Autodesk"
 90
        0
280
     1
281
     0
  0
CLASS
  1
ACMDATAENTRYBLOCK
  2
AcmDataEntryBlock
  3
"AcmSymBB|Product Description: AutoCAD Mechanical 2004 DX|Company: Autodesk"
 90
        0
280
     1
281
     0
  0
CLASS
  1
ACIMSTRSYSVAR
  2
AcImStrSysVar
  3
AcMeServices
 90
        0
280
     1
281
     0
  0
CLASS
  1
ACAMGFILTERDAT
  2
AcAmgFilterDat
  3
"AcadM|Product Description: AutoCAD Mechanical 2000|Company: Autodesk"
 90
        0
280
     1
281
     0
  0
CLASS
  1
LAYER_INDEX
  2
AcDbLayerIndex
  3
ObjectDBX Classes
 90
        0
280
     0
281
     0
  0
CLASS
  1
IDBUFFER
  2
AcDbIdBuffer
  3
ObjectDBX Classes
 90
        0
280
     0
281
     0
  0
CLASS
  1
ACMSTANDARDJIS
  2
AcmStandardJIS
  3
"Amdt_StdImp|Product Description: AutoCAD Mechanical 2004 DX|Company: Autodesk"
 90
        0
280
     1
281
     0
  0
CLASS
  1
ACMSURFSTANDARDJIS
  2
AcmSurfTextStdJIS
  3
"Amdt_StdImp|Product Description: AutoCAD Mechanical 2004 DX|Company: Autodesk"
 90
        0
280
     1
281
     0
  0
CLASS
  1
ACMFCFSTANDARDJIS
  2
AcmFCFStdJIS
  3
"Amdt_StdImp|Product Description: AutoCAD Mechanical 2004 DX|Company: Autodesk"
 90
        0
280
     1
281
     0
  0
CLASS
  1
ACMWELDSTANDARDJIS
  2
AcmWeldingStdJIS
  3
"Amdt_StdImp|Product Description: AutoCAD Mechanical 2004 DX|Company: Autodesk"
 90
        0
280
     1
281
     0
  0
CLASS
  1
ACMIDSTANDARDJIS
  2
AcmIdStdJIS
  3
"Amdt_StdImp|Product Description: AutoCAD Mechanical 2004 DX|Company: Autodesk"
 90
        0
280
     1
281
     0
  0
CLASS
  1
ACMDATUMSTANDARDJIS
  2
AcmDatumStdJIS
  3
"Amdt_StdImp|Product Description: AutoCAD Mechanical 2004 DX|Company: Autodesk"
 90
        0
280
     1
281
     0
  0
CLASS
  1
ACMBOMSTANDARDJIS
  2
AcmBOMStdJIS
  3
"Amdt_StdImp|Product Description: AutoCAD Mechanical 2004 DX|Company: Autodesk"
 90
        0
280
     1
281
     0
  0
CLASS
  1
AMDTNOTE
  2
AmdtNote
  3
"AcmSymBB|Product Description: AutoCAD Mechanical 2004 DX|Company: Autodesk"
 90
     1023
280
     1
281
     1
  0
CLASS
  1
TABLESTYLE
  2
AcDbTableStyle
  3
ObjectDBX Classes
 90
     2047
280
     0
281
     0
  0
CLASS
  1
ACGREFMASTER
  2
AcGrefMaster
  3
AcAttribServices
 90
        0
280
     1
281
     0
  0
CLASS
  1
AM_DRAWING_MGR
  2
AcDmDwgMgr
  3
AcMechDwgViewMgmt
 90
        0
280
     1
281
     0
  0
CLASS
  1
AM_DWG_DOCUMENT
  2
AcDmDwgDocument
  3
AcMechDwgViewMgmt
 90
        0
280
     1
281
     0
  0
CLASS
  1
AM_DWG_SHEET
  2
AcDmSheet
  3
AcMechDwgViewMgmt
 90
        0
280
     1
281
     0
  0
CLASS
  1
AM_VIEWDIMPARMAP
  2
AcDmViewDimParMap
  3
AcMechDwgViewMgmt
 90
        0
280
     1
281
     0
  0
CLASS
  1
AM_DWGMGR_NAME
  2
AcDmDwgMgrName
  3
AcMechDwgViewMgmt
 90
        0
280
     1
281
     0
  0
CLASS
  1
ACGREFACADMASTER
  2
AcGrefacadMaster
  3
AcGrefServices
 90
        0
280
     1
281
     0
  0
CLASS
  1
AMDTMENUSTATEMGR
  2
AmdtMenuStateMgr
  3
McadcomServices
 90
        0
280
     1
281
     0
  0
CLASS
  1
AMDTMCOMMENUSTATE
  2
AmdtMcomMenuState
  3
McadcomServices
 90
        0
280
     1
281
     0
  0
CLASS
  1
AMIMASTER
  2
AmiMaster
  3
AmiServices
 90
        0
280
     1
281
     0
  0
CLASS
  1
MAPIAMMOUDLE
  2
MApiAmModule
  3
MApiAmServices
 90
        0
280
     1
281
     0
  0
CLASS
  1
AMDTADMENUSTATE
  2
AmdtAdMenuState
  3
DesignerServices
 90
        0
280
     1
281
     0
  0
CLASS
  1
ADAPPL
  2
AcAdAppl
  3
DesignerServices
 90
        0
280
     1
281
     0
  0
CLASS
  1
DEPMGR
  2
AcAdDepMgr
  3
DesignerServices
 90
        0
280
     1
281
     0
  0
CLASS
  1
PARAMMGR
  2
AcAdParamMgr
  3
DesignerServices
 90
        0
280
     1
281
     0
  0
CLASS
  1
PARAMSCOPE
  2
AcAdParamScope
  3
DesignerServices
 90
        0
280
     1
281
     0
  0
CLASS
  1
NAMEDAPPL
  2
AcAdNamedAppl
  3
DesignerServices
 90
        0
280
     1
281
     0
  0
CLASS
  1
AMDTDMMENUSTATE
  2
AmdtDmMenuState
  3
AcMechDwgViewMgmt
 90
        0
280
     1
281
     0
  0
CLASS
  1
AMDTAMMENUSTATE
  2
AmdtAmMenuState
  3
DesignerAssemblies
 90
        0
280
     1
281
     0
  0
CLASS
  1
ACAMPROJECT
  2
AcAmProject
  3
DesignerAssemblies
 90
        0
280
     1
281
     0
  0
CLASS
  1
ACAMGRCOMPDEF
  2
AcAmGrCompDef
  3
DesignerAssemblies
 90
        0
280
     1
281
     0
  0
CLASS
  1
ACCMCONTEXT
  2
AcCmContext
  3
DesignerAssemblies
 90
        0
280
     1
281
     0
  0
CLASS
  1
ACAMCOMPDEF
  2
AcAmCompDef
  3
DesignerAssemblies
 90
        0
280
     1
281
     0
  0
CLASS
  1
ACAMCOMPDEFMGR
  2
AcAmCompDefMgr
  3
DesignerAssemblies
 90
        0
280
     1
281
     0
  0
CLASS
  1
AMCONTEXTMGR
  2
AcAmContextMgr
  3
DesignerAssemblies
 90
        0
280
     1
281
     0
  0
CLASS
  1
ACAMCONTEXTMODELER
  2
AcAmContextModeler
  3
DesignerAssemblies
 90
        0
280
     1
281
     0
  0
CLASS
  1
ACAMGTITLESTD
  2
AcAmgTitleStd
  3
"TITLEAPP"
 90
        0
280
     1
281
     0
  0
CLASS
  1
ACMDETAILSTANDARDJIS
  2
AmdtDetailSymStdJIS
  3
"Amdt_StdImp|Product Description: AutoCAD Mechanical 2004 DX|Company: Autodesk"
 90
        0
280
     1
281
     0
  0
CLASS
  1
ACMSECTIONSTANDARDJIS
  2
AmdtSectionSymStdJIS
  3
"Amdt_StdImp|Product Description: AutoCAD Mechanical 2004 DX|Company: Autodesk"
 90
        0
280
     1
281
     0
  0
CLASS
  1
ACMCENTERLINESTANDARDJIS
  2
AmdtCenterLineStdJIS
  3
"Amdt_StdImp|Product Description: AutoCAD Mechanical 2004 DX|Company: Autodesk"
 90
        0
280
     1
281
     0
  0
CLASS
  1
ACMTHREADLINESTANDARDJIS
  2
AmdtThreadLineStdJIS
  3
"Amdt_StdImp|Product Description: AutoCAD Mechanical 2004 DX|Company: Autodesk"
 90
        0
280
     1
281
     0
  0
CLASS
  1
ACMNOTESTANDARDJIS
  2
AmdtNoteStdJIS
  3
"Amdt_StdImp|Product Description: AutoCAD Mechanical 2004 DX|Company: Autodesk"
 90
        0
280
     1
281
     0
  0
CLASS
  1
AMDTNOTETEMPLATEDB
  2
AmdtNoteTemplateDB
  3
AMDT_STDIMP_MODULE_NAME
 90
        0
280
     1
281
     0
  0
CLASS
  1
ACAMGLAYSTD
  2
AcAmgLayStd
  3
"AcAmgLayStd|Product Description: AutoCAD Mechanical 2000|Company: Autodesk"
 90
        0
280
     1
281
     0
  0
CLASS
  1
ACAMGDIMSTD
  2
AcAmgDimStd
  3
"AcAmgDimStd|Product Description: AutoCAD Mechanical 2000|Company: Autodesk"
 90
        0
280
     1
281
     0
  0
CLASS
  1
ACAMGHOLECHARTSTDJIS
  2
AcAmgHoleChartStdJIS
  3
ACMSYMBB_MODULE_NAME
 90
        0
280
     1
281
     0
  0
CLASS
  1
CATALOGSTATE
  2
AcAmCatalogState
  3
DesignerAssemblies
 90
        0
280
     1
281
     0
  0
CLASS
  1
ACAMGRCOMPDEFSET
  2
AcAmGrCompDefSet
  3
DesignerAssemblies
 90
        0
280
     1
281
     0
  0
CLASS
  1
AMDTBROWSERDBTAB
  2
AmdtBrowserDbTab
  3
McadcomServices
 90
        0
280
     1
281
     0
  0
CLASS
  1
CBROWSERAPPOBJECT
  2
CBrowserAppObject
  3
McadcomServices
 90
        0
280
     1
281
     0
  0
CLASS
  1
DM_PLACEHOLDER
  2
AcDmSelsetPlaceholder
  3
AcMechDwgViewMgmt
 90
        0
280
     1
281
     0
  0
CLASS
  1
SORTENTSTABLE
  2
AcDbSortentsTable
  3
ObjectDBX Classes
 90
        0
280
     0
281
     0
  0
CLASS
  1
ACMSTANDARDISO
  2
AcmStandardISO
  3
"Amdt_StdImp|Product Description: AutoCAD Mechanical 2004 DX|Company: Autodesk"
 90
        0
280
     1
281
     0
  0
CLASS
  1
AMDTEDGESTANDARDISO13715
  2
AmdtEdgeStdISO13715
  3
"Amdt_StdImp|Product Description: AutoCAD Mechanical 2004 DX|Company: Autodesk"
 90
        0
280
     1
281
     0
  0
CLASS
  1
ACMSURFSTANDARDISO
  2
AcmSurfTextStdISO
  3
"Amdt_StdImp|Product Description: AutoCAD Mechanical 2004 DX|Company: Autodesk"
 90
        0
280
     1
281
     0
  0
CLASS
  1
ACMFCFSTANDARDISO
  2
AcmFCFStdISO
  3
"Amdt_StdImp|Product Description: AutoCAD Mechanical 2004 DX|Company: Autodesk"
 90
        0
280
     1
281
     0
  0
CLASS
  1
ACMWELDSTANDARDISO
  2
AcmWeldingStdISO
  3
"Amdt_StdImp|Product Description: AutoCAD Mechanical 2004 DX|Company: Autodesk"
 90
        0
280
     1
281
     0
  0
CLASS
  1
ACMIDSTANDARDISO
  2
AcmIdStdISO
  3
"Amdt_StdImp|Product Description: AutoCAD Mechanical 2004 DX|Company: Autodesk"
 90
        0
280
     1
281
     0
  0
CLASS
  1
ACMDATUMSTANDARDISO
  2
AcmDatumStdISO
  3
"Amdt_StdImp|Product Description: AutoCAD Mechanical 2004 DX|Company: Autodesk"
 90
        0
280
     1
281
     0
  0
CLASS
  1
ACMBOMSTANDARDISO
  2
AcmBOMStdISO
  3
"Amdt_StdImp|Product Description: AutoCAD Mechanical 2004 DX|Company: Autodesk"
 90
        0
280
     1
281
     0
  0
CLASS
  1
ACMDETAILSTANDARDISO
  2
AmdtDetailSymStdISO
  3
"Amdt_StdImp|Product Description: AutoCAD Mechanical 2004 DX|Company: Autodesk"
 90
        0
280
     1
281
     0
  0
CLASS
  1
ACMSECTIONSTANDARDISO
  2
AmdtSectionSymStdISO
  3
"Amdt_StdImp|Product Description: AutoCAD Mechanical 2004 DX|Company: Autodesk"
 90
        0
280
     1
281
     0
  0
CLASS
  1
ACMCENTERLINESTANDARDISO
  2
AmdtCenterLineStdISO
  3
"Amdt_StdImp|Product Description: AutoCAD Mechanical 2004 DX|Company: Autodesk"
 90
        0
280
     1
281
     0
  0
CLASS
  1
ACMTHREADLINESTANDARDISO
  2
AmdtThreadLineStdISO
  3
"Amdt_StdImp|Product Description: AutoCAD Mechanical 2004 DX|Company: Autodesk"
 90
        0
280
     1
281
     0
  0
CLASS
  1
ACMNOTESTANDARDISO
  2
AmdtNoteStdISO
  3
"Amdt_StdImp|Product Description: AutoCAD Mechanical 2004 DX|Company: Autodesk"
 90
        0
280
     1
281
     0
  0
CLASS
  1
ACAMGHOLECHARTSTDISO
  2
AcAmgHoleChartStdISO
  3
ACMSYMBB_MODULE_NAME
 90
        0
280
     1
281
     0
  0
CLASS
  1
AMDTFORMULAUPDATEDISPATCHER
  2
AmdtFormulaUpdateDispatcher
  3
AcMeServices
 90
        0
280
     1
281
     0
  0
CLASS
  1
DIMASSOC
  2
AcDbDimAssoc
  3
"AcDbDimAssoc|Product Desc:     AcDim ARX App For Dimension|Company:          Autodesk, Inc.|WEB Address:      www.autodesk.com"
 90
        0
280
     0
281
     0
  0
ENDSEC
  0
SECTION
  2
TABLES
  0
TABLE
  2
VPORT
  5
8
330
0
100
AcDbSymbolTable
 70
    11
  0
VPORT
  5
18B48
330
8
100
AcDbSymbolTableRecord
100
AcDbViewportTableRecord
  2
*Active
 70
     0
 10
0.0
 20
0.0
 11
1.0
 21
1.0
 12
35.95384664877049
 22
-45.17337512621208
 13
0.0
 23
0.0
 14
2.5
 24
2.5
 15
10.0
 25
10.0
 16
0.0
 26
0.0
 36
1.0
 17
0.0
 27
0.0
 37
0.0
 40
155.768131641158
 41
1.697058823529412
 42
50.0
 43
0.0
 44
0.0
 50
0.0
 51
0.0
 71
    16
 72
 20000
 73
     1
 74
     3
 75
     0
 76
     0
 77
     0
 78
     0
281
     0
 65
     1
110
0.0
120
0.0
130
0.0
111
1.0
121
0.0
131
0.0
112
0.0
122
1.0
132
0.0
 79
     0
146
0.0
  0
ENDTAB
  0
TABLE
  2
LTYPE
  5
5
330
0
100
AcDbSymbolTable
 70
    16
  0
LTYPE
  5
14
330
5
100
AcDbSymbolTableRecord
100
AcDbLinetypeTableRecord
  2
ByBlock
 70
     0
  3

 72
    65
 73
     0
 40
0.0
  0
LTYPE
  5
15
330
5
100
AcDbSymbolTableRecord
100
AcDbLinetypeTableRecord
  2
ByLayer
 70
     0
  3

 72
    65
 73
     0
 40
0.0
  0
LTYPE
  5
16
330
5
100
AcDbSymbolTableRecord
100
AcDbLinetypeTableRecord
  2
Continuous
 70
     0
  3
Solid line
 72
    65
 73
     0
 40
0.0
  0
LTYPE
  5
43
330
5
100
AcDbSymbolTableRecord
100
AcDbLinetypeTableRecord
  2
AM_ISO02W050
 70
     0
  3
__ __ __ __ __ __ __ __ __ __ __ __ __ __ __
 72
    65
 73
     2
 40
7.5
 49
6.0
 74
     0
 49
-1.5
 74
     0
  0
LTYPE
  5
44
330
5
100
AcDbSymbolTableRecord
100
AcDbLinetypeTableRecord
  2
AM_ISO08W050
 70
     0
  3
____ . ____ . ____ . ____ . ____ . ____ . ____
 72
    65
 73
     4
 40
18.0
 49
12.0
 74
     0
 49
-1.5
 74
     0
 49
3.0
 74
     0
 49
-1.5
 74
     0
  0
LTYPE
  5
45
330
5
100
AcDbSymbolTableRecord
100
AcDbLinetypeTableRecord
  2
AM_ISO09W050
 70
     0
  3
_____ . . _____ . . _____ . . ____ .. ____
 72
    65
 73
     6
 40
22.5
 49
12.0
 74
     0
 49
-1.5
 74
     0
 49
3.0
 74
     0
 49
-1.5
 74
     0
 49
3.0
 74
     0
 49
-1.5
 74
     0
  0
LTYPE
  5
46
330
5
100
AcDbSymbolTableRecord
100
AcDbLinetypeTableRecord
  2
Amconstr
 70
     0
  3
_______________________
 72
    65
 73
     2
 40
9999.0
 49
9999.0
 74
     0
 49
0.0
 74
     0
  0
LTYPE
  5
47
330
5
100
AcDbSymbolTableRecord
100
AcDbLinetypeTableRecord
  2
AM_ISO02W050x2
 70
     0
  3
 _ _ _ _ _ _ _ _ _ _ _ _
 72
    65
 73
     2
 40
3.75
 49
3.0
 74
     0
 49
-0.75
 74
     0
  0
LTYPE
  5
48
330
5
100
AcDbSymbolTableRecord
100
AcDbLinetypeTableRecord
  2
AM_ISO08W050x2
 70
     0
  3
__ . __ . __ . __ . __ . __
 72
    65
 73
     4
 40
9.0
 49
6.0
 74
     0
 49
-0.75
 74
     0
 49
1.5
 74
     0
 49
-0.75
 74
     0
  0
LTYPE
  5
4B
330
5
100
AcDbSymbolTableRecord
100
AcDbLinetypeTableRecord
  2
Amzigzag
 70
     0
  3
/\/-/\/-/\/-/\/-/\/-/\/
 72
    65
 73
     2
 40
11.0001
 49
0.0001
 74
     4
 75
   135
340
4A
 46
0.04
 50
0.0
 44
0.0
 45
0.0
 49
-11.0
 74
     0
  0
LTYPE
  5
188
330
5
100
AcDbSymbolTableRecord
100
AcDbLinetypeTableRecord
  2
ACJISTGB
 70
     0
  3
__ . . __ . .
 72
    65
 73
     6
 40
9.0
 49
4.0
 74
     0
 49
-1.0
 74
     0
 49
1.0
 74
     0
 49
-1.0
 74
     0
 49
1.0
 74
     0
 49
-1.0
 74
     0
  0
LTYPE
  5
189
330
5
100
AcDbSymbolTableRecord
100
AcDbLinetypeTableRecord
  2
ACJISTGL
 70
     0
  3
_ _ _ _ _
 72
    65
 73
     2
 40
3.0
 49
2.0
 74
     0
 49
-1.0
 74
     0
  0
LTYPE
  5
652
330
5
100
AcDbSymbolTableRecord
100
AcDbLinetypeTableRecord
  2
CENTER
 70
     0
  3
____ _ ____ _ ____ _ ____ _ ____ _ ____ _ ____
 72
    65
 73
     4
 40
17.5
 49
13.0
 74
     0
 49
-1.5
 74
     0
 49
1.5
 74
     0
 49
-1.5
 74
     0
  0
LTYPE
  5
12AB
330
5
100
AcDbSymbolTableRecord
100
AcDbLinetypeTableRecord
  2
HIDDEN
 70
     0
  3
Hidden __ __ __ __ __ __ __ __ __ __ __ __ __ _
 72
    65
 73
     2
 40
0.375
 49
0.25
 74
     0
 49
-0.125
 74
     0
  0
LTYPE
  5
12AC
330
5
100
AcDbSymbolTableRecord
100
AcDbLinetypeTableRecord
  2
PHANTOM2
 70
     0
  3
Phantom (.5x) ___ _ _ ___ _ _ ___ _ _ ___ _ _
 72
    65
 73
     6
 40
1.25
 49
0.625
 74
     0
 49
-0.125
 74
     0
 49
0.125
 74
     0
 49
-0.125
 74
     0
 49
0.125
 74
     0
 49
-0.125
 74
     0
  0
LTYPE
  5
F5A5
330
5
100
AcDbSymbolTableRecord
100
AcDbLinetypeTableRecord
  2
ACISOWELD
 70
     0
  3
_ _ _ _ _
 72
    65
 73
     2
 40
2.0
 49
2.0
 74
     0
 49
-1.0
 74
     0
  0
LTYPE
  5
F5A6
330
5
100
AcDbSymbolTableRecord
100
AcDbLinetypeTableRecord
  2
ACISOTGB
 70
     0
  3
__ . . __ . .
 72
    65
 73
     6
 40
9.0
 49
4.0
 74
     0
 49
-1.0
 74
     0
 49
1.0
 74
     0
 49
-1.0
 74
     0
 49
1.0
 74
     0
 49
-1.0
 74
     0
  0
LTYPE
  5
F5A7
330
5
100
AcDbSymbolTableRecord
100
AcDbLinetypeTableRecord
  2
ACISOTGL
 70
     0
  3
_ _ _ _ _
 72
    65
 73
     2
 40
3.0
 49
2.0
 74
     0
 49
-1.0
 74
     0
  0
ENDTAB
  0
TABLE
  2
LAYER
  5
2
102
{ACAD_XDICTIONARY
360
EDC8
102
}
330
0
100
AcDbSymbolTable
 70
     5
  0
LAYER
  5
10
330
2
100
AcDbSymbolTableRecord
100
AcDbLayerTableRecord
  2
0
 70
     0
 62
     7
  6
Continuous
370
    -3
390
F
  0
LAYER
  5
7D
330
2
100
AcDbSymbolTableRecord
100
AcDbLayerTableRecord
  2
AM_5
 70
     0
 62
     3
  6
Continuous
370
    13
390
F
  0
LAYER
  5
7F
330
2
100
AcDbSymbolTableRecord
100
AcDbLayerTableRecord
  2
Defpoints
 70
     0
 62
     7
  6
Continuous
290
     0
370
    -3
390
F
  0
LAYER
  5
12B1
330
2
100
AcDbSymbolTableRecord
100
AcDbLayerTableRecord
  2
AM_0
 70
     0
 62
     7
  6
Continuous
370
    30
390
F
  0
LAYER
  5
18A5
330
2
100
AcDbSymbolTableRecord
100
AcDbLayerTableRecord
  2
AM_6
 70
     0
 62
     2
  6
Continuous
370
    30
390
F
  0
ENDTAB
  0
TABLE
  2
STYLE
  5
3
330
0
100
AcDbSymbolTable
 70
     6
  0
STYLE
  5
11
330
3
100
AcDbSymbolTableRecord
100
AcDbTextStyleTableRecord
  2
STANDARD
 70
     0
 40
0.0
 41
1.0
 50
0.0
 71
     0
 42
5.0
  3
ISOCP.SHX
  4
EXTFONT.SHX
  0
STYLE
  5
4A
330
3
100
AcDbSymbolTableRecord
100
AcDbTextStyleTableRecord
  2

 70
     1
 40
0.0
 41
1.0
 50
0.0
 71
     0
 42
2.5
  3
ltypeshp.shx
  4

  0
STYLE
  5
180
330
3
100
AcDbSymbolTableRecord
100
AcDbTextStyleTableRecord
  2
ACJISTS
 70
     0
 40
1.0
 41
1.0
 50
0.0
 71
     0
 42
2.5
  3
isocp.shx
  4
bigfont.shx
  0
STYLE
  5
187
330
3
100
AcDbSymbolTableRecord
100
AcDbTextStyleTableRecord
  2
ACJISGDT
 70
     0
 40
0.0
 41
1.0
 50
0.0
 71
     0
 42
2.5
  3
amgdt.shx
  4

  0
STYLE
  5
F5A9
330
3
100
AcDbSymbolTableRecord
100
AcDbTextStyleTableRecord
  2
ACISOTS
 70
     0
 40
1.0
 41
1.0
 50
0.0
 71
     0
 42
1.0
  3
isocp.shx
  4
extfont.shx
  0
STYLE
  5
F5AA
330
3
100
AcDbSymbolTableRecord
100
AcDbTextStyleTableRecord
  2
ACISOGDT
 70
     0
 40
0.0
 41
1.0
 50
0.0
 71
     0
 42
1.0
  3
amgdt.shx
  4

  0
ENDTAB
  0
TABLE
  2
VIEW
  5
6
330
0
100
AcDbSymbolTable
 70
     6
  0
VIEW
  5
A30
330
6
100
AcDbSymbolTableRecord
100
AcDbViewTableRecord
  2
AM_VIEW1
 70
     0
 40
148.5
 10
109.5616966580977
 20
222.75
 41
219.1233933161954
 11
0.0
 21
0.0
 31
1.0
 12
0.0
 22
0.0
 32
0.0
 42
50.0
 43
0.0
 44
0.0
 50
0.0
 71
    16
281
     0
 72
     0
  0
VIEW
  5
A31
330
6
100
AcDbSymbolTableRecord
100
AcDbViewTableRecord
  2
AM_VIEW2
 70
     0
 40
148.5
 10
310.4383033419023
 20
222.75
 41
219.1233933161954
 11
0.0
 21
0.0
 31
1.0
 12
0.0
 22
0.0
 32
0.0
 42
50.0
 43
0.0
 44
0.0
 50
0.0
 71
    16
281
     0
 72
     0
  0
VIEW
  5
A32
330
6
100
AcDbSymbolTableRecord
100
AcDbViewTableRecord
  2
AM_VIEW3
 70
     0
 40
148.5
 10
109.5616966580977
 20
74.25
 41
219.1233933161954
 11
0.0
 21
0.0
 31
1.0
 12
0.0
 22
0.0
 32
0.0
 42
50.0
 43
0.0
 44
0.0
 50
0.0
 71
    16
281
     0
 72
     0
  0
VIEW
  5
A33
330
6
100
AcDbSymbolTableRecord
100
AcDbViewTableRecord
  2
AM_VIEW4
 70
     0
 40
148.5
 10
310.4383033419023
 20
74.25
 41
219.1233933161954
 11
0.0
 21
0.0
 31
1.0
 12
0.0
 22
0.0
 32
0.0
 42
50.0
 43
0.0
 44
0.0
 50
0.0
 71
    16
281
     0
 72
     0
  0
VIEW
  5
A34
330
6
100
AcDbSymbolTableRecord
100
AcDbViewTableRecord
  2
AM_VIEW5
 70
     0
 40
148.5
 10
210.0
 20
148.5
 41
219.1233933161954
 11
0.0
 21
0.0
 31
1.0
 12
0.0
 22
0.0
 32
0.0
 42
50.0
 43
0.0
 44
0.0
 50
0.0
 71
    16
281
     0
 72
     0
  0
VIEW
  5
A35
330
6
100
AcDbSymbolTableRecord
100
AcDbViewTableRecord
  2
AM_VIEW6
 70
     0
 40
296.99703
 10
210.0
 20
148.5
 41
438.2424041645245
 11
0.0
 21
0.0
 31
1.0
 12
0.0
 22
0.0
 32
0.0
 42
50.0
 43
0.0
 44
0.0
 50
0.0
 71
    16
281
     0
 72
     0
  0
ENDTAB
  0
TABLE
  2
UCS
  5
7
330
0
100
AcDbSymbolTable
 70
     0
  0
ENDTAB
  0
TABLE
  2
APPID
  5
9
330
0
100
AcDbSymbolTable
 70
    51
  0
APPID
  5
12
330
9
100
AcDbSymbolTableRecord
100
AcDbRegAppTableRecord
  2
ACAD
 70
     0
  0
APPID
  5
2C
330
9
100
AcDbSymbolTableRecord
100
AcDbRegAppTableRecord
  2
MCAD_NO_VIS
 70
     0
  0
APPID
  5
2D
330
9
100
AcDbSymbolTableRecord
100
AcDbRegAppTableRecord
  2
ACAD_TEMP_GRAPHIC
 70
     0
  0
APPID
  5
B9
330
9
100
AcDbSymbolTableRecord
100
AcDbRegAppTableRecord
  2
GENIUS_GENDTOL_13
 70
     0
  0
APPID
  5
359
330
9
100
AcDbSymbolTableRecord
100
AcDbRegAppTableRecord
  2
GENIUS_GENREC_14
 70
     0
  0
APPID
  5
35A
330
9
100
AcDbSymbolTableRecord
100
AcDbRegAppTableRecord
  2
GENIUS_GENODEF_13
 70
     0
  0
APPID
  5
35B
330
9
100
AcDbSymbolTableRecord
100
AcDbRegAppTableRecord
  2
GENIUS_GENOBJ-N-REC_13
 70
     0
  0
APPID
  5
667
330
9
100
AcDbSymbolTableRecord
100
AcDbRegAppTableRecord
  2
GENIUS_GENCFG_13
 70
     0
  0
APPID
  5
668
330
9
100
AcDbSymbolTableRecord
100
AcDbRegAppTableRecord
  2
GENIUS_GENCFG0_13
 70
     0
  0
APPID
  5
669
330
9
100
AcDbSymbolTableRecord
100
AcDbRegAppTableRecord
  2
GENIUS_GENCFG1_13
 70
     0
  0
APPID
  5
66A
330
9
100
AcDbSymbolTableRecord
100
AcDbRegAppTableRecord
  2
GENIUS_GENCFG2_13
 70
     0
  0
APPID
  5
66B
330
9
100
AcDbSymbolTableRecord
100
AcDbRegAppTableRecord
  2
GENIUS_GENCFG3_13
 70
     0
  0
APPID
  5
66C
330
9
100
AcDbSymbolTableRecord
100
AcDbRegAppTableRecord
  2
GENIUS_GENCFG4_13
 70
     0
  0
APPID
  5
A76
330
9
100
AcDbSymbolTableRecord
100
AcDbRegAppTableRecord
  2
GENIUS_GENBLLY_14
 70
     0
  0
APPID
  5
A77
330
9
100
AcDbSymbolTableRecord
100
AcDbRegAppTableRecord
  2
GENIUS_GENOBJ-N-CEN_13
 70
     0
  0
APPID
  5
A83
330
9
100
AcDbSymbolTableRecord
100
AcDbRegAppTableRecord
  2
GENIUS_GENTRA_14
 70
     0
  0
APPID
  5
A8D
330
9
100
AcDbSymbolTableRecord
100
AcDbRegAppTableRecord
  2
GENIUS_GENOBJ-N-TIT_13
 70
     0
  0
APPID
  5
A8E
330
9
100
AcDbSymbolTableRecord
100
AcDbRegAppTableRecord
  2
GENIUS_GENTITLE_13
 70
     0
  0
APPID
  5
A8F
330
9
100
AcDbSymbolTableRecord
100
AcDbRegAppTableRecord
  2
GENIUS_GENOENT_13
 70
     0
  0
APPID
  5
A90
330
9
100
AcDbSymbolTableRecord
100
AcDbRegAppTableRecord
  2
GENIUS_GENOREF_13
 70
     0
  0
APPID
  5
A91
330
9
100
AcDbSymbolTableRecord
100
AcDbRegAppTableRecord
  2
GENIUS_GENOLIS_13
 70
     0
  0
APPID
  5
A92
330
9
100
AcDbSymbolTableRecord
100
AcDbRegAppTableRecord
  2
GENIUS_GENZVEED_13
 70
     0
  0
APPID
  5
A93
330
9
100
AcDbSymbolTableRecord
100
AcDbRegAppTableRecord
  2
GENIUS_GENSCREG_15
 70
     0
  0
APPID
  5
A94
330
9
100
AcDbSymbolTableRecord
100
AcDbRegAppTableRecord
  2
GENIUS_GENOBJ-N-SDF_13
 70
     0
  0
APPID
  5
12B5
330
9
100
AcDbSymbolTableRecord
100
AcDbRegAppTableRecord
  2
GENIUS_GENOBJ-N-RSBK_13
 70
     0
  0
APPID
  5
12B6
330
9
100
AcDbSymbolTableRecord
100
AcDbRegAppTableRecord
  2
GENIUS_GENOBJ-N-LIB_13
 70
     0
  0
APPID
  5
12B7
330
9
100
AcDbSymbolTableRecord
100
AcDbRegAppTableRecord
  2
GENIUS_GENSCALE_13
 70
     0
  0
APPID
  5
12B8
330
9
100
AcDbSymbolTableRecord
100
AcDbRegAppTableRecord
  2
GENIUS_GENOBJ-N-HTC_13
 70
     0
  0
APPID
  5
12B9
330
9
100
AcDbSymbolTableRecord
100
AcDbRegAppTableRecord
  2
GENIUS_GENHATCH_13
 70
     0
  0
APPID
  5
18AA
330
9
100
AcDbSymbolTableRecord
100
AcDbRegAppTableRecord
  2
BASE_TYPE
 70
     0
  0
APPID
  5
18AB
330
9
100
AcDbSymbolTableRecord
100
AcDbRegAppTableRecord
  2
GENIUS_GENOBJ-N-FIL_13
 70
     0
  0
APPID
  5
1E91
330
9
100
AcDbSymbolTableRecord
100
AcDbRegAppTableRecord
  2
GENIUS_GENOBJ-N-CRS_13
 70
     0
  0
APPID
  5
3B24
330
9
100
AcDbSymbolTableRecord
100
AcDbRegAppTableRecord
  2
GENIUS_GENDIMSH_14
 70
     0
  0
APPID
  5
4D78
330
9
100
AcDbSymbolTableRecord
100
AcDbRegAppTableRecord
  2
GENIUS_GENOBJ-N-DIM_13
 70
     0
  0
APPID
  5
4D79
330
9
100
AcDbSymbolTableRecord
100
AcDbRegAppTableRecord
  2
GENIUS_GENDIM_13
 70
     0
  0
APPID
  5
517C
330
9
100
AcDbSymbolTableRecord
100
AcDbRegAppTableRecord
  2
GENIUS_GENFIL_13
 70
     0
  0
APPID
  5
517D
330
9
100
AcDbSymbolTableRecord
100
AcDbRegAppTableRecord
  2
GENIUS_GENOBJ-N-CHA_13
 70
     0
  0
APPID
  5
ED83
330
9
100
AcDbSymbolTableRecord
100
AcDbRegAppTableRecord
  2
AD_DRAW
 70
     0
  0
APPID
  5
ED86
330
9
100
AcDbSymbolTableRecord
100
AcDbRegAppTableRecord
  2
ACATTRIBSERVICES
 70
     0
  0
APPID
  5
EDA4
330
9
100
AcDbSymbolTableRecord
100
AcDbRegAppTableRecord
  2
DESIGNERASSEMBLIES
 70
     0
  0
APPID
  5
EDB7
330
9
100
AcDbSymbolTableRecord
100
AcDbRegAppTableRecord
  2
ACADM_DIM_EDIT
 70
     0
  0
APPID
  5
EDB8
330
9
100
AcDbSymbolTableRecord
100
AcDbRegAppTableRecord
  2
AMDT_DM_ADJ
 70
     0
  0
APPID
  5
F08C
330
9
100
AcDbSymbolTableRecord
100
AcDbRegAppTableRecord
  2
ACAD_PSEXT
 70
     0
  0
APPID
  5
F2B1
330
9
100
AcDbSymbolTableRecord
100
AcDbRegAppTableRecord
  2
GENIUS_GENCEN_19
 70
     0
  0
APPID
  5
10513
330
9
100
AcDbSymbolTableRecord
100
AcDbRegAppTableRecord
  2
ACAD_DSTYLE_DIMTEXT_FILL
 70
     0
  0
APPID
  5
11AB4
330
9
100
AcDbSymbolTableRecord
100
AcDbRegAppTableRecord
  2
ACAD_DSTYLE_DIMARC_LENGTH_SYMBOL
 70
     0
  0
APPID
  5
11AB5
330
9
100
AcDbSymbolTableRecord
100
AcDbRegAppTableRecord
  2
ACAD_DSTYLE_DIMJOGGED_JOGANGLE_SYMBOL
 70
     0
  0
APPID
  5
11AB6
330
9
100
AcDbSymbolTableRecord
100
AcDbRegAppTableRecord
  2
AcAecLayerStandard
 70
     0
  0
APPID
  5
1813B
330
9
100
AcDbSymbolTableRecord
100
AcDbRegAppTableRecord
  2
ACAD_DIMASSOC_DIMLFAC
 70
     0
  0
APPID
  5
1813C
330
9
100
AcDbSymbolTableRecord
100
AcDbRegAppTableRecord
  2
ACAD_DIMASSOC_CALC_DIMLFAC
 70
     0
  0
APPID
  5
1813D
330
9
100
AcDbSymbolTableRecord
100
AcDbRegAppTableRecord
  2
ACAD_DIMASSOC_OVERRIDDEN_DIMLFAC
 70
     0
  0
ENDTAB
  0
TABLE
  2
DIMSTYLE
  5
A
330
0
100
AcDbSymbolTable
 70
    17
100
AcDbDimStyleTable
  0
DIMSTYLE
105
58
330
A
100
AcDbSymbolTableRecord
100
AcDbDimStyleTableRecord
  2
AM_JIS
 70
     0
  4
"
 41
2.5
 42
0.0
 43
10.0
 44
1.0
 47
0.1
 48
0.1000000001
 73
     0
 74
     0
 77
     3
 78
     1
 79
     2
140
3.8
141
0.0
143
0.0393701
146
0.71
147
1.5
172
     1
176
   256
177
   256
178
     2
179
     1
271
     2
272
     2
275
     1
283
     0
284
     8
340
11
341
59
342
59
371
    -1
372
    -1
  0
DIMSTYLE
105
5F
330
A
100
AcDbSymbolTableRecord
100
AcDbDimStyleTableRecord
  2
AM_JIS$3
 70
     0
  4
"
 41
2.5
 42
0.0
 43
10.0
 44
1.0
 47
0.1
 48
0.1000000001
 73
     0
 77
     3
 78
     1
 79
     2
140
3.8
141
0.0
143
0.0393701
146
0.71
147
1.5
172
     1
176
   256
177
   256
178
     2
179
     1
271
     2
272
     2
275
     1
283
     0
284
     8
288
     1
289
     0
340
11
341
59
342
59
371
    -1
372
    -1
  0
DIMSTYLE
105
60
330
A
100
AcDbSymbolTableRecord
100
AcDbDimStyleTableRecord
  2
AM_JIS$4
 70
     0
  4
"
 41
2.5
 42
0.0
 43
10.0
 44
1.0
 47
0.1
 48
0.1000000001
 73
     0
 77
     3
 78
     1
 79
     2
140
3.8
141
0.0
143
0.0393701
146
0.71
147
1.5
172
     1
176
   256
177
   256
178
     2
179
     1
271
     2
272
     2
275
     1
283
     0
284
     8
288
     1
289
     0
340
11
341
59
342
59
371
    -1
372
    -1
  0
DIMSTYLE
105
61
330
A
100
AcDbSymbolTableRecord
100
AcDbDimStyleTableRecord
  2
AM_JIS$6
 70
     0
  4
"
 41
2.5
 42
0.0
 43
10.0
 44
1.0
 47
0.1
 48
0.1000000001
 73
     0
 74
     0
 78
     1
 79
     2
140
3.8
141
0.0
143
0.0393701
146
0.71
147
1.5
172
     1
176
   256
177
   256
178
     2
179
     1
271
     2
272
     2
275
     1
283
     0
284
     8
340
11
341
59
342
59
371
    -1
372
    -1
  0
DIMSTYLE
105
62
330
A
100
AcDbSymbolTableRecord
100
AcDbDimStyleTableRecord
  2
AM_JIS$7
 70
     0
  4
"
 41
2.5
 42
0.0
 43
10.0
 44
1.0
 47
0.1
 48
0.1000000001
 73
     0
 74
     0
 77
     3
 78
     1
 79
     2
140
5.0
141
0.0
143
0.0393701
146
0.71
147
1.5
172
     1
176
   256
177
   256
178
     2
179
     1
271
     2
272
     2
275
     1
283
     0
284
     8
340
11
341
59
342
59
371
    -1
372
    -1
  0
DIMSTYLE
105
63
330
A
100
AcDbSymbolTableRecord
100
AcDbDimStyleTableRecord
  2
AM_JIS$SF
 70
     0
  4
"
 41
2.5
 42
1.0
 43
10.0
 44
1.0
 47
0.1
 48
0.1
 73
     0
 74
     0
 75
     1
 76
     1
 77
     3
 78
     8
 79
     2
140
3.5
141
0.0
143
0.0393701
146
0.71
147
1.5
176
   256
177
   256
178
     2
271
     2
272
     3
274
     4
340
11
341
59
342
59
343
59
344
59
371
    -1
372
    -1
  0
DIMSTYLE
105
68
330
A
100
AcDbSymbolTableRecord
100
AcDbDimStyleTableRecord
  2
AM_JIS$SH
 70
     0
  4
"
 41
2.5
 42
1.0
 43
10.0
 44
1.0
 47
0.1
 48
0.1
 73
     0
 74
     0
 75
     1
 76
     1
 77
     3
 78
     8
 79
     2
140
3.5
141
0.0
143
0.0393701
144
2.0
146
0.71
147
1.5
173
     1
176
   256
177
   256
178
     2
271
     2
272
     3
274
     4
340
11
341
59
342
59
343
64
344
59
371
    -1
372
    -1
  0
DIMSTYLE
105
65F
330
A
100
AcDbSymbolTableRecord
100
AcDbDimStyleTableRecord
  2
STANDARD
 70
     0
340
11
  0
DIMSTYLE
105
18A8
102
{ACAD_REACTORS
330
17F5A
330
17F85
330
17FB8
330
18042
330
189D3
330
189ED
102
}
330
A
100
AcDbSymbolTableRecord
100
AcDbDimStyleTableRecord
  2
AM_JIS$0
 70
     0
  4
"
 41
2.5
 42
0.0
 43
10.0
 44
1.0
 47
0.1
 48
0.1000000001
 73
     0
 74
     0
 77
     3
 78
     1
 79
     2
140
3.8
141
0.0
143
0.0393701
146
0.71
147
1.5
172
     1
176
     3
177
     3
178
     2
271
     2
272
     2
275
     1
283
     0
284
     8
289
     0
340
11
341
59
342
59
371
    13
372
    13
  0
DIMSTYLE
105
18A9
102
{ACAD_REACTORS
330
189FC
330
18A1F
102
}
330
A
100
AcDbSymbolTableRecord
100
AcDbDimStyleTableRecord
  2
AM_JIS$2
 70
     0
  4
"
 41
2.5
 42
0.0
 43
10.0
 44
1.0
 47
0.1
 48
0.1000000001
 73
     0
 74
     0
 77
     3
 78
     1
 79
     2
140
3.8
141
0.0
143
0.0393701
146
0.71
147
1.5
172
     1
176
     3
177
     3
178
     2
271
     2
272
     2
275
     1
283
     0
284
     8
289
     0
340
11
341
59
342
59
371
    13
372
    13
  0
DIMSTYLE
105
F5AE
330
A
100
AcDbSymbolTableRecord
100
AcDbDimStyleTableRecord
  2
AM_ISO
 70
     0
  4
"
 41
2.5
 42
1.0
 43
10.0
 44
1.0
 47
0.1
 48
0.1
 73
     0
 74
     0
 77
     1
 78
     8
 79
     2
140
3.5
141
0.0
143
0.0393701
146
0.71
147
1.5
172
     1
176
   256
177
   256
178
     2
271
     2
272
     3
274
     4
283
     0
284
     8
340
11
371
    -1
372
    -1
  0
DIMSTYLE
105
F5AF
330
A
100
AcDbSymbolTableRecord
100
AcDbDimStyleTableRecord
  2
AM_ISO$3
 70
     0
  4
"
 41
2.5
 42
1.0
 43
10.0
 44
1.0
 47
0.1
 48
0.1
 73
     0
 77
     1
 78
     8
 79
     2
140
3.5
141
0.0
143
0.0393701
146
0.71
147
1.5
176
   256
177
   256
178
     2
271
     2
272
     3
274
     4
283
     0
284
     8
288
     1
289
     0
340
11
371
    -1
372
    -1
  0
DIMSTYLE
105
F5B0
330
A
100
AcDbSymbolTableRecord
100
AcDbDimStyleTableRecord
  2
AM_ISO$4
 70
     0
  4
"
 41
2.5
 42
1.0
 43
10.0
 44
1.0
 47
0.1
 48
0.1
 73
     0
 77
     1
 78
     8
 79
     2
140
3.5
141
0.0
143
0.0393701
146
0.71
147
1.5
176
   256
177
   256
178
     2
271
     2
272
     3
274
     4
283
     0
284
     8
288
     1
289
     0
340
11
371
    -1
372
    -1
  0
DIMSTYLE
105
F5B1
330
A
100
AcDbSymbolTableRecord
100
AcDbDimStyleTableRecord
  2
AM_ISO$6
 70
     0
  4
"
 41
2.5
 42
1.0
 43
10.0
 44
1.0
 47
0.1
 48
0.1
 73
     0
 74
     0
 78
     8
 79
     2
140
3.5
141
0.0
143
0.0393701
146
0.71
147
1.5
172
     1
176
   256
177
   256
178
     2
271
     2
272
     3
274
     4
283
     0
284
     8
340
11
371
    -1
372
    -1
  0
DIMSTYLE
105
F5B2
330
A
100
AcDbSymbolTableRecord
100
AcDbDimStyleTableRecord
  2
AM_ISO$7
 70
     0
  4
"
 41
2.5
 42
1.0
 43
10.0
 44
1.0
 47
0.1
 48
0.1
 73
     0
 74
     0
 77
     1
 78
     8
 79
     2
140
5.0
141
0.0
143
0.0393701
146
0.71
147
1.5
172
     1
176
   256
177
   256
178
     2
271
     2
272
     3
274
     4
283
     0
284
     8
340
11
371
    -1
372
    -1
  0
DIMSTYLE
105
F5B3
330
A
100
AcDbSymbolTableRecord
100
AcDbDimStyleTableRecord
  2
AM_ISO$SF
 70
     0
  4
"
 41
2.5
 42
1.0
 43
10.0
 44
1.0
 47
0.1
 48
0.1
 73
     0
 74
     0
 75
     1
 76
     1
 77
     1
 78
     8
 79
     2
140
3.5
141
0.0
143
0.0393701
146
0.71
147
1.5
172
     1
176
   256
177
   256
178
     2
271
     2
272
     3
274
     4
283
     0
284
     8
340
11
371
    -1
372
    -1
  0
DIMSTYLE
105
F5B4
330
A
100
AcDbSymbolTableRecord
100
AcDbDimStyleTableRecord
  2
AM_ISO$SH
 70
     0
  4
"
 41
2.5
 42
1.0
 43
10.0
 44
1.0
 47
0.1
 48
0.1
 73
     0
 74
     0
 75
     1
 76
     1
 77
     1
 78
     8
 79
     2
140
3.5
141
0.0
143
0.0393701
144
2.0
146
0.71
147
1.5
172
     1
173
     1
176
   256
177
   256
178
     2
271
     2
272
     3
274
     4
283
     0
284
     8
340
11
343
64
371
    -1
372
    -1
  0
ENDTAB
  0
TABLE
  2
BLOCK_RECORD
  5
1
330
0
100
AcDbSymbolTable
 70
    12
  0
BLOCK_RECORD
  5
1F
102
{ACAD_XDICTIONARY
360
165
102
}
330
1
100
AcDbSymbolTableRecord
100
AcDbBlockTableRecord
  2
*Model_Space
340
22
  0
BLOCK_RECORD
  5
1B
330
1
100
AcDbSymbolTableRecord
100
AcDbBlockTableRecord
  2
*Paper_Space
340
1E
  0
BLOCK_RECORD
  5
23
330
1
100
AcDbSymbolTableRecord
100
AcDbBlockTableRecord
  2
*Paper_Space0
340
26
  0
BLOCK_RECORD
  5
59
330
1
100
AcDbSymbolTableRecord
100
AcDbBlockTableRecord
  2
_Open30
340
0
102
{BLKREFS
331
18AC2
331
18AC3
331
18ACB
331
18ACC
331
18AD4
331
18AD5
331
18ADD
331
18ADE
331
18AE6
331
18AE7
331
18AEF
331
18AF0
331
18B40
331
18B41
331
18B02
331
18B03
102
}
  0
BLOCK_RECORD
  5
64
330
1
100
AcDbSymbolTableRecord
100
AcDbBlockTableRecord
  2
GENAXEH
340
0
  0
BLOCK_RECORD
  5
ED9B
330
1
100
AcDbSymbolTableRecord
100
AcDbBlockTableRecord
  2
*U3
340
0
  0
BLOCK_RECORD
  5
17F5B
330
1
100
AcDbSymbolTableRecord
100
AcDbBlockTableRecord
  2
*D4
340
0
  0
BLOCK_RECORD
  5
17F86
330
1
100
AcDbSymbolTableRecord
100
AcDbBlockTableRecord
  2
*D5
340
0
  0
BLOCK_RECORD
  5
17FB9
330
1
100
AcDbSymbolTableRecord
100
AcDbBlockTableRecord
  2
*D6
340
0
  0
BLOCK_RECORD
  5
18043
330
1
100
AcDbSymbolTableRecord
100
AcDbBlockTableRecord
  2
*D7
340
0
  0
BLOCK_RECORD
  5
189D4
330
1
100
AcDbSymbolTableRecord
100
AcDbBlockTableRecord
  2
*D8
340
0
  0
BLOCK_RECORD
  5
189EE
330
1
100
AcDbSymbolTableRecord
100
AcDbBlockTableRecord
  2
*D9
340
0
  0
BLOCK_RECORD
  5
189FD
330
1
100
AcDbSymbolTableRecord
100
AcDbBlockTableRecord
  2
*D10
340
0
  0
BLOCK_RECORD
  5
18A20
330
1
100
AcDbSymbolTableRecord
100
AcDbBlockTableRecord
  2
*D11
340
0
  0
ENDTAB
  0
ENDSEC
  0
SECTION
  2
BLOCKS
  0
BLOCK
  5
20
330
1F
100
AcDbEntity
  8
0
100
AcDbBlockBegin
  2
*Model_Space
 70
     0
 71
     0
 10
0.0
 20
0.0
 30
0.0
  3
*Model_Space
  1

  0
ENDBLK
  5
21
330
1F
100
AcDbEntity
  8
0
100
AcDbBlockEnd
  0
BLOCK
  5
1C
330
1B
100
AcDbEntity
 67
     1
  8
0
100
AcDbBlockBegin
  2
*Paper_Space
 70
     0
 71
     0
 10
0.0
 20
0.0
 30
0.0
  3
*Paper_Space
  1

  0
ENDBLK
  5
1D
330
1B
100
AcDbEntity
 67
     1
  8
0
100
AcDbBlockEnd
  0
BLOCK
  5
24
330
23
100
AcDbEntity
  8
0
100
AcDbBlockBegin
  2
*Paper_Space0
 70
     0
 71
     0
 10
0.0
 20
0.0
 30
0.0
  3
*Paper_Space0
  1

  0
ENDBLK
  5
25
330
23
100
AcDbEntity
  8
0
100
AcDbBlockEnd
  0
BLOCK
  5
5D
330
59
100
AcDbEntity
  8
0
100
AcDbBlockBegin
  2
_Open30
 70
     0
 71
     0
 10
0.0
 20
0.0
 30
0.0
  3
_Open30
  1

  0
LINE
  5
5A
330
59
100
AcDbEntity
  8
0
 62
     0
370
    -2
100
AcDbLine
 10
-1.0
 20
0.26794919
 30
0.0
 11
0.0
 21
0.0
 31
0.0
  0
LINE
  5
5B
330
59
100
AcDbEntity
  8
0
 62
     0
370
    -2
100
AcDbLine
 10
0.0
 20
0.0
 30
0.0
 11
-1.0
 21
-0.26794919
 31
0.0
  0
LINE
  5
5C
330
59
100
AcDbEntity
  8
0
 62
     0
370
    -2
100
AcDbLine
 10
0.0
 20
0.0
 30
0.0
 11
-1.0
 21
0.0
 31
0.0
  0
ENDBLK
  5
5E
330
59
100
AcDbEntity
  8
0
100
AcDbBlockEnd
  0
BLOCK
  5
66
330
64
100
AcDbEntity
  8
0
100
AcDbBlockBegin
  2
GENAXEH
 70
     0
 71
     0
 10
0.0
 20
0.0
 30
0.0
  3
GENAXEH
  1

  0
LINE
  5
65
330
64
100
AcDbEntity
  8
0
100
AcDbLine
 10
-1.0
 20
0.0
 30
0.0
 11
1.0
 21
0.0
 31
0.0
  0
ENDBLK
  5
67
330
64
100
AcDbEntity
  8
0
100
AcDbBlockEnd
  0
BLOCK
  5
ED9C
330
ED9B
100
AcDbEntity
  8
0
100
AcDbBlockBegin
  2
*U3
 70
     1
 71
     0
 10
0.0
 20
0.0
 30
0.0
  3
*U3
  1

  0
ENDBLK
  5
ED9D
330
ED9B
100
AcDbEntity
  8
0
100
AcDbBlockEnd
  0
BLOCK
  5
17FA5
330
17F5B
100
AcDbEntity
  8
0
100
AcDbBlockBegin
  2
*D4
 70
     1
 71
     0
 10
0.0
 20
0.0
 30
0.0
  3
*D4
  1

  0
LINE
  5
18ABF
330
17F5B
100
AcDbEntity
  8
AM_5
 62
     3
370
    13
100
AcDbLine
 10
149.9999999999999
 20
32.0
 30
0.0
 11
162.9999999999999
 21
32.0
 31
0.0
  0
LINE
  5
18AC0
330
17F5B
100
AcDbEntity
  8
AM_5
 62
     3
370
    13
100
AcDbLine
 10
149.9999999999999
 20
7.0
 30
0.0
 11
162.9999999999999
 21
6.999999999999996
 31
0.0
  0
LINE
  5
18AC1
330
17F5B
100
AcDbEntity
  8
AM_5
 62
     3
370
    13
100
AcDbLine
 10
161.9999999999999
 20
29.5
 30
0.0
 11
161.9999999999999
 21
9.499999999999996
 31
0.0
  0
INSERT
  5
18AC2
330
17F5B
100
AcDbEntity
  8
AM_5
 62
     3
370
    13
100
AcDbBlockReference
  2
_Open30
 10
161.9999999999999
 20
32.0
 30
0.0
 41
2.5
 42
2.5
 43
2.5
 50
90.0
  0
INSERT
  5
18AC3
330
17F5B
100
AcDbEntity
  8
AM_5
 62
     3
370
    13
100
AcDbBlockReference
  2
_Open30
 10
161.9999999999999
 20
6.999999999999996
 30
0.0
 41
2.5
 42
2.5
 43
2.5
 50
270.0
  0
MTEXT
  5
18AC4
330
17F5B
100
AcDbEntity
  8
AM_5
 62
     2
370
    13
100
AcDbMText
 10
158.5996259842519
 20
19.50000000000003
 30
0.0
 40
3.8
 41
0.0
 71
     5
 72
     1
  1
25
 11
6.123031769111886E-17
 21
1.0
 31
0.0
 73
     1
 44
1.0
  0
POINT
  5
18AC5
330
17F5B
100
AcDbEntity
  8
Defpoints
 62
     0
100
AcDbPoint
 10
149.9999999999999
 20
32.0
 30
0.0
  0
POINT
  5
18AC6
330
17F5B
100
AcDbEntity
  8
Defpoints
 62
     0
100
AcDbPoint
 10
149.9999999999999
 20
7.0
 30
0.0
  0
POINT
  5
18AC7
330
17F5B
100
AcDbEntity
  8
Defpoints
 62
     0
100
AcDbPoint
 10
161.9999999999999
 20
6.999999999999996
 30
0.0
  0
ENDBLK
  5
17FA6
330
17F5B
100
AcDbEntity
  8
0
100
AcDbBlockEnd
  0
BLOCK
  5
17FA7
330
17F86
100
AcDbEntity
  8
0
100
AcDbBlockBegin
  2
*D5
 70
     1
 71
     0
 10
0.0
 20
0.0
 30
0.0
  3
*D5
  1

  0
LINE
  5
18AC8
330
17F86
100
AcDbEntity
  8
AM_5
 62
     3
370
    13
100
AcDbLine
 10
149.9999999999999
 20
-74.43904054238561
 30
0.0
 11
162.9999999999999
 21
-74.43904054238563
 31
0.0
  0
LINE
  5
18AC9
330
17F86
100
AcDbEntity
  8
AM_5
 62
     3
370
    13
100
AcDbLine
 10
149.9999999999999
 20
-99.43904054238561
 30
0.0
 11
162.9999999999999
 21
-99.43904054238563
 31
0.0
  0
LINE
  5
18ACA
330
17F86
100
AcDbEntity
  8
AM_5
 62
     3
370
    13
100
AcDbLine
 10
161.9999999999999
 20
-76.93904054238563
 30
0.0
 11
161.9999999999999
 21
-96.93904054238563
 31
0.0
  0
INSERT
  5
18ACB
330
17F86
100
AcDbEntity
  8
AM_5
 62
     3
370
    13
100
AcDbBlockReference
  2
_Open30
 10
161.9999999999999
 20
-74.43904054238563
 30
0.0
 41
2.5
 42
2.5
 43
2.5
 50
90.0
  0
INSERT
  5
18ACC
330
17F86
100
AcDbEntity
  8
AM_5
 62
     3
370
    13
100
AcDbBlockReference
  2
_Open30
 10
161.9999999999999
 20
-99.43904054238563
 30
0.0
 41
2.5
 42
2.5
 43
2.5
 50
270.0
  0
MTEXT
  5
18ACD
330
17F86
100
AcDbEntity
  8
AM_5
 62
     2
370
    13
100
AcDbMText
 10
158.5996259842519
 20
-86.9390405423856
 30
0.0
 40
3.8
 41
0.0
 71
     5
 72
     1
  1
25
 11
6.123031769111886E-17
 21
1.0
 31
0.0
 73
     1
 44
1.0
  0
POINT
  5
18ACE
330
17F86
100
AcDbEntity
  8
Defpoints
 62
     0
100
AcDbPoint
 10
149.9999999999999
 20
-74.43904054238561
 30
0.0
  0
POINT
  5
18ACF
330
17F86
100
AcDbEntity
  8
Defpoints
 62
     0
100
AcDbPoint
 10
149.9999999999999
 20
-99.43904054238561
 30
0.0
  0
POINT
  5
18AD0
330
17F86
100
AcDbEntity
  8
Defpoints
 62
     0
100
AcDbPoint
 10
161.9999999999999
 20
-99.43904054238563
 30
0.0
  0
ENDBLK
  5
17FA8
330
17F86
100
AcDbEntity
  8
0
100
AcDbBlockEnd
  0
BLOCK
  5
17FD8
330
17FB9
100
AcDbEntity
  8
0
100
AcDbBlockBegin
  2
*D6
 70
     1
 71
     0
 10
0.0
 20
0.0
 30
0.0
  3
*D6
  1

  0
LINE
  5
18AD1
330
17FB9
100
AcDbEntity
  8
AM_5
 62
     3
370
    13
100
AcDbLine
 10
0.0
 20
-4.326885876307699
 30
0.0
 11
-0.0000000000000021
 21
-39.17844771761168
 31
0.0
  0
LINE
  5
18AD2
330
17FB9
100
AcDbEntity
  8
AM_5
 62
     3
370
    13
100
AcDbLine
 10
149.9999999999999
 20
7.0
 30
0.0
 11
149.9999999999999
 21
-39.17844771761168
 31
0.0
  0
LINE
  5
18AD3
330
17FB9
100
AcDbEntity
  8
AM_5
 62
     3
370
    13
100
AcDbLine
 10
2.499999999999998
 20
-38.17844771761168
 30
0.0
 11
147.4999999999999
 21
-38.17844771761168
 31
0.0
  0
INSERT
  5
18AD4
330
17FB9
100
AcDbEntity
  8
AM_5
 62
     3
370
    13
100
AcDbBlockReference
  2
_Open30
 10
-0.0000000000000021
 20
-38.17844771761168
 30
0.0
 41
2.5
 42
2.5
 43
2.5
 50
180.0
  0
INSERT
  5
18AD5
330
17FB9
100
AcDbEntity
  8
AM_5
 62
     3
370
    13
100
AcDbBlockReference
  2
_Open30
 10
149.9999999999999
 20
-38.17844771761168
 30
0.0
 41
2.5
 42
2.5
 43
2.5
  0
MTEXT
  5
18AD6
330
17FB9
100
AcDbEntity
  8
AM_5
 62
     2
370
    13
100
AcDbMText
 10
70.95909056104654
 20
-34.77844771761168
 30
0.0
 40
3.8
 41
0.0
 71
     5
 72
     1
  1
150
 73
     1
 44
1.0
  0
POINT
  5
18AD7
330
17FB9
100
AcDbEntity
  8
Defpoints
 62
     0
100
AcDbPoint
 10
0.0
 20
-4.326885876307699
 30
0.0
  0
POINT
  5
18AD8
330
17FB9
100
AcDbEntity
  8
Defpoints
 62
     0
100
AcDbPoint
 10
149.9999999999999
 20
7.0
 30
0.0
  0
POINT
  5
18AD9
330
17FB9
100
AcDbEntity
  8
Defpoints
 62
     0
100
AcDbPoint
 10
149.9999999999999
 20
-38.17844771761168
 30
0.0
  0
ENDBLK
  5
17FD9
330
17FB9
100
AcDbEntity
  8
0
100
AcDbBlockEnd
  0
BLOCK
  5
18062
330
18043
100
AcDbEntity
  8
0
100
AcDbBlockBegin
  2
*D7
 70
     1
 71
     0
 10
0.0
 20
0.0
 30
0.0
  3
*D7
  1

  0
LINE
  5
18ADA
330
18043
100
AcDbEntity
  8
AM_5
 62
     3
370
    13
100
AcDbLine
 10
0.0
 20
-74.43904054238561
 30
0.0
 11
-16.80770080275575
 21
-74.43904054238561
 31
0.0
  0
LINE
  5
18ADB
330
18043
100
AcDbEntity
  8
AM_5
 62
     3
370
    13
100
AcDbLine
 10
1.436510506405739
 20
-99.43904054238561
 30
0.0
 11
-16.80770080275576
 21
-99.43904054238561
 31
0.0
  0
LINE
  5
18ADC
330
18043
100
AcDbEntity
  8
AM_5
 62
     3
370
    13
100
AcDbLine
 10
-15.80770080275576
 20
-76.93904054238561
 30
0.0
 11
-15.80770080275576
 21
-96.93904054238561
 31
0.0
  0
INSERT
  5
18ADD
330
18043
100
AcDbEntity
  8
AM_5
 62
     3
370
    13
100
AcDbBlockReference
  2
_Open30
 10
-15.80770080275576
 20
-74.43904054238561
 30
0.0
 41
2.5
 42
2.5
 43
2.5
 50
90.0
  0
INSERT
  5
18ADE
330
18043
100
AcDbEntity
  8
AM_5
 62
     3
370
    13
100
AcDbBlockReference
  2
_Open30
 10
-15.80770080275576
 20
-99.43904054238561
 30
0.0
 41
2.5
 42
2.5
 43
2.5
 50
270.0
  0
MTEXT
  5
18ADF
330
18043
100
AcDbEntity
  8
AM_5
 62
     2
370
    13
100
AcDbMText
 10
-19.20807481850378
 20
-86.93904054238561
 30
0.0
 40
3.8
 41
0.0
 71
     5
 72
     1
  1
25
 11
6.123031769111886E-17
 21
1.0
 31
0.0
 73
     1
 44
1.0
  0
POINT
  5
18AE0
330
18043
100
AcDbEntity
  8
Defpoints
 62
     0
100
AcDbPoint
 10
0.0
 20
-74.43904054238561
 30
0.0
  0
POINT
  5
18AE1
330
18043
100
AcDbEntity
  8
Defpoints
 62
     0
100
AcDbPoint
 10
1.436510506405739
 20
-99.43904054238561
 30
0.0
  0
POINT
  5
18AE2
330
18043
100
AcDbEntity
  8
Defpoints
 62
     0
100
AcDbPoint
 10
-15.80770080275576
 20
-99.43904054238561
 30
0.0
  0
ENDBLK
  5
18063
330
18043
100
AcDbEntity
  8
0
100
AcDbBlockEnd
  0
BLOCK
  5
189DE
330
189D4
100
AcDbEntity
  8
0
100
AcDbBlockBegin
  2
*D8
 70
     1
 71
     0
 10
0.0
 20
0.0
 30
0.0
  3
*D8
  1

  0
LINE
  5
18AE3
330
189D4
100
AcDbEntity
  8
AM_5
 62
     3
370
    13
100
AcDbLine
 10
-4.03575476189593
 20
0.0
 30
0.0
 11
-16.00193637119639
 21
0.0000000000000034
 31
0.0
  0
LINE
  5
18AE4
330
189D4
100
AcDbEntity
  8
AM_5
 62
     3
370
    13
100
AcDbLine
 10
21.10884689066666
 20
32.0
 30
0.0
 11
-16.00193637119639
 21
32.00000000000001
 31
0.0
  0
LINE
  5
18AE5
330
189D4
100
AcDbEntity
  8
AM_5
 62
     3
370
    13
100
AcDbLine
 10
-15.0019363711964
 20
2.500000000000003
 30
0.0
 11
-15.00193637119639
 21
29.50000000000001
 31
0.0
  0
INSERT
  5
18AE6
330
189D4
100
AcDbEntity
  8
AM_5
 62
     3
370
    13
100
AcDbBlockReference
  2
_Open30
 10
-15.0019363711964
 20
0.0000000000000031
 30
0.0
 41
2.5
 42
2.5
 43
2.5
 50
270.0
  0
INSERT
  5
18AE7
330
189D4
100
AcDbEntity
  8
AM_5
 62
     3
370
    13
100
AcDbBlockReference
  2
_Open30
 10
-15.00193637119639
 20
32.00000000000001
 30
0.0
 41
2.5
 42
2.5
 43
2.5
 50
90.0
  0
MTEXT
  5
18AE8
330
189D4
100
AcDbEntity
  8
AM_5
 62
     2
370
    13
100
AcDbMText
 10
-18.40231038694443
 20
16.53830248156544
 30
0.0
 40
3.8
 41
0.0
 71
     5
 72
     1
  1
32
 11
6.123031769111886E-17
 21
1.0
 31
0.0
 73
     1
 44
1.0
  0
POINT
  5
18AE9
330
189D4
100
AcDbEntity
  8
Defpoints
 62
     0
100
AcDbPoint
 10
-4.03575476189593
 20
0.0
 30
0.0
  0
POINT
  5
18AEA
330
189D4
100
AcDbEntity
  8
Defpoints
 62
     0
100
AcDbPoint
 10
21.10884689066666
 20
32.0
 30
0.0
  0
POINT
  5
18AEB
330
189D4
100
AcDbEntity
  8
Defpoints
 62
     0
100
AcDbPoint
 10
-15.00193637119639
 20
32.00000000000001
 30
0.0
  0
ENDBLK
  5
189DF
330
189D4
100
AcDbEntity
  8
0
100
AcDbBlockEnd
  0
BLOCK
  5
189F8
330
189EE
100
AcDbEntity
  8
0
100
AcDbBlockBegin
  2
*D9
 70
     1
 71
     0
 10
0.0
 20
0.0
 30
0.0
  3
*D9
  1

  0
LINE
  5
18AEC
330
189EE
100
AcDbEntity
  8
AM_5
 62
     3
370
    13
100
AcDbLine
 10
0.0
 20
0.0
 30
0.0
 11
-0.0000000000000016
 21
-26.64267928689833
 31
0.0
  0
LINE
  5
18AED
330
189EE
100
AcDbEntity
  8
AM_5
 62
     3
370
    13
100
AcDbLine
 10
34.99999999999994
 20
7.0
 30
0.0
 11
34.99999999999994
 21
-26.64267928689833
 31
0.0
  0
LINE
  5
18AEE
330
189EE
100
AcDbEntity
  8
AM_5
 62
     3
370
    13
100
AcDbLine
 10
2.499999999999998
 20
-25.64267928689833
 30
0.0
 11
32.49999999999994
 21
-25.64267928689833
 31
0.0
  0
INSERT
  5
18AEF
330
189EE
100
AcDbEntity
  8
AM_5
 62
     3
370
    13
100
AcDbBlockReference
  2
_Open30
 10
-0.0000000000000016
 20
-25.64267928689833
 30
0.0
 41
2.5
 42
2.5
 43
2.5
 50
180.0
  0
INSERT
  5
18AF0
330
189EE
100
AcDbEntity
  8
AM_5
 62
     3
370
    13
100
AcDbBlockReference
  2
_Open30
 10
34.99999999999994
 20
-25.64267928689833
 30
0.0
 41
2.5
 42
2.5
 43
2.5
  0
MTEXT
  5
18AF1
330
189EE
100
AcDbEntity
  8
AM_5
 62
     2
370
    13
100
AcDbMText
 10
17.14538950218287
 20
-22.24267928689833
 30
0.0
 40
3.8
 41
0.0
 71
     5
 72
     1
  1
35
 73
     1
 44
1.0
  0
POINT
  5
18AF2
330
189EE
100
AcDbEntity
  8
Defpoints
 62
     0
100
AcDbPoint
 10
0.0
 20
0.0
 30
0.0
  0
POINT
  5
18AF3
330
189EE
100
AcDbEntity
  8
Defpoints
 62
     0
100
AcDbPoint
 10
34.99999999999994
 20
7.0
 30
0.0
  0
POINT
  5
18AF4
330
189EE
100
AcDbEntity
  8
Defpoints
 62
     0
100
AcDbPoint
 10
34.99999999999994
 20
-25.64267928689833
 30
0.0
  0
ENDBLK
  5
189F9
330
189EE
100
AcDbEntity
  8
0
100
AcDbBlockEnd
  0
BLOCK
  5
18A08
330
189FD
100
AcDbEntity
  8
0
100
AcDbBlockBegin
  2
*D10
 70
     1
 71
     0
 10
0.0
 20
0.0
 30
0.0
  3
*D10
  1

  0
LINE
  5
18B3E
330
189FD
100
AcDbEntity
  8
AM_5
 62
     3
370
    13
100
AcDbLine
 10
14.26745199929655
 20
4.205490099981375
 30
0.0
 11
17.58557378617884
 21
5.251689880738258
 31
0.0
  0
ARC
  5
18B3F
330
189FD
100
AcDbEntity
  8
AM_5
 62
     3
370
    13
100
AcDbCircle
 10
0.0000000000000003
 20
-0.2930202357855901
 30
0.0
 40
17.43898629712117
100
AcDbArc
 50
278.2207983213001
 51
9.279201678698898
  0
INSERT
  5
18B40
330
189FD
100
AcDbEntity
  8
AM_5
 62
     3
370
    13
100
AcDbBlockReference
  2
_Open30
 10
-0.0000000000000266
 20
-17.73200653290676
 30
0.0
 41
2.5
 42
2.5
 43
2.5
 50
184.11039916065
  0
INSERT
  5
18B41
330
189FD
100
AcDbEntity
  8
AM_5
 62
     3
370
    13
100
AcDbBlockReference
  2
_Open30
 10
16.63185683543061
 20
4.950984081234005
 30
0.0
 41
2.5
 42
2.5
 43
2.5
 50
103.3896008393489
  0
MTEXT
  5
18B42
330
189FD
100
AcDbEntity
  8
AM_5
 62
     2
370
    13
100
AcDbMText
 10
11.32166474869841
 20
-8.59440828651757
 30
0.0
 40
3.8
 41
0.0
 71
     5
 72
     1
  1
107°30'
 11
0.59130964836359
 21
0.8064446042674769
 31
0.0
 73
     1
 44
1.0
  0
POINT
  5
18B43
330
189FD
100
AcDbEntity
  8
Defpoints
 62
     0
100
AcDbPoint
 10
10.2092958734453
 20
-14.43121392662293
 30
0.0
  0
POINT
  5
18B44
330
189FD
100
AcDbEntity
  8
Defpoints
 62
     0
100
AcDbPoint
 10
-0.0000000000000284
 20
-21.06324702243705
 30
0.0
  0
POINT
  5
18B45
330
189FD
100
AcDbEntity
  8
Defpoints
 62
     0
100
AcDbPoint
 10
14.26745199929655
 20
4.205490099981375
 30
0.0
  0
POINT
  5
18B46
330
189FD
100
AcDbEntity
  8
Defpoints
 62
     0
100
AcDbPoint
 10
1.046127995188613
 20
0.0368226541097557
 30
0.0
  0
POINT
  5
18B47
330
189FD
100
AcDbEntity
  8
Defpoints
 62
     0
100
AcDbPoint
 10
0.0
 20
0.5517504792624662
 30
0.0
  0
ENDBLK
  5
18A09
330
189FD
100
AcDbEntity
  8
0
100
AcDbBlockEnd
  0
BLOCK
  5
18A2C
330
18A20
100
AcDbEntity
  8
0
100
AcDbBlockBegin
  2
*D11
 70
     1
 71
     0
 10
0.0
 20
0.0
 30
0.0
  3
*D11
  1

  0
LINE
  5
18AFF
330
18A20
100
AcDbEntity
  8
AM_5
 62
     3
370
    13
100
AcDbLine
 10
-0.4086057813221177
 20
-0.4218531437653997
 30
0.0
 11
-23.92629543610378
 21
-7.836952209149409
 31
0.0
  0
LINE
  5
18B00
330
18A20
100
AcDbEntity
  8
AM_5
 62
     3
370
    13
100
AcDbLine
 10
-0.4086057813221177
 20
-0.4218531437653997
 30
0.0
 11
-7.597783834703566
 21
-24.00958596752067
 31
0.0
  0
ARC
  5
18B01
330
18A20
100
AcDbEntity
  8
AM_5
 62
     3
370
    13
100
AcDbCircle
 10
-0.4086057813221177
 20
-0.4218531437653997
 30
0.0
 40
23.65898255906118
100
AcDbArc
 50
203.55715706221
 51
246.9924281261442
  0
INSERT
  5
18B02
330
18A20
100
AcDbEntity
  8
AM_5
 62
     3
370
    13
100
AcDbBlockReference
  2
_Open30
 10
-22.97257848535555
 20
-7.536246409645152
 30
0.0
 41
2.5
 42
2.5
 43
2.5
 50
110.5285785311045
  0
INSERT
  5
18B03
330
18A20
100
AcDbEntity
  8
AM_5
 62
     3
370
    13
100
AcDbBlockReference
  2
_Open30
 10
-7.306239849214202
 20
-23.05302854398303
 30
0.0
 41
2.5
 42
2.5
 43
2.5
 50
340.0210066572497
  0
MTEXT
  5
18B04
330
18A20
100
AcDbEntity
  8
AM_5
 62
     2
370
    13
100
AcDbMText
 10
-13.89545667072575
 20
-15.53910247740204
 30
0.0
 40
3.8
 41
0.0
 71
     5
 72
     1
  1
55%%D
 11
0.7461998296096657
 21
-0.6657220247900064
 31
0.0
 73
     1
 44
1.0
  0
POINT
  5
18B05
330
18A20
100
AcDbEntity
  8
Defpoints
 62
     0
100
AcDbPoint
 10
-19.54511229676616
 20
-14.33377515743155
 30
0.0
  0
POINT
  5
18B06
330
18A20
100
AcDbEntity
  8
Defpoints
 62
     0
100
AcDbPoint
 10
0.0340279189386479
 20
1.030430466824867
 30
0.0
  0
POINT
  5
18B07
330
18A20
100
AcDbEntity
  8
Defpoints
 62
     0
100
AcDbPoint
 10
14.26745199929655
 20
4.205490099981375
 30
0.0
  0
POINT
  5
18B08
330
18A20
100
AcDbEntity
  8
Defpoints
 62
     0
100
AcDbPoint
 10
1.046127995188612
 20
0.0368226541097555
 30
0.0
  0
POINT
  5
18B09
330
18A20
100
AcDbEntity
  8
Defpoints
 62
     0
100
AcDbPoint
 10
4.056897024461021
 20
14.22948617825898
 30
0.0
  0
ENDBLK
  5
18A2D
330
18A20
100
AcDbEntity
  8
0
100
AcDbBlockEnd
  0
ENDSEC
  0
SECTION
  2
ENTITIES
  0
TEXT
  5
17604
330
1F
100
AcDbEntity
  8
AM_6
100
AcDbText
 10
217.362835492669
 20
-5.649660075781441
 30
0.0
 40
3.0
  1

 41
0.8947931617610168
100
AcDbText
  0
LINE
  5
17F49
330
1F
100
AcDbEntity
  8
AM_5
100
AcDbLine
 10
0.8064137379165572
 20
0.0
 30
0.0
 11
-4.03575476189593
 21
0.0
 31
0.0
  0
LINE
  5
17F4A
330
1F
100
AcDbEntity
  8
AM_5
100
AcDbLine
 10
-0.0000000000000284
 20
-21.06324702243705
 30
0.0
 11
0.0
 21
0.5517504792624663
 31
0.0
  0
DIMENSION
  5
17F5A
330
1F
100
AcDbEntity
  8
AM_5
370
    13
100
AcDbDimension
  2
*D4
 10
161.9999999999999
 20
6.999999999999996
 30
0.0
 11
158.5996259842519
 21
19.50000000000003
 31
0.0
 70
    32
 71
     5
 42
25.0
  3
AM_JIS$0
100
AcDbAlignedDimension
 13
149.9999999999999
 23
32.0
 33
0.0
 14
149.9999999999999
 24
7.0
 34
0.0
 50
90.0
100
AcDbRotatedDimension
1001
ACAD
1000
DSTYLE
1002
{
1070
   179
1070
     1
1070
   271
1070
     0
1002
}
  0
DIMENSION
  5
17F85
330
1F
100
AcDbEntity
  8
AM_5
370
    13
100
AcDbDimension
  2
*D5
 10
161.9999999999999
 20
-99.43904054238563
 30
0.0
 11
158.5996259842519
 21
-86.9390405423856
 31
0.0
 70
    32
 71
     5
 42
25.0
  3
AM_JIS$0
100
AcDbAlignedDimension
 13
149.9999999999999
 23
-74.43904054238561
 33
0.0
 14
149.9999999999999
 24
-99.43904054238561
 34
0.0
 50
90.0
100
AcDbRotatedDimension
1001
ACAD
1000
DSTYLE
1002
{
1070
   179
1070
     1
1070
   271
1070
     0
1002
}
  0
DIMENSION
  5
17FB8
330
1F
100
AcDbEntity
  8
AM_5
370
    13
100
AcDbDimension
  2
*D6
 10
149.9999999999999
 20
-38.17844771761168
 30
0.0
 11
70.95909056104654
 21
-38.17844771761168
 31
0.0
 70
   160
 71
     5
 42
149.9999999999999
  3
AM_JIS$0
100
AcDbAlignedDimension
 13
0.0
 23
-4.326885876307699
 33
0.0
 14
149.9999999999999
 24
7.0
 34
0.0
100
AcDbRotatedDimension
1001
ACAD
1000
DSTYLE
1002
{
1070
   179
1070
     1
1070
   271
1070
     0
1002
}
  0
DIMENSION
  5
18042
330
1F
100
AcDbEntity
  8
AM_5
370
    13
100
AcDbDimension
  2
*D7
 10
-15.80770080275576
 20
-99.43904054238561
 30
0.0
 11
-19.20807481850378
 21
-86.93904054238561
 31
0.0
 70
    32
 71
     5
 42
25.0
  3
AM_JIS$0
100
AcDbAlignedDimension
 13
0.0
 23
-74.43904054238561
 33
0.0
 14
1.436510506405739
 24
-99.43904054238561
 34
0.0
 50
90.0
100
AcDbRotatedDimension
1001
ACAD
1000
DSTYLE
1002
{
1070
   179
1070
     1
1070
   271
1070
     0
1002
}
  0
ARC
  5
186A6
330
1F
100
AcDbEntity
  8
AM_0
100
AcDbCircle
 10
-63.88057675379764
 20
19.4997269883005
 30
0.0
 40
11.23895330483851
100
AcDbArc
 50
335.1733333840954
 51
9.121899027948468
  0
LINE
  5
186A7
330
1F
100
AcDbEntity
  8
AM_0
100
AcDbLine
 10
-54.02821984598259
 20
22.43117206727706
 30
0.0
 11
-54.20967046116866
 21
22.45619673867191
 31
0.0
  0
LINE
  5
186A8
330
1F
100
AcDbEntity
  8
AM_0
100
AcDbLine
 10
-55.18950111950898
 20
14.01087362816236
 30
0.0
 11
-55.43779733094385
 21
14.04511727673511
 31
0.0
  0
LINE
  5
186A9
330
1F
100
AcDbEntity
  8
AM_0
100
AcDbLine
 10
-52.78375928816581
 20
21.28149956716337
 30
0.0
 11
-53.3443118752669
 21
22.02691275805057
 31
0.0
  0
LINE
  5
186AA
330
1F
100
AcDbEntity
  8
AM_0
100
AcDbLine
 10
-53.680303251547
 20
14.78077669531976
 30
0.0
 11
-54.4216988299541
 21
14.21492103848428
 31
0.0
  0
ARC
  5
186AB
330
1F
100
AcDbEntity
  8
AM_0
100
AcDbCircle
 10
-55.05033477599943
 20
15.03380066873353
 30
0.0
 40
1.032350231993734
100
AcDbArc
 50
262.2526351099563
 51
307.5126592773426
  0
ARC
  5
186AC
330
1F
100
AcDbEntity
  8
AM_0
100
AcDbCircle
 10
-54.17113514442582
 20
21.40876206196197
 30
0.0
 40
1.032350231993726
100
AcDbArc
 50
36.78257313470012
 51
82.04259730208641
  0
ELLIPSE
  5
186AE
330
1F
100
AcDbEntity
  8
AM_0
100
AcDbEllipse
 10
-53.25521799433344
 20
18.03433591682176
 30
0.0
 11
0.4498794389093825
 21
3.262016897711322
 31
0.0
210
0.0
220
0.0
230
1.0
 40
0.0841598296156549
 41
6.198625100434144
 42
9.50933816751478
  0
ELLIPSE
  5
186AF
330
1F
100
AcDbEntity
  8
AM_0
100
AcDbEllipse
 10
-53.91086909994897
 20
18.12475971313063
 30
0.0
 11
0.5406251767454243
 21
3.920002359180613
 31
0.0
210
0.0
220
0.0
230
1.0
 40
0.0841598296156548
 41
6.198625100434157
 42
9.509338167514796
  0
ELLIPSE
  5
186B0
330
1F
100
AcDbEntity
  8
AM_0
100
AcDbEllipse
 10
-54.6088604827458
 20
18.2210228477197
 30
0.0
 11
0.580640636763142
 21
4.210149219557342
 31
0.0
210
0.0
220
0.0
230
1.0
 40
0.0841598296156549
 41
-0.0000000000000426
 42
3.141592653589765
  0
LINE
  5
1875B
330
1F
100
AcDbEntity
  8
AM_0
100
AcDbLine
 10
22.701725891384
 20
27.11875708752291
 30
0.0
 11
23.83209774722525
 21
28.03897857793712
 31
0.0
  0
LINE
  5
18760
330
1F
100
AcDbEntity
  8
AM_0
100
AcDbLine
 10
149.9999999999999
 20
32.0
 30
0.0
 11
149.9999999999999
 21
7.0
 31
0.0
  0
LINE
  5
18761
330
1F
100
AcDbEntity
  8
AM_0
100
AcDbLine
 10
149.9999999999999
 20
7.0
 30
0.0
 11
34.99999999999994
 21
7.0
 31
0.0
  0
LINE
  5
18762
330
1F
100
AcDbEntity
  8
AM_0
100
AcDbLine
 10
34.99999999999994
 20
32.0
 30
0.0
 11
149.9999999999999
 21
32.0
 31
0.0
  0
LINE
  5
18763
330
1F
100
AcDbEntity
  8
AM_0
100
AcDbLine
 10
23.11806539532734
 20
32.0
 30
0.0
 11
33.25833024919751
 21
32.0
 31
0.0
  0
LINE
  5
18764
330
1F
100
AcDbEntity
  8
AM_0
100
AcDbLine
 10
33.93506722057833
 20
7.0
 30
0.0
 11
18.38847764170853
 21
7.0
 31
0.0
  0
LINE
  5
18765
330
1F
100
AcDbEntity
  8
AM_0
100
AcDbLine
 10
18.38847764170862
 20
7.000000000000028
 30
0.0
 11
14.76782383812537
 21
5.85841224078024
 31
0.0
  0
LINE
  5
18766
330
1F
100
AcDbEntity
  8
AM_0
100
AcDbLine
 10
15.70336611821404
 20
8.927931618962617
 30
0.0
 11
14.76782383812531
 21
5.858412240780268
 31
0.0
  0
LINE
  5
1876A
330
1F
100
AcDbEntity
  8
AM_0
100
AcDbLine
 10
33.25833024919751
 20
25.73127600358211
 30
0.0
 11
33.25833024919751
 21
31.99999999999997
 31
0.0
  0
LINE
  5
1876B
330
1F
100
AcDbEntity
  8
AM_0
100
AcDbLine
 10
33.25833024919751
 20
32.0
 30
0.0
 11
34.99999999999994
 21
32.0
 31
0.0
  0
LINE
  5
1876C
330
1F
100
AcDbEntity
  8
AM_0
100
AcDbLine
 10
34.99999999999994
 20
32.0
 30
0.0
 11
34.99999999999994
 21
7.0
 31
0.0
  0
LINE
  5
1876D
330
1F
100
AcDbEntity
  8
AM_0
100
AcDbLine
 10
34.99999999999994
 20
7.0
 30
0.0
 11
33.93506722057833
 21
7.0
 31
0.0
  0
LINE
  5
1876E
330
1F
100
AcDbEntity
  8
AM_0
100
AcDbLine
 10
33.94409939984965
 20
7.0
 30
0.0
 11
33.75446128533025
 21
12.24895788775032
 31
0.0
  0
LINE
  5
18774
330
1F
100
AcDbEntity
  8
AM_0
100
AcDbLine
 10
22.7045994870121
 20
27.11489109521898
 30
0.0
 11
22.70172589138406
 21
27.11875708752291
 31
0.0
  0
LINE
  5
18775
330
1F
100
AcDbEntity
  8
AM_0
100
AcDbLine
 10
4.884798717068975
 20
14.48175448778216
 30
0.0
 11
11.49040901466424
 21
16.56449541442038
 31
0.0
  0
LINE
  5
18776
330
1F
100
AcDbEntity
  8
AM_0
100
AcDbLine
 10
4.969095656481699
 20
14.50833321068527
 30
0.0
 11
7.992179716373073
 21
24.42708867605089
 31
0.0
  0
LINE
  5
18777
330
1F
100
AcDbEntity
  8
AM_0
100
AcDbLine
 10
7.992179716373016
 20
24.42708867605091
 30
0.0
 11
21.10884689066671
 21
32.0
 31
0.0
  0
LINE
  5
18778
330
1F
100
AcDbEntity
  8
AM_0
100
AcDbLine
 10
23.11806539532734
 20
32.0
 30
0.0
 11
21.10884689066666
 21
32.0
 31
0.0
  0
LINE
  5
1877A
330
1F
100
AcDbEntity
  8
AM_0
100
AcDbLine
 10
33.75446128533025
 20
12.24895788775032
 30
0.0
 11
33.25833024919751
 21
25.73127600358214
 31
0.0
  0
LINE
  5
18781
330
1F
100
AcDbEntity
  8
AM_0
100
AcDbLine
 10
4.056897024461023
 20
14.22948617825901
 30
0.0
 11
4.591311942520406
 21
15.09395378188589
 31
0.0
  0
LINE
  5
18782
330
1F
100
AcDbEntity
  8
AM_0
100
AcDbLine
 10
5.206723778321589
 20
15.28799238837576
 30
0.0
 11
4.591311942520406
 21
15.09395378188589
 31
0.0
  0
LINE
  5
18783
330
1F
100
AcDbEntity
  8
AM_0
100
AcDbLine
 10
14.26745199929655
 20
4.205490099981375
 30
0.0
 11
1.046127995188613
 21
0.0368226541097556
 31
0.0
  0
LINE
  5
18784
330
1F
100
AcDbEntity
  8
AM_0
100
AcDbLine
 10
0.0340279189386479
 20
1.030430466824868
 30
0.0
 11
4.056897024461023
 21
14.22948617825898
 31
0.0
  0
LINE
  5
18785
330
1F
100
AcDbEntity
  8
AM_0
100
AcDbLine
 10
4.05689702446108
 20
14.22948617825901
 30
0.0
 11
4.887755210169644
 21
14.4914547579431
 31
0.0
  0
LINE
  5
18786
330
1F
100
AcDbEntity
  8
AM_0
100
AcDbLine
 10
14.80186691735594
 20
5.069957703608253
 30
0.0
 11
15.07134342103302
 21
5.954111597672096
 31
0.0
  0
LINE
  5
18787
330
1F
100
AcDbEntity
  8
AM_0
100
AcDbLine
 10
14.26745199929655
 20
4.205490099981375
 30
0.0
 11
14.80186691735594
 21
5.069957703608253
 31
0.0
  0
LINE
  5
18788
330
1F
100
AcDbEntity
  8
AM_0
100
AcDbLine
 10
14.77160013171289
 20
5.859602901574874
 30
0.0
 11
14.2674519992965
 21
4.205490099981404
 31
0.0
  0
ELLIPSE
  5
18789
330
1F
100
AcDbEntity
  8
AM_0
100
AcDbEllipse
 10
0.7971618146717105
 20
0.7925520572280504
 30
0.0
 11
-0.6804697538903606
 21
0.4206672248231281
 31
0.0
210
0.0
220
0.0
230
1.0
 40
0.9871088799708135
 41
0.2546735049953097
 42
2.436335069988227
  0
ELLIPSE
  5
1878C
330
1F
100
AcDbEntity
  8
AM_0
100
AcDbEllipse
 10
9.162174511878618
 20
9.217488139120178
 30
0.0
 11
-2.194514956296413
 21
1.356651800054588
 31
0.0
210
0.0
220
0.0
230
1.0
 40
0.9871088799708135
 41
5.515041405108382
 42
9.419682463171634
  0
LINE
  5
1878E
330
1F
100
AcDbEntity
  8
AM_0
100
AcDbLine
 10
15.15802668693254
 20
5.981442726426252
 30
0.0
 11
15.00347833808417
 21
5.731445886407983
 31
0.0
  0
LINE
  5
1878F
330
1F
100
AcDbEntity
  8
AM_0
100
AcDbLine
 10
4.811147026961351
 20
15.16326751776322
 30
0.0
 11
5.006886288878832
 21
15.47989462708858
 31
0.0
  0
LINE
  5
18790
330
1F
100
AcDbEntity
  8
AM_0
100
AcDbLine
 10
14.97397771735712
 20
5.634654187179422
 30
0.0
 11
15.1874941489383
 21
5.980037580693647
 31
0.0
  0
ELLIPSE
  5
18791
330
1F
100
AcDbEntity
  8
AM_0
100
AcDbEllipse
 10
5.687356042769238
 20
15.05922740226546
 30
0.0
 11
0.6804697538903606
 21
-0.4206672248231281
 31
0.0
210
0.0
220
0.0
230
1.0
 40
0.9871088799708135
 41
2.544437283802107
 42
3.141592653589767
  0
ELLIPSE
  5
18792
330
1F
100
AcDbEntity
  8
AM_0
100
AcDbEllipse
 10
14.50702439504801
 20
6.400704805516767
 30
0.0
 11
0.6804697538903606
 21
-0.4206672248231281
 31
0.0
210
0.0
220
0.0
230
1.0
 40
0.9871088799708135
 41
-0.0000000000000275
 42
0.0195561480724627
  0
LINE
  5
18795
330
1F
100
AcDbEntity
  8
AM_0
100
AcDbLine
 10
13.92550364577636
 20
8.582459628660644
 30
0.0
 11
20.84673392413868
 21
9.927384355220369
 31
0.0
  0
LINE
  5
18796
330
1F
100
AcDbEntity
  8
AM_0
100
AcDbLine
 10
13.61894523971586
 20
8.290746191445692
 30
0.0
 11
13.92550364577642
 21
8.582459628660644
 31
0.0
  0
LINE
  5
18797
330
1F
100
AcDbEntity
  8
AM_0
100
AcDbLine
 10
10.01738273857819
 20
7.590895114799167
 30
0.0
 11
13.61894523971586
 21
8.290746191445692
 31
0.0
  0
LINE
  5
18799
330
1F
100
AcDbEntity
  8
AM_0
100
AcDbLine
 10
24.78151755076408
 20
14.77861810044917
 30
0.0
 11
25.58046073352443
 21
15.36140450934286
 31
0.0
  0
LINE
  5
1879A
330
1F
100
AcDbEntity
  8
AM_0
100
AcDbLine
 10
22.47833612686446
 20
26.91351047046805
 30
0.0
 11
14.071618431231
 21
20.78125861309042
 31
0.0
  0
LINE
  5
1879B
330
1F
100
AcDbEntity
  8
AM_0
100
AcDbLine
 10
23.83209775061243
 20
28.0389785757144
 30
0.0
 11
22.49830742459068
 21
26.94581596813146
 31
0.0
  0
ELLIPSE
  5
1879C
330
1F
100
AcDbEntity
  8
AM_0
100
AcDbEllipse
 10
30.68021897836741
 20
18.82585766736523
 30
0.0
 11
1.173115955489801
 21
1.271882854050388
 31
0.0
210
0.0
220
0.0
230
1.0
 40
0.8615155396641846
 41
4.933546139996998
 42
4.969976891083031
  0
ELLIPSE
  5
1879E
330
1F
100
AcDbEntity
  8
AM_0
100
AcDbEllipse
 10
24.72533095423262
 20
26.83726715288626
 30
0.0
 11
1.173115955489808
 21
1.27188285405038
 31
0.0
210
0.0
220
0.0
230
1.0
 40
0.8615155396641853
 41
0.990779391356015
 42
1.409581814424626
  0
LINE
  5
187A2
330
1F
100
AcDbEntity
  8
AM_0
100
AcDbLine
 10
28.95624246487228
 20
23.79479510779154
 30
0.0
 11
25.97879845280488
 21
27.80049985055206
 31
0.0
  0
LINE
  5
187A3
330
1F
100
AcDbEntity
  8
AM_0
100
AcDbLine
 10
31.93368647693961
 20
19.789090365031
 30
0.0
 11
28.95624246487222
 21
23.79479510779152
 31
0.0
  0
LINE
  5
187A4
330
1F
100
AcDbEntity
  8
AM_0
100
AcDbLine
 10
22.49830742459068
 20
26.94581596813146
 30
0.0
 11
22.47833612686452
 21
26.91351047046805
 31
0.0
  0
LINE
  5
187A5
330
1F
100
AcDbEntity
  8
AM_0
100
AcDbLine
 10
9.602343512871244
 20
13.69448191973893
 30
0.0
 11
7.858598183696245
 21
10.49521623554591
 31
0.0
  0
LINE
  5
187A6
330
1F
100
AcDbEntity
  8
AM_0
100
AcDbLine
 10
10.01056845995544
 20
13.84941826092526
 30
0.0
 11
9.6023435128713
 21
13.69448191973893
 31
0.0
  0
LINE
  5
187A7
330
1F
100
AcDbEntity
  8
AM_0
100
AcDbLine
 10
13.36157596467757
 20
19.99754272495051
 30
0.0
 11
10.01056845995544
 21
13.84941826092523
 31
0.0
  0
ELLIPSE
  5
187A9
330
1F
100
AcDbEntity
  8
AM_0
100
AcDbEllipse
 10
21.21748406019299
 20
11.16756723046535
 30
0.0
 11
-1.35752482545676
 21
-0.9799760271493094
 31
0.0
210
0.0
220
0.0
230
1.0
 40
0.5961669768927987
 41
0.9108204887336745
 42
1.495052343986811
  0
ARC
  5
187AF
330
1F
100
AcDbEntity
  8
AM_0
100
AcDbCircle
 10
9.511945870276804
 20
9.200572909384135
 30
0.0
 40
1.657715614346216
100
AcDbArc
 50
236.317421408545
 51
269.7464030474152
  0
ELLIPSE
  5
187B0
330
1F
100
AcDbEntity
  8
AM_0
100
AcDbEllipse
 10
9.321748217691436
 20
9.064056911789834
 30
0.0
 11
2.061046645688325
 21
-0.2907539162576528
 31
0.0
210
0.0
220
0.0
230
1.0
 40
0.7244578324937351
 41
4.902612755910966
 42
5.156653920856706
  0
ELLIPSE
  5
187B1
330
1F
100
AcDbEntity
  8
AM_0
100
AcDbEllipse
 10
9.321748217691436
 20
9.064056911789805
 30
0.0
 11
0.4778046356269445
 21
-2.218835218471765
 31
0.0
210
0.0
220
0.0
230
1.0
 40
0.7548499213947965
 41
3.861104101554385
 42
4.115145266500043
  0
ELLIPSE
  5
187B3
330
1F
100
AcDbEntity
  8
AM_0
100
AcDbEllipse
 10
9.472049455411877
 20
9.307183640486215
 30
0.0
 11
-1.4814007195346
 21
1.35780174466412
 31
0.0
210
0.0
220
0.0
230
1.0
 40
0.8543560520472987
 41
0.9506761901207359
 42
1.748772045966707
  0
LINE
  5
187B9
330
1F
100
AcDbEntity
  8
AM_0
100
AcDbLine
 10
25.30273329579279
 20
14.91215362871785
 30
0.0
 11
24.50379011303244
 21
14.32936721982415
 31
0.0
  0
LINE
  5
187BA
330
1F
100
AcDbEntity
  8
AM_0
100
AcDbLine
 10
19.14439089131116
 20
21.53963575679308
 30
0.0
 11
19.94333407407152
 21
22.12242216568677
 31
0.0
  0
ARC
  5
187BE
330
1F
100
AcDbEntity
  8
AM_0
100
AcDbCircle
 10
21.86371136289796
 20
18.01763463083935
 30
0.0
 40
4.539358310916123
100
AcDbArc
 50
262.4285650582839
 51
299.5646361046777
  0
ELLIPSE
  5
187C3
330
1F
100
AcDbEntity
  8
AM_0
100
AcDbEllipse
 10
14.66710723364452
 20
19.98011766453831
 30
0.0
 11
-1.357524825456757
 21
-0.9799760271493067
 31
0.0
210
0.0
220
0.0
230
1.0
 40
0.5961669768928005
 41
4.720698039695433
 42
5.388982937067427
  0
ARC
  5
187C8
330
1F
100
AcDbEntity
  8
AM_0
100
AcDbCircle
 10
9.372881738587125
 20
9.538139601762509
 30
0.0
 40
1.769846195176738
100
AcDbArc
 50
164.4157206920188
 51
195.4635051447141
  0
ARC
  5
187CC
330
1F
100
AcDbEntity
  8
AM_0
100
AcDbCircle
 10
21.73310279246186
 20
17.99087205508437
 30
0.0
 40
4.392703158382507
100
AcDbArc
 50
132.3334611647921
 51
170.4817518612822
  0
LINE
  5
187CF
330
1F
100
AcDbEntity
  8
AM_0
100
AcDbLine
 10
31.39678573514925
 20
17.13236230255242
 30
0.0
 11
32.00661135167655
 21
18.11881397434314
 31
0.0
  0
LINE
  5
187D0
330
1F
100
AcDbEntity
  8
AM_0
100
AcDbLine
 10
31.00488466830331
 20
16.70926358463396
 30
0.0
 11
26.67014225607477
 21
13.54730035819554
 31
0.0
  0
LINE
  5
187D1
330
1F
100
AcDbEntity
  8
AM_0
100
AcDbLine
 10
21.69731225539886
 20
10.28641988834045
 30
0.0
 11
26.60058181744705
 21
13.49924635545801
 31
0.0
  0
LINE
  5
187D2
330
1F
100
AcDbEntity
  8
AM_0
100
AcDbLine
 10
26.60078085095751
 20
13.49895819649632
 30
0.0
 11
26.67034507592678
 21
13.54700671740213
 31
0.0
  0
ELLIPSE
  5
187D3
330
1F
100
AcDbEntity
  8
AM_0
100
AcDbEllipse
 10
22.90076112266377
 20
18.96653877782731
 30
0.0
 11
3.827642365633278
 21
-2.366253139630097
 31
0.0
210
0.0
220
0.0
230
1.0
 40
0.9871088799708132
 41
5.900813635196982
 42
6.223698769000765
  0
ELLIPSE
  5
187D4
330
1F
100
AcDbEntity
  8
AM_0
100
AcDbEllipse
 10
30.73527170279914
 20
18.91491075169049
 30
0.0
 11
1.275880788544427
 21
-0.7887510465433656
 31
0.0
210
0.0
220
0.0
230
1.0
 40
0.9871088799708132
 41
0.0364307510860417
 42
1.188424654812311
  0
ELLIPSE
  5
187D5
330
1F
100
AcDbEntity
  8
AM_0
100
AcDbEllipse
 10
24.78038367866435
 20
26.92632023721151
 30
0.0
 11
1.275880788544427
 21
-0.7887510465433656
 31
0.0
210
0.0
220
0.0
230
1.0
 40
0.9871088799708132
 41
1.188424654812311
 42
2.340418558538636
  0
ELLIPSE
  5
187E1
330
1F
100
AcDbEntity
  8
AM_0
100
AcDbEllipse
 10
22.62303368493213
 20
18.51728789720229
 30
0.0
 11
-3.827642365633278
 21
2.366253139630097
 31
0.0
210
0.0
220
0.0
230
1.0
 40
0.9871088799708132
 41
2.759220981607189
 42
5.900813635196996
  0
ELLIPSE
  5
187E2
330
1F
100
AcDbEntity
  8
AM_0
100
AcDbEllipse
 10
21.82409050217177
 20
17.93450148830863
 30
0.0
 11
-3.827642365633278
 21
2.366253139630097
 31
0.0
210
0.0
220
0.0
230
1.0
 40
0.9871088799708132
 41
5.900813635196997
 42
6.008086444219321
  0
ELLIPSE
  5
187E3
330
1F
100
AcDbEntity
  8
AM_0
100
AcDbEllipse
 10
22.10181793990347
 20
18.38375236893361
 30
0.0
 11
3.827642365633278
 21
-2.366253139630097
 31
0.0
210
0.0
220
0.0
230
1.0
 40
0.9871088799708132
 41
3.200666135490382
 42
5.900813635196982
  0
ELLIPSE
  5
187E4
330
1F
100
AcDbEntity
  8
AM_0
100
AcDbEllipse
 10
21.82409050217177
 20
17.93450148830863
 30
0.0
 11
-3.827642365633278
 21
2.366253139630097
 31
0.0
210
0.0
220
0.0
230
1.0
 40
0.9871088799708132
 41
2.651948172585014
 42
2.759220981607204
  0
ELLIPSE
  5
187E5
330
1F
100
AcDbEntity
  8
AM_0
100
AcDbEllipse
 10
21.82409050217177
 20
17.93450148830863
 30
0.0
 11
-3.827642365633278
 21
2.366253139630097
 31
0.0
210
0.0
220
0.0
230
1.0
 40
0.9871088799708132
 41
0.3830201449922532
 42
1.993829164632214
  0
ARC
  5
187EB
330
1F
100
AcDbEntity
  8
AM_0
100
AcDbCircle
 10
30.12090494660487
 20
17.92111334909581
 30
0.0
 40
1.5
100
AcDbArc
 50
306.1087550175653
 51
328.2755932026507
  0
LINE
  5
187EC
330
1F
100
AcDbEntity
  8
AM_0
100
AcDbLine
 10
24.19400811130009
 20
17.06512430392388
 30
0.0
 11
22.34892786476451
 21
15.71923674370456
 31
0.0
  0
LINE
  5
187ED
330
1F
100
AcDbEntity
  8
AM_0
100
AcDbLine
 10
22.60140735361148
 20
16.12764663518183
 30
0.0
 11
24.16964816826692
 21
17.27159460591969
 31
0.0
  0
LINE
  5
187EE
330
1F
100
AcDbEntity
  8
AM_0
100
AcDbLine
 10
22.34892786476451
 20
15.71923674370456
 30
0.0
 11
22.60140735361148
 21
16.12764663518183
 31
0.0
  0
LINE
  5
187EF
330
1F
100
AcDbEntity
  8
AM_0
100
AcDbLine
 10
22.34892786476451
 20
15.71923674370459
 30
0.0
 11
20.23541013666977
 21
16.64857486069911
 31
0.0
  0
LINE
  5
187F0
330
1F
100
AcDbEntity
  8
AM_0
100
AcDbLine
 10
20.48788962551674
 20
17.05698475217639
 30
0.0
 11
22.60140735361148
 21
16.12764663518186
 31
0.0
  0
LINE
  5
187F1
330
1F
100
AcDbEntity
  8
AM_0
100
AcDbLine
 10
20.23541013666977
 20
16.64857486069911
 30
0.0
 11
20.48788962551674
 21
17.05698475217639
 31
0.0
  0
LINE
  5
187F2
330
1F
100
AcDbEntity
  8
AM_0
100
AcDbLine
 10
20.23541013666977
 20
16.64857486069911
 30
0.0
 11
19.96697265511062
 21
18.92380053791297
 31
0.0
  0
LINE
  5
187F3
330
1F
100
AcDbEntity
  8
AM_0
100
AcDbLine
 10
20.24381208699072
 20
19.12574012739435
 30
0.0
 11
20.48788962551674
 21
17.05698475217642
 31
0.0
  0
LINE
  5
187F4
330
1F
100
AcDbEntity
  8
AM_0
100
AcDbLine
 10
19.96697265511062
 20
18.92380053791297
 30
0.0
 11
21.81205290164621
 21
20.26968809813229
 31
0.0
  0
LINE
  5
187F5
330
1F
100
AcDbEntity
  8
AM_0
100
AcDbLine
 10
21.81205290164616
 20
20.26968809813229
 30
0.0
 11
23.92557062974095
 21
19.34034998113773
 31
0.0
  0
LINE
  5
187F6
330
1F
100
AcDbEntity
  8
AM_0
100
AcDbLine
 10
23.925570629741
 20
19.34034998113773
 30
0.0
 11
24.19400811130015
 21
17.06512430392388
 31
0.0
  0
LINE
  5
187F7
330
1F
100
AcDbEntity
  8
AM_0
100
AcDbLine
 10
25.83554588060133
 20
15.98622821584684
 30
0.0
 11
26.11628509882621
 21
16.44035094150769
 31
0.0
  0
LINE
  5
187F8
330
1F
100
AcDbEntity
  8
AM_0
100
AcDbLine
 10
18.6055547455162
 20
20.45581747959255
 30
0.0
 11
18.88629396374108
 21
20.90994020525341
 31
0.0
  0
ARC
  5
187F9
330
1F
100
AcDbEntity
  8
AM_0
100
AcDbCircle
 10
22.24269039873934
 20
18.25683656879221
 30
0.0
 40
4.250208560295733
100
AcDbArc
 50
148.8432032865411
 51
327.7079831187601
  0
ELLIPSE
  5
187FA
330
1F
100
AcDbEntity
  8
AM_0
100
AcDbEllipse
 10
22.08049038320536
 20
17.99446242091844
 30
0.0
 11
-2.199436826031264
 21
1.35969450587724
 31
0.0
210
0.0
220
0.0
230
1.0
 40
0.9871088799708133
 41
0.0000000000000065
 42
6.283185307179592
  0
ELLIPSE
  5
187FB
330
1F
100
AcDbEntity
  8
AM_0
100
AcDbEllipse
 10
22.50128953128365
 20
18.67514557338055
 30
0.0
 11
3.61499556754254
 21
-2.234794631872869
 31
0.0
210
0.0
220
0.0
230
1.0
 40
0.9871088799708131
 41
0.0000000000000028
 42
3.141592653589808
  0
ELLIPSE
  5
187FC
330
1F
100
AcDbEntity
  8
AM_0
100
AcDbEllipse
 10
22.10514022659629
 20
18.03433591682176
 30
0.0
 11
2.800892797741534
 21
-1.731515314996441
 31
0.0
210
0.0
220
0.0
230
1.0
 40
0.9871088799708131
 41
0.0000000000000003
 42
6.283185307179586
  0
ELLIPSE
  5
187FD
330
1F
100
AcDbEntity
  8
AM_0
100
AcDbEllipse
 10
22.16104032683398
 20
18.12475971313063
 30
0.0
 11
-3.36586434688986
 21
2.080781409963159
 31
0.0
210
0.0
220
0.0
230
1.0
 40
0.987108879970813
 41
0.0000000000000002
 42
6.283185307179586
  0
ELLIPSE
  5
187FE
330
1F
100
AcDbEntity
  8
AM_0
100
AcDbEllipse
 10
22.22055031305877
 20
18.2210228477197
 30
0.0
 11
3.61499556754254
 21
-2.234794631872869
 31
0.0
210
0.0
220
0.0
230
1.0
 40
0.9871088799708131
 41
0.00000000000001
 42
3.141592653589808
  0
LINE
  5
18800
330
1F
100
AcDbEntity
  8
AM_0
100
AcDbLine
 10
26.89550028039042
 20
-69.55048918665995
 30
0.0
 11
26.89766605625022
 21
-69.57589152638673
 31
0.0
  0
LINE
  5
18801
330
1F
100
AcDbEntity
  8
AM_0
100
AcDbLine
 10
149.9999999999999
 20
-74.43904054238561
 30
0.0
 11
34.99999999999994
 21
-74.43904054238561
 31
0.0
  0
LINE
  5
18802
330
1F
100
AcDbEntity
  8
AM_0
100
AcDbLine
 10
149.9999999999999
 20
-74.43904054238561
 30
0.0
 11
149.9999999999999
 21
-99.43904054238561
 31
0.0
  0
LINE
  5
18803
330
1F
100
AcDbEntity
  8
AM_0
100
AcDbLine
 10
19.18137634229942
 20
-99.43904054238561
 30
0.0
 11
149.9999999999999
 21
-99.43904054238561
 31
0.0
  0
LINE
  5
18804
330
1F
100
AcDbEntity
  8
AM_0
100
AcDbLine
 10
18.38847764170862
 20
-71.82462124908932
 30
0.0
 11
18.38847764170862
 21
-99.54112084903858
 31
0.0
  0
LINE
  5
18805
330
1F
100
AcDbEntity
  8
AM_0
100
AcDbLine
 10
1.436510506405739
 20
-99.4390405423856
 30
0.0
 11
19.18137634229942
 21
-99.43904054238561
 31
0.0
  0
LINE
  5
18806
330
1F
100
AcDbEntity
  8
AM_0
100
AcDbLine
 10
2.737216305909954
 20
-85.2043566727188
 30
0.0
 11
2.737216305909954
 21
-99.43904054238561
 31
0.0
  0
LINE
  5
18807
330
1F
100
AcDbEntity
  8
AM_0
100
AcDbLine
 10
14.76782383812537
 20
-72.29075576321915
 30
0.0
 11
15.29603287885419
 21
-83.55888793428801
 31
0.0
  0
LINE
  5
18808
330
1F
100
AcDbEntity
  8
AM_0
100
AcDbLine
 10
4.88775521016953
 20
-72.02354266401019
 30
0.0
 11
4.884798717068918
 21
-71.94408777779432
 31
0.0
  0
LINE
  5
18809
330
1F
100
AcDbEntity
  8
AM_0
100
AcDbLine
 10
15.29603287885419
 20
-83.55888793428801
 30
0.0
 11
15.1954840951193
 21
-83.57183290527811
 31
0.0
  0
LINE
  5
1880A
330
1F
100
AcDbEntity
  8
AM_0
100
AcDbLine
 10
33.93506722057833
 20
-70.46465730293886
 30
0.0
 11
18.39284415577563
 21
-71.82405909014693
 31
0.0
  0
LINE
  5
1880B
330
1F
100
AcDbEntity
  8
AM_0
100
AcDbLine
 10
18.38847764170862
 20
-71.82462124908935
 30
0.0
 11
14.76782383812537
 21
-72.29075576321915
 31
0.0
  0
LINE
  5
1880C
330
1F
100
AcDbEntity
  8
AM_0
100
AcDbLine
 10
17.04996317762914
 20
-71.06351900064544
 30
0.0
 11
14.76782383812531
 21
-72.29075576321918
 31
0.0
  0
LINE
  5
1880D
330
1F
100
AcDbEntity
  8
AM_0
100
AcDbLine
 10
33.75446128533031
 20
-69.7906267764447
 30
0.0
 11
28.46012580899458
 21
-69.25968760226931
 31
0.0
  0
LINE
  5
1880E
330
1F
100
AcDbEntity
  8
AM_0
100
AcDbLine
 10
34.99999999999994
 20
-74.43904054238561
 30
0.0
 11
33.93506722057833
 21
-70.46465730293886
 31
0.0
  0
LINE
  5
1880F
330
1F
100
AcDbEntity
  8
AM_0
100
AcDbLine
 10
33.93506722057828
 20
-70.46465730293886
 30
0.0
 11
33.75446128533025
 21
-69.7906267764447
 31
0.0
  0
LINE
  5
18810
330
1F
100
AcDbEntity
  8
AM_0
100
AcDbLine
 10
33.62344400750055
 20
-69.30166363891499
 30
0.0
 11
33.75446128533025
 21
-69.7906267764447
 31
0.0
  0
LINE
  5
18811
330
1F
100
AcDbEntity
  8
AM_0
100
AcDbLine
 10
33.53036560422675
 20
-68.95429030880962
 30
0.0
 11
33.62344400750061
 21
-69.3016636389151
 31
0.0
  0
LINE
  5
18812
330
1F
100
AcDbEntity
  8
AM_0
100
AcDbLine
 10
4.884798717068975
 20
-71.94408777779432
 30
0.0
 11
8.060489828793209
 21
-71.53523917925531
 31
0.0
  0
LINE
  5
18813
330
1F
100
AcDbEntity
  8
AM_0
100
AcDbLine
 10
4.884798717068975
 20
-71.94408777779432
 30
0.0
 11
7.992179716373073
 21
-70.27307140659497
 31
0.0
  0
LINE
  5
18814
330
1F
100
AcDbEntity
  8
AM_0
100
AcDbLine
 10
7.992179716373073
 20
-70.27307140659497
 30
0.0
 11
9.218069126407329
 21
-70.0709419945743
 31
0.0
  0
LINE
  5
18815
330
1F
100
AcDbEntity
  8
AM_0
100
AcDbLine
 10
33.25833024919751
 20
-67.93904054238561
 30
0.0
 11
31.9722272478266
 21
-67.93904054238561
 31
0.0
  0
LINE
  5
18816
330
1F
100
AcDbEntity
  8
AM_0
100
AcDbLine
 10
33.53036560422669
 20
-68.95429030880959
 30
0.0
 11
33.25833024919751
 21
-67.93904054238561
 31
0.0
  0
LINE
  5
18818
330
1F
100
AcDbEntity
  8
AM_0
100
AcDbLine
 10
1.436510506405739
 20
-85.24524194231988
 30
0.0
 11
1.436510506405739
 21
-99.43904054238561
 31
0.0
  0
ELLIPSE
  5
1881A
330
1F
100
AcDbEntity
  8
AM_0
100
AcDbEllipse
 10
22.80139128444284
 20
-69.77125943412918
 30
0.0
 11
4.234636906550888
 21
0.3610405374430071
 31
0.0
210
0.0
220
0.0
230
1.0
 40
0.1361366304924233
 41
4.61237428051268
 42
6.070222290542345
  0
LINE
  5
1881B
330
1F
100
AcDbEntity
  8
AM_0
100
AcDbLine
 10
1.580542913248053
 20
-80.61272041161413
 30
0.0
 11
14.80186691735599
 21
-78.91056500677857
 31
0.0
  0
LINE
  5
1881D
330
1F
100
AcDbEntity
  8
AM_0
100
AcDbLine
 10
14.26745199929655
 20
-72.6424236189639
 30
0.0
 11
1.046127995188613
 21
-74.3445790237995
 31
0.0
  0
LINE
  5
1881E
330
1F
100
AcDbEntity
  8
AM_0
100
AcDbLine
 10
0.0340279189386479
 20
-74.29383664806045
 30
0.0
 11
4.056897024461023
 21
-72.13050999580057
 31
0.0
  0
LINE
  5
1881F
330
1F
100
AcDbEntity
  8
AM_0
100
AcDbLine
 10
4.05689702446108
 20
-72.13050999580059
 30
0.0
 11
7.990225800673329
 21
-71.62412070881655
 31
0.0
  0
LINE
  5
18820
330
1F
100
AcDbEntity
  8
AM_0
100
AcDbLine
 10
14.80186691735594
 20
-78.91056500677857
 30
0.0
 11
15.07134342103313
 21
-78.7656520883437
 31
0.0
  0
LINE
  5
18821
330
1F
100
AcDbEntity
  8
AM_0
100
AcDbLine
 10
14.26745199929655
 20
-72.6424236189639
 30
0.0
 11
14.80186691735594
 21
-78.91056500677857
 31
0.0
  0
LINE
  5
18822
330
1F
100
AcDbEntity
  8
AM_0
100
AcDbLine
 10
14.771600131713
 20
-72.37131435268265
 30
0.0
 11
14.2674519992965
 21
-72.6424236189639
 31
0.0
  0
LINE
  5
18823
330
1F
100
AcDbEntity
  8
AM_0
100
AcDbLine
 10
0.0000536910856681
 20
-74.32954013639082
 30
0.0
 11
0.5344686091450512
 21
-80.59768152420548
 31
0.0
  0
ELLIPSE
  5
18824
330
1F
100
AcDbEntity
  8
AM_0
100
AcDbEllipse
 10
1.331576732731094
 20
-80.5297209524515
 30
0.0
 11
0.7971081235860485
 21
0.06796057175398902
 31
0.0
210
0.0
220
0.0
230
1.0
 40
0.1361366304924232
 41
3.141592653589794
 42
5.018412373904534
  0
ELLIPSE
  5
18825
330
1F
100
AcDbEntity
  8
AM_0
100
AcDbEllipse
 10
0.7971618146717105
 20
-74.26157956463683
 30
0.0
 11
0.7971081235860494
 21
0.06796057175397779
 31
0.0
210
0.0
220
0.0
230
1.0
 40
0.1361366304924232
 41
2.836750808915627
 42
5.018412373908542
  0
ELLIPSE
  5
18826
330
1F
100
AcDbEntity
  8
AM_0
100
AcDbEllipse
 10
9.162174511878618
 20
-72.38646680738225
 30
0.0
 11
2.570673698565009
 21
0.2191728439065783
 31
0.0
210
0.0
220
0.0
230
1.0
 40
0.1361366304924232
 41
2.206072531197386
 42
6.195725256878668
  0
LINE
  5
18827
330
1F
100
AcDbEntity
  8
AM_0
100
AcDbLine
 10
2.806479207648067
 20
-85.19575436803245
 30
0.0
 11
14.75599057556497
 21
-83.65733617680411
 31
0.0
  0
LINE
  5
18829
330
1F
100
AcDbEntity
  8
AM_0
100
AcDbLine
 10
14.35617813259512
 20
-78.9679444018845
 30
0.0
 11
14.75599057556491
 21
-83.65733617680411
 31
0.0
  0
LINE
  5
1882A
330
1F
100
AcDbEntity
  8
AM_0
100
AcDbLine
 10
15.27015829078107
 20
-83.54207963421783
 30
0.0
 11
15.29462812879791
 21
-83.52892080369918
 31
0.0
  0
LINE
  5
1882B
330
1F
100
AcDbEntity
  8
AM_0
100
AcDbLine
 10
15.27015829078107
 20
-83.54207963421783
 30
0.0
 11
14.87206204290618
 21
-78.87281707564327
 31
0.0
  0
LINE
  5
1882C
330
1F
100
AcDbEntity
  8
AM_0
100
AcDbLine
 10
0.852335284123285
 20
-80.65715828643971
 30
0.0
 11
1.237367751493537
 21
-85.17319603691949
 31
0.0
  0
ELLIPSE
  5
1882D
330
1F
100
AcDbEntity
  8
AM_0
100
AcDbEllipse
 10
2.433029936872742
 20
-85.0712551792885
 30
0.0
 11
1.195662185379073
 21
0.1019408576309835
 31
0.0
210
0.0
220
0.0
230
1.0
 40
0.1361366304924232
 41
3.141592653589773
 42
5.018412373904507
  0
ELLIPSE
  5
1882E
330
1F
100
AcDbEntity
  8
AM_0
100
AcDbEllipse
 10
14.50702439504801
 20
-83.57433671764147
 30
0.0
 11
0.7971081235860485
 21
0.06796057175398902
 31
0.0
210
0.0
220
0.0
230
1.0
 40
0.1361366304924232
 41
5.018412373904534
 42
5.97834346250141
  0
LINE
  5
1882F
330
1F
100
AcDbEntity
  8
AM_0
100
AcDbLine
 10
30.23966185596589
 20
-69.16689751199178
 30
0.0
 11
30.53348474249901
 21
-69.46761312660459
 31
0.0
  0
LINE
  5
18830
330
1F
100
AcDbEntity
  8
AM_0
100
AcDbLine
 10
21.81297286260644
 20
-70.49512865391876
 30
0.0
 11
30.21969055823968
 21
-68.93265457899071
 31
0.0
  0
LINE
  5
18831
330
1F
100
AcDbEntity
  8
AM_0
100
AcDbLine
 10
13.92550364577636
 20
-71.4136405758241
 30
0.0
 11
20.84673392413868
 21
-70.63805938409161
 31
0.0
  0
LINE
  5
18832
330
1F
100
AcDbEntity
  8
AM_0
100
AcDbLine
 10
13.61894523971586
 20
-71.9865386614434
 30
0.0
 11
13.92550364577642
 21
-71.4136405758241
 31
0.0
  0
LINE
  5
18833
330
1F
100
AcDbEntity
  8
AM_0
100
AcDbLine
 10
10.01738273857819
 20
-72.39012357689751
 30
0.0
 11
13.61894523971586
 21
-71.9865386614434
 31
0.0
  0
LINE
  5
18836
330
1F
100
AcDbEntity
  8
AM_0
100
AcDbLine
 10
30.21969055823973
 20
-68.93265457899071
 30
0.0
 11
30.23966185596589
 21
-69.16689751199178
 31
0.0
  0
ELLIPSE
  5
1883B
330
1F
100
AcDbEntity
  8
AM_0
100
AcDbEllipse
 10
21.21748406019299
 20
-70.43541042593768
 30
0.0
 11
1.477745912633268
 21
0.208278605115625
 31
0.0
210
0.0
220
0.0
230
1.0
 40
0.103488912861966
 41
4.444233017827449
 42
5.11251791519944
  0
ARC
  5
18841
330
1F
100
AcDbEntity
  8
AM_0
100
AcDbCircle
 10
9.075819986515569
 20
-73.68355893489894
 30
0.0
 40
1.421919853760634
100
AcDbArc
 50
72.44890635703852
 51
109.8672873153676
  0
ELLIPSE
  5
18842
330
1F
100
AcDbEntity
  8
AM_0
100
AcDbEllipse
 10
9.321748217691436
 20
-68.73692129215652
 30
0.0
 11
0.8033505821321524
 21
-3.635328802670998
 31
0.0
210
0.0
220
0.0
230
0.9999999999999999
 40
0.5253138106818573
 41
5.973364439700823
 42
6.227405604646563
  0
ELLIPSE
  5
18844
330
1F
100
AcDbEntity
  8
AM_0
100
AcDbEllipse
 10
9.472049455411877
 20
-70.49980136334943
 30
0.0
 11
-1.739238946696771
 21
-1.835148416590437
 31
0.0
210
0.0
220
0.0
230
1.0
 40
0.3911651458647937
 41
6.178089904143681
 42
6.976185759989652
  0
LINE
  5
1884A
330
1F
100
AcDbEntity
  8
AM_0
100
AcDbLine
 10
25.30273329579279
 20
-63.18839907835167
 30
0.0
 11
24.50379011303244
 21
-63.33689080313647
 31
0.0
  0
ARC
  5
1884D
330
1F
100
AcDbEntity
  8
AM_0
100
AcDbCircle
 10
20.88151829828479
 20
-47.47599393393659
 30
0.0
 40
16.25343995188299
100
AcDbArc
 50
271.354055078184
 51
281.4335316797447
  0
SPLINE
  5
1884F
330
1F
100
AcDbEntity
  8
AM_0
100
AcDbSpline
210
0.0
220
0.0
230
1.0
 70
     8
 71
     3
 72
    12
 73
     8
 74
     0
 42
0.0000000001
 43
0.0000000001
 40
-2.277735012124735
 40
-2.277735012124735
 40
-2.277735012124735
 40
-2.277735012124735
 40
-2.201983172992293
 40
-2.201983172992293
 40
-1.765885894744844
 40
-1.765885894744844
 40
-1.717671851544119
 40
-1.717671851544119
 40
-1.717671851544119
 40
-1.717671851544119
 10
7.605525031407751
 20
-72.1107536803471
 30
0.0
 10
7.604163169550816
 20
-72.11251742808358
 30
0.0
 10
7.603313233150402
 20
-72.11500689569272
 30
0.0
 10
7.6018684138499
 20
-72.13639726684289
 30
0.0
 10
7.621823396750244
 20
-72.17792583052886
 30
0.0
 10
7.659059435719996
 20
-72.24023589715102
 30
0.0
 10
7.662977709063398
 20
-72.24670994734231
 30
0.0
 10
7.667103132093644
 20
-72.25345648450497
 30
0.0
  0
ARC
  5
18851
330
1F
100
AcDbEntity
  8
AM_0
100
AcDbCircle
 10
18.57223195313765
 20
-65.38270625093895
 30
0.0
 40
2.357046381365708
100
AcDbArc
 50
104.2966165235599
 51
119.7990821586929
  0
LINE
  5
18853
330
1F
100
AcDbEntity
  8
AM_0
100
AcDbLine
 10
31.6154826783287
 20
-63.75479095394326
 30
0.0
 11
32.11608311782373
 21
-69.62632303046354
 31
0.0
  0
LINE
  5
18854
330
1F
100
AcDbEntity
  8
AM_0
100
AcDbLine
 10
26.19074613824512
 20
-61.98055962031401
 30
0.0
 11
30.27058076441659
 21
-62.38970332434894
 31
0.0
  0
LINE
  5
18856
330
1F
100
AcDbEntity
  8
AM_0
100
AcDbLine
 10
7.603171834414013
 20
-72.12283753664411
 30
0.0
 11
7.660753508189089
 21
-72.79821178308106
 31
0.0
  0
LINE
  5
18857
330
1F
100
AcDbEntity
  8
AM_0
100
AcDbLine
 10
11.62511199860364
 20
-72.20996419405313
 30
0.0
 11
11.63093441815647
 21
-72.27825523111611
 31
0.0
  0
LINE
  5
18858
330
1F
100
AcDbEntity
  8
AM_0
100
AcDbLine
 10
7.605525031407751
 20
-72.11075368034705
 30
0.0
 11
11.42738349327846
 21
-67.27623685933835
 31
0.0
  0
LINE
  5
18859
330
1F
100
AcDbEntity
  8
AM_0
100
AcDbLine
 10
15.52850400038011
 20
-63.93064012491792
 30
0.0
 11
17.99028030512631
 21
-63.09784107591398
 31
0.0
  0
ARC
  5
1885A
330
1F
100
AcDbEntity
  8
AM_0
100
AcDbCircle
 10
19.42089976089926
 20
-72.88847034649098
 30
0.0
 40
9.76695792122783
100
AcDbArc
 50
113.4861220377963
 51
144.9273755845028
  0
ELLIPSE
  5
18862
330
1F
100
AcDbEntity
  8
AM_0
100
AcDbEllipse
 10
22.62303368493213
 20
-62.91966705243684
 30
0.0
 11
4.483733195171528
 21
0.3822782161161251
 31
0.0
210
0.0
220
0.0
230
0.9999999999999999
 40
0.1361366304924232
 41
5.341298285527502
 42
6.851933705260798
  0
ELLIPSE
  5
18863
330
1F
100
AcDbEntity
  8
AM_0
100
AcDbEllipse
 10
21.82409050217177
 20
-63.06815877722164
 30
0.0
 11
4.483733195171528
 21
0.3822782161161251
 31
0.0
210
0.0
220
0.0
230
0.9999999999999999
 40
0.1361366304924232
 41
5.234025476505327
 42
5.341298285527516
  0
ELLIPSE
  5
18864
330
1F
100
AcDbEntity
  8
AM_0
100
AcDbEllipse
 10
21.82409050217177
 20
-63.06815877722164
 30
0.0
 11
4.483733195171528
 21
0.3822782161161251
 31
0.0
210
0.0
220
0.0
230
0.9999999999999999
 40
0.1361366304924232
 41
2.965097448912565
 42
4.575906468552526
  0
ARC
  5
18867
330
1F
100
AcDbEntity
  8
AM_0
100
AcDbCircle
 10
30.12090494660487
 20
-63.88221702598196
 30
0.0
 40
1.5
100
AcDbArc
 50
4.873190778744685
 51
84.27327461694144
  0
LINE
  5
18868
330
1F
100
AcDbEntity
  8
AM_0
100
AcDbLine
 10
24.19400811130009
 20
-61.26380080028713
 30
0.0
 11
22.34892786476451
 21
-61.60672774939491
 31
0.0
  0
LINE
  5
18869
330
1F
100
AcDbEntity
  8
AM_0
100
AcDbLine
 10
22.34892786476451
 20
-61.60672774939491
 30
0.0
 11
20.23541013666977
 21
-61.65875476798664
 31
0.0
  0
LINE
  5
1886A
330
1F
100
AcDbEntity
  8
AM_0
100
AcDbLine
 10
20.23541013666977
 20
-61.65875476798664
 30
0.0
 11
19.96697265511062
 21
-61.36785483747059
 31
0.0
  0
LINE
  5
1886B
330
1F
100
AcDbEntity
  8
AM_0
100
AcDbLine
 10
19.96697265511062
 20
-61.36785483747059
 30
0.0
 11
21.81205290164621
 21
-61.02492788836284
 31
0.0
  0
LINE
  5
1886D
330
1F
100
AcDbEntity
  8
AM_0
100
AcDbLine
 10
21.81205290164616
 20
-61.02492788836284
 30
0.0
 11
23.92557062974095
 21
-60.97290086977111
 31
0.0
  0
LINE
  5
1886F
330
1F
100
AcDbEntity
  8
AM_0
100
AcDbLine
 10
23.925570629741
 20
-60.97290086977111
 30
0.0
 11
24.19400811130015
 21
-61.26380080028713
 31
0.0
  0
ARC
  5
18871
330
1F
100
AcDbEntity
  8
AM_0
100
AcDbCircle
 10
22.8408676719036
 20
-70.23427712218552
 30
0.0
 40
9.312135262080984
100
AcDbArc
 50
74.37006104791571
 51
115.3763205095734
  0
LINE
  5
18872
330
1F
100
AcDbEntity
  8
AM_0
100
AcDbLine
 10
17.98591340650791
 20
-63.31962834190827
 30
0.0
 11
18.01935221456466
 21
-63.71183142168138
 31
0.0
  0
LINE
  5
18873
330
1F
100
AcDbEntity
  8
AM_0
100
AcDbLine
 10
26.45518721960963
 20
-62.59754726702215
 30
0.0
 11
26.48182282139857
 21
-62.90995568288182
 31
0.0
  0
LINE
  5
18874
330
1F
100
AcDbEntity
  8
AM_0
100
AcDbLine
 10
18.85004257796732
 20
-61.82064662109377
 30
0.0
 11
18.24935290702285
 21
-62.51980710363392
 31
0.0
  0
LINE
  5
18875
330
1F
100
AcDbEntity
  8
AM_0
100
AcDbLine
 10
25.3497717274077
 20
-61.26648678233215
 30
0.0
 11
26.0601504592114
 21
-61.85386699865381
 31
0.0
  0
ARC
  5
18876
330
1F
100
AcDbEntity
  8
AM_0
100
AcDbCircle
 10
19.0672397440585
 20
-63.23249246926565
 30
0.0
 40
1.084831465519755
100
AcDbArc
 50
138.931951124721
 51
184.607076641447
  0
ARC
  5
18877
330
1F
100
AcDbEntity
  8
AM_0
100
AcDbCircle
 10
25.37471693979995
 20
-62.69472382300086
 30
0.0
 40
1.084831465520733
100
AcDbArc
 50
5.139304916061041
 51
50.81443043274145
  0
ELLIPSE
  5
18879
330
1F
100
AcDbEntity
  8
AM_0
100
AcDbEllipse
 10
22.10514022659629
 20
-61.60494531605286
 30
0.0
 11
3.280989918522019
 21
0.2797336323442444
 31
0.0
210
0.0
220
0.0
230
0.9999999999999999
 40
0.1361366304924232
 41
3.003740499245929
 42
6.421037461523442
  0
ELLIPSE
  5
1887A
330
1F
100
AcDbEntity
  8
AM_0
100
AcDbEllipse
 10
22.16104032683398
 20
-62.26059642166837
 30
0.0
 11
3.942802451476552
 21
0.3361590491762256
 31
0.0
210
0.0
220
0.0
230
1.0
 40
0.1361366304924232
 41
3.003740499249937
 42
6.421037461527456
  0
ELLIPSE
  5
1887B
330
1F
100
AcDbEntity
  8
AM_0
100
AcDbEllipse
 10
22.22055031305877
 20
-62.9585878044652
 30
0.0
 11
4.234636906550883
 21
0.3610405374430666
 31
0.0
210
0.0
220
0.0
230
0.9999999999999998
 40
0.1361366304924232
 41
3.141592653589794
 42
6.283185307179593
  0
LINE
  5
1887F
330
1F
100
AcDbEntity
  8
AM_0
100
AcDbLine
 10
-91.08931322066621
 20
24.42708867605091
 30
0.0
 11
-91.08931322066621
 21
3.060437192632378
 31
0.0
  0
LINE
  5
18880
330
1F
100
AcDbEntity
  8
AM_0
100
AcDbLine
 10
-61.92334408487557
 20
24.42708867605091
 30
0.0
 11
-91.08931322066621
 21
24.42708867605091
 31
0.0
  0
LINE
  5
18881
330
1F
100
AcDbEntity
  8
AM_0
100
AcDbLine
 10
-91.08931322066621
 20
32.0
 30
0.0
 11
-91.08931322066621
 21
24.42708867605091
 31
0.0
  0
LINE
  5
18882
330
1F
100
AcDbEntity
  8
AM_0
100
AcDbLine
 10
-91.08931322066621
 20
32.0
 30
0.0
 11
-59.76061700532858
 21
32.0
 31
0.0
  0
LINE
  5
18883
330
1F
100
AcDbEntity
  8
AM_0
100
AcDbLine
 10
-76.77916794640566
 20
3.310437192632378
 30
0.0
 11
-91.08931322066621
 21
3.310437192632378
 31
0.0
  0
LINE
  5
18884
330
1F
100
AcDbEntity
  8
AM_0
100
AcDbLine
 10
-63.94102844149973
 20
5.858412240780268
 30
0.0
 11
-64.02158703096325
 21
5.859602901574903
 31
0.0
  0
LINE
  5
18885
330
1F
100
AcDbEntity
  8
AM_0
100
AcDbLine
 10
-74.70811214264262
 20
15.83857971269171
 30
0.0
 11
-63.59436045607487
 21
14.48175448778216
 31
0.0
  0
LINE
  5
18886
330
1F
100
AcDbEntity
  8
AM_0
100
AcDbLine
 10
-74.72462674439834
 20
15.73781954852609
 30
0.0
 11
-74.70811214264268
 21
15.83857971269171
 31
0.0
  0
LINE
  5
18887
330
1F
100
AcDbEntity
  8
AM_0
100
AcDbLine
 10
-61.80601098222405
 20
18.98716774849171
 30
0.0
 11
-61.89770659087549
 21
18.99981390277728
 31
0.0
  0
LINE
  5
18889
330
1F
100
AcDbEntity
  8
AM_0
100
AcDbLine
 10
-62.11492998121943
 20
7.25
 30
0.0
 11
-63.37281362071695
 21
7.25
 31
0.0
  0
LINE
  5
1888A
330
1F
100
AcDbEntity
  8
AM_0
100
AcDbLine
 10
-63.37281362071695
 20
7.25
 30
0.0
 11
-63.94102844149973
 21
5.85841224078024
 31
0.0
  0
LINE
  5
1888B
330
1F
100
AcDbEntity
  8
AM_0
100
AcDbLine
 10
-63.63744356144304
 20
7.710667766237521
 30
0.0
 11
-63.94102844149973
 21
5.858412240780268
 31
0.0
  0
LINE
  5
1888C
330
1F
100
AcDbEntity
  8
AM_0
100
AcDbLine
 10
-62.11492998121943
 20
7.25
 30
0.0
 11
-61.93000950725809
 21
8.6214655725218
 31
0.0
  0
LINE
  5
1888D
330
1F
100
AcDbEntity
  8
AM_0
100
AcDbLine
 10
-60.57158341012661
 20
23.91113716041866
 30
0.0
 11
-60.33248268954847
 21
27.11875708752291
 31
0.0
  0
LINE
  5
1888E
330
1F
100
AcDbEntity
  8
AM_0
100
AcDbLine
 10
-63.59436045607487
 20
14.48175448778216
 30
0.0
 11
-62.19122171708449
 21
17.91811450911382
 31
0.0
  0
LINE
  5
1888F
330
1F
100
AcDbEntity
  8
AM_0
100
AcDbLine
 10
-63.59436045607487
 20
14.48175448778216
 30
0.0
 11
-61.92334408487557
 21
24.42708867605089
 31
0.0
  0
LINE
  5
18890
330
1F
100
AcDbEntity
  8
AM_0
100
AcDbLine
 10
-61.92334408487557
 20
24.42708867605091
 30
0.0
 11
-59.76061700532858
 21
32.0
 31
0.0
  0
LINE
  5
18891
330
1F
100
AcDbEntity
  8
AM_0
100
AcDbLine
 10
-59.58931322066619
 20
32.0
 30
0.0
 11
-59.76061700532858
 21
32.0
 31
0.0
  0
LINE
  5
18892
330
1F
100
AcDbEntity
  8
AM_0
100
AcDbLine
 10
-59.58931322066619
 20
28.0885758426306
 30
0.0
 11
-59.58931322066619
 21
31.99999999999997
 31
0.0
  0
LINE
  5
18893
330
1F
100
AcDbEntity
  8
AM_0
100
AcDbLine
 10
-59.80385214931454
 20
29.19347670318444
 30
0.0
 11
-59.88319191322458
 21
28.12910597642861
 31
0.0
  0
LINE
  5
18894
330
1F
100
AcDbEntity
  8
AM_0
100
AcDbLine
 10
-76.91353202456509
 20
2.01889320714298
 30
0.0
 11
-91.08931322066621
 21
2.01889320714298
 31
0.0
  0
LINE
  5
18895
330
1F
100
AcDbEntity
  8
AM_0
100
AcDbLine
 10
-91.08931322066621
 20
2.01889320714298
 30
0.0
 11
-91.08931322066621
 21
3.310437192632378
 31
0.0
  0
ELLIPSE
  5
18896
330
1F
100
AcDbEntity
  8
AM_0
100
AcDbEllipse
 10
-60.06816741943152
 20
28.15611689535368
 30
0.0
 11
0.2431859608090475
 21
1.763309555485179
 31
0.0
210
0.0
220
0.0
230
1.0
 40
0.0841598296156548
 41
5.352904625409054
 42
8.494497278998848
  0
ELLIPSE
  5
18897
330
1F
100
AcDbEntity
  8
AM_0
100
AcDbEllipse
 10
-61.42153211240975
 20
19.160589071956
 30
0.0
 11
0.5806406367631792
 21
4.210149219557339
 31
0.0
210
0.0
220
0.0
230
1.0
 40
0.0841598296156548
 41
5.98067007652922
 42
7.906788107818692
  0
ELLIPSE
  5
18898
330
1F
100
AcDbEntity
  8
AM_0
100
AcDbEllipse
 10
-62.2199786100893
 20
16.32430219216531
 30
0.0
 11
0.3757086473173509
 21
2.724214200890043
 31
0.0
210
0.0
220
0.0
230
1.0
 40
0.0841598296156548
 41
6.081854435576318
 42
7.240689964871351
  0
LINE
  5
18899
330
1F
100
AcDbEntity
  8
AM_0
100
AcDbLine
 10
-70.04892406189583
 20
15.09395378188589
 30
0.0
 11
-72.21225071415569
 21
1.894898070451774
 31
0.0
  0
LINE
  5
1889A
330
1F
100
AcDbEntity
  8
AM_0
100
AcDbLine
 10
-63.78078267408114
 20
14.22948617825901
 30
0.0
 11
-70.04892406189583
 21
15.09395378188589
 31
0.0
  0
LINE
  5
1889B
330
1F
100
AcDbEntity
  8
AM_0
100
AcDbLine
 10
-69.98054663682137
 20
15.2614136654727
 30
0.0
 11
-70.04892406189583
 21
15.09395378188589
 31
0.0
  0
LINE
  5
1889D
330
1F
100
AcDbEntity
  8
AM_0
100
AcDbLine
 10
-64.29269629724445
 20
4.205490099981375
 30
0.0
 11
-65.99485170208004
 21
0.0368226541097556
 31
0.0
  0
LINE
  5
1889E
330
1F
100
AcDbEntity
  8
AM_0
100
AcDbLine
 10
-65.94410932634105
 20
1.030430466824868
 30
0.0
 11
-63.78078267408114
 21
14.22948617825898
 31
0.0
  0
LINE
  5
1889F
330
1F
100
AcDbEntity
  8
AM_0
100
AcDbLine
 10
-63.78078267408114
 20
14.22948617825901
 30
0.0
 11
-63.67381534229077
 21
14.49145475794305
 31
0.0
  0
LINE
  5
188A0
330
1F
100
AcDbEntity
  8
AM_0
100
AcDbLine
 10
-62.09955989465917
 20
18.34688853172466
 30
0.0
 11
-62.0786272692456
 21
18.39815362413063
 31
0.0
  0
LINE
  5
188A1
330
1F
100
AcDbEntity
  8
AM_0
100
AcDbLine
 10
-62.12936964498459
 20
17.40454581141555
 30
0.0
 11
-62.7139813003476
 21
13.83766801206454
 31
0.0
  0
LINE
  5
188A2
330
1F
100
AcDbEntity
  8
AM_0
100
AcDbLine
 10
-63.72593395872019
 20
7.663464268380722
 30
0.0
 11
-64.29269629724445
 21
4.205490099981404
 31
0.0
  0
LINE
  5
188A3
330
1F
100
AcDbEntity
  8
AM_0
100
AcDbLine
 10
-62.0872450211796
 20
18.39934213710475
 30
0.0
 11
-62.07862726924557
 21
18.39815362413063
 31
0.0
  0
LINE
  5
188A4
330
1F
100
AcDbEntity
  8
AM_0
100
AcDbLine
 10
-66.02114930395516
 20
0.0000533806054932
 30
0.0
 11
-72.28929069176979
 21
0.8645209842323709
 31
0.0
  0
LINE
  5
188A5
330
1F
100
AcDbEntity
  8
AM_0
100
AcDbLine
 10
-62.05232966737043
 20
18.43492289763492
 30
0.0
 11
-62.07785935688827
 21
18.43844381207404
 31
0.0
  0
ELLIPSE
  5
188A6
330
1F
100
AcDbEntity
  8
AM_0
100
AcDbEllipse
 10
-72.17999363073204
 20
1.657019660854928
 30
0.0
 11
0.109297061037768
 21
0.7924986766225591
 31
0.0
210
0.0
220
0.0
230
0.9999999999999998
 40
0.0841598296156548
 41
1.277560822002233
 42
3.141592653589691
  0
ELLIPSE
  5
188A7
330
1F
100
AcDbEntity
  8
AM_0
100
AcDbEllipse
 10
-65.91185224291741
 20
0.7925520572280504
 30
0.0
 11
0.1092970610377749
 21
0.7924986766225578
 31
0.0
210
0.0
220
0.0
230
0.9999999999999999
 40
0.0841598296156548
 41
1.277560822002267
 42
3.459222386995181
  0
ELLIPSE
  5
188A8
330
1F
100
AcDbEntity
  8
AM_0
100
AcDbEllipse
 10
-62.16162672840824
 20
17.64242422101233
 30
0.0
 11
0.1092970610377749
 21
0.7924986766225578
 31
0.0
210
0.0
220
0.0
230
0.9999999999999999
 40
0.0841598296156548
 41
4.419153475592093
 42
6.600815040584976
  0
ELLIPSE
  5
188A9
330
1F
100
AcDbEntity
  8
AM_0
100
AcDbEllipse
 10
-64.03673948566279
 20
9.217488139120178
 30
0.0
 11
0.3524830218468238
 21
2.555808232107748
 31
0.0
210
0.0
220
0.0
230
1.0
 40
0.0841598296156548
 41
5.880207497006717
 42
10.29997240759565
  0
LINE
  5
188AA
330
1F
100
AcDbEntity
  8
AM_0
100
AcDbLine
 10
-74.81468597177855
 20
15.29710581186231
 30
0.0
 11
-76.76991348270451
 21
3.367720659471559
 31
0.0
  0
LINE
  5
188AC
330
1F
100
AcDbEntity
  8
AM_0
100
AcDbLine
 10
-74.6906539839444
 20
15.83644832890968
 30
0.0
 11
-74.69942942919226
 21
15.81495680538373
 31
0.0
  0
LINE
  5
188AD
330
1F
100
AcDbEntity
  8
AM_0
100
AcDbLine
 10
-70.01814249547499
 20
15.1693394449733
 30
0.0
 11
-74.69942942919226
 21
15.81495680538376
 31
0.0
  0
LINE
  5
188AE
330
1F
100
AcDbEntity
  8
AM_0
100
AcDbLine
 10
-74.81468597177855
 20
15.29710581186231
 30
0.0
 11
-70.12170843396956
 21
14.64987614759991
 31
0.0
  0
LINE
  5
188AF
330
1F
100
AcDbEntity
  8
AM_0
100
AcDbLine
 10
-72.2988758544812
 20
1.189596702860428
 30
0.0
 11
-76.88547344912576
 21
1.822155030142454
 31
0.0
  0
ELLIPSE
  5
188B0
330
1F
100
AcDbEntity
  8
AM_0
100
AcDbEllipse
 10
-76.72152785756907
 20
3.010903045076304
 30
0.0
 11
0.1639455915566519
 21
1.188748014933838
 31
0.0
210
0.0
220
0.0
230
1.0
 40
0.0841598296156549
 41
1.277560822002251
 42
3.141592653589765
  0
ELLIPSE
  5
188B1
330
1F
100
AcDbEntity
  8
AM_0
100
AcDbEllipse
 10
-74.7824288883549
 20
15.05922740226546
 30
0.0
 11
0.109297061037768
 21
0.7924986766225591
 31
0.0
210
0.0
220
0.0
230
0.9999999999999998
 40
0.0841598296156548
 41
0.3176297334053562
 42
1.277560822002232
  0
LINE
  5
188B2
330
1F
100
AcDbEntity
  8
AM_0
100
AcDbLine
 10
-59.80659029351733
 20
26.91351047046805
 30
0.0
 11
-61.36906436844544
 21
20.78125861309042
 31
0.0
  0
LINE
  5
188B3
330
1F
100
AcDbEntity
  8
AM_0
100
AcDbLine
 10
-60.32808152217842
 20
27.17584587675427
 30
0.0
 11
-60.04083322651843
 21
26.94581596813146
 31
0.0
  0
LINE
  5
188B5
330
1F
100
AcDbEntity
  8
AM_0
100
AcDbLine
 10
-60.04083322651843
 20
26.94581596813146
 30
0.0
 11
-59.80659029351733
 21
26.91351047046805
 31
0.0
  0
LINE
  5
188B8
330
1F
100
AcDbEntity
  8
AM_0
100
AcDbLine
 10
-63.23400890807335
 20
13.69448191973893
 30
0.0
 11
-63.82390387498901
 21
10.49521623554591
 31
0.0
  0
LINE
  5
188B9
330
1F
100
AcDbEntity
  8
AM_0
100
AcDbLine
 10
-62.67130638893704
 20
13.84941826092526
 30
0.0
 11
-63.23400890807335
 21
13.69448191973893
 31
0.0
  0
LINE
  5
188BA
330
1F
100
AcDbEntity
  8
AM_0
100
AcDbLine
 10
-61.53768760409568
 20
19.99754272495051
 30
0.0
 11
-62.67130638893704
 21
13.84941826092523
 31
0.0
  0
SPLINE
  5
188BB
330
1F
100
AcDbEntity
  8
AM_0
100
AcDbSpline
210
0.0
220
0.0
230
1.0
 70
     8
 71
     3
 72
    14
 73
    10
 74
     0
 42
0.0000000001
 43
0.0000000001
 40
1.717671851546749
 40
1.717671851546749
 40
1.717671851546749
 40
1.717671851546749
 40
1.765885894744827
 40
1.765885894744827
 40
2.201983172992251
 40
2.201983172992251
 40
2.638080451239675
 40
2.638080451239675
 40
2.664546665281525
 40
2.664546665281525
 40
2.664546665281525
 40
2.664546665281525
 10
-63.9965411424551
 20
7.821149967037172
 30
0.0
 10
-63.99150323377467
 20
7.812515514540991
 30
0.0
 10
-63.98672603463166
 20
7.804090261658701
 30
0.0
 10
-63.94130632332713
 20
7.721697567096044
 30
0.0
 10
-63.91595570237723
 20
7.655810884906543
 30
0.0
 10
-63.90888466221679
 20
7.567833696331491
 30
0.0
 10
-63.92627569275589
 20
7.545588683012596
 30
0.0
 10
-63.97239559376538
 20
7.54297045735072
 30
0.0
 10
-63.97517628289438
 20
7.542886746875894
 30
0.0
 10
-63.97810438023851
 20
7.542873532648429
 30
0.0
  0
ELLIPSE
  5
188BC
330
1F
100
AcDbEntity
  8
AM_0
100
AcDbEllipse
 10
-60.38719397043707
 20
9.064056911789834
 30
0.0
 11
-3.658318660841147
 21
-1.500708730665685
 31
0.0
210
0.0
220
0.0
230
1.0
 40
0.0679988928624506
 41
0.1165070641761859
 42
0.1663648970961138
  0
ELLIPSE
  5
188BD
330
1F
100
AcDbEntity
  8
AM_0
100
AcDbEllipse
 10
-60.3871939704369
 20
9.064056911789805
 30
0.0
 11
-3.369409838825946
 21
1.637429783681718
 31
0.0
210
0.0
220
0.0
230
1.0
 40
0.4571050616635755
 41
0.1258505153216669
 42
0.3798916802673256
  0
ELLIPSE
  5
188BF
330
1F
100
AcDbEntity
  8
AM_0
100
AcDbEllipse
 10
-62.15007404163001
 20
9.307183640486215
 30
0.0
 11
1.761637251324118
 21
1.601839526812433
 31
0.0
210
0.0
220
0.0
230
1.0
 40
0.5323822405404208
 41
2.230643771207292
 42
3.028739627053263
  0
LINE
  5
188C2
330
1F
100
AcDbEntity
  8
AM_0
100
AcDbLine
 10
-53.4546441044956
 20
25.72831788887817
 30
0.0
 11
-53.70784930021893
 21
22.33148148669287
 31
0.0
  0
LINE
  5
188C3
330
1F
100
AcDbEntity
  8
AM_0
100
AcDbLine
 10
-54.44969942958738
 20
21.53963575679308
 30
0.0
 11
-54.30120770480261
 21
22.12242216568677
 31
0.0
  0
SPLINE
  5
188C6
330
1F
100
AcDbEntity
  8
AM_0
100
AcDbSpline
210
0.0
220
0.0
230
1.0
 70
     8
 71
     3
 72
    16
 73
    12
 74
     0
 42
0.0000000001
 43
0.0000000001
 40
1.861007094038113
 40
1.861007094038113
 40
1.861007094038113
 40
1.861007094038113
 40
2.458497849458611
 40
2.458497849458611
 40
3.154099996571
 40
3.154099996571
 40
3.849702143683388
 40
3.849702143683388
 40
4.545304290795777
 40
4.545304290795777
 40
4.582332525538685
 40
4.582332525538685
 40
4.582332525538685
 40
4.582332525538685
 10
-55.07786282018026
 20
14.00166747911692
 30
0.0
 10
-55.10933226178929
 20
13.90487251213321
 30
0.0
 10
-55.14472823963709
 20
13.82082297233785
 30
0.0
 10
-55.21481823680551
 20
13.66930111520176
 30
0.0
 10
-55.24823449777568
 20
13.60679861272709
 30
0.0
 10
-55.29893981008578
 20
13.51887122482657
 30
0.0
 10
-55.31795730648079
 20
13.49044906649394
 30
0.0
 10
-55.34708606988238
 20
13.47219169588229
 30
0.0
 10
-55.35740722830869
 20
13.48237189526518
 30
0.0
 10
-55.37349432333025
 20
13.51444165564908
 30
0.0
 10
-55.37432263282926
 20
13.51611921131453
 30
0.0
 10
-55.37516795815071
 20
13.51785337784551
 30
0.0
  0
ELLIPSE
  5
188CB
330
1F
100
AcDbEntity
  8
AM_0
100
AcDbEllipse
 10
-61.42878259642652
 20
19.98011766453831
 30
0.0
 11
-0.2345443887981017
 21
-1.270801949960222
 31
0.0
210
0.0
220
0.0
230
1.0
 40
0.0853223481118297
 41
4.046139630647625
 42
4.714424528019618
  0
ARC
  5
188D0
330
1F
100
AcDbEntity
  8
AM_0
100
AcDbCircle
 10
-65.23207079364454
 20
9.700252046713814
 30
0.0
 40
1.47188433835005
100
AcDbArc
 50
334.4855806171128
 51
12.29244822866553
  0
ARC
  5
188D4
330
1F
100
AcDbEntity
  8
AM_0
100
AcDbCircle
 10
-39.51448301115281
 20
17.16754052826724
 30
0.0
 40
15.55052634821806
100
AcDbArc
 50
164.8251802787498
 51
174.2805892633364
  0
LINE
  5
188D7
330
1F
100
AcDbEntity
  8
AM_0
100
AcDbLine
 10
-54.73037543500601
 20
27.41845785328411
 30
0.0
 11
-60.21677022529769
 21
28.17511126351741
 31
0.0
  0
LINE
  5
188D8
330
1F
100
AcDbEntity
  8
AM_0
100
AcDbLine
 10
-53.43945746151061
 20
25.82101997201335
 30
0.0
 11
-53.69987507605907
 21
22.32742644467092
 31
0.0
  0
LINE
  5
188D9
330
1F
100
AcDbEntity
  8
AM_0
100
AcDbLine
 10
-55.04162720894612
 20
13.94164232736043
 30
0.0
 11
-55.00930484827828
 21
14.00190655515524
 31
0.0
  0
LINE
  5
188DA
330
1F
100
AcDbEntity
  8
AM_0
100
AcDbLine
 10
-55.04193775249743
 20
13.94180888554985
 30
0.0
 11
-55.87466291613094
 21
12.4977915796409
 31
0.0
  0
LINE
  5
188DB
330
1F
100
AcDbEntity
  8
AM_0
100
AcDbLine
 10
-59.12678633811578
 20
10.11679097423922
 30
0.0
 11
-63.93665298477521
 21
7.551060262965194
 31
0.0
  0
ARC
  5
188DC
330
1F
100
AcDbEntity
  8
AM_0
100
AcDbCircle
 10
-62.61005265274849
 20
18.28593937347699
 30
0.0
 40
8.880773039968014
100
AcDbArc
 50
293.0930522593799
 51
319.3254409250199
  0
LINE
  5
188DD
330
1F
100
AcDbEntity
  8
AM_0
100
AcDbLine
 10
-63.63298963329288
 20
11.53063002331857
 30
0.0
 11
-63.80553966464686
 21
11.55442717511866
 31
0.0
  0
LINE
  5
188DE
330
1F
100
AcDbEntity
  8
AM_0
100
AcDbLine
 10
-64.00884962223813
 20
7.544604934533311
 30
0.0
 11
-64.42775002350595
 21
7.602377375140065
 31
0.0
  0
ELLIPSE
  5
188E0
330
1F
100
AcDbEntity
  8
AM_0
100
AcDbEllipse
 10
-54.93530742445182
 20
25.93252283461681
 30
0.0
 11
1.495849962941216
 21
-0.1115028626034499
 31
0.0
210
0.0
220
0.0
230
1.0
 40
0.5954888024134789
 41
6.178233415414701
 42
6.283185307179541
  0
ELLIPSE
  5
188E1
330
1F
100
AcDbEntity
  8
AM_0
100
AcDbEllipse
 10
-55.90821725800524
 20
14.44136850995633
 30
0.0
 11
0.8662795055078094
 21
-0.4995596244064789
 31
0.0
210
0.0
220
0.0
230
1.0
 40
0.9757528704975782
 41
-0.0000000000000091
 42
0.0698821042903588
  0
ELLIPSE
  5
188E4
330
1F
100
AcDbEntity
  8
AM_0
100
AcDbEllipse
 10
-54.56993973071741
 20
18.51728789720229
 30
0.0
 11
0.6147959683374832
 21
4.457805056001885
 31
0.0
210
0.0
220
0.0
230
1.0
 40
0.0841598296156548
 41
5.776637952822143
 42
6.923700952203967
  0
ELLIPSE
  5
188E5
330
1F
100
AcDbEntity
  8
AM_0
100
AcDbEllipse
 10
-54.71843145550224
 20
17.93450148830863
 30
0.0
 11
0.6147959683374832
 21
4.457805056001885
 31
0.0
210
0.0
220
0.0
230
1.0
 40
0.0841598296156548
 41
0.6405156450243669
 42
0.7477884540466916
  0
ELLIPSE
  5
188E6
330
1F
100
AcDbEntity
  8
AM_0
100
AcDbEllipse
 10
-54.71843145550224
 20
17.93450148830863
 30
0.0
 11
0.6147959683374832
 21
4.457805056001885
 31
0.0
210
0.0
220
0.0
230
1.0
 40
0.0841598296156548
 41
1.40590746199921
 42
3.016716481639169
  0
ARC
  5
188EC
330
1F
100
AcDbEntity
  8
AM_0
100
AcDbCircle
 10
-54.93530742445182
 20
25.93252283461681
 30
0.0
 40
1.5
100
AcDbArc
 50
355.7369721597208
 51
82.14761620602165
  0
LINE
  5
188ED
330
1F
100
AcDbEntity
  8
AM_0
100
AcDbLine
 10
-52.9140734785677
 20
17.06512430392388
 30
0.0
 11
-53.12208782478535
 21
16.24872908724606
 31
0.0
  0
LINE
  5
188EE
330
1F
100
AcDbEntity
  8
AM_0
100
AcDbLine
 10
-53.26242457140964
 20
15.81612608429509
 30
0.0
 11
-53.30902744626721
 21
16.64857486069911
 31
0.0
  0
LINE
  5
188EF
330
1F
100
AcDbEntity
  8
AM_0
100
AcDbLine
 10
-53.30902744626718
 20
16.64857486069911
 30
0.0
 11
-53.01812751575119
 21
18.92380053791297
 31
0.0
  0
LINE
  5
188F0
330
1F
100
AcDbEntity
  8
AM_0
100
AcDbLine
 10
-53.01812751575119
 20
18.92380053791297
 30
0.0
 11
-52.67520056664341
 21
20.26968809813229
 31
0.0
  0
LINE
  5
188F1
330
1F
100
AcDbEntity
  8
AM_0
100
AcDbLine
 10
-52.67520056664341
 20
20.26968809813229
 30
0.0
 11
-52.6434552216533
 21
19.70263351889602
 31
0.0
  0
DIMENSION
  5
189D3
330
1F
100
AcDbEntity
  8
AM_5
370
    13
100
AcDbDimension
  2
*D8
 10
-15.00193637119639
 20
32.00000000000001
 30
0.0
 11
-15.00193637119639
 21
16.53830248156544
 31
0.0
 70
   160
 71
     5
 42
32.00000000000001
  3
AM_JIS$0
100
AcDbAlignedDimension
 13
-4.03575476189593
 23
0.0
 33
0.0
 14
21.10884689066666
 24
32.0
 34
0.0
 50
90.0
100
AcDbRotatedDimension
1001
ACAD
1000
DSTYLE
1002
{
1070
   271
1070
     0
1002
}
  0
DIMENSION
  5
189ED
330
1F
100
AcDbEntity
  8
AM_5
370
    13
100
AcDbDimension
  2
*D9
 10
34.99999999999994
 20
-25.64267928689833
 30
0.0
 11
17.14538950218287
 21
-25.64267928689833
 31
0.0
 70
   160
 71
     5
 42
34.99999999999994
  3
AM_JIS$0
100
AcDbAlignedDimension
 13
0.0
 23
0.0
 33
0.0
 14
34.99999999999994
 24
7.0
 34
0.0
100
AcDbRotatedDimension
1001
ACAD
1000
DSTYLE
1002
{
1070
   271
1070
     0
1002
}
  0
DIMENSION
  5
189FC
330
1F
100
AcDbEntity
  8
AM_5
370
    13
100
AcDbDimension
  2
*D10
 10
0.0
 20
0.5517504792624663
 30
0.0
 11
11.32166474869841
 21
-8.59440828651757
 31
0.0
 70
    34
  1
<>
 71
     5
 42
1.876228945893889
  3
AM_JIS$2
100
AcDb2LineAngularDimension
 13
14.26745199929655
 23
4.205490099981375
 33
0.0
 14
1.046127995188613
 24
0.0368226541097556
 34
0.0
 15
-0.0000000000000284
 25
-21.06324702243705
 35
0.0
 16
10.2092958734453
 26
-14.43121392662293
 36
0.0
1001
ACAD
1000
DSTYLE
1002
{
1070
   179
1070
     1
1070
   271
1070
     0
1002
}
  0
DIMENSION
  5
18A1F
330
1F
100
AcDbEntity
  8
AM_5
370
    13
100
AcDbDimension
  2
*D11
 10
4.056897024461023
 20
14.22948617825898
 30
0.0
 11
-16.15891155501177
 21
-18.07618189807491
 31
0.0
 70
   162
  1
55%%D
 71
     5
 42
0.9695231596538899
  3
AM_JIS$2
100
AcDb2LineAngularDimension
 13
14.26745199929655
 23
4.205490099981375
 33
0.0
 14
1.046127995188613
 24
0.0368226541097556
 34
0.0
 15
0.0340279189386479
 25
1.030430466824868
 35
0.0
 16
-19.54511229676616
 26
-14.33377515743155
 36
0.0
1001
ACAD
1000
DSTYLE
1002
{
1070
   271
1070
     0
1002
}
  0
ACAD_PROXY_ENTITY
  5
18A9A
330
1F
100
AcDbEntity
  8
AM_5
370
    13
100
AcDbProxyEntity
 90
      498
 91
      533
 95
       25
 70
     0
 92
      824
310
38030000300000000C00000016000000000000C00C00000013000000010000000C00000016000000000000C00C000000170000000D0000003C0000000600000002000000FC243E8DBCFB46C09C1E197BD93242C00000000000000000345871C0EF8E48C09C1E197BD93242C000000000000000000C00000016000000000000
310
C00C00000010000000FFFFFFFF0C00000012000000FFFFFFFF0C00000017000000000000000C00000014000000010000000C00000013000000020000000C00000016000000000000C00C000000170000000D0000003C0000000600000002000000345871C0EF8E48C09C1E197BD93242C00000000000000000315871C0EF8E
310
48C09EA3985C198C3BC000000000000000000C00000016000000000000C00C00000010000000FFFFFFFF0C00000012000000FFFFFFFF0C00000017000000000000000C00000014000000010000000C00000013000000030000000C00000016000000000000C00C000000170000000D0000003C000000060000000200000031
310
5871C0EF8E48C09EA3985C198C3BC00000000000000000305871C0EF8E48C0383D32F6B26538C000000000000000000C00000016000000000000C00C00000010000000FFFFFFFF0C00000012000000FFFFFFFF0C00000017000000000000000C00000014000000010000000C00000013000000040000000C00000016000000
310
000000C00C000000170000000D0000003C00000006000000020000008816B2AFDA5948C09FA3985C198C3BC00000000000000000305871C0EF8E48C0383D32F6B26538C000000000000000000C00000016000000000000C00C00000010000000FFFFFFFF0C00000012000000FFFFFFFF0C00000017000000000000000C0000
310
0014000000010000000C00000013000000050000000C00000016000000000000C00C000000170000000D0000003C0000000600000002000000305871C0EF8E48C0383D32F6B26538C00000000000000000DA9930D104C448C09EA3985C198C3BC000000000000000000C00000016000000000000C00C00000010000000FFFF
310
FFFF0C00000012000000FFFFFFFF0C00000017000000000000000C00000014000000010000000C00000013000000060000000C00000016000000000000C0
 93
     1537
310
5DC305871C0EF8E48C01E0EAB8F2C668D7024000000000000C4BC8000000000000C43C6A54051F8000000C8001E8CCCCCCCCCC2500000000000000E0BCA0D161C703BE3923009C1E197BD93242C09018FFFFFFFF0C161C703BE392300383D32F6B26538C0A8FFFFFFFF1FFFFFFFF068B0E381DF1C91804E0F0CBDEC9921604
310
5409C870FC243E8DBCFB46C002215FF84FDA50702A5000000000000312F28333333333333094041D050000000000003C2FC000000000000F0BF40401015213500500
340
17F
340
EDAB
330
0
330
0
340
0
340
0
340
180
330
0
330
0
 94
        0
  0
ACAD_PROXY_ENTITY
  5
18A9B
330
1F
100
AcDbEntity
  8
AM_5
370
    13
100
AcDbProxyEntity
 90
      498
 91
      533
 95
       25
 70
     0
 92
      668
310
9C020000270000000C00000016000000000000C00C00000013000000010000000C00000016000000000000C00C000000170000000D0000003C0000000600000002000000345871C0EF8E48C09C1E197BD93242C00000000000000000678BA4F3222244C09C1E197BD93242C000000000000000000C00000016000000000000
310
C00C00000010000000FFFFFFFF0C00000012000000FFFFFFFF0C00000017000000000000000C00000014000000010000000C00000013000000020000000C00000016000000000000C00C000000170000000D0000003C0000000600000002000000678BA4F3222244C09C1E197BD93242C00000000000000000345871C0EF8E
310
42C09C1E197BD93242C000000000000000000C00000016000000000000C00C00000010000000FFFFFFFF0C00000012000000FFFFFFFF0C00000017000000000000000C00000014000000010000000C00000013000000030000000C00000016000000000000C00C000000170000000D0000003C000000060000000200000067
310
8BA4F3222244C04560D88BEE6742C00000000000000000345871C0EF8E42C09C1E197BD93242C000000000000000000C00000016000000000000C00C00000010000000FFFFFFFF0C00000012000000FFFFFFFF0C00000017000000000000000C00000014000000010000000C00000013000000040000000C00000016000000
310
000000C00C000000170000000D0000003C0000000600000002000000345871C0EF8E42C09C1E197BD93242C00000000000000000678BA4F3222244C0F3DC596AC4FD41C000000000000000000C00000016000000000000C00C00000010000000FFFFFFFF0C00000012000000FFFFFFFF0C00000017000000000000000C0000
310
0014000000010000000C00000013000000050000000C00000016000000000000C0
 93
     1537
310
5DCD456AFE36E2941C02707865EF64C90B023FBFFFFFFFFFF26F0000000000000F0BF93FBFFFFFFFFFF26F2A54051F8000000C800AA0D161C703BE3923009C1E197BD93242C09018FFFFFFFF0D161C703BE390B009C1E197BD93242C0A8FFFFFFFF1FFFFFFFF068B0E381DF1C91804E0F0CBDEC99216045409C8709CBED726
310
56C547C03414532B833190F02A4FEFFFFFFFFFFC9BC0000000000003C2FE8333333333333094041D050000000000003C2FC000000000000F0BF40401015213500500
340
17F
340
EDAB
330
0
330
0
340
0
340
0
340
180
330
0
330
0
 94
        0
  0
TEXT
  5
18A9C
330
1F
100
AcDbEntity
  8
AM_6
 62
     0
370
    30
100
AcDbText
 10
-36.0189697768202
 20
-37.82036138744496
 30
0.0
 40
4.0
  1
-5%%d
100
AcDbText
  0
TEXT
  5
18A9D
330
1F
100
AcDbEntity
  8
AM_6
 62
     0
370
    30
100
AcDbText
 10
-52.72401568882412
 20
-23.0905525696615
 30
0.0
 40
4.0
  1
-8%%d
100
AcDbText
  0
TEXT
  5
18AA7
330
1F
100
AcDbEntity
  8
AM_6
  6
Continuous
 62
     0
370
    30
100
AcDbText
 10
48.23621138307766
 20
-122.3380071681359
 30
0.0
 40
3.8
  1
DDHNR2525M15
  7
ACISOTS
100
AcDbText
  0
LINE
  5
18ABC
330
1F
100
AcDbEntity
  8
AM_5
370
    13
100
AcDbLine
 10
0.0340279189386479
 20
1.030430466824868
 30
0.0
 11
-0.4086057813221657
 21
-0.4218531437654463
 31
0.0
  0
LINE
  5
18ABD
330
1F
100
AcDbEntity
  8
AM_5
370
    13
100
AcDbLine
 10
1.046127995188641
 20
0.0368226541097556
 30
0.0
 11
-0.4086057813221657
 21
-0.4218531437654463
 31
0.0
  0
ENDSEC
  0
SECTION
  2
OBJECTS
  0
DICTIONARY
  5
C
330
0
100
AcDbDictionary
281
     1
  3
ACAD_COLOR
350
ED4C
  3
ACAD_GROUP
350
D
  3
ACAD_LAYOUT
350
1A
  3
ACAD_MATERIAL
350
ED4B
  3
ACAD_MLINESTYLE
350
17
  3
ACAD_PLOTSETTINGS
350
19
  3
ACAD_PLOTSTYLENAME
350
E
  3
ACAD_TABLESTYLE
350
ED4D
  3
AcAmCatalogState
350
EDB4
  3
ACDBHEADERROUNDTRIPXREC
350
18B4B
  3
AcDbVariableDictionary
350
30
  3
ACDMSYSVARMGR
350
ED67
  3
ACGREF_MASTER
350
ED5F
  3
ACGREFACAD_MASTER
350
ED87
  3
AcmDictionary
350
4D
  3
ACME_BOM_MANAGER_NAME
350
36
  3
ACME_COMMAND_HISTORY
350
2F
  3
ACME_SCOPE_NAME
350
2E
  3
ACMESTATEMGR
350
3B
  3
AcmeSysVarManager
350
32
  3
AcmSystemVariableManager
350
6A
  3
AD_APPL
350
ED92
  3
ADSYSVARMGR
350
ED91
  3
AmdtNamedDwgMgr
350
ED82
  3
AMG
350
3F
  3
AMGSNAPSETTINGS
350
73
  3
AMI_MASTER
350
ED8A
  3
AUTOCAD_ASSEMBLIES_PROJECT
350
ED9A
  3
Designer_Assemblies_SysVars
350
ED95
  3
DWGPROPS
350
18B4E
  3
FILENAME
350
217A
  3
GREFAM_MODULE
350
ED8B
  3
ZWKSIZE
350
217C
  0
DICTIONARY
  5
EDC8
330
2
100
AcDbDictionary
280
     1
281
     1
  3
ACAD_LAYERSTATES
360
F5B5
  3
AMLAYER_GROUPCOLORS
360
EDC9
  0
DICTIONARY
  5
165
330
1F
100
AcDbDictionary
280
     1
281
     1
  3
ACAD_SORTENTS
360
F11C
  0
DICTIONARY
  5
ED4C
102
{ACAD_REACTORS
330
C
102
}
330
C
100
AcDbDictionary
281
     1
  0
DICTIONARY
  5
D
102
{ACAD_REACTORS
330
C
102
}
330
C
100
AcDbDictionary
281
     1
  0
DICTIONARY
  5
1A
102
{ACAD_REACTORS
330
C
102
}
330
C
100
AcDbDictionary
281
     1
  3
Model
350
22
  3
ﾚｲｱｳﾄ1
350
1E
  3
ﾚｲｱｳﾄ2
350
26
  0
DICTIONARY
  5
ED4B
102
{ACAD_REACTORS
330
C
102
}
330
C
100
AcDbDictionary
281
     1
  0
DICTIONARY
  5
17
102
{ACAD_REACTORS
330
C
102
}
330
C
100
AcDbDictionary
281
     1
  3
Standard
350
18
  0
DICTIONARY
  5
19
102
{ACAD_REACTORS
330
C
102
}
330
C
100
AcDbDictionary
281
     1
  0
ACDBDICTIONARYWDFLT
  5
E
102
{ACAD_REACTORS
330
C
102
}
330
C
100
AcDbDictionary
281
     1
  3
Normal
350
F
100
AcDbDictionaryWithDefault
340
F
  0
DICTIONARY
  5
ED4D
102
{ACAD_REACTORS
330
C
102
}
330
C
100
AcDbDictionary
281
     1
  3
Standard
350
ED4E
  0
ACAD_PROXY_OBJECT
  5
EDB4
102
{ACAD_REACTORS
330
C
102
}
330
C
100
AcDbProxyObject
 90
      499
 91
      571
 95
       25
 70
     0
 93
      184
310
3FFFFFFFE00A028140285221D2E31B0B2483ECB65400AA
  0
DICTIONARY
  5
18B4B
102
{ACAD_REACTORS
330
C
102
}
330
C
100
AcDbDictionary
281
     1
  3
COLORDICT
350
18B4C
  3
MATERIALDICT
350
18B4D
  0
DICTIONARY
  5
30
102
{ACAD_REACTORS
330
C
102
}
330
C
100
AcDbDictionary
281
     1
  3
CTABLESTYLE
350
EE09
  3
HIDETEXT
350
18B4A
  3
INDEXCTL
350
18B49
  0
ACAD_PROXY_OBJECT
  5
ED67
102
{ACAD_REACTORS
330
C
102
}
330
C
100
AcDbProxyObject
 90
      499
 91
      507
 95
       25
 70
     0
 93
      240
310
4C51A47A0000000000000000000000000000000000000000000000000000
330
ED68
330
ED69
330
ED6A
330
ED6B
330
ED6C
330
ED6D
330
ED6E
330
ED6F
330
ED70
330
ED71
330
ED72
330
ED73
330
ED74
330
ED75
330
ED76
330
ED77
330
ED78
330
ED79
330
ED7A
330
ED7B
330
ED7C
330
ED7D
330
ED7E
330
ED7F
330
ED80
330
ED81
 94
        0
  0
ACAD_PROXY_OBJECT
  5
ED5F
102
{ACAD_REACTORS
330
C
102
}
330
C
100
AcDbProxyObject
 90
      499
 91
      535
 95
       25
 70
     0
 93
       34
310
0400004280
  0
ACAD_PROXY_OBJECT
  5
ED87
102
{ACAD_REACTORS
330
C
102
}
330
C
100
AcDbProxyObject
 90
      499
 91
      541
 95
       25
 70
     0
 93
      114
310
04000041C080000000000000000000
  0
DICTIONARY
  5
4D
102
{ACAD_REACTORS
330
C
102
}
330
C
100
AcDbDictionary
281
     1
  3
AcmBOMDATA
350
4E
  3
AcmStdDictionary
350
17E
  3
AMDTSECTSYM_ARROWCOLOR
350
EDA8
  0
ACAD_PROXY_OBJECT
  5
36
102
{ACAD_REACTORS
330
C
102
}
330
C
100
AcDbProxyObject
 90
      499
 91
      510
 95
       25
 70
     0
 93
       50
310
00010040400000
330
0
330
0
330
37
 94
        0
  0
ACAD_PROXY_OBJECT
  5
2F
102
{ACAD_REACTORS
330
C
102
}
330
C
100
AcDbProxyObject
 90
      499
 91
      505
 95
       25
 70
     0
 93
     6020
310
47805044C494E4540405184D5347202D20436F6D6D616E642043414E43454C4C45442E01415454D05591501014B5354D1C80B481414104E88080819195CDADD1BDC0B985C9E08119A5B1955995C9CDA5BDB8E880E4B8C8B8C0B8D005044D4F5645805055153415645404052D4D5347202D205050413A2020206465736B746F
310
702E6172782046696C6556657273696F6E3A20392E322E302E3401415454D05591501014B5354D1C80B481414104E88080819195CDADD1BDC0B985C9E08119A5B1955995C9CDA5BDB8E880E4B8C8B8C0B8D005055055524745805055153415645404052D4D5347202D205050413A2020206465736B746F702E617278204669
310
6C6556657273696F6E3A20392E322E302E3401415454D05591501014B5354D1C80B481414104E88080819195CDADD1BDC0B985C9E08119A5B1955995C9CDA5BDB8E880E4B8C8B8C0B8D005055153415645404052D4D5347202D205050413A2020206465736B746F702E6172782046696C6556657273696F6E3A20392E322E3
310
02E3401415454D05591501014B5354D1C80B481414104E88080819195CDADD1BDC0B985C9E08119A5B1955995C9CDA5BDB8E880E4B8C8B8C0B8D005055153415645404052D4D5347202D205050413A2020206465736B746F702E6172782046696C6556657273696F6E3A20392E322E302E34014390535115149154D1551110
310
9353D1102014213880B4815539113C05084E202D20554E444F014115539113E014115539113E0142941493D4115495125154E014151549054D150101461354D1C80B4810DBDB5B585B990810D05390D1531311510B805054552415345805054552415345805054552415345805054552415345805054552415345805054552
310
4153458050545524153458050545524153458050545524153458050545524153458050C475249505F53545245544348805055055524745805045A4F4F4D805055153415645404052D4D5347202D205050413A2020206465736B746F702E6172782046696C6556657273696F6E3A20392E322E302E340
  0
ACAD_PROXY_OBJECT
  5
2E
102
{ACAD_REACTORS
330
C
102
}
330
C
100
AcDbProxyObject
 90
      499
 91
      504
 95
       25
 70
     0
 93
      594
310
09000046408000000000000000001354E60000000000000000000000000000000000000000000000000000000000000000000000000000000000000000000000000000000000AAA406AA80
360
33
360
34
360
35
360
37
360
6B
360
6C
360
ED60
360
ED61
360
ED62
360
ED63
360
ED64
360
ED65
360
ED68
360
ED69
360
ED6A
360
ED6B
360
ED6C
360
ED6D
360
ED6E
360
ED6F
360
ED70
360
ED71
360
ED72
360
ED73
360
ED74
360
ED75
360
ED76
360
ED77
360
ED78
360
ED79
360
ED7A
360
ED7B
360
ED7C
360
ED7D
360
ED7E
360
ED7F
360
ED80
360
ED81
360
ED8D
360
ED8E
360
ED8F
360
ED90
360
ED96
360
ED97
360
ED98
360
ED99
360
ED9E
360
ED9F
360
EDA0
360
EDA1
360
EDA2
360
EDA3
360
EDCB
 94
        0
  0
ACAD_PROXY_OBJECT
  5
3B
102
{ACAD_REACTORS
330
C
102
}
330
C
100
AcDbProxyObject
 90
      499
 91
      515
 95
       25
 70
     0
 93
       50
310
09000042641280
  0
ACAD_PROXY_OBJECT
  5
32
102
{ACAD_REACTORS
330
C
102
}
330
C
100
AcDbProxyObject
 90
      499
 91
      507
 95
       25
 70
     0
 93
       48
310
903412000000
330
33
330
34
330
35
 94
        0
  0
ACAD_PROXY_OBJECT
  5
6A
102
{ACAD_REACTORS
330
C
102
}
330
C
100
AcDbProxyObject
 90
      499
 91
      507
 95
       25
 70
     0
 93
       48
310
903412000000
330
6B
330
6C
330
EDCB
 94
        0
  0
ACAD_PROXY_OBJECT
  5
ED92
102
{ACAD_REACTORS
330
C
102
}
330
C
100
AcDbProxyObject
 90
      499
 91
      551
 95
       25
 70
     0
 93
       42
310
000900004040
330
ED8D
 94
        0
  0
ACAD_PROXY_OBJECT
  5
ED91
102
{ACAD_REACTORS
330
C
102
}
330
C
100
AcDbProxyObject
 90
      499
 91
      507
 95
       25
 70
     0
 93
        8
310
AA
  0
ACAD_PROXY_OBJECT
  5
ED82
102
{ACAD_REACTORS
330
C
102
}
330
C
100
AcDbProxyObject
 90
      499
 91
      540
 95
       25
 70
     0
 93
       42
310
000100005E80
330
ED60
 94
        0
  0
DICTIONARY
  5
3F
102
{ACAD_REACTORS
330
C
102
}
330
C
100
AcDbDictionary
281
     1
  3
AcMgSettings
350
40
  3
AMGLAYCFG
350
42
  0
DICTIONARY
  5
73
102
{ACAD_REACTORS
330
C
102
}
330
C
100
AcDbDictionary
281
     1
  3
DIMENSION
350
62F
  3
FEA
350
630
  3
HATCH (1)
350
631
  3
HATCH (2)
350
632
  3
SYMBOLS
350
633
  0
ACAD_PROXY_OBJECT
  5
ED8A
102
{ACAD_REACTORS
330
C
102
}
330
C
100
AcDbProxyObject
 90
      499
 91
      544
 95
       25
 70
     0
 93
       34
310
0500004280
  0
ACAD_PROXY_OBJECT
  5
ED9A
102
{ACAD_REACTORS
330
C
102
}
330
C
100
AcDbProxyObject
 90
      499
 91
      554
 95
       25
 70
     0
 93
       98
310
0900004E400000000000000000
330
EDA1
330
0
330
EDA2
330
0
330
0
330
0
330
0
330
0
 94
        0
  0
ACAD_PROXY_OBJECT
  5
ED95
102
{ACAD_REACTORS
330
C
102
}
330
C
100
AcDbProxyObject
 90
      499
 91
      507
 95
       25
 70
     0
 93
       56
310
90441600000000
330
ED96
330
ED97
330
ED98
330
ED99
 94
        0
  0
XRECORD
  5
18B4E
102
{ACAD_REACTORS
330
C
102
}
330
C
100
AcDbXrecord
280
     1
  1
DWGPROPS COOKIE
  2

  3

  4

  6

  7

  8

  9

300
AmdtFileType=84
301
=
302
=
303
=
304
=
305
=
306
=
307
=
308
=
309
=
 40
0.0
 41
2451943.235431667
 42
2455440.986594502
  1

 90
        1
  0
DICTIONARY
  5
217A
102
{ACAD_REACTORS
330
C
102
}
330
C
100
AcDbDictionary
281
     1
  3
FILENAME
350
217B
  0
ACAD_PROXY_OBJECT
  5
ED8B
102
{ACAD_REACTORS
330
C
102
}
330
C
100
AcDbProxyObject
 90
      499
 91
      545
 95
       25
 70
     0
 93
        8
310
05
  0
DICTIONARY
  5
217C
102
{ACAD_REACTORS
330
C
102
}
330
C
100
AcDbDictionary
281
     1
  3
ZWKSIZE
350
217D
  0
DICTIONARY
  5
F5B5
102
{ACAD_REACTORS
330
EDC8
102
}
330
EDC8
100
AcDbDictionary
281
     1
  0
DICTIONARY
  5
EDC9
102
{ACAD_REACTORS
330
EDC8
102
}
330
EDC8
100
AcDbDictionary
280
     1
281
     1
  3
基本画層グループ
360
EDCA
  0
SORTENTSTABLE
  5
F11C
102
{ACAD_REACTORS
330
165
102
}
330
165
100
AcDbSortentsTable
330
1F
331
0
  5
187DC
331
17604
  5
17A26
331
17F49
  5
17F4A
331
17F4A
  5
17F5A
331
17F5A
  5
17F85
331
17F85
  5
17FB8
331
17FB8
  5
17FDA
331
18042
  5
1808E
331
186A6
  5
186A7
331
186A7
  5
186A8
331
186A8
  5
186A9
331
186A9
  5
186AA
331
186AA
  5
186AB
331
186AB
  5
186AC
331
186AC
  5
186AD
331
186AE
  5
186AF
331
186AF
  5
186B0
331
186B0
  5
186B1
331
1875B
  5
1875C
331
18760
  5
18761
331
18761
  5
18762
331
18762
  5
18763
331
18763
  5
18764
331
18764
  5
18765
331
18765
  5
18766
331
18766
  5
18767
331
1876A
  5
1876B
331
1876B
  5
1876C
331
1876C
  5
1876D
331
1876D
  5
1876E
331
1876E
  5
1876F
331
18774
  5
18775
331
18775
  5
18776
331
18776
  5
18777
331
18777
  5
18778
331
18778
  5
18779
331
1877A
  5
1877B
331
18781
  5
18782
331
18782
  5
18783
331
18783
  5
18784
331
18784
  5
18785
331
18785
  5
18786
331
18786
  5
18787
331
18787
  5
18788
331
18788
  5
18789
331
18789
  5
1878A
331
1878C
  5
1878D
331
1878E
  5
1878F
331
1878F
  5
18790
331
18790
  5
18791
331
18791
  5
18792
331
18792
  5
18793
331
18795
  5
18796
331
18796
  5
18797
331
18797
  5
18798
331
18799
  5
1879A
331
1879A
  5
1879B
331
1879B
  5
1879C
331
1879C
  5
1879D
331
1879E
  5
1879F
331
187A2
  5
187A3
331
187A3
  5
187A4
331
187A4
  5
187A5
331
187A5
  5
187A6
331
187A6
  5
187A7
331
187A7
  5
187A8
331
187A9
  5
187AA
331
187AF
  5
187B0
331
187B0
  5
187B1
331
187B1
  5
187B2
331
187B3
  5
187B4
331
187B9
  5
187BA
331
187BA
  5
187BB
331
187BE
  5
187BF
331
187C3
  5
187C4
331
187C8
  5
187C9
331
187CC
  5
187CD
331
187CF
  5
187D0
331
187D0
  5
187D1
331
187D1
  5
187D2
331
187D2
  5
187D3
331
187D3
  5
187D4
331
187D4
  5
187D5
331
187D5
  5
187D6
331
187E1
  5
187E2
331
187E2
  5
187E3
331
187E3
  5
187E4
331
187E4
  5
187E5
331
187E5
  5
187E6
331
187EB
  5
187EC
331
187EC
  5
187ED
331
187ED
  5
187EE
331
187EE
  5
187EF
331
187EF
  5
187F0
331
187F0
  5
187F1
331
187F1
  5
187F2
331
187F2
  5
187F3
331
187F3
  5
187F4
331
187F4
  5
187F5
331
187F5
  5
187F6
331
187F6
  5
187F7
331
187F7
  5
187F8
331
187F8
  5
187F9
331
187F9
  5
187FA
331
187FA
  5
187FB
331
187FB
  5
187FC
331
187FC
  5
187FD
331
187FD
  5
187FE
331
187FE
  5
187FF
331
18800
  5
18801
331
18801
  5
18802
331
18802
  5
18803
331
18803
  5
18804
331
18804
  5
18805
331
18805
  5
18806
331
18806
  5
18807
331
18807
  5
18808
331
18808
  5
18809
331
18809
  5
1880A
331
1880A
  5
1880B
331
1880B
  5
1880C
331
1880C
  5
1880D
331
1880D
  5
1880E
331
1880E
  5
1880F
331
1880F
  5
18810
331
18810
  5
18811
331
18811
  5
18812
331
18812
  5
18813
331
18813
  5
18814
331
18814
  5
18815
331
18815
  5
18816
331
18816
  5
18817
331
18818
  5
18819
331
1881A
  5
1881B
331
1881B
  5
1881C
331
1881D
  5
1881E
331
1881E
  5
1881F
331
1881F
  5
18820
331
18820
  5
18821
331
18821
  5
18822
331
18822
  5
18823
331
18823
  5
18824
331
18824
  5
18825
331
18825
  5
18826
331
18826
  5
18827
331
18827
  5
18828
331
18829
  5
1882A
331
1882A
  5
1882B
331
1882B
  5
1882C
331
1882C
  5
1882D
331
1882D
  5
1882E
331
1882E
  5
1882F
331
1882F
  5
18830
331
18830
  5
18831
331
18831
  5
18832
331
18832
  5
18833
331
18833
  5
18834
331
18836
  5
18837
331
1883B
  5
1883C
331
18841
  5
18842
331
18842
  5
18843
331
18844
  5
18845
331
1884A
  5
1884B
331
1884D
  5
1884E
331
1884F
  5
18850
331
18851
  5
18852
331
18853
  5
18854
331
18854
  5
18855
331
18856
  5
18857
331
18857
  5
18858
331
18858
  5
18859
331
18859
  5
1885A
331
1885A
  5
1885B
331
18862
  5
18863
331
18863
  5
18864
331
18864
  5
18865
331
18867
  5
18868
331
18868
  5
18869
331
18869
  5
1886A
331
1886A
  5
1886B
331
1886B
  5
1886C
331
1886D
  5
1886E
331
1886F
  5
18870
331
18871
  5
18872
331
18872
  5
18873
331
18873
  5
18874
331
18874
  5
18875
331
18875
  5
18876
331
18876
  5
18877
331
18877
  5
18878
331
18879
  5
1887A
331
1887A
  5
1887B
331
1887B
  5
1887C
331
1887F
  5
18880
331
18880
  5
18881
331
18881
  5
18882
331
18882
  5
18883
331
18883
  5
18884
331
18884
  5
18885
331
18885
  5
18886
331
18886
  5
18887
331
18887
  5
18888
331
18889
  5
1888A
331
1888A
  5
1888B
331
1888B
  5
1888C
331
1888C
  5
1888D
331
1888D
  5
1888E
331
1888E
  5
1888F
331
1888F
  5
18890
331
18890
  5
18891
331
18891
  5
18892
331
18892
  5
18893
331
18893
  5
18894
331
18894
  5
18895
331
18895
  5
18896
331
18896
  5
18897
331
18897
  5
18898
331
18898
  5
18899
331
18899
  5
1889A
331
1889A
  5
1889B
331
1889B
  5
1889C
331
1889D
  5
1889E
331
1889E
  5
1889F
331
1889F
  5
188A0
331
188A0
  5
188A1
331
188A1
  5
188A2
331
188A2
  5
188A3
331
188A3
  5
188A4
331
188A4
  5
188A5
331
188A5
  5
188A6
331
188A6
  5
188A7
331
188A7
  5
188A8
331
188A8
  5
188A9
331
188A9
  5
188AA
331
188AA
  5
188AB
331
188AC
  5
188AD
331
188AD
  5
188AE
331
188AE
  5
188AF
331
188AF
  5
188B0
331
188B0
  5
188B1
331
188B1
  5
188B2
331
188B2
  5
188B3
331
188B3
  5
188B4
331
188B5
  5
188B6
331
188B8
  5
188B9
331
188B9
  5
188BA
331
188BA
  5
188BB
331
188BB
  5
188BC
331
188BC
  5
188BD
331
188BD
  5
188BE
331
188BF
  5
188C0
331
188C2
  5
188C3
331
188C3
  5
188C4
331
188C6
  5
188C7
331
188CB
  5
188CC
331
188D0
  5
188D1
331
188D4
  5
188D5
331
188D7
  5
188D8
331
188D8
  5
188D9
331
188D9
  5
188DA
331
188DA
  5
188DB
331
188DB
  5
188DC
331
188DC
  5
188DD
331
188DD
  5
188DE
331
188DE
  5
188DF
331
188E0
  5
188E1
331
188E1
  5
188E2
331
188E4
  5
188E5
331
188E5
  5
188E6
331
188E6
  5
188E7
331
188EC
  5
188ED
331
188ED
  5
188EE
331
188EE
  5
188EF
331
188EF
  5
188F0
331
188F0
  5
188F1
331
188F1
  5
188F2
  0
LAYOUT
  5
22
102
{ACAD_REACTORS
330
1A
102
}
330
1A
100
AcDbPlotSettings
  1

  2
SII LP-2150 (D-SCAN C2)
  4
User120
  6
AM_VIEW1
 40
3.174999952316284
 41
3.174999952316284
 42
3.17498779296875
 43
3.17498779296875
 44
296.9259948730469
 45
419.9889831542969
 46
0.0
 47
0.0
 48
0.0
 49
0.0
140
420.0
141
297.0
142
1.0
143
1.022107788374329
 70
 11952
 72
     1
 73
     1
 74
     4
  7
sei_cad.ctb
 75
     0
147
0.9783703943695685
148
0.0
149
0.0
100
AcDbLayout
  1
Model
 70
     1
 71
     0
 10
0.0
 20
0.0
 11
12.0
 21
9.0
 12
0.0
 22
0.0
 32
0.0
 14
0.0
 24
0.0
 34
0.0
 15
0.0
 25
0.0
 35
0.0
146
0.0
 13
0.0
 23
0.0
 33
0.0
 16
1.0
 26
0.0
 36
0.0
 17
0.0
 27
1.0
 37
0.0
 76
     0
330
1F
1001
ACAD_PSEXT
1000
SII LP-2150 (D-SCAN C2)
1000
SII LP-2150 (D-SCAN C2)
1000
133.153.16.130#3000
1000

1070
     0
  0
LAYOUT
  5
1E
102
{ACAD_REACTORS
330
1A
102
}
330
1A
100
AcDbPlotSettings
  1

  2
Canon LASER SHOT LBP-2030
  4

  6

 40
0.0
 41
0.0
 42
0.0
 43
0.0
 44
0.0
 45
0.0
 46
0.0
 47
0.0
 48
0.0
 49
0.0
140
0.0
141
0.0
142
1.0
143
1.0
 70
   688
 72
     0
 73
     0
 74
     5
  7
sei_cad.ctb
 75
    16
147
1.0
148
0.0
149
0.0
100
AcDbLayout
  1
ﾚｲｱｳﾄ1
 70
     1
 71
     1
 10
0.0
 20
0.0
 11
420.0
 21
297.0
 12
0.0
 22
0.0
 32
0.0
 14
1.000000000000000E+20
 24
1.000000000000000E+20
 34
1.000000000000000E+20
 15
-1.000000000000000E+20
 25
-1.000000000000000E+20
 35
-1.000000000000000E+20
146
0.0
 13
0.0
 23
0.0
 33
0.0
 16
1.0
 26
0.0
 36
0.0
 17
0.0
 27
1.0
 37
0.0
 76
     0
330
1B
  0
LAYOUT
  5
26
102
{ACAD_REACTORS
330
1A
102
}
330
1A
100
AcDbPlotSettings
  1

  2
Canon LASER SHOT LBP-2030
  4

  6

 40
0.0
 41
0.0
 42
0.0
 43
0.0
 44
0.0
 45
0.0
 46
0.0
 47
0.0
 48
0.0
 49
0.0
140
0.0
141
0.0
142
1.0
143
1.0
 70
   688
 72
     0
 73
     0
 74
     5
  7
sei_cad.ctb
 75
    16
147
1.0
148
0.0
149
0.0
100
AcDbLayout
  1
ﾚｲｱｳﾄ2
 70
     1
 71
     2
 10
0.0
 20
0.0
 11
12.0
 21
9.0
 12
0.0
 22
0.0
 32
0.0
 14
0.0
 24
0.0
 34
0.0
 15
0.0
 25
0.0
 35
0.0
146
0.0
 13
0.0
 23
0.0
 33
0.0
 16
1.0
 26
0.0
 36
0.0
 17
0.0
 27
1.0
 37
0.0
 76
     0
330
23
  0
MLINESTYLE
  5
18
102
{ACAD_REACTORS
330
17
102
}
330
17
100
AcDbMlineStyle
  2
STANDARD
 70
     0
  3

 62
   256
 51
90.0
 52
90.0
 71
     2
 49
0.5
 62
   256
  6
BYLAYER
 49
-0.5
 62
   256
  6
BYLAYER
  0
ACDBPLACEHOLDER
  5
F
102
{ACAD_REACTORS
330
E
102
}
330
E
  0
TABLESTYLE
  5
ED4E
102
{ACAD_REACTORS
330
ED4D
102
}
330
ED4D
100
AcDbTableStyle
  3
Standard
 70
     0
 71
     8
 40
1.5
 41
1.5
280
     0
281
     0
  7
STANDARD
140
4.5
170
     2
 62
     0
 63
     7
283
     0
274
    -2
284
     1
 64
     0
275
    -2
285
     1
 65
     0
276
    -2
286
     1
 66
     0
277
    -2
287
     1
 67
     0
278
    -2
288
     1
 68
     0
279
    -2
289
     1
 69
     0
  7
STANDARD
140
6.0
170
     5
 62
     0
 63
     7
283
     0
274
    -2
284
     1
 64
     0
275
    -2
285
     1
 65
     0
276
    -2
286
     1
 66
     0
277
    -2
287
     1
 67
     0
278
    -2
288
     1
 68
     0
279
    -2
289
     1
 69
     0
  7
STANDARD
140
4.5
170
     5
 62
     0
 63
     7
283
     0
274
    -2
284
     1
 64
     0
275
    -2
285
     1
 65
     0
276
    -2
286
     1
 66
     0
277
    -2
287
     1
 67
     0
278
    -2
288
     1
 68
     0
279
    -2
289
     1
 69
     0
  0
XRECORD
  5
18B4C
102
{ACAD_REACTORS
330
18B4B
102
}
330
18B4B
100
AcDbXrecord
280
     1
340
ED4C
  0
XRECORD
  5
18B4D
102
{ACAD_REACTORS
330
18B4B
102
}
330
18B4B
100
AcDbXrecord
280
     1
340
ED4B
  0
DICTIONARYVAR
  5
EE09
102
{ACAD_REACTORS
330
30
102
}
330
30
100
DictionaryVariables
280
     0
  1
STANDARD
  0
DICTIONARYVAR
  5
18B4A
102
{ACAD_REACTORS
330
30
102
}
330
30
100
DictionaryVariables
280
     0
  1
0
  0
DICTIONARYVAR
  5
18B49
102
{ACAD_REACTORS
330
30
102
}
330
30
100
DictionaryVariables
280
     0
  1
1
  0
ACAD_PROXY_OBJECT
  5
4E
102
{ACAD_REACTORS
330
4D
102
}
330
4D
100
AcDbProxyObject
 90
      499
 91
      520
 95
       25
 70
     0
 93
      118
310
405010040CA904C415CD5B075DD258
350
4F
 94
        0
  0
DICTIONARY
  5
17E
102
{ACAD_REACTORS
330
4D
102
}
330
4D
100
AcDbDictionary
281
     1
  3
ISO
350
F94D
  3
JIS
350
17F
  0
XRECORD
  5
EDA8
102
{ACAD_REACTORS
330
4D
102
}
330
4D
100
AcDbXrecord
280
     1
 90
-1023410169
  0
ACAD_PROXY_OBJECT
  5
33
330
2E
100
AcDbProxyObject
 90
      499
 91
      508
 95
       25
 70
     0
 93
      156
310
00010143D050D351505391D5531054925390D490
330
2E
 94
        0
  0
ACAD_PROXY_OBJECT
  5
34
330
2E
100
AcDbProxyObject
 90
      499
 91
      508
 95
       25
 70
     0
 93
      148
310
000101439050D351531253915054925390D490
330
2E
 94
        0
  0
ACAD_PROXY_OBJECT
  5
35
330
2E
100
AcDbProxyObject
 90
      499
 91
      509
 95
       25
 70
     0
 93
      156
310
000101439050D35154D6535093D314D256915080
330
2E
 94
        0
  0
ACAD_PROXY_OBJECT
  5
37
330
2E
100
AcDbProxyObject
 90
      499
 91
      511
 95
       25
 70
     0
 93
       88
310
000101411093D34C402B00
330
2E
330
0
330
0
 94
        0
  0
ACAD_PROXY_OBJECT
  5
6B
330
2E
100
AcDbProxyObject
 90
      499
 91
      509
 95
       25
 70
     0
 93
      108
310
00010142505351D153D35054D4E0
330
2E
 94
        0
  0
ACAD_PROXY_OBJECT
  5
6C
330
2E
100
AcDbProxyObject
 90
      499
 91
      522
 95
       25
 70
     0
 93
      140
310
00010142105350D55494D511005034A49530
330
2E
 94
        0
  0
ACAD_PROXY_OBJECT
  5
ED60
330
2E
100
AcDbProxyObject
 90
      499
 91
      536
 95
       25
 70
     0
 93
      566
310
0001014124FEA55D00507392E312E302E34014124FEA55D00507392E322E302E3240501000041D0548B54D053910182D4454FB21E93F1EC52B91F85EA50FC000000000000F83F8
330
2E
330
ED61
330
ED67
 94
        0
  0
ACAD_PROXY_OBJECT
  5
ED61
330
2E
100
AcDbProxyObject
 90
      499
 91
      537
 95
       25
 70
     0
 93
       56
310
000190240E0000
330
2E
330
ED62
330
ED64
 94
        0
  0
ACAD_PROXY_OBJECT
  5
ED62
330
2E
100
AcDbProxyObject
 90
      499
 91
      538
 95
       25
 70
     0
 93
       48
310
0001AA000000
330
2E
330
1E
330
ED63
330
0
 94
        0
  0
ACAD_PROXY_OBJECT
  5
ED63
330
2E
100
AcDbProxyObject
 90
      499
 91
      539
 95
       25
 70
     0
 93
       28
310
0001AAA0
330
2E
 94
        0
  0
ACAD_PROXY_OBJECT
  5
ED64
330
2E
100
AcDbProxyObject
 90
      499
 91
      538
 95
       25
 70
     0
 93
       48
310
0001AA000000
330
2E
330
26
330
ED65
330
0
 94
        0
  0
ACAD_PROXY_OBJECT
  5
ED65
330
2E
100
AcDbProxyObject
 90
      499
 91
      539
 95
       25
 70
     0
 93
       28
310
0001AAA0
330
2E
 94
        0
  0
ACAD_PROXY_OBJECT
  5
ED68
330
2E
100
AcDbProxyObject
 90
      499
 91
      509
 95
       25
 70
     0
 93
      108
310
000101421053521310D05310D010
330
2E
 94
        0
  0
ACAD_PROXY_OBJECT
  5
ED69
330
2E
100
AcDbProxyObject
 90
      499
 91
      509
 95
       25
 70
     0
 93
      124
310
00010142905354915554D15112535010
330
2E
 94
        0
  0
ACAD_PROXY_OBJECT
  5
ED6A
330
2E
100
AcDbProxyObject
 90
      499
 91
      509
 95
       25
 70
     0
 93
      132
310
00010143105354D150D51253D391125360
330
2E
 94
        0
  0
ACAD_PROXY_OBJECT
  5
ED6B
330
2E
100
AcDbProxyObject
 90
      499
 91
      509
 95
       25
 70
     0
 93
      124
310
00010142905355941093D49111549010
330
2E
 94
        0
  0
ACAD_PROXY_OBJECT
  5
ED6C
330
2E
100
AcDbProxyObject
 90
      499
 91
      509
 95
       25
 70
     0
 93
      116
310
0001014290535115D1D0D3D313D4A0
330
2E
 94
        0
  0
ACAD_PROXY_OBJECT
  5
ED6D
330
2E
100
AcDbProxyObject
 90
      499
 91
      509
 95
       25
 70
     0
 93
      148
310
00010143505355925155D49151949154D21010
330
2E
 94
        0
  0
ACAD_PROXY_OBJECT
  5
ED6E
330
2E
100
AcDbProxyObject
 90
      499
 91
      509
 95
       25
 70
     0
 93
      172
310
00010144105350539393D51154149154D15495915010
330
2E
 94
        0
  0
ACAD_PROXY_OBJECT
  5
ED6F
330
2E
100
AcDbProxyObject
 90
      499
 91
      509
 95
       25
 70
     0
 93
      172
310
00010144105350555513D11253505494905391D15010
330
2E
 94
        0
  0
ACAD_PROXY_OBJECT
  5
ED70
330
2E
100
AcDbProxyObject
 90
      499
 91
      509
 95
       25
 70
     0
 93
      124
310
00010142D05351561514915191125360
330
2E
 94
        0
  0
ACAD_PROXY_OBJECT
  5
ED71
330
2E
100
AcDbProxyObject
 90
      499
 91
      509
 95
       25
 70
     0
 93
      132
310
00010142D05355105410539393D5115010
330
2E
 94
        0
  0
ACAD_PROXY_OBJECT
  5
ED72
330
2E
100
AcDbProxyObject
 90
      499
 91
      509
 95
       25
 70
     0
 93
      108
310
00010142105350555513D0D31010
330
2E
 94
        0
  0
ACAD_PROXY_OBJECT
  5
ED73
330
2E
100
AcDbProxyObject
 90
      499
 91
      509
 95
       25
 70
     0
 93
      108
310
00010142105350D3119150551050
330
2E
 94
        0
  0
ACAD_PROXY_OBJECT
  5
ED74
330
2E
100
AcDbProxyObject
 90
      499
 91
      509
 95
       25
 70
     0
 93
      108
310
00010142105350D315925155D3F0
330
2E
 94
        0
  0
ACAD_PROXY_OBJECT
  5
ED75
330
2E
100
AcDbProxyObject
 90
      499
 91
      509
 95
       25
 70
     0
 93
      148
310
0001014350535212511156915493D112535010
330
2E
 94
        0
  0
ACAD_PROXY_OBJECT
  5
ED76
330
2E
100
AcDbProxyObject
 90
      499
 91
      509
 95
       25
 70
     0
 93
      124
310
00010142905352105510D21254D3D010
330
2E
 94
        0
  0
ACAD_PROXY_OBJECT
  5
ED77
330
2E
100
AcDbProxyObject
 90
      499
 91
      509
 95
       25
 70
     0
 93
      148
310
00010143905354D25391D31152105513105660
330
2E
 94
        0
  0
ACAD_PROXY_OBJECT
  5
ED78
330
2E
100
AcDbProxyObject
 90
      499
 91
      509
 95
       25
 70
     0
 93
      124
310
00010142D0535115D1D193111254D420
330
2E
 94
        0
  0
ACAD_PROXY_OBJECT
  5
ED79
330
2E
100
AcDbProxyObject
 90
      499
 91
      509
 95
       25
 70
     0
 93
      100
310
00010142105350555513D213A0
330
2E
 94
        0
  0
ACAD_PROXY_OBJECT
  5
ED7A
330
2E
100
AcDbProxyObject
 90
      499
 91
      509
 95
       25
 70
     0
 93
      116
310
000101425053521390D3D553951010
330
2E
 94
        0
  0
ACAD_PROXY_OBJECT
  5
ED7B
330
2E
100
AcDbProxyObject
 90
      499
 91
      509
 95
       25
 70
     0
 93
      108
310
0001014210535213941493D29010
330
2E
 94
        0
  0
ACAD_PROXY_OBJECT
  5
ED7C
330
2E
100
AcDbProxyObject
 90
      499
 91
      509
 95
       25
 70
     0
 93
      108
310
0001014210535213951654115070
330
2E
 94
        0
  0
ACAD_PROXY_OBJECT
  5
ED7D
330
2E
100
AcDbProxyObject
 90
      499
 91
      509
 95
       25
 70
     0
 93
      108
310
000101421053521395925155D0F0
330
2E
 94
        0
  0
ACAD_PROXY_OBJECT
  5
ED7E
330
2E
100
AcDbProxyObject
 90
      499
 91
      509
 95
       25
 70
     0
 93
      140
310
00010143505354D150D51253D390D3D41660
330
2E
 94
        0
  0
ACAD_PROXY_OBJECT
  5
ED7F
330
2E
100
AcDbProxyObject
 90
      499
 91
      509
 95
       25
 70
     0
 93
      108
310
00010142105350D3141493D29030
330
2E
 94
        0
  0
ACAD_PROXY_OBJECT
  5
ED80
330
2E
100
AcDbProxyObject
 90
      499
 91
      508
 95
       25
 70
     0
 93
      212
310
00010143905350555513D2105510D21493D500000000000002E400
330
2E
 94
        0
  0
ACAD_PROXY_OBJECT
  5
ED81
330
2E
100
AcDbProxyObject
 90
      499
 91
      509
 95
       25
 70
     0
 93
      156
310
00010143905350555513D2105510D21111551010
330
2E
 94
        0
  0
ACAD_PROXY_OBJECT
  5
ED8D
330
2E
100
AcDbProxyObject
 90
      499
 91
      547
 95
       25
 70
     0
 93
      698
310
0001000000009AA6A9AA4051E546875204170722032312030303A33303A353620323030352028555443290141CE4B8C4B8C0B8D00518576564205365702030312030383A34303A343120323031300141CE4B8C8B8C0B8C80
330
2E
330
ED8E
330
ED8F
330
ED91
330
0
 94
        0
  0
ACAD_PROXY_OBJECT
  5
ED8E
330
2E
100
AcDbProxyObject
 90
      499
 91
      548
 95
       25
 70
     0
 93
       70
310
0001AAA80820000000
330
2E
330
ED8E
330
ED8E
 94
        0
  0
ACAD_PROXY_OBJECT
  5
ED8F
330
2E
100
AcDbProxyObject
 90
      499
 91
      549
 95
       25
 70
     0
 93
       48
310
000100000000
330
2E
330
0
330
ED90
330
0
330
0
 94
        0
  0
ACAD_PROXY_OBJECT
  5
ED90
330
2E
100
AcDbProxyObject
 90
      499
 91
      550
 95
       25
 70
     0
 93
       40
310
000100AAAA
330
2E
330
0
 94
        0
  0
ACAD_PROXY_OBJECT
  5
ED96
330
2E
100
AcDbProxyObject
 90
      499
 91
      522
 95
       25
 70
     0
 93
      180
310
00010143105050D3D35411119390535140504434F4D500
330
2E
 94
        0
  0
ACAD_PROXY_OBJECT
  5
ED97
330
2E
100
AcDbProxyObject
 90
      499
 91
      522
 95
       25
 70
     0
 93
      212
310
0001014390505193D311115491119390535140506466F6C6465720
330
2E
 94
        0
  0
ACAD_PROXY_OBJECT
  5
ED98
330
2E
100
AcDbProxyObject
 90
      499
 91
      522
 95
       25
 70
     0
 93
      180
310
00010143105050539393D1119390535140504284156290
330
2E
 94
        0
  0
ACAD_PROXY_OBJECT
  5
ED99
330
2E
100
AcDbProxyObject
 90
      499
 91
      522
 95
       25
 70
     0
 93
      436
310
00010143905050D3D35415925155D31254D50052295BD96CA0A90B396CA0A894591A496CA0A8DB691A496CA0A89BA96CA0A95E28F95310
330
2E
 94
        0
  0
ACAD_PROXY_OBJECT
  5
ED9E
330
2E
100
AcDbProxyObject
 90
      499
 91
      555
 95
       25
 70
     0
 93
       32
310
00010000
330
2E
340
ED9B
330
EDA0
330
ED9B
 94
        0
  0
ACAD_PROXY_OBJECT
  5
ED9F
330
2E
100
AcDbProxyObject
 90
      499
 91
      556
 95
       25
 70
     0
 93
       18
310
000180
330
2E
 94
        0
  0
ACAD_PROXY_OBJECT
  5
EDA0
330
2E
100
AcDbProxyObject
 90
      499
 91
      557
 95
       25
 70
     0
 93
      186
310
0001014311111213948C8D4C8D534C4D5050055401550000
330
2E
330
ED9E
330
ED9F
 94
        0
  0
ACAD_PROXY_OBJECT
  5
EDA1
330
2E
100
AcDbProxyObject
 90
      499
 91
      558
 95
       25
 70
     0
 93
      178
310
000100AAAAAABAC03B2E67439410EA36E89D743EA29000
330
2E
330
EDA0
 94
        0
  0
ACAD_PROXY_OBJECT
  5
EDA2
330
2E
100
AcDbProxyObject
 90
      499
 91
      559
 95
       25
 70
     0
 93
      108
310
000190140A000000000000AAAAA0
330
2E
330
EDA3
330
EDA3
330
EDA3
330
EDA3
330
EDA3
330
0
 94
        0
  0
ACAD_PROXY_OBJECT
  5
EDA3
330
2E
100
AcDbProxyObject
 90
      499
 91
      560
 95
       25
 70
     0
 93
       51
310
00010000AAAA80
330
2E
330
EDA2
330
EDA0
 94
        0
  0
ACAD_PROXY_OBJECT
  5
EDCB
330
2E
100
AcDbProxyObject
 90
      499
 91
      509
 95
       25
 70
     0
 93
      140
310
0001014350535311D0D3D313D49353D11160
330
2E
 94
        0
  0
DICTIONARY
  5
40
102
{ACAD_REACTORS
330
3F
102
}
330
3F
100
AcDbDictionary
281
     1
  3
DWGSETTINGS
350
41
  3
FEM
350
69
  3
Shaft
350
56
  3
TRANSSETTINGS
350
4C
  0
ACAD_PROXY_OBJECT
  5
42
102
{ACAD_REACTORS
330
3F
102
}
330
3F
100
AcDbProxyObject
 90
      499
 91
      519
 95
       25
 70
     0
 93
    23232
310
41502491013041105357CC201C00030C011E441013141105357CC603800030C011E441013241105357CCA01400030C011E441013341105357CCE01800030C010D9013441105357CD200C00030C010D9013541105357CD600C00030C010D9013641105357CDA00800030C011E9013741105357CDE01000030C010D901384110
310
5357CE200400030C011E9013941105357CE63F400030C0241102324141505357CC4C201C00030C011E902344141505357CC4C600C00030C010D902495041505357CC4CA01C00030C011E40902304E41505357CC13A01C00030C011E902314E41505357CC53A03800030C011E902324E41505357CC93A01400030C011E90233
310
4E41505357CCD3A01800030C010D902344E41505357CD13A00C00030C010D902354E41505357CD53A00C00030C010D902364E41505357CD93A00800030C011E902374E41505357CDD3A01000030C010D902384E41505357CE13A00400030C011E902394E41505357CE53A3F400030C024110332414E41905357CC4C13A01C0
310
0030C011E90334414E41905357CC4C53A00C00030C010D90349504E41905357CC4C93A01C00030C011E409044B4C494E41505357D0D3200400030C011E42504494E464F42105357D410549151A01000030C010D42D055241484D3541905357D093D4A01C00030C011E425045649455742105357D5925155D4E00400030C011
310
E42D06424548494E4441905357D25395A3F400030C0243505545241494C41505357D514A00C00030C010D4250348494441905357D21251201C00030C011E4250356495341905357D59254E01C00030C011E4250650415244494D42505357D41054911253600C00030C010D4250652454644494D42505357D49151911253601
310
000030C010D425774110531514901348070000C300479034110915312501348000000C0003FFFFFFFD034110921395901398000000C0003FFFFFFFE415092139594D06424548494E448000000C0003FFFFFFFE411093125110234418000000C0003FFFFFFFD03411093D05410234418000000C0003FFFFFFFD03411093D48C
310
9055241484D358010000C30047A411093D48CD055241484D358020000C30047A411093D48D5055241484D358000000C0003FFFFFFFE411093D48DD055241484D3581E0000C30047903411094105410234418000000C0003FFFFFFFD03411094115610234418000000C0003FFFFFFFD034110951112501358000000C0003FFF
310
FFFFD034110D0530C901348000000C0003FFFFFFFE4110D0530CD01348020000C30047A4110D0530D501348070000C30047A4110D0530DD013481E0000C30047A4110D15393901378000000C0003FFFFFFFE4110D15395D01378000000C0003FFFFFFFE4110D312539044B4C494E8000000C0003FFFFFFFE4110D3D38C5013
310
08000000C0003FFFFFFFD034110D3D38C901318000000C0003FFFFFFFD034110D3D38CD01328000000C0003FFFFFFFD034110D3D38D101328000000C0003FFFFFFFD034111115494101348000000C0003FFFFFFFD034111115510501348000000C0003FFFFFFFE4111125051D01358000000C0003FFFFFFFE4111125312501
310
358000000C0003FFFFFFFE411112535410650415244494D8000000C0003FFFFFFFE411112535490652454644494D8000000C0003FFFFFFFE411156135410234418000000C0003FFFFFFFD034111915353901388000000C0003FFFFFFFE415191535413901388030000C3004364151915354D410234418000000C0003FFFFFF
310
FE4151915354D510234418030000C300436415191535593901328000000C0003FFFFFFFE415191535595101328030000C3004364111931055101308000000C0003FFFFFFFD03411194905490234418000000C0003FFFFFFFD034111D49312501358000000C0003FFFFFFFD034111D5931250234418000000C0003FFFFFFFD0
310
34112105510D01388000000C0003FFFFFFFD014112125113901338000000C0003FFFFFFFD034112125115D01338000000C0003FFFFFFFD034112131253901348000000C0003FFFFFFFD01411213D0D3901378000000C0003FFFFFFFE411213D0D5D01378000000C0003FFFFFFFE4112539193D04494E464F8000000C0003FF
310
FFFFFE4113105112501348000000C0003FFFFFFFD034113115051101358000000C0003FFFFFFFE419397D0921395902394E8000000C0003FFFFFFFE419397D0D3D38C502304E8000000C0003FFFFFFFD03419397D0D3D38C902314E8000000C0003FFFFFFFD03419397D0D3D38CD02324E8000000C0003FFFFFFFD03419397
310
D0D3D38D102324E8000000C0003FFFFFFFD03419397D0D15393902374E8000000C0003FFFFFFFE419397D0D15395D02374E8000000C0003FFFFFFFE419397D1125312502354E8000000C0003FFFFFFFE419397D2105510D02384E8000000C0003FFFFFFFD01419397D2125113902334E8000000C0003FFFFFFFD03419397D2
310
125115D02334E8000000C0003FFFFFFFD03419397D3115051102354E8000000C0003FFFFFFFE419397D391D25410349504E8000000C0003FFFFFFFE419397D412105390334414E8000000C0003FFFFFFFE419397D510D3D3902304E8000000C0003FFFFFFFD03419397D5121312502344E8000000C0003FFFFFFFD01419397
310
D5131153902304E8000000C0003FFFFFFFD03419397D516150CD02364E8000000C0003FFFFFFFD03419397D594131250332414E8000000C0003FFFFFFFE411391D25410249508000000C0003FFFFFFFE411410530C9055241484D358010000C30047A411410530CD055241484D358020000C30047A411410530D5055241484
310
D358000000C0003FFFFFFFE411410530DD055241484D3581E0000C30047903411412105390234418000000C0003FFFFFFFE411413D4D3901368070000C30047A419413D4D49151901368050000C30047903411413D4D6101368000000C0003FFFFFFFD03411414D150D0234418000000C0003FFFFFFFD03411490D1D390137
310
8000000C0003FFFFFFFE411490D1D5D01378000000C0003FFFFFFFE4114919112501348000000C0003FFFFFFFD034114945514901348070000C30047903411494D093D01348000000C0003FFFFFFFD034114D09492D01348000000C0003FFFFFFFD014114D0D153901378000000C0003FFFFFFFD034114D150D51013480000
310
00C0003FFFFFFFD014114D15313901378000000C0003FFFFFFFD034114D15315D01378000000C0003FFFFFFFD034114D4D654D01308000000C0003FFFFFFFD034114D51312501348070000C300479034114D6508C501358000000C0003FFFFFFFD034114D6508C901358000000C0003FFFFFFFD034114D6508CD0135802000
310
0C30047A4114D6508D501358070000C300479034114D65353901378000000C0003FFFFFFFD034114D65355D01378000000C0003FFFFFFFD03411510D3D3901308000000C0003FFFFFFFD034115121312501348000000C0003FFFFFFFD01411512550C9055241484D358010000C30047A411512550CD055241484D358020000
310
C30047A411512550D5055241484D358000000C0003FFFFFFFE411512550DD055241484D3581E0000C300479034115131153901308000000C0003FFFFFFFD03415514905253105545241494C8000000C0003FFFFFFFE41151492D3901378000000C0003FFFFFFFD0341151492D5D01378000000C0003FFFFFFFD03411514931
310
2501348000000C0003FFFFFFFD01411516150C501368030000C300436411516150C901368030000C300436411516150CD01368000000C0003FFFFFFFE411516150D501368070000C30047A411516150DD013681E0000C30047A4115925155D04564945578000000C0003FFFFFFFE41159151121034849448000000C0003FFF
310
FFFFD0241159151159035649538000000C0003FFFFFFFD02411594131250232418000000C0003FFFFFFFE4116925690501348000000C0003FFFFFFFD01411354D653501358020000C30047AAAA3F400030C01013F90A4051E4091E40D0D4110D4151E4190D41D1E4391E4791E7F6
340
16
340
16
340
16
340
43
340
16
340
16
340
16
340
44
340
16
340
16
340
44
340
45
340
16
340
16
340
16
340
16
340
43
340
16
340
16
340
16
340
44
340
16
340
16
340
44
340
45
340
16
340
46
340
16
340
16
340
16
340
16
340
16
340
43
340
16
340
16
340
16
340
47
340
15
340
15
340
15
340
15
340
15
340
15
340
15
340
15
340
15
340
15
340
15
340
15
340
15
340
15
340
15
340
15
340
48
340
15
340
15
340
15
340
15
340
15
340
15
340
15
340
15
340
15
340
15
340
15
340
15
340
15
340
15
340
15
340
16
340
15
340
15
340
15
340
15
340
15
340
15
340
15
340
15
340
47
340
15
340
15
340
48
340
15
340
15
340
15
340
15
340
15
340
15
340
15
340
15
340
15
340
48
340
15
340
15
340
15
340
47
340
15
340
15
340
15
340
15
340
15
340
15
340
15
340
15
340
15
340
15
340
15
340
15
340
15
340
15
340
15
340
15
340
15
340
15
340
15
340
48
340
15
340
15
340
48
340
15
340
15
340
16
340
15
340
48
340
15
340
15
340
47
340
15
340
15
340
16
340
15
340
48
340
15
340
15
340
15
340
15
340
15
340
15
340
15
340
15
340
15
340
48
340
15
340
15
340
15
340
15
340
15
340
15
340
15
340
15
340
15
340
15
340
15
340
4B
340
16
 94
        0
  0
ACAD_PROXY_OBJECT
  5
62F
102
{ACAD_REACTORS
330
73
102
}
330
73
100
AcDbProxyObject
 90
      499
 91
      523
 95
       25
 70
     0
 93
      253
310
43D1444494D454E53494F4E2C414D44545F2A5F44494D404A9012A404A9012A0
  0
ACAD_PROXY_OBJECT
  5
630
102
{ACAD_REACTORS
330
73
102
}
330
73
100
AcDbProxyObject
 90
      499
 91
      523
 95
       25
 70
     0
 93
      181
310
43D012A42D05357D191504B505357CA9012A404A9012A8
  0
ACAD_PROXY_OBJECT
  5
631
102
{ACAD_REACTORS
330
73
102
}
330
73
100
AcDbProxyObject
 90
      499
 91
      523
 95
       25
 70
     0
 93
      133
310
43D054841544348404A9012A404A9012A8
  0
ACAD_PROXY_OBJECT
  5
632
102
{ACAD_REACTORS
330
73
102
}
330
73
100
AcDbProxyObject
 90
      499
 91
      523
 95
       25
 70
     0
 93
      549
310
43D044C494E4549CE0B0E138B0A8B4E0B0A8B4E138B105357CE0B105357CE138B0A8B505357CE0B0A8B505357CE139012A404A910494E534552542C5354445041525432448
  0
ACAD_PROXY_OBJECT
  5
633
102
{ACAD_REACTORS
330
73
102
}
330
73
100
AcDbProxyObject
 90
      499
 91
      523
 95
       25
 70
     0
 93
      909
310
43D6641434D46434652414D452C41434D444154554D5441524745542C41434D444154554D49442C41434D57454C4453594D2C41434D5355524653594D2C41434D4645415449442C41434D504152545245462C41434D42414C4C4F4F4E2C414D44544544474553594D404A9012A404A9012A8
  0
XRECORD
  5
217B
102
{ACAD_REACTORS
330
217A
102
}
330
217A
100
AcDbXrecord
280
     1
  1
21000753__00___
  0

  0
XRECORD
  5
217D
102
{ACAD_REACTORS
330
217C
102
}
330
217C
100
AcDbXrecord
280
     1
  1
3
  0

  0
XRECORD
  5
EDCA
102
{ACAD_REACTORS
330
EDC9
102
}
330
EDC9
100
AcDbXrecord
280
     1
 90
-1073741824
  0
ACAD_PROXY_OBJECT
  5
4F
102
{ACAD_REACTORS
330
4E
102
}
330
4E
100
AcDbProxyObject
 90
      499
 91
      521
 95
       25
 70
     0
 93
      157
310
057356C1D77406406AA8FFFFFFFF05DD01009010
330
1F
330
0
330
EDA0
 94
        0
  0
ACAD_PROXY_OBJECT
  5
F94D
102
{ACAD_REACTORS
330
17E
102
}
330
17E
100
AcDbProxyObject
 90
      499
 91
      577
 95
       25
 70
     0
 93
     2497
310
5DC0000000000000C408030000C30040D254D3D01640600800030C0200800030C000000000000000C40C88A2085A0B6B23A22B233B2A9BA3220480A1C82C6DAA6EAE4CCA8CAF0E8A6E8C88120284A0B1B6A321A329BA3220480A1A82C6DAAECAD8C8D2DCCEA6E8C8812028420B1B6A4B229BA3220480A1682C6DA88C2E8EAD
310
AA6E8C88120284A0B1B6A127A6A9BA3220480A2082DAC8E888CAE8C2D2D8A6F2DAA6E8C88120288A0B6B23A29B2B1BA34B7B729BCB6A9BA3220480A2282DAC8E886CADCE8CAE498D2DCCAA6E8C88120288A0B6B23A2A343932B0B22634B732A9BA3220480A1682DAC8E89CDEE8CAA6E8C88120285A0B1A0B6B3A630BCA9BA3
310
220480A1682C682DACE88D2DAA6E8C88120288A0B1A0B6B3A437B632A1B430B93A29BA3220480A1A82C682DACEA8D2E8D8CAA6E8C8812032048080
340
F5A9
360
F94E
360
F94F
360
F950
360
F951
360
F952
360
F953
360
F954
360
F955
360
F956
360
F957
360
F958
360
F959
360
F95F
360
F960
360
F961
360
F962
340
0
340
0
 94
        0
  0
ACAD_PROXY_OBJECT
  5
17F
102
{ACAD_REACTORS
330
17E
102
}
330
17E
100
AcDbProxyObject
 90
      499
 91
      526
 95
       25
 70
     0
 93
     2379
310
5DC33333333333309408000000C00040D29254D01640600800030C0200800030C003333333333330940C8121E8720B1B6A9BAB9332A32BC3A29BA3220480A1282C6DA8C868CA6E8C88120286A0B1B6ABB2B63234B733A9BA3220480A1082C6DA92C8A6E8C88120285A0B1B6A230BA3AB6A9BA3220480A1282C6DA849E9AA6E
310
8C88120286A0B1A0B6B3AA34BA3632A9BA3220480A2082DAC8E888CAE8C2D2D8A6F2DAA6E8C88120288A0B6B23A29B2B1BA34B7B729BCB6A9BA3220480A2282DAC8E886CADCE8CAE498D2DCCAA6E8C88120288A0B6B23A2A343932B0B22634B732A9BA3220480A1682DAC8E89CDEE8CAA6E8C88120285A0B1A0B6B3A630BCA
310
9BA3220480A1682C682DACE88D2DAA6E8C88120288A0B1A0B6B3A437B632A1B430B93A29BA3220480C812020
340
180
360
181
360
182
360
183
360
184
360
185
360
186
360
EDA5
360
EDA6
360
EDA7
360
EDA9
360
EDAA
360
EDAB
360
EDB1
360
EDB2
360
EDB3
340
0
340
0
 94
        0
  0
ACAD_PROXY_OBJECT
  5
41
102
{ACAD_REACTORS
330
40
102
}
330
40
100
AcDbProxyObject
 90
      499
 91
      518
 95
       25
 70
     0
 93
     2946
310
4050B44574753455454494E4753A0E8482A68AA6A88882A069492A684A1A0A723A0A92920ACA0A809820C868A9C829C8E82A12686AF87260F862666A8321A2A72224A0A50602A2140ECC009A020E868A9C889282A682A106260F86460F8666083A1A2A72224A9AA250000000000000042020C868A9C988A9C9400000000000
310
0048808321A2A727A323250000000000000122020E868A9C9E8C8C62940000000000000488083A1A2A727A32319250000000000000122021CC6D0C2DACCCAE4C8D2DADADEC8CA9FC84A1A624A720A92920ACA0A819A171BA108698929C8AA8B2A082A0AB098929C8A84A22BA3AAA9A1A0A622A50A0E9882A6A89E849482A02
310
608426A0A5A2AB24A2ABA7E8120CA0A68682988A0C00800010652455649534941501304154D0D0531150540CC4E8C5085354414E44415244415034A4953425512535154D5105354128002B15D45C8ADCD050756455253494F4E4150531352E3030441ED115D1D4D15515125391D4D153911F40
  0
ACAD_PROXY_OBJECT
  5
69
102
{ACAD_REACTORS
330
40
102
}
330
40
100
AcDbProxyObject
 90
      499
 91
      518
 95
       25
 70
     0
 93
      411
310
4050346454D21092DCC6E486DECACC942842630BCA3B937BAB820A8320A6AFA322A0A20F688AE8EA68AA8A8929C8EA68A9C88FA0
  0
ACAD_PROXY_OBJECT
  5
56
102
{ACAD_REACTORS
330
40
102
}
330
40
100
AcDbProxyObject
 90
      499
 91
      518
 95
       25
 70
     0
 93
      583
310
40505536861667421292DCE8CAE4E4EAE0E89FA0484A634B3B43A2634B732A7F21A98D2CED0E898D2DCCAACD2CAEE9FC8229B4B232A7E80A20F688AE8EA68AA8A8929C8EA68A9C88FA
  0
ACAD_PROXY_OBJECT
  5
4C
102
{ACAD_REACTORS
330
40
102
}
330
40
100
AcDbProxyObject
 90
      499
 91
      518
 95
       25
 70
     0
 93
      852
310
4050D5452414E5353455454494E4753A2488A482AE929C8EA8A4829CA69882A8929E9C0C00800050D4F524947494E414C4C595F4F4E0600400028529A7AAA921A2A620A723A0A81A52827212AAA0A48AA68AA4AC8A0C0080001107B44574753455454494E4753454E447D0
  0
ACAD_PROXY_OBJECT
  5
F94E
330
F94D
100
AcDbProxyObject
 90
      499
 91
      578
 95
       25
 70
     0
 93
       13
310
5DD8
  0
ACAD_PROXY_OBJECT
  5
F94F
330
F94D
100
AcDbProxyObject
 90
      499
 91
      579
 95
       25
 70
     0
 93
       96
310
5DEA0E80A0280A0280A0280F
  0
ACAD_PROXY_OBJECT
  5
F950
330
F94D
100
AcDbProxyObject
 90
      499
 91
      580
 95
       25
 70
     0
 93
      272
310
5DD0E4050140501405014050140501405014050140D01405012C0000000000000040
340
F5AA
 94
        0
  0
ACAD_PROXY_OBJECT
  5
F951
330
F94D
100
AcDbProxyObject
 90
      499
 91
      581
 95
       25
 70
     0
 93
      497
310
5DE8666666666667A67E199999999999E99FD22405014050140501405014050140501405014050140501405014050140501405014050140501405014050100
340
F5A5
 94
        0
  0
ACAD_PROXY_OBJECT
  5
F952
330
F94D
100
AcDbProxyObject
 90
      499
 91
      582
 95
       25
 70
     0
 93
       10
310
5DC0
  0
ACAD_PROXY_OBJECT
  5
F953
330
F94D
100
AcDbProxyObject
 90
      499
 91
      583
 95
       25
 70
     0
 93
      257
310
5DE290EA22A7D90F49F80000000000001081400000000000004204010000618000
340
F5A6
340
F5A7
 94
        0
  0
ACAD_PROXY_OBJECT
  5
F954
330
F94D
100
AcDbProxyObject
 90
      499
 91
      584
 95
       25
 70
     0
 93
    13013
310
5DD0E411255115350141236025B690140501406901000000000000091013347454E545241434F2C4A504E2C302C8D8096DA2C47454E54524154582C25732C2847454E4D53472067656E647767203232322940690120281A8AA2CA0282484A4BE52028120280A0320200000000000012202668E8A9CA8A482869E5894A09C58
310
605921292F94588E8A9CA8A482A8B0584AE658508E8A9C9AA68E40CECADCC8EECE406464665280D202405044E414D454050496BC914F4051C40640A80000000000004E404CD1D15395149050D3CB1294138B0C0B25AF2453CB11D15395149055160B095CCB0A11D1539354D1C819D95B991DD9C80C8C8D8A50192C3D494628
310
4953424C414E4B28504152543A4E414D45292C424C4F434B3A4E414D452C504152543A4E414D452940480A0A888AA686A480A09251B1DBE80A3A80C81D0000000000100A28099A3A2A72A2920A1A7962528271618164946C76F9623A2A72A2920AA2C1612B9961423A2A726A9A39033B2B7323BB39019189B94A0348090142
310
14D51053911054911014122D2E29A50147501904A000000000000125013347454E545241434F2C4A504E2C302C8B4B8A692C47454E54524154582C25732C2847454E4D53472067656E64776720323138294069012028426A0AA22A924A0A62028246EF4BDFA028EA0320B40000000000001CA02668E8A9CA8A482869E5894A
310
09C5860591BBD2F7E588E8A9CA8A482A8B0584AE658508E8A9C9AA68E40CECADCC8EECE406464625280D202405044E4F544540504928D8B4C4051D40641A80000000000003E404CD1D15395149050D3CB1294138B0C0B24A362D30B11D15395149055160B095CCB0A11D1539354D1C819D95B991DD9C80C8C8D4A501240480
310
A0CAC8A9C889EA480A1106F1072706BF02B680A3A80C83D00000000000007C809BA3A2A72A2920A1A79625282716181641BC41C9C1AFC0AD9623A2A72A2920AA2C1612B9961423A2A726A9A39033B2B7323BB39019191A14A0248090141911154D0D48C90141A43825AF880C90147501908A000000000020145013447454E5
310
45241434F2C4A504E2C302C90E096BE20322C47454E54524154582C25732C2847454E4D53472067656E6477672033362940490120284A9AA20A72220A922192028345A5C53490192028EA03213400000000000024A026A8E8A9CA8A482869E5894A09C586059169714D24064588E8A9CA8A482A8B0584AE658508E8A9C9AA6
310
8E40CECADCC8EECE4064646052809202405094D4154455249414C32405068DDE97BF20324051D40642A8713D0AD7A37045404D11D15395149050D3CB1294138B0C0B2377A5EFC80C8B11D15395149055160B095CCB0A11D1539354D1C819D95B991DD9C80D0C0A501240480A089A82A6A680A091D7F2F9480A3A80A0485A06
310
8100000000000007C809923A2A72A2920A1A796252827161816475FCBE51623A2A72A2920AA2C1612B9961423A2A726A9A39033B2B7323BB3901A1914A024809014154149250D150141226FE29A501475014090C409020000000000000F9013247454E545241434F2C4A504E2C302C89BF8A692C47454E54524154582C2573
310
2C2847454E4D53472067656E6477672034332940490120281A224A6A02824850CB202028EA028121A81A040000000000001F202648E8A9CA8A482869E5894A09C58605921432C80588E8A9CA8A482A8B0584AE658508E8A9C9AA68E40CECADCC8EECE406868528092024050E445020000000000000510201C00030C0001018
310
0000000000003E400000000000000F901073D3C4954454D3E4050180000000000003E400000000000000F901073D3C4954454D3E40501800000000000034400000000000000D101073D3C4954454D3E40501800000000000034400000000000000D101073D3C4954454D3E405029010000000000000F9000000000000003E4
310
041CF4F125511534F901418F4F1455164F9014060000000000000F9000000000000003E4041CF4F125511534F9014060000000000000D100000000000000344041CF4F125511534F901901000000000000000F9000000000000003E40A2200000000000008204018000618048220681A048120280C88214844882034852034
310
8452028521485214814000000000000F0BF0000000000003C2FD018020000C3008070000C3003373333333333B0FCCDCCCCCCCCCCEC3F000000000000031012034164050341105901A000000000000062040100006180401000061804008000618008098A02808
340
0
340
0
 94
        0
  0
ACAD_PROXY_OBJECT
  5
F955
330
F94D
100
AcDbProxyObject
 90
      499
 91
      585
 95
       25
 70
     0
 93
      898
310
5DC4000000000000144048CF4F11115510525317D3105091530F880A0F11115510525317D05094D4D0D053114F8A51141C9A9999999999B93F26A666666666724FC000000000000E03F400000000000000400000000000000510000000000000024408070000C300000000000000051000
340
16
340
F5A9
 94
        0
  0
ACAD_PROXY_OBJECT
  5
F956
330
F94D
100
AcDbProxyObject
 90
      499
 91
      586
 95
       25
 70
     0
 93
      823
310
5DC0B00000000000002880959E9E29A2A1AA24A7A72FA620A122A62FA324A929AA1F169E29A2A1AA24A7A72FA620A122A62FA620A9AA1F000000000000048803FFFE01C00030C0088C0380006180000000000000048800000000000000A2000000000000002880
340
652
340
F5A9
 94
        0
  0
ACAD_PROXY_OBJECT
  5
F957
330
F94D
100
AcDbProxyObject
 90
      499
 91
      587
 95
       25
 70
     0
 93
      152
310
5DE80000000000000840A3D0A5723F0BD1F200
  0
ACAD_PROXY_OBJECT
  5
F958
330
F94D
100
AcDbProxyObject
 90
      499
 91
      588
 95
       25
 70
     0
 93
       14
310
5DE0
340
0
 94
        0
  0
ACAD_PROXY_OBJECT
  5
F959
330
F94D
100
AcDbProxyObject
 90
      499
 91
      589
 95
       25
 70
     0
 93
     8619
310
5DD084050BA4050AA405024050E836583938376838C815B836720314043A013D2525633C486F6C653A63746469613E2078203C486F6C653A637464657074683E20555C503C696628657175616C28486F6C653A7461707065642C223022292C22252563222C486F6C653A6E6F6D696E616C202220782022293E3C6966286571
310
75616C28486F6C653A7461707065642C223022292C486F6C653A6469612C486F6C653A706974636864657363293E3C696628657175616C28486F6C653A7461707065642C223122292C22207820222C2222293E3C696628657175616C28486F6C653A7461707065642C223122292C486F6C653A74617064657074682C222229
310
3E203C696628657175616C28486F6C653A7465726D696E6174696F6E2C223022292C22202F20222C2222293E3C696628657175616C28486F6C653A7465726D696E6174696F6E2C223022292C486F6C653A64657074682C2222293E406901405034050E836583938376838C815B836720314043B013D2525633C486F6C653A6
310
3746469613E2078203C486F6C653A6374616E676C653E2525645C503C696628657175616C28486F6C653A7461707065642C223022292C22252563222C486F6C653A6E6F6D696E616C202220782022293E3C696628657175616C28486F6C653A7461707065642C223022292C486F6C653A6469612C486F6C653A70697463686
310
4657363293E3C696628657175616C28486F6C653A7461707065642C223122292C22207820222C2222293E3C696628657175616C28486F6C653A7461707065642C223122292C486F6C653A74617064657074682C2222293E203C696628657175616C28486F6C653A7465726D696E6174696F6E2C223022292C22202F20222C2
310
222293E3C696628657175616C28486F6C653A7465726D696E6174696F6E2C223022292C486F6C653A64657074682C2222293E406901405014050E836583938376838C815B8367203140416013D3C696628657175616C28486F6C653A7461707065642C223022292C22252563222C486F6C653A6E6F6D696E616C2022207820
310
22293E3C696628657175616C28486F6C653A7461707065642C223022292C486F6C653A6469612C486F6C653A706974636864657363293E3C696628657175616C28486F6C653A7461707065642C223122292C22207820222C2222293E3C696628657175616C28486F6C653A7461707065642C223122292C486F6C653A746170
310
64657074682C2222293E203C696628657175616C28486F6C653A7465726D696E6174696F6E2C223022292C22202F20222C2222293E3C696628657175616C28486F6C653A7465726D696E6174696F6E2C223022292C486F6C653A64657074682C2222293E4069014051E4090E836583938376838C815B83672032405173D3C5
310
35444503A444553433E203C535444503A5354443E40690E836583938376838C815B836720314050C3D3C535444503A444553433E40690240515AAABBA120
360
F95A
330
F95A
360
F95B
330
F95B
360
F95C
330
F95C
360
F95D
360
F95E
330
F95D
330
F95E
 94
        0
  0
ACAD_PROXY_OBJECT
  5
F95F
330
F94D
100
AcDbProxyObject
 90
      499
 91
      568
 95
       25
 70
     0
 93
       26
310
5DD02A80
340
0
 94
        0
  0
ACAD_PROXY_OBJECT
  5
F960
330
F94D
100
AcDbProxyObject
 90
      499
 91
      569
 95
       25
 70
     0
 93
      250
310
5DD020000000000000A1000000000000002440408F0F9023C3E409A0DCFFFF80
340
F5AE
340
0
340
0
340
F5AF
340
F5B0
340
F5B1
340
F5B2
340
F5B3
340
F5B4
340
0
 94
        0
  0
ACAD_PROXY_OBJECT
  5
F961
330
F94D
100
AcDbProxyObject
 90
      499
 91
      590
 95
       25
 70
     0
 93
    13889
310
5DD1D003FFFFFFFD030300030000000000000310200800030C01030300030000000000000310200800030C00050C8DC0955782CC838A83588367014ED1D15395149050D3CB1294138B0C0B23702555E0B320E2A0D620D9CB11D15395149055160B095CCB0A11D1539354D1C819D95B991A5B5E880CCC0A78000C0000000000
310
00000000000000000000010000000000000310200800030C010000000000000310200800030C020143CF4F111959985D5B1D151A5D1B194F8050A8C8A8365815B8375838B014E51D15395149050D3CB1294138B0C0B2322A0D96056E0DD60E2CB11D15395149055160B095CCB0A11D1539354D1C819D95B991A5B5E880CCC4
310
A78000C000000000000000000000000000000010000000000000310200800030C010000000000000310200800030C020143CF4F111959985D5B1D151A5D1B194F90D44111409034110541D0C4350F4050E44D03449074510F000141232D24D7C053247454E545241434F2C4A504E2C302C8CB4935F2C47454E54524154582C
310
25732C2847454E4D53472067656E64696D7A20312900010104002214000281464500A608E8A9CA8A482869E5894A09C5860591914588E8A9CA8A482A8B0584AE658508E8A9C9AA68E40CECADCC8D2DAF4406452029E9E9E27B934B3B4B71F1E24A31427A91424A9A12620A7259427B934B3B4B7149624A9A12620A7259424B
310
A32B6949496111116111711149F1E24BA32B69F00808200111A000140560052F47454E545241434F2C4A504E2C302C582C47454E54524154582C25732C2847454E4D53472067656E64696D7A20332900010100002054000280AC80A5E8E8A9CA8A482869E5894A09C586058B2588E8A9CA8A482A8B0584AE658508E8A9C9AA
310
68E40CECADCC8D2DAF4406852000202000040E800050152014BD1D15395149050D3CB1294138B0C0B148B11D15395149055160B095CCB0A11D1539354D1C819D95B991A5B5E880D8A400040400008250000A0507A6029823A2A72A2920A1A79625282716181641E99623A2A72A2920AA2C1612B9961423A2A726A9A39033B2
310
B73234B6BD101B948000808180105A000140A0F4C053047454E545241434F2C4A504E2C302C83D32C47454E54524154582C25732C2847454E4D53472067656E64696D7A203829000101010020F400028248704B5F00A668E8A9CA8A482869E5894A09C58605921C12D7C588E8A9CA8A482A8B0584AE658508E8A9C9AA68E40
310
CECADCC8D2DAF440646052000200080043280005048B4B8A69014CD1D15395149050D3CB1294138B0C0B22D2E29A4B11D15395149055160B095CCB0A11D1539354D1C819D95B991A5B5E880C8C4A4000400100086D0000A09196926BE029923A2A72A2920A1A796252827161816465A49AF9623A2A72A2920AA2C1612B9961
310
423A2A726A9A39033B2B73234B6BD10189480A02620202080043E80005048D8096DA014CD1D15395149050D3CB1294138B0C0B236025B68B11D15395149055160B095CCB0A11D1539354D1C819D95B991A5B5E880C4D0A4000404140280D0000A190687072706CD06C5069D06B0029DA3A2A72A2920A1A7962528271618164
310
1A1C1C9C1B341B141A741AC1623A2A72A2920AA2C1612B9961423A2A726A9A39033B2B73234B6BD10189A94800080828050EA000143A322A0D0E0E4E0D9A0D8A0D3A0D60053D47454E545241434F2C4A504E2C302C8C8A8343839383668362834E83582C47454E54524154582C25732C2847454E4D53472067656E64696D7A
310
2031372900010105002274000281464500A628E8A9CA8A482869E5894A09C5860591914588E8A9CA8A482A8B0584AE658508E8A9C9AA68E40CECADCC8D2DAF440626C52000202080044A8000504909497CA014CD1D15395149050D3CB1294138B0C0B242525F28B11D15395149055160B095CCB0A11D1539354D1C819D95B9
310
91A5B5E880C4E4A400040418008A521E000000000000001CA040C00000000000034408080000000000006881010000000000000D102040000000000001A204080000000000003440818000000000000728103000000000000125020600000000004028A040000000000000034408000000000000004881000000000000000D
310
102000000000000001A204000000000000003440818000000000000508143C0000000000000039408180000000000006881030000000000000D102060000000000001A2040C00000000000034408180000000000006881030000000000000E5020600000000000024A040C0000000000805140800000000000000688100000
310
00000000009102000000000000001A2040000000000000034408180000000000006881030000000000000A10284220000000878000002020000008380000020400000081800000208000000828000002028900000000
340
0
340
0
340
0
340
0
340
F5A9
340
F5A9
 94
        0
  0
ACAD_PROXY_OBJECT
  5
F962
330
F94D
100
AcDbProxyObject
 90
      499
 91
      561
 95
       25
 70
     0
 93
     7018
310
5DD9740D254D3D0649534F5F4133429254D3D7D5125513115051349534F5F42525F5265766973696F6E6C69737446111413478342028323937783834316D6D2920421254D3D7D04D1E0D11141327835202835393478323130326D6D29421254D3D7D04C9E0D51141347839202832393778313839326D6D29421254D3D7D04D
310
1E0E51141337837202834323078323038306D6D29421254D3D7D04CDE0DD1141347838202832393778313638326D6D29421254D3D7D04D1E0E11141327834202835393478313638326D6D29421254D3D7D04C9E0D10E41312028353934783834316D6D29419254D3D7D04C51141347837202832393778313437316D6D29421
310
254D3D7D04D1E0DD1141347836202832393778313236316D6D29421254D3D7D04D1E0D91141347835202832393778313035316D6D29421254D3D7D04D1E0D5104130202838343078313138396D6D2920419254D3D7D04C10E41332028323937783432306D6D29419254D3D7D04CD1141327833202835393478313236316D6D
310
29421254D3D7D04C9E0CD10413478332028323937783633306D6D29421254D3D7D04D1E0CD1141337834202834323078313138396D6D29421254D3D7D04CDE0D11141337836202834323078313738336D6D29421254D3D7D04CDE0D91141337835202834323078313438366D6D29421254D3D7D04CDE0D50E4132202834323
310
0783539346D6D29419254D3D7D04C910413378332028343230783839316D6D29421254D3D7D04CDE0CD0E41342028323937783231306D6D29419254D3D7D04D1124130783220283131383978313638326D6D29421254D3D7D04C1E0C9124130783320283131383978323532336D6D29421254D3D7D04C1E0CD114131783420
310
2838343178323337386D6D29421254D3D7D04C5E0D11141317833202838343178313738336D6D29421254D3D7D04C5E0CD02431254D3C82557247A25E4C81050A49534F5F5449544C4541431254D3C82557247A25E4C81090A49534F5F5449544C45424110E979A97F0838A835883675F42525F44D254D3D7D09497D4995D9
310
A5CDA5BDB9B1A5CDD10E979A97F0838A835883675F54525F44D254D3D7D51497D4995D9A5CDA5BDB9B1A5CDD10E979A97F0838A835883675F424C5F44D254D3D7D09317D4995D9A5CDA5BDB9B1A5CDD10E979A97F0838A835883675F544C5F44D254D3D7D51317D4995D9A5CDA5BDB9B1A5CDD00
  0
ACAD_PROXY_OBJECT
  5
181
330
17F
100
AcDbProxyObject
 90
      499
 91
      527
 95
       25
 70
     0
 93
       86
310
5DEA0C80A0280A0280A034
  0
ACAD_PROXY_OBJECT
  5
182
330
17F
100
AcDbProxyObject
 90
      499
 91
      528
 95
       25
 70
     0
 93
      282
310
5DD0E4050140501405014050140501405014050141101405014041000000000000001000
340
187
 94
        0
  0
ACAD_PROXY_OBJECT
  5
183
330
17F
100
AcDbProxyObject
 90
      499
 91
      529
 95
       25
 70
     0
 93
      323
310
5DCC199999999999E99F91740501405014050140501405014050140501405014050140501405014040
340
0
 94
        0
  0
ACAD_PROXY_OBJECT
  5
184
330
17F
100
AcDbProxyObject
 90
      499
 91
      530
 95
       25
 70
     0
 93
       10
310
5DC0
  0
ACAD_PROXY_OBJECT
  5
185
330
17F
100
AcDbProxyObject
 90
      499
 91
      531
 95
       25
 70
     0
 93
      257
310
5DE0C16A22A7D90F49F80000000000001081400000000000004204010000618000
340
188
340
189
 94
        0
  0
ACAD_PROXY_OBJECT
  5
186
330
17F
100
AcDbProxyObject
 90
      499
 91
      532
 95
       25
 70
     0
 93
     5277
310
5DD06411255115350141236025B6901405014069010000000000000910240690120281A8AA2CA0282484A4BE52028120280A032020000000000001220480D202405044E414D454050496BC914F4051C40640A80000000000004E4090193C3D3C4946284953424C414E4B28504152543A4E414D45292C424C4F434B3A4E414D
310
452C504152543A4E414D45293E3C41435F44455343524950544E3E40480A109A82A88AA492829880A091BBD2F7E80A3A80C81D0E27A15AF46E08A81203480901411393D5115014124A363B7D0147501904A0000000000000F902406428F4F1050D7D393D5114F901202832B22A72227A92028366EF6EE06F582028EA0320B4
310
0000000000001F20480C879E9E20A1AFAB27222FA620A122A61F20240506445020000000000000490201C00030C00010180000000000003E400000000000000F901073D3C4954454D3E4050180000000000003E400000000000000F901073D3C4954454D3E40501800000000000034400000000000000D101073D3C4954454
310
D3E40501800000000000034400000000000000D101073D3C4954454D3E405029010000000000000F9000000000000003E4041CF4F125511534F901418F4F1455164F9014060000000000000F9000000000000003E4041CF4F125511534F901800000000000034400000000000000D101073D3C4954454D3E40640400000000
310
0000003E400000000000000F90288800000000000020810000001800120881A068120480A032208521122080D21480D211480A1485214852050000000000003C2FC000000000000F0BF40600800030C0200400030C00CDCCCCCCCCCCEC3F3373333333333B0FC3333333333330940C80D069014090341504901A1999999999
310
9984A040100006180400800061804010000618008098A02808
340
0
340
0
 94
        0
  0
ACAD_PROXY_OBJECT
  5
EDA5
330
17F
100
AcDbProxyObject
 90
      499
 91
      561
 95
       25
 70
     0
 93
     3042
310
5DD9740D29254D064A49535F413342929254D7D512551311505134A49535F42525F5265766973696F6E6C6973744190F4134522028323937783231306D6D2941D29254D7D04D1490E41312028353934783834316D6D2941929254D7D04C50E41332028323937783432306D6D2941929254D7D04CD0F41344C2028323130783
310
239376D6D2941D29254D7D04D1310E41322028343230783539346D6D2941929254D7D04C90F4130202838343178313138396D6D2941929254D7D04C10243129254C82557247A25E4C81050A4A49535F5449544C454143129254C82557247A25E4C81090A4A49535F5449544C45424110E979A97F0838A835883675F42525F4
310
4D29254D7D09497D4995D9A5CDA5BDB9B1A5CDD10E979A97F0838A835883675F54525F44D29254D7D51497D4995D9A5CDA5BDB9B1A5CDD10E979A97F0838A835883675F424C5F44D29254D7D09317D4995D9A5CDA5BDB9B1A5CDD10E979A97F0838A835883675F544C5F44D29254D7D51317D4995D9A5CDA5BDB9B1A5CDD00
  0
ACAD_PROXY_OBJECT
  5
EDA6
330
17F
100
AcDbProxyObject
 90
      499
 91
      562
 95
       25
 70
     0
 93
      898
310
5DC4000000000000124048CF4F11115510525317D3105091530F880A0F11115510525317D05094D4D0D053114F8A50241C9A9999999999B93F26A666666666724FC000000000000E03F400000000000000400000000000000510000000000000024408070000C300000000000000049000
340
16
340
180
 94
        0
  0
ACAD_PROXY_OBJECT
  5
EDA7
330
17F
100
AcDbProxyObject
 90
      499
 91
      563
 95
       25
 70
     0
 93
      823
310
5DC0B00000000000002480959E9E29A2A1AA24A7A72FA620A122A62FA324A929AA1F169E29A2A1AA24A7A72FA620A122A62FA620A9AA1F000000000000048803FFFE01C00030C008140380006180000000000000048800000000000000A2000000000000002480
340
652
340
180
 94
        0
  0
ACAD_PROXY_OBJECT
  5
EDA9
330
17F
100
AcDbProxyObject
 90
      499
 91
      564
 95
       25
 70
     0
 93
      152
310
5DE8273108AC1C5A0640A3D0A5723F0BD1F200
  0
ACAD_PROXY_OBJECT
  5
EDAA
330
17F
100
AcDbProxyObject
 90
      499
 91
      565
 95
       25
 70
     0
 93
       14
310
5DE0
340
0
 94
        0
  0
ACAD_PROXY_OBJECT
  5
EDAB
330
17F
100
AcDbProxyObject
 90
      499
 91
      566
 95
       25
 70
     0
 93
     6059
310
5DD084050BA4050AA405024050E836583938376838C815B83672031405983D3C486F6C653A6469613E3C696628657175616C28486F6C653A7465726D696E6174696F6E2C223022292C2220905B82B320222C22208368838A838B22293E3C696628657175616C28486F6C653A7465726D696E6174696F6E2C223022292C486F
310
6C653A64657074682C2222293E2C203C486F6C653A63746469613E2082B482AE82E882CC905B82B3203C486F6C653A637464657074683E406901405034050E836583938376838C815B83672031405EF3D3C486F6C653A6374616E676C653E252564202525633C486F6C653A63746469613E208E4D8C8A2C203C69662865717
310
5616C28486F6C653A7461707065642C223022292C22252563222C486F6C653A6E6F6D696E616C202220782022293E3C696628657175616C28486F6C653A7461707065642C223022292C486F6C653A6469612C486F6C653A706974636864657363293E203C696628657175616C28486F6C653A7465726D696E6174696F6E2C2
310
23022292C22905B82B320222C222022293E3C696628657175616C28486F6C653A7465726D696E6174696F6E2C223022292C486F6C653A64657074682C2222293E406901405014050E836583938376838C815B83672031405C73D3C696628657175616C28486F6C653A7461707065642C223022292C22252563222C486F6C65
310
3A6E6F6D696E616C202220782022293E3C696628657175616C28486F6C653A7461707065642C223022292C486F6C653A6469612C486F6C653A706974636864657363293E203C696628657175616C28486F6C653A7465726D696E6174696F6E2C223022292C22905B82B320222C222022293E3C696628657175616C28486F6C
310
653A7465726D696E6174696F6E2C223022292C486F6C653A64657074682C2222293E4069014051E4090E836583938376838C815B83672032405173D3C535444503A444553433E203C535444503A5354443E40690E836583938376838C815B836720314050C3D3C535444503A444553433E40690240515AAABBA120
360
EDAF
330
EDAF
360
EDB0
330
EDB0
360
EDAE
330
EDAE
360
EDAD
360
EDAC
330
EDAD
330
EDAC
 94
        0
  0
ACAD_PROXY_OBJECT
  5
EDB1
330
17F
100
AcDbProxyObject
 90
      499
 91
      568
 95
       25
 70
     0
 93
       26
310
5DD02A80
340
42
 94
        0
  0
ACAD_PROXY_OBJECT
  5
EDB2
330
17F
100
AcDbProxyObject
 90
      499
 91
      569
 95
       25
 70
     0
 93
      250
310
5DD020000000000000A1000000000000002440408F0F9023C3E409A0DCFFFF80
340
58
340
18A8
340
18A9
340
5F
340
60
340
61
340
62
340
63
340
68
340
0
 94
        0
  0
ACAD_PROXY_OBJECT
  5
EDB3
330
17F
100
AcDbProxyObject
 90
      499
 91
      570
 95
       25
 70
     0
 93
    13889
310
5DD1D003FFFFFFFD030300030CCCCCCCCCCCC250200800030C01030300030CCCCCCCCCCCC250200800030C00050C8DC0955782CC838A83588367014ED1D15395149050D3CB1294138B0C0B23702555E0B320E2A0D620D9CB11D15395149055160B095CCB0A11D1539354D1C819D95B991A5B5E880CCC0A78000C0000000000
310
00000000000000000000010CCCCCCCCCCCC250200800030C010CCCCCCCCCCCC250200800030C020143CF4F111959985D5B1D151A5D1B194F8050A8C8A8365815B8375838B014E51D15395149050D3CB1294138B0C0B2322A0D96056E0DD60E2CB11D15395149055160B095CCB0A11D1539354D1C819D95B991A5B5E880CCC4
310
A78000C000000000000000000000000000000010CCCCCCCCCCCC250200800030C010CCCCCCCCCCCC250200800030C020143CF4F111959985D5B1D151A5D1B194F90D44111409034110541D0C4350F4050E44D03449074510F000141232D24D7C053247454E545241434F2C4A504E2C302C8CB4935F2C47454E54524154582C
310
25732C2847454E4D53472067656E64696D7A20312900010104002214000281464500A608E8A9CA8A482869E5894A09C5860591914588E8A9CA8A482A8B0584AE658508E8A9C9AA68E40CECADCC8D2DAF4406452029E9E9E27B934B3B4B71F1E24A31427A91424A9A12620A7259427B934B3B4B7149624A9A12620A7259424B
310
A32B6949496111116111711149F1E24BA32B69F00808200111A000140560052F47454E545241434F2C4A504E2C302C582C47454E54524154582C25732C2847454E4D53472067656E64696D7A20332900010100002054000280AC80A5E8E8A9CA8A482869E5894A09C586058B2588E8A9CA8A482A8B0584AE658508E8A9C9AA
310
68E40CECADCC8D2DAF4406852000202000040E800050152014BD1D15395149050D3CB1294138B0C0B148B11D15395149055160B095CCB0A11D1539354D1C819D95B991A5B5E880D8A400040400008250000A0507A6029823A2A72A2920A1A79625282716181641E99623A2A72A2920AA2C1612B9961423A2A726A9A39033B2
310
B73234B6BD101B948000808180105A000140A0F4C053047454E545241434F2C4A504E2C302C83D32C47454E54524154582C25732C2847454E4D53472067656E64696D7A203829000101010020F400028248704B5F00A668E8A9CA8A482869E5894A09C58605921C12D7C588E8A9CA8A482A8B0584AE658508E8A9C9AA68E40
310
CECADCC8D2DAF440646052000200080043280005048B4B8A69014CD1D15395149050D3CB1294138B0C0B22D2E29A4B11D15395149055160B095CCB0A11D1539354D1C819D95B991A5B5E880C8C4A4000400100086D0000A09196926BE029923A2A72A2920A1A796252827161816465A49AF9623A2A72A2920AA2C1612B9961
310
423A2A726A9A39033B2B73234B6BD10189480A02620202080043E80005048D8096DA014CD1D15395149050D3CB1294138B0C0B236025B68B11D15395149055160B095CCB0A11D1539354D1C819D95B991A5B5E880C4D0A4000404140280D0000A190687072706CD06C5069D06B0029DA3A2A72A2920A1A7962528271618164
310
1A1C1C9C1B341B141A741AC1623A2A72A2920AA2C1612B9961423A2A726A9A39033B2B73234B6BD10189A94800080820050EA000143A322A0D0E0E4E0D9A0D8A0D3A0D60053D47454E545241434F2C4A504E2C302C8C8A8343839383668362834E83582C47454E54524154582C25732C2847454E4D53472067656E64696D7A
310
2031372900010105002274000281464500A628E8A9CA8A482869E5894A09C5860591914588E8A9CA8A482A8B0584AE658508E8A9C9AA68E40CECADCC8D2DAF440626C52000202080044A8000504909497CA014CD1D15395149050D3CB1294138B0C0B242525F28B11D15395149055160B095CCB0A11D1539354D1C819D95B9
310
91A5B5E880C4E4A400040418008A521E000000000000001CA040C00000000000034408080000000000006881010000000000000D102040000000000001A204080000000000003440818000000000000728103000000000000125020600000000004028A040000000000000034408000000000000004881000000000000000D
310
102000000000000001A204000000000000003440818000000000000508143C0000000000000039408180000000000006881030000000000000D102060000000000001A2040C00000000000034408180000000000006881030000000000000E5020600000000000024A040C0000000000805140800000000000000688100000
310
00000000009102000000000000001A2040000000000000034408180000000000006881030000000000000A10284220000000878000002020000008380000020400000081800000208000000828000002028900000000
340
0
340
0
340
0
340
0
340
180
340
180
 94
        0
  0
ACAD_PROXY_OBJECT
  5
F95A
330
F959
100
AcDbProxyObject
 90
      499
 91
      567
 95
       25
 70
     0
 93
     2680
310
5DE0143A0D960E4E0DDA0E32056E0D9C80C4043A013D2525633C486F6C653A63746469613E2078203C486F6C653A637464657074683E20555C503C696628657175616C28486F6C653A7461707065642C223022292C22252563222C486F6C653A6E6F6D696E616C202220782022293E3C696628657175616C28486F6C653A74
310
61707065642C223022292C486F6C653A6469612C486F6C653A706974636864657363293E3C696628657175616C28486F6C653A7461707065642C223122292C22207820222C2222293E3C696628657175616C28486F6C653A7461707065642C223122292C486F6C653A74617064657074682C2222293E203C69662865717561
310
6C28486F6C653A7465726D696E6174696F6E2C223022292C22202F20222C2222293E3C696628657175616C28486F6C653A7465726D696E6174696F6E2C223022292C486F6C653A64657074682C2222293E
  0
ACAD_PROXY_OBJECT
  5
F95B
330
F959
100
AcDbProxyObject
 90
      499
 91
      567
 95
       25
 70
     0
 93
     2688
310
5DE0143A0D960E4E0DDA0E32056E0D9C80C4043B013D2525633C486F6C653A63746469613E2078203C486F6C653A6374616E676C653E2525645C503C696628657175616C28486F6C653A7461707065642C223022292C22252563222C486F6C653A6E6F6D696E616C202220782022293E3C696628657175616C28486F6C653A
310
7461707065642C223022292C486F6C653A6469612C486F6C653A706974636864657363293E3C696628657175616C28486F6C653A7461707065642C223122292C22207820222C2222293E3C696628657175616C28486F6C653A7461707065642C223122292C486F6C653A74617064657074682C2222293E203C696628657175
310
616C28486F6C653A7465726D696E6174696F6E2C223022292C22202F20222C2222293E3C696628657175616C28486F6C653A7465726D696E6174696F6E2C223022292C486F6C653A64657074682C2222293E
  0
ACAD_PROXY_OBJECT
  5
F95C
330
F959
100
AcDbProxyObject
 90
      499
 91
      567
 95
       25
 70
     0
 93
     2392
310
5DE0143A0D960E4E0DDA0E32056E0D9C80C40416013D3C696628657175616C28486F6C653A7461707065642C223022292C22252563222C486F6C653A6E6F6D696E616C202220782022293E3C696628657175616C28486F6C653A7461707065642C223022292C486F6C653A6469612C486F6C653A706974636864657363293E
310
3C696628657175616C28486F6C653A7461707065642C223122292C22207820222C2222293E3C696628657175616C28486F6C653A7461707065642C223122292C486F6C653A74617064657074682C2222293E203C696628657175616C28486F6C653A7465726D696E6174696F6E2C223022292C22202F20222C2222293E3C69
310
6628657175616C28486F6C653A7465726D696E6174696F6E2C223022292C486F6C653A64657074682C2222293E
  0
ACAD_PROXY_OBJECT
  5
F95D
330
F959
100
AcDbProxyObject
 90
      499
 91
      567
 95
       25
 70
     0
 93
      344
310
5DE0143A0D960E4E0DDA0E32056E0D9C80C805173D3C535444503A444553433E203C535444503A5354443E
  0
ACAD_PROXY_OBJECT
  5
F95E
330
F959
100
AcDbProxyObject
 90
      499
 91
      567
 95
       25
 70
     0
 93
      256
310
5DE0143A0D960E4E0DDA0E32056E0D9C80C4050C3D3C535444503A444553433E
  0
ACAD_PROXY_OBJECT
  5
EDAF
330
EDAB
100
AcDbProxyObject
 90
      499
 91
      567
 95
       25
 70
     0
 93
     1376
310
5DE0143A0D960E4E0DDA0E32056E0D9C80C405983D3C486F6C653A6469613E3C696628657175616C28486F6C653A7465726D696E6174696F6E2C223022292C2220905B82B320222C22208368838A838B22293E3C696628657175616C28486F6C653A7465726D696E6174696F6E2C223022292C486F6C653A64657074682C22
310
22293E2C203C486F6C653A63746469613E2082B482AE82E882CC905B82B3203C486F6C653A637464657074683E
  0
ACAD_PROXY_OBJECT
  5
EDB0
330
EDAB
100
AcDbProxyObject
 90
      499
 91
      567
 95
       25
 70
     0
 93
     2072
310
5DE0143A0D960E4E0DDA0E32056E0D9C80C405EF3D3C486F6C653A6374616E676C653E252564202525633C486F6C653A63746469613E208E4D8C8A2C203C696628657175616C28486F6C653A7461707065642C223022292C22252563222C486F6C653A6E6F6D696E616C202220782022293E3C696628657175616C28486F6C
310
653A7461707065642C223022292C486F6C653A6469612C486F6C653A706974636864657363293E203C696628657175616C28486F6C653A7465726D696E6174696F6E2C223022292C22905B82B320222C222022293E3C696628657175616C28486F6C653A7465726D696E6174696F6E2C223022292C486F6C653A6465707468
310
2C2222293E
  0
ACAD_PROXY_OBJECT
  5
EDAE
330
EDAB
100
AcDbProxyObject
 90
      499
 91
      567
 95
       25
 70
     0
 93
     1752
310
5DE0143A0D960E4E0DDA0E32056E0D9C80C405C73D3C696628657175616C28486F6C653A7461707065642C223022292C22252563222C486F6C653A6E6F6D696E616C202220782022293E3C696628657175616C28486F6C653A7461707065642C223022292C486F6C653A6469612C486F6C653A706974636864657363293E20
310
3C696628657175616C28486F6C653A7465726D696E6174696F6E2C223022292C22905B82B320222C222022293E3C696628657175616C28486F6C653A7465726D696E6174696F6E2C223022292C486F6C653A64657074682C2222293E
  0
ACAD_PROXY_OBJECT
  5
EDAD
330
EDAB
100
AcDbProxyObject
 90
      499
 91
      567
 95
       25
 70
     0
 93
      344
310
5DE0143A0D960E4E0DDA0E32056E0D9C80C805173D3C535444503A444553433E203C535444503A5354443E
  0
ACAD_PROXY_OBJECT
  5
EDAC
330
EDAB
100
AcDbProxyObject
 90
      499
 91
      567
 95
       25
 70
     0
 93
      256
310
5DE0143A0D960E4E0DDA0E32056E0D9C80C4050C3D3C535444503A444553433E
  0
ENDSEC
  0
EOF
