  0
SECTION
  2
HEADER
  9
$ACADVER
  1
AC1014
  9
$ACADMAINTVER
 70
     9
  9
$DWGCODEPAGE
  3
ANSI_932
  9
$INSBASE
 10
0.0
 20
0.0
 30
0.0
  9
$EXTMIN
 10
-172.4773640027415
 20
-54.24988050329949
 30
-0.00000001
  9
$EXTMAX
 10
91.0809489037283
 20
90.68179443245039
 30
0.00000001
  9
$LIMMIN
 10
-213.3024795535802
 20
-90.95588373145028
  9
$LIMMAX
 10
143.3961809310303
 20
133.343975728676
  9
$ORTHOMODE
 70
     0
  9
$REGENMODE
 70
     1
  9
$FILLMODE
 70
     1
  9
$QTEXTMODE
 70
     0
  9
$MIRRTEXT
 70
     1
  9
$DRAGMODE
 70
     2
  9
$LTSCALE
 40
1.0
  9
$OSMODE
 70
    55
  9
$ATTMODE
 70
     1
  9
$TEXTSIZE
 40
2.5
  9
$TRACEWID
 40
1.0
  9
$TEXTSTYLE
  7
STANDARD
  9
$CLAYER
  8
AM_5
  9
$CELTYPE
  6
BYLAYER
  9
$CECOLOR
 62
   256
  9
$CELTSCALE
 40
1.0
  9
$DELOBJ
 70
     1
  9
$DISPSILH
 70
     0
  9
$DIMSCALE
 40
1.0
  9
$DIMASZ
 40
2.5
  9
$DIMEXO
 40
0.0
  9
$DIMDLI
 40
10.0
  9
$DIMRND
 40
0.0
  9
$DIMDLE
 40
0.0
  9
$DIMEXE
 40
1.0
  9
$DIMTP
 40
0.1
  9
$DIMTM
 40
0.1000000001
  9
$DIMTXT
 40
3.799999999999999
  9
$DIMCEN
 40
0.0
  9
$DIMTSZ
 40
0.0
  9
$DIMTOL
 70
     0
  9
$DIMLIM
 70
     0
  9
$DIMTIH
 70
     0
  9
$DIMTOH
 70
     0
  9
$DIMSE1
 70
     0
  9
$DIMSE2
 70
     0
  9
$DIMTAD
 70
     3
  9
$DIMZIN
 70
     9
  9
$DIMBLK
  1
OPEN30
  9
$DIMASO
 70
     1
  9
$DIMSHO
 70
     1
  9
$DIMPOST
  1

  9
$DIMAPOST
  1
"
  9
$DIMALT
 70
     0
  9
$DIMALTD
 70
     2
  9
$DIMALTF
 40
0.0393701
  9
$DIMLFAC
 40
1.0
  9
$DIMTOFL
 70
     1
  9
$DIMTVP
 40
0.0
  9
$DIMTIX
 70
     0
  9
$DIMSOXD
 70
     0
  9
$DIMSAH
 70
     0
  9
$DIMBLK1
  1

  9
$DIMBLK2
  1

  9
$DIMSTYLE
  2
AM_JIS
  9
$DIMCLRD
 70
   256
  9
$DIMCLRE
 70
   256
  9
$DIMCLRT
 70
     2
  9
$DIMTFAC
 40
0.71
  9
$DIMGAP
 40
1.5
  9
$DIMJUST
 70
     0
  9
$DIMSD1
 70
     0
  9
$DIMSD2
 70
     0
  9
$DIMTOLJ
 70
     0
  9
$DIMTZIN
 70
     8
  9
$DIMALTZ
 70
     0
  9
$DIMALTTZ
 70
     0
  9
$DIMFIT
 70
     3
  9
$DIMUPT
 70
     0
  9
$DIMUNIT
 70
     2
  9
$DIMDEC
 70
     2
  9
$DIMTDEC
 70
     2
  9
$DIMALTU
 70
     2
  9
$DIMALTTD
 70
     2
  9
$DIMTXSTY
  7
STANDARD
  9
$DIMAUNIT
 70
     1
  9
$LUNITS
 70
     2
  9
$LUPREC
 70
     2
  9
$SKETCHINC
 40
1.0
  9
$FILLETRAD
 40
0.0
  9
$AUNITS
 70
     1
  9
$AUPREC
 70
     5
  9
$MENU
  1
.
  9
$ELEVATION
 40
0.0
  9
$PELEVATION
 40
0.0
  9
$THICKNESS
 40
0.0
  9
$LIMCHECK
 70
     0
  9
$BLIPMODE
 70
     0
  9
$CHAMFERA
 40
0.5
  9
$CHAMFERB
 40
0.5
  9
$CHAMFERC
 40
20.0
  9
$CHAMFERD
 40
0.0
  9
$SKPOLY
 70
     0
  9
$TDCREATE
 40
2451943.610431666
  9
$TDUPDATE
 40
2453151.555906562
  9
$TDINDWG
 40
0.4977913079
  9
$TDUSRTIMER
 40
0.4977911343
  9
$USRTIMER
 70
     1
  9
$ANGBASE
 50
0.0
  9
$ANGDIR
 70
     0
  9
$PDMODE
 70
     0
  9
$PDSIZE
 40
0.0
  9
$PLINEWID
 40
0.0
  9
$COORDS
 70
     1
  9
$SPLFRAME
 70
     0
  9
$SPLINETYPE
 70
     6
  9
$SPLINESEGS
 70
     8
  9
$ATTDIA
 70
     1
  9
$ATTREQ
 70
     1
  9
$HANDLING
 70
 12289
  9
$HANDSEED
  5
8F7D
  9
$SURFTAB1
 70
     6
  9
$SURFTAB2
 70
     6
  9
$SURFTYPE
 70
     6
  9
$SURFU
 70
     6
  9
$SURFV
 70
     6
  9
$UCSNAME
  2

  9
$UCSORG
 10
0.0
 20
0.0
 30
0.0
  9
$UCSXDIR
 10
1.0
 20
0.0
 30
0.0
  9
$UCSYDIR
 10
0.0
 20
1.0
 30
0.0
  9
$PUCSNAME
  2

  9
$PUCSORG
 10
0.0
 20
0.0
 30
0.0
  9
$PUCSXDIR
 10
1.0
 20
0.0
 30
0.0
  9
$PUCSYDIR
 10
0.0
 20
1.0
 30
0.0
  9
$USERI1
 70
     0
  9
$USERI2
 70
     0
  9
$USERI3
 70
     0
  9
$USERI4
 70
     0
  9
$USERI5
 70
     0
  9
$USERR1
 40
0.0
  9
$USERR2
 40
0.0
  9
$USERR3
 40
0.0
  9
$USERR4
 40
0.0
  9
$USERR5
 40
0.0
  9
$WORLDVIEW
 70
     1
  9
$SHADEDGE
 70
     3
  9
$SHADEDIF
 70
    70
  9
$TILEMODE
 70
     1
  9
$MAXACTVP
 70
    64
  9
$PINSBASE
 10
0.0
 20
0.0
 30
0.0
  9
$PLIMCHECK
 70
     0
  9
$PEXTMIN
 10
1.000000000000000E+20
 20
1.000000000000000E+20
 30
1.000000000000000E+20
  9
$PEXTMAX
 10
-1.000000000000000E+20
 20
-1.000000000000000E+20
 30
-1.000000000000000E+20
  9
$PLIMMIN
 10
0.0
 20
0.0
  9
$PLIMMAX
 10
420.0
 20
297.0
  9
$UNITMODE
 70
     0
  9
$VISRETAIN
 70
     1
  9
$PLINEGEN
 70
     0
  9
$PSLTSCALE
 70
     1
  9
$TREEDEPTH
 70
  3020
  9
$PICKSTYLE
 70
     0
  9
$CMLSTYLE
  2
STANDARD
  9
$CMLJUST
 70
     0
  9
$CMLSCALE
 40
20.0
  9
$PROXYGRAPHICS
 70
     1
  9
$MEASUREMENT
 70
     1
  0
ENDSEC
  0
SECTION
  2
CLASSES
  0
CLASS
  1
ACDBDICTIONARYWDFLT
  2
AcDbDictionaryWithDefault
  3
AutoCAD 2000
 90
        0
280
     0
281
     0
  0
CLASS
  1
ACDBPLACEHOLDER
  2
AcDbPlaceHolder
  3
AutoCAD 2000
 90
        0
280
     0
281
     0
  0
CLASS
  1
LAYOUT
  2
AcDbLayout
  3
AutoCAD 2000
 90
        0
280
     0
281
     0
  0
CLASS
  1
ACME_DOCUMENT
  2
AcMeDbDoc
  3
AcMeServices
 90
        0
280
     0
281
     0
  0
CLASS
  1
ACMESCOPE
  2
AcMeScope
  3
AcMeServices
 90
        0
280
     0
281
     0
  0
CLASS
  1
ACMECOMMANDHISTORY
  2
AcMeCommandHistory
  3
AcMeServices
 90
        0
280
     0
281
     0
  0
CLASS
  1
DICTIONARYVAR
  2
AcDbDictionaryVar
  3
AutoCAD 2000
 90
        0
280
     0
281
     0
  0
CLASS
  1
ACIMSYSVARMAN
  2
AcImSysVarManager
  3
AcMeServices
 90
        0
280
     0
281
     0
  0
CLASS
  1
ACIMREALSYSVAR
  2
AcImRealSysVar
  3
AcMeServices
 90
        0
280
     0
281
     0
  0
CLASS
  1
ACIMINTSYSVAR
  2
AcImIntSysVar
  3
AcMeServices
 90
        0
280
     0
281
     0
  0
CLASS
  1
ACMEDRAWINGMAN
  2
AcMeDrawingMan
  3
AcMeServices
 90
        0
280
     0
281
     0
  0
CLASS
  1
ACMEVIEW
  2
AcMeView
  3
AcMeServices
 90
        0
280
     0
281
     0
  0
CLASS
  1
ACDBENTITYCACHE
  2
AcMeEntityCache
  3
AcMeServices
 90
        0
280
     0
281
     0
  0
CLASS
  1
GSMANAGER
  2
AcMeGSManager
  3
AcMeServices
 90
        0
280
     0
281
     0
  0
CLASS
  1
AmdtInternalReactor
  2
AmdtInternalReactor
  3
AcMeServices
 90
        0
280
     0
281
     0
  0
CLASS
  1
ACMESTATEMGR
  2
AcMeStateMgr
  3
AcMeServices
 90
        0
280
     0
281
     0
  0
CLASS
  1
ACME_DATABASE
  2
AcMeDbDatabase
  3
AcMeServices
 90
        0
280
     0
281
     0
  0
CLASS
  1
ACRFINSADJUSTERMGR
  2
AcRfInsAdjusterMgr
  3
AcMeServices
 90
        0
280
     0
281
     0
  0
CLASS
  1
AMGSETTINGSOBJ
  2
AmgSettingsObj
  3
"AcadM|Product Description: AutoCAD Mechanical 2000|Company: Autodesk"
 90
        0
280
     0
281
     0
  0
CLASS
  1
AMGOBJPROPCFG
  2
AmgObjPropCfg
  3
"AmgLay|Product Description: AutoCAD Mechanical 2000|Company: Autodesk"
 90
        1
280
     0
281
     0
  0
CLASS
  1
ACMDATADICTIONARY
  2
AcmDataDictionary
  3
"AcmSymBB|Product Description: AutoCAD Mechanical 2000|Company: Autodesk"
 90
        0
280
     0
281
     0
  0
CLASS
  1
ACMDATAENTRYBLOCK
  2
AcmDataEntryBlock
  3
"AcmSymBB|Product Description: AutoCAD Mechanical 2000|Company: Autodesk"
 90
        0
280
     0
281
     0
  0
CLASS
  1
ACIMSTRSYSVAR
  2
AcImStrSysVar
  3
AcMeServices
 90
        0
280
     0
281
     0
  0
CLASS
  1
ACAMGFILTERDAT
  2
AcAmgFilterDat
  3
"AcadM|Product Description: AutoCAD Mechanical 2000|Company: Autodesk"
 90
        0
280
     0
281
     0
  0
CLASS
  1
LAYER_INDEX
  2
AcDbLayerIndex
  3
AutoCAD 2000
 90
        0
280
     0
281
     0
  0
CLASS
  1
IDBUFFER
  2
AcDbIdBuffer
  3
AutoCAD 2000
 90
        0
280
     0
281
     0
  0
CLASS
  1
ACMSTANDARDJIS
  2
AcmStandardJIS
  3
"AcmSymBB|Product Description: AutoCAD Mechanical 2000|Company: Autodesk"
 90
        0
280
     0
281
     0
  0
CLASS
  1
ACMSURFSTANDARDJIS
  2
AcmSurfTextStdJIS
  3
"AcmSymBB|Product Description: AutoCAD Mechanical 2000|Company: Autodesk"
 90
        0
280
     0
281
     0
  0
CLASS
  1
ACMFCFSTANDARDJIS
  2
AcmFCFStdJIS
  3
"AcmSymBB|Product Description: AutoCAD Mechanical 2000|Company: Autodesk"
 90
        0
280
     0
281
     0
  0
CLASS
  1
ACMWELDSTANDARDJIS
  2
AcmWeldingStdJIS
  3
"AcmSymBB|Product Description: AutoCAD Mechanical 2000|Company: Autodesk"
 90
        0
280
     0
281
     0
  0
CLASS
  1
ACMIDSTANDARDJIS
  2
AcmIdStdJIS
  3
"AcmSymBB|Product Description: AutoCAD Mechanical 2000|Company: Autodesk"
 90
        0
280
     0
281
     0
  0
CLASS
  1
ACMDATUMSTANDARDJIS
  2
AcmDatumStdJIS
  3
"AcmSymBB|Product Description: AutoCAD Mechanical 2000|Company: Autodesk"
 90
        0
280
     0
281
     0
  0
CLASS
  1
ACMBOMSTANDARDJIS
  2
AcmBOMStdJIS
  3
"AcmSymBB|Product Description: AutoCAD Mechanical 2000|Company: Autodesk"
 90
        0
280
     0
281
     0
  0
CLASS
  1
AMDTNOTE
  2
AmdtNote
  3
"AcmSymBB|Product Description: AutoCAD Mechanical 2000|Company: Autodesk"
 90
     1023
280
     0
281
     1
  0
CLASS
  1
ACMDATAENTRYPART
  2
AcmDataEntryPart
  3
"AcmSymBB|Product Description: AutoCAD Mechanical 2000|Company: Autodesk"
 90
        0
280
     0
281
     0
  0
CLASS
  1
ACMPARTREF
  2
AcmPartRef
  3
"AcmSymBB|Product Description: AutoCAD Mechanical 2000|Company: Autodesk"
 90
     1023
280
     0
281
     1
  0
CLASS
  1
ACDB_PROXY_ENTITY_DATA
  2
AcDbProxyEntityData
  3
AutoCAD 2000
 90
        0
280
     0
281
     0
  0
CLASS
  1
LONG_TRANSACTION
  2
AcDbLongTransaction
  3
AutoCAD 2000
 90
        0
280
     0
281
     0
  0
CLASS
  1
LWPOLYLINE
  2
AcDbPolyline
  3
AutoCAD 2000
 90
        0
280
     0
281
     1
  0
CLASS
  1
HATCH
  2
AcDbHatch
  3
AutoCAD 2000
 90
        0
280
     0
281
     1
  0
CLASS
  1
XRECORD
  2
AcDbXrecord
  3
AutoCAD 2000
 90
        0
280
     0
281
     0
  0
ENDSEC
  0
SECTION
  2
TABLES
  0
TABLE
  2
VPORT
  5
8
330
0
100
AcDbSymbolTable
 70
     3
  0
VPORT
  5
8F4D
330
8
100
AcDbSymbolTableRecord
100
AcDbViewportTableRecord
  2
*ACTIVE
 70
     0
 10
0.0
 20
0.0
 11
1.0
 21
1.0
 12
-19.96161444558816
 22
29.15799831966202
 13
0.0
 23
0.0
 14
2.5
 24
2.5
 15
10.0
 25
10.0
 16
0.0
 26
0.0
 36
1.0
 17
0.0
 27
0.0
 37
0.0
 40
303.9601089801757
 41
1.56570841889117
 42
50.0
 43
0.0
 44
0.0
 50
0.0
 51
0.0
 71
     0
 72
  2000
 73
     1
 74
     3
 75
     0
 76
     0
 77
     0
 78
     0
  0
ENDTAB
  0
TABLE
  2
LTYPE
  5
5
330
0
100
AcDbSymbolTable
 70
    10
  0
LTYPE
  5
14
330
5
100
AcDbSymbolTableRecord
100
AcDbLinetypeTableRecord
  2
BYBLOCK
 70
     0
  3

 72
    65
 73
     0
 40
0.0
  0
LTYPE
  5
15
330
5
100
AcDbSymbolTableRecord
100
AcDbLinetypeTableRecord
  2
BYLAYER
 70
     0
  3

 72
    65
 73
     0
 40
0.0
  0
LTYPE
  5
16
330
5
100
AcDbSymbolTableRecord
100
AcDbLinetypeTableRecord
  2
CONTINUOUS
 70
     0
  3
Solid line
 72
    65
 73
     0
 40
0.0
  0
LTYPE
  5
43
330
5
100
AcDbSymbolTableRecord
100
AcDbLinetypeTableRecord
  2
AM_ISO02W050
 70
     0
  3
__ __ __ __ __ __ __ __ __ __ __ __ __ __ __
 72
    65
 73
     2
 40
7.5
 49
6.0
 74
     0
 49
-1.5
 74
     0
  0
LTYPE
  5
44
330
5
100
AcDbSymbolTableRecord
100
AcDbLinetypeTableRecord
  2
AM_ISO08W050
 70
     0
  3
____ . ____ . ____ . ____ . ____ . ____ . ____
 72
    65
 73
     4
 40
18.0
 49
12.0
 74
     0
 49
-1.5
 74
     0
 49
3.0
 74
     0
 49
-1.5
 74
     0
  0
LTYPE
  5
45
330
5
100
AcDbSymbolTableRecord
100
AcDbLinetypeTableRecord
  2
AM_ISO09W050
 70
     0
  3
_____ . . _____ . . _____ . . ____ .. ____
 72
    65
 73
     6
 40
22.5
 49
12.0
 74
     0
 49
-1.5
 74
     0
 49
3.0
 74
     0
 49
-1.5
 74
     0
 49
3.0
 74
     0
 49
-1.5
 74
     0
  0
LTYPE
  5
46
330
5
100
AcDbSymbolTableRecord
100
AcDbLinetypeTableRecord
  2
AMCONSTR
 70
     0
  3
_______________________
 72
    65
 73
     2
 40
9999.0
 49
9999.0
 74
     0
 49
0.0
 74
     0
  0
LTYPE
  5
47
330
5
100
AcDbSymbolTableRecord
100
AcDbLinetypeTableRecord
  2
AM_ISO02W050X2
 70
     0
  3
 _ _ _ _ _ _ _ _ _ _ _ _
 72
    65
 73
     2
 40
3.75
 49
3.0
 74
     0
 49
-0.75
 74
     0
  0
LTYPE
  5
48
330
5
100
AcDbSymbolTableRecord
100
AcDbLinetypeTableRecord
  2
AM_ISO08W050X2
 70
     0
  3
__ . __ . __ . __ . __ . __
 72
    65
 73
     4
 40
9.0
 49
6.0
 74
     0
 49
-0.75
 74
     0
 49
1.5
 74
     0
 49
-0.75
 74
     0
  0
LTYPE
  5
4B
330
5
100
AcDbSymbolTableRecord
100
AcDbLinetypeTableRecord
  2
AMZIGZAG
 70
     0
  3
/\/-/\/-/\/-/\/-/\/-/\/
 72
    65
 73
     2
 40
11.00009999999999
 49
0.0001
 74
     4
 75
   135
340
4A
 46
0.04
 50
0.0
 44
0.0
 45
0.0
 49
-11.0
 74
     0
  0
LTYPE
  5
188
330
5
100
AcDbSymbolTableRecord
100
AcDbLinetypeTableRecord
  2
ACJISTGB
 70
     0
  3
__ . . __ . .
 72
    65
 73
     6
 40
9.0
 49
4.0
 74
     0
 49
-1.0
 74
     0
 49
1.0
 74
     0
 49
-1.0
 74
     0
 49
1.0
 74
     0
 49
-1.0
 74
     0
  0
LTYPE
  5
189
330
5
100
AcDbSymbolTableRecord
100
AcDbLinetypeTableRecord
  2
ACJISTGL
 70
     0
  3
_ _ _ _ _
 72
    65
 73
     2
 40
3.0
 49
2.0
 74
     0
 49
-1.0
 74
     0
  0
ENDTAB
  0
TABLE
  2
LAYER
  5
2
330
0
100
AcDbSymbolTable
 70
     9
  0
LAYER
  5
10
330
2
100
AcDbSymbolTableRecord
100
AcDbLayerTableRecord
  2
0
 70
     0
 62
     7
  6
CONTINUOUS
  0
LAYER
  5
7D
330
2
100
AcDbSymbolTableRecord
100
AcDbLayerTableRecord
  2
AM_5
 70
     0
 62
     3
  6
CONTINUOUS
  0
LAYER
  5
7F
330
2
100
AcDbSymbolTableRecord
100
AcDbLayerTableRecord
  2
DEFPOINTS
 70
     0
 62
     7
  6
CONTINUOUS
  0
LAYER
  5
12B1
330
2
100
AcDbSymbolTableRecord
100
AcDbLayerTableRecord
  2
AM_0
 70
     0
 62
     7
  6
CONTINUOUS
  0
LAYER
  5
2222
330
2
100
AcDbSymbolTableRecord
100
AcDbLayerTableRecord
  2
AM_6
 70
     0
 62
     2
  6
CONTINUOUS
  0
LAYER
  5
4379
330
2
100
AcDbSymbolTableRecord
100
AcDbLayerTableRecord
  2
AM_1
 70
     0
 62
     3
  6
CONTINUOUS
  0
LAYER
  5
74E5
330
2
100
AcDbSymbolTableRecord
100
AcDbLayerTableRecord
  2
AM_VIS
 70
     2
 62
     7
  6
CONTINUOUS
  0
LAYER
  5
862D
330
2
100
AcDbSymbolTableRecord
100
AcDbLayerTableRecord
  2
AM_7
 70
     0
 62
     4
  6
AM_ISO08W050
  0
LAYER
  5
862E
330
2
100
AcDbSymbolTableRecord
100
AcDbLayerTableRecord
  2
AM_11
 70
     0
 62
     3
  6
AM_ISO09W050
  0
ENDTAB
  0
TABLE
  2
STYLE
  5
3
330
0
100
AcDbSymbolTable
 70
     4
  0
STYLE
  5
11
330
3
100
AcDbSymbolTableRecord
100
AcDbTextStyleTableRecord
  2
STANDARD
 70
     0
 40
0.0
 41
1.0
 50
0.0
 71
     0
 42
2.5
  3
ISOCP.SHX
  4
EXTFONT.SHX
  0
STYLE
  5
4A
330
3
100
AcDbSymbolTableRecord
100
AcDbTextStyleTableRecord
  2

 70
     1
 40
0.0
 41
1.0
 50
0.0
 71
     0
 42
2.5
  3
ltypeshp.shx
  4

  0
STYLE
  5
180
330
3
100
AcDbSymbolTableRecord
100
AcDbTextStyleTableRecord
  2
ACJISTS
 70
     0
 40
1.0
 41
1.0
 50
0.0
 71
     0
 42
2.5
  3
isocp.shx
  4
bigfont.shx
  0
STYLE
  5
187
330
3
100
AcDbSymbolTableRecord
100
AcDbTextStyleTableRecord
  2
ACJISGDT
 70
     0
 40
0.0
 41
1.0
 50
0.0
 71
     0
 42
2.5
  3
amgdt.shx
  4

  0
ENDTAB
  0
TABLE
  2
VIEW
  5
6
330
0
100
AcDbSymbolTable
 70
     6
  0
VIEW
  5
A30
330
6
100
AcDbSymbolTableRecord
100
AcDbViewTableRecord
  2
AM_VIEW1
 70
     0
 40
148.5
 10
112.0719649561952
 20
222.75
 41
224.1439299123904
 11
0.0
 21
0.0
 31
1.0
 12
0.0
 22
0.0
 32
0.0
 42
50.0
 43
0.0
 44
0.0
 50
0.0
 71
     0
  0
VIEW
  5
A31
330
6
100
AcDbSymbolTableRecord
100
AcDbViewTableRecord
  2
AM_VIEW2
 70
     0
 40
148.5
 10
307.9280350438047
 20
222.75
 41
224.1439299123904
 11
0.0
 21
0.0
 31
1.0
 12
0.0
 22
0.0
 32
0.0
 42
50.0
 43
0.0
 44
0.0
 50
0.0
 71
     0
  0
VIEW
  5
A32
330
6
100
AcDbSymbolTableRecord
100
AcDbViewTableRecord
  2
AM_VIEW3
 70
     0
 40
148.5
 10
112.0719649561952
 20
74.25
 41
224.1439299123904
 11
0.0
 21
0.0
 31
1.0
 12
0.0
 22
0.0
 32
0.0
 42
50.0
 43
0.0
 44
0.0
 50
0.0
 71
     0
  0
VIEW
  5
A33
330
6
100
AcDbSymbolTableRecord
100
AcDbViewTableRecord
  2
AM_VIEW4
 70
     0
 40
148.5
 10
307.9280350438047
 20
74.25
 41
224.1439299123904
 11
0.0
 21
0.0
 31
1.0
 12
0.0
 22
0.0
 32
0.0
 42
50.0
 43
0.0
 44
0.0
 50
0.0
 71
     0
  0
VIEW
  5
A34
330
6
100
AcDbSymbolTableRecord
100
AcDbViewTableRecord
  2
AM_VIEW5
 70
     0
 40
148.5
 10
210.0
 20
148.5
 41
224.1439299123904
 11
0.0
 21
0.0
 31
1.0
 12
0.0
 22
0.0
 32
0.0
 42
50.0
 43
0.0
 44
0.0
 50
0.0
 71
     0
  0
VIEW
  5
A35
330
6
100
AcDbSymbolTableRecord
100
AcDbViewTableRecord
  2
AM_VIEW6
 70
     0
 40
296.9970299999999
 10
210.0
 20
148.5
 41
448.2833769461827
 11
0.0
 21
0.0
 31
1.0
 12
0.0
 22
0.0
 32
0.0
 42
50.0
 43
0.0
 44
0.0
 50
0.0
 71
     0
  0
ENDTAB
  0
TABLE
  2
UCS
  5
7
330
0
100
AcDbSymbolTable
 70
     0
  0
ENDTAB
  0
TABLE
  2
APPID
  5
9
330
0
100
AcDbSymbolTable
 70
    37
  0
APPID
  5
12
330
9
100
AcDbSymbolTableRecord
100
AcDbRegAppTableRecord
  2
ACAD
 70
     0
  0
APPID
  5
2C
330
9
100
AcDbSymbolTableRecord
100
AcDbRegAppTableRecord
  2
MCAD_NO_VIS
 70
     0
  0
APPID
  5
2D
330
9
100
AcDbSymbolTableRecord
100
AcDbRegAppTableRecord
  2
ACAD_TEMP_GRAPHIC
 70
     0
  0
APPID
  5
B9
330
9
100
AcDbSymbolTableRecord
100
AcDbRegAppTableRecord
  2
GENIUS_GENDTOL_13
 70
     0
  0
APPID
  5
359
330
9
100
AcDbSymbolTableRecord
100
AcDbRegAppTableRecord
  2
GENIUS_GENREC_14
 70
     0
  0
APPID
  5
35A
330
9
100
AcDbSymbolTableRecord
100
AcDbRegAppTableRecord
  2
GENIUS_GENODEF_13
 70
     0
  0
APPID
  5
35B
330
9
100
AcDbSymbolTableRecord
100
AcDbRegAppTableRecord
  2
GENIUS_GENOBJ-N-REC_13
 70
     0
  0
APPID
  5
667
330
9
100
AcDbSymbolTableRecord
100
AcDbRegAppTableRecord
  2
GENIUS_GENCFG_13
 70
     0
  0
APPID
  5
668
330
9
100
AcDbSymbolTableRecord
100
AcDbRegAppTableRecord
  2
GENIUS_GENCFG0_13
 70
     0
  0
APPID
  5
669
330
9
100
AcDbSymbolTableRecord
100
AcDbRegAppTableRecord
  2
GENIUS_GENCFG1_13
 70
     0
  0
APPID
  5
66A
330
9
100
AcDbSymbolTableRecord
100
AcDbRegAppTableRecord
  2
GENIUS_GENCFG2_13
 70
     0
  0
APPID
  5
66B
330
9
100
AcDbSymbolTableRecord
100
AcDbRegAppTableRecord
  2
GENIUS_GENCFG3_13
 70
     0
  0
APPID
  5
66C
330
9
100
AcDbSymbolTableRecord
100
AcDbRegAppTableRecord
  2
GENIUS_GENCFG4_13
 70
     0
  0
APPID
  5
A76
330
9
100
AcDbSymbolTableRecord
100
AcDbRegAppTableRecord
  2
GENIUS_GENBLLY_14
 70
     0
  0
APPID
  5
A77
330
9
100
AcDbSymbolTableRecord
100
AcDbRegAppTableRecord
  2
GENIUS_GENOBJ-N-CEN_13
 70
     0
  0
APPID
  5
A83
330
9
100
AcDbSymbolTableRecord
100
AcDbRegAppTableRecord
  2
GENIUS_GENTRA_14
 70
     0
  0
APPID
  5
A8D
330
9
100
AcDbSymbolTableRecord
100
AcDbRegAppTableRecord
  2
GENIUS_GENOBJ-N-TIT_13
 70
     0
  0
APPID
  5
A8E
330
9
100
AcDbSymbolTableRecord
100
AcDbRegAppTableRecord
  2
GENIUS_GENTITLE_13
 70
     0
  0
APPID
  5
A8F
330
9
100
AcDbSymbolTableRecord
100
AcDbRegAppTableRecord
  2
GENIUS_GENOENT_13
 70
     0
  0
APPID
  5
A90
330
9
100
AcDbSymbolTableRecord
100
AcDbRegAppTableRecord
  2
GENIUS_GENOREF_13
 70
     0
  0
APPID
  5
A91
330
9
100
AcDbSymbolTableRecord
100
AcDbRegAppTableRecord
  2
GENIUS_GENOLIS_13
 70
     0
  0
APPID
  5
A92
330
9
100
AcDbSymbolTableRecord
100
AcDbRegAppTableRecord
  2
GENIUS_GENZVEED_13
 70
     0
  0
APPID
  5
A93
330
9
100
AcDbSymbolTableRecord
100
AcDbRegAppTableRecord
  2
GENIUS_GENSCREG_15
 70
     0
  0
APPID
  5
A94
330
9
100
AcDbSymbolTableRecord
100
AcDbRegAppTableRecord
  2
GENIUS_GENOBJ-N-SDF_13
 70
     0
  0
APPID
  5
12B5
330
9
100
AcDbSymbolTableRecord
100
AcDbRegAppTableRecord
  2
GENIUS_GENOBJ-N-RSBK_13
 70
     0
  0
APPID
  5
12B6
330
9
100
AcDbSymbolTableRecord
100
AcDbRegAppTableRecord
  2
GENIUS_GENOBJ-N-LIB_13
 70
     0
  0
APPID
  5
12B7
330
9
100
AcDbSymbolTableRecord
100
AcDbRegAppTableRecord
  2
GENIUS_GENSCALE_13
 70
     0
  0
APPID
  5
12B8
330
9
100
AcDbSymbolTableRecord
100
AcDbRegAppTableRecord
  2
GENIUS_GENOBJ-N-HTC_13
 70
     0
  0
APPID
  5
12B9
330
9
100
AcDbSymbolTableRecord
100
AcDbRegAppTableRecord
  2
GENIUS_GENHATCH_13
 70
     0
  0
APPID
  5
1C0A
330
9
100
AcDbSymbolTableRecord
100
AcDbRegAppTableRecord
  2
BASE_TYPE
 70
     0
  0
APPID
  5
276B
330
9
100
AcDbSymbolTableRecord
100
AcDbRegAppTableRecord
  2
GENIUS_GENOBJ-N-FIL_13
 70
     0
  0
APPID
  5
3640
330
9
100
AcDbSymbolTableRecord
100
AcDbRegAppTableRecord
  2
GENIUS_GENBH_13
 70
     0
  0
APPID
  5
36D1
330
9
100
AcDbSymbolTableRecord
100
AcDbRegAppTableRecord
  2
GENIUS_GENOBJ-F-SPR_13
 70
     0
  0
APPID
  5
36DA
330
9
100
AcDbSymbolTableRecord
100
AcDbRegAppTableRecord
  2
GENIUS_GEFSPRING_13
 70
     0
  0
APPID
  5
36DB
330
9
100
AcDbSymbolTableRecord
100
AcDbRegAppTableRecord
  2
GENIUS_GEFSPRINGP_13
 70
     0
  0
APPID
  5
4D67
330
9
100
AcDbSymbolTableRecord
100
AcDbRegAppTableRecord
  2
GENIUS_GENFIL_13
 70
     0
  0
APPID
  5
4D68
330
9
100
AcDbSymbolTableRecord
100
AcDbRegAppTableRecord
  2
GENIUS_GENOBJ-N-CHA_13
 70
     0
  0
ENDTAB
  0
TABLE
  2
DIMSTYLE
  5
A
330
0
100
AcDbSymbolTable
 70
    11
  0
DIMSTYLE
105
58
330
A
100
AcDbSymbolTableRecord
100
AcDbDimStyleTableRecord
  2
AM_JIS
 70
     0
  3

  4
"
  5
OPEN30
  6

  7

 40
1.0
 41
2.5
 42
0.0
 43
10.0
 44
1.0
 45
0.0
 46
0.0
 47
0.1
 48
0.1000000001
140
3.799999999999999
141
0.0
142
0.0
143
0.0393701
144
1.0
145
0.0
146
0.71
147
1.5
 71
     0
 72
     0
 73
     0
 74
     0
 75
     0
 76
     0
 77
     3
 78
     9
170
     0
171
     2
172
     1
173
     0
174
     0
175
     0
176
   256
177
   256
178
     2
270
     2
271
     2
272
     2
273
     2
274
     2
340
11
275
     1
280
     0
281
     0
282
     0
283
     0
284
     8
285
     0
286
     0
287
     3
288
     0
  0
DIMSTYLE
105
5F
330
A
100
AcDbSymbolTableRecord
100
AcDbDimStyleTableRecord
  2
AM_JIS$3
 70
     0
  3

  4
"
  5
OPEN30
  6

  7

 40
1.0
 41
2.5
 42
0.0
 43
10.0
 44
1.0
 45
0.0
 46
0.0
 47
0.1
 48
0.1000000001
140
3.799999999999999
141
0.0
142
0.0
143
0.0393701
144
1.0
145
0.0
146
0.71
147
1.5
 71
     0
 72
     0
 73
     0
 74
     1
 75
     0
 76
     0
 77
     3
 78
     9
170
     0
171
     2
172
     1
173
     0
174
     0
175
     0
176
   256
177
   256
178
     2
270
     2
271
     2
272
     2
273
     2
274
     2
340
11
275
     1
280
     0
281
     0
282
     0
283
     0
284
     8
285
     0
286
     0
287
     0
288
     1
  0
DIMSTYLE
105
60
330
A
100
AcDbSymbolTableRecord
100
AcDbDimStyleTableRecord
  2
AM_JIS$4
 70
     0
  3

  4
"
  5
OPEN30
  6

  7

 40
1.0
 41
2.5
 42
0.0
 43
10.0
 44
1.0
 45
0.0
 46
0.0
 47
0.1
 48
0.1000000001
140
3.799999999999999
141
0.0
142
0.0
143
0.0393701
144
1.0
145
0.0
146
0.71
147
1.5
 71
     0
 72
     0
 73
     0
 74
     1
 75
     0
 76
     0
 77
     3
 78
     9
170
     0
171
     2
172
     1
173
     0
174
     0
175
     0
176
   256
177
   256
178
     2
270
     2
271
     2
272
     2
273
     2
274
     2
340
11
275
     1
280
     0
281
     0
282
     0
283
     0
284
     8
285
     0
286
     0
287
     0
288
     1
  0
DIMSTYLE
105
61
330
A
100
AcDbSymbolTableRecord
100
AcDbDimStyleTableRecord
  2
AM_JIS$6
 70
     0
  3

  4
"
  5
OPEN30
  6

  7

 40
1.0
 41
2.5
 42
0.0
 43
10.0
 44
1.0
 45
0.0
 46
0.0
 47
0.1
 48
0.1000000001
140
3.799999999999999
141
0.0
142
0.0
143
0.0393701
144
1.0
145
0.0
146
0.71
147
1.5
 71
     0
 72
     0
 73
     0
 74
     0
 75
     0
 76
     0
 77
     0
 78
     9
170
     0
171
     2
172
     1
173
     0
174
     0
175
     0
176
   256
177
   256
178
     2
270
     2
271
     2
272
     2
273
     2
274
     2
340
11
275
     1
280
     0
281
     0
282
     0
283
     0
284
     8
285
     0
286
     0
287
     3
288
     0
  0
DIMSTYLE
105
62
330
A
100
AcDbSymbolTableRecord
100
AcDbDimStyleTableRecord
  2
AM_JIS$7
 70
     0
  3

  4
"
  5
OPEN30
  6

  7

 40
1.0
 41
2.5
 42
0.0
 43
10.0
 44
1.0
 45
0.0
 46
0.0
 47
0.1
 48
0.1000000001
140
5.0
141
0.0
142
0.0
143
0.0393701
144
1.0
145
0.0
146
0.71
147
1.5
 71
     0
 72
     0
 73
     0
 74
     0
 75
     0
 76
     0
 77
     3
 78
     9
170
     0
171
     2
172
     1
173
     0
174
     0
175
     0
176
   256
177
   256
178
     2
270
     2
271
     2
272
     2
273
     2
274
     2
340
11
275
     1
280
     0
281
     0
282
     0
283
     0
284
     8
285
     0
286
     0
287
     3
288
     0
  0
DIMSTYLE
105
63
330
A
100
AcDbSymbolTableRecord
100
AcDbDimStyleTableRecord
  2
AM_JIS$SF
 70
     0
  3

  4
"
  5
OPEN30
  6
OPEN30
  7
OPEN30
 40
1.0
 41
2.5
 42
1.0
 43
10.0
 44
1.0
 45
0.0
 46
0.0
 47
0.1
 48
0.1
140
3.5
141
0.0
142
0.0
143
0.0393701
144
1.0
145
0.0
146
0.71
147
1.5
 71
     0
 72
     0
 73
     0
 74
     0
 75
     1
 76
     1
 77
     3
 78
     8
170
     0
171
     2
172
     0
173
     0
174
     0
175
     0
176
   256
177
   256
178
     2
270
     2
271
     2
272
     3
273
     2
274
     4
340
11
275
     0
280
     0
281
     0
282
     0
283
     1
284
     0
285
     0
286
     0
287
     3
288
     0
  0
DIMSTYLE
105
68
330
A
100
AcDbSymbolTableRecord
100
AcDbDimStyleTableRecord
  2
AM_JIS$SH
 70
     0
  3

  4
"
  5
OPEN30
  6
GENAXEH
  7
OPEN30
 40
1.0
 41
2.5
 42
1.0
 43
10.0
 44
1.0
 45
0.0
 46
0.0
 47
0.1
 48
0.1
140
3.5
141
0.0
142
0.0
143
0.0393701
144
2.0
145
0.0
146
0.71
147
1.5
 71
     0
 72
     0
 73
     0
 74
     0
 75
     1
 76
     1
 77
     3
 78
     8
170
     0
171
     2
172
     0
173
     1
174
     0
175
     0
176
   256
177
   256
178
     2
270
     2
271
     2
272
     3
273
     2
274
     4
340
11
275
     0
280
     0
281
     0
282
     0
283
     1
284
     0
285
     0
286
     0
287
     3
288
     0
  0
DIMSTYLE
105
65F
330
A
100
AcDbSymbolTableRecord
100
AcDbDimStyleTableRecord
  2
STANDARD
 70
     0
  3

  4

  5

  6

  7

 40
1.0
 41
0.18
 42
0.0625
 43
0.38
 44
0.18
 45
0.0
 46
0.0
 47
0.0
 48
0.0
140
0.18
141
0.09
142
0.0
143
25.4
144
1.0
145
0.0
146
1.0
147
0.09
 71
     0
 72
     0
 73
     1
 74
     1
 75
     0
 76
     0
 77
     0
 78
     0
170
     0
171
     2
172
     0
173
     0
174
     0
175
     0
176
     0
177
     0
178
     0
270
     2
271
     4
272
     4
273
     2
274
     2
340
11
275
     0
280
     0
281
     0
282
     0
283
     1
284
     0
285
     0
286
     0
287
     3
288
     0
  0
DIMSTYLE
105
1761
102
{ACAD_REACTORS
330
8DC9
330
8DE5
330
8E00
330
8E0E
330
8E48
330
8E83
102
}
330
A
100
AcDbSymbolTableRecord
100
AcDbDimStyleTableRecord
  2
AM_JIS$0
 70
     0
  3

  4
"
  5
OPEN30
  6

  7

 40
1.0
 41
2.5
 42
0.0
 43
10.0
 44
1.0
 45
0.0
 46
0.0
 47
0.1
 48
0.1000000001
140
3.799999999999999
141
0.0
142
0.0
143
0.0393701
144
1.0
145
0.0
146
0.71
147
1.5
 71
     0
 72
     0
 73
     0
 74
     0
 75
     0
 76
     0
 77
     3
 78
     9
170
     0
171
     2
172
     1
173
     0
174
     0
175
     0
176
     3
177
     3
178
     2
270
     2
271
     2
272
     2
273
     2
274
     2
340
11
275
     1
280
     0
281
     0
282
     0
283
     0
284
     8
285
     0
286
     0
287
     0
288
     0
  0
DIMSTYLE
105
1762
102
{ACAD_REACTORS
330
8DF3
102
}
330
A
100
AcDbSymbolTableRecord
100
AcDbDimStyleTableRecord
  2
AM_JIS$2
 70
     0
  3

  4
"
  5
OPEN30
  6

  7

 40
1.0
 41
2.5
 42
0.0
 43
10.0
 44
1.0
 45
0.0
 46
0.0
 47
0.1
 48
0.1000000001
140
3.799999999999999
141
0.0
142
0.0
143
0.0393701
144
1.0
145
0.0
146
0.71
147
1.5
 71
     0
 72
     0
 73
     0
 74
     0
 75
     0
 76
     0
 77
     3
 78
     9
170
     0
171
     2
172
     1
173
     0
174
     0
175
     0
176
     3
177
     3
178
     2
270
     2
271
     2
272
     2
273
     2
274
     2
340
11
275
     1
280
     0
281
     0
282
     0
283
     0
284
     8
285
     0
286
     0
287
     0
288
     0
  0
DIMSTYLE
105
74E6
330
A
100
AcDbSymbolTableRecord
100
AcDbDimStyleTableRecord
  2
ISO-25
 70
     0
  3

  4

  5

  6

  7

 40
1.0
 41
2.5
 42
0.625
 43
3.75
 44
1.25
 45
0.0
 46
0.0
 47
0.0
 48
0.0
140
2.5
141
2.5
142
0.0
143
0.03937007874016
144
1.0
145
0.0
146
1.0
147
0.625
 71
     0
 72
     0
 73
     0
 74
     0
 75
     0
 76
     0
 77
     1
 78
     8
170
     0
171
     3
172
     1
173
     0
174
     0
175
     0
176
     0
177
     0
178
     0
270
     2
271
     2
272
     2
273
     2
274
     3
340
11
275
     0
280
     0
281
     0
282
     0
283
     0
284
     8
285
     0
286
     0
287
     3
288
     0
  0
ENDTAB
  0
TABLE
  2
BLOCK_RECORD
  5
1
330
0
100
AcDbSymbolTable
 70
    25
  0
BLOCK_RECORD
  5
1F
102
{ACAD_XDICTIONARY
360
165
102
}
330
1
100
AcDbSymbolTableRecord
100
AcDbBlockTableRecord
  2
*MODEL_SPACE
  0
BLOCK_RECORD
  5
1B
102
{ACAD_XDICTIONARY
360
8F6F
102
}
330
1
100
AcDbSymbolTableRecord
100
AcDbBlockTableRecord
  2
*PAPER_SPACE
  0
BLOCK_RECORD
  5
59
330
1
100
AcDbSymbolTableRecord
100
AcDbBlockTableRecord
  2
_OPEN30
  0
BLOCK_RECORD
  5
64
330
1
100
AcDbSymbolTableRecord
100
AcDbBlockTableRecord
  2
GENAXEH
  0
BLOCK_RECORD
  5
8DCA
330
1
100
AcDbSymbolTableRecord
100
AcDbBlockTableRecord
  2
*D18
  0
BLOCK_RECORD
  5
8DE6
330
1
100
AcDbSymbolTableRecord
100
AcDbBlockTableRecord
  2
*D19
  0
BLOCK_RECORD
  5
8DF4
330
1
100
AcDbSymbolTableRecord
100
AcDbBlockTableRecord
  2
*D20
  0
BLOCK_RECORD
  5
8E01
330
1
100
AcDbSymbolTableRecord
100
AcDbBlockTableRecord
  2
*D21
  0
BLOCK_RECORD
  5
8E0F
330
1
100
AcDbSymbolTableRecord
100
AcDbBlockTableRecord
  2
*D22
  0
BLOCK_RECORD
  5
8E49
330
1
100
AcDbSymbolTableRecord
100
AcDbBlockTableRecord
  2
*D23
  0
BLOCK_RECORD
  5
8E84
330
1
100
AcDbSymbolTableRecord
100
AcDbBlockTableRecord
  2
*D24
  0
ENDTAB
  0
ENDSEC
  0
SECTION
  2
BLOCKS
  0
BLOCK
  5
20
330
1F
100
AcDbEntity
  8
0
100
AcDbBlockBegin
  2
*MODEL_SPACE
 70
     0
 10
0.0
 20
0.0
 30
0.0
  3
*MODEL_SPACE
  1

  0
ENDBLK
  5
21
330
1F
100
AcDbEntity
  8
0
100
AcDbBlockEnd
  0
BLOCK
  5
1C
330
1B
100
AcDbEntity
 67
     1
  8
0
100
AcDbBlockBegin
  2
*PAPER_SPACE
 70
     0
 10
0.0
 20
0.0
 30
0.0
  3
*PAPER_SPACE
  1

  0
ENDBLK
  5
1D
330
1B
100
AcDbEntity
 67
     1
  8
0
100
AcDbBlockEnd
  0
BLOCK
  5
5D
330
59
100
AcDbEntity
  8
0
100
AcDbBlockBegin
  2
_OPEN30
 70
     0
 10
0.0
 20
0.0
 30
0.0
  3
_OPEN30
  1

  0
LINE
  5
5A
330
59
100
AcDbEntity
  8
0
 62
     0
100
AcDbLine
 10
-1.0
 20
0.26794919
 30
0.0
 11
0.0
 21
0.0
 31
0.0
  0
LINE
  5
5B
330
59
100
AcDbEntity
  8
0
 62
     0
100
AcDbLine
 10
0.0
 20
0.0
 30
0.0
 11
-1.0
 21
-0.26794919
 31
0.0
  0
LINE
  5
5C
330
59
100
AcDbEntity
  8
0
 62
     0
100
AcDbLine
 10
0.0
 20
0.0
 30
0.0
 11
-1.0
 21
0.0
 31
0.0
  0
ENDBLK
  5
5E
330
59
100
AcDbEntity
  8
0
100
AcDbBlockEnd
  0
BLOCK
  5
66
330
64
100
AcDbEntity
  8
0
100
AcDbBlockBegin
  2
GENAXEH
 70
     0
 10
0.0
 20
0.0
 30
0.0
  3
GENAXEH
  1

  0
LINE
  5
65
330
64
100
AcDbEntity
  8
0
100
AcDbLine
 10
-1.0
 20
0.0
 30
0.0
 11
1.0
 21
0.0
 31
0.0
  0
ENDBLK
  5
67
330
64
100
AcDbEntity
  8
0
100
AcDbBlockEnd
  0
BLOCK
  5
8DD4
330
8DCA
100
AcDbEntity
  8
0
100
AcDbBlockBegin
  2
*D18
 70
     1
 10
0.0
 20
0.0
 30
0.0
  3
*D18
  1

  0
LINE
  5
8EFC
330
8DCA
100
AcDbEntity
  8
AM_5
 62
     3
100
AcDbLine
 10
-150.0083643169377
 20
-31.99819632216683
 30
0.0
 11
-166.7741157065394
 21
-31.99819632216683
 31
0.0
  0
LINE
  5
8EFD
330
8DCA
100
AcDbEntity
  8
AM_5
 62
     3
100
AcDbLine
 10
-150.0083643169377
 20
-6.998196322166833
 30
0.0
 11
-166.7741157065394
 21
-6.998196322166829
 31
0.0
  0
LINE
  5
8EFE
330
8DCA
100
AcDbEntity
  8
AM_5
 62
     3
100
AcDbLine
 10
-165.7741157065394
 20
-29.49819632216683
 30
0.0
 11
-165.7741157065394
 21
-9.498196322166828
 31
0.0
  0
INSERT
  5
8EFF
330
8DCA
100
AcDbEntity
  8
AM_5
 62
     3
100
AcDbBlockReference
  2
_OPEN30
 10
-165.7741157065394
 20
-31.99819632216683
 30
0.0
 41
2.5
 42
2.5
 43
2.5
 50
270.0
  0
INSERT
  5
8F00
330
8DCA
100
AcDbEntity
  8
AM_5
 62
     3
100
AcDbBlockReference
  2
_OPEN30
 10
-165.7741157065394
 20
-6.99819632216683
 30
0.0
 41
2.5
 42
2.5
 43
2.5
 50
90.0
  0
MTEXT
  5
8F01
330
8DCA
100
AcDbEntity
  8
AM_5
 62
     2
100
AcDbMText
 10
-169.1744897222874
 20
-19.49819632216685
 30
0.0
 40
3.799999999999999
 41
0.0
 71
     5
 72
     1
  1
25
 11
0.0000000000000001
 21
1.0
 31
0.0
1001
ACAD
1000
MTEXTBEGIN
1070
    73
1070
     1
1070
    44
1040
1.0
1070
    74
1070
     0
1000
MTEXTEND
  0
POINT
  5
8F02
330
8DCA
100
AcDbEntity
  8
DEFPOINTS
 62
     0
100
AcDbPoint
 10
-150.0083643169377
 20
-31.99819632216683
 30
0.0
  0
POINT
  5
8F03
330
8DCA
100
AcDbEntity
  8
DEFPOINTS
 62
     0
100
AcDbPoint
 10
-150.0083643169377
 20
-6.998196322166833
 30
0.0
  0
POINT
  5
8F04
330
8DCA
100
AcDbEntity
  8
DEFPOINTS
 62
     0
100
AcDbPoint
 10
-165.7741157065394
 20
-6.99819632216683
 30
0.0
  0
ENDBLK
  5
8DD5
330
8DCA
100
AcDbEntity
  8
0
100
AcDbBlockEnd
  0
BLOCK
  5
8DF0
330
8DE6
100
AcDbEntity
  8
0
100
AcDbBlockBegin
  2
*D19
 70
     1
 10
0.0
 20
0.0
 30
0.0
  3
*D19
  1

  0
LINE
  5
8F17
330
8DE6
100
AcDbEntity
  8
AM_5
 62
     3
100
AcDbLine
 10
-20.02796338868859
 20
-31.99819632216683
 30
0.0
 11
13.08204228120563
 21
-31.99819632216684
 31
0.0
  0
LINE
  5
8F18
330
8DE6
100
AcDbEntity
  8
AM_5
 62
     3
100
AcDbLine
 10
-0.7466236926206875
 20
0.0
 30
0.0
 11
13.08204228120564
 21
-0.0000000000000039
 31
0.0
  0
LINE
  5
8F19
330
8DE6
100
AcDbEntity
  8
AM_5
 62
     3
100
AcDbLine
 10
12.08204228120563
 20
-29.49819632216684
 30
0.0
 11
12.08204228120564
 21
-2.500000000000003
 31
0.0
  0
INSERT
  5
8F1A
330
8DE6
100
AcDbEntity
  8
AM_5
 62
     3
100
AcDbBlockReference
  2
_OPEN30
 10
12.08204228120563
 20
-31.99819632216684
 30
0.0
 41
2.5
 42
2.5
 43
2.5
 50
270.0
  0
INSERT
  5
8F1B
330
8DE6
100
AcDbEntity
  8
AM_5
 62
     3
100
AcDbBlockReference
  2
_OPEN30
 10
12.08204228120564
 20
-0.0000000000000036
 30
0.0
 41
2.5
 42
2.5
 43
2.5
 50
90.0
  0
MTEXT
  5
8F1C
330
8DE6
100
AcDbEntity
  8
AM_5
 62
     2
100
AcDbMText
 10
8.681668265457611
 20
-15.99909816108342
 30
0.0
 40
3.799999999999999
 41
0.0
 71
     5
 72
     1
  1
32
 11
0.0000000000000001
 21
1.0
 31
0.0
1001
ACAD
1000
MTEXTBEGIN
1070
    73
1070
     1
1070
    44
1040
1.0
1070
    74
1070
     0
1000
MTEXTEND
  0
POINT
  5
8F1D
330
8DE6
100
AcDbEntity
  8
DEFPOINTS
 62
     0
100
AcDbPoint
 10
-20.02796338868859
 20
-31.99819632216683
 30
0.0
  0
POINT
  5
8F1E
330
8DE6
100
AcDbEntity
  8
DEFPOINTS
 62
     0
100
AcDbPoint
 10
-0.7466236926206875
 20
0.0
 30
0.0
  0
POINT
  5
8F1F
330
8DE6
100
AcDbEntity
  8
DEFPOINTS
 62
     0
100
AcDbPoint
 10
12.08204228120564
 20
-0.0000000000000036
 30
0.0
  0
ENDBLK
  5
8DF1
330
8DE6
100
AcDbEntity
  8
0
100
AcDbBlockEnd
  0
BLOCK
  5
8DFE
330
8DF4
100
AcDbEntity
  8
0
100
AcDbBlockBegin
  2
*D20
 70
     1
 10
0.0
 20
0.0
 30
0.0
  3
*D20
  1

  0
ARC
  5
8F74
330
8DF4
100
AcDbEntity
  8
AM_5
 62
     3
100
AcDbCircle
 10
-0.0019613504654217
 20
0.0450231757442137
 30
0.0
 40
18.53512279503847
100
AcDbArc
 50
97.73387103240267
 51
175.2661289671692
  0
INSERT
  5
8F75
330
8DF4
100
AcDbEntity
  8
AM_5
 62
     3
100
AcDbBlockReference
  2
_OPEN30
 10
-0.0019613504654199
 20
18.58014597078268
 30
0.0
 41
2.5
 42
2.5
 43
2.5
 50
3.866935516201346
  0
INSERT
  5
8F76
330
8DF4
100
AcDbEntity
  8
AM_5
 62
     3
100
AcDbBlockReference
  2
_OPEN30
 10
-18.51168240390083
 20
-0.9250301996762182
 30
0.0
 41
2.5
 42
2.5
 43
2.5
 50
269.1330644833705
  0
MTEXT
  5
8F77
330
8DF4
100
AcDbEntity
  8
AM_5
 62
     2
100
AcDbMText
 10
-15.91313725093733
 20
15.14416532017275
 30
0.0
 40
3.799999999999999
 41
0.0
 71
     5
 72
     1
  1
93°
 11
0.6883545756964633
 21
0.7253743710097167
 31
0.0
  0
POINT
  5
8F78
330
8DF4
100
AcDbEntity
  8
DEFPOINTS
 62
     0
100
AcDbPoint
 10
-9.548255313003927
 20
15.93272435017331
 30
0.0
  0
POINT
  5
8F79
330
8DF4
100
AcDbEntity
  8
DEFPOINTS
 62
     0
100
AcDbPoint
 10
-0.0019613504654216
 20
-0.863157011917508
 30
0.0
  0
POINT
  5
8F7A
330
8DF4
100
AcDbEntity
  8
DEFPOINTS
 62
     0
100
AcDbPoint
 10
-14.68028792449615
 20
-0.7242353234820192
 30
0.0
  0
POINT
  5
8F7B
330
8DF4
100
AcDbEntity
  8
DEFPOINTS
 62
     0
100
AcDbPoint
 10
-19.42109920890447
 20
-0.972690714862324
 30
0.0
  0
POINT
  5
8F7C
330
8DF4
100
AcDbEntity
  8
DEFPOINTS
 62
     0
100
AcDbPoint
 10
-0.0019613504654235
 20
28.56199442615438
 30
0.0
  0
ENDBLK
  5
8DFF
330
8DF4
100
AcDbEntity
  8
0
100
AcDbBlockEnd
  0
BLOCK
  5
8E0B
330
8E01
100
AcDbEntity
  8
0
100
AcDbBlockBegin
  2
*D21
 70
     1
 10
0.0
 20
0.0
 30
0.0
  3
*D21
  1

  0
LINE
  5
8F0E
330
8E01
100
AcDbEntity
  8
AM_5
 62
     3
100
AcDbLine
 10
-38.00000031693793
 20
-6.998196322167117
 30
0.0
 11
-38.00000031693793
 21
28.48082846530489
 31
0.0
  0
LINE
  5
8F0F
330
8E01
100
AcDbEntity
  8
AM_5
 62
     3
100
AcDbLine
 10
0.0
 20
-0.8035048034918617
 30
0.0
 11
0.0000000000000018
 21
28.48082846530489
 31
0.0
  0
LINE
  5
8F10
330
8E01
100
AcDbEntity
  8
AM_5
 62
     3
100
AcDbLine
 10
-35.50000031693793
 20
27.48082846530489
 30
0.0
 11
-2.499999999999998
 21
27.48082846530489
 31
0.0
  0
INSERT
  5
8F11
330
8E01
100
AcDbEntity
  8
AM_5
 62
     3
100
AcDbBlockReference
  2
_OPEN30
 10
-38.00000031693793
 20
27.48082846530489
 30
0.0
 41
2.5
 42
2.5
 43
2.5
 50
180.0
  0
INSERT
  5
8F12
330
8E01
100
AcDbEntity
  8
AM_5
 62
     3
100
AcDbBlockReference
  2
_OPEN30
 10
0.0000000000000017
 20
27.48082846530489
 30
0.0
 41
2.5
 42
2.5
 43
2.5
  0
MTEXT
  5
8F13
330
8E01
100
AcDbEntity
  8
AM_5
 62
     2
100
AcDbMText
 10
-19.00000015846896
 20
30.88082846530489
 30
0.0
 40
3.799999999999999
 41
0.0
 71
     5
 72
     1
  1
38
1001
ACAD
1000
MTEXTBEGIN
1070
    73
1070
     1
1070
    44
1040
1.0
1070
    74
1070
     0
1000
MTEXTEND
  0
POINT
  5
8F14
330
8E01
100
AcDbEntity
  8
DEFPOINTS
 62
     0
100
AcDbPoint
 10
-38.00000031693793
 20
-6.998196322167117
 30
0.0
  0
POINT
  5
8F15
330
8E01
100
AcDbEntity
  8
DEFPOINTS
 62
     0
100
AcDbPoint
 10
0.0
 20
-0.8035048034918617
 30
0.0
  0
POINT
  5
8F16
330
8E01
100
AcDbEntity
  8
DEFPOINTS
 62
     0
100
AcDbPoint
 10
0.0000000000000017
 20
27.48082846530489
 30
0.0
  0
ENDBLK
  5
8E0C
330
8E01
100
AcDbEntity
  8
0
100
AcDbBlockEnd
  0
BLOCK
  5
8E19
330
8E0F
100
AcDbEntity
  8
0
100
AcDbBlockBegin
  2
*D22
 70
     1
 10
0.0
 20
0.0
 30
0.0
  3
*D22
  1

  0
LINE
  5
8EF3
330
8E0F
100
AcDbEntity
  8
AM_5
 62
     3
100
AcDbLine
 10
0.0
 20
-0.8035048034918617
 30
0.0
 11
0.0000000000000024
 21
38.35649087938687
 31
0.0
  0
LINE
  5
8EF4
330
8E0F
100
AcDbEntity
  8
AM_5
 62
     3
100
AcDbLine
 10
-150.0000003169378
 20
-6.998196322166819
 30
0.0
 11
-150.0000003169378
 21
38.35649087938687
 31
0.0
  0
LINE
  5
8EF5
330
8E0F
100
AcDbEntity
  8
AM_5
 62
     3
100
AcDbLine
 10
-2.499999999999997
 20
37.35649087938686
 30
0.0
 11
-147.5000003169378
 21
37.35649087938686
 31
0.0
  0
INSERT
  5
8EF6
330
8E0F
100
AcDbEntity
  8
AM_5
 62
     3
100
AcDbBlockReference
  2
_OPEN30
 10
0.0000000000000023
 20
37.35649087938686
 30
0.0
 41
2.5
 42
2.5
 43
2.5
  0
INSERT
  5
8EF7
330
8E0F
100
AcDbEntity
  8
AM_5
 62
     3
100
AcDbBlockReference
  2
_OPEN30
 10
-150.0000003169378
 20
37.35649087938686
 30
0.0
 41
2.5
 42
2.5
 43
2.5
 50
180.0
  0
MTEXT
  5
8EF8
330
8E0F
100
AcDbEntity
  8
AM_5
 62
     2
100
AcDbMText
 10
-75.0000001584689
 20
40.75649087938686
 30
0.0
 40
3.799999999999999
 41
0.0
 71
     5
 72
     1
  1
150
1001
ACAD
1000
MTEXTBEGIN
1070
    73
1070
     1
1070
    44
1040
1.0
1070
    74
1070
     0
1000
MTEXTEND
  0
POINT
  5
8EF9
330
8E0F
100
AcDbEntity
  8
DEFPOINTS
 62
     0
100
AcDbPoint
 10
0.0
 20
-0.8035048034918617
 30
0.0
  0
POINT
  5
8EFA
330
8E0F
100
AcDbEntity
  8
DEFPOINTS
 62
     0
100
AcDbPoint
 10
-150.0000003169378
 20
-6.998196322166819
 30
0.0
  0
POINT
  5
8EFB
330
8E0F
100
AcDbEntity
  8
DEFPOINTS
 62
     0
100
AcDbPoint
 10
-150.0000003169378
 20
37.35649087938686
 30
0.0
  0
ENDBLK
  5
8E1A
330
8E0F
100
AcDbEntity
  8
0
100
AcDbBlockEnd
  0
BLOCK
  5
8E53
330
8E49
100
AcDbEntity
  8
0
100
AcDbBlockBegin
  2
*D23
 70
     1
 10
0.0
 20
0.0
 30
0.0
  3
*D23
  1

  0
LINE
  5
8F26
330
8E49
100
AcDbEntity
  8
AM_5
 62
     3
100
AcDbLine
 10
-0.1638310748486447
 20
65.63461346640976
 30
0.0
 11
14.19486915436027
 21
65.63461346640976
 31
0.0
  0
LINE
  5
8F27
330
8E49
100
AcDbEntity
  8
AM_5
 62
     3
100
AcDbLine
 10
-2.003952526650664
 20
90.63461343245039
 30
0.0
 11
14.19486915436027
 21
90.63461343245039
 31
0.0
  0
LINE
  5
8F28
330
8E49
100
AcDbEntity
  8
AM_5
 62
     3
100
AcDbLine
 10
13.19486915436027
 20
68.13461346640976
 30
0.0
 11
13.19486915436027
 21
88.13461343245039
 31
0.0
  0
INSERT
  5
8F29
330
8E49
100
AcDbEntity
  8
AM_5
 62
     3
100
AcDbBlockReference
  2
_OPEN30
 10
13.19486915436027
 20
65.63461346640976
 30
0.0
 41
2.5
 42
2.5
 43
2.5
 50
270.0
  0
INSERT
  5
8F2A
330
8E49
100
AcDbEntity
  8
AM_5
 62
     3
100
AcDbBlockReference
  2
_OPEN30
 10
13.19486915436027
 20
90.63461343245039
 30
0.0
 41
2.5
 42
2.5
 43
2.5
 50
90.0
  0
MTEXT
  5
8F2B
330
8E49
100
AcDbEntity
  8
AM_5
 62
     2
100
AcDbMText
 10
9.79449513861223
 20
78.13461344943007
 30
0.0
 40
3.799999999999999
 41
0.0
 71
     5
 72
     1
  1
25
 11
0.0000000000000001
 21
1.0
 31
0.0
1001
ACAD
1000
MTEXTBEGIN
1070
    73
1070
     1
1070
    44
1040
1.0
1070
    74
1070
     0
1000
MTEXTEND
  0
POINT
  5
8F2C
330
8E49
100
AcDbEntity
  8
DEFPOINTS
 62
     0
100
AcDbPoint
 10
-0.1638310748486447
 20
65.63461346640976
 30
0.0
  0
POINT
  5
8F2D
330
8E49
100
AcDbEntity
  8
DEFPOINTS
 62
     0
100
AcDbPoint
 10
-2.003952526650664
 20
90.63461343245039
 30
0.0
  0
POINT
  5
8F2E
330
8E49
100
AcDbEntity
  8
DEFPOINTS
 62
     0
100
AcDbPoint
 10
13.19486915436027
 20
90.63461343245039
 30
0.0
  0
ENDBLK
  5
8E54
330
8E49
100
AcDbEntity
  8
0
100
AcDbBlockEnd
  0
BLOCK
  5
8E8E
330
8E84
100
AcDbEntity
  8
0
100
AcDbBlockBegin
  2
*D24
 70
     1
 10
0.0
 20
0.0
 30
0.0
  3
*D24
  1

  0
LINE
  5
8EE1
330
8E84
100
AcDbEntity
  8
AM_5
 62
     3
100
AcDbLine
 10
-150.0000003169377
 20
65.6346134324492
 30
0.0
 11
-168.3673640027414
 21
65.63461343244921
 31
0.0
  0
LINE
  5
8EE2
330
8E84
100
AcDbEntity
  8
AM_5
 62
     3
100
AcDbLine
 10
-150.0000003169377
 20
90.63461343245039
 30
0.0
 11
-168.3673640027414
 21
90.63461343245041
 31
0.0
  0
LINE
  5
8EE3
330
8E84
100
AcDbEntity
  8
AM_5
 62
     3
100
AcDbLine
 10
-167.3673640027415
 20
68.13461343244921
 30
0.0
 11
-167.3673640027415
 21
88.13461343245041
 31
0.0
  0
INSERT
  5
8EE4
330
8E84
100
AcDbEntity
  8
AM_5
 62
     3
100
AcDbBlockReference
  2
_OPEN30
 10
-167.3673640027415
 20
65.63461343244921
 30
0.0
 41
2.5
 42
2.5
 43
2.5
 50
270.0
  0
INSERT
  5
8EE5
330
8E84
100
AcDbEntity
  8
AM_5
 62
     3
100
AcDbBlockReference
  2
_OPEN30
 10
-167.3673640027415
 20
90.63461343245041
 30
0.0
 41
2.5
 42
2.5
 43
2.5
 50
90.0
  0
MTEXT
  5
8EE6
330
8E84
100
AcDbEntity
  8
AM_5
 62
     2
100
AcDbMText
 10
-170.7677380184895
 20
78.13461343244978
 30
0.0
 40
3.799999999999999
 41
0.0
 71
     5
 72
     1
  1
25
 11
0.0000000000000001
 21
1.0
 31
0.0
1001
ACAD
1000
MTEXTBEGIN
1070
    73
1070
     1
1070
    44
1040
1.0
1070
    74
1070
     0
1000
MTEXTEND
  0
POINT
  5
8EE7
330
8E84
100
AcDbEntity
  8
DEFPOINTS
 62
     0
100
AcDbPoint
 10
-150.0000003169377
 20
65.6346134324492
 30
0.0
  0
POINT
  5
8EE8
330
8E84
100
AcDbEntity
  8
DEFPOINTS
 62
     0
100
AcDbPoint
 10
-150.0000003169377
 20
90.63461343245039
 30
0.0
  0
POINT
  5
8EE9
330
8E84
100
AcDbEntity
  8
DEFPOINTS
 62
     0
100
AcDbPoint
 10
-167.3673640027415
 20
90.63461343245041
 30
0.0
  0
ENDBLK
  5
8E8F
330
8E84
100
AcDbEntity
  8
0
100
AcDbBlockEnd
  0
ENDSEC
  0
SECTION
  2
ENTITIES
  0
POINT
  5
1649
330
1F
100
AcDbEntity
  8
0
 60
     1
100
AcDbPoint
 10
0.0
 20
0.0
 30
0.0
1001
GENIUS_GENOBJ-N-TIT_13
1002
{
1000
OWNER
1000
GEN
1002
}
1001
GENIUS_GENOENT_13
1002
{
1000
MYREF
1005
1649
1002
}
1002
{
1000
GRP
1005
0
1002
}
1001
GENIUS_GENOLIS_13
1002
{
1000
ENT
1005
1641
1005
1630
1002
}
1001
GENIUS_GENTITLE_13
1002
{
1000
SCALE
1000
1:1
1002
}
1002
{
1000
BORDER
1000
IOS-A3
1002
}
1002
{
1000
TITLE
1000
XA3
1002
}
1002
{
1000
UNCHG
1002
{
1000
GEN-TITLE-SCA
1000
GEN-TITLE-SIZ
1002
}
1002
}
1002
{
1000
HRA
1005
1630
1002
}
1002
{
1000
HTIT
1005
1641
1002
}
1002
{
1000
GENIUSID
1005
1649
1002
}
1001
GENIUS_GENODEF_13
1002
{
1000
HIER
1070
     1
1002
}
1002
{
1000
MANEDIT
1070
     0
1002
}
1002
{
1000
NOSEL
1070
     0
1002
}
1002
{
1000
BEHIND
1070
     0
1002
}
1002
{
1000
REACTOR
1002
}
  0
TEXT
  5
7495
330
1F
100
AcDbEntity
  8
AM_6
100
AcDbText
 10
-111.0032014664723
 20
-54.49988050329946
 30
0.0
 40
5.0
  1
DDJNR2525M15E
 72
     4
 11
-87.50320146647231
 21
-51.99988050329945
 31
0.0
100
AcDbText
  0
LINE
  5
89FF
330
1F
100
AcDbEntity
  8
AM_0
100
AcDbLine
 10
-33.00836431693801
 20
-31.99819632216683
 30
0.0
 11
-150.0000003169377
 21
-31.99819632216683
 31
0.0
  0
LINE
  5
8A00
330
1F
100
AcDbEntity
  8
AM_0
100
AcDbLine
 10
-38.00000031693798
 20
-6.998196322166748
 30
0.0
 11
-150.0000003169378
 21
-6.998196322166819
 31
0.0
  0
LINE
  5
8A01
330
1F
100
AcDbEntity
  8
AM_0
100
AcDbLine
 10
-150.0000003169377
 20
90.63461343245039
 30
0.0
 11
-33.00836431693778
 21
90.63461343245039
 31
0.0
  0
LINE
  5
8A02
330
1F
100
AcDbEntity
  8
AM_0
100
AcDbLine
 10
-38.0083643169379
 20
65.63461343244917
 30
0.0
 11
-150.0000003169377
 21
65.6346134324492
 31
0.0
  0
LINE
  5
8A05
330
1F
100
AcDbEntity
  8
AM_0
100
AcDbLine
 10
-3.257266191477062
 20
90.63461343245039
 30
0.0
 11
-3.257266191477062
 21
78.02585262823754
 31
0.0
  0
LINE
  5
8A06
330
1F
100
AcDbEntity
  8
AM_0
100
AcDbLine
 10
-35.69303010985231
 20
61.03612173365248
 30
0.0
 11
-35.69303010985231
 21
90.63461343245039
 31
0.0
  0
LINE
  5
8A07
330
1F
100
AcDbEntity
  8
AM_0
100
AcDbLine
 10
-38.00836431693778
 20
90.63461343245039
 30
0.0
 11
-38.00836431693778
 21
65.63461343244917
 31
0.0
  0
LINE
  5
8A08
330
1F
100
AcDbEntity
  8
AM_0
100
AcDbLine
 10
-2.232947031339987
 20
78.11045299517736
 30
0.0
 11
-2.232947031339987
 21
90.63461343245039
 31
0.0
  0
LINE
  5
8A16
330
1F
100
AcDbEntity
  8
AM_0
100
AcDbLine
 10
-35.69303010985231
 20
90.63461343245039
 30
0.0
 11
-2.232947031339975
 21
90.63461343245039
 31
0.0
  0
LINE
  5
8A18
330
1F
100
AcDbEntity
  8
AM_0
100
AcDbLine
 10
-38.00836431693778
 20
90.68179443245039
 30
0.0
 11
-35.69303010985231
 21
90.68179443245039
 31
0.0
  0
SPLINE
  5
8A19
330
1F
100
AcDbEntity
  8
AM_0
100
AcDbSpline
210
0.0
220
0.0
230
1.0
 70
    24
 71
     1
 72
     4
 73
     2
 74
     0
 42
0.0000000001
 43
0.0000000001
 40
3.007409737142223
 40
3.007409737142223
 40
3.029654778884308
 40
3.029654778884308
 10
53.68294767871532
 20
-15.50119745161862
 30
0.0
 10
53.75201513320042
 20
-15.43722596099337
 30
0.0
  0
SPLINE
  5
8A1A
330
1F
100
AcDbEntity
  8
AM_0
100
AcDbSpline
210
0.0
220
0.0
230
1.0
 70
    24
 71
     1
 72
     4
 73
     2
 74
     0
 42
0.0000000001
 43
0.0000000001
 40
2.985164695400138
 40
2.985164695400138
 40
3.007409737142223
 40
3.007409737142223
 10
53.6276008887088
 20
-15.56100816564764
 30
0.0
 10
53.68294767871532
 20
-15.50119745161862
 30
0.0
  0
SPLINE
  5
8A1B
330
1F
100
AcDbEntity
  8
AM_0
100
AcDbSpline
210
0.0
220
0.0
230
1.0
 70
    24
 71
     1
 72
     4
 73
     2
 74
     0
 42
0.0000000001
 43
0.0000000001
 40
2.962919653658054
 40
2.962919653658054
 40
2.985164695400138
 40
2.985164695400138
 10
53.58255840250933
 20
-15.61648532210085
 30
0.0
 10
53.6276008887088
 20
-15.56100816564764
 30
0.0
  0
SPLINE
  5
8A1C
330
1F
100
AcDbEntity
  8
AM_0
100
AcDbSpline
210
0.0
220
0.0
230
1.0
 70
    24
 71
     1
 72
     4
 73
     2
 74
     0
 42
0.0000000001
 43
0.0000000001
 40
2.940674611915969
 40
2.940674611915969
 40
2.962919653658054
 40
2.962919653658054
 10
53.54523256419486
 20
-15.66797539583126
 30
0.0
 10
53.58255840250933
 20
-15.61648532210085
 30
0.0
  0
SPLINE
  5
8A1D
330
1F
100
AcDbEntity
  8
AM_0
100
AcDbSpline
210
0.0
220
0.0
230
1.0
 70
    24
 71
     1
 72
     4
 73
     2
 74
     0
 42
0.0000000001
 43
0.0000000001
 40
2.918429570173884
 40
2.918429570173884
 40
2.940674611915969
 40
2.940674611915969
 10
53.51371118093982
 20
-15.71602398166919
 30
0.0
 10
53.54523256419486
 20
-15.66797539583126
 30
0.0
  0
SPLINE
  5
8A1E
330
1F
100
AcDbEntity
  8
AM_0
100
AcDbSpline
210
0.0
220
0.0
230
1.0
 70
    24
 71
     1
 72
     4
 73
     2
 74
     0
 42
0.0000000001
 43
0.0000000001
 40
2.881354500603743
 40
2.881354500603743
 40
2.918429570173884
 40
2.918429570173884
 10
53.4704384835079
 20
-15.79002915066945
 30
0.0
 10
53.51371118093982
 20
-15.71602398166919
 30
0.0
  0
SPLINE
  5
8A1F
330
1F
100
AcDbEntity
  8
AM_0
100
AcDbSpline
210
0.0
220
0.0
230
1.0
 70
    24
 71
     1
 72
     4
 73
     2
 74
     0
 42
0.0000000001
 43
0.0000000001
 40
2.844279431033602
 40
2.844279431033602
 40
2.881354500603743
 40
2.881354500603743
 10
53.4351476653203
 20
-15.85852167359218
 30
0.0
 10
53.4704384835079
 20
-15.79002915066945
 30
0.0
  0
SPLINE
  5
8A20
330
1F
100
AcDbEntity
  8
AM_0
100
AcDbSpline
210
0.0
220
0.0
230
1.0
 70
    24
 71
     1
 72
     4
 73
     2
 74
     0
 42
0.0000000001
 43
0.0000000001
 40
2.807204361463461
 40
2.807204361463461
 40
2.844279431033602
 40
2.844279431033602
 10
53.40516086654213
 20
-15.92345191611889
 30
0.0
 10
53.4351476653203
 20
-15.85852167359218
 30
0.0
  0
SPLINE
  5
8A21
330
1F
100
AcDbEntity
  8
AM_0
100
AcDbSpline
210
0.0
220
0.0
230
1.0
 70
    24
 71
     1
 72
     4
 73
     2
 74
     0
 42
0.0000000001
 43
0.0000000001
 40
2.762714277979291
 40
2.762714277979291
 40
2.807204361463461
 40
2.807204361463461
 10
53.37386714742672
 20
-15.99872011696413
 30
0.0
 10
53.40516086654213
 20
-15.92345191611889
 30
0.0
  0
SPLINE
  5
8A22
330
1F
100
AcDbEntity
  8
AM_0
100
AcDbSpline
210
0.0
220
0.0
230
1.0
 70
    24
 71
     1
 72
     4
 73
     2
 74
     0
 42
0.0000000001
 43
0.0000000001
 40
2.718224194495122
 40
2.718224194495122
 40
2.762714277979291
 40
2.762714277979291
 10
53.3460318695171
 20
-16.0728231476113
 30
0.0
 10
53.37386714742672
 20
-15.99872011696413
 30
0.0
  0
SPLINE
  5
8A23
330
1F
100
AcDbEntity
  8
AM_0
100
AcDbSpline
210
0.0
220
0.0
230
1.0
 70
    24
 71
     1
 72
     4
 73
     2
 74
     0
 42
0.0000000001
 43
0.0000000001
 40
2.673734111010952
 40
2.673734111010952
 40
2.718224194495122
 40
2.718224194495122
 10
53.3205571746247
 20
-16.1470565283048
 30
0.0
 10
53.3460318695171
 20
-16.0728231476113
 30
0.0
  0
SPLINE
  5
8A24
330
1F
100
AcDbEntity
  8
AM_0
100
AcDbSpline
210
0.0
220
0.0
230
1.0
 70
    24
 71
     1
 72
     4
 73
     2
 74
     0
 42
0.0000000001
 43
0.0000000001
 40
2.629244027526783
 40
2.629244027526783
 40
2.673734111010952
 40
2.673734111010952
 10
53.29675165966012
 20
-16.22232496429939
 30
0.0
 10
53.3205571746247
 20
-16.1470565283048
 30
0.0
  0
SPLINE
  5
8A25
330
1F
100
AcDbEntity
  8
AM_0
100
AcDbSpline
210
0.0
220
0.0
230
1.0
 70
    24
 71
     1
 72
     4
 73
     2
 74
     0
 42
0.0000000001
 43
0.0000000001
 40
2.584753944042613
 40
2.584753944042613
 40
2.629244027526783
 40
2.629244027526783
 10
53.2741683811929
 20
-16.29925935198696
 30
0.0
 10
53.29675165966012
 20
-16.22232496429939
 30
0.0
  0
SPLINE
  5
8A26
330
1F
100
AcDbEntity
  8
AM_0
100
AcDbSpline
210
0.0
220
0.0
230
1.0
 70
    24
 71
     1
 72
     4
 73
     2
 74
     0
 42
0.0000000001
 43
0.0000000001
 40
2.539783307563124
 40
2.539783307563124
 40
2.584753944042613
 40
2.584753944042613
 10
53.25228314396724
 20
-16.3791624183209
 30
0.0
 10
53.2741683811929
 20
-16.29925935198696
 30
0.0
  0
SPLINE
  5
8A27
330
1F
100
AcDbEntity
  8
AM_0
100
AcDbSpline
210
0.0
220
0.0
230
1.0
 70
    24
 71
     1
 72
     4
 73
     2
 74
     0
 42
0.0000000001
 43
0.0000000001
 40
2.494812671083634
 40
2.494812671083634
 40
2.539783307563124
 40
2.539783307563124
 10
53.23114333235389
 20
-16.46151791429696
 30
0.0
 10
53.25228314396724
 20
-16.3791624183209
 30
0.0
  0
SPLINE
  5
8A28
330
1F
100
AcDbEntity
  8
AM_0
100
AcDbSpline
210
0.0
220
0.0
230
1.0
 70
    24
 71
     1
 72
     4
 73
     2
 74
     0
 42
0.0000000001
 43
0.0000000001
 40
2.449842034604144
 40
2.449842034604144
 40
2.494812671083634
 40
2.494812671083634
 10
53.21061391765318
 20
-16.54652240296042
 30
0.0
 10
53.23114333235389
 20
-16.46151791429696
 30
0.0
  0
SPLINE
  5
8A29
330
1F
100
AcDbEntity
  8
AM_0
100
AcDbSpline
210
0.0
220
0.0
230
1.0
 70
    24
 71
     1
 72
     4
 73
     2
 74
     0
 42
0.0000000001
 43
0.0000000001
 40
2.404871398124654
 40
2.404871398124654
 40
2.449842034604144
 40
2.449842034604144
 10
53.19060555073145
 20
-16.6342912383489
 30
0.0
 10
53.21061391765318
 20
-16.54652240296042
 30
0.0
  0
SPLINE
  5
8A2A
330
1F
100
AcDbEntity
  8
AM_0
100
AcDbSpline
210
0.0
220
0.0
230
1.0
 70
    24
 71
     1
 72
     4
 73
     2
 74
     0
 42
0.0000000001
 43
0.0000000001
 40
2.359900761645164
 40
2.359900761645164
 40
2.404871398124654
 40
2.404871398124654
 10
53.17106046871311
 20
-16.72487756772091
 30
0.0
 10
53.19060555073145
 20
-16.6342912383489
 30
0.0
  0
SPLINE
  5
8A2B
330
1F
100
AcDbEntity
  8
AM_0
100
AcDbSpline
210
0.0
220
0.0
230
1.0
 70
    24
 71
     1
 72
     4
 73
     2
 74
     0
 42
0.0000000001
 43
0.0000000001
 40
2.314930125165674
 40
2.314930125165674
 40
2.359900761645164
 40
2.359900761645164
 10
53.15194317111593
 20
-16.8182859744229
 30
0.0
 10
53.17106046871311
 20
-16.72487756772091
 30
0.0
  0
SPLINE
  5
8A2C
330
1F
100
AcDbEntity
  8
AM_0
100
AcDbSpline
210
0.0
220
0.0
230
1.0
 70
    24
 71
     1
 72
     4
 73
     2
 74
     0
 42
0.0000000001
 43
0.0000000001
 40
2.269959488686184
 40
2.269959488686184
 40
2.314930125165674
 40
2.314930125165674
 10
53.13323410233795
 20
-16.91448245098456
 30
0.0
 10
53.15194317111593
 20
-16.8182859744229
 30
0.0
  0
SPLINE
  5
8A2D
330
1F
100
AcDbEntity
  8
AM_0
100
AcDbSpline
210
0.0
220
0.0
230
1.0
 70
    24
 71
     1
 72
     4
 73
     2
 74
     0
 42
0.0000000001
 43
0.0000000001
 40
2.224988852206695
 40
2.224988852206695
 40
2.269959488686184
 40
2.269959488686184
 10
53.11492527609414
 20
-17.01340182286094
 30
0.0
 10
53.13323410233795
 20
-16.91448245098456
 30
0.0
  0
SPLINE
  5
8A2E
330
1F
100
AcDbEntity
  8
AM_0
100
AcDbSpline
210
0.0
220
0.0
230
1.0
 70
    24
 71
     1
 72
     4
 73
     2
 74
     0
 42
0.0000000001
 43
0.0000000001
 40
2.182669960675987
 40
2.182669960675987
 40
2.224988852206695
 40
2.224988852206695
 10
53.09806193929716
 20
-17.10889416256964
 30
0.0
 10
53.11492527609414
 20
-17.01340182286094
 30
0.0
  0
SPLINE
  5
8A2F
330
1F
100
AcDbEntity
  8
AM_0
100
AcDbSpline
210
0.0
220
0.0
230
1.0
 70
    24
 71
     1
 72
     4
 73
     2
 74
     0
 42
0.0000000001
 43
0.0000000001
 40
2.14035106914528
 40
2.14035106914528
 40
2.182669960675987
 40
2.182669960675987
 10
53.08155891976946
 20
-17.20662477539207
 30
0.0
 10
53.09806193929716
 20
-17.10889416256964
 30
0.0
  0
SPLINE
  5
8A30
330
1F
100
AcDbEntity
  8
AM_0
100
AcDbSpline
210
0.0
220
0.0
230
1.0
 70
    24
 71
     1
 72
     4
 73
     2
 74
     0
 42
0.0000000001
 43
0.0000000001
 40
2.098032177614572
 40
2.098032177614572
 40
2.14035106914528
 40
2.14035106914528
 10
53.06542539793361
 20
-17.30648677177987
 30
0.0
 10
53.08155891976946
 20
-17.20662477539207
 30
0.0
  0
SPLINE
  5
8A31
330
1F
100
AcDbEntity
  8
AM_0
100
AcDbSpline
210
0.0
220
0.0
230
1.0
 70
    24
 71
     1
 72
     4
 73
     2
 74
     0
 42
0.0000000001
 43
0.0000000001
 40
2.055713286083864
 40
2.055713286083864
 40
2.098032177614572
 40
2.098032177614572
 10
53.04967331152602
 20
-17.40836125071246
 30
0.0
 10
53.06542539793361
 20
-17.30648677177987
 30
0.0
  0
SPLINE
  5
8A32
330
1F
100
AcDbEntity
  8
AM_0
100
AcDbSpline
210
0.0
220
0.0
230
1.0
 70
    24
 71
     1
 72
     4
 73
     2
 74
     0
 42
0.0000000001
 43
0.0000000001
 40
2.013394394553157
 40
2.013394394553157
 40
2.055713286083864
 40
2.055713286083864
 10
53.03431664764605
 20
-17.51211899956376
 30
0.0
 10
53.04967331152602
 20
-17.40836125071246
 30
0.0
  0
SPLINE
  5
8A33
330
1F
100
AcDbEntity
  8
AM_0
100
AcDbSpline
210
0.0
220
0.0
230
1.0
 70
    24
 71
     1
 72
     4
 73
     2
 74
     0
 42
0.0000000001
 43
0.0000000001
 40
1.97107550302245
 40
1.97107550302245
 40
2.013394394553157
 40
2.013394394553157
 10
53.0193708907235
 20
-17.61762192232191
 30
0.0
 10
53.03431664764605
 20
-17.51211899956376
 30
0.0
  0
SPLINE
  5
8A34
330
1F
100
AcDbEntity
  8
AM_0
100
AcDbSpline
210
0.0
220
0.0
230
1.0
 70
    24
 71
     1
 72
     4
 73
     2
 74
     0
 42
0.0000000001
 43
0.0000000001
 40
1.928756611491742
 40
1.928756611491742
 40
1.97107550302245
 40
1.97107550302245
 10
53.0048525864795
 20
-17.72472426064973
 30
0.0
 10
53.0193708907235
 20
-17.61762192232191
 30
0.0
  0
SPLINE
  5
8A35
330
1F
100
AcDbEntity
  8
AM_0
100
AcDbSpline
210
0.0
220
0.0
230
1.0
 70
    24
 71
     1
 72
     4
 73
     2
 74
     0
 42
0.0000000001
 43
0.0000000001
 40
1.886437719961035
 40
1.886437719961035
 40
1.928756611491742
 40
1.928756611491742
 10
52.99077899329359
 20
-17.83327365606965
 30
0.0
 10
53.0048525864795
 20
-17.72472426064973
 30
0.0
  0
SPLINE
  5
8A36
330
1F
100
AcDbEntity
  8
AM_0
100
AcDbSpline
210
0.0
220
0.0
230
1.0
 70
    24
 71
     1
 72
     4
 73
     2
 74
     0
 42
0.0000000001
 43
0.0000000001
 40
1.844584934343819
 40
1.844584934343819
 40
1.886437719961035
 40
1.886437719961035
 10
52.97731513283179
 20
-17.9418958780393
 30
0.0
 10
52.99077899329359
 20
-17.83327365606965
 30
0.0
  0
SPLINE
  5
8A37
330
1F
100
AcDbEntity
  8
AM_0
100
AcDbSpline
210
0.0
220
0.0
230
1.0
 70
    24
 71
     1
 72
     4
 73
     2
 74
     0
 42
0.0000000001
 43
0.0000000001
 40
1.802732148726603
 40
1.802732148726603
 40
1.844584934343819
 40
1.844584934343819
 10
52.96432084728428
 20
-18.05162141723803
 30
0.0
 10
52.97731513283179
 20
-17.9418958780393
 30
0.0
  0
SPLINE
  5
8A38
330
1F
100
AcDbEntity
  8
AM_0
100
AcDbSpline
210
0.0
220
0.0
230
1.0
 70
    24
 71
     1
 72
     4
 73
     2
 74
     0
 42
0.0000000001
 43
0.0000000001
 40
1.760879363109387
 40
1.760879363109387
 40
1.802732148726603
 40
1.802732148726603
 10
52.95181345329877
 20
-18.16228890824538
 30
0.0
 10
52.96432084728428
 20
-18.05162141723803
 30
0.0
  0
SPLINE
  5
8A39
330
1F
100
AcDbEntity
  8
AM_0
100
AcDbSpline
210
0.0
220
0.0
230
1.0
 70
    24
 71
     1
 72
     4
 73
     2
 74
     0
 42
0.0000000001
 43
0.0000000001
 40
1.719026577492172
 40
1.719026577492172
 40
1.760879363109387
 40
1.760879363109387
 10
52.93981012968163
 20
-18.27373378993735
 30
0.0
 10
52.95181345329877
 20
-18.16228890824538
 30
0.0
  0
SPLINE
  5
8A3A
330
1F
100
AcDbEntity
  8
AM_0
100
AcDbSpline
210
0.0
220
0.0
230
1.0
 70
    24
 71
     1
 72
     4
 73
     2
 74
     0
 42
0.0000000001
 43
0.0000000001
 40
1.677173791874956
 40
1.677173791874956
 40
1.719026577492172
 40
1.719026577492172
 10
52.92832779226069
 20
-18.38578894464677
 30
0.0
 10
52.93981012968163
 20
-18.27373378993735
 30
0.0
  0
SPLINE
  5
8A3B
330
1F
100
AcDbEntity
  8
AM_0
100
AcDbSpline
210
0.0
220
0.0
230
1.0
 70
    24
 71
     1
 72
     4
 73
     2
 74
     0
 42
0.0000000001
 43
0.0000000001
 40
1.63532100625774
 40
1.63532100625774
 40
1.677173791874956
 40
1.677173791874956
 10
52.91738298898258
 20
-18.49828530777142
 30
0.0
 10
52.92832779226069
 20
-18.38578894464677
 30
0.0
  0
SPLINE
  5
8A3C
330
1F
100
AcDbEntity
  8
AM_0
100
AcDbSpline
210
0.0
220
0.0
230
1.0
 70
    24
 71
     1
 72
     4
 73
     2
 74
     0
 42
0.0000000001
 43
0.0000000001
 40
1.593468220640525
 40
1.593468220640525
 40
1.63532100625774
 40
1.63532100625774
 10
52.90699181211187
 20
-18.61105245638919
 30
0.0
 10
52.91738298898258
 20
-18.49828530777142
 30
0.0
  0
SPLINE
  5
8A3D
330
1F
100
AcDbEntity
  8
AM_0
100
AcDbSpline
210
0.0
220
0.0
230
1.0
 70
    24
 71
     1
 72
     4
 73
     2
 74
     0
 42
0.0000000001
 43
0.0000000001
 40
1.551615435023309
 40
1.551615435023309
 40
1.593468220640525
 40
1.593468220640525
 10
52.89716982526591
 20
-18.72391918427308
 30
0.0
 10
52.90699181211187
 20
-18.61105245638919
 30
0.0
  0
SPLINE
  5
8A3E
330
1F
100
AcDbEntity
  8
AM_0
100
AcDbSpline
210
0.0
220
0.0
230
1.0
 70
    24
 71
     1
 72
     4
 73
     2
 74
     0
 42
0.0000000001
 43
0.0000000001
 40
1.509036996564686
 40
1.509036996564686
 40
1.551615435023309
 40
1.551615435023309
 10
52.88777707433462
 20
-18.83866808342872
 30
0.0
 10
52.89716982526591
 20
-18.72391918427308
 30
0.0
  0
SPLINE
  5
8A3F
330
1F
100
AcDbEntity
  8
AM_0
100
AcDbSpline
210
0.0
220
0.0
230
1.0
 70
    24
 71
     1
 72
     4
 73
     2
 74
     0
 42
0.0000000001
 43
0.0000000001
 40
1.466458558106064
 40
1.466458558106064
 40
1.509036996564686
 40
1.509036996564686
 10
52.87900401145475
 20
-18.95316251443239
 30
0.0
 10
52.88777707433462
 20
-18.83866808342872
 30
0.0
  0
SPLINE
  5
8A40
330
1F
100
AcDbEntity
  8
AM_0
100
AcDbSpline
210
0.0
220
0.0
230
1.0
 70
    24
 71
     1
 72
     4
 73
     2
 74
     0
 42
0.0000000001
 43
0.0000000001
 40
1.423880119647441
 40
1.423880119647441
 40
1.466458558106064
 40
1.466458558106064
 10
52.87086500942973
 20
-19.06722336473723
 30
0.0
 10
52.87900401145475
 20
-18.95316251443239
 30
0.0
  0
SPLINE
  5
8A41
330
1F
100
AcDbEntity
  8
AM_0
100
AcDbSpline
210
0.0
220
0.0
230
1.0
 70
    24
 71
     1
 72
     4
 73
     2
 74
     0
 42
0.0000000001
 43
0.0000000001
 40
1.381301681188819
 40
1.381301681188819
 40
1.423880119647441
 40
1.423880119647441
 10
52.86337369625335
 20
-19.18067316129258
 30
0.0
 10
52.87086500942973
 20
-19.06722336473723
 30
0.0
  0
SPLINE
  5
8A42
330
1F
100
AcDbEntity
  8
AM_0
100
AcDbSpline
210
0.0
220
0.0
230
1.0
 70
    24
 71
     1
 72
     4
 73
     2
 74
     0
 42
0.0000000001
 43
0.0000000001
 40
1.338723242730196
 40
1.338723242730196
 40
1.381301681188819
 40
1.381301681188819
 10
52.85654294374513
 20
-19.29333672993379
 30
0.0
 10
52.86337369625335
 20
-19.18067316129258
 30
0.0
  0
SPLINE
  5
8A43
330
1F
100
AcDbEntity
  8
AM_0
100
AcDbSpline
210
0.0
220
0.0
230
1.0
 70
    24
 71
     1
 72
     4
 73
     2
 74
     0
 42
0.0000000001
 43
0.0000000001
 40
1.296144804271573
 40
1.296144804271573
 40
1.338723242730196
 40
1.338723242730196
 10
52.85038487153508
 20
-19.40504188557793
 30
0.0
 10
52.85654294374513
 20
-19.29333672993379
 30
0.0
  0
SPLINE
  5
8A44
330
1F
100
AcDbEntity
  8
AM_0
100
AcDbSpline
210
0.0
220
0.0
230
1.0
 70
    24
 71
     1
 72
     4
 73
     2
 74
     0
 42
0.0000000001
 43
0.0000000001
 40
1.253566365812951
 40
1.253566365812951
 40
1.296144804271573
 40
1.296144804271573
 10
52.84491086861044
 20
-19.51562016429079
 30
0.0
 10
52.85038487153508
 20
-19.40504188557793
 30
0.0
  0
SPLINE
  5
8A45
330
1F
100
AcDbEntity
  8
AM_0
100
AcDbSpline
210
0.0
220
0.0
230
1.0
 70
    24
 71
     1
 72
     4
 73
     2
 74
     0
 42
0.0000000001
 43
0.0000000001
 40
1.210987927354328
 40
1.210987927354328
 40
1.253566365812951
 40
1.253566365812951
 10
52.84013163566931
 20
-19.62490761077788
 30
0.0
 10
52.84491086861044
 20
-19.51562016429079
 30
0.0
  0
SPLINE
  5
8A46
330
1F
100
AcDbEntity
  8
AM_0
100
AcDbSpline
210
0.0
220
0.0
230
1.0
 70
    24
 71
     1
 72
     4
 73
     2
 74
     0
 42
0.0000000001
 43
0.0000000001
 40
1.169161829895353
 40
1.169161829895353
 40
1.210987927354328
 40
1.210987927354328
 10
52.83612307269504
 20
-19.7308536533186
 30
0.0
 10
52.84013163566931
 20
-19.62490761077788
 30
0.0
  0
SPLINE
  5
8A47
330
1F
100
AcDbEntity
  8
AM_0
100
AcDbSpline
210
0.0
220
0.0
230
1.0
 70
    24
 71
     1
 72
     4
 73
     2
 74
     0
 42
0.0000000001
 43
0.0000000001
 40
1.127335732436379
 40
1.127335732436379
 40
1.169161829895353
 40
1.169161829895353
 10
52.8328037374198
 20
-19.83525663122276
 30
0.0
 10
52.83612307269504
 20
-19.7308536533186
 30
0.0
  0
SPLINE
  5
8A48
330
1F
100
AcDbEntity
  8
AM_0
100
AcDbSpline
210
0.0
220
0.0
230
1.0
 70
    24
 71
     1
 72
     4
 73
     2
 74
     0
 42
0.0000000001
 43
0.0000000001
 40
1.085509634977404
 40
1.085509634977404
 40
1.127335732436379
 40
1.127335732436379
 10
52.83018233737164
 20
-19.93797901742039
 30
0.0
 10
52.8328037374198
 20
-19.83525663122276
 30
0.0
  0
SPLINE
  5
8A49
330
1F
100
AcDbEntity
  8
AM_0
100
AcDbSpline
210
0.0
220
0.0
230
1.0
 70
    24
 71
     1
 72
     4
 73
     2
 74
     0
 42
0.0000000001
 43
0.0000000001
 40
1.04368353751843
 40
1.04368353751843
 40
1.085509634977404
 40
1.085509634977404
 10
52.82826739863413
 20
-20.03889127864158
 30
0.0
 10
52.83018233737164
 20
-19.93797901742039
 30
0.0
  0
SPLINE
  5
8A4A
330
1F
100
AcDbEntity
  8
AM_0
100
AcDbSpline
210
0.0
220
0.0
230
1.0
 70
    24
 71
     1
 72
     4
 73
     2
 74
     0
 42
0.0000000001
 43
0.0000000001
 40
1.001857440059455
 40
1.001857440059455
 40
1.04368353751843
 40
1.04368353751843
 10
52.82706750475927
 20
-20.13787318381332
 30
0.0
 10
52.82826739863413
 20
-20.03889127864158
 30
0.0
  0
SPLINE
  5
8A4B
330
1F
100
AcDbEntity
  8
AM_0
100
AcDbSpline
210
0.0
220
0.0
230
1.0
 70
    24
 71
     1
 72
     4
 73
     2
 74
     0
 42
0.0000000001
 43
0.0000000001
 40
0.9600313426004813
 40
0.9600313426004813
 40
1.001857440059455
 40
1.001857440059455
 10
52.82659162058735
 20
-20.2348153527148
 30
0.0
 10
52.82706750475927
 20
-20.13787318381332
 30
0.0
  0
SPLINE
  5
8A4C
330
1F
100
AcDbEntity
  8
AM_0
100
AcDbSpline
210
0.0
220
0.0
230
1.0
 70
    24
 71
     1
 72
     4
 73
     2
 74
     0
 42
0.0000000001
 43
0.0000000001
 40
0.9182052451415067
 40
0.9182052451415067
 40
0.9600313426004813
 40
0.9600313426004813
 10
52.82684953197417
 20
-20.32962112054446
 30
0.0
 10
52.82659162058735
 20
-20.2348153527148
 30
0.0
  0
SPLINE
  5
8A4D
330
1F
100
AcDbEntity
  8
AM_0
100
AcDbSpline
210
0.0
220
0.0
230
1.0
 70
    24
 71
     1
 72
     4
 73
     2
 74
     0
 42
0.0000000001
 43
0.0000000001
 40
0.8763791476825323
 40
0.8763791476825323
 40
0.9182052451415067
 40
0.9182052451415067
 10
52.82785244613558
 20
-20.42220882119323
 30
0.0
 10
52.82684953197417
 20
-20.32962112054446
 30
0.0
  0
SPLINE
  5
8A4E
330
1F
100
AcDbEntity
  8
AM_0
100
AcDbSpline
210
0.0
220
0.0
230
1.0
 70
    24
 71
     1
 72
     4
 73
     2
 74
     0
 42
0.0000000001
 43
0.0000000001
 40
0.8345530502235579
 40
0.8345530502235579
 40
0.8763791476825323
 40
0.8763791476825323
 10
52.82961381797111
 20
-20.51251463047685
 30
0.0
 10
52.82785244613558
 20
-20.42220882119323
 30
0.0
  0
SPLINE
  5
8A4F
330
1F
100
AcDbEntity
  8
AM_0
100
AcDbSpline
210
0.0
220
0.0
230
1.0
 70
    24
 71
     1
 72
     4
 73
     2
 74
     0
 42
0.0000000001
 43
0.0000000001
 40
0.7810044358266154
 40
0.7810044358266154
 40
0.8345530502235579
 40
0.8345530502235579
 10
52.83300337324465
 20
-20.62473462600644
 30
0.0
 10
52.82961381797111
 20
-20.51251463047685
 30
0.0
  0
SPLINE
  5
8A50
330
1F
100
AcDbEntity
  8
AM_0
100
AcDbSpline
210
0.0
220
0.0
230
1.0
 70
    24
 71
     1
 72
     4
 73
     2
 74
     0
 42
0.0000000001
 43
0.0000000001
 40
0.7274558214296729
 40
0.7274558214296729
 40
0.7810044358266154
 40
0.7810044358266154
 10
52.83771227404486
 20
-20.7331226309542
 30
0.0
 10
52.83300337324465
 20
-20.62473462600644
 30
0.0
  0
SPLINE
  5
8A51
330
1F
100
AcDbEntity
  8
AM_0
100
AcDbSpline
210
0.0
220
0.0
230
1.0
 70
    24
 71
     1
 72
     4
 73
     2
 74
     0
 42
0.0000000001
 43
0.0000000001
 40
0.6739072070327304
 40
0.6739072070327304
 40
0.7274558214296729
 40
0.7274558214296729
 10
52.84381084455811
 20
-20.83774647332848
 30
0.0
 10
52.83771227404486
 20
-20.7331226309542
 30
0.0
  0
SPLINE
  5
8A52
330
1F
100
AcDbEntity
  8
AM_0
100
AcDbSpline
210
0.0
220
0.0
230
1.0
 70
    24
 71
     1
 72
     4
 73
     2
 74
     0
 42
0.0000000001
 43
0.0000000001
 40
0.620358592635788
 40
0.620358592635788
 40
0.6739072070327304
 40
0.6739072070327304
 10
52.85140550687732
 20
-20.93879822076246
 30
0.0
 10
52.84381084455811
 20
-20.83774647332848
 30
0.0
  0
SPLINE
  5
8A53
330
1F
100
AcDbEntity
  8
AM_0
100
AcDbSpline
210
0.0
220
0.0
230
1.0
 70
    24
 71
     1
 72
     4
 73
     2
 74
     0
 42
0.0000000001
 43
0.0000000001
 40
0.5668099782388455
 40
0.5668099782388455
 40
0.620358592635788
 40
0.620358592635788
 10
52.86066208555769
 20
-21.03664165724842
 30
0.0
 10
52.85140550687732
 20
-20.93879822076246
 30
0.0
  0
SPLINE
  5
8A54
330
1F
100
AcDbEntity
  8
AM_0
100
AcDbSpline
210
0.0
220
0.0
230
1.0
 70
    24
 71
     1
 72
     4
 73
     2
 74
     0
 42
0.0000000001
 43
0.0000000001
 40
0.5343715650115173
 40
0.5343715650115173
 40
0.5668099782388455
 40
0.5668099782388455
 10
52.86718404783892
 20
-21.09459609359362
 30
0.0
 10
52.86066208555769
 20
-21.03664165724842
 30
0.0
  0
SPLINE
  5
8A55
330
1F
100
AcDbEntity
  8
AM_0
100
AcDbSpline
210
0.0
220
0.0
230
1.0
 70
    24
 71
     1
 72
     4
 73
     2
 74
     0
 42
0.0000000001
 43
0.0000000001
 40
0.5019331517841894
 40
0.5019331517841894
 40
0.5343715650115173
 40
0.5343715650115173
 10
52.87449636094175
 20
-21.15178344073382
 30
0.0
 10
52.86718404783892
 20
-21.09459609359362
 30
0.0
  0
SPLINE
  5
8A56
330
1F
100
AcDbEntity
  8
AM_0
100
AcDbSpline
210
0.0
220
0.0
230
1.0
 70
    24
 71
     1
 72
     4
 73
     2
 74
     0
 42
0.0000000001
 43
0.0000000001
 40
0.4694947385568612
 40
0.4694947385568612
 40
0.5019331517841894
 40
0.5019331517841894
 10
52.88271708457796
 20
-21.20845820490262
 30
0.0
 10
52.87449636094175
 20
-21.15178344073382
 30
0.0
  0
SPLINE
  5
8A57
330
1F
100
AcDbEntity
  8
AM_0
100
AcDbSpline
210
0.0
220
0.0
230
1.0
 70
    24
 71
     1
 72
     4
 73
     2
 74
     0
 42
0.0000000001
 43
0.0000000001
 40
0.4370563253295332
 40
0.4370563253295332
 40
0.4694947385568612
 40
0.4694947385568612
 10
52.89201019667064
 20
-21.26495347930551
 30
0.0
 10
52.88271708457796
 20
-21.20845820490262
 30
0.0
  0
SPLINE
  5
8A58
330
1F
100
AcDbEntity
  8
AM_0
100
AcDbSpline
210
0.0
220
0.0
230
1.0
 70
    24
 71
     1
 72
     4
 73
     2
 74
     0
 42
0.0000000001
 43
0.0000000001
 40
0.4046179121022051
 40
0.4046179121022051
 40
0.4370563253295332
 40
0.4370563253295332
 10
52.90260697885492
 20
-21.3217052544403
 30
0.0
 10
52.89201019667064
 20
-21.26495347930551
 30
0.0
  0
SPLINE
  5
8A59
330
1F
100
AcDbEntity
  8
AM_0
100
AcDbSpline
210
0.0
220
0.0
230
1.0
 70
    24
 71
     1
 72
     4
 73
     2
 74
     0
 42
0.0000000001
 43
0.0000000001
 40
0.372179498874877
 40
0.372179498874877
 40
0.4046179121022051
 40
0.4046179121022051
 10
52.91483929312142
 20
-21.37928555427947
 30
0.0
 10
52.90260697885492
 20
-21.3217052544403
 30
0.0
  0
SPLINE
  5
8A5A
330
1F
100
AcDbEntity
  8
AM_0
100
AcDbSpline
210
0.0
220
0.0
230
1.0
 70
    24
 71
     1
 72
     4
 73
     2
 74
     0
 42
0.0000000001
 43
0.0000000001
 40
0.3397410856475489
 40
0.3397410856475489
 40
0.372179498874877
 40
0.372179498874877
 10
52.92919250776617
 20
-21.43844747871765
 30
0.0
 10
52.91483929312142
 20
-21.37928555427947
 30
0.0
  0
SPLINE
  5
8A5B
330
1F
100
AcDbEntity
  8
AM_0
100
AcDbSpline
210
0.0
220
0.0
230
1.0
 70
    24
 71
     1
 72
     4
 73
     2
 74
     0
 42
0.0000000001
 43
0.0000000001
 40
0.3073026724202208
 40
0.3073026724202208
 40
0.3397410856475489
 40
0.3397410856475489
 10
52.94639156758591
 20
-21.50018547118298
 30
0.0
 10
52.92919250776617
 20
-21.43844747871765
 30
0.0
  0
SPLINE
  5
8A5C
330
1F
100
AcDbEntity
  8
AM_0
100
AcDbSpline
210
0.0
220
0.0
230
1.0
 70
    24
 71
     1
 72
     4
 73
     2
 74
     0
 42
0.0000000001
 43
0.0000000001
 40
0.2898596198825364
 40
0.2898596198825364
 40
0.3073026724202208
 40
0.3073026724202208
 10
52.95718248603441
 20
-21.53489257140734
 30
0.0
 10
52.94639156758591
 20
-21.50018547118298
 30
0.0
  0
SPLINE
  5
8A5D
330
1F
100
AcDbEntity
  8
AM_0
100
AcDbSpline
210
0.0
220
0.0
230
1.0
 70
    24
 71
     1
 72
     4
 73
     2
 74
     0
 42
0.0000000001
 43
0.0000000001
 40
0.2724165673448521
 40
0.2724165673448521
 40
0.2898596198825364
 40
0.2898596198825364
 10
52.9693436624583
 20
-21.57096753544925
 30
0.0
 10
52.95718248603441
 20
-21.53489257140734
 30
0.0
  0
SPLINE
  5
8A5E
330
1F
100
AcDbEntity
  8
AM_0
100
AcDbSpline
210
0.0
220
0.0
230
1.0
 70
    24
 71
     1
 72
     4
 73
     2
 74
     0
 42
0.0000000001
 43
0.0000000001
 40
0.2549735148071677
 40
0.2549735148071677
 40
0.2724165673448521
 40
0.2724165673448521
 10
52.98317884292294
 20
-21.60869867024012
 30
0.0
 10
52.9693436624583
 20
-21.57096753544925
 30
0.0
  0
SPLINE
  5
8A5F
330
1F
100
AcDbEntity
  8
AM_0
100
AcDbSpline
210
0.0
220
0.0
230
1.0
 70
    24
 71
     1
 72
     4
 73
     2
 74
     0
 42
0.0000000001
 43
0.0000000001
 40
0.2375304622694833
 40
0.2375304622694833
 40
0.2549735148071677
 40
0.2549735148071677
 10
52.99907894296246
 20
-21.64841500743023
 30
0.0
 10
52.98317884292294
 20
-21.60869867024012
 30
0.0
  0
SPLINE
  5
8A60
330
1F
100
AcDbEntity
  8
AM_0
100
AcDbSpline
210
0.0
220
0.0
230
1.0
 70
    24
 71
     1
 72
     4
 73
     2
 74
     0
 42
0.0000000001
 43
0.0000000001
 40
0.220087409731799
 40
0.220087409731799
 40
0.2375304622694833
 40
0.2375304622694833
 10
53.01754979575219
 20
-21.69048628346757
 30
0.0
 10
52.99907894296246
 20
-21.64841500743023
 30
0.0
  0
SPLINE
  5
8A61
330
1F
100
AcDbEntity
  8
AM_0
100
AcDbSpline
210
0.0
220
0.0
230
1.0
 70
    24
 71
     1
 72
     4
 73
     2
 74
     0
 42
0.0000000001
 43
0.0000000001
 40
0.2026443571941145
 40
0.2026443571941145
 40
0.220087409731799
 40
0.220087409731799
 10
53.03924853816477
 20
-21.73531718363057
 30
0.0
 10
53.01754979575219
 20
-21.69048628346757
 30
0.0
  0
SPLINE
  5
8A62
330
1F
100
AcDbEntity
  8
AM_0
100
AcDbSpline
210
0.0
220
0.0
230
1.0
 70
    24
 71
     1
 72
     4
 73
     2
 74
     0
 42
0.0000000001
 43
0.0000000001
 40
0.1887828085686853
 40
0.1887828085686853
 40
0.2026443571941145
 40
0.2026443571941145
 10
53.05935356074257
 20
-21.77319216140023
 30
0.0
 10
53.03924853816477
 20
-21.73531718363057
 30
0.0
  0
SPLINE
  5
8A63
330
1F
100
AcDbEntity
  8
AM_0
100
AcDbSpline
210
0.0
220
0.0
230
1.0
 70
    24
 71
     1
 72
     4
 73
     2
 74
     0
 42
0.0000000001
 43
0.0000000001
 40
0.1749212599432559
 40
0.1749212599432559
 40
0.1887828085686853
 40
0.1887828085686853
 10
53.08257296908085
 20
-21.81328413331846
 30
0.0
 10
53.05935356074257
 20
-21.77319216140023
 30
0.0
  0
SPLINE
  5
8A64
330
1F
100
AcDbEntity
  8
AM_0
100
AcDbSpline
210
0.0
220
0.0
230
1.0
 70
    24
 71
     1
 72
     4
 73
     2
 74
     0
 42
0.0000000001
 43
0.0000000001
 40
0.1610597113178266
 40
0.1610597113178266
 40
0.1749212599432559
 40
0.1749212599432559
 10
53.10956942036239
 20
-21.85577335058746
 30
0.0
 10
53.08257296908085
 20
-21.81328413331846
 30
0.0
  0
SPLINE
  5
8A65
330
1F
100
AcDbEntity
  8
AM_0
100
AcDbSpline
210
0.0
220
0.0
230
1.0
 70
    24
 71
     1
 72
     4
 73
     2
 74
     0
 42
0.0000000001
 43
0.0000000001
 40
0.1471981626923973
 40
0.1471981626923973
 40
0.1610597113178266
 40
0.1610597113178266
 10
53.14114726389141
 20
-21.90078099360659
 30
0.0
 10
53.10956942036239
 20
-21.85577335058746
 30
0.0
  0
SPLINE
  5
8A66
330
1F
100
AcDbEntity
  8
AM_0
100
AcDbSpline
210
0.0
220
0.0
230
1.0
 70
    24
 71
     1
 72
     4
 73
     2
 74
     0
 42
0.0000000001
 43
0.0000000001
 40
0.133336614066968
 40
0.133336614066968
 40
0.1471981626923973
 40
0.1471981626923973
 10
53.17826743589797
 20
-21.94831966807027
 30
0.0
 10
53.14114726389141
 20
-21.90078099360659
 30
0.0
  0
SPLINE
  5
8A67
330
1F
100
AcDbEntity
  8
AM_0
100
AcDbSpline
210
0.0
220
0.0
230
1.0
 70
    24
 71
     1
 72
     4
 73
     2
 74
     0
 42
0.0000000001
 43
0.0000000001
 40
6.655816953177122
 40
6.655816953177122
 40
6.84479432806392
 40
6.84479432806392
 10
59.06662536805288
 20
-8.888573494173442
 30
0.0
 10
59.20735546515664
 20
-8.785447827928805
 30
0.0
  0
SPLINE
  5
8A68
330
1F
100
AcDbEntity
  8
AM_0
100
AcDbSpline
210
0.0
220
0.0
230
1.0
 70
    24
 71
     1
 72
     4
 73
     2
 74
     0
 42
0.0000000001
 43
0.0000000001
 40
6.466839578290326
 40
6.466839578290326
 40
6.655816953177122
 40
6.655816953177122
 10
58.92803977814799
 20
-8.991970275735809
 30
0.0
 10
59.06662536805288
 20
-8.888573494173442
 30
0.0
  0
SPLINE
  5
8A69
330
1F
100
AcDbEntity
  8
AM_0
100
AcDbSpline
210
0.0
220
0.0
230
1.0
 70
    24
 71
     1
 72
     4
 73
     2
 74
     0
 42
0.0000000001
 43
0.0000000001
 40
6.277862203403528
 40
6.277862203403528
 40
6.466839578290326
 40
6.466839578290326
 10
58.79170653343646
 20
-9.095556852330901
 30
0.0
 10
58.92803977814799
 20
-8.991970275735809
 30
0.0
  0
SPLINE
  5
8A6A
330
1F
100
AcDbEntity
  8
AM_0
100
AcDbSpline
210
0.0
220
0.0
230
1.0
 70
    24
 71
     1
 72
     4
 73
     2
 74
     0
 42
0.0000000001
 43
0.0000000001
 40
6.088884828516731
 40
6.088884828516731
 40
6.277862203403528
 40
6.277862203403528
 10
58.65773347191282
 20
-9.199251903673712
 30
0.0
 10
58.79170653343646
 20
-9.095556852330901
 30
0.0
  0
SPLINE
  5
8A6B
330
1F
100
AcDbEntity
  8
AM_0
100
AcDbSpline
210
0.0
220
0.0
230
1.0
 70
    24
 71
     1
 72
     4
 73
     2
 74
     0
 42
0.0000000001
 43
0.0000000001
 40
5.899907453629934
 40
5.899907453629934
 40
6.088884828516731
 40
6.088884828516731
 10
58.52622843157121
 20
-9.302974109479237
 30
0.0
 10
58.65773347191282
 20
-9.199251903673712
 30
0.0
  0
SPLINE
  5
8A6C
330
1F
100
AcDbEntity
  8
AM_0
100
AcDbSpline
210
0.0
220
0.0
230
1.0
 70
    24
 71
     1
 72
     4
 73
     2
 74
     0
 42
0.0000000001
 43
0.0000000001
 40
5.710930078743137
 40
5.710930078743137
 40
5.899907453629934
 40
5.899907453629934
 10
58.39729925040649
 20
-9.4066421494623
 30
0.0
 10
58.52622843157121
 20
-9.302974109479237
 30
0.0
  0
SPLINE
  5
8A6D
330
1F
100
AcDbEntity
  8
AM_0
100
AcDbSpline
210
0.0
220
0.0
230
1.0
 70
    24
 71
     1
 72
     4
 73
     2
 74
     0
 42
0.0000000001
 43
0.0000000001
 40
5.52195270385634
 40
5.52195270385634
 40
5.710930078743137
 40
5.710930078743137
 10
58.27105376641282
 20
-9.510174703337952
 30
0.0
 10
58.39729925040649
 20
-9.4066421494623
 30
0.0
  0
SPLINE
  5
8A6E
330
1F
100
AcDbEntity
  8
AM_0
100
AcDbSpline
210
0.0
220
0.0
230
1.0
 70
    24
 71
     1
 72
     4
 73
     2
 74
     0
 42
0.0000000001
 43
0.0000000001
 40
5.332975328969542
 40
5.332975328969542
 40
5.52195270385634
 40
5.52195270385634
 10
58.1475998175847
 20
-9.613490450821188
 30
0.0
 10
58.27105376641282
 20
-9.510174703337952
 30
0.0
  0
SPLINE
  5
8A6F
330
1F
100
AcDbEntity
  8
AM_0
100
AcDbSpline
210
0.0
220
0.0
230
1.0
 70
    24
 71
     1
 72
     4
 73
     2
 74
     0
 42
0.0000000001
 43
0.0000000001
 40
5.143997954082745
 40
5.143997954082745
 40
5.332975328969542
 40
5.332975328969542
 10
58.02704524191665
 20
-9.716508071626947
 30
0.0
 10
58.1475998175847
 20
-9.613490450821188
 30
0.0
  0
SPLINE
  5
8A70
330
1F
100
AcDbEntity
  8
AM_0
100
AcDbSpline
210
0.0
220
0.0
230
1.0
 70
    24
 71
     1
 72
     4
 73
     2
 74
     0
 42
0.0000000001
 43
0.0000000001
 40
4.940025242054563
 40
4.940025242054563
 40
5.143997954082745
 40
5.143997954082745
 10
57.90012416414947
 20
-9.827414003720718
 30
0.0
 10
58.02704524191665
 20
-9.716508071626947
 30
0.0
  0
SPLINE
  5
8A71
330
1F
100
AcDbEntity
  8
AM_0
100
AcDbSpline
210
0.0
220
0.0
230
1.0
 70
    24
 71
     1
 72
     4
 73
     2
 74
     0
 42
0.0000000001
 43
0.0000000001
 40
4.73605253002638
 40
4.73605253002638
 40
4.940025242054563
 40
4.940025242054563
 10
57.77644111840243
 20
-9.938083546941584
 30
0.0
 10
57.90012416414947
 20
-9.827414003720718
 30
0.0
  0
SPLINE
  5
8A72
330
1F
100
AcDbEntity
  8
AM_0
100
AcDbSpline
210
0.0
220
0.0
230
1.0
 70
    24
 71
     1
 72
     4
 73
     2
 74
     0
 42
0.0000000001
 43
0.0000000001
 40
4.532079817998198
 40
4.532079817998198
 40
4.73605253002638
 40
4.73605253002638
 10
57.65606522801988
 20
-10.04845005249364
 30
0.0
 10
57.77644111840243
 20
-9.938083546941584
 30
0.0
  0
SPLINE
  5
8A73
330
1F
100
AcDbEntity
  8
AM_0
100
AcDbSpline
210
0.0
220
0.0
230
1.0
 70
    24
 71
     1
 72
     4
 73
     2
 74
     0
 42
0.0000000001
 43
0.0000000001
 40
4.328107105970016
 40
4.328107105970016
 40
4.532079817998198
 40
4.532079817998198
 10
57.53906561634551
 20
-10.15844687158119
 30
0.0
 10
57.65606522801988
 20
-10.04845005249364
 30
0.0
  0
SPLINE
  5
8A74
330
1F
100
AcDbEntity
  8
AM_0
100
AcDbSpline
210
0.0
220
0.0
230
1.0
 70
    24
 71
     1
 72
     4
 73
     2
 74
     0
 42
0.0000000001
 43
0.0000000001
 40
4.124134393941834
 40
4.124134393941834
 40
4.328107105970016
 40
4.328107105970016
 10
57.42551140672356
 20
-10.26800735540831
 30
0.0
 10
57.53906561634551
 20
-10.15844687158119
 30
0.0
  0
SPLINE
  5
8A75
330
1F
100
AcDbEntity
  8
AM_0
100
AcDbSpline
210
0.0
220
0.0
230
1.0
 70
    24
 71
     1
 72
     4
 73
     2
 74
     0
 42
0.0000000001
 43
0.0000000001
 40
3.920161681913651
 40
3.920161681913651
 40
4.124134393941834
 40
4.124134393941834
 10
57.31547172249827
 20
-10.37706485517907
 30
0.0
 10
57.42551140672356
 20
-10.26800735540831
 30
0.0
  0
SPLINE
  5
8A76
330
1F
100
AcDbEntity
  8
AM_0
100
AcDbSpline
210
0.0
220
0.0
230
1.0
 70
    24
 71
     1
 72
     4
 73
     2
 74
     0
 42
0.0000000001
 43
0.0000000001
 40
3.716188969885469
 40
3.716188969885469
 40
3.920161681913651
 40
3.920161681913651
 10
57.20901568701345
 20
-10.48555272209767
 30
0.0
 10
57.31547172249827
 20
-10.37706485517907
 30
0.0
  0
SPLINE
  5
8A77
330
1F
100
AcDbEntity
  8
AM_0
100
AcDbSpline
210
0.0
220
0.0
230
1.0
 70
    24
 71
     1
 72
     4
 73
     2
 74
     0
 42
0.0000000001
 43
0.0000000001
 40
3.512216257857287
 40
3.512216257857287
 40
3.716188969885469
 40
3.716188969885469
 10
57.1062124236131
 20
-10.59340430736824
 30
0.0
 10
57.20901568701345
 20
-10.48555272209767
 30
0.0
  0
SPLINE
  5
8A78
330
1F
100
AcDbEntity
  8
AM_0
100
AcDbSpline
210
0.0
220
0.0
230
1.0
 70
    24
 71
     1
 72
     4
 73
     2
 74
     0
 42
0.0000000001
 43
0.0000000001
 40
3.278068507333468
 40
3.278068507333468
 40
3.512216257857287
 40
3.512216257857287
 10
56.99258028980182
 20
-10.71646689049305
 30
0.0
 10
57.1062124236131
 20
-10.59340430736824
 30
0.0
  0
SPLINE
  5
8A79
330
1F
100
AcDbEntity
  8
AM_0
100
AcDbSpline
210
0.0
220
0.0
230
1.0
 70
    24
 71
     1
 72
     4
 73
     2
 74
     0
 42
0.0000000001
 43
0.0000000001
 40
3.043920756809649
 40
3.043920756809649
 40
3.278068507333468
 40
3.278068507333468
 10
56.88348084438894
 20
-10.83885288118557
 30
0.0
 10
56.99258028980182
 20
-10.71646689049305
 30
0.0
  0
SPLINE
  5
8A7A
330
1F
100
AcDbEntity
  8
AM_0
100
AcDbSpline
210
0.0
220
0.0
230
1.0
 70
    24
 71
     1
 72
     4
 73
     2
 74
     0
 42
0.0000000001
 43
0.0000000001
 40
2.80977300628583
 40
2.80977300628583
 40
3.043920756809649
 40
3.043920756809649
 10
56.7789436974615
 20
-10.96060787685206
 30
0.0
 10
56.88348084438894
 20
-10.83885288118557
 30
0.0
  0
SPLINE
  5
8A7B
330
1F
100
AcDbEntity
  8
AM_0
100
AcDbSpline
210
0.0
220
0.0
230
1.0
 70
    24
 71
     1
 72
     4
 73
     2
 74
     0
 42
0.0000000001
 43
0.0000000001
 40
2.57562525576201
 40
2.57562525576201
 40
2.80977300628583
 40
2.80977300628583
 10
56.67899845910688
 20
-11.08177747489878
 30
0.0
 10
56.7789436974615
 20
-10.96060787685206
 30
0.0
  0
SPLINE
  5
8A7C
330
1F
100
AcDbEntity
  8
AM_0
100
AcDbSpline
210
0.0
220
0.0
230
1.0
 70
    24
 71
     1
 72
     4
 73
     2
 74
     0
 42
0.0000000001
 43
0.0000000001
 40
2.341477505238191
 40
2.341477505238191
 40
2.57562525576201
 40
2.57562525576201
 10
56.58367473941223
 20
-11.20240727273198
 30
0.0
 10
56.67899845910688
 20
-11.08177747489878
 30
0.0
  0
SPLINE
  5
8A7D
330
1F
100
AcDbEntity
  8
AM_0
100
AcDbSpline
210
0.0
220
0.0
230
1.0
 70
    24
 71
     1
 72
     4
 73
     2
 74
     0
 42
0.0000000001
 43
0.0000000001
 40
2.107329754714372
 40
2.107329754714372
 40
2.341477505238191
 40
2.341477505238191
 10
56.49300214846494
 20
-11.32254286775798
 30
0.0
 10
56.58367473941223
 20
-11.20240727273198
 30
0.0
  0
SPLINE
  5
8A7E
330
1F
100
AcDbEntity
  8
AM_0
100
AcDbSpline
210
0.0
220
0.0
230
1.0
 70
    24
 71
     1
 72
     4
 73
     2
 74
     0
 42
0.0000000001
 43
0.0000000001
 40
1.873182004190553
 40
1.873182004190553
 40
2.107329754714372
 40
2.107329754714372
 10
56.40701029635204
 20
-11.44222985738298
 30
0.0
 10
56.49300214846494
 20
-11.32254286775798
 30
0.0
  0
SPLINE
  5
8A7F
330
1F
100
AcDbEntity
  8
AM_0
100
AcDbSpline
210
0.0
220
0.0
230
1.0
 70
    24
 71
     1
 72
     4
 73
     2
 74
     0
 42
0.0000000001
 43
0.0000000001
 40
1.639034253666734
 40
1.639034253666734
 40
1.873182004190553
 40
1.873182004190553
 10
56.32572879316114
 20
-11.56151383901323
 30
0.0
 10
56.40701029635204
 20
-11.44222985738298
 30
0.0
  0
SPLINE
  5
8A80
330
1F
100
AcDbEntity
  8
AM_0
100
AcDbSpline
210
0.0
220
0.0
230
1.0
 70
    24
 71
     1
 72
     4
 73
     2
 74
     0
 42
0.0000000001
 43
0.0000000001
 40
1.404886503142915
 40
1.404886503142915
 40
1.639034253666734
 40
1.639034253666734
 10
56.24918724897918
 20
-11.68044041005498
 30
0.0
 10
56.32572879316114
 20
-11.56151383901323
 30
0.0
  0
SPLINE
  5
8A81
330
1F
100
AcDbEntity
  8
AM_0
100
AcDbSpline
210
0.0
220
0.0
230
1.0
 70
    24
 71
     1
 72
     4
 73
     2
 74
     0
 42
0.0000000001
 43
0.0000000001
 40
1.170738752619095
 40
1.170738752619095
 40
1.404886503142915
 40
1.404886503142915
 10
56.17741527389353
 20
-11.79905516791461
 30
0.0
 10
56.24918724897918
 20
-11.68044041005498
 30
0.0
  0
SPLINE
  5
8A82
330
1F
100
AcDbEntity
  8
AM_0
100
AcDbSpline
210
0.0
220
0.0
230
1.0
 70
    24
 71
     1
 72
     4
 73
     2
 74
     0
 42
0.0000000001
 43
0.0000000001
 40
0.9365910020952766
 40
0.9365910020952766
 40
1.170738752619095
 40
1.170738752619095
 10
56.11044247799134
 20
-11.91740370999821
 30
0.0
 10
56.17741527389353
 20
-11.79905516791461
 30
0.0
  0
SPLINE
  5
8A83
330
1F
100
AcDbEntity
  8
AM_0
100
AcDbSpline
210
0.0
220
0.0
230
1.0
 70
    24
 71
     1
 72
     4
 73
     2
 74
     0
 42
0.0000000001
 43
0.0000000001
 40
0.7024432515714576
 40
0.7024432515714576
 40
0.9365910020952766
 40
0.9365910020952766
 10
56.04829847136011
 20
-12.03553163371213
 30
0.0
 10
56.11044247799134
 20
-11.91740370999821
 30
0.0
  0
SPLINE
  5
8A84
330
1F
100
AcDbEntity
  8
AM_0
100
AcDbSpline
210
0.0
220
0.0
230
1.0
 70
    24
 71
     1
 72
     4
 73
     2
 74
     0
 42
0.0000000001
 43
0.0000000001
 40
0.4682955010476383
 40
0.4682955010476383
 40
0.7024432515714576
 40
0.7024432515714576
 10
55.99101286408688
 20
-12.15348453646259
 30
0.0
 10
56.04829847136011
 20
-12.03553163371213
 30
0.0
  0
SPLINE
  5
8A85
330
1F
100
AcDbEntity
  8
AM_0
100
AcDbSpline
210
0.0
220
0.0
230
1.0
 70
    24
 71
     1
 72
     4
 73
     2
 74
     0
 42
0.0000000001
 43
0.0000000001
 40
0.2341477505238191
 40
0.2341477505238191
 40
0.4682955010476383
 40
0.4682955010476383
 10
55.93861526625892
 20
-12.2713080156559
 30
0.0
 10
55.99101286408688
 20
-12.15348453646259
 30
0.0
  0
SPLINE
  5
8A86
330
1F
100
AcDbEntity
  8
AM_0
100
AcDbSpline
210
0.0
220
0.0
230
1.0
 70
    24
 71
     1
 72
     4
 73
     2
 74
     0
 42
0.0000000001
 43
0.0000000001
 40
0.0
 40
0.0
 40
0.2341477505238191
 40
0.2341477505238191
 10
55.8911352879636
 20
-12.38904766869825
 30
0.0
 10
55.93861526625892
 20
-12.2713080156559
 30
0.0
  0
SPLINE
  5
8A87
330
1F
100
AcDbEntity
  8
AM_0
100
AcDbSpline
210
0.0
220
0.0
230
1.0
 70
    24
 71
     1
 72
     4
 73
     2
 74
     0
 42
0.0000000001
 43
0.0000000001
 40
3.241266803856658
 40
3.241266803856658
 40
3.253530528295281
 40
3.253530528295281
 10
54.50333462025742
 20
-14.80004046189799
 30
0.0
 10
54.45680664432723
 20
-14.83755170281944
 30
0.0
  0
SPLINE
  5
8A88
330
1F
100
AcDbEntity
  8
AM_0
100
AcDbSpline
210
0.0
220
0.0
230
1.0
 70
    24
 71
     1
 72
     4
 73
     2
 74
     0
 42
0.0000000001
 43
0.0000000001
 40
3.229003079418036
 40
3.229003079418036
 40
3.241266803856658
 40
3.241266803856658
 10
54.55610796837425
 20
-14.76215325266184
 30
0.0
 10
54.50333462025742
 20
-14.80004046189799
 30
0.0
  0
SPLINE
  5
8A89
330
1F
100
AcDbEntity
  8
AM_0
100
AcDbSpline
210
0.0
220
0.0
230
1.0
 70
    24
 71
     1
 72
     4
 73
     2
 74
     0
 42
0.0000000001
 43
0.0000000001
 40
3.22082726312562
 40
3.22082726312562
 40
3.229003079418036
 40
3.229003079418036
 10
54.59515520933303
 20
-14.73700859375003
 30
0.0
 10
54.55610796837425
 20
-14.76215325266184
 30
0.0
  0
SPLINE
  5
8A8A
330
1F
100
AcDbEntity
  8
AM_0
100
AcDbSpline
210
0.0
220
0.0
230
1.0
 70
    24
 71
     1
 72
     4
 73
     2
 74
     0
 42
0.0000000001
 43
0.0000000001
 40
3.212651446833206
 40
3.212651446833206
 40
3.22082726312562
 40
3.22082726312562
 10
54.63755246369203
 20
-14.71226146787256
 30
0.0
 10
54.59515520933303
 20
-14.73700859375003
 30
0.0
  0
SPLINE
  5
8A8B
330
1F
100
AcDbEntity
  8
AM_0
100
AcDbSpline
210
0.0
220
0.0
230
1.0
 70
    24
 71
     1
 72
     4
 73
     2
 74
     0
 42
0.0000000001
 43
0.0000000001
 40
3.20447563054079
 40
3.20447563054079
 40
3.212651446833206
 40
3.212651446833206
 10
54.68348595545752
 20
-14.68824528334676
 30
0.0
 10
54.63755246369203
 20
-14.71226146787256
 30
0.0
  0
SPLINE
  5
8A8C
330
1F
100
AcDbEntity
  8
AM_0
100
AcDbSpline
210
0.0
220
0.0
230
1.0
 70
    24
 71
     1
 72
     4
 73
     2
 74
     0
 42
0.0000000001
 43
0.0000000001
 40
3.196299814248375
 40
3.196299814248375
 40
3.20447563054079
 40
3.20447563054079
 10
54.73308908386127
 20
-14.66535889984601
 30
0.0
 10
54.68348595545752
 20
-14.68824528334676
 30
0.0
  0
SPLINE
  5
8A8D
330
1F
100
AcDbEntity
  8
AM_0
100
AcDbSpline
210
0.0
220
0.0
230
1.0
 70
    24
 71
     1
 72
     4
 73
     2
 74
     0
 42
0.0000000001
 43
0.0000000001
 40
3.188123997955959
 40
3.188123997955959
 40
3.196299814248375
 40
3.196299814248375
 10
54.78641888102163
 20
-14.64406385719405
 30
0.0
 10
54.73308908386127
 20
-14.66535889984601
 30
0.0
  0
SPLINE
  5
8A8E
330
1F
100
AcDbEntity
  8
AM_0
100
AcDbSpline
210
0.0
220
0.0
230
1.0
 70
    24
 71
     1
 72
     4
 73
     2
 74
     0
 42
0.0000000001
 43
0.0000000001
 40
3.179948181663544
 40
3.179948181663544
 40
3.188123997955959
 40
3.188123997955959
 10
54.8434305998386
 20
-14.62487455805825
 30
0.0
 10
54.78641888102163
 20
-14.64406385719405
 30
0.0
  0
SPLINE
  5
8A8F
330
1F
100
AcDbEntity
  8
AM_0
100
AcDbSpline
210
0.0
220
0.0
230
1.0
 70
    24
 71
     1
 72
     4
 73
     2
 74
     0
 42
0.0000000001
 43
0.0000000001
 40
3.171772365371128
 40
3.171772365371128
 40
3.179948181663544
 40
3.179948181663544
 10
54.90395315499211
 20
-14.60833970191993
 30
0.0
 10
54.8434305998386
 20
-14.62487455805825
 30
0.0
  0
SPLINE
  5
8A90
330
1F
100
AcDbEntity
  8
AM_0
100
AcDbSpline
210
0.0
220
0.0
230
1.0
 70
    24
 71
     1
 72
     4
 73
     2
 74
     0
 42
0.0000000001
 43
0.0000000001
 40
3.163596549078713
 40
3.163596549078713
 40
3.171772365371128
 40
3.171772365371128
 10
54.96766932012917
 20
-14.59501419822498
 30
0.0
 10
54.90395315499211
 20
-14.60833970191993
 30
0.0
  0
SPLINE
  5
8A91
330
1F
100
AcDbEntity
  8
AM_0
100
AcDbSpline
210
0.0
220
0.0
230
1.0
 70
    24
 71
     1
 72
     4
 73
     2
 74
     0
 42
0.0000000001
 43
0.0000000001
 40
3.155420732786298
 40
3.155420732786298
 40
3.163596549078713
 40
3.163596549078713
 10
55.03410535513637
 20
-14.58542243643535
 30
0.0
 10
54.96766932012917
 20
-14.59501419822498
 30
0.0
  0
SPLINE
  5
8A92
330
1F
100
AcDbEntity
  8
AM_0
100
AcDbSpline
210
0.0
220
0.0
230
1.0
 70
    24
 71
     1
 72
     4
 73
     2
 74
     0
 42
0.0000000001
 43
0.0000000001
 40
3.147244916493883
 40
3.147244916493883
 40
3.155420732786298
 40
3.155420732786298
 10
55.10263459137729
 20
-14.58001599339854
 30
0.0
 10
55.03410535513637
 20
-14.58542243643535
 30
0.0
  0
SPLINE
  5
8A93
330
1F
100
AcDbEntity
  8
AM_0
100
AcDbSpline
210
0.0
220
0.0
230
1.0
 70
    24
 71
     1
 72
     4
 73
     2
 74
     0
 42
0.0000000001
 43
0.0000000001
 40
3.139069100201467
 40
3.139069100201467
 40
3.147244916493883
 40
3.147244916493883
 10
55.17249802873777
 20
-14.57913110093835
 30
0.0
 10
55.10263459137729
 20
-14.58001599339854
 30
0.0
  0
SPLINE
  5
8A94
330
1F
100
AcDbEntity
  8
AM_0
100
AcDbSpline
210
0.0
220
0.0
230
1.0
 70
    24
 71
     1
 72
     4
 73
     2
 74
     0
 42
0.0000000001
 43
0.0000000001
 40
3.130893283909052
 40
3.130893283909052
 40
3.139069100201467
 40
3.139069100201467
 10
55.24284216123112
 20
-14.58295268291215
 30
0.0
 10
55.17249802873777
 20
-14.57913110093835
 30
0.0
  0
SPLINE
  5
8A95
330
1F
100
AcDbEntity
  8
AM_0
100
AcDbSpline
210
0.0
220
0.0
230
1.0
 70
    24
 71
     1
 72
     4
 73
     2
 74
     0
 42
0.0000000001
 43
0.0000000001
 40
6.264310121206429
 40
6.264310121206429
 40
6.272485937498845
 40
6.272485937498845
 10
54.42679776487818
 20
-23.04160392341418
 30
0.0
 10
54.49672620352624
 20
-23.05014294755471
 30
0.0
  0
SPLINE
  5
8A96
330
1F
100
AcDbEntity
  8
AM_0
100
AcDbSpline
210
0.0
220
0.0
230
1.0
 70
    24
 71
     1
 72
     4
 73
     2
 74
     0
 42
0.0000000001
 43
0.0000000001
 40
6.256134304914014
 40
6.256134304914014
 40
6.264310121206429
 40
6.264310121206429
 10
54.35816567760401
 20
-23.02851501548127
 30
0.0
 10
54.42679776487818
 20
-23.04160392341418
 30
0.0
  0
SPLINE
  5
8A97
330
1F
100
AcDbEntity
  8
AM_0
100
AcDbSpline
210
0.0
220
0.0
230
1.0
 70
    24
 71
     1
 72
     4
 73
     2
 74
     0
 42
0.0000000001
 43
0.0000000001
 40
6.247958488621597
 40
6.247958488621597
 40
6.256134304914014
 40
6.256134304914014
 10
54.2916379557887
 20
-23.01120755824075
 30
0.0
 10
54.35816567760401
 20
-23.02851501548127
 30
0.0
  0
SPLINE
  5
8A98
330
1F
100
AcDbEntity
  8
AM_0
100
AcDbSpline
210
0.0
220
0.0
230
1.0
 70
    24
 71
     1
 72
     4
 73
     2
 74
     0
 42
0.0000000001
 43
0.0000000001
 40
6.239782672329182
 40
6.239782672329182
 40
6.247958488621597
 40
6.247958488621597
 10
54.22790310339348
 20
-22.99014533537911
 30
0.0
 10
54.2916379557887
 20
-23.01120755824075
 30
0.0
  0
SPLINE
  5
8A99
330
1F
100
AcDbEntity
  8
AM_0
100
AcDbSpline
210
0.0
220
0.0
230
1.0
 70
    24
 71
     1
 72
     4
 73
     2
 74
     0
 42
0.0000000001
 43
0.0000000001
 40
6.231606856036767
 40
6.231606856036767
 40
6.239782672329182
 40
6.239782672329182
 10
54.16749916071205
 20
-22.96588255612744
 30
0.0
 10
54.22790310339348
 20
-22.99014533537911
 30
0.0
  0
SPLINE
  5
8A9A
330
1F
100
AcDbEntity
  8
AM_0
100
AcDbSpline
210
0.0
220
0.0
230
1.0
 70
    24
 71
     1
 72
     4
 73
     2
 74
     0
 42
0.0000000001
 43
0.0000000001
 40
6.223431039744352
 40
6.223431039744352
 40
6.231606856036767
 40
6.231606856036767
 10
54.11080086275354
 20
-22.939018376288
 30
0.0
 10
54.16749916071205
 20
-22.96588255612744
 30
0.0
  0
SPLINE
  5
8A9B
330
1F
100
AcDbEntity
  8
AM_0
100
AcDbSpline
210
0.0
220
0.0
230
1.0
 70
    24
 71
     1
 72
     4
 73
     2
 74
     0
 42
0.0000000001
 43
0.0000000001
 40
6.215255223451936
 40
6.215255223451936
 40
6.223431039744352
 40
6.223431039744352
 10
54.05802350535077
 20
-22.91015463035364
 30
0.0
 10
54.11080086275354
 20
-22.939018376288
 30
0.0
  0
SPLINE
  5
8A9C
330
1F
100
AcDbEntity
  8
AM_0
100
AcDbSpline
210
0.0
220
0.0
230
1.0
 70
    24
 71
     1
 72
     4
 73
     2
 74
     0
 42
0.0000000001
 43
0.0000000001
 40
6.207079407159522
 40
6.207079407159522
 40
6.215255223451936
 40
6.215255223451936
 10
54.00923958134024
 20
-22.879861481543
 30
0.0
 10
54.05802350535077
 20
-22.91015463035364
 30
0.0
  0
SPLINE
  5
8A9D
330
1F
100
AcDbEntity
  8
AM_0
100
AcDbSpline
210
0.0
220
0.0
230
1.0
 70
    24
 71
     1
 72
     4
 73
     2
 74
     0
 42
0.0000000001
 43
0.0000000001
 40
6.198903590867106
 40
6.198903590867106
 40
6.207079407159522
 40
6.207079407159522
 10
53.96440319001488
 20
-22.84865323086961
 30
0.0
 10
54.00923958134024
 20
-22.879861481543
 30
0.0
  0
SPLINE
  5
8A9E
330
1F
100
AcDbEntity
  8
AM_0
100
AcDbSpline
210
0.0
220
0.0
230
1.0
 70
    24
 71
     1
 72
     4
 73
     2
 74
     0
 42
0.0000000001
 43
0.0000000001
 40
6.186639866428484
 40
6.186639866428484
 40
6.198903590867106
 40
6.198903590867106
 10
53.9042325932578
 20
-22.80107675177214
 30
0.0
 10
53.96440319001488
 20
-22.84865323086961
 30
0.0
  0
SPLINE
  5
8A9F
330
1F
100
AcDbEntity
  8
AM_0
100
AcDbSpline
210
0.0
220
0.0
230
1.0
 70
    24
 71
     1
 72
     4
 73
     2
 74
     0
 42
0.0000000001
 43
0.0000000001
 40
6.174376141989861
 40
6.174376141989861
 40
6.186639866428484
 40
6.186639866428484
 10
53.85191306313766
 20
-22.75360844733677
 30
0.0
 10
53.9042325932578
 20
-22.80107675177214
 30
0.0
  0
SPLINE
  5
8AA0
330
1F
100
AcDbEntity
  8
AM_0
100
AcDbSpline
210
0.0
220
0.0
230
1.0
 70
    24
 71
     1
 72
     4
 73
     2
 74
     0
 42
0.0000000001
 43
0.0000000001
 40
6.162112417551238
 40
6.162112417551238
 40
6.174376141989861
 40
6.174376141989861
 10
53.80657863562021
 20
-22.70707612978395
 30
0.0
 10
53.85191306313766
 20
-22.75360844733677
 30
0.0
  0
SPLINE
  5
8AA1
330
1F
100
AcDbEntity
  8
AM_0
100
AcDbSpline
210
0.0
220
0.0
230
1.0
 70
    24
 71
     1
 72
     4
 73
     2
 74
     0
 42
0.0000000001
 43
0.0000000001
 40
6.149848693112615
 40
6.149848693112615
 40
6.162112417551238
 40
6.162112417551238
 10
53.76732758964215
 20
-22.66200617161609
 30
0.0
 10
53.80657863562021
 20
-22.70707612978395
 30
0.0
  0
SPLINE
  5
8AA2
330
1F
100
AcDbEntity
  8
AM_0
100
AcDbSpline
210
0.0
220
0.0
230
1.0
 70
    24
 71
     1
 72
     4
 73
     2
 74
     0
 42
0.0000000001
 43
0.0000000001
 40
7.751996654412364
 40
7.751996654412364
 40
7.766408288062059
 40
7.766408288062059
 10
-24.52220359111345
 20
52.64280707863567
 30
0.0
 10
-24.58811611228464
 20
52.68997672615263
 30
0.0
  0
SPLINE
  5
8AA3
330
1F
100
AcDbEntity
  8
AM_0
100
AcDbSpline
210
0.0
220
0.0
230
1.0
 70
    24
 71
     1
 72
     4
 73
     2
 74
     0
 42
0.0000000001
 43
0.0000000001
 40
7.737585020762669
 40
7.737585020762669
 40
7.751996654412364
 40
7.751996654412364
 10
-24.46249502741261
 20
52.60615377596419
 30
0.0
 10
-24.52220359111345
 20
52.64280707863567
 30
0.0
  0
SPLINE
  5
8AA4
330
1F
100
AcDbEntity
  8
AM_0
100
AcDbSpline
210
0.0
220
0.0
230
1.0
 70
    24
 71
     1
 72
     4
 73
     2
 74
     0
 42
0.0000000001
 43
0.0000000001
 40
7.723173387112973
 40
7.723173387112973
 40
7.737585020762669
 40
7.737585020762669
 10
-24.40864139765506
 20
52.5774019792125
 30
0.0
 10
-24.46249502741261
 20
52.60615377596419
 30
0.0
  0
SPLINE
  5
8AA5
330
1F
100
AcDbEntity
  8
AM_0
100
AcDbSpline
210
0.0
220
0.0
230
1.0
 70
    24
 71
     1
 72
     4
 73
     2
 74
     0
 42
0.0000000001
 43
0.0000000001
 40
7.708761753463278
 40
7.708761753463278
 40
7.723173387112973
 40
7.723173387112973
 10
-24.36001815962061
 20
52.55458035221547
 30
0.0
 10
-24.40864139765506
 20
52.5774019792125
 30
0.0
  0
SPLINE
  5
8AA6
330
1F
100
AcDbEntity
  8
AM_0
100
AcDbSpline
210
0.0
220
0.0
230
1.0
 70
    24
 71
     1
 72
     4
 73
     2
 74
     0
 42
0.0000000001
 43
0.0000000001
 40
7.694350119813583
 40
7.694350119813583
 40
7.708761753463278
 40
7.708761753463278
 10
-24.31592694505229
 20
52.53623061021695
 30
0.0
 10
-24.36001815962061
 20
52.55458035221547
 30
0.0
  0
SPLINE
  5
8AA7
330
1F
100
AcDbEntity
  8
AM_0
100
AcDbSpline
210
0.0
220
0.0
230
1.0
 70
    24
 71
     1
 72
     4
 73
     2
 74
     0
 42
0.0000000001
 43
0.0000000001
 40
7.670330730397424
 40
7.670330730397424
 40
7.694350119813583
 40
7.694350119813583
 10
-24.25071247722405
 20
52.51280461076671
 30
0.0
 10
-24.31592694505229
 20
52.53623061021695
 30
0.0
  0
SPLINE
  5
8AA8
330
1F
100
AcDbEntity
  8
AM_0
100
AcDbSpline
210
0.0
220
0.0
230
1.0
 70
    24
 71
     1
 72
     4
 73
     2
 74
     0
 42
0.0000000001
 43
0.0000000001
 40
7.646311340981267
 40
7.646311340981267
 40
7.670330730397424
 40
7.670330730397424
 10
-24.19355586353708
 20
52.49556769418406
 30
0.0
 10
-24.25071247722405
 20
52.51280461076671
 30
0.0
  0
SPLINE
  5
8AA9
330
1F
100
AcDbEntity
  8
AM_0
100
AcDbSpline
210
0.0
220
0.0
230
1.0
 70
    24
 71
     1
 72
     4
 73
     2
 74
     0
 42
0.0000000001
 43
0.0000000001
 40
7.622291951565107
 40
7.622291951565107
 40
7.646311340981267
 40
7.646311340981267
 10
-24.14235404461567
 20
52.48246671640574
 30
0.0
 10
-24.19355586353708
 20
52.49556769418406
 30
0.0
  0
SPLINE
  5
8AAA
330
1F
100
AcDbEntity
  8
AM_0
100
AcDbSpline
210
0.0
220
0.0
230
1.0
 70
    24
 71
     1
 72
     4
 73
     2
 74
     0
 42
0.0000000001
 43
0.0000000001
 40
7.576540726138023
 40
7.576540726138023
 40
7.622291951565107
 40
7.622291951565107
 10
-24.05588181899963
 20
52.46472629868067
 30
0.0
 10
-24.14235404461567
 20
52.48246671640574
 30
0.0
  0
SPLINE
  5
8AAB
330
1F
100
AcDbEntity
  8
AM_0
100
AcDbSpline
210
0.0
220
0.0
230
1.0
 70
    24
 71
     1
 72
     4
 73
     2
 74
     0
 42
0.0000000001
 43
0.0000000001
 40
7.530789500710939
 40
7.530789500710939
 40
7.576540726138023
 40
7.576540726138023
 10
-23.97804397815366
 20
52.45273591209515
 30
0.0
 10
-24.05588181899963
 20
52.46472629868067
 30
0.0
  0
SPLINE
  5
8AAC
330
1F
100
AcDbEntity
  8
AM_0
100
AcDbSpline
210
0.0
220
0.0
230
1.0
 70
    24
 71
     1
 72
     4
 73
     2
 74
     0
 42
0.0000000001
 43
0.0000000001
 40
7.485038275283857
 40
7.485038275283857
 40
7.530789500710939
 40
7.530789500710939
 10
-23.90440470325859
 20
52.44420507344951
 30
0.0
 10
-23.97804397815366
 20
52.45273591209515
 30
0.0
  0
SPLINE
  5
8AAD
330
1F
100
AcDbEntity
  8
AM_0
100
AcDbSpline
210
0.0
220
0.0
230
1.0
 70
    24
 71
     1
 72
     4
 73
     2
 74
     0
 42
0.0000000001
 43
0.0000000001
 40
7.439287049856774
 40
7.439287049856774
 40
7.485038275283857
 40
7.485038275283857
 10
-23.83225873652156
 20
52.43799349749362
 30
0.0
 10
-23.90440470325859
 20
52.44420507344951
 30
0.0
  0
SPLINE
  5
8AAE
330
1F
100
AcDbEntity
  8
AM_0
100
AcDbSpline
210
0.0
220
0.0
230
1.0
 70
    24
 71
     1
 72
     4
 73
     2
 74
     0
 42
0.0000000001
 43
0.0000000001
 40
7.39353582442969
 40
7.39353582442969
 40
7.439287049856774
 40
7.439287049856774
 10
-23.75990499712668
 20
52.43349500007266
 30
0.0
 10
-23.83225873652156
 20
52.43799349749362
 30
0.0
  0
SPLINE
  5
8AAF
330
1F
100
AcDbEntity
  8
AM_0
100
AcDbSpline
210
0.0
220
0.0
230
1.0
 70
    24
 71
     1
 72
     4
 73
     2
 74
     0
 42
0.0000000001
 43
0.0000000001
 40
7.347784599002608
 40
7.347784599002608
 40
7.39353582442969
 40
7.39353582442969
 10
-23.68624873628573
 20
52.43036934689128
 30
0.0
 10
-23.75990499712668
 20
52.43349500007266
 30
0.0
  0
SPLINE
  5
8AB0
330
1F
100
AcDbEntity
  8
AM_0
100
AcDbSpline
210
0.0
220
0.0
230
1.0
 70
    24
 71
     1
 72
     4
 73
     2
 74
     0
 42
0.0000000001
 43
0.0000000001
 40
7.302033373575524
 40
7.302033373575524
 40
7.347784599002608
 40
7.347784599002608
 10
-23.61057666148667
 20
52.42841658982424
 30
0.0
 10
-23.68624873628573
 20
52.43036934689128
 30
0.0
  0
SPLINE
  5
8AB1
330
1F
100
AcDbEntity
  8
AM_0
100
AcDbSpline
210
0.0
220
0.0
230
1.0
 70
    24
 71
     1
 72
     4
 73
     2
 74
     0
 42
0.0000000001
 43
0.0000000001
 40
7.256282148148439
 40
7.256282148148439
 40
7.302033373575524
 40
7.302033373575524
 10
-23.53242499775422
 20
52.42751431615978
 30
0.0
 10
-23.61057666148667
 20
52.42841658982424
 30
0.0
  0
SPLINE
  5
8AB2
330
1F
100
AcDbEntity
  8
AM_0
100
AcDbSpline
210
0.0
220
0.0
230
1.0
 70
    24
 71
     1
 72
     4
 73
     2
 74
     0
 42
0.0000000001
 43
0.0000000001
 40
7.210530922721357
 40
7.210530922721357
 40
7.256282148148439
 40
7.256282148148439
 10
-23.45149917945525
 20
52.42758456821487
 30
0.0
 10
-23.53242499775422
 20
52.42751431615978
 30
0.0
  0
SPLINE
  5
8AB3
330
1F
100
AcDbEntity
  8
AM_0
100
AcDbSpline
210
0.0
220
0.0
230
1.0
 70
    24
 71
     1
 72
     4
 73
     2
 74
     0
 42
0.0000000001
 43
0.0000000001
 40
7.167501967467001
 40
7.167501967467001
 40
7.210530922721357
 40
7.210530922721357
 10
-23.37269853117834
 20
52.42849155475688
 30
0.0
 10
-23.45149917945525
 20
52.42758456821487
 30
0.0
  0
SPLINE
  5
8AB4
330
1F
100
AcDbEntity
  8
AM_0
100
AcDbSpline
210
0.0
220
0.0
230
1.0
 70
    24
 71
     1
 72
     4
 73
     2
 74
     0
 42
0.0000000001
 43
0.0000000001
 40
7.124473012212645
 40
7.124473012212645
 40
7.167501967467001
 40
7.167501967467001
 10
-23.29121108397259
 20
52.43018261632257
 30
0.0
 10
-23.37269853117834
 20
52.42849155475688
 30
0.0
  0
SPLINE
  5
8AB5
330
1F
100
AcDbEntity
  8
AM_0
100
AcDbSpline
210
0.0
220
0.0
230
1.0
 70
    24
 71
     1
 72
     4
 73
     2
 74
     0
 42
0.0000000001
 43
0.0000000001
 40
7.081444056958289
 40
7.081444056958289
 40
7.124473012212645
 40
7.124473012212645
 10
-23.20701083717449
 20
52.43263510105676
 30
0.0
 10
-23.29121108397259
 20
52.43018261632257
 30
0.0
  0
SPLINE
  5
8AB6
330
1F
100
AcDbEntity
  8
AM_0
100
AcDbSpline
210
0.0
220
0.0
230
1.0
 70
    24
 71
     1
 72
     4
 73
     2
 74
     0
 42
0.0000000001
 43
0.0000000001
 40
7.038415101703933
 40
7.038415101703933
 40
7.081444056958289
 40
7.081444056958289
 10
-23.12011093851868
 20
52.43583102717095
 30
0.0
 10
-23.20701083717449
 20
52.43263510105676
 30
0.0
  0
SPLINE
  5
8AB7
330
1F
100
AcDbEntity
  8
AM_0
100
AcDbSpline
210
0.0
220
0.0
230
1.0
 70
    24
 71
     1
 72
     4
 73
     2
 74
     0
 42
0.0000000001
 43
0.0000000001
 40
6.995386146449577
 40
6.995386146449577
 40
7.038415101703933
 40
7.038415101703933
 10
-23.03055545541167
 20
52.43975520404434
 30
0.0
 10
-23.12011093851868
 20
52.43583102717095
 30
0.0
  0
SPLINE
  5
8AB8
330
1F
100
AcDbEntity
  8
AM_0
100
AcDbSpline
210
0.0
220
0.0
230
1.0
 70
    24
 71
     1
 72
     4
 73
     2
 74
     0
 42
0.0000000001
 43
0.0000000001
 40
6.952357191195221
 40
6.952357191195221
 40
6.995386146449577
 40
6.995386146449577
 10
-22.93841333687749
 20
52.44439399873472
 30
0.0
 10
-23.03055545541167
 20
52.43975520404434
 30
0.0
  0
SPLINE
  5
8AB9
330
1F
100
AcDbEntity
  8
AM_0
100
AcDbSpline
210
0.0
220
0.0
230
1.0
 70
    24
 71
     1
 72
     4
 73
     2
 74
     0
 42
0.0000000001
 43
0.0000000001
 40
6.909328235940865
 40
6.909328235940865
 40
6.952357191195221
 40
6.952357191195221
 10
-22.84377388981897
 20
52.44973451360808
 30
0.0
 10
-22.93841333687749
 20
52.44439399873472
 30
0.0
  0
SPLINE
  5
8ABA
330
1F
100
AcDbEntity
  8
AM_0
100
AcDbSpline
210
0.0
220
0.0
230
1.0
 70
    24
 71
     1
 72
     4
 73
     2
 74
     0
 42
0.0000000001
 43
0.0000000001
 40
6.86629928068651
 40
6.86629928068651
 40
6.909328235940865
 40
6.909328235940865
 10
-22.7467433197396
 20
52.45576403166326
 30
0.0
 10
-22.84377388981897
 20
52.44973451360808
 30
0.0
  0
SPLINE
  5
8ABB
330
1F
100
AcDbEntity
  8
AM_0
100
AcDbSpline
210
0.0
220
0.0
230
1.0
 70
    24
 71
     1
 72
     4
 73
     2
 74
     0
 42
0.0000000001
 43
0.0000000001
 40
6.824737931259532
 40
6.824737931259532
 40
6.86629928068651
 40
6.86629928068651
 10
-22.65086494415004
 20
52.46222993499237
 30
0.0
 10
-22.7467433197396
 20
52.45576403166326
 30
0.0
  0
SPLINE
  5
8ABC
330
1F
100
AcDbEntity
  8
AM_0
100
AcDbSpline
210
0.0
220
0.0
230
1.0
 70
    24
 71
     1
 72
     4
 73
     2
 74
     0
 42
0.0000000001
 43
0.0000000001
 40
6.783176581832553
 40
6.783176581832553
 40
6.824737931259532
 40
6.824737931259532
 10
-22.55298724183183
 20
52.46931456360376
 30
0.0
 10
-22.65086494415004
 20
52.46222993499237
 30
0.0
  0
SPLINE
  5
8ABD
330
1F
100
AcDbEntity
  8
AM_0
100
AcDbSpline
210
0.0
220
0.0
230
1.0
 70
    24
 71
     1
 72
     4
 73
     2
 74
     0
 42
0.0000000001
 43
0.0000000001
 40
6.741615232405576
 40
6.741615232405576
 40
6.783176581832553
 40
6.783176581832553
 10
-22.45323842231175
 20
52.47700534245128
 30
0.0
 10
-22.55298724183183
 20
52.46931456360376
 30
0.0
  0
SPLINE
  5
8ABE
330
1F
100
AcDbEntity
  8
AM_0
100
AcDbSpline
210
0.0
220
0.0
230
1.0
 70
    24
 71
     1
 72
     4
 73
     2
 74
     0
 42
0.0000000001
 43
0.0000000001
 40
6.700053882978599
 40
6.700053882978599
 40
6.741615232405576
 40
6.741615232405576
 10
-22.351754475971
 20
52.48528905753438
 30
0.0
 10
-22.45323842231175
 20
52.47700534245128
 30
0.0
  0
SPLINE
  5
8ABF
330
1F
100
AcDbEntity
  8
AM_0
100
AcDbSpline
210
0.0
220
0.0
230
1.0
 70
    24
 71
     1
 72
     4
 73
     2
 74
     0
 42
0.0000000001
 43
0.0000000001
 40
6.65849253355162
 40
6.65849253355162
 40
6.700053882978599
 40
6.700053882978599
 10
-22.24867812873185
 20
52.49415179240545
 30
0.0
 10
-22.351754475971
 20
52.48528905753438
 30
0.0
  0
SPLINE
  5
8AC0
330
1F
100
AcDbEntity
  8
AM_0
100
AcDbSpline
210
0.0
220
0.0
230
1.0
 70
    24
 71
     1
 72
     4
 73
     2
 74
     0
 42
0.0000000001
 43
0.0000000001
 40
6.616931184124643
 40
6.616931184124643
 40
6.65849253355162
 40
6.65849253355162
 10
-22.14415793658679
 20
52.50357889029761
 30
0.0
 10
-22.24867812873185
 20
52.49415179240545
 30
0.0
  0
SPLINE
  5
8AC1
330
1F
100
AcDbEntity
  8
AM_0
100
AcDbSpline
210
0.0
220
0.0
230
1.0
 70
    24
 71
     1
 72
     4
 73
     2
 74
     0
 42
0.0000000001
 43
0.0000000001
 40
6.575369834697665
 40
6.575369834697665
 40
6.616931184124643
 40
6.616931184124643
 10
-22.03834748709289
 20
52.51355493553457
 30
0.0
 10
-22.14415793658679
 20
52.50357889029761
 30
0.0
  0
SPLINE
  5
8AC2
330
1F
100
AcDbEntity
  8
AM_0
100
AcDbSpline
210
0.0
220
0.0
230
1.0
 70
    24
 71
     1
 72
     4
 73
     2
 74
     0
 42
0.0000000001
 43
0.0000000001
 40
6.533808485270687
 40
6.533808485270687
 40
6.575369834697665
 40
6.575369834697665
 10
-21.93140468306387
 20
52.52406374977546
 30
0.0
 10
-22.03834748709289
 20
52.51355493553457
 30
0.0
  0
SPLINE
  5
8AC3
330
1F
100
AcDbEntity
  8
AM_0
100
AcDbSpline
210
0.0
220
0.0
230
1.0
 70
    24
 71
     1
 72
     4
 73
     2
 74
     0
 42
0.0000000001
 43
0.0000000001
 40
6.492449783020728
 40
6.492449783020728
 40
6.533808485270687
 40
6.533808485270687
 10
-21.82401935146538
 20
52.5350334221272
 30
0.0
 10
-21.93140468306387
 20
52.52406374977546
 30
0.0
  0
SPLINE
  5
8AC4
330
1F
100
AcDbEntity
  8
AM_0
100
AcDbSpline
210
0.0
220
0.0
230
1.0
 70
    24
 71
     1
 72
     4
 73
     2
 74
     0
 42
0.0000000001
 43
0.0000000001
 40
6.451091080770772
 40
6.451091080770772
 40
6.492449783020728
 40
6.492449783020728
 10
-21.71583489266856
 20
52.54649650160049
 30
0.0
 10
-21.82401935146538
 20
52.5350334221272
 30
0.0
  0
SPLINE
  5
8AC5
330
1F
100
AcDbEntity
  8
AM_0
100
AcDbSpline
210
0.0
220
0.0
230
1.0
 70
    24
 71
     1
 72
     4
 73
     2
 74
     0
 42
0.0000000001
 43
0.0000000001
 40
6.409732378520813
 40
6.409732378520813
 40
6.451091080770772
 40
6.451091080770772
 10
-21.60701597330614
 20
52.5584348785787
 30
0.0
 10
-21.71583489266856
 20
52.54649650160049
 30
0.0
  0
SPLINE
  5
8AC6
330
1F
100
AcDbEntity
  8
AM_0
100
AcDbSpline
210
0.0
220
0.0
230
1.0
 70
    24
 71
     1
 72
     4
 73
     2
 74
     0
 42
0.0000000001
 43
0.0000000001
 40
6.368373676270856
 40
6.368373676270856
 40
6.409732378520813
 40
6.409732378520813
 10
-21.49772918026144
 20
52.57082977674385
 30
0.0
 10
-21.60701597330614
 20
52.5584348785787
 30
0.0
  0
SPLINE
  5
8AC7
330
1F
100
AcDbEntity
  8
AM_0
100
AcDbSpline
210
0.0
220
0.0
230
1.0
 70
    24
 71
     1
 72
     4
 73
     2
 74
     0
 42
0.0000000001
 43
0.0000000001
 40
6.327014974020898
 40
6.327014974020898
 40
6.368373676270856
 40
6.368373676270856
 10
-21.38814251578867
 20
52.58366179068987
 30
0.0
 10
-21.49772918026144
 20
52.57082977674385
 30
0.0
  0
SPLINE
  5
8AC8
330
1F
100
AcDbEntity
  8
AM_0
100
AcDbSpline
210
0.0
220
0.0
230
1.0
 70
    24
 71
     1
 72
     4
 73
     2
 74
     0
 42
0.0000000001
 43
0.0000000001
 40
6.28565627177094
 40
6.28565627177094
 40
6.327014974020898
 40
6.327014974020898
 10
-21.27842490736736
 20
52.59691092928837
 30
0.0
 10
-21.38814251578867
 20
52.58366179068987
 30
0.0
  0
SPLINE
  5
8AC9
330
1F
100
AcDbEntity
  8
AM_0
100
AcDbSpline
210
0.0
220
0.0
230
1.0
 70
    24
 71
     1
 72
     4
 73
     2
 74
     0
 42
0.0000000001
 43
0.0000000001
 40
6.244297569520983
 40
6.244297569520983
 40
6.28565627177094
 40
6.28565627177094
 10
-21.16874572726396
 20
52.61055666471522
 30
0.0
 10
-21.27842490736736
 20
52.59691092928837
 30
0.0
  0
SPLINE
  5
8ACA
330
1F
100
AcDbEntity
  8
AM_0
100
AcDbSpline
210
0.0
220
0.0
230
1.0
 70
    24
 71
     1
 72
     4
 73
     2
 74
     0
 42
0.0000000001
 43
0.0000000001
 40
6.202938867271025
 40
6.202938867271025
 40
6.244297569520983
 40
6.244297569520983
 10
-21.05927431731436
 20
52.62457798728123
 30
0.0
 10
-21.16874572726396
 20
52.61055666471522
 30
0.0
  0
SPLINE
  5
8ACB
330
1F
100
AcDbEntity
  8
AM_0
100
AcDbSpline
210
0.0
220
0.0
230
1.0
 70
    24
 71
     1
 72
     4
 73
     2
 74
     0
 42
0.0000000001
 43
0.0000000001
 40
6.160899447220657
 40
6.160899447220657
 40
6.202938867271025
 40
6.202938867271025
 10
-20.94838803255947
 20
52.63919291111417
 30
0.0
 10
-21.05927431731436
 20
52.62457798728123
 30
0.0
  0
SPLINE
  5
8ACC
330
1F
100
AcDbEntity
  8
AM_0
100
AcDbSpline
210
0.0
220
0.0
230
1.0
 70
    24
 71
     1
 72
     4
 73
     2
 74
     0
 42
0.0000000001
 43
0.0000000001
 40
6.118860027170288
 40
6.118860027170288
 40
6.160899447220657
 40
6.160899447220657
 10
-20.83806711922716
 20
52.65415086510519
 30
0.0
 10
-20.94838803255947
 20
52.63919291111417
 30
0.0
  0
SPLINE
  5
8ACD
330
1F
100
AcDbEntity
  8
AM_0
100
AcDbSpline
210
0.0
220
0.0
230
1.0
 70
    24
 71
     1
 72
     4
 73
     2
 74
     0
 42
0.0000000001
 43
0.0000000001
 40
6.076820607119922
 40
6.076820607119922
 40
6.118860027170288
 40
6.118860027170288
 10
-20.72848627056407
 20
52.66942867505192
 30
0.0
 10
-20.83806711922716
 20
52.65415086510519
 30
0.0
  0
SPLINE
  5
8ACE
330
1F
100
AcDbEntity
  8
AM_0
100
AcDbSpline
210
0.0
220
0.0
230
1.0
 70
    24
 71
     1
 72
     4
 73
     2
 74
     0
 42
0.0000000001
 43
0.0000000001
 40
6.034781187069553
 40
6.034781187069553
 40
6.076820607119922
 40
6.076820607119922
 10
-20.61981806539324
 20
52.68500296390114
 30
0.0
 10
-20.72848627056407
 20
52.66942867505192
 30
0.0
  0
SPLINE
  5
8ACF
330
1F
100
AcDbEntity
  8
AM_0
100
AcDbSpline
210
0.0
220
0.0
230
1.0
 70
    24
 71
     1
 72
     4
 73
     2
 74
     0
 42
0.0000000001
 43
0.0000000001
 40
5.992741767019184
 40
5.992741767019184
 40
6.034781187069553
 40
6.034781187069553
 10
-20.51223240838714
 20
52.70085025553
 30
0.0
 10
-20.61981806539324
 20
52.68500296390114
 30
0.0
  0
SPLINE
  5
8AD0
330
1F
100
AcDbEntity
  8
AM_0
100
AcDbSpline
210
0.0
220
0.0
230
1.0
 70
    24
 71
     1
 72
     4
 73
     2
 74
     0
 42
0.0000000001
 43
0.0000000001
 40
5.950702346968817
 40
5.950702346968817
 40
5.992741767019184
 40
5.992741767019184
 10
-20.40589594310654
 20
52.71694709291189
 30
0.0
 10
-20.51223240838714
 20
52.70085025553
 30
0.0
  0
SPLINE
  5
8AD1
330
1F
100
AcDbEntity
  8
AM_0
100
AcDbSpline
210
0.0
220
0.0
230
1.0
 70
    24
 71
     1
 72
     4
 73
     2
 74
     0
 42
0.0000000001
 43
0.0000000001
 40
5.908662926918449
 40
5.908662926918449
 40
5.950702346968817
 40
5.950702346968817
 10
-20.30097142871988
 20
52.73327017406252
 30
0.0
 10
-20.40589594310654
 20
52.71694709291189
 30
0.0
  0
SPLINE
  5
8AD2
330
1F
100
AcDbEntity
  8
AM_0
100
AcDbSpline
210
0.0
220
0.0
230
1.0
 70
    24
 71
     1
 72
     4
 73
     2
 74
     0
 42
0.0000000001
 43
0.0000000001
 40
5.866623506868081
 40
5.866623506868081
 40
5.908662926918449
 40
5.908662926918449
 10
-20.19761706899373
 20
52.74979651029515
 30
0.0
 10
-20.30097142871988
 20
52.73327017406252
 30
0.0
  0
SPLINE
  5
8AD3
330
1F
100
AcDbEntity
  8
AM_0
100
AcDbSpline
210
0.0
220
0.0
230
1.0
 70
    24
 71
     1
 72
     4
 73
     2
 74
     0
 42
0.0000000001
 43
0.0000000001
 40
5.820715658763873
 40
5.820715658763873
 40
5.866623506868081
 40
5.866623506868081
 10
-20.08672553221265
 20
52.76804929748177
 30
0.0
 10
-20.19761706899373
 20
52.74979651029515
 30
0.0
  0
SPLINE
  5
8AD4
330
1F
100
AcDbEntity
  8
AM_0
100
AcDbSpline
210
0.0
220
0.0
230
1.0
 70
    24
 71
     1
 72
     4
 73
     2
 74
     0
 42
0.0000000001
 43
0.0000000001
 40
5.774807810659664
 40
5.774807810659664
 40
5.820715658763873
 40
5.820715658763873
 10
-19.97807941096868
 20
52.78648937900671
 30
0.0
 10
-20.08672553221265
 20
52.76804929748177
 30
0.0
  0
SPLINE
  5
8AD5
330
1F
100
AcDbEntity
  8
AM_0
100
AcDbSpline
210
0.0
220
0.0
230
1.0
 70
    24
 71
     1
 72
     4
 73
     2
 74
     0
 42
0.0000000001
 43
0.0000000001
 40
5.728899962555455
 40
5.728899962555455
 40
5.774807810659664
 40
5.774807810659664
 10
-19.87185934272088
 20
52.80508992660408
 30
0.0
 10
-19.97807941096868
 20
52.78648937900671
 30
0.0
  0
SPLINE
  5
8AD6
330
1F
100
AcDbEntity
  8
AM_0
100
AcDbSpline
210
0.0
220
0.0
230
1.0
 70
    24
 71
     1
 72
     4
 73
     2
 74
     0
 42
0.0000000001
 43
0.0000000001
 40
5.682992114451248
 40
5.682992114451248
 40
5.728899962555455
 40
5.728899962555455
 10
-19.7682341578585
 20
52.82382610365655
 30
0.0
 10
-19.87185934272088
 20
52.80508992660408
 30
0.0
  0
SPLINE
  5
8AD7
330
1F
100
AcDbEntity
  8
AM_0
100
AcDbSpline
210
0.0
220
0.0
230
1.0
 70
    24
 71
     1
 72
     4
 73
     2
 74
     0
 42
0.0000000001
 43
0.0000000001
 40
5.63708426634704
 40
5.63708426634704
 40
5.682992114451248
 40
5.682992114451248
 10
-19.66735886873459
 20
52.84267575242605
 30
0.0
 10
-19.7682341578585
 20
52.82382610365655
 30
0.0
  0
SPLINE
  5
8AD8
330
1F
100
AcDbEntity
  8
AM_0
100
AcDbSpline
210
0.0
220
0.0
230
1.0
 70
    24
 71
     1
 72
     4
 73
     2
 74
     0
 42
0.0000000001
 43
0.0000000001
 40
5.591176418242831
 40
5.591176418242831
 40
5.63708426634704
 40
5.63708426634704
 10
-19.56937221048645
 20
52.86162029322646
 30
0.0
 10
-19.66735886873459
 20
52.84267575242605
 30
0.0
  0
SPLINE
  5
8AD9
330
1F
100
AcDbEntity
  8
AM_0
100
AcDbSpline
210
0.0
220
0.0
230
1.0
 70
    24
 71
     1
 72
     4
 73
     2
 74
     0
 42
0.0000000001
 43
0.0000000001
 40
5.545268570138622
 40
5.545268570138622
 40
5.591176418242831
 40
5.591176418242831
 10
-19.47439356323752
 20
52.88064592483273
 30
0.0
 10
-19.56937221048645
 20
52.86162029322646
 30
0.0
  0
SPLINE
  5
8ADA
330
1F
100
AcDbEntity
  8
AM_0
100
AcDbSpline
210
0.0
220
0.0
230
1.0
 70
    24
 71
     1
 72
     4
 73
     2
 74
     0
 42
0.0000000001
 43
0.0000000001
 40
5.499360722034414
 40
5.499360722034414
 40
5.545268570138622
 40
5.545268570138622
 10
-19.38251900997499
 20
52.89974526067125
 30
0.0
 10
-19.47439356323752
 20
52.88064592483273
 30
0.0
  0
SPLINE
  5
8ADB
330
1F
100
AcDbEntity
  8
AM_0
100
AcDbSpline
210
0.0
220
0.0
230
1.0
 70
    24
 71
     1
 72
     4
 73
     2
 74
     0
 42
0.0000000001
 43
0.0000000001
 40
5.452484310168649
 40
5.452484310168649
 40
5.499360722034414
 40
5.499360722034414
 10
-19.29197918753345
 20
52.91932502647718
 30
0.0
 10
-19.38251900997499
 20
52.89974526067125
 30
0.0
  0
SPLINE
  5
8ADC
330
1F
100
AcDbEntity
  8
AM_0
100
AcDbSpline
210
0.0
220
0.0
230
1.0
 70
    24
 71
     1
 72
     4
 73
     2
 74
     0
 42
0.0000000001
 43
0.0000000001
 40
5.405607898302884
 40
5.405607898302884
 40
5.452484310168649
 40
5.452484310168649
 10
-19.20478000426294
 20
52.93899733276159
 30
0.0
 10
-19.29197918753345
 20
52.91932502647718
 30
0.0
  0
SPLINE
  5
8ADD
330
1F
100
AcDbEntity
  8
AM_0
100
AcDbSpline
210
0.0
220
0.0
230
1.0
 70
    24
 71
     1
 72
     4
 73
     2
 74
     0
 42
0.0000000001
 43
0.0000000001
 40
5.358731486437118
 40
5.358731486437118
 40
5.405607898302884
 40
5.405607898302884
 10
-19.12090617198521
 20
52.9587947468935
 30
0.0
 10
-19.20478000426294
 20
52.93899733276159
 30
0.0
  0
SPLINE
  5
8ADE
330
1F
100
AcDbEntity
  8
AM_0
100
AcDbSpline
210
0.0
220
0.0
230
1.0
 70
    24
 71
     1
 72
     4
 73
     2
 74
     0
 42
0.0000000001
 43
0.0000000001
 40
5.311855074571352
 40
5.311855074571352
 40
5.358731486437118
 40
5.358731486437118
 10
-19.04027828629364
 20
52.97877611230457
 30
0.0
 10
-19.12090617198521
 20
52.9587947468935
 30
0.0
  0
SPLINE
  5
8ADF
330
1F
100
AcDbEntity
  8
AM_0
100
AcDbSpline
210
0.0
220
0.0
230
1.0
 70
    24
 71
     1
 72
     4
 73
     2
 74
     0
 42
0.0000000001
 43
0.0000000001
 40
5.264978662705587
 40
5.264978662705587
 40
5.311855074571352
 40
5.311855074571352
 10
-18.96273101084955
 20
52.99903900053921
 30
0.0
 10
-19.04027828629364
 20
52.97877611230457
 30
0.0
  0
SPLINE
  5
8AE0
330
1F
100
AcDbEntity
  8
AM_0
100
AcDbSpline
210
0.0
220
0.0
230
1.0
 70
    24
 71
     1
 72
     4
 73
     2
 74
     0
 42
0.0000000001
 43
0.0000000001
 40
5.218102250839821
 40
5.218102250839821
 40
5.264978662705587
 40
5.264978662705587
 10
-18.88798052550532
 20
53.01973975373041
 30
0.0
 10
-18.96273101084955
 20
52.99903900053921
 30
0.0
  0
SPLINE
  5
8AE1
330
1F
100
AcDbEntity
  8
AM_0
100
AcDbSpline
210
0.0
220
0.0
230
1.0
 70
    24
 71
     1
 72
     4
 73
     2
 74
     0
 42
0.0000000001
 43
0.0000000001
 40
5.171225838974055
 40
5.171225838974055
 40
5.218102250839821
 40
5.218102250839821
 10
-18.8155745522539
 20
53.04112696526114
 30
0.0
 10
-18.88798052550532
 20
53.01973975373041
 30
0.0
  0
SPLINE
  5
8AE2
330
1F
100
AcDbEntity
  8
AM_0
100
AcDbSpline
210
0.0
220
0.0
230
1.0
 70
    24
 71
     1
 72
     4
 73
     2
 74
     0
 42
0.0000000001
 43
0.0000000001
 40
5.12434942710829
 40
5.12434942710829
 40
5.171225838974055
 40
5.171225838974055
 10
-18.74481326963166
 20
53.06359982602079
 30
0.0
 10
-18.8155745522539
 20
53.04112696526114
 30
0.0
  0
SPLINE
  5
8AE3
330
1F
100
AcDbEntity
  8
AM_0
100
AcDbSpline
210
0.0
220
0.0
230
1.0
 70
    24
 71
     1
 72
     4
 73
     2
 74
     0
 42
0.0000000001
 43
0.0000000001
 40
5.077473015242524
 40
5.077473015242524
 40
5.12434942710829
 40
5.12434942710829
 10
-18.67462008661414
 20
53.08781487776009
 30
0.0
 10
-18.74481326963166
 20
53.06359982602079
 30
0.0
  0
SPLINE
  5
8AE4
330
1F
100
AcDbEntity
  8
AM_0
100
AcDbSpline
210
0.0
220
0.0
230
1.0
 70
    24
 71
     1
 72
     4
 73
     2
 74
     0
 42
0.0000000001
 43
0.0000000001
 40
5.030596603376759
 40
5.030596603376759
 40
5.077473015242524
 40
5.077473015242524
 10
-18.60332356753633
 20
53.11489268404871
 30
0.0
 10
-18.67462008661414
 20
53.08781487776009
 30
0.0
  0
SPLINE
  5
8AE5
330
1F
100
AcDbEntity
  8
AM_0
100
AcDbSpline
210
0.0
220
0.0
230
1.0
 70
    24
 71
     1
 72
     4
 73
     2
 74
     0
 42
0.0000000001
 43
0.0000000001
 40
5.007707768120043
 40
5.007707768120043
 40
5.030596603376759
 40
5.030596603376759
 10
-18.56736564196967
 20
53.12970668626509
 30
0.0
 10
-18.60332356753633
 20
53.11489268404871
 30
0.0
  0
SPLINE
  5
8AE6
330
1F
100
AcDbEntity
  8
AM_0
100
AcDbSpline
210
0.0
220
0.0
230
1.0
 70
    24
 71
     1
 72
     4
 73
     2
 74
     0
 42
0.0000000001
 43
0.0000000001
 40
4.984818932863327
 40
4.984818932863327
 40
5.007707768120043
 40
5.007707768120043
 10
-18.53010892954057
 20
53.14601665859
 30
0.0
 10
-18.56736564196967
 20
53.12970668626509
 30
0.0
  0
SPLINE
  5
8AE7
330
1F
100
AcDbEntity
  8
AM_0
100
AcDbSpline
210
0.0
220
0.0
230
1.0
 70
    24
 71
     1
 72
     4
 73
     2
 74
     0
 42
0.0000000001
 43
0.0000000001
 40
4.961930097606611
 40
4.961930097606611
 40
4.984818932863327
 40
4.984818932863327
 10
-18.4910080939419
 20
53.16432265971975
 30
0.0
 10
-18.53010892954057
 20
53.14601665859
 30
0.0
  0
SPLINE
  5
8AE8
330
1F
100
AcDbEntity
  8
AM_0
100
AcDbSpline
210
0.0
220
0.0
230
1.0
 70
    24
 71
     1
 72
     4
 73
     2
 74
     0
 42
0.0000000001
 43
0.0000000001
 40
4.939041262349896
 40
4.939041262349896
 40
4.961930097606611
 40
4.961930097606611
 10
-18.44936765534123
 20
53.18533384917431
 30
0.0
 10
-18.4910080939419
 20
53.16432265971975
 30
0.0
  0
SPLINE
  5
8AE9
330
1F
100
AcDbEntity
  8
AM_0
100
AcDbSpline
210
0.0
220
0.0
230
1.0
 70
    24
 71
     1
 72
     4
 73
     2
 74
     0
 42
0.0000000001
 43
0.0000000001
 40
4.916152427093179
 40
4.916152427093179
 40
4.939041262349896
 40
4.939041262349896
 10
-18.4043013043489
 20
53.21007703553637
 30
0.0
 10
-18.44936765534123
 20
53.18533384917431
 30
0.0
  0
SPLINE
  5
8AEA
330
1F
100
AcDbEntity
  8
AM_0
100
AcDbSpline
210
0.0
220
0.0
230
1.0
 70
    24
 71
     1
 72
     4
 73
     2
 74
     0
 42
0.0000000001
 43
0.0000000001
 40
4.902803564993966
 40
4.902803564993966
 40
4.916152427093179
 40
4.916152427093179
 10
-18.37600265023525
 20
53.22680644412857
 30
0.0
 10
-18.4043013043489
 20
53.21007703553637
 30
0.0
  0
SPLINE
  5
8AEB
330
1F
100
AcDbEntity
  8
AM_0
100
AcDbSpline
210
0.0
220
0.0
230
1.0
 70
    24
 71
     1
 72
     4
 73
     2
 74
     0
 42
0.0000000001
 43
0.0000000001
 40
4.889454702894754
 40
4.889454702894754
 40
4.902803564993966
 40
4.902803564993966
 10
-18.34590086481728
 20
53.24571837878945
 30
0.0
 10
-18.37600265023525
 20
53.22680644412857
 30
0.0
  0
SPLINE
  5
8AEC
330
1F
100
AcDbEntity
  8
AM_0
100
AcDbSpline
210
0.0
220
0.0
230
1.0
 70
    24
 71
     1
 72
     4
 73
     2
 74
     0
 42
0.0000000001
 43
0.0000000001
 40
4.87610584079554
 40
4.87610584079554
 40
4.889454702894754
 40
4.889454702894754
 10
-18.31370472879689
 20
53.26733834061413
 30
0.0
 10
-18.34590086481728
 20
53.24571837878945
 30
0.0
  0
SPLINE
  5
8AED
330
1F
100
AcDbEntity
  8
AM_0
100
AcDbSpline
210
0.0
220
0.0
230
1.0
 70
    24
 71
     1
 72
     4
 73
     2
 74
     0
 42
0.0000000001
 43
0.0000000001
 40
4.862756978696328
 40
4.862756978696328
 40
4.87610584079554
 40
4.87610584079554
 10
-18.27910070473035
 20
53.29234268373274
 30
0.0
 10
-18.31370472879689
 20
53.26733834061413
 30
0.0
  0
SPLINE
  5
8AEE
330
1F
100
AcDbEntity
  8
AM_0
100
AcDbSpline
210
0.0
220
0.0
230
1.0
 70
    24
 71
     1
 72
     4
 73
     2
 74
     0
 42
0.0000000001
 43
0.0000000001
 40
4.849408116597115
 40
4.849408116597115
 40
4.862756978696328
 40
4.862756978696328
 10
-18.24176965177321
 20
53.32160504628276
 30
0.0
 10
-18.27910070473035
 20
53.29234268373274
 30
0.0
  0
SPLINE
  5
8AEF
330
1F
100
AcDbEntity
  8
AM_0
100
AcDbSpline
210
0.0
220
0.0
230
1.0
 70
    24
 71
     1
 72
     4
 73
     2
 74
     0
 42
0.0000000001
 43
0.0000000001
 40
4.839518958537114
 40
4.839518958537114
 40
4.849408116597115
 40
4.849408116597115
 10
-18.21218193663867
 20
53.34668232018181
 30
0.0
 10
-18.24176965177321
 20
53.32160504628276
 30
0.0
  0
SPLINE
  5
8AF0
330
1F
100
AcDbEntity
  8
AM_0
100
AcDbSpline
210
0.0
220
0.0
230
1.0
 70
    24
 71
     1
 72
     4
 73
     2
 74
     0
 42
0.0000000001
 43
0.0000000001
 40
4.829629800477114
 40
4.829629800477114
 40
4.839518958537114
 40
4.839518958537114
 10
-18.18084795447009
 20
53.37527901517287
 30
0.0
 10
-18.21218193663867
 20
53.34668232018181
 30
0.0
  0
SPLINE
  5
8AF1
330
1F
100
AcDbEntity
  8
AM_0
100
AcDbSpline
210
0.0
220
0.0
230
1.0
 70
    24
 71
     1
 72
     4
 73
     2
 74
     0
 42
0.0000000001
 43
0.0000000001
 40
4.819740642417114
 40
4.819740642417114
 40
4.829629800477114
 40
4.829629800477114
 10
-18.14773056650881
 20
53.40807706886768
 30
0.0
 10
-18.18084795447009
 20
53.37527901517287
 30
0.0
  0
SPLINE
  5
8AF2
330
1F
100
AcDbEntity
  8
AM_0
100
AcDbSpline
210
0.0
220
0.0
230
1.0
 70
    24
 71
     1
 72
     4
 73
     2
 74
     0
 42
0.0000000001
 43
0.0000000001
 40
4.809851484357113
 40
4.809851484357113
 40
4.819740642417114
 40
4.819740642417114
 10
-18.1128797790451
 20
53.44588301522318
 30
0.0
 10
-18.14773056650881
 20
53.40807706886768
 30
0.0
  0
SPLINE
  5
8AF3
330
1F
100
AcDbEntity
  8
AM_0
100
AcDbSpline
210
0.0
220
0.0
230
1.0
 70
    24
 71
     1
 72
     4
 73
     2
 74
     0
 42
0.0000000001
 43
0.0000000001
 40
4.799962326297112
 40
4.799962326297112
 40
4.809851484357113
 40
4.809851484357113
 10
-18.0764837558487
 20
53.48963179194562
 30
0.0
 10
-18.1128797790451
 20
53.44588301522318
 30
0.0
  0
SPLINE
  5
8AF4
330
1F
100
AcDbEntity
  8
AM_0
100
AcDbSpline
210
0.0
220
0.0
230
1.0
 70
    24
 71
     1
 72
     4
 73
     2
 74
     0
 42
0.0000000001
 43
0.0000000001
 40
1.564958103734068
 40
1.564958103734068
 40
1.570796326794896
 40
1.570796326794896
 10
-17.27748485247718
 20
54.92037611539076
 30
0.0
 10
-17.28355976234627
 20
54.9886555639073
 30
0.0
  0
SPLINE
  5
8AF5
330
1F
100
AcDbEntity
  8
AM_0
100
AcDbSpline
210
0.0
220
0.0
230
1.0
 70
    24
 71
     1
 72
     4
 73
     2
 74
     0
 42
0.0000000001
 43
0.0000000001
 40
1.55911988067324
 40
1.55911988067324
 40
1.564958103734068
 40
1.564958103734068
 10
-17.27598133189985
 20
54.85242515651852
 30
0.0
 10
-17.27748485247718
 20
54.92037611539076
 30
0.0
  0
SPLINE
  5
8AF6
330
1F
100
AcDbEntity
  8
AM_0
100
AcDbSpline
210
0.0
220
0.0
230
1.0
 70
    24
 71
     1
 72
     4
 73
     2
 74
     0
 42
0.0000000001
 43
0.0000000001
 40
1.553281657612412
 40
1.553281657612412
 40
1.55911988067324
 40
1.55911988067324
 10
-17.27889595814736
 20
54.78565379134763
 30
0.0
 10
-17.27598133189985
 20
54.85242515651852
 30
0.0
  0
SPLINE
  5
8AF7
330
1F
100
AcDbEntity
  8
AM_0
100
AcDbSpline
210
0.0
220
0.0
230
1.0
 70
    24
 71
     1
 72
     4
 73
     2
 74
     0
 42
0.0000000001
 43
0.0000000001
 40
1.547443434551584
 40
1.547443434551584
 40
1.553281657612412
 40
1.553281657612412
 10
-17.28592288091056
 20
54.72082513950365
 30
0.0
 10
-17.27889595814736
 20
54.78565379134763
 30
0.0
  0
SPLINE
  5
8AF8
330
1F
100
AcDbEntity
  8
AM_0
100
AcDbSpline
210
0.0
220
0.0
230
1.0
 70
    24
 71
     1
 72
     4
 73
     2
 74
     0
 42
0.0000000001
 43
0.0000000001
 40
1.541605211490757
 40
1.541605211490757
 40
1.547443434551584
 40
1.547443434551584
 10
-17.2966377072571
 20
54.65857576968433
 30
0.0
 10
-17.28592288091056
 20
54.72082513950365
 30
0.0
  0
SPLINE
  5
8AF9
330
1F
100
AcDbEntity
  8
AM_0
100
AcDbSpline
210
0.0
220
0.0
230
1.0
 70
    24
 71
     1
 72
     4
 73
     2
 74
     0
 42
0.0000000001
 43
0.0000000001
 40
1.535766988429929
 40
1.535766988429929
 40
1.541605211490757
 40
1.541605211490757
 10
-17.31053864898865
 20
54.5993938311217
 30
0.0
 10
-17.2966377072571
 20
54.65857576968433
 30
0.0
  0
SPLINE
  5
8AFA
330
1F
100
AcDbEntity
  8
AM_0
100
AcDbSpline
210
0.0
220
0.0
230
1.0
 70
    24
 71
     1
 72
     4
 73
     2
 74
     0
 42
0.0000000001
 43
0.0000000001
 40
1.529928765369101
 40
1.529928765369101
 40
1.535766988429929
 40
1.535766988429929
 10
-17.32708806555376
 20
54.54361392666836
 30
0.0
 10
-17.31053864898865
 20
54.5993938311217
 30
0.0
  0
SPLINE
  5
8AFB
330
1F
100
AcDbEntity
  8
AM_0
100
AcDbSpline
210
0.0
220
0.0
230
1.0
 70
    24
 71
     1
 72
     4
 73
     2
 74
     0
 42
0.0000000001
 43
0.0000000001
 40
1.524090542308273
 40
1.524090542308273
 40
1.529928765369101
 40
1.529928765369101
 10
-17.34574906321506
 20
54.4914259355295
 30
0.0
 10
-17.32708806555376
 20
54.54361392666836
 30
0.0
  0
SPLINE
  5
8AFC
330
1F
100
AcDbEntity
  8
AM_0
100
AcDbSpline
210
0.0
220
0.0
230
1.0
 70
    24
 71
     1
 72
     4
 73
     2
 74
     0
 42
0.0000000001
 43
0.0000000001
 40
1.518252319247445
 40
1.518252319247445
 40
1.524090542308273
 40
1.524090542308273
 10
-17.36601395039713
 20
54.44289346041706
 30
0.0
 10
-17.34574906321506
 20
54.4914259355295
 30
0.0
  0
SPLINE
  5
8AFD
330
1F
100
AcDbEntity
  8
AM_0
100
AcDbSpline
210
0.0
220
0.0
230
1.0
 70
    24
 71
     1
 72
     4
 73
     2
 74
     0
 42
0.0000000001
 43
0.0000000001
 40
1.509494984656203
 40
1.509494984656203
 40
1.518252319247445
 40
1.518252319247445
 10
-17.39843005275554
 20
54.3768411826036
 30
0.0
 10
-17.36601395039713
 20
54.44289346041706
 30
0.0
  0
SPLINE
  5
8AFE
330
1F
100
AcDbEntity
  8
AM_0
100
AcDbSpline
210
0.0
220
0.0
230
1.0
 70
    24
 71
     1
 72
     4
 73
     2
 74
     0
 42
0.0000000001
 43
0.0000000001
 40
1.500737650064961
 40
1.500737650064961
 40
1.509494984656203
 40
1.509494984656203
 10
-17.43213907759582
 20
54.31847042066074
 30
0.0
 10
-17.39843005275554
 20
54.3768411826036
 30
0.0
  0
SPLINE
  5
8AFF
330
1F
100
AcDbEntity
  8
AM_0
100
AcDbSpline
210
0.0
220
0.0
230
1.0
 70
    24
 71
     1
 72
     4
 73
     2
 74
     0
 42
0.0000000001
 43
0.0000000001
 40
1.491980315473719
 40
1.491980315473719
 40
1.500737650064961
 40
1.500737650064961
 10
-17.46615694643924
 20
54.2671153848104
 30
0.0
 10
-17.43213907759582
 20
54.31847042066074
 30
0.0
  0
SPLINE
  5
8B00
330
1F
100
AcDbEntity
  8
AM_0
100
AcDbSpline
210
0.0
220
0.0
230
1.0
 70
    24
 71
     1
 72
     4
 73
     2
 74
     0
 42
0.0000000001
 43
0.0000000001
 40
1.483222980882478
 40
1.483222980882478
 40
1.491980315473719
 40
1.491980315473719
 10
-17.49978416641886
 20
54.22201157680799
 30
0.0
 10
-17.46615694643924
 20
54.2671153848104
 30
0.0
  0
SPLINE
  5
8B01
330
1F
100
AcDbEntity
  8
AM_0
100
AcDbSpline
210
0.0
220
0.0
230
1.0
 70
    24
 71
     1
 72
     4
 73
     2
 74
     0
 42
0.0000000001
 43
0.0000000001
 40
6.599089967616229
 40
6.599089967616229
 40
6.822136356836402
 40
6.822136356836402
 10
-15.34942679823677
 20
55.65831898868125
 30
0.0
 10
-15.45114568829183
 20
55.61362934867976
 30
0.0
  0
SPLINE
  5
8B02
330
1F
100
AcDbEntity
  8
AM_0
100
AcDbSpline
210
0.0
220
0.0
230
1.0
 70
    24
 71
     1
 72
     4
 73
     2
 74
     0
 42
0.0000000001
 43
0.0000000001
 40
6.376043578396056
 40
6.376043578396056
 40
6.599089967616229
 40
6.599089967616229
 10
-15.24950274799573
 20
55.70750757782697
 30
0.0
 10
-15.34942679823677
 20
55.65831898868125
 30
0.0
  0
SPLINE
  5
8B03
330
1F
100
AcDbEntity
  8
AM_0
100
AcDbSpline
210
0.0
220
0.0
230
1.0
 70
    24
 71
     1
 72
     4
 73
     2
 74
     0
 42
0.0000000001
 43
0.0000000001
 40
6.152997189175883
 40
6.152997189175883
 40
6.376043578396056
 40
6.376043578396056
 10
-15.15112135197364
 20
55.76109915553139
 30
0.0
 10
-15.24950274799573
 20
55.70750757782697
 30
0.0
  0
SPLINE
  5
8B04
330
1F
100
AcDbEntity
  8
AM_0
100
AcDbSpline
210
0.0
220
0.0
230
1.0
 70
    24
 71
     1
 72
     4
 73
     2
 74
     0
 42
0.0000000001
 43
0.0000000001
 40
5.92995079995571
 40
5.92995079995571
 40
6.152997189175883
 40
6.152997189175883
 10
-15.05403042457521
 20
55.81899776120891
 30
0.0
 10
-15.15112135197364
 20
55.76109915553139
 30
0.0
  0
SPLINE
  5
8B05
330
1F
100
AcDbEntity
  8
AM_0
100
AcDbSpline
210
0.0
220
0.0
230
1.0
 70
    24
 71
     1
 72
     4
 73
     2
 74
     0
 42
0.0000000001
 43
0.0000000001
 40
5.706904410735536
 40
5.706904410735536
 40
5.92995079995571
 40
5.92995079995571
 10
-14.95797778020505
 20
55.88110743427399
 30
0.0
 10
-15.05403042457521
 20
55.81899776120891
 30
0.0
  0
SPLINE
  5
8B06
330
1F
100
AcDbEntity
  8
AM_0
100
AcDbSpline
210
0.0
220
0.0
230
1.0
 70
    24
 71
     1
 72
     4
 73
     2
 74
     0
 42
0.0000000001
 43
0.0000000001
 40
5.483858021515363
 40
5.483858021515363
 40
5.706904410735536
 40
5.706904410735536
 10
-14.86271123326798
 20
55.94733221414095
 30
0.0
 10
-14.95797778020505
 20
55.88110743427399
 30
0.0
  0
SPLINE
  5
8B07
330
1F
100
AcDbEntity
  8
AM_0
100
AcDbSpline
210
0.0
220
0.0
230
1.0
 70
    24
 71
     1
 72
     4
 73
     2
 74
     0
 42
0.0000000001
 43
0.0000000001
 40
5.26081163229519
 40
5.26081163229519
 40
5.483858021515363
 40
5.483858021515363
 10
-14.76797859816883
 20
56.01757614022422
 30
0.0
 10
-14.86271123326798
 20
55.94733221414095
 30
0.0
  0
SPLINE
  5
8B08
330
1F
100
AcDbEntity
  8
AM_0
100
AcDbSpline
210
0.0
220
0.0
230
1.0
 70
    24
 71
     1
 72
     4
 73
     2
 74
     0
 42
0.0000000001
 43
0.0000000001
 40
5.037765243075017
 40
5.037765243075017
 40
5.26081163229519
 40
5.26081163229519
 10
-14.67352768931232
 20
56.09174325193818
 30
0.0
 10
-14.76797859816883
 20
56.01757614022422
 30
0.0
  0
SPLINE
  5
8B09
330
1F
100
AcDbEntity
  8
AM_0
100
AcDbSpline
210
0.0
220
0.0
230
1.0
 70
    24
 71
     1
 72
     4
 73
     2
 74
     0
 42
0.0000000001
 43
0.0000000001
 40
4.842836431451619
 40
4.842836431451619
 40
5.037765243075017
 40
5.037765243075017
 10
-14.59091747147499
 20
56.15987638064338
 30
0.0
 10
-14.67352768931232
 20
56.09174325193818
 30
0.0
  0
SPLINE
  5
8B0A
330
1F
100
AcDbEntity
  8
AM_0
100
AcDbSpline
210
0.0
220
0.0
230
1.0
 70
    24
 71
     1
 72
     4
 73
     2
 74
     0
 42
0.0000000001
 43
0.0000000001
 40
4.647907619828221
 40
4.647907619828221
 40
4.842836431451619
 40
4.842836431451619
 10
-14.50805883259079
 20
56.23126707732355
 30
0.0
 10
-14.59091747147499
 20
56.15987638064338
 30
0.0
  0
SPLINE
  5
8B0B
330
1F
100
AcDbEntity
  8
AM_0
100
AcDbSpline
210
0.0
220
0.0
230
1.0
 70
    24
 71
     1
 72
     4
 73
     2
 74
     0
 42
0.0000000001
 43
0.0000000001
 40
4.452978808204823
 40
4.452978808204823
 40
4.647907619828221
 40
4.647907619828221
 10
-14.42492587948606
 20
56.3059138461456
 30
0.0
 10
-14.50805883259079
 20
56.23126707732355
 30
0.0
  0
SPLINE
  5
8B0C
330
1F
100
AcDbEntity
  8
AM_0
100
AcDbSpline
210
0.0
220
0.0
230
1.0
 70
    24
 71
     1
 72
     4
 73
     2
 74
     0
 42
0.0000000001
 43
0.0000000001
 40
4.258049996581426
 40
4.258049996581426
 40
4.452978808204823
 40
4.452978808204823
 10
-14.34149271898763
 20
56.38381519127638
 30
0.0
 10
-14.42492587948606
 20
56.3059138461456
 30
0.0
  0
SPLINE
  5
8B0D
330
1F
100
AcDbEntity
  8
AM_0
100
AcDbSpline
210
0.0
220
0.0
230
1.0
 70
    24
 71
     1
 72
     4
 73
     2
 74
     0
 42
0.0000000001
 43
0.0000000001
 40
4.063121184958029
 40
4.063121184958029
 40
4.258049996581426
 40
4.258049996581426
 10
-14.25773345792208
 20
56.46496961688275
 30
0.0
 10
-14.34149271898763
 20
56.38381519127638
 30
0.0
  0
SPLINE
  5
8B0E
330
1F
100
AcDbEntity
  8
AM_0
100
AcDbSpline
210
0.0
220
0.0
230
1.0
 70
    24
 71
     1
 72
     4
 73
     2
 74
     0
 42
0.0000000001
 43
0.0000000001
 40
3.868192373334631
 40
3.868192373334631
 40
4.063121184958029
 40
4.063121184958029
 10
-14.17362220311599
 20
56.54937562713179
 30
0.0
 10
-14.25773345792208
 20
56.46496961688275
 30
0.0
  0
SPLINE
  5
8B0F
330
1F
100
AcDbEntity
  8
AM_0
100
AcDbSpline
210
0.0
220
0.0
230
1.0
 70
    24
 71
     1
 72
     4
 73
     2
 74
     0
 42
0.0000000001
 43
0.0000000001
 40
3.673263561711233
 40
3.673263561711233
 40
3.868192373334631
 40
3.868192373334631
 10
-14.08913306139618
 20
56.63703172619024
 30
0.0
 10
-14.17362220311599
 20
56.54937562713179
 30
0.0
  0
SPLINE
  5
8B10
330
1F
100
AcDbEntity
  8
AM_0
100
AcDbSpline
210
0.0
220
0.0
230
1.0
 70
    24
 71
     1
 72
     4
 73
     2
 74
     0
 42
0.0000000001
 43
0.0000000001
 40
3.478334750087835
 40
3.478334750087835
 40
3.673263561711233
 40
3.673263561711233
 10
-14.004240139589
 20
56.72793641822507
 30
0.0
 10
-14.08913306139618
 20
56.63703172619024
 30
0.0
  0
SPLINE
  5
8B11
330
1F
100
AcDbEntity
  8
AM_0
100
AcDbSpline
210
0.0
220
0.0
230
1.0
 70
    24
 71
     1
 72
     4
 73
     2
 74
     0
 42
0.0000000001
 43
0.0000000001
 40
3.283405938464437
 40
3.283405938464437
 40
3.478334750087835
 40
3.478334750087835
 10
-13.91891754452115
 20
56.82208820740313
 30
0.0
 10
-14.004240139589
 20
56.72793641822507
 30
0.0
  0
SPLINE
  5
8B12
330
1F
100
AcDbEntity
  8
AM_0
100
AcDbSpline
210
0.0
220
0.0
230
1.0
 70
    24
 71
     1
 72
     4
 73
     2
 74
     0
 42
0.0000000001
 43
0.0000000001
 40
3.08847712684104
 40
3.08847712684104
 40
3.283405938464437
 40
3.283405938464437
 10
-13.83313938301955
 20
56.91948559789143
 30
0.0
 10
-13.91891754452115
 20
56.82208820740313
 30
0.0
  0
SPLINE
  5
8B13
330
1F
100
AcDbEntity
  8
AM_0
100
AcDbSpline
210
0.0
220
0.0
230
1.0
 70
    24
 71
     1
 72
     4
 73
     2
 74
     0
 42
0.0000000001
 43
0.0000000001
 40
2.893548315217642
 40
2.893548315217642
 40
3.08847712684104
 40
3.08847712684104
 10
-13.74687976191057
 20
57.0201270938568
 30
0.0
 10
-13.83313938301955
 20
56.91948559789143
 30
0.0
  0
SPLINE
  5
8B14
330
1F
100
AcDbEntity
  8
AM_0
100
AcDbSpline
210
0.0
220
0.0
230
1.0
 70
    24
 71
     1
 72
     4
 73
     2
 74
     0
 42
0.0000000001
 43
0.0000000001
 40
2.698619503594244
 40
2.698619503594244
 40
2.893548315217642
 40
2.893548315217642
 10
-13.66011278802091
 20
57.12401119946618
 30
0.0
 10
-13.74687976191057
 20
57.0201270938568
 30
0.0
  0
SPLINE
  5
8B15
330
1F
100
AcDbEntity
  8
AM_0
100
AcDbSpline
210
0.0
220
0.0
230
1.0
 70
    24
 71
     1
 72
     4
 73
     2
 74
     0
 42
0.0000000001
 43
0.0000000001
 40
2.503690691970847
 40
2.503690691970847
 40
2.698619503594244
 40
2.698619503594244
 10
-13.57281256817725
 20
57.23113641888644
 30
0.0
 10
-13.66011278802091
 20
57.12401119946618
 30
0.0
  0
SPLINE
  5
8B16
330
1F
100
AcDbEntity
  8
AM_0
100
AcDbSpline
210
0.0
220
0.0
230
1.0
 70
    24
 71
     1
 72
     4
 73
     2
 74
     0
 42
0.0000000001
 43
0.0000000001
 40
2.311099100280781
 40
2.311099100280781
 40
2.503690691970847
 40
2.503690691970847
 10
-13.48592174230566
 20
57.34033610834213
 30
0.0
 10
-13.57281256817725
 20
57.23113641888644
 30
0.0
  0
SPLINE
  5
8B17
330
1F
100
AcDbEntity
  8
AM_0
100
AcDbSpline
210
0.0
220
0.0
230
1.0
 70
    24
 71
     1
 72
     4
 73
     2
 74
     0
 42
0.0000000001
 43
0.0000000001
 40
2.118507508590716
 40
2.118507508590716
 40
2.311099100280781
 40
2.311099100280781
 10
-13.39834257973052
 20
57.45298807553566
 30
0.0
 10
-13.48592174230566
 20
57.34033610834213
 30
0.0
  0
SPLINE
  5
8B18
330
1F
100
AcDbEntity
  8
AM_0
100
AcDbSpline
210
0.0
220
0.0
230
1.0
 70
    24
 71
     1
 72
     4
 73
     2
 74
     0
 42
0.0000000001
 43
0.0000000001
 40
1.925915916900651
 40
1.925915916900651
 40
2.118507508590716
 40
2.118507508590716
 10
-13.31013875281939
 20
57.56899589491145
 30
0.0
 10
-13.39834257973052
 20
57.45298807553566
 30
0.0
  0
SPLINE
  5
8B19
330
1F
100
AcDbEntity
  8
AM_0
100
AcDbSpline
210
0.0
220
0.0
230
1.0
 70
    24
 71
     1
 72
     4
 73
     2
 74
     0
 42
0.0000000001
 43
0.0000000001
 40
1.733324325210586
 40
1.733324325210586
 40
1.925915916900651
 40
1.925915916900651
 10
-13.22137393394007
 20
57.68826314091389
 30
0.0
 10
-13.31013875281939
 20
57.56899589491145
 30
0.0
  0
SPLINE
  5
8B1A
330
1F
100
AcDbEntity
  8
AM_0
100
AcDbSpline
210
0.0
220
0.0
230
1.0
 70
    24
 71
     1
 72
     4
 73
     2
 74
     0
 42
0.0000000001
 43
0.0000000001
 40
1.540732733520521
 40
1.540732733520521
 40
1.733324325210586
 40
1.733324325210586
 10
-13.13211179546021
 20
57.8106933879874
 30
0.0
 10
-13.22137393394007
 20
57.68826314091389
 30
0.0
  0
SPLINE
  5
8B1B
330
1F
100
AcDbEntity
  8
AM_0
100
AcDbSpline
210
0.0
220
0.0
230
1.0
 70
    24
 71
     1
 72
     4
 73
     2
 74
     0
 42
0.0000000001
 43
0.0000000001
 40
1.348141141830456
 40
1.348141141830456
 40
1.540732733520521
 40
1.540732733520521
 10
-13.04241600974774
 20
57.93619021057647
 30
0.0
 10
-13.13211179546021
 20
57.8106933879874
 30
0.0
  0
SPLINE
  5
8B1C
330
1F
100
AcDbEntity
  8
AM_0
100
AcDbSpline
210
0.0
220
0.0
230
1.0
 70
    24
 71
     1
 72
     4
 73
     2
 74
     0
 42
0.0000000001
 43
0.0000000001
 40
1.15554955014039
 40
1.15554955014039
 40
1.348141141830456
 40
1.348141141830456
 10
-12.95235024917031
 20
58.06465718312548
 30
0.0
 10
-13.04241600974774
 20
57.93619021057647
 30
0.0
  0
SPLINE
  5
8B1D
330
1F
100
AcDbEntity
  8
AM_0
100
AcDbSpline
210
0.0
220
0.0
230
1.0
 70
    24
 71
     1
 72
     4
 73
     2
 74
     0
 42
0.0000000001
 43
0.0000000001
 40
0.9629579584503257
 40
0.9629579584503257
 40
1.15554955014039
 40
1.15554955014039
 10
-12.86197818609582
 20
58.19599788007884
 30
0.0
 10
-12.95235024917031
 20
58.06465718312548
 30
0.0
  0
SPLINE
  5
8B1E
330
1F
100
AcDbEntity
  8
AM_0
100
AcDbSpline
210
0.0
220
0.0
230
1.0
 70
    24
 71
     1
 72
     4
 73
     2
 74
     0
 42
0.0000000001
 43
0.0000000001
 40
0.7703663667602607
 40
0.7703663667602607
 40
0.9629579584503257
 40
0.9629579584503257
 10
-12.77136349289173
 20
58.33011587588102
 30
0.0
 10
-12.86197818609582
 20
58.19599788007884
 30
0.0
  0
SPLINE
  5
8B1F
330
1F
100
AcDbEntity
  8
AM_0
100
AcDbSpline
210
0.0
220
0.0
230
1.0
 70
    24
 71
     1
 72
     4
 73
     2
 74
     0
 42
0.0000000001
 43
0.0000000001
 40
0.5777747750701955
 40
0.5777747750701955
 40
0.7703663667602607
 40
0.7703663667602607
 10
-12.68056984192605
 20
58.46691474497636
 30
0.0
 10
-12.77136349289173
 20
58.33011587588102
 30
0.0
  0
SPLINE
  5
8B20
330
1F
100
AcDbEntity
  8
AM_0
100
AcDbSpline
210
0.0
220
0.0
230
1.0
 70
    24
 71
     1
 72
     4
 73
     2
 74
     0
 42
0.0000000001
 43
0.0000000001
 40
0.3851831833801303
 40
0.3851831833801303
 40
0.5777747750701955
 40
0.5777747750701955
 10
-12.58966090556657
 20
58.60629806180942
 30
0.0
 10
-12.68056984192605
 20
58.46691474497636
 30
0.0
  0
SPLINE
  5
8B21
330
1F
100
AcDbEntity
  8
AM_0
100
AcDbSpline
210
0.0
220
0.0
230
1.0
 70
    24
 71
     1
 72
     4
 73
     2
 74
     0
 42
0.0000000001
 43
0.0000000001
 40
0.1925915916900652
 40
0.1925915916900652
 40
0.3851831833801303
 40
0.3851831833801303
 10
-12.49870035618084
 20
58.74816940082452
 30
0.0
 10
-12.58966090556657
 20
58.60629806180942
 30
0.0
  0
SPLINE
  5
8B22
330
1F
100
AcDbEntity
  8
AM_0
100
AcDbSpline
210
0.0
220
0.0
230
1.0
 70
    24
 71
     1
 72
     4
 73
     2
 74
     0
 42
0.0000000001
 43
0.0000000001
 40
0.0
 40
0.0
 40
0.1925915916900652
 40
0.1925915916900652
 10
-12.40775186613677
 20
58.89243233646614
 30
0.0
 10
-12.49870035618084
 20
58.74816940082452
 30
0.0
  0
SPLINE
  5
8B23
330
1F
100
AcDbEntity
  8
AM_0
100
AcDbSpline
210
0.0
220
0.0
230
1.0
 70
    24
 71
     1
 72
     4
 73
     2
 74
     0
 42
0.0000000001
 43
0.0000000001
 40
4.791204991705867
 40
4.791204991705867
 40
4.799962326297109
 40
4.799962326297109
 10
-25.36842725344456
 20
53.29668429528233
 30
0.0
 10
-25.32488593620269
 20
53.26105709903119
 30
0.0
  0
SPLINE
  5
8B24
330
1F
100
AcDbEntity
  8
AM_0
100
AcDbSpline
210
0.0
220
0.0
230
1.0
 70
    24
 71
     1
 72
     4
 73
     2
 74
     0
 42
0.0000000001
 43
0.0000000001
 40
4.782447657114625
 40
4.782447657114625
 40
4.791204991705867
 40
4.791204991705867
 10
-25.41386015421597
 20
53.33828245191627
 30
0.0
 10
-25.36842725344456
 20
53.29668429528233
 30
0.0
  0
SPLINE
  5
8B25
330
1F
100
AcDbEntity
  8
AM_0
100
AcDbSpline
210
0.0
220
0.0
230
1.0
 70
    24
 71
     1
 72
     4
 73
     2
 74
     0
 42
0.0000000001
 43
0.0000000001
 40
4.776609434053797
 40
4.776609434053797
 40
4.782447657114625
 40
4.782447657114625
 10
-25.44496742511967
 20
53.36978165911417
 30
0.0
 10
-25.41386015421597
 20
53.33828245191627
 30
0.0
  0
SPLINE
  5
8B26
330
1F
100
AcDbEntity
  8
AM_0
100
AcDbSpline
210
0.0
220
0.0
230
1.0
 70
    24
 71
     1
 72
     4
 73
     2
 74
     0
 42
0.0000000001
 43
0.0000000001
 40
4.770771210992969
 40
4.770771210992969
 40
4.776609434053797
 40
4.776609434053797
 10
-25.47648450228382
 20
53.40460759117885
 30
0.0
 10
-25.44496742511967
 20
53.36978165911417
 30
0.0
  0
SPLINE
  5
8B27
330
1F
100
AcDbEntity
  8
AM_0
100
AcDbSpline
210
0.0
220
0.0
230
1.0
 70
    24
 71
     1
 72
     4
 73
     2
 74
     0
 42
0.0000000001
 43
0.0000000001
 40
4.764932987932141
 40
4.764932987932141
 40
4.770771210992969
 40
4.770771210992969
 10
-25.50812576926455
 20
53.4430088530229
 30
0.0
 10
-25.47648450228382
 20
53.40460759117885
 30
0.0
  0
SPLINE
  5
8B28
330
1F
100
AcDbEntity
  8
AM_0
100
AcDbSpline
210
0.0
220
0.0
230
1.0
 70
    24
 71
     1
 72
     4
 73
     2
 74
     0
 42
0.0000000001
 43
0.0000000001
 40
4.759094764871313
 40
4.759094764871313
 40
4.764932987932141
 40
4.764932987932141
 10
-25.53953139411067
 20
53.48519597808582
 30
0.0
 10
-25.50812576926455
 20
53.4430088530229
 30
0.0
  0
SPLINE
  5
8B29
330
1F
100
AcDbEntity
  8
AM_0
100
AcDbSpline
210
0.0
220
0.0
230
1.0
 70
    24
 71
     1
 72
     4
 73
     2
 74
     0
 42
0.0000000001
 43
0.0000000001
 40
4.753256541810485
 40
4.753256541810485
 40
4.759094764871313
 40
4.759094764871313
 10
-25.57026527256096
 20
53.53131807656599
 30
0.0
 10
-25.53953139411067
 20
53.48519597808582
 30
0.0
  0
SPLINE
  5
8B2A
330
1F
100
AcDbEntity
  8
AM_0
100
AcDbSpline
210
0.0
220
0.0
230
1.0
 70
    24
 71
     1
 72
     4
 73
     2
 74
     0
 42
0.0000000001
 43
0.0000000001
 40
4.747418318749657
 40
4.747418318749657
 40
4.753256541810485
 40
4.753256541810485
 10
-25.59981940911291
 20
53.58143627627574
 30
0.0
 10
-25.57026527256096
 20
53.53131807656599
 30
0.0
  0
SPLINE
  5
8B2B
330
1F
100
AcDbEntity
  8
AM_0
100
AcDbSpline
210
0.0
220
0.0
230
1.0
 70
    24
 71
     1
 72
     4
 73
     2
 74
     0
 42
0.0000000001
 43
0.0000000001
 40
4.741580095688829
 40
4.741580095688829
 40
4.747418318749657
 40
4.747418318749657
 10
-25.62762692003934
 20
53.63549624639343
 30
0.0
 10
-25.59981940911291
 20
53.58143627627574
 30
0.0
  0
SPLINE
  5
8B2C
330
1F
100
AcDbEntity
  8
AM_0
100
AcDbSpline
210
0.0
220
0.0
230
1.0
 70
    24
 71
     1
 72
     4
 73
     2
 74
     0
 42
0.0000000001
 43
0.0000000001
 40
4.735741872628001
 40
4.735741872628001
 40
4.741580095688829
 40
4.741580095688829
 10
-25.65308517976848
 20
53.69330341340675
 30
0.0
 10
-25.62762692003934
 20
53.63549624639343
 30
0.0
  0
SPLINE
  5
8B2D
330
1F
100
AcDbEntity
  8
AM_0
100
AcDbSpline
210
0.0
220
0.0
230
1.0
 70
    24
 71
     1
 72
     4
 73
     2
 74
     0
 42
0.0000000001
 43
0.0000000001
 40
4.729903649567173
 40
4.729903649567173
 40
4.735741872628001
 40
4.735741872628001
 10
-25.6755891978172
 20
53.75450554502887
 30
0.0
 10
-25.65308517976848
 20
53.69330341340675
 30
0.0
  0
SPLINE
  5
8B2E
330
1F
100
AcDbEntity
  8
AM_0
100
AcDbSpline
210
0.0
220
0.0
230
1.0
 70
    24
 71
     1
 72
     4
 73
     2
 74
     0
 42
0.0000000001
 43
0.0000000001
 40
4.724065426506345
 40
4.724065426506345
 40
4.729903649567173
 40
4.729903649567173
 10
-25.69457316781859
 20
53.81858767308286
 30
0.0
 10
-25.6755891978172
 20
53.75450554502887
 30
0.0
  0
SPLINE
  5
8B2F
330
1F
100
AcDbEntity
  8
AM_0
100
AcDbSpline
210
0.0
220
0.0
230
1.0
 70
    24
 71
     1
 72
     4
 73
     2
 74
     0
 42
0.0000000001
 43
0.0000000001
 40
4.718227203445517
 40
4.718227203445517
 40
4.724065426506345
 40
4.724065426506345
 10
-25.70955568353872
 20
53.88488335626426
 30
0.0
 10
-25.69457316781859
 20
53.81858767308286
 30
0.0
  0
SPLINE
  5
8B30
330
1F
100
AcDbEntity
  8
AM_0
100
AcDbSpline
210
0.0
220
0.0
230
1.0
 70
    24
 71
     1
 72
     4
 73
     2
 74
     0
 42
0.0000000001
 43
0.0000000001
 40
4.712388980384689
 40
4.712388980384689
 40
4.718227203445517
 40
4.718227203445517
 10
-25.72018212341561
 20
53.95260385829409
 30
0.0
 10
-25.70955568353872
 20
53.88488335626426
 30
0.0
  0
SPLINE
  5
8B31
330
1F
100
AcDbEntity
  8
AM_0
100
AcDbSpline
210
0.0
220
0.0
230
1.0
 70
    24
 71
     1
 72
     4
 73
     2
 74
     0
 42
0.0000000001
 43
0.0000000001
 40
3.726092535316271
 40
3.726092535316271
 40
3.758662483949167
 40
3.758662483949167
 10
-23.86649829612986
 20
-15.28515877227219
 30
0.0
 10
-23.97959879703341
 20
-15.36352527248094
 30
0.0
  0
SPLINE
  5
8B32
330
1F
100
AcDbEntity
  8
AM_0
100
AcDbSpline
210
0.0
220
0.0
230
1.0
 70
    24
 71
     1
 72
     4
 73
     2
 74
     0
 42
0.0000000001
 43
0.0000000001
 40
3.693522586683374
 40
3.693522586683374
 40
3.726092535316271
 40
3.726092535316271
 10
-23.75087751024171
 20
-15.21055901295754
 30
0.0
 10
-23.86649829612986
 20
-15.28515877227219
 30
0.0
  0
SPLINE
  5
8B33
330
1F
100
AcDbEntity
  8
AM_0
100
AcDbSpline
210
0.0
220
0.0
230
1.0
 70
    24
 71
     1
 72
     4
 73
     2
 74
     0
 42
0.0000000001
 43
0.0000000001
 40
3.660952638050478
 40
3.660952638050478
 40
3.693522586683374
 40
3.693522586683374
 10
-23.63286120670068
 20
-15.13980621497863
 30
0.0
 10
-23.75087751024171
 20
-15.21055901295754
 30
0.0
  0
SPLINE
  5
8B34
330
1F
100
AcDbEntity
  8
AM_0
100
AcDbSpline
210
0.0
220
0.0
230
1.0
 70
    24
 71
     1
 72
     4
 73
     2
 74
     0
 42
0.0000000001
 43
0.0000000001
 40
3.628382689417581
 40
3.628382689417581
 40
3.660952638050478
 40
3.660952638050478
 10
-23.51257679049604
 20
-15.07297630278883
 30
0.0
 10
-23.63286120670068
 20
-15.13980621497863
 30
0.0
  0
SPLINE
  5
8B35
330
1F
100
AcDbEntity
  8
AM_0
100
AcDbSpline
210
0.0
220
0.0
230
1.0
 70
    24
 71
     1
 72
     4
 73
     2
 74
     0
 42
0.0000000001
 43
0.0000000001
 40
3.595812740784685
 40
3.595812740784685
 40
3.628382689417581
 40
3.628382689417581
 10
-23.39015414707262
 20
-15.01014081577845
 30
0.0
 10
-23.51257679049604
 20
-15.07297630278883
 30
0.0
  0
SPLINE
  5
8B36
330
1F
100
AcDbEntity
  8
AM_0
100
AcDbSpline
210
0.0
220
0.0
230
1.0
 70
    24
 71
     1
 72
     4
 73
     2
 74
     0
 42
0.0000000001
 43
0.0000000001
 40
3.563242792151789
 40
3.563242792151789
 40
3.595812740784685
 40
3.595812740784685
 10
-23.26572548176761
 20
-14.95136682612944
 30
0.0
 10
-23.39015414707262
 20
-15.01014081577845
 30
0.0
  0
SPLINE
  5
8B37
330
1F
100
AcDbEntity
  8
AM_0
100
AcDbSpline
210
0.0
220
0.0
230
1.0
 70
    24
 71
     1
 72
     4
 73
     2
 74
     0
 42
0.0000000001
 43
0.0000000001
 40
3.530672843518892
 40
3.530672843518892
 40
3.563242792151789
 40
3.563242792151789
 10
-23.13942515629753
 20
-14.89671686374673
 30
0.0
 10
-23.26572548176761
 20
-14.95136682612944
 30
0.0
  0
SPLINE
  5
8B38
330
1F
100
AcDbEntity
  8
AM_0
100
AcDbSpline
210
0.0
220
0.0
230
1.0
 70
    24
 71
     1
 72
     4
 73
     2
 74
     0
 42
0.0000000001
 43
0.0000000001
 40
3.498102894885996
 40
3.498102894885996
 40
3.530672843518892
 40
3.530672843518892
 10
-23.01138952271526
 20
-14.8462488483821
 30
0.0
 10
-23.13942515629753
 20
-14.89671686374673
 30
0.0
  0
SPLINE
  5
8B39
330
1F
100
AcDbEntity
  8
AM_0
100
AcDbSpline
210
0.0
220
0.0
230
1.0
 70
    24
 71
     1
 72
     4
 73
     2
 74
     0
 42
0.0000000001
 43
0.0000000001
 40
3.466161157278786
 40
3.466161157278786
 40
3.498102894885996
 40
3.498102894885996
 10
-22.88427135449626
 20
-14.80086740316164
 30
0.0
 10
-23.01138952271526
 20
-14.8462488483821
 30
0.0
  0
SPLINE
  5
8B3A
330
1F
100
AcDbEntity
  8
AM_0
100
AcDbSpline
210
0.0
220
0.0
230
1.0
 70
    24
 71
     1
 72
     4
 73
     2
 74
     0
 42
0.0000000001
 43
0.0000000001
 40
3.434219419671576
 40
3.434219419671576
 40
3.466161157278786
 40
3.466161157278786
 10
-22.75574894158432
 20
-14.75960518093023
 30
0.0
 10
-22.88427135449626
 20
-14.80086740316164
 30
0.0
  0
SPLINE
  5
8B3B
330
1F
100
AcDbEntity
  8
AM_0
100
AcDbSpline
210
0.0
220
0.0
230
1.0
 70
    24
 71
     1
 72
     4
 73
     2
 74
     0
 42
0.0000000001
 43
0.0000000001
 40
3.402277682064365
 40
3.402277682064365
 40
3.434219419671576
 40
3.434219419671576
 10
-22.62595553448409
 20
-14.72250358419887
 30
0.0
 10
-22.75574894158432
 20
-14.75960518093023
 30
0.0
  0
SPLINE
  5
8B3C
330
1F
100
AcDbEntity
  8
AM_0
100
AcDbSpline
210
0.0
220
0.0
230
1.0
 70
    24
 71
     1
 72
     4
 73
     2
 74
     0
 42
0.0000000001
 43
0.0000000001
 40
3.370335944457155
 40
3.370335944457155
 40
3.402277682064365
 40
3.402277682064365
 10
-22.4950256010253
 20
-14.68959956843696
 30
0.0
 10
-22.62595553448409
 20
-14.72250358419887
 30
0.0
  0
SPLINE
  5
8B3D
330
1F
100
AcDbEntity
  8
AM_0
100
AcDbSpline
210
0.0
220
0.0
230
1.0
 70
    24
 71
     1
 72
     4
 73
     2
 74
     0
 42
0.0000000001
 43
0.0000000001
 40
3.338394206849944
 40
3.338394206849944
 40
3.370335944457155
 40
3.370335944457155
 10
-22.36309466998034
 20
-14.66092561327729
 30
0.0
 10
-22.4950256010253
 20
-14.68959956843696
 30
0.0
  0
SPLINE
  5
8B3E
330
1F
100
AcDbEntity
  8
AM_0
100
AcDbSpline
210
0.0
220
0.0
230
1.0
 70
    24
 71
     1
 72
     4
 73
     2
 74
     0
 42
0.0000000001
 43
0.0000000001
 40
3.306452469242734
 40
3.306452469242734
 40
3.338394206849944
 40
3.338394206849944
 10
-22.23029917461917
 20
-14.6365097001094
 30
0.0
 10
-22.36309466998034
 20
-14.66092561327729
 30
0.0
  0
SPLINE
  5
8B3F
330
1F
100
AcDbEntity
  8
AM_0
100
AcDbSpline
210
0.0
220
0.0
230
1.0
 70
    24
 71
     1
 72
     4
 73
     2
 74
     0
 42
0.0000000001
 43
0.0000000001
 40
3.274510731635523
 40
3.274510731635523
 40
3.306452469242734
 40
3.306452469242734
 10
-22.09677629653572
 20
-14.61637529596657
 30
0.0
 10
-22.23029917461917
 20
-14.6365097001094
 30
0.0
  0
SPLINE
  5
8B40
330
1F
100
AcDbEntity
  8
AM_0
100
AcDbSpline
210
0.0
220
0.0
230
1.0
 70
    24
 71
     1
 72
     4
 73
     2
 74
     0
 42
0.0000000001
 43
0.0000000001
 40
3.242568994028313
 40
3.242568994028313
 40
3.274510731635523
 40
3.274510731635523
 10
-21.96266381006068
 20
-14.60054134358875
 30
0.0
 10
-22.09677629653572
 20
-14.61637529596657
 30
0.0
  0
SPLINE
  5
8B41
330
1F
100
AcDbEntity
  8
AM_0
100
AcDbSpline
210
0.0
220
0.0
230
1.0
 70
    24
 71
     1
 72
     4
 73
     2
 74
     0
 42
0.0000000001
 43
0.0000000001
 40
3.210627256421102
 40
3.210627256421102
 40
3.242568994028313
 40
3.242568994028313
 10
-21.82809992756495
 20
-14.58902225752257
 30
0.0
 10
-21.96266381006068
 20
-14.60054134358875
 30
0.0
  0
SPLINE
  5
8B42
330
1F
100
AcDbEntity
  8
AM_0
100
AcDbSpline
210
0.0
220
0.0
230
1.0
 70
    24
 71
     1
 72
     4
 73
     2
 74
     0
 42
0.0000000001
 43
0.0000000001
 40
3.178685518813892
 40
3.178685518813892
 40
3.210627256421102
 40
3.210627256421102
 10
-21.69322314593489
 20
-14.58182792610205
 30
0.0
 10
-21.82809992756495
 20
-14.58902225752257
 30
0.0
  0
SPLINE
  5
8B43
330
1F
100
AcDbEntity
  8
AM_0
100
AcDbSpline
210
0.0
220
0.0
230
1.0
 70
    24
 71
     1
 72
     4
 73
     2
 74
     0
 42
0.0000000001
 43
0.0000000001
 40
3.146649575296981
 40
3.146649575296981
 40
3.178685518813892
 40
3.178685518813892
 10
-21.55777366696918
 20
-14.57896167793711
 30
0.0
 10
-21.69322314593489
 20
-14.58182792610205
 30
0.0
  0
SPLINE
  5
8B44
330
1F
100
AcDbEntity
  8
AM_0
100
AcDbSpline
210
0.0
220
0.0
230
1.0
 70
    24
 71
     1
 72
     4
 73
     2
 74
     0
 42
0.0000000001
 43
0.0000000001
 40
3.114613631780071
 40
3.114613631780071
 40
3.146649575296981
 40
3.146649575296981
 10
-21.42228872984298
 20
-14.5804519968525
 30
0.0
 10
-21.55777366696918
 20
-14.57896167793711
 30
0.0
  0
SPLINE
  5
8B45
330
1F
100
AcDbEntity
  8
AM_0
100
AcDbSpline
210
0.0
220
0.0
230
1.0
 70
    24
 71
     1
 72
     4
 73
     2
 74
     0
 42
0.0000000001
 43
0.0000000001
 40
3.08257768826316
 40
3.08257768826316
 40
3.114613631780071
 40
3.114613631780071
 10
-21.28690800680124
 20
-14.58629520843385
 30
0.0
 10
-21.42228872984298
 20
-14.5804519968525
 30
0.0
  0
SPLINE
  5
8B46
330
1F
100
AcDbEntity
  8
AM_0
100
AcDbSpline
210
0.0
220
0.0
230
1.0
 70
    24
 71
     1
 72
     4
 73
     2
 74
     0
 42
0.0000000001
 43
0.0000000001
 40
3.05054174474625
 40
3.05054174474625
 40
3.08257768826316
 40
3.08257768826316
 10
-21.15177085264656
 20
-14.59648312237374
 30
0.0
 10
-21.28690800680124
 20
-14.58629520843385
 30
0.0
  0
SPLINE
  5
8B47
330
1F
100
AcDbEntity
  8
AM_0
100
AcDbSpline
210
0.0
220
0.0
230
1.0
 70
    24
 71
     1
 72
     4
 73
     2
 74
     0
 42
0.0000000001
 43
0.0000000001
 40
3.018505801229339
 40
3.018505801229339
 40
3.05054174474625
 40
3.05054174474625
 10
-21.01701615851186
 20
-14.61100306145084
 30
0.0
 10
-21.15177085264656
 20
-14.59648312237374
 30
0.0
  0
SPLINE
  5
8B48
330
1F
100
AcDbEntity
  8
AM_0
100
AcDbSpline
210
0.0
220
0.0
230
1.0
 70
    24
 71
     1
 72
     4
 73
     2
 74
     0
 42
0.0000000001
 43
0.0000000001
 40
2.986469857712429
 40
2.986469857712429
 40
3.018505801229339
 40
3.018505801229339
 10
-20.88278220812253
 20
-14.62983789525873
 30
0.0
 10
-21.01701615851186
 20
-14.61100306145084
 30
0.0
  0
SPLINE
  5
8B49
330
1F
100
AcDbEntity
  8
AM_0
100
AcDbSpline
210
0.0
220
0.0
230
1.0
 70
    24
 71
     1
 72
     4
 73
     2
 74
     0
 42
0.0000000001
 43
0.0000000001
 40
2.954433914195519
 40
2.954433914195519
 40
2.986469857712429
 40
2.986469857712429
 10
-20.74920653668857
 20
-14.6529660784513
 30
0.0
 10
-20.88278220812253
 20
-14.62983789525873
 30
0.0
  0
SPLINE
  5
8B4A
330
1F
100
AcDbEntity
  8
AM_0
100
AcDbSpline
210
0.0
220
0.0
230
1.0
 70
    24
 71
     1
 72
     4
 73
     2
 74
     0
 42
0.0000000001
 43
0.0000000001
 40
2.922397970678608
 40
2.922397970678608
 40
2.954433914195519
 40
2.954433914195519
 10
-20.61642579254214
 20
-14.68036169327587
 30
0.0
 10
-20.74920653668857
 20
-14.6529660784513
 30
0.0
  0
SPLINE
  5
8B4B
330
1F
100
AcDbEntity
  8
AM_0
100
AcDbSpline
210
0.0
220
0.0
230
1.0
 70
    24
 71
     1
 72
     4
 73
     2
 74
     0
 42
0.0000000001
 43
0.0000000001
 40
2.890362027161697
 40
2.890362027161697
 40
2.922397970678608
 40
2.922397970678608
 10
-20.48457560161819
 20
-14.71199449616131
 30
0.0
 10
-20.61642579254214
 20
-14.68036169327587
 30
0.0
  0
SPLINE
  5
8B4C
330
1F
100
AcDbEntity
  8
AM_0
100
AcDbSpline
210
0.0
220
0.0
230
1.0
 70
    24
 71
     1
 72
     4
 73
     2
 74
     0
 42
0.0000000001
 43
0.0000000001
 40
2.858326083644787
 40
2.858326083644787
 40
2.890362027161697
 40
2.890362027161697
 10
-20.35379043485556
 20
-14.74782996813496
 30
0.0
 10
-20.48457560161819
 20
-14.71199449616131
 30
0.0
  0
SPLINE
  5
8B4D
330
1F
100
AcDbEntity
  8
AM_0
100
AcDbSpline
210
0.0
220
0.0
230
1.0
 70
    24
 71
     1
 72
     4
 73
     2
 74
     0
 42
0.0000000001
 43
0.0000000001
 40
2.826211454101689
 40
2.826211454101689
 40
2.858326083644787
 40
2.858326083644787
 10
-20.2238867734685
 20
-14.78793270637834
 30
0.0
 10
-20.35379043485556
 20
-14.74782996813496
 30
0.0
  0
SPLINE
  5
8B4E
330
1F
100
AcDbEntity
  8
AM_0
100
AcDbSpline
210
0.0
220
0.0
230
1.0
 70
    24
 71
     1
 72
     4
 73
     2
 74
     0
 42
0.0000000001
 43
0.0000000001
 40
2.794096824558592
 40
2.794096824558592
 40
2.826211454101689
 40
2.826211454101689
 10
-20.09531996181988
 20
-14.8321766251571
 30
0.0
 10
-20.2238867734685
 20
-14.78793270637834
 30
0.0
  0
SPLINE
  5
8B4F
330
1F
100
AcDbEntity
  8
AM_0
100
AcDbSpline
210
0.0
220
0.0
230
1.0
 70
    24
 71
     1
 72
     4
 73
     2
 74
     0
 42
0.0000000001
 43
0.0000000001
 40
2.761982195015495
 40
2.761982195015495
 40
2.794096824558592
 40
2.794096824558592
 10
-19.96822119625073
 20
-14.88051435446772
 30
0.0
 10
-20.09531996181988
 20
-14.8321766251571
 30
0.0
  0
SPLINE
  5
8B50
330
1F
100
AcDbEntity
  8
AM_0
100
AcDbSpline
210
0.0
220
0.0
230
1.0
 70
    24
 71
     1
 72
     4
 73
     2
 74
     0
 42
0.0000000001
 43
0.0000000001
 40
2.729867565472397
 40
2.729867565472397
 40
2.761982195015495
 40
2.761982195015495
 10
-19.84272000087389
 20
-14.93289444498526
 30
0.0
 10
-19.96822119625073
 20
-14.88051435446772
 30
0.0
  0
SPLINE
  5
8B51
330
1F
100
AcDbEntity
  8
AM_0
100
AcDbSpline
210
0.0
220
0.0
230
1.0
 70
    24
 71
     1
 72
     4
 73
     2
 74
     0
 42
0.0000000001
 43
0.0000000001
 40
2.6977529359293
 40
2.6977529359293
 40
2.729867565472397
 40
2.729867565472397
 10
-19.71894410865695
 20
-14.98926143525812
 30
0.0
 10
-19.84272000087389
 20
-14.93289444498526
 30
0.0
  0
SPLINE
  5
8B52
330
1F
100
AcDbEntity
  8
AM_0
100
AcDbSpline
210
0.0
220
0.0
230
1.0
 70
    24
 71
     1
 72
     4
 73
     2
 74
     0
 42
0.0000000001
 43
0.0000000001
 40
2.665638306386203
 40
2.665638306386203
 40
2.6977529359293
 40
2.6977529359293
 10
-19.59701934556813
 20
-15.04955592154982
 30
0.0
 10
-19.71894410865695
 20
-14.98926143525812
 30
0.0
  0
SPLINE
  5
8B53
330
1F
100
AcDbEntity
  8
AM_0
100
AcDbSpline
210
0.0
220
0.0
230
1.0
 70
    24
 71
     1
 72
     4
 73
     2
 74
     0
 42
0.0000000001
 43
0.0000000001
 40
2.633523676843105
 40
2.633523676843105
 40
2.665638306386203
 40
2.665638306386203
 10
-19.47706951775296
 20
-15.11371463015819
 30
0.0
 10
-19.59701934556813
 20
-15.04955592154982
 30
0.0
  0
SPLINE
  5
8B54
330
1F
100
AcDbEntity
  8
AM_0
100
AcDbSpline
210
0.0
220
0.0
230
1.0
 70
    24
 71
     1
 72
     4
 73
     2
 74
     0
 42
0.0000000001
 43
0.0000000001
 40
2.601409047300008
 40
2.601409047300008
 40
2.633523676843105
 40
2.633523676843105
 10
-19.35921630169923
 20
-15.18167049205453
 30
0.0
 10
-19.47706951775296
 20
-15.11371463015819
 30
0.0
  0
SPLINE
  5
8B55
330
1F
100
AcDbEntity
  8
AM_0
100
AcDbSpline
210
0.0
220
0.0
230
1.0
 70
    24
 71
     1
 72
     4
 73
     2
 74
     0
 42
0.0000000001
 43
0.0000000001
 40
2.569294417756911
 40
2.569294417756911
 40
2.601409047300008
 40
2.601409047300008
 10
-19.24357913734081
 20
-15.25335271969686
 30
0.0
 10
-19.35921630169923
 20
-15.18167049205453
 30
0.0
  0
SPLINE
  5
8B56
330
1F
100
AcDbEntity
  8
AM_0
100
AcDbSpline
210
0.0
220
0.0
230
1.0
 70
    24
 71
     1
 72
     4
 73
     2
 74
     0
 42
0.0000000001
 43
0.0000000001
 40
2.537179788213813
 40
2.537179788213813
 40
2.569294417756911
 40
2.569294417756911
 10
-19.13027512404323
 20
-15.32868688588718
 30
0.0
 10
-19.24357913734081
 20
-15.25335271969686
 30
0.0
  0
SPLINE
  5
8B57
330
1F
100
AcDbEntity
  8
AM_0
100
AcDbSpline
210
0.0
220
0.0
230
1.0
 70
    24
 71
     1
 72
     4
 73
     2
 74
     0
 42
0.0000000001
 43
0.0000000001
 40
2.505031706192137
 40
2.505031706192137
 40
2.537179788213813
 40
2.537179788213813
 10
-19.0193047605278
 20
-15.40767903519616
 30
0.0
 10
-19.13027512404323
 20
-15.32868688588718
 30
0.0
  0
SPLINE
  5
8B58
330
1F
100
AcDbEntity
  8
AM_0
100
AcDbSpline
210
0.0
220
0.0
230
1.0
 70
    24
 71
     1
 72
     4
 73
     2
 74
     0
 42
0.0000000001
 43
0.0000000001
 40
2.472883624170461
 40
2.472883624170461
 40
2.505031706192137
 40
2.505031706192137
 10
-18.91089977419414
 20
-15.49017086698086
 30
0.0
 10
-19.0193047605278
 20
-15.40767903519616
 30
0.0
  0
SPLINE
  5
8B59
330
1F
100
AcDbEntity
  8
AM_0
100
AcDbSpline
210
0.0
220
0.0
230
1.0
 70
    24
 71
     1
 72
     4
 73
     2
 74
     0
 42
0.0000000001
 43
0.0000000001
 40
2.440735542148784
 40
2.440735542148784
 40
2.472883624170461
 40
2.472883624170461
 10
-18.80516998472057
 20
-15.57607725628741
 30
0.0
 10
-18.91089977419414
 20
-15.49017086698086
 30
0.0
  0
SPLINE
  5
8B5A
330
1F
100
AcDbEntity
  8
AM_0
100
AcDbSpline
210
0.0
220
0.0
230
1.0
 70
    24
 71
     1
 72
     4
 73
     2
 74
     0
 42
0.0000000001
 43
0.0000000001
 40
2.408587460127108
 40
2.408587460127108
 40
2.440735542148784
 40
2.440735542148784
 10
-18.70222247108825
 20
-15.66530975859154
 30
0.0
 10
-18.80516998472057
 20
-15.57607725628741
 30
0.0
  0
SPLINE
  5
8B5B
330
1F
100
AcDbEntity
  8
AM_0
100
AcDbSpline
210
0.0
220
0.0
230
1.0
 70
    24
 71
     1
 72
     4
 73
     2
 74
     0
 42
0.0000000001
 43
0.0000000001
 40
2.376439378105432
 40
2.376439378105432
 40
2.408587460127108
 40
2.408587460127108
 10
-18.60216148050858
 20
-15.75777669782962
 30
0.0
 10
-18.70222247108825
 20
-15.66530975859154
 30
0.0
  0
SPLINE
  5
8B5C
330
1F
100
AcDbEntity
  8
AM_0
100
AcDbSpline
210
0.0
220
0.0
230
1.0
 70
    24
 71
     1
 72
     4
 73
     2
 74
     0
 42
0.0000000001
 43
0.0000000001
 40
2.344291296083755
 40
2.344291296083755
 40
2.376439378105432
 40
2.376439378105432
 10
-18.50508833983838
 20
-15.85338325597268
 30
0.0
 10
-18.60216148050858
 20
-15.75777669782962
 30
0.0
  0
SPLINE
  5
8B5D
330
1F
100
AcDbEntity
  8
AM_0
100
AcDbSpline
210
0.0
220
0.0
230
1.0
 70
    24
 71
     1
 72
     4
 73
     2
 74
     0
 42
0.0000000001
 43
0.0000000001
 40
2.312143214062079
 40
2.312143214062079
 40
2.344291296083755
 40
2.344291296083755
 10
-18.41110136941449
 20
-15.95203156410337
 30
0.0
 10
-18.50508833983838
 20
-15.85338325597268
 30
0.0
  0
SPLINE
  5
8B5E
330
1F
100
AcDbEntity
  8
AM_0
100
AcDbSpline
210
0.0
220
0.0
230
1.0
 70
    24
 71
     1
 72
     4
 73
     2
 74
     0
 42
0.0000000001
 43
0.0000000001
 40
2.279995132040403
 40
2.279995132040403
 40
2.312143214062079
 40
2.312143214062079
 10
-18.32029579924312
 20
-16.05362079496609
 30
0.0
 10
-18.41110136941449
 20
-15.95203156410337
 30
0.0
  0
SPLINE
  5
8B5F
330
1F
100
AcDbEntity
  8
AM_0
100
AcDbSpline
210
0.0
220
0.0
230
1.0
 70
    24
 71
     1
 72
     4
 73
     2
 74
     0
 42
0.0000000001
 43
0.0000000001
 40
2.247847050018727
 40
2.247847050018727
 40
2.279995132040403
 40
2.279995132040403
 10
-18.23276368748668
 20
-16.15804725697358
 30
0.0
 10
-18.32029579924312
 20
-16.05362079496609
 30
0.0
  0
SPLINE
  5
8B60
330
1F
100
AcDbEntity
  8
AM_0
100
AcDbSpline
210
0.0
220
0.0
230
1.0
 70
    24
 71
     1
 72
     4
 73
     2
 74
     0
 42
0.0000000001
 43
0.0000000001
 40
2.215698967997051
 40
2.215698967997051
 40
2.247847050018727
 40
2.247847050018727
 10
-18.14859384118983
 20
-16.2652044896617
 30
0.0
 10
-18.23276368748668
 20
-16.15804725697358
 30
0.0
  0
SPLINE
  5
8B61
330
1F
100
AcDbEntity
  8
AM_0
100
AcDbSpline
210
0.0
220
0.0
230
1.0
 70
    24
 71
     1
 72
     4
 73
     2
 74
     0
 42
0.0000000001
 43
0.0000000001
 40
2.183574674072068
 40
2.183574674072068
 40
2.215698967997051
 40
2.215698967997051
 10
-18.06793017475308
 20
-16.37490118743704
 30
0.0
 10
-18.14859384118983
 20
-16.2652044896617
 30
0.0
  0
SPLINE
  5
8B62
330
1F
100
AcDbEntity
  8
AM_0
100
AcDbSpline
210
0.0
220
0.0
230
1.0
 70
    24
 71
     1
 72
     4
 73
     2
 74
     0
 42
0.0000000001
 43
0.0000000001
 40
2.151450380147086
 40
2.151450380147086
 40
2.183574674072068
 40
2.183574674072068
 10
-17.99079104752934
 20
-16.48710418809008
 30
0.0
 10
-18.06793017475308
 20
-16.37490118743704
 30
0.0
  0
SPLINE
  5
8B63
330
1F
100
AcDbEntity
  8
AM_0
100
AcDbSpline
210
0.0
220
0.0
230
1.0
 70
    24
 71
     1
 72
     4
 73
     2
 74
     0
 42
0.0000000001
 43
0.0000000001
 40
2.119326086222103
 40
2.119326086222103
 40
2.151450380147086
 40
2.151450380147086
 10
-17.9172548888556
 20
-16.60169956776928
 30
0.0
 10
-17.99079104752934
 20
-16.48710418809008
 30
0.0
  0
SPLINE
  5
8B64
330
1F
100
AcDbEntity
  8
AM_0
100
AcDbSpline
210
0.0
220
0.0
230
1.0
 70
    24
 71
     1
 72
     4
 73
     2
 74
     0
 42
0.0000000001
 43
0.0000000001
 40
2.087201792297121
 40
2.087201792297121
 40
2.119326086222103
 40
2.119326086222103
 10
-17.84739659200624
 20
-16.71857103709061
 30
0.0
 10
-17.9172548888556
 20
-16.60169956776928
 30
0.0
  0
SPLINE
  5
8B65
330
1F
100
AcDbEntity
  8
AM_0
100
AcDbSpline
210
0.0
220
0.0
230
1.0
 70
    24
 71
     1
 72
     4
 73
     2
 74
     0
 42
0.0000000001
 43
0.0000000001
 40
2.055077498372138
 40
2.055077498372138
 40
2.087201792297121
 40
2.087201792297121
 10
-17.78128744580806
 20
-16.83760004365586
 30
0.0
 10
-17.84739659200624
 20
-16.71857103709061
 30
0.0
  0
SPLINE
  5
8B66
330
1F
100
AcDbEntity
  8
AM_0
100
AcDbSpline
210
0.0
220
0.0
230
1.0
 70
    24
 71
     1
 72
     4
 73
     2
 74
     0
 42
0.0000000001
 43
0.0000000001
 40
2.022953204447156
 40
2.022953204447156
 40
2.055077498372138
 40
2.055077498372138
 10
-17.71899506831778
 20
-16.95866587614409
 30
0.0
 10
-17.78128744580806
 20
-16.83760004365586
 30
0.0
  0
SPLINE
  5
8B67
330
1F
100
AcDbEntity
  8
AM_0
100
AcDbSpline
210
0.0
220
0.0
230
1.0
 70
    24
 71
     1
 72
     4
 73
     2
 74
     0
 42
0.0000000001
 43
0.0000000001
 40
1.990828910522174
 40
1.990828910522174
 40
2.022953204447156
 40
2.022953204447156
 10
-17.6605833425715
 20
-17.0816457700215
 30
0.0
 10
-17.71899506831778
 20
-16.95866587614409
 30
0.0
  0
SPLINE
  5
8B68
330
1F
100
AcDbEntity
  8
AM_0
100
AcDbSpline
210
0.0
220
0.0
230
1.0
 70
    24
 71
     1
 72
     4
 73
     2
 74
     0
 42
0.0000000001
 43
0.0000000001
 40
1.958704616597191
 40
1.958704616597191
 40
1.990828910522174
 40
1.990828910522174
 10
-17.60611235441842
 20
-17.20641501491599
 30
0.0
 10
-17.6605833425715
 20
-17.0816457700215
 30
0.0
  0
SPLINE
  5
8B69
330
1F
100
AcDbEntity
  8
AM_0
100
AcDbSpline
210
0.0
220
0.0
230
1.0
 70
    24
 71
     1
 72
     4
 73
     2
 74
     0
 42
0.0000000001
 43
0.0000000001
 40
1.926580322672209
 40
1.926580322672209
 40
1.958704616597191
 40
1.958704616597191
 10
-17.55563833246924
 20
-17.332847063705
 30
0.0
 10
-17.60611235441842
 20
-17.20641501491599
 30
0.0
  0
SPLINE
  5
8B6A
330
1F
100
AcDbEntity
  8
AM_0
100
AcDbSpline
210
0.0
220
0.0
230
1.0
 70
    24
 71
     1
 72
     4
 73
     2
 74
     0
 42
0.0000000001
 43
0.0000000001
 40
1.894456028747226
 40
1.894456028747226
 40
1.926580322672209
 40
1.926580322672209
 10
-17.50921359019616
 20
-17.4608136433701
 30
0.0
 10
-17.55563833246924
 20
-17.332847063705
 30
0.0
  0
SPLINE
  5
8B6B
330
1F
100
AcDbEntity
  8
AM_0
100
AcDbSpline
210
0.0
220
0.0
230
1.0
 70
    24
 71
     1
 72
     4
 73
     2
 74
     0
 42
0.0000000001
 43
0.0000000001
 40
1.862404072672603
 40
1.862404072672603
 40
1.894456028747226
 40
1.894456028747226
 10
-17.46697714586514
 20
-17.58989206815385
 30
0.0
 10
-17.50921359019616
 20
-17.4608136433701
 30
0.0
  0
SPLINE
  5
8B6C
330
1F
100
AcDbEntity
  8
AM_0
100
AcDbSpline
210
0.0
220
0.0
230
1.0
 70
    24
 71
     1
 72
     4
 73
     2
 74
     0
 42
0.0000000001
 43
0.0000000001
 40
1.83035211659798
 40
1.83035211659798
 40
1.862404072672603
 40
1.862404072672603
 10
-17.42886391619424
 20
-17.72023832144014
 30
0.0
 10
-17.46697714586514
 20
-17.58989206815385
 30
0.0
  0
SPLINE
  5
8B6D
330
1F
100
AcDbEntity
  8
AM_0
100
AcDbSpline
210
0.0
220
0.0
230
1.0
 70
    24
 71
     1
 72
     4
 73
     2
 74
     0
 42
0.0000000001
 43
0.0000000001
 40
1.798300160523357
 40
1.798300160523357
 40
1.83035211659798
 40
1.83035211659798
 10
-17.39491388673582
 20
-17.85172053531715
 30
0.0
 10
-17.42886391619424
 20
-17.72023832144014
 30
0.0
  0
SPLINE
  5
8B6E
330
1F
100
AcDbEntity
  8
AM_0
100
AcDbSpline
210
0.0
220
0.0
230
1.0
 70
    24
 71
     1
 72
     4
 73
     2
 74
     0
 42
0.0000000001
 43
0.0000000001
 40
1.766248204448734
 40
1.766248204448734
 40
1.798300160523357
 40
1.798300160523357
 10
-17.36516295625847
 20
-17.98420558886272
 30
0.0
 10
-17.39491388673582
 20
-17.85172053531715
 30
0.0
  0
SPLINE
  5
8B6F
330
1F
100
AcDbEntity
  8
AM_0
100
AcDbSpline
210
0.0
220
0.0
230
1.0
 70
    24
 71
     1
 72
     4
 73
     2
 74
     0
 42
0.0000000001
 43
0.0000000001
 40
1.734196248374111
 40
1.734196248374111
 40
1.766248204448734
 40
1.766248204448734
 10
-17.33964289111963
 20
-18.11755922719913
 30
0.0
 10
-17.36516295625847
 20
-17.98420558886272
 30
0.0
  0
SPLINE
  5
8B70
330
1F
100
AcDbEntity
  8
AM_0
100
AcDbSpline
210
0.0
220
0.0
230
1.0
 70
    24
 71
     1
 72
     4
 73
     2
 74
     0
 42
0.0000000001
 43
0.0000000001
 40
1.702144292299487
 40
1.702144292299487
 40
1.734196248374111
 40
1.734196248374111
 10
-17.31838128224296
 20
-18.25164618255655
 30
0.0
 10
-17.33964289111963
 20
-18.11755922719913
 30
0.0
  0
SPLINE
  5
8B71
330
1F
100
AcDbEntity
  8
AM_0
100
AcDbSpline
210
0.0
220
0.0
230
1.0
 70
    24
 71
     1
 72
     4
 73
     2
 74
     0
 42
0.0000000001
 43
0.0000000001
 40
1.670092336224864
 40
1.670092336224864
 40
1.702144292299487
 40
1.702144292299487
 10
-17.30140150482111
 20
-18.38633029737286
 30
0.0
 10
-17.31838128224296
 20
-18.25164618255655
 30
0.0
  0
SPLINE
  5
8B72
330
1F
100
AcDbEntity
  8
AM_0
100
AcDbSpline
210
0.0
220
0.0
230
1.0
 70
    24
 71
     1
 72
     4
 73
     2
 74
     0
 42
0.0000000001
 43
0.0000000001
 40
1.638040380150241
 40
1.638040380150241
 40
1.670092336224864
 40
1.670092336224864
 10
-17.28872268087911
 20
-18.52147464944846
 30
0.0
 10
-17.30140150482111
 20
-18.38633029737286
 30
0.0
  0
SPLINE
  5
8B73
330
1F
100
AcDbEntity
  8
AM_0
100
AcDbSpline
210
0.0
220
0.0
230
1.0
 70
    24
 71
     1
 72
     4
 73
     2
 74
     0
 42
0.0000000001
 43
0.0000000001
 40
1.605988424075618
 40
1.605988424075618
 40
1.638040380150241
 40
1.638040380150241
 10
-17.28035964483956
 20
-18.65694167916541
 30
0.0
 10
-17.28872268087911
 20
-18.52147464944846
 30
0.0
  0
SPLINE
  5
8B74
330
1F
100
AcDbEntity
  8
AM_0
100
AcDbSpline
210
0.0
220
0.0
230
1.0
 70
    24
 71
     1
 72
     4
 73
     2
 74
     0
 42
0.0000000001
 43
0.0000000001
 40
1.573936468000995
 40
1.573936468000995
 40
1.605988424075618
 40
1.605988424075618
 10
-17.27632291224483
 20
-18.79259331876971
 30
0.0
 10
-17.28035964483956
 20
-18.65694167916541
 30
0.0
  0
SPLINE
  5
8B75
330
1F
100
AcDbEntity
  8
AM_0
100
AcDbSpline
210
0.0
220
0.0
230
1.0
 70
    24
 71
     1
 72
     4
 73
     2
 74
     0
 42
0.0000000001
 43
0.0000000001
 40
1.54197840071788
 40
1.54197840071788
 40
1.573936468000995
 40
1.573936468000995
 10
-17.27661145578201
 20
-18.92789369573705
 30
0.0
 10
-17.27632291224483
 20
-18.79259331876971
 30
0.0
  0
SPLINE
  5
8B76
330
1F
100
AcDbEntity
  8
AM_0
100
AcDbSpline
210
0.0
220
0.0
230
1.0
 70
    24
 71
     1
 72
     4
 73
     2
 74
     0
 42
0.0000000001
 43
0.0000000001
 40
1.510020333434765
 40
1.510020333434765
 40
1.54197840071788
 40
1.54197840071788
 10
-17.28120891683613
 20
-19.0631024954273
 30
0.0
 10
-17.27661145578201
 20
-18.92789369573705
 30
0.0
  0
SPLINE
  5
8B77
330
1F
100
AcDbEntity
  8
AM_0
100
AcDbSpline
210
0.0
220
0.0
230
1.0
 70
    24
 71
     1
 72
     4
 73
     2
 74
     0
 42
0.0000000001
 43
0.0000000001
 40
1.478062266151649
 40
1.478062266151649
 40
1.510020333434765
 40
1.510020333434765
 10
-17.2901127426129
 20
-19.19808213792618
 30
0.0
 10
-17.28120891683613
 20
-19.0631024954273
 30
0.0
  0
SPLINE
  5
8B78
330
1F
100
AcDbEntity
  8
AM_0
100
AcDbSpline
210
0.0
220
0.0
230
1.0
 70
    24
 71
     1
 72
     4
 73
     2
 74
     0
 42
0.0000000001
 43
0.0000000001
 40
1.446104198868534
 40
1.446104198868534
 40
1.478062266151649
 40
1.478062266151649
 10
-17.30331602278158
 20
-19.3326950713091
 30
0.0
 10
-17.2901127426129
 20
-19.19808213792618
 30
0.0
  0
SPLINE
  5
8B79
330
1F
100
AcDbEntity
  8
AM_0
100
AcDbSpline
210
0.0
220
0.0
230
1.0
 70
    24
 71
     1
 72
     4
 73
     2
 74
     0
 42
0.0000000001
 43
0.0000000001
 40
1.414146131585419
 40
1.414146131585419
 40
1.446104198868534
 40
1.446104198868534
 10
-17.32080747672887
 20
-19.46680390870227
 30
0.0
 10
-17.30331602278158
 20
-19.3326950713091
 30
0.0
  0
SPLINE
  5
8B7A
330
1F
100
AcDbEntity
  8
AM_0
100
AcDbSpline
210
0.0
220
0.0
230
1.0
 70
    24
 71
     1
 72
     4
 73
     2
 74
     0
 42
0.0000000001
 43
0.0000000001
 40
1.382188064302303
 40
1.382188064302303
 40
1.414146131585419
 40
1.414146131585419
 10
-17.34257144496996
 20
-19.60027156706809
 30
0.0
 10
-17.32080747672887
 20
-19.46680390870227
 30
0.0
  0
SPLINE
  5
8B7B
330
1F
100
AcDbEntity
  8
AM_0
100
AcDbSpline
210
0.0
220
0.0
230
1.0
 70
    24
 71
     1
 72
     4
 73
     2
 74
     0
 42
0.0000000001
 43
0.0000000001
 40
1.350229997019188
 40
1.350229997019188
 40
1.382188064302303
 40
1.382188064302303
 10
-17.36858788490906
 20
-19.73296140760493
 30
0.0
 10
-17.34257144496996
 20
-19.60027156706809
 30
0.0
  0
SPLINE
  5
8B7C
330
1F
100
AcDbEntity
  8
AM_0
100
AcDbSpline
210
0.0
220
0.0
230
1.0
 70
    24
 71
     1
 72
     4
 73
     2
 74
     0
 42
0.0000000001
 43
0.0000000001
 40
1.318271929736073
 40
1.318271929736073
 40
1.350229997019188
 40
1.350229997019188
 10
-17.39883237113736
 20
-19.86473737763492
 30
0.0
 10
-17.36858788490906
 20
-19.73296140760493
 30
0.0
  0
SPLINE
  5
8B7D
330
1F
100
AcDbEntity
  8
AM_0
100
AcDbSpline
210
0.0
220
0.0
230
1.0
 70
    24
 71
     1
 72
     4
 73
     2
 74
     0
 42
0.0000000001
 43
0.0000000001
 40
1.286313862452957
 40
1.286313862452957
 40
1.318271929736073
 40
1.318271929736073
 10
-17.4332761004556
 20
-19.99546415383133
 30
0.0
 10
-17.39883237113736
 20
-19.86473737763492
 30
0.0
  0
SPLINE
  5
8B7E
330
1F
100
AcDbEntity
  8
AM_0
100
AcDbSpline
210
0.0
220
0.0
230
1.0
 70
    24
 71
     1
 72
     4
 73
     2
 74
     0
 42
0.0000000001
 43
0.0000000001
 40
1.254355795169842
 40
1.254355795169842
 40
1.286313862452957
 40
1.286313862452957
 10
-17.47188590180542
 20
-20.1250072866191
 30
0.0
 10
-17.4332761004556
 20
-19.99546415383133
 30
0.0
  0
SPLINE
  5
8B7F
330
1F
100
AcDbEntity
  8
AM_0
100
AcDbSpline
210
0.0
220
0.0
230
1.0
 70
    24
 71
     1
 72
     4
 73
     2
 74
     0
 42
0.0000000001
 43
0.0000000001
 40
1.222476226108899
 40
1.222476226108899
 40
1.254355795169842
 40
1.254355795169842
 10
-17.51451424884828
 20
-20.25292010714662
 30
0.0
 10
-17.47188590180542
 20
-20.1250072866191
 30
0.0
  0
SPLINE
  5
8B80
330
1F
100
AcDbEntity
  8
AM_0
100
AcDbSpline
210
0.0
220
0.0
230
1.0
 70
    24
 71
     1
 72
     4
 73
     2
 74
     0
 42
0.0000000001
 43
0.0000000001
 40
1.190596657047956
 40
1.190596657047956
 40
1.222476226108899
 40
1.222476226108899
 10
-17.56120934534317
 20
-20.37939102115643
 30
0.0
 10
-17.51451424884828
 20
-20.25292010714662
 30
0.0
  0
SPLINE
  5
8B81
330
1F
100
AcDbEntity
  8
AM_0
100
AcDbSpline
210
0.0
220
0.0
230
1.0
 70
    24
 71
     1
 72
     4
 73
     2
 74
     0
 42
0.0000000001
 43
0.0000000001
 40
1.158717087987013
 40
1.158717087987013
 40
1.190596657047956
 40
1.190596657047956
 10
-17.61192538294619
 20
-20.50429003299569
 30
0.0
 10
-17.56120934534317
 20
-20.37939102115643
 30
0.0
  0
SPLINE
  5
8B82
330
1F
100
AcDbEntity
  8
AM_0
100
AcDbSpline
210
0.0
220
0.0
230
1.0
 70
    24
 71
     1
 72
     4
 73
     2
 74
     0
 42
0.0000000001
 43
0.0000000001
 40
1.126837518926069
 40
1.126837518926069
 40
1.158717087987013
 40
1.158717087987013
 10
-17.66661231935381
 20
-20.62748859106932
 30
0.0
 10
-17.61192538294619
 20
-20.50429003299569
 30
0.0
  0
SPLINE
  5
8B83
330
1F
100
AcDbEntity
  8
AM_0
100
AcDbSpline
210
0.0
220
0.0
230
1.0
 70
    24
 71
     1
 72
     4
 73
     2
 74
     0
 42
0.0000000001
 43
0.0000000001
 40
1.094957949865126
 40
1.094957949865126
 40
1.126837518926069
 40
1.126837518926069
 10
-17.72521591475117
 20
-20.74885973311893
 30
0.0
 10
-17.66661231935381
 20
-20.62748859106932
 30
0.0
  0
SPLINE
  5
8B84
330
1F
100
AcDbEntity
  8
AM_0
100
AcDbSpline
210
0.0
220
0.0
230
1.0
 70
    24
 71
     1
 72
     4
 73
     2
 74
     0
 42
0.0000000001
 43
0.0000000001
 40
1.063078380804183
 40
1.063078380804183
 40
1.094957949865126
 40
1.094957949865126
 10
-17.78767777398036
 20
-20.86827823127396
 30
0.0
 10
-17.72521591475117
 20
-20.74885973311893
 30
0.0
  0
SPLINE
  5
8B85
330
1F
100
AcDbEntity
  8
AM_0
100
AcDbSpline
210
0.0
220
0.0
230
1.0
 70
    24
 71
     1
 72
     4
 73
     2
 74
     0
 42
0.0000000001
 43
0.0000000001
 40
1.03119881174324
 40
1.03119881174324
 40
1.063078380804183
 40
1.063078380804183
 10
-17.85393539452502
 20
-20.9856207365828
 30
0.0
 10
-17.78767777398036
 20
-20.86827823127396
 30
0.0
  0
SPLINE
  5
8B86
330
1F
100
AcDbEntity
  8
AM_0
100
AcDbSpline
210
0.0
220
0.0
230
1.0
 70
    24
 71
     1
 72
     4
 73
     2
 74
     0
 42
0.0000000001
 43
0.0000000001
 40
0.999319242682297
 40
0.999319242682297
 40
1.03119881174324
 40
1.03119881174324
 10
-17.92392222038358
 20
-21.10076592272088
 30
0.0
 10
-17.85393539452502
 20
-20.9856207365828
 30
0.0
  0
SPLINE
  5
8B87
330
1F
100
AcDbEntity
  8
AM_0
100
AcDbSpline
210
0.0
220
0.0
230
1.0
 70
    24
 71
     1
 72
     4
 73
     2
 74
     0
 42
0.0000000001
 43
0.0000000001
 40
0.9674396736213539
 40
0.9674396736213539
 40
0.999319242682297
 40
0.999319242682297
 10
-17.99756770188696
 20
-21.21359462855758
 30
0.0
 10
-17.92392222038358
 20
-21.10076592272088
 30
0.0
  0
SPLINE
  5
8B88
330
1F
100
AcDbEntity
  8
AM_0
100
AcDbSpline
210
0.0
220
0.0
230
1.0
 70
    24
 71
     1
 72
     4
 73
     2
 74
     0
 42
0.0000000001
 43
0.0000000001
 40
0.9355601045604107
 40
0.9355601045604107
 40
0.9674396736213539
 40
0.9674396736213539
 10
-18.07479736148764
 20
-21.3239899992555
 30
0.0
 10
-17.99756770188696
 20
-21.21359462855758
 30
0.0
  0
SPLINE
  5
8B89
330
1F
100
AcDbEntity
  8
AM_0
100
AcDbSpline
210
0.0
220
0.0
230
1.0
 70
    24
 71
     1
 72
     4
 73
     2
 74
     0
 42
0.0000000001
 43
0.0000000001
 40
0.9037110771403071
 40
0.9037110771403071
 40
0.9355601045604107
 40
0.9355601045604107
 10
-18.15545386648727
 20
-21.43173555922413
 30
0.0
 10
-18.07479736148764
 20
-21.3239899992555
 30
0.0
  0
SPLINE
  5
8B8A
330
1F
100
AcDbEntity
  8
AM_0
100
AcDbSpline
210
0.0
220
0.0
230
1.0
 70
    24
 71
     1
 72
     4
 73
     2
 74
     0
 42
0.0000000001
 43
0.0000000001
 40
0.8718620497202033
 40
0.8718620497202033
 40
0.9037110771403071
 40
0.9037110771403071
 10
-18.23952762781436
 20
-21.53682674698109
 30
0.0
 10
-18.15545386648727
 20
-21.43173555922413
 30
0.0
  0
SPLINE
  5
8B8B
330
1F
100
AcDbEntity
  8
AM_0
100
AcDbSpline
210
0.0
220
0.0
230
1.0
 70
    24
 71
     1
 72
     4
 73
     2
 74
     0
 42
0.0000000001
 43
0.0000000001
 40
0.8400130223000999
 40
0.8400130223000999
 40
0.8718620497202033
 40
0.8718620497202033
 10
-18.3269330902558
 20
-21.63915476268823
 30
0.0
 10
-18.23952762781436
 20
-21.53682674698109
 30
0.0
  0
SPLINE
  5
8B8C
330
1F
100
AcDbEntity
  8
AM_0
100
AcDbSpline
210
0.0
220
0.0
230
1.0
 70
    24
 71
     1
 72
     4
 73
     2
 74
     0
 42
0.0000000001
 43
0.0000000001
 40
0.8081639948799962
 40
0.8081639948799962
 40
0.8400130223000999
 40
0.8400130223000999
 10
-18.41758110692365
 20
-21.73861364458423
 30
0.0
 10
-18.3269330902558
 20
-21.63915476268823
 30
0.0
  0
SPLINE
  5
8B8D
330
1F
100
AcDbEntity
  8
AM_0
100
AcDbSpline
210
0.0
220
0.0
230
1.0
 70
    24
 71
     1
 72
     4
 73
     2
 74
     0
 42
0.0000000001
 43
0.0000000001
 40
0.7763149674598927
 40
0.7763149674598927
 40
0.8081639948799962
 40
0.8081639948799962
 10
-18.51137903398
 20
-21.83510039702588
 30
0.0
 10
-18.41758110692365
 20
-21.73861364458423
 30
0.0
  0
SPLINE
  5
8B8E
330
1F
100
AcDbEntity
  8
AM_0
100
AcDbSpline
210
0.0
220
0.0
230
1.0
 70
    24
 71
     1
 72
     4
 73
     2
 74
     0
 42
0.0000000001
 43
0.0000000001
 40
0.7444659400397891
 40
0.7444659400397891
 40
0.7763149674598927
 40
0.7763149674598927
 10
-18.60823083093009
 20
-21.9285151150321
 30
0.0
 10
-18.51137903398
 20
-21.83510039702588
 30
0.0
  0
SPLINE
  5
8B8F
330
1F
100
AcDbEntity
  8
AM_0
100
AcDbSpline
210
0.0
220
0.0
230
1.0
 70
    24
 71
     1
 72
     4
 73
     2
 74
     0
 42
0.0000000001
 43
0.0000000001
 40
0.7126169126196853
 40
0.7126169126196853
 40
0.7444659400397891
 40
0.7444659400397891
 10
-18.70803716632394
 20
-22.01876110500251
 30
0.0
 10
-18.60823083093009
 20
-21.9285151150321
 30
0.0
  0
SPLINE
  5
8B90
330
1F
100
AcDbEntity
  8
AM_0
100
AcDbSpline
210
0.0
220
0.0
230
1.0
 70
    24
 71
     1
 72
     4
 73
     2
 74
     0
 42
0.0000000001
 43
0.0000000001
 40
0.6807678851995819
 40
0.6807678851995819
 40
0.7126169126196853
 40
0.7126169126196853
 10
-18.81069552868541
 20
-22.10574500129058
 30
0.0
 10
-18.70803716632394
 20
-22.01876110500251
 30
0.0
  0
SPLINE
  5
8B91
330
1F
100
AcDbEntity
  8
AM_0
100
AcDbSpline
210
0.0
220
0.0
230
1.0
 70
    24
 71
     1
 72
     4
 73
     2
 74
     0
 42
0.0000000001
 43
0.0000000001
 40
0.6489188577794783
 40
0.6489188577794783
 40
0.6807678851995819
 40
0.6807678851995819
 10
-18.91610034245729
 20
-22.18937687832465
 30
0.0
 10
-18.81069552868541
 20
-22.10574500129058
 30
0.0
  0
SPLINE
  5
8B92
330
1F
100
AcDbEntity
  8
AM_0
100
AcDbSpline
210
0.0
220
0.0
230
1.0
 70
    24
 71
     1
 72
     4
 73
     2
 74
     0
 42
0.0000000001
 43
0.0000000001
 40
0.6170698303593746
 40
0.6170698303593746
 40
0.6489188577794783
 40
0.6489188577794783
 10
-19.02414308872835
 20
-22.26957035798591
 30
0.0
 10
-18.91610034245729
 20
-22.18937687832465
 30
0.0
  0
SPLINE
  5
8B93
330
1F
100
AcDbEntity
  8
AM_0
100
AcDbSpline
210
0.0
220
0.0
230
1.0
 70
    24
 71
     1
 72
     4
 73
     2
 74
     0
 42
0.0000000001
 43
0.0000000001
 40
0.0389646494514611
 40
0.0389646494514611
 40
0.0487058118143264
 40
0.0487058118143264
 10
-17.24358821129033
 20
-23.72315742337594
 30
0.0
 10
-17.24961078483977
 20
-23.72986569500443
 30
0.0
  0
SPLINE
  5
8B94
330
1F
100
AcDbEntity
  8
AM_0
100
AcDbSpline
210
0.0
220
0.0
230
1.0
 70
    24
 71
     1
 72
     4
 73
     2
 74
     0
 42
0.0000000001
 43
0.0000000001
 40
0.0292234870885958
 40
0.0292234870885958
 40
0.0389646494514611
 40
0.0389646494514611
 10
-17.23761132357708
 20
-23.71642736940759
 30
0.0
 10
-17.24358821129033
 20
-23.72315742337594
 30
0.0
  0
SPLINE
  5
8B95
330
1F
100
AcDbEntity
  8
AM_0
100
AcDbSpline
210
0.0
220
0.0
230
1.0
 70
    24
 71
     1
 72
     4
 73
     2
 74
     0
 42
0.0000000001
 43
0.0000000001
 40
0.0194823247257306
 40
0.0194823247257306
 40
0.0292234870885958
 40
0.0292234870885958
 10
-17.23167953142126
 20
-23.70967623858604
 30
0.0
 10
-17.23761132357708
 20
-23.71642736940759
 30
0.0
  0
SPLINE
  5
8B96
330
1F
100
AcDbEntity
  8
AM_0
100
AcDbSpline
210
0.0
220
0.0
230
1.0
 70
    24
 71
     1
 72
     4
 73
     2
 74
     0
 42
0.0000000001
 43
0.0000000001
 40
0.0097411623628653
 40
0.0097411623628653
 40
0.0194823247257306
 40
0.0194823247257306
 10
-17.22579224454443
 20
-23.70290473639778
 30
0.0
 10
-17.23167953142126
 20
-23.70967623858604
 30
0.0
  0
SPLINE
  5
8B97
330
1F
100
AcDbEntity
  8
AM_0
100
AcDbSpline
210
0.0
220
0.0
230
1.0
 70
    24
 71
     1
 72
     4
 73
     2
 74
     0
 42
0.0000000001
 43
0.0000000001
 40
0.0
 40
0.0
 40
0.0097411623628653
 40
0.0097411623628653
 10
-17.21994887266783
 20
-23.69611356832951
 30
0.0
 10
-17.22579224454443
 20
-23.70290473639778
 30
0.0
  0
ELLIPSE
  5
8B98
330
1F
100
AcDbEntity
  8
AM_0
100
AcDbEllipse
 10
-26.95636998799955
 20
-24.41178899343411
 30
0.0
 11
-0.8744921838185446
 21
1.218713838618513
 31
0.0
210
0.0
220
0.0
230
1.0
 40
0.9887692138764506
 41
0.8647229554618458
 42
1.092850567788376
  0
SPLINE
  5
8B99
330
1F
100
AcDbEntity
  8
AM_0
100
AcDbSpline
210
0.0
220
0.0
230
1.0
 70
     8
 71
     3
 72
    26
 73
    22
 74
     0
 42
0.0000000001
 43
0.0000000001
 40
0.0
 40
0.0
 40
0.0
 40
0.0
 40
0.2713201130182744
 40
0.2713201130182744
 40
0.5426402260365489
 40
0.5426402260365489
 40
0.8170010649550961
 40
0.8170010649550961
 40
1.091361903873643
 40
1.091361903873643
 40
1.603653698997411
 40
1.603653698997411
 40
2.115945494121179
 40
2.115945494121179
 40
2.454564954443046
 40
2.454564954443046
 40
2.793184414764913
 40
2.793184414764913
 40
2.985940191262558
 40
2.985940191262558
 40
3.144998242976494
 40
3.144998242976494
 40
3.144998242976494
 40
3.144998242976494
 10
-22.86673802653262
 20
-29.68682752322667
 30
0.0
 10
-22.79992015678328
 20
-29.74771022682124
 30
0.0
 10
-22.71955080264342
 20
-29.80428912390975
 30
0.0
 10
-22.54793524503509
 20
-29.89119367667528
 30
0.0
 10
-22.45670443566416
 20
-29.92154399255603
 30
0.0
 10
-22.28559604998599
 20
-29.95527034446222
 30
0.0
 10
-22.19162073206723
 20
-29.96115483606347
 30
0.0
 10
-22.00993088768257
 20
-29.94521928234734
 30
0.0
 10
-21.92222871223532
 20
-29.92346724366102
 30
0.0
 10
-21.70581587551248
 20
-29.83852200770643
 30
0.0
 10
-21.57800490472175
 20
-29.74483533759983
 30
0.0
 10
-21.39082755645347
 20
-29.50819211547553
 30
0.0
 10
-21.33155002879778
 20
-29.36545850895862
 30
0.0
 10
-21.29502855372436
 20
-29.12978528665126
 30
0.0
 10
-21.29503402246859
 20
-29.02479429089561
 30
0.0
 10
-21.33205907713159
 20
-28.81570371288466
 30
0.0
 10
-21.36899146125847
 20
-28.71157754033225
 30
0.0
 10
-21.44693211184096
 20
-28.56462302712407
 30
0.0
 10
-21.48317643070413
 20
-28.50764922640241
 30
0.0
 10
-21.5598038767099
 20
-28.4090730586305
 30
0.0
 10
-21.59839297374196
 20
-28.36650626994185
 30
0.0
 10
-21.63748339251003
 20
-28.32866638750329
 30
0.0
  0
ELLIPSE
  5
8B9A
330
1F
100
AcDbEntity
  8
AM_0
100
AcDbEllipse
 10
-22.48555770084192
 20
-29.15464151135068
 30
0.0
 11
-0.5829947892123631
 21
0.8124758924123426
 31
0.0
210
0.0
220
0.0
230
1.0
 40
0.9887692138764506
 41
3.300176952432756
 42
4.889983024719336
  0
ELLIPSE
  5
8B9B
330
1F
100
AcDbEntity
  8
AM_0
100
AcDbEllipse
 10
-22.77859995432243
 20
-27.30126976149262
 30
0.0
 11
-1.284553778528958
 21
-1.14572583023006
 31
0.0
210
0.0
220
0.0
230
1.0
 40
0.8698883913753828
 41
1.242110791922671
 42
1.449172392535275
  0
ELLIPSE
  5
8B9C
330
1F
100
AcDbEntity
  8
AM_0
100
AcDbEllipse
 10
-22.85802943529029
 20
-27.35826465075217
 30
0.0
 11
-0.8744921838185453
 21
1.218713838618513
 31
0.0
210
0.0
220
0.0
230
1.0
 40
0.9887692138764506
 41
1.782537149250901
 42
2.934531052977191
  0
ELLIPSE
  5
8B9D
330
1F
100
AcDbEntity
  8
AM_0
100
AcDbEllipse
 10
-26.95636998799955
 20
-24.41178899343411
 30
0.0
 11
-0.8744921838185446
 21
1.218713838618513
 31
0.0
210
0.0
220
0.0
230
1.0
 40
0.9887692138764506
 41
2.472223730713472
 42
2.700351343039958
  0
ELLIPSE
  5
8B9E
330
1F
100
AcDbEntity
  8
AM_0
100
AcDbEllipse
 10
-26.84020859605289
 20
-24.21203604037502
 30
0.0
 11
-0.8453424443579269
 21
1.178090043997896
 31
0.0
210
0.0
220
0.0
230
1.0
 40
0.9887692138764506
 41
2.081902124542986
 42
2.449045874709991
  0
ELLIPSE
  5
8B9F
330
1F
100
AcDbEntity
  8
AM_0
100
AcDbEllipse
 10
-21.97162766186045
 20
-26.72222409879953
 30
0.0
 11
1.1134368526412
 21
-1.005116100348838
 31
0.0
210
0.0
220
0.0
230
0.9999999999999998
 40
0.146112719869555
 41
0.0000000000000254
 42
1.539041419342397
  0
ELLIPSE
  5
8BA0
330
1F
100
AcDbEntity
  8
AM_0
100
AcDbEllipse
 10
-21.97162766186045
 20
-26.72222409879953
 30
0.0
 11
1.01027307556385
 21
1.108759808430463
 31
0.0
210
0.0
220
0.0
230
1.0
 40
0.0314088328733607
 41
3.288303231485268
 42
4.85909955828017
  0
ELLIPSE
  5
8BA1
330
1F
100
AcDbEntity
  8
AM_0
100
AcDbEllipse
 10
-21.97162766186045
 20
-26.72222409879953
 30
0.0
 11
-0.8744921838185453
 21
1.218713838618513
 31
0.0
210
0.0
220
0.0
230
1.0
 40
0.9887692138764506
 41
1.782537149250901
 42
3.141592653589809
  0
ELLIPSE
  5
8BA2
330
1F
100
AcDbEntity
  8
AM_0
100
AcDbEllipse
 10
-26.84020859605289
 20
-24.21203604037502
 30
0.0
 11
-0.8453424443579269
 21
1.178090043997896
 31
0.0
210
0.0
220
0.0
230
1.0
 40
0.9887692138764506
 41
1.116028423791816
 42
1.483172173958853
  0
ELLIPSE
  5
8BA3
330
1F
100
AcDbEntity
  8
AM_0
100
AcDbEllipse
 10
-29.35971279193427
 20
-19.99039324586384
 30
0.0
 11
-0.8744921838185453
 21
1.218713838618513
 31
0.0
210
0.0
220
0.0
230
1.0
 40
0.9887692138764506
 41
0.2117408224560008
 42
1.782537149250901
  0
ELLIPSE
  5
8BA4
330
1F
100
AcDbEntity
  8
AM_0
100
AcDbEllipse
 10
-29.35971279193427
 20
-19.99039324586384
 30
0.0
 11
-1.01027307556385
 21
-1.108759808430463
 31
0.0
210
0.0
220
0.0
230
1.0
 40
0.0314088328733607
 41
0.1467105778954835
 42
1.717506904690381
  0
ELLIPSE
  5
8BA5
330
1F
100
AcDbEntity
  8
AM_0
100
AcDbEllipse
 10
-29.35971279193427
 20
-19.99039324586384
 30
0.0
 11
1.1134368526412
 21
-1.005116100348838
 31
0.0
210
0.0
220
0.0
230
0.9999999999999998
 40
0.146112719869555
 41
1.539041419342397
 42
3.109837746137303
  0
ELLIPSE
  5
8BA6
330
1F
100
AcDbEntity
  8
AM_0
100
AcDbEllipse
 10
-30.24611456536411
 20
-20.62643379781654
 30
0.0
 11
-0.8744921838185453
 21
1.218713838618513
 31
0.0
210
0.0
220
0.0
230
1.0
 40
0.9887692138764506
 41
0.6305432455246085
 42
1.782537149250927
  0
ELLIPSE
  5
8BA7
330
1F
100
AcDbEntity
  8
AM_0
100
AcDbEllipse
 10
-30.16668508439625
 20
-20.56943890855698
 30
0.0
 11
-1.28455377852895
 21
-1.145725830230069
 31
0.0
210
0.0
220
0.0
230
1.0
 40
0.8698883913753824
 41
4.802505868581052
 42
5.22130829164968
  0
ELLIPSE
  5
8BA8
330
1F
100
AcDbEntity
  8
AM_0
100
AcDbEllipse
 10
-31.44292058132601
 20
-19.80956394791961
 30
0.0
 11
1.037730724798005
 21
-1.446207088493969
 31
0.0
210
0.0
220
0.0
230
1.0
 40
0.9887692138764505
 41
1.782537149250926
 42
4.924129802840719
  0
SPLINE
  5
8BA9
330
1F
100
AcDbEntity
  8
AM_0
100
AcDbSpline
210
0.0
220
0.0
230
1.0
 70
     8
 71
     3
 72
    26
 73
    22
 74
     0
 42
0.0000000001
 43
0.0000000001
 40
-3.178695967760196
 40
-3.178695967760196
 40
-3.178695967760196
 40
-3.178695967760196
 40
-2.98594019126255
 40
-2.98594019126255
 40
-2.793184414764903
 40
-2.793184414764903
 40
-2.454564954443034
 40
-2.454564954443034
 40
-2.115945494121164
 40
-2.115945494121164
 40
-1.603653698997392
 40
-1.603653698997392
 40
-1.091361903873622
 40
-1.091361903873622
 40
-0.8170010649550754
 40
-0.8170010649550754
 40
-0.5426402260365278
 40
-0.5426402260365278
 40
-0.2713201130182643
 40
-0.2713201130182643
 40
0.0
 40
0.0
 40
0.0
 40
0.0
 10
-31.26690140653704
 20
-19.55392640310962
 30
0.0
 10
-31.31437127607296
 20
-19.51067309366599
 30
0.0
 10
-31.369298483953
 20
-19.46816266355414
 30
0.0
 10
-31.48324066958446
 20
-19.39585100136513
 30
0.0
 10
-31.54230108348622
 20
-19.36598561044762
 30
0.0
 10
-31.69279888795847
 20
-19.30479294984006
 30
0.0
 10
-31.7972793266581
 20
-19.28006743931847
 30
0.0
 10
-32.00317287096629
 20
-19.26781691330653
 30
0.0
 10
-32.10460534814604
 20
-19.2803802932447
 30
0.0
 10
-32.32855716542792
 20
-19.34527186668877
 30
0.0
 10
-32.46039127021117
 20
-19.4218938088312
 30
0.0
 10
-32.66961130589982
 20
-19.63845230796634
 30
0.0
 10
-32.74676704151409
 20
-19.77829470977063
 30
0.0
 10
-32.80579433334731
 20
-20.00664555736072
 30
0.0
 10
-32.81739984657088
 20
-20.09773489381011
 30
0.0
 10
-32.81306097852427
 20
-20.28317496782197
 30
0.0
 10
-32.79704805538097
 20
-20.37750889839718
 30
0.0
 10
-32.74541568478673
 20
-20.54673812549167
 30
0.0
 10
-32.70580690307076
 20
-20.63560543915325
 30
0.0
 10
-32.60214426408481
 20
-20.7995272134194
 30
0.0
 10
-32.53806656537801
 20
-20.87456471081587
 30
0.0
 10
-32.47124869562878
 20
-20.93544741441051
 30
0.0
  0
ELLIPSE
  5
8BAA
330
1F
100
AcDbEntity
  8
AM_0
100
AcDbEllipse
 10
-32.09006836993796
 20
-20.40326140253459
 30
0.0
 11
-0.5829947892123631
 21
0.8124758924123426
 31
0.0
210
0.0
220
0.0
230
1.0
 40
0.9887692138764506
 41
4.924129802840681
 42
6.138512451448592
  0
ELLIPSE
  5
8BAB
330
1F
100
AcDbEntity
  8
AM_0
100
AcDbEllipse
 10
-21.1747732601176
 20
-18.45250338262093
 30
0.0
 11
2.623476551455634
 21
-3.65614151585554
 31
0.0
210
0.0
220
0.0
230
0.9999999999999998
 40
0.9887692138764506
 41
3.246060667023612
 42
3.353333476045792
  0
ELLIPSE
  5
8BAC
330
1F
100
AcDbEntity
  8
AM_0
100
AcDbEllipse
 10
-25.41841408734251
 20
-15.64803414400789
 30
0.0
 11
-0.3851346079860003
 21
0.9228604085838046
 31
0.0
210
0.0
220
0.0
230
1.0
 40
0.1456970421551262
 41
4.746038157963669
 42
5.793235709160305
  0
ELLIPSE
  5
8BAD
330
1F
100
AcDbEntity
  8
AM_0
100
AcDbEllipse
 10
-26.10651936686099
 20
-15.64079886746456
 30
0.0
 11
0.7596768511117542
 21
-0.6503007626359776
 31
0.0
210
0.0
220
0.0
230
1.0
 40
0.7019294178793932
 41
2.429195189557512
 42
3.097480086929513
  0
ELLIPSE
  5
8BAE
330
1F
100
AcDbEntity
  8
AM_0
100
AcDbEllipse
 10
-25.02633320147379
 20
-15.19000796616596
 30
0.0
 11
1.838640637334655
 21
-0.1734708956935851
 31
0.0
210
0.0
220
0.0
230
1.0
 40
0.2154554420477906
 41
3.014206965653739
 42
4.585003292448639
  0
ELLIPSE
  5
8BAF
330
1F
100
AcDbEntity
  8
AM_0
100
AcDbEllipse
 10
-25.30288580517731
 20
-14.34931029170182
 30
0.0
 11
-1.143378863096971
 21
-0.604789610197275
 31
0.0
210
0.0
220
0.0
230
1.0
 40
0.190072179388882
 41
5.834796431512145
 42
7.405592758307154
  0
SPLINE
  5
8BB0
330
1F
100
AcDbEntity
  8
AM_0
100
AcDbSpline
210
0.0
220
0.0
230
1.0
 70
     8
 71
     3
 72
    18
 73
    14
 74
     0
 42
0.0000000001
 43
0.0000000001
 40
1.725867467603311
 40
1.725867467603311
 40
1.725867467603311
 40
1.725867467603311
 40
1.762895702346221
 40
1.762895702346221
 40
2.45849784945861
 40
2.45849784945861
 40
3.154099996570999
 40
3.154099996570999
 40
3.849702143683387
 40
3.849702143683387
 40
4.545304290795776
 40
4.545304290795776
 40
4.582332525538684
 40
4.582332525538684
 40
4.582332525538684
 40
4.582332525538684
 10
-24.16092076657571
 20
-15.08679322362273
 30
0.0
 10
-24.15142377346103
 20
-15.07832739387002
 30
0.0
 10
-24.14188744362286
 20
-15.06989985730892
 30
0.0
 10
-23.95243575697986
 20
-14.90392718460689
 30
0.0
 10
-23.7586574438867
 20
-14.76036287554016
 30
0.0
 10
-23.35373044119728
 20
-14.50910568983521
 30
0.0
 10
-23.14254403708127
 20
-14.40140239205548
 30
0.0
 10
-22.71914826146394
 20
-14.22470788381934
 30
0.0
 10
-22.49250615498181
 20
-14.14969350271081
 30
0.0
 10
-22.02453823962207
 20
-14.03666803098576
 30
0.0
 10
-21.78323512662279
 20
-13.99866109382554
 30
0.0
 10
-21.531011581308
 20
-13.98031074677834
 30
0.0
 10
-21.51826941919228
 20
-13.97944086610783
 30
0.0
 10
-21.50553422207406
 20
-13.97862860158926
 30
0.0
  0
ELLIPSE
  5
8BB1
330
1F
100
AcDbEntity
  8
AM_0
100
AcDbEllipse
 10
-21.90691847905839
 20
-19.10719102714915
 30
0.0
 11
-2.477727854152544
 21
3.453022542752455
 31
0.0
210
0.0
220
0.0
230
1.0
 40
0.9887692138764508
 41
-0.0000000000000071
 42
1.782537149250895
  0
ELLIPSE
  5
8BB2
330
1F
100
AcDbEntity
  8
AM_0
100
AcDbEllipse
 10
-18.03032895726846
 20
-22.37986499694329
 30
0.0
 11
-0.9568400421926256
 21
0.2906150953698284
 31
0.0
210
0.0
220
0.0
230
1.0
 40
0.1191491494506383
 41
3.574202682622471
 42
4.621400233819059
  0
ELLIPSE
  5
8BB3
330
1F
100
AcDbEntity
  8
AM_0
100
AcDbEllipse
 10
-17.97962572377957
 20
-23.04581280569357
 30
0.0
 11
0.7596768511117542
 21
-0.6503007626359738
 31
0.0
210
0.0
220
0.0
230
1.0
 40
0.7019294178793948
 41
-0.0000000000000082
 42
0.6241723307117514
  0
ELLIPSE
  5
8BB4
330
1F
100
AcDbEntity
  8
AM_0
100
AcDbEllipse
 10
-16.75504039750376
 20
-22.13788452012619
 30
0.0
 11
-0.4785708811361996
 21
-1.211059952983299
 31
0.0
210
0.0
220
0.0
230
0.9999999999999998
 40
0.1676767327811262
 41
5.165512868337559
 42
6.73630919513253
  0
ELLIPSE
  5
8BB5
330
1F
100
AcDbEntity
  8
AM_0
100
AcDbEllipse
 10
-17.63824807139974
 20
-21.92183881910142
 30
0.0
 11
0.3461826547343787
 21
-1.83394937452583
 31
0.0
210
0.0
220
0.0
230
0.9999999999999998
 40
0.1819634380211769
 41
4.881577040342649
 42
6.420618459685057
  0
ELLIPSE
  5
8BB6
330
1F
100
AcDbEntity
  8
AM_0
100
AcDbEllipse
 10
-22.23836152644878
 20
-19.47435349065767
 30
0.0
 11
-2.623476551455634
 21
3.65614151585554
 31
0.0
210
0.0
220
0.0
230
0.9999999999999998
 40
0.9887692138764506
 41
3.197041988206358
 42
3.353333476045802
  0
SPLINE
  5
8BB7
330
1F
100
AcDbEntity
  8
AM_0
100
AcDbSpline
210
0.0
220
0.0
230
1.0
 70
     8
 71
     3
 72
    18
 73
    14
 74
     0
 42
0.0000000001
 43
0.0000000001
 40
9.28033164244842
 40
9.28033164244842
 40
9.28033164244842
 40
9.28033164244842
 40
9.31735987719081
 40
9.31735987719081
 40
10.01296202430314
 40
10.01296202430314
 40
10.70856417141548
 40
10.70856417141548
 40
11.40416631852782
 40
11.40416631852782
 40
12.09976846564015
 40
12.09976846564015
 40
12.13679670038254
 40
12.13679670038254
 40
12.13679670038254
 40
12.13679670038254
 10
-16.71066801521556
 20
-18.34758587519212
 30
0.0
 10
-16.71023256345551
 20
-18.36039889212617
 30
0.0
 10
-16.7098547258771
 20
-18.37322337499404
 30
0.0
 10
-16.70351896635077
 20
-18.62716623011294
 30
0.0
 10
-16.71809689639292
 20
-18.87175925215132
 30
0.0
 10
-16.78516871678562
 20
-19.35007080997394
 30
0.0
 10
-16.8376508316586
 20
-19.58377524191701
 30
0.0
 10
-16.97145911447057
 20
-20.02433433541022
 30
0.0
 10
-17.05734654540583
 20
-20.24620679592282
 30
0.0
 10
-17.26614089275938
 20
-20.67617495168462
 30
0.0
 10
-17.3890643310857
 20
-20.88430037823144
 30
0.0
 10
-17.53498533862887
 20
-21.08993707259156
 30
0.0
 10
-17.54240398039951
 20
-21.10029419139448
 30
0.0
 10
-17.54986560334384
 20
-21.110614597464
 30
0.0
  0
ELLIPSE
  5
8BB8
330
1F
100
AcDbEntity
  8
AM_0
100
AcDbEllipse
 10
-21.1747732601176
 20
-18.45250338262093
 30
0.0
 11
2.623476551455634
 21
-3.65614151585554
 31
0.0
210
0.0
220
0.0
230
0.9999999999999998
 40
0.9887692138764506
 41
0.2117408224560175
 42
0.3190136314783331
  0
ELLIPSE
  5
8BB9
330
1F
100
AcDbEntity
  8
AM_0
100
AcDbEllipse
 10
-14.21564921944036
 20
-18.64876149841149
 30
0.0
 11
1.119088218904899
 21
1.246108258816076
 31
0.0
210
0.0
220
0.0
230
0.9999999999999998
 40
0.5967615205462959
 41
4.752199758774593
 42
5.376372089486329
  0
ELLIPSE
  5
8BBA
330
1F
100
AcDbEntity
  8
AM_0
100
AcDbEllipse
 10
-18.46505357205001
 20
-12.74620874188445
 30
0.0
 11
-0.3851346079860018
 21
0.9228604085838057
 31
0.0
210
0.0
220
0.0
230
1.0
 40
0.145697042155128
 41
4.746038157963689
 42
5.793235709160294
  0
ELLIPSE
  5
8BBB
330
1F
100
AcDbEntity
  8
AM_0
100
AcDbEllipse
 10
-15.83281711632582
 20
-15.14463408118331
 30
0.0
 11
-0.9568400421926252
 21
0.2906150953698303
 31
0.0
210
0.0
220
0.0
230
1.0
 40
0.1191491494506403
 41
3.574202682622251
 42
4.621400233818874
  0
ELLIPSE
  5
8BBC
330
1F
100
AcDbEntity
  8
AM_0
100
AcDbEllipse
 10
-9.188359066194834
 20
-13.14634900387346
 30
0.0
 11
-0.4663958313698908
 21
0.6499807139298741
 31
0.0
210
0.0
220
0.0
230
1.0
 40
0.9887692138764505
 41
2.813220255313192
 42
3.141592653589864
  0
ELLIPSE
  5
8BBD
330
1F
100
AcDbEntity
  8
AM_0
100
AcDbEllipse
 10
-21.83840991222996
 20
-28.56094405673576
 30
0.0
 11
1.037730724798005
 21
-1.446207088493969
 31
0.0
210
0.0
220
0.0
230
1.0
 40
0.9887692138764505
 41
4.924129802840719
 42
7.970570962813161
  0
ELLIPSE
  5
8BBE
330
1F
100
AcDbEntity
  8
AM_0
100
AcDbEllipse
 10
-21.1747732601176
 20
-18.45250338262093
 30
0.0
 11
2.623476551455634
 21
-3.65614151585554
 31
0.0
210
0.0
220
0.0
230
0.9999999999999998
 40
0.9887692138764506
 41
0.9771326394308541
 42
2.587941659070814
  0
ELLIPSE
  5
8BBF
330
1F
100
AcDbEntity
  8
AM_0
100
AcDbEllipse
 10
-21.57547543166799
 20
-18.74002856364063
 30
0.0
 11
-2.623476551455634
 21
3.65614151585554
 31
0.0
210
0.0
220
0.0
230
0.9999999999999998
 40
0.9887692138764506
 41
3.35333347604581
 42
6.227772852149537
  0
ELLIPSE
  5
8BC0
330
1F
100
AcDbEntity
  8
AM_0
100
AcDbEllipse
 10
-21.83765935489839
 20
-19.18682830963797
 30
0.0
 11
2.623476551455634
 21
-3.65614151585554
 31
0.0
210
0.0
220
0.0
230
0.9999999999999998
 40
0.9887692138764506
 41
3.353333476045792
 42
6.494926129635594
  0
ELLIPSE
  5
8BC1
330
1F
100
AcDbEntity
  8
AM_0
100
AcDbEllipse
 10
-21.50187094288094
 20
-18.81654781523343
 30
0.0
 11
-2.477727854152544
 21
3.453022542752455
 31
0.0
210
0.0
220
0.0
230
1.0
 40
0.9887692138764508
 41
-0.0000000000000071
 42
3.141592653589798
  0
ELLIPSE
  5
8BC2
330
1F
100
AcDbEntity
  8
AM_0
100
AcDbEllipse
 10
-21.90691847905839
 20
-19.10719102714915
 30
0.0
 11
-2.477727854152544
 21
3.453022542752455
 31
0.0
210
0.0
220
0.0
230
1.0
 40
0.9887692138764508
 41
1.782537149250885
 42
3.141592653589794
  0
ELLIPSE
  5
8BC3
330
1F
100
AcDbEntity
  8
AM_0
100
AcDbEllipse
 10
-21.29979397670922
 20
-18.6715468134829
 30
0.0
 11
1.507500019152485
 21
-2.100889143498651
 31
0.0
210
0.0
220
0.0
230
1.0
 40
0.9887692138764506
 41
-0.0000000000000033
 42
6.283185307179582
  0
ELLIPSE
  5
8BC4
330
1F
100
AcDbEntity
  8
AM_0
100
AcDbEllipse
 10
-22.77672391428097
 20
-12.54433105461902
 30
0.0
 11
-1.603235670333994
 21
2.234308704133934
 31
0.0
210
0.0
220
0.0
230
0.9999999999999998
 40
0.9887692138764503
 41
5.40804966956623
 42
5.972911992214891
  0
ELLIPSE
  5
8BC5
330
1F
100
AcDbEntity
  8
AM_0
100
AcDbEllipse
 10
-22.34254286252178
 20
-11.24374756018249
 30
0.0
 11
1.119088218904903
 21
1.246108258816078
 31
0.0
210
0.0
220
0.0
230
1.0
 40
0.5967615205462943
 41
0.8982096411525098
 42
1.566494538524527
  0
ELLIPSE
  5
8BC6
330
1F
100
AcDbEntity
  8
AM_0
100
AcDbEllipse
 10
-29.35971279193427
 20
54.95544757613102
 30
0.0
 11
0.0637116807391149
 21
-1.498646329771436
 31
0.0
210
0.0
220
0.0
230
1.0
 40
0.6731830852935623
 41
0.000000000000028
 42
0.1180994765037933
  0
ELLIPSE
  5
8BC7
330
1F
100
AcDbEntity
  8
AM_0
100
AcDbEllipse
 10
-21.1747732601176
 20
54.57907059883526
 30
0.0
 11
-4.466447132330858
 21
-0.5484979617951713
 31
0.0
210
0.0
220
0.0
230
1.0
 40
0.0871288427332452
 41
5.433926824177921
 42
5.541199633200101
  0
ELLIPSE
  5
8BC8
330
1F
100
AcDbEntity
  8
AM_0
100
AcDbEllipse
 10
-21.83765935489839
 20
54.4329578789657
 30
0.0
 11
-4.466447132330858
 21
-0.5484979617951713
 31
0.0
210
0.0
220
0.0
230
1.0
 40
0.0871288427332452
 41
5.541199633200101
 42
6.808261114433613
  0
ELLIPSE
  5
8BC9
330
1F
100
AcDbEntity
  8
AM_0
100
AcDbEllipse
 10
-25.41841408734251
 20
55.31641808491601
 30
0.0
 11
0.1575844636443567
 21
-0.9875055122974846
 31
0.0
210
0.0
220
0.0
230
1.0
 40
0.3810249342306726
 41
5.141610027276044
 42
6.188807578472681
  0
ELLIPSE
  5
8BCA
330
1F
100
AcDbEntity
  8
AM_0
100
AcDbEllipse
 10
-31.44292058132601
 20
60.07575480043126
 30
0.0
 11
-1.76672797678865
 21
-0.2169614159989789
 31
0.0
210
0.0
220
0.0
230
0.9999999999999998
 40
0.0871288427332452
 41
3.970403306405237
 42
7.111995959995029
  0
ELLIPSE
  5
8BCB
330
1F
100
AcDbEntity
  8
AM_0
100
AcDbEllipse
 10
-26.10651936686099
 20
55.73823268061786
 30
0.0
 11
0.8346635049901346
 21
-0.5507602322586369
 31
0.0
210
0.0
220
0.0
230
1.0
 40
0.5410771866298556
 41
4.069690421526461
 42
4.737975318898461
  0
ELLIPSE
  5
8BCC
330
1F
100
AcDbEntity
  8
AM_0
100
AcDbEllipse
 10
-22.34254286252178
 20
61.44244594403485
 30
0.0
 11
-1.34351122645788
 21
-0.2253325123094154
 31
0.0
210
0.0
220
0.0
230
1.0
 40
0.0794863424238825
 41
4.612969918738961
 42
5.281254816110979
  0
ELLIPSE
  5
8BCD
330
1F
100
AcDbEntity
  8
AM_0
100
AcDbEllipse
 10
-21.22554176662765
 20
61.93540621718485
 30
0.0
 11
-0.7940350457477083
 21
-0.097510748763586
 31
0.0
210
0.0
220
0.0
230
1.0
 40
0.0871288427332452
 41
5.724459204659584
 42
7.906120769652383
  0
ELLIPSE
  5
8BCE
330
1F
100
AcDbEntity
  8
AM_0
100
AcDbEllipse
 10
-22.33190563070297
 20
61.22964489326024
 30
0.0
 11
-4.218311180534699
 21
-0.5180258528065509
 31
0.0
210
0.0
220
0.0
230
1.0
 40
0.0871288427332452
 41
4.462309977228745
 42
6.442697491251678
  0
SPLINE
  5
8BCF
330
1F
100
AcDbEntity
  8
AM_0
100
AcDbSpline
210
0.0
220
0.0
230
1.0
 70
     8
 71
     3
 72
    18
 73
    14
 74
     0
 42
0.0000000001
 43
0.0000000001
 40
1.725867467603311
 40
1.725867467603311
 40
1.725867467603311
 40
1.725867467603311
 40
1.762895702346221
 40
1.762895702346221
 40
2.45849784945861
 40
2.45849784945861
 40
3.154099996570999
 40
3.154099996570999
 40
3.849702143683387
 40
3.849702143683387
 40
4.545304290795776
 40
4.545304290795776
 40
4.582332525538684
 40
4.582332525538684
 40
4.582332525538684
 40
4.582332525538684
 10
-24.16092076657571
 20
54.50894075290382
 30
0.0
 10
-24.15142377346103
 20
54.51085301854307
 30
0.0
 10
-24.14188744362286
 20
54.51279296000281
 30
0.0
 10
-23.95243575697986
 20
54.55168431769125
 30
0.0
 10
-23.7586574438867
 20
54.59728044383759
 30
0.0
 10
-23.35373044119728
 20
54.68370057240396
 30
0.0
 10
-23.14254403708127
 20
54.72431743414985
 30
0.0
 10
-22.71914826146394
 20
54.79188221771723
 30
0.0
 10
-22.49250615498181
 20
54.82113329103761
 30
0.0
 10
-22.02453823962207
 20
54.8740082608435
 30
0.0
 10
-21.78323512662279
 20
54.89784169465266
 30
0.0
 10
-21.531011581308
 20
54.92943212533528
 30
0.0
 10
-21.51826941919228
 20
54.93104734803582
 30
0.0
 10
-21.50553422207406
 20
54.93268285780631
 30
0.0
  0
ELLIPSE
  5
8BD0
330
1F
100
AcDbEntity
  8
AM_0
100
AcDbEllipse
 10
-25.02633320147379
 20
55.91060696652188
 30
0.0
 11
-1.681662520346144
 21
-1.018916873636468
 31
0.0
210
0.0
220
0.0
230
0.9999999999999998
 40
0.7304980416163916
 41
5.718785257163647
 42
7.289581583958547
  0
ELLIPSE
  5
8BD1
330
1F
100
AcDbEntity
  8
AM_0
100
AcDbEllipse
 10
-25.30288580517731
 20
55.44504700525443
 30
0.0
 11
-1.136745444157559
 21
-0.4340353259142417
 31
0.0
210
0.0
220
0.0
230
1.0
 40
0.3878555439170698
 41
5.787974796418283
 42
7.358771123213291
  0
ELLIPSE
  5
8BD2
330
1F
100
AcDbEntity
  8
AM_0
100
AcDbEllipse
 10
-29.35971279193427
 20
54.95544757613102
 30
0.0
 11
-1.488815710776951
 21
-0.1828326539317373
 31
0.0
210
0.0
220
0.0
230
1.0
 40
0.0871288427332452
 41
5.541199633200068
 42
6.283185307179564
  0
ELLIPSE
  5
8BD3
330
1F
100
AcDbEntity
  8
AM_0
100
AcDbEllipse
 10
-29.35971279193427
 20
54.95544757613102
 30
0.0
 11
0.3228781430793606
 21
-1.464837774199458
 31
0.0
210
0.0
220
0.0
230
1.0
 40
0.7343249270170566
 41
4.583676361703021
 42
6.154472688497929
  0
ELLIPSE
  5
8BD4
330
1F
100
AcDbEntity
  8
AM_0
100
AcDbEllipse
 10
-13.25567255233022
 20
-10.16692706050309
 30
0.0
 11
0.7093388744135272
 21
-0.7048676196604196
 31
0.0
210
0.0
220
0.0
230
1.0
 40
0.7481179165085194
 41
0.6780822494820224
 42
1.582324522589602
  0
ELLIPSE
  5
8BD5
330
1F
100
AcDbEntity
  8
AM_0
100
AcDbEllipse
 10
-13.8838332493467
 20
-9.594563384891955
 30
0.0
 11
0.8107475632267465
 21
-0.5853959247568282
 31
0.0
210
0.0
220
0.0
230
1.0
 40
0.7448391536190512
 41
1.465118714911959
 42
2.369360988019591
  0
ELLIPSE
  5
8BD6
330
1F
100
AcDbEntity
  8
AM_0
100
AcDbEllipse
 10
-15.52932448593753
 20
-2.529398328187141
 30
0.0
 11
-0.4663958313698908
 21
0.6499807139298741
 31
0.0
210
0.0
220
0.0
230
1.0
 40
0.9887692138764505
 41
-0.0000000000000784
 42
0.1590380789003745
  0
SPLINE
  5
8BD7
330
1F
100
AcDbEntity
  8
AM_0
100
AcDbSpline
210
0.0
220
0.0
230
1.0
 70
     8
 71
     3
 72
    14
 73
    10
 74
     0
 42
0.0000000001
 43
0.0000000001
 40
-2.664546665281592
 40
-2.664546665281592
 40
-2.664546665281592
 40
-2.664546665281592
 40
-2.638080451239741
 40
-2.638080451239741
 40
-2.201983172992292
 40
-2.201983172992292
 40
-1.765885894744844
 40
-1.765885894744844
 40
-1.717671851544118
 40
-1.717671851544118
 40
-1.717671851544118
 40
-1.717671851544118
 10
-9.397244883395387
 20
-7.388879766547972
 30
0.0
 10
-9.396470182924645
 20
-7.380318278653476
 30
0.0
 10
-9.395767642807072
 20
-7.371805899731612
 30
0.0
 10
-9.384726555689212
 20
-7.224400109095654
 30
0.0
 10
-9.391870638558089
 20
-7.06869683571989
 30
0.0
 10
-9.449720363907317
 20
-6.766162348172997
 30
0.0
 10
-9.500566325173053
 20
-6.619398640861959
 30
0.0
 10
-9.568392494730687
 20
-6.481462235140668
 30
0.0
 10
-9.575366437849197
 20
-6.467770266708498
 30
0.0
 10
-9.582551523671554
 20
-6.454151209397252
 30
0.0
  0
ELLIPSE
  5
8BD8
330
1F
100
AcDbEntity
  8
AM_0
100
AcDbEllipse
 10
-11.19050988842002
 20
-7.149561121329384
 30
0.0
 11
1.33062854159787
 21
-1.49681690821629
 31
0.0
210
0.0
220
0.0
230
0.9999999999999998
 40
0.8637835164024096
 41
1.293331887009886
 42
2.091427742855828
  0
ELLIPSE
  5
8BD9
330
1F
100
AcDbEntity
  8
AM_0
100
AcDbEllipse
 10
-10.9736568729844
 20
-6.99395751609677
 30
0.0
 11
-0.2563964769111117
 21
2.09424381366501
 31
0.0
210
0.0
220
0.0
230
1.0
 40
0.748055759935892
 41
4.178107947195215
 42
4.432149112140866
  0
SPLINE
  5
8BDA
330
1F
100
AcDbEntity
  8
AM_0
100
AcDbSpline
210
0.0
220
0.0
230
1.0
 70
     8
 71
     3
 72
    14
 73
    10
 74
     0
 42
0.0000000001
 43
0.0000000001
 40
1.717671851546748
 40
1.717671851546748
 40
1.717671851546748
 40
1.717671851546748
 40
1.765885894744827
 40
1.765885894744827
 40
2.20198317299225
 40
2.20198317299225
 40
2.638080451239674
 40
2.638080451239674
 40
2.664546665281524
 40
2.664546665281524
 40
2.664546665281524
 40
2.664546665281524
 10
-10.73078185479755
 20
-5.407913621001512
 30
0.0
 10
-10.74473519371736
 20
-5.402271895936848
 30
0.0
 10
-10.7587539699515
 20
-5.396835844952477
 30
0.0
 10
-10.8998880913814
 20
-5.344373072924042
 30
0.0
 10
-11.04918875570058
 20
-5.308768384973973
 30
0.0
 10
-11.35479492567776
 20
-5.280131321738338
 30
0.0
 10
-11.51100479710601
 20
-5.28699072418874
 30
0.0
 10
-11.65865358914482
 20
-5.309923130105289
 30
0.0
 10
-11.66717956478692
 20
-5.311306998227223
 30
0.0
 10
-11.67575465499464
 20
-5.312760974043669
 30
0.0
  0
ELLIPSE
  5
8BDB
330
1F
100
AcDbEntity
  8
AM_0
100
AcDbEllipse
 10
-11.00981113184616
 20
-6.869872223263996
 30
0.0
 11
1.504126556167897
 21
-2.096187802423842
 31
0.0
210
0.0
220
0.0
230
0.9999999999999998
 40
0.9887692138764505
 41
6.108479266682733
 42
7.236691061733217
  0
ELLIPSE
  5
8BDC
330
1F
100
AcDbEntity
  8
AM_0
100
AcDbEllipse
 10
-11.58779365808266
 20
-7.28460551467424
 30
0.0
 11
-1.504126556167897
 21
2.096187802423842
 31
0.0
210
0.0
220
0.0
230
0.9999999999999998
 40
0.9887692138764505
 41
3.28147951174142
 42
4.095098408143391
  0
ELLIPSE
  5
8BDD
330
1F
100
AcDbEntity
  8
AM_0
100
AcDbEllipse
 10
-10.9736568729844
 20
-6.993957516096827
 30
0.0
 11
-2.15032102551182
 21
0.5063125992441492
 31
0.0
210
0.0
220
0.0
230
1.0
 40
0.7631766188153514
 41
5.21735470268601
 42
5.471395867631728
  0
ELLIPSE
  5
8BDE
330
1F
100
AcDbEntity
  8
AM_0
100
AcDbEllipse
 10
-11.00981113184616
 20
-6.869872223263996
 30
0.0
 11
1.504126556167897
 21
-2.096187802423842
 31
0.0
210
0.0
220
0.0
230
0.9999999999999998
 40
0.9887692138764505
 41
0.9535057545536195
 42
3.739780338998244
  0
ELLIPSE
  5
8BDF
330
1F
100
AcDbEntity
  8
AM_0
100
AcDbEllipse
 10
-11.58779365808266
 20
-7.28460551467424
 30
0.0
 11
-1.504126556167897
 21
2.096187802423842
 31
0.0
210
0.0
220
0.0
230
0.9999999999999998
 40
0.9887692138764505
 41
4.095098408143379
 42
6.143298449027948
  0
ELLIPSE
  5
8BE0
330
1F
100
AcDbEntity
  8
AM_0
100
AcDbEllipse
 10
-11.58779365808266
 20
-7.28460551467424
 30
0.0
 11
1.165989578424726
 21
-1.624951784824684
 31
0.0
210
0.0
220
0.0
230
1.0
 40
0.9887692138764506
 41
2.484148358970267
 42
3.209397155313048
  0
ELLIPSE
  5
8BE1
330
1F
100
AcDbEntity
  8
AM_0
100
AcDbEllipse
 10
-0.7940804970647833
 20
-0.7949780217597891
 30
0.0
 11
0.4663958313698908
 21
-0.6499807139298741
 31
0.0
210
0.0
220
0.0
230
1.0
 40
0.9887692138764505
 41
0.3950003939154003
 42
2.576661958908349
  0
ELLIPSE
  5
8BE2
330
1F
100
AcDbEntity
  8
AM_0
100
AcDbEllipse
 10
-18.46505357205001
 20
56.42602362501965
 30
0.0
 11
0.1575844636443589
 21
-0.9875055122974856
 31
0.0
210
0.0
220
0.0
230
1.0
 40
0.3810249342306732
 41
5.141610027276048
 42
6.188807578472653
  0
ELLIPSE
  5
8BE3
330
1F
100
AcDbEntity
  8
AM_0
100
AcDbEllipse
 10
-21.50187094288094
 20
54.4706297111007
 30
0.0
 11
-4.218311180534694
 21
-0.5180258528065888
 31
0.0
210
0.0
220
0.0
230
1.0
 40
0.0871288427332453
 41
3.141592653589809
 42
3.970403306405159
  0
ELLIPSE
  5
8BE4
330
1F
100
AcDbEntity
  8
AM_0
100
AcDbEllipse
 10
-15.83281711632582
 20
56.53792741803967
 30
0.0
 11
0.3816714280340715
 21
-0.9242980693598967
 31
0.0
210
0.0
220
0.0
230
1.0
 40
0.9500238649106847
 41
6.000328026180783
 42
6.283185307179597
  0
ELLIPSE
  5
8BE5
330
1F
100
AcDbEntity
  8
AM_0
100
AcDbEllipse
 10
-13.25567255233022
 20
59.42255544473933
 30
0.0
 11
0.8479206861934491
 21
-0.5301231082731875
 31
0.0
210
0.0
220
0.0
230
1.0
 40
0.4706930241222423
 41
5.626325864122224
 42
6.283185307179582
  0
ELLIPSE
  5
8BE6
330
1F
100
AcDbEntity
  8
AM_0
100
AcDbEllipse
 10
-12.68981570996072
 20
65.6169272278047
 30
0.0
 11
-3.750815082195851
 21
-10.10406643156056
 31
0.0
210
0.0
220
0.0
230
1.0
 40
0.2712190385523964
 41
0.2316203477517916
 42
0.9297520485495226
  0
ELLIPSE
  5
8BE7
330
1F
100
AcDbEntity
  8
AM_0
100
AcDbEllipse
 10
-13.8838332493467
 20
59.39585056248252
 30
0.0
 11
0.885612437437668
 21
-0.4644250323310775
 31
0.0
210
0.0
220
0.0
230
1.0
 40
0.5409664954981999
 41
4.6836843132589
 42
5.587926586366531
  0
ELLIPSE
  5
8BE8
330
1F
100
AcDbEntity
  8
AM_0
100
AcDbEllipse
 10
-24.07025579057585
 20
64.67930970376325
 30
0.0
 11
9.721332506839392
 21
-6.077673869412212
 31
0.0
210
0.0
220
0.0
230
1.0
 40
0.6600593048509758
 41
5.635107255443982
 42
6.333238956241718
  0
SPLINE
  5
8BE9
330
1F
100
AcDbEntity
  8
AM_0
100
AcDbSpline
210
0.0
220
0.0
230
1.0
 70
     8
 71
     3
 72
    12
 73
     8
 74
     0
 42
0.0000000001
 43
0.0000000001
 40
-2.555497711727862
 40
-2.555497711727862
 40
-2.555497711727862
 40
-2.555497711727862
 40
-2.201983172992292
 40
-2.201983172992292
 40
-1.765885894744844
 40
-1.765885894744844
 40
-1.717671851544118
 40
-1.717671851544118
 40
-1.717671851544118
 40
-1.717671851544118
 10
-9.391052524071255
 20
63.73652655736187
 30
0.0
 10
-9.388213334325428
 20
63.7110427990262
 30
0.0
 10
-9.397348073338775
 20
63.70251624468501
 30
0.0
 10
-9.449720363907317
 20
63.71481280343052
 30
0.0
 10
-9.500566325173053
 20
63.74384838497703
 30
0.0
 10
-9.568392494730687
 20
63.79319509980781
 30
0.0
 10
-9.575366437849197
 20
63.7983676922848
 30
0.0
 10
-9.582551523671668
 20
63.80380464140502
 30
0.0
  0
ELLIPSE
  5
8BEA
330
1F
100
AcDbEntity
  8
AM_0
100
AcDbEllipse
 10
-11.19050988842002
 20
61.98115300574166
 30
0.0
 11
1.649071546555461
 21
1.788284594352318
 31
0.0
210
0.0
220
0.0
230
1.0
 40
0.4754120160908168
 41
0.0462968103690627
 42
0.8443926662150051
  0
SPLINE
  5
8BEB
330
1F
100
AcDbEntity
  8
AM_0
100
AcDbSpline
210
0.0
220
0.0
230
1.0
 70
     8
 71
     3
 72
    14
 73
    10
 74
     0
 42
0.0000000001
 43
0.0000000001
 40
1.717671851546748
 40
1.717671851546748
 40
1.717671851546748
 40
1.717671851546748
 40
1.765885894744827
 40
1.765885894744827
 40
2.20198317299225
 40
2.20198317299225
 40
2.638080451239674
 40
2.638080451239674
 40
2.664546665281524
 40
2.664546665281524
 40
2.664546665281524
 40
2.664546665281524
 10
-10.73078185479755
 20
63.75499013272589
 30
0.0
 10
-10.74473519371736
 20
63.74865452957284
 30
0.0
 10
-10.7587539699515
 20
63.74258947740897
 30
0.0
 10
-10.8998880913814
 20
63.6843592714692
 30
0.0
 10
-11.04918875570058
 20
63.64681489257875
 30
0.0
 10
-11.35479492567776
 20
63.61778074490963
 30
0.0
 10
-11.51100479710601
 20
63.62539813989305
 30
0.0
 10
-11.65865358914482
 20
63.66344845032275
 30
0.0
 10
-11.66717956478692
 20
63.66576743853177
 30
0.0
 10
-11.67575465499464
 20
63.66823566933324
 30
0.0
  0
ELLIPSE
  5
8BEC
330
1F
100
AcDbEntity
  8
AM_0
100
AcDbEllipse
 10
-11.00981113184616
 20
63.72525014863249
 30
0.0
 11
-2.560763022536358
 21
-0.3144721647625647
 31
0.0
210
0.0
220
0.0
230
1.0
 40
0.0871288427332452
 41
2.243726878371553
 42
3.141371911707941
  0
ELLIPSE
  5
8BED
330
1F
100
AcDbEntity
  8
AM_0
100
AcDbEllipse
 10
-10.9736568729844
 20
60.21530774032022
 30
0.0
 11
-1.397580117173723
 21
3.436711075360483
 31
0.0
210
0.0
220
0.0
230
1.0
 40
0.488628103783973
 41
5.916251505456117
 42
6.170292670401836
  0
ELLIPSE
  5
8BEE
330
1F
100
AcDbEntity
  8
AM_0
100
AcDbEllipse
 10
-11.00981113184616
 20
63.72525014863249
 30
0.0
 11
-2.560763022536358
 21
-0.3144721647625647
 31
0.0
210
0.0
220
0.0
230
1.0
 40
0.0871288427332452
 41
3.141371911707926
 42
5.927646496152541
  0
ELLIPSE
  5
8BF0
330
1F
100
AcDbEntity
  8
AM_0
100
AcDbEllipse
 10
-0.7940804970647833
 20
65.51509408008015
 30
0.0
 11
-0.7940350457477084
 21
-0.097510748763586
 31
0.0
210
0.0
220
0.0
230
1.0
 40
0.0871288427332453
 41
2.582866551069711
 42
4.764528116062662
  0
ELLIPSE
  5
8BF1
330
1F
100
AcDbEntity
  8
AM_0
100
AcDbEllipse
 10
-1.573039293606212
 20
71.79888267754119
 30
0.0
 11
-0.7940350457477074
 21
-0.0975107487635932
 31
0.0
210
0.0
220
0.0
230
0.9999999999999998
 40
0.0871288427332452
 41
3.141592653589794
 42
4.764528116062628
  0
ELLIPSE
  5
8BF2
330
1F
100
AcDbEntity
  8
AM_0
100
AcDbEllipse
 10
-3.199999978287295
 20
77.92760728869756
 30
0.0
 11
-1.19105256862156
 21
-0.1462661231453897
 31
0.0
210
0.0
220
0.0
230
1.0
 40
0.0871288427332453
 41
3.141592653589794
 42
4.76452811606259
  0
SPLINE
  5
8BF3
330
1F
100
AcDbEntity
  8
AM_0
100
AcDbSpline
210
0.0
220
0.0
230
1.0
 70
     8
 71
     3
 72
    16
 73
    12
 74
     0
 42
0.0000000001
 43
0.0000000001
 40
9.28033164244842
 40
9.28033164244842
 40
9.28033164244842
 40
9.28033164244842
 40
9.31735987719081
 40
9.31735987719081
 40
10.01296202430314
 40
10.01296202430314
 40
10.70856417141548
 40
10.70856417141548
 40
11.40416631852782
 40
11.40416631852782
 40
11.64352943170358
 40
11.64352943170358
 40
11.64352943170358
 40
11.64352943170358
 10
-16.71066801521556
 20
55.13652613883222
 30
0.0
 10
-16.71023256345551
 20
55.13545055047872
 30
0.0
 10
-16.7098547258771
 20
55.1343930959555
 30
0.0
 10
-16.70351896635077
 20
55.11379475029982
 30
0.0
 10
-16.71809689639292
 20
55.09960004324366
 30
0.0
 10
-16.78516871678562
 20
55.06376829671514
 30
0.0
 10
-16.8376508316586
 20
55.04192125566205
 30
0.0
 10
-16.97145911447057
 20
54.98666765287238
 30
0.0
 10
-17.05734654540583
 20
54.95137760374241
 30
0.0
 10
-17.1976677492222
 20
54.89890225148442
 30
0.0
 10
-17.2357854957786
 20
54.88504836885091
 30
0.0
 10
-17.275946742212
 20
54.87128980369859
 30
0.0
  0
ELLIPSE
  5
8BF4
330
1F
100
AcDbEntity
  8
AM_0
100
AcDbEllipse
 10
-23.79370318687233
 20
65.14486966503075
 30
0.0
 11
10.06216132004931
 21
-7.013902821700913
 31
0.0
210
0.0
220
0.0
230
1.0
 40
0.6855243663895417
 41
5.668771167020848
 42
6.366902867818587
  0
ELLIPSE
  5
8BF5
330
1F
100
AcDbEntity
  8
AM_0
100
AcDbEllipse
 10
-21.42769327006112
 20
62.03116576182869
 30
0.0
 11
-2.729495469757734
 21
-0.3351931988748284
 31
0.0
210
0.0
220
0.0
230
0.9999999999999998
 40
0.0871288427332452
 41
4.121503924497075
 42
8.560666572949426
  0
ELLIPSE
  5
8BF6
330
1F
100
AcDbEntity
  8
AM_0
100
AcDbEllipse
 10
-21.1747732601176
 20
54.57907059883526
 30
0.0
 11
-4.466447132330858
 21
-0.5484979617951713
 31
0.0
210
0.0
220
0.0
230
1.0
 40
0.0871288427332452
 41
3.164998796585161
 42
4.775807816225123
  0
ELLIPSE
  5
8BF7
330
1F
100
AcDbEntity
  8
AM_0
100
AcDbEllipse
 10
-21.50187094288094
 20
54.4706297111007
 30
0.0
 11
-4.218311180534694
 21
-0.5180258528065888
 31
0.0
210
0.0
220
0.0
230
1.0
 40
0.0871288427332453
 41
3.97040330640515
 42
6.283185307179577
  0
ELLIPSE
  5
8BF8
330
1F
100
AcDbEntity
  8
AM_0
100
AcDbEllipse
 10
-21.29979397670922
 20
52.82510657531055
 30
0.0
 11
-2.566506315368602
 21
-0.3151774645946565
 31
0.0
210
0.0
220
0.0
230
1.0
 40
0.0871288427332453
 41
2.187866157154307
 42
8.471051464333891
  0
ELLIPSE
  5
8BF9
330
1F
100
AcDbEntity
  8
AM_0
100
AcDbEllipse
 10
-21.42769327006112
 20
-11.57632961185265
 30
0.0
 11
1.603235670333985
 21
-2.23430870413394
 31
0.0
210
0.0
220
0.0
230
1.0
 40
0.9887692138764505
 41
2.066704662491196
 42
4.160178401219566
  0
ELLIPSE
  5
8BFA
330
1F
100
AcDbEntity
  8
AM_0
100
AcDbEllipse
 10
-11.80660803606463
 20
-20.00441331023614
 30
0.0
 11
1.387658308446743
 21
10.50164911731624
 31
0.0
210
0.0
220
0.0
230
1.0
 40
0.3828300160259386
 41
0.4657972291823269
 42
1.163928929980063
  0
ELLIPSE
  5
8BFB
330
1F
100
AcDbEntity
  8
AM_0
100
AcDbEllipse
 10
-12.68981570996072
 20
-19.78836760921132
 30
0.0
 11
-2.225138415379002
 21
-11.18571962629202
 31
0.0
210
0.0
220
0.0
230
1.0
 40
0.3645408990273528
 41
3.651184747179191
 42
4.349316447976923
  0
ELLIPSE
  5
8BFC
330
1F
100
AcDbEntity
  8
AM_0
100
AcDbEllipse
 10
-23.79370318687233
 20
-9.670794383054825
 30
0.0
 11
11.08512227099927
 21
2.99281709449037
 31
0.0
210
0.0
220
0.0
230
1.0
 40
0.4073076335133215
 41
5.113473372154553
 42
5.811605072952292
  0
ELLIPSE
  5
8BFD
330
1F
100
AcDbEntity
  8
AM_0
100
AcDbEllipse
 10
-24.07025579057585
 20
-8.830096708590687
 30
0.0
 11
-10.48010616242712
 21
-2.077780496308959
 31
0.0
210
0.0
220
0.0
230
1.0
 40
0.4209002228752405
 41
2.018885954659845
 42
2.717017655457582
  0
ELLIPSE
  5
8BFE
330
1F
100
AcDbEntity
  8
AM_0
100
AcDbEllipse
 10
55.66869037614253
 20
-26.72222409879953
 30
0.0
 11
-1.498369990568809
 21
-0.0699097372532939
 31
0.0
210
0.0
220
0.0
230
1.0
 40
0.7388085130073785
 41
6.102017641531639
 42
6.28318530717958
  0
ELLIPSE
  5
8BFF
330
1F
100
AcDbEntity
  8
AM_0
100
AcDbEllipse
 10
54.97822507011324
 20
-18.45250338262093
 30
0.0
 11
-0.3950025658437498
 21
-4.482630140104898
 31
0.0
210
0.0
220
0.0
230
1.0
 40
0.1214249004698425
 41
0.839510022496135
 42
0.9467828315184508
  0
ELLIPSE
  5
8C00
330
1F
100
AcDbEntity
  8
AM_0
100
AcDbEllipse
 10
55.66869037614253
 20
-26.72222409879953
 30
0.0
 11
-0.1316675219478978
 21
-1.494210046701634
 31
0.0
210
0.0
220
0.0
230
1.0
 40
0.1214249004698425
 41
-0.0000000000046017
 42
0.8395100224915207
  0
ELLIPSE
  5
8C01
330
1F
100
AcDbEntity
  8
AM_0
100
AcDbEllipse
 10
60.88322409906289
 20
-28.56094405673576
 30
0.0
 11
-0.1562454593781942
 21
-1.77312925541927
 31
0.0
210
0.0
220
0.0
230
1.0
 40
0.1214249004698426
 41
5.551899002880841
 42
8.693491656470655
  0
SPLINE
  5
8C02
330
1F
100
AcDbEntity
  8
AM_0
100
AcDbSpline
210
0.0
220
0.0
230
1.0
 70
     8
 71
     3
 72
     8
 73
     4
 74
     0
 42
0.0000000001
 43
0.0000000001
 40
0.0
 40
0.0
 40
0.0
 40
0.0
 40
0.0696311822163428
 40
0.0696311822163428
 40
0.0696311822163428
 40
0.0696311822163428
 10
60.94091039914395
 20
-29.68682752322667
 30
0.0
 10
60.94163941053228
 20
-29.70245236791903
 30
0.0
 10
60.94279205123882
 20
-29.71779374966514
 30
0.0
 10
60.94433351384191
 20
-29.73277041530231
 30
0.0
  0
ELLIPSE
  5
8C03
330
1F
100
AcDbEntity
  8
AM_0
100
AcDbEllipse
 10
56.48288431350284
 20
-23.04581280569357
 30
0.0
 11
-0.6105125271894477
 21
0.7920065998113614
 31
0.0
210
0.0
220
0.0
230
1.0
 40
0.4631744492350743
 41
1.487681221849087
 42
2.155966119221073
  0
ELLIPSE
  5
8C04
330
1F
100
AcDbEntity
  8
AM_0
100
AcDbEllipse
 10
56.20759448447723
 20
-22.13788452012625
 30
0.0
 11
-0.4151416743533572
 21
-1.203848737616759
 31
0.0
210
0.0
220
0.0
230
0.9999999999999998
 40
0.3720332168446971
 41
5.226946207806081
 42
6.797742534601052
  0
ELLIPSE
  5
8C05
330
1F
100
AcDbEntity
  8
AM_0
100
AcDbEllipse
 10
56.02966088492758
 20
-22.37986499694329
 30
0.0
 11
-0.9922268681239495
 21
0.1244421237882838
 31
0.0
210
0.0
220
0.0
230
1.0
 40
0.2885448600917253
 41
0.1271613941354268
 42
1.174358945332015
  0
ELLIPSE
  5
8C06
330
1F
100
AcDbEntity
  8
AM_0
100
AcDbEllipse
 10
56.62384976653346
 20
-21.92183881910142
 30
0.0
 11
-1.001912179737032
 21
-1.682382384526043
 31
0.0
210
0.0
220
0.0
230
0.9999999999999998
 40
0.7313551503516927
 41
5.326680137367686
 42
6.897476464162638
  0
ELLIPSE
  5
8C07
330
1F
100
AcDbEntity
  8
AM_0
100
AcDbEllipse
 10
55.66869037614253
 20
-26.72222409879953
 30
0.0
 11
-1.471160127110564
 21
0.2927249227517672
 31
0.0
210
0.0
220
0.0
230
0.9999999999999998
 40
0.6628860947807816
 41
0.1628960487017468
 42
1.733692375496644
  0
ELLIPSE
  5
8C08
330
1F
100
AcDbEntity
  8
AM_0
100
AcDbEllipse
 10
54.83211235024362
 20
-19.18682830963803
 30
0.0
 11
-0.3950025658437498
 21
-4.482630140104898
 31
0.0
210
0.0
220
0.0
230
1.0
 40
0.1214249004698425
 41
5.73337193147991
 42
7.122695329675711
  0
ELLIPSE
  5
8C09
330
1F
100
AcDbEntity
  8
AM_0
100
AcDbEllipse
 10
56.9370818893176
 20
-15.14463408118331
 30
0.0
 11
-0.9922268681239492
 21
0.124442123788286
 31
0.0
210
0.0
220
0.0
230
1.0
 40
0.2885448600917271
 41
0.1271613941354004
 42
1.174358945332023
  0
ELLIPSE
  5
8C0A
330
1F
100
AcDbEntity
  8
AM_0
100
AcDbEllipse
 10
62.18709757691977
 20
-18.64876149841149
 30
0.0
 11
0.2046722676259428
 21
1.413632125601667
 31
0.0
210
0.0
220
0.0
230
1.0
 40
0.1007595414232758
 41
4.230696582953322
 42
4.898981480325343
  0
ELLIPSE
  5
8C0B
330
1F
100
AcDbEntity
  8
AM_0
100
AcDbEllipse
 10
65.54402413630862
 20
-9.67079438305484
 30
0.0
 11
9.726860693053923
 21
4.233332518666254
 31
0.0
210
0.0
220
0.0
230
0.9999999999999998
 40
0.3474483259073846
 41
2.130738602545471
 42
2.828870303343209
  0
ELLIPSE
  5
8C0C
330
1F
100
AcDbEntity
  8
AM_0
100
AcDbEllipse
 10
59.7950050337605
 20
-9.594563384892012
 30
0.0
 11
-0.5876495686037414
 21
0.8091155569631856
 31
0.0
210
0.0
220
0.0
230
1.0
 40
0.3906019533802305
 41
0.000000000000159
 42
0.599111511217053
  0
ELLIPSE
  5
8C0D
330
1F
100
AcDbEntity
  8
AM_0
100
AcDbEllipse
 10
56.82517809629757
 20
-12.74620874188451
 30
0.0
 11
-0.9340428083340038
 21
0.357161073186213
 31
0.0
210
0.0
220
0.0
230
1.0
 40
0.9130127991445457
 41
-0.0000000000000198
 42
0.3022410863727256
  0
ELLIPSE
  5
8C0E
330
1F
100
AcDbEntity
  8
AM_0
100
AcDbEllipse
 10
59.82170991601731
 20
-10.16692706050309
 30
0.0
 11
-0.5325343857072605
 21
0.8464083695471035
 31
0.0
210
0.0
220
0.0
230
1.0
 40
0.4677260523443296
 41
0.6277369449842578
 42
1.531979218091837
  0
ELLIPSE
  5
8C0F
330
1F
100
AcDbEntity
  8
AM_0
100
AcDbEllipse
 10
65.59982641702629
 20
-20.00441331023614
 30
0.0
 11
-6.28860364848589
 21
9.560815068910718
 31
0.0
210
0.0
220
0.0
230
1.0
 40
0.696012492635658
 41
6.269117615310915
 42
6.967249316108651
  0
ELLIPSE
  5
8C10
330
1F
100
AcDbEntity
  8
AM_0
100
AcDbEllipse
 10
66.01608169908264
 20
-19.78836760921137
 30
0.0
 11
-7.176573171887889
 21
9.94447804038046
 31
0.0
210
0.0
220
0.0
230
0.9999999999999998
 40
0.7225088308018444
 41
6.239759668425688
 42
6.937891369223419
  0
ELLIPSE
  5
8C11
330
1F
100
AcDbEntity
  8
AM_0
100
AcDbEllipse
 10
54.97822507011324
 20
-18.45250338262093
 30
0.0
 11
-0.3950025658437498
 21
-4.482630140104898
 31
0.0
210
0.0
220
0.0
230
1.0
 40
0.1214249004698425
 41
1.604901839470971
 42
3.215710859110929
  0
SPLINE
  5
8C12
330
1F
100
AcDbEntity
  8
AM_0
100
AcDbSpline
210
0.0
220
0.0
230
1.0
 70
     8
 71
     3
 72
    14
 73
    10
 74
     0
 42
0.0000000001
 43
0.0000000001
 40
-2.664546665281592
 40
-2.664546665281592
 40
-2.664546665281592
 40
-2.664546665281592
 40
-2.638080451239741
 40
-2.638080451239741
 40
-2.201983172992292
 40
-2.201983172992292
 40
-1.765885894744844
 40
-1.765885894744844
 40
-1.717671851544118
 40
-1.717671851544118
 40
-1.717671851544118
 40
-1.717671851544118
 10
64.16425601499736
 20
-7.388879766548029
 30
0.0
 10
64.16145616763583
 20
-7.380318278653476
 30
0.0
 10
64.1588045831254
 20
-7.371805899731612
 30
0.0
 10
64.11494669400986
 20
-7.224400109095654
 30
0.0
 10
64.10038466187166
 20
-7.068696835719947
 30
0.0
 10
64.11396727470844
 20
-6.766162348172997
 30
0.0
 10
64.14300285625495
 20
-6.619398640861959
 30
0.0
 10
64.19234957108574
 20
-6.481462235140668
 30
0.0
 10
64.19752216356278
 20
-6.467770266708498
 30
0.0
 10
64.20295911268306
 20
-6.454151209397309
 30
0.0
  0
ELLIPSE
  5
8C13
330
1F
100
AcDbEntity
  8
AM_0
100
AcDbEllipse
 10
62.38030747701952
 20
-7.149561121329384
 30
0.0
 11
1.802386501519291
 21
1.714021158763851
 31
0.0
210
0.0
220
0.0
230
1.0
 40
0.4381515509844899
 41
5.521520157620299
 42
6.319616013466242
  0
ELLIPSE
  5
8C14
330
1F
100
AcDbEntity
  8
AM_0
100
AcDbEllipse
 10
60.61446221159804
 20
-6.99395751609677
 30
0.0
 11
3.573281262575271
 21
-1.056393908648237
 31
0.0
210
0.0
220
0.0
230
0.9999999999999998
 40
0.5088955001268994
 41
0.0833337017406916
 42
0.3373748666863424
  0
SPLINE
  5
8C15
330
1F
100
AcDbEntity
  8
AM_0
100
AcDbSpline
210
0.0
220
0.0
230
1.0
 70
     8
 71
     3
 72
    12
 73
     8
 74
     0
 42
0.0000000001
 43
0.0000000001
 40
1.717671851546748
 40
1.717671851546748
 40
1.717671851546748
 40
1.717671851546748
 40
1.765885894744827
 40
1.765885894744827
 40
2.20198317299225
 40
2.20198317299225
 40
2.362319032571727
 40
2.362319032571727
 40
2.362319032571727
 40
2.362319032571727
 10
64.15414460400381
 20
-5.407913621001569
 30
0.0
 10
64.14780900085077
 20
-5.402271895936905
 30
0.0
 10
64.14174394868689
 20
-5.396835844952477
 30
0.0
 10
64.08351374274719
 20
-5.344373072924042
 30
0.0
 10
64.04596936385667
 20
-5.308768384973973
 30
0.0
 10
64.02611493152915
 20
-5.289185491046737
 30
0.0
 10
64.0237695874456
 20
-5.286783844098522
 30
0.0
 10
64.02476997967449
 20
-5.286718809779245
 30
0.0
  0
ELLIPSE
  5
8C16
330
1F
100
AcDbEntity
  8
AM_0
100
AcDbEllipse
 10
64.12440461991048
 20
-6.869872223263996
 30
0.0
 11
-0.2264681377504165
 21
-2.570041280326807
 31
0.0
210
0.0
220
0.0
230
1.0
 40
0.1214249004698425
 41
1.581274954593735
 42
4.063822457440585
  0
ELLIPSE
  5
8C17
330
1F
100
AcDbEntity
  8
AM_0
100
AcDbEllipse
 10
65.91424855135812
 20
-0.7949780217597891
 30
0.0
 11
-0.0702226783722221
 21
-0.7969120249075377
 31
0.0
210
0.0
220
0.0
230
1.0
 40
0.1214249004698425
 41
1.022769593955521
 42
3.204431158948468
  0
ELLIPSE
  5
8C18
330
1F
100
AcDbEntity
  8
AM_0
100
AcDbEllipse
 10
72.20465265891363
 20
-1.349278886434824
 30
0.0
 11
-0.0702226783722121
 21
-0.7969120249075386
 31
0.0
210
0.0
220
0.0
230
1.0
 40
0.1214249004698425
 41
1.022769593950931
 42
3.141592653585202
  0
ELLIPSE
  5
8C19
330
1F
100
AcDbEntity
  8
AM_0
100
AcDbEllipse
 10
64.12440461991048
 20
-6.869872223263996
 30
0.0
 11
-0.2264681377504165
 21
-2.570041280326807
 31
0.0
210
0.0
220
0.0
230
1.0
 40
0.1214249004698425
 41
0.4530631595432637
 42
1.581274954593746
  0
SPLINE
  5
8C1A
330
1F
100
AcDbEntity
  8
AM_0
100
AcDbSpline
210
0.0
220
0.0
230
1.0
 70
     8
 71
     3
 72
    14
 73
    10
 74
     0
 42
0.0000000001
 43
0.0000000001
 40
2.555811695426468
 40
2.555811695426468
 40
2.555811695426468
 40
2.555811695426468
 40
3.154099996570999
 40
3.154099996570999
 40
3.849702143683387
 40
3.849702143683387
 40
4.545304290795776
 40
4.545304290795776
 40
4.582332525538684
 40
4.582332525538684
 40
4.582332525538684
 40
4.582332525538684
 10
55.05764515889325
 20
-14.58305575676797
 30
0.0
 10
55.09408577529154
 20
-14.47934941380515
 30
0.0
 10
55.12819801860053
 20
-14.38904272480226
 30
0.0
 10
55.19103668899515
 20
-14.2247078838194
 30
0.0
 10
55.22028776231548
 20
-14.14969350271087
 30
0.0
 10
55.27316273212147
 20
-14.03666803098576
 30
0.0
 10
55.29699616593063
 20
-13.99866109382554
 30
0.0
 10
55.32858659661326
 20
-13.9803107467784
 30
0.0
 10
55.33020181931386
 20
-13.97944086610783
 30
0.0
 10
55.33183732908423
 20
-13.97862860158932
 30
0.0
  0
ELLIPSE
  5
8C1B
330
1F
100
AcDbEntity
  8
AM_0
100
AcDbEllipse
 10
54.86978418237857
 20
-18.81654781523343
 30
0.0
 11
-0.3730579788523771
 21
-4.233595132321297
 31
0.0
210
0.0
220
0.0
230
1.0
 40
0.1214249004698425
 41
2.410306349286388
 42
3.141592653585183
  0
ELLIPSE
  5
8C1C
330
1F
100
AcDbEntity
  8
AM_0
100
AcDbEllipse
 10
61.62879936453816
 20
-19.41214197671672
 30
0.0
 11
-0.37305797885243
 21
-4.233595132321292
 31
0.0
210
0.0
220
0.0
230
0.9999999999999998
 40
0.1214249004698425
 41
0.2190128629899092
 42
1.460007182002321
  0
SPLINE
  5
8C1D
330
1F
100
AcDbEntity
  8
AM_0
100
AcDbSpline
210
0.0
220
0.0
230
1.0
 70
     8
 71
     3
 72
    18
 73
    14
 74
     0
 42
0.0000000001
 43
0.0000000001
 40
9.28033164244842
 40
9.28033164244842
 40
9.28033164244842
 40
9.28033164244842
 40
9.31735987719081
 40
9.31735987719081
 40
10.01296202430314
 40
10.01296202430314
 40
10.70856417141548
 40
10.70856417141548
 40
11.40416631852782
 40
11.40416631852782
 40
12.09976846564015
 40
12.09976846564015
 40
12.13679670038254
 40
12.13679670038254
 40
12.13679670038254
 40
12.13679670038254
 10
55.53568061011015
 20
-18.34758587519218
 30
0.0
 10
55.53460502175664
 20
-18.36039889212617
 30
0.0
 10
55.53354756723354
 20
-18.37322337499404
 30
0.0
 10
55.51294922157774
 20
-18.62716623011294
 30
0.0
 10
55.49875451452169
 20
-18.87175925215137
 30
0.0
 10
55.46292276799306
 20
-19.35007080997399
 30
0.0
 10
55.44107572693997
 20
-19.58377524191701
 30
0.0
 10
55.38582212415042
 20
-20.02433433541022
 30
0.0
 10
55.35053207502039
 20
-20.24620679592282
 30
0.0
 10
55.27245009860576
 20
-20.67617495168462
 30
0.0
 10
55.22986621295297
 20
-20.8843003782315
 30
0.0
 10
55.19282546716283
 20
-21.08993707259162
 30
0.0
 10
55.19097555459336
 20
-21.10029419139448
 30
0.0
 10
55.18914981827868
 20
-21.11061459746406
 30
0.0
  0
ELLIPSE
  5
8C1E
330
1F
100
AcDbEntity
  8
AM_0
100
AcDbEllipse
 10
54.86978418237857
 20
-18.81654781523343
 30
0.0
 11
-0.3730579788523771
 21
-4.233595132321297
 31
0.0
210
0.0
220
0.0
230
1.0
 40
0.1214249004698425
 41
-0.0000000000045892
 42
2.410306349286396
  0
ELLIPSE
  5
8C1F
330
1F
100
AcDbEntity
  8
AM_0
100
AcDbEllipse
 10
53.22426104658848
 20
-18.6715468134829
 30
0.0
 11
-0.2269760616859103
 21
-2.57580538248463
 31
0.0
210
0.0
220
0.0
230
1.0
 40
0.1214249004698425
 41
0.6277692000401144
 42
6.910954507219699
  0
ELLIPSE
  5
8C20
330
1F
100
AcDbEntity
  8
AM_0
100
AcDbEllipse
 10
76.61127607763699
 20
-13.33611494876595
 30
0.0
 11
-0.0702226783722121
 21
-0.7969120249075386
 31
0.0
210
0.0
220
0.0
230
1.0
 40
0.1214249004698425
 41
0.0628385053540881
 42
1.022769593950931
  0
ELLIPSE
  5
8C21
330
1F
100
AcDbEntity
  8
AM_0
100
AcDbEllipse
 10
78.31872874638536
 20
-2.528212871783601
 30
0.0
 11
-0.1053340175583182
 21
-1.195368037361307
 31
0.0
210
0.0
220
0.0
230
1.0
 40
0.1214249004698425
 41
1.022769593950901
 42
3.141592653585198
  0
LINE
  5
8C23
330
1F
100
AcDbEntity
  8
AM_0
100
AcDbLine
 10
64.03360997293669
 20
-13.01550912304583
 30
0.0
 11
70.3283110539191
 21
-13.57018863049883
 31
0.0
  0
LINE
  5
8C24
330
1F
100
AcDbEntity
  8
AM_0
100
AcDbLine
 10
65.96025640523817
 20
-1.2174504084374
 30
0.0
 11
72.25066051279348
 21
-1.771751273112406
 31
0.0
  0
LINE
  5
8C25
330
1F
100
AcDbEntity
  8
AM_0
100
AcDbLine
 10
65.98447122973027
 20
0.00193400314771
 30
0.0
 11
72.27487533728582
 21
-0.552366861527316
 31
0.0
  0
LINE
  5
8C26
330
1F
100
AcDbEntity
  8
AM_0
100
AcDbLine
 10
63.89314511370582
 20
-13.07328125727849
 30
0.0
 11
76.54730313962294
 21
-14.13157612308183
 31
0.0
  0
LINE
  5
8C27
330
1F
100
AcDbEntity
  8
AM_0
100
AcDbLine
 10
91.0809489037283
 20
-31.99819632216686
 30
0.0
 11
60.80266887745563
 21
-31.99819632216686
 31
0.0
  0
LINE
  5
8C28
330
1F
100
AcDbEntity
  8
AM_0
100
AcDbLine
 10
91.0809489037283
 20
-1.631621179638045
 30
0.0
 11
91.0809489037283
 21
-31.99819632216686
 31
0.0
  0
LINE
  5
8C8E
330
1F
100
AcDbEntity
  8
AM_0
100
AcDbLine
 10
78.38774052720473
 20
-3.153761546447299
 30
0.0
 11
91.0809489037283
 21
-3.153761546447299
 31
0.0
  0
LINE
  5
8C8F
330
1F
100
AcDbEntity
  8
AM_0
100
AcDbLine
 10
78.49330522212561
 20
-1.631621179638045
 30
0.0
 11
91.0809489037283
 21
-1.631621179638045
 31
0.0
  0
LINE
  5
8C91
330
1F
100
AcDbEntity
  8
AM_0
100
AcDbLine
 10
70.32170827508614
 20
-13.61091603110124
 30
0.0
 11
72.25490131479876
 21
-1.772768352931842
 31
0.0
  0
LINE
  5
8C92
330
1F
100
AcDbEntity
  8
AM_0
100
AcDbLine
 10
76.64642600850895
 20
-13.82507717552041
 30
0.0
 11
78.38774052720548
 21
-3.161921451800047
 31
0.0
  0
LINE
  5
8C93
330
1F
100
AcDbEntity
  8
AM_0
100
AcDbLine
 10
72.1182670951844
 20
-2.60946496649219
 30
0.0
 11
78.38774052720548
 21
-3.161921451800047
 31
0.0
  0
LINE
  5
8C94
330
1F
100
AcDbEntity
  8
AM_0
100
AcDbLine
 10
72.30068642762209
 20
-0.7932622034945425
 30
0.0
 11
78.4240627639437
 21
-1.332844834422324
 31
0.0
  0
LINE
  5
8C95
330
1F
100
AcDbEntity
  8
AM_0
100
AcDbLine
 10
76.64642600850895
 20
-13.82507717552041
 30
0.0
 11
70.37695257648799
 21
-13.27262069021255
 31
0.0
  0
LINE
  5
8C96
330
1F
100
AcDbEntity
  8
AM_0
100
AcDbLine
 10
70.33109388943407
 20
-13.55319625913585
 30
0.0
 11
76.56623399318099
 21
-14.10262734365483
 31
0.0
  0
LINE
  5
8C9B
330
1F
100
AcDbEntity
  8
AM_0
100
AcDbLine
 10
-18.34362867158017
 20
-12.6590798991512
 30
0.0
 11
-15.71139221585599
 21
-15.05750523845006
 31
0.0
  0
LINE
  5
8C9C
330
1F
100
AcDbEntity
  8
AM_0
100
AcDbLine
 10
-12.94036065967554
 20
-18.40678102159438
 30
0.0
 11
-10.89364833864067
 21
-11.66805225348605
 31
0.0
  0
LINE
  5
8C9D
330
1F
100
AcDbEntity
  8
AM_0
100
AcDbLine
 10
-20.0279633886887
 20
-31.99819632216683
 30
0.0
 11
-8.44169232938816
 21
-13.07328125727843
 31
0.0
  0
LINE
  5
8C9E
330
1F
100
AcDbEntity
  8
AM_0
100
AcDbLine
 10
-18.74160617575353
 20
-11.90551106742032
 30
0.0
 11
-25.69496669104592
 21
-14.80733646954369
 31
0.0
  0
LINE
  5
8C9F
330
1F
100
AcDbEntity
  8
AM_0
100
AcDbLine
 10
-36.68998371085956
 20
-4.714694128725895
 30
0.0
 11
-36.40066916235139
 21
-17.37112636521185
 31
0.0
  0
LINE
  5
8CA0
330
1F
100
AcDbEntity
  8
AM_0
100
AcDbLine
 10
-38.00000031693804
 20
-31.99819632216683
 30
0.0
 11
-38.00000031693798
 21
-6.998196322166748
 31
0.0
  0
LINE
  5
8CA1
330
1F
100
AcDbEntity
  8
AM_0
100
AcDbLine
 10
-23.08135137552915
 20
-10.57056447488888
 30
0.0
 11
-26.84532787986836
 21
-14.96761578217102
 31
0.0
  0
LINE
  5
8CA2
330
1F
100
AcDbEntity
  8
AM_0
100
AcDbLine
 10
-26.3830719705644
 20
-14.80010119300042
 30
0.0
 11
-22.22701458035658
 21
-9.94502370787643
 31
0.0
  0
LINE
  5
8CA3
330
1F
100
AcDbEntity
  8
AM_0
100
AcDbLine
 10
-23.08135137552903
 20
-10.57056447488888
 30
0.0
 11
-30.05643594152934
 21
-18.29734967251748
 31
0.0
  0
LINE
  5
8CA4
330
1F
100
AcDbEntity
  8
AM_0
100
AcDbLine
 10
55.8364088824211
 20
-12.65907989915126
 30
0.0
 11
55.94831267544112
 21
-15.05750523845006
 31
0.0
  0
LINE
  5
8CA5
330
1F
100
AcDbEntity
  8
AM_0
100
AcDbLine
 10
62.36503117646941
 20
-18.40678102159438
 30
0.0
 11
63.21018236767042
 21
-11.66805225348605
 31
0.0
  0
LINE
  5
8CA6
330
1F
100
AcDbEntity
  8
AM_0
100
AcDbLine
 10
55.05198746089866
 20
-14.58357571736525
 30
0.0
 11
55.8911352879636
 21
-12.38904766869825
 31
0.0
  0
LINE
  5
8CA7
330
1F
100
AcDbEntity
  8
AM_0
100
AcDbLine
 10
60.80266887745563
 20
-31.99819632216686
 30
0.0
 11
63.89314511370582
 21
-13.07328125727849
 31
0.0
  0
LINE
  5
8CAB
330
1F
100
AcDbEntity
  8
AM_0
100
AcDbLine
 10
62.09226607597395
 20
-2.717704874002947
 30
0.0
 11
61.73250497694278
 21
-4.980076472410416
 31
0.0
  0
LINE
  5
8CAC
330
1F
100
AcDbEntity
  8
AM_0
100
AcDbLine
 10
63.39552035936435
 20
-5.74364091649079
 30
0.0
 11
64.01907564660167
 21
-1.925222670522316
 31
0.0
  0
LINE
  5
8CAD
330
1F
100
AcDbEntity
  8
AM_0
100
AcDbLine
 10
63.39552035936435
 20
-5.74364091649079
 30
0.0
 11
64.21519926688404
 21
-0.7242353234820485
 31
0.0
  0
LINE
  5
8CAE
330
1F
100
AcDbEntity
  8
AM_0
100
AcDbLine
 10
65.96025640523817
 20
-1.2174504084374
 30
0.0
 11
64.03360997293669
 21
-13.01550912304583
 31
0.0
  0
LINE
  5
8CAF
330
1F
100
AcDbEntity
  8
AM_0
100
AcDbLine
 10
64.01907564660167
 20
-1.925222670522259
 30
0.0
 11
62.09226607597395
 21
-2.717704874002947
 31
0.0
  0
LINE
  5
8CB0
330
1F
100
AcDbEntity
  8
AM_0
100
AcDbLine
 10
64.21519926688404
 20
-0.7242353234820485
 30
0.0
 11
65.97825606722551
 21
0.0008966040811629
 31
0.0
  0
LINE
  5
8CB1
330
1F
100
AcDbEntity
  8
AM_0
100
AcDbLine
 10
64.20295911268306
 20
-6.454151209397309
 30
0.0
 11
59.15818820014988
 21
-9.628167530121345
 31
0.0
  0
LINE
  5
8CB2
330
1F
100
AcDbEntity
  8
AM_0
100
AcDbLine
 10
59.40545463396097
 20
-10.38297276152786
 30
0.0
 11
64.16425601499736
 21
-7.388879766547972
 31
0.0
  0
LINE
  5
8CB3
330
1F
100
AcDbEntity
  8
AM_0
100
AcDbLine
 10
59.13148331789307
 20
-9.055803854510259
 30
0.0
 11
64.15414460400381
 21
-5.407913621001512
 31
0.0
  0
LINE
  5
8CB4
330
1F
100
AcDbEntity
  8
AM_0
100
AcDbLine
 10
63.78030451627421
 20
-11.40191977197275
 30
0.0
 11
64.22009118939468
 21
-7.89532457712221
 31
0.0
  0
LINE
  5
8CB5
330
1F
100
AcDbEntity
  8
AM_0
100
AcDbLine
 10
59.20735546515664
 20
-8.785447827928805
 30
0.0
 11
64.02460202831491
 21
-5.286747499729813
 31
0.0
  0
LINE
  5
8CB6
330
1F
100
AcDbEntity
  8
AM_0
100
AcDbLine
 10
64.02476997967449
 20
-5.286718809779245
 30
0.0
 11
64.5098604580885
 21
-5.32946424664351
 31
0.0
  0
LINE
  5
8CB7
330
1F
100
AcDbEntity
  8
AM_0
100
AcDbLine
 10
61.73250497694278
 20
-4.980076472410416
 30
0.0
 11
61.55321423556313
 21
-7.081682670317945
 31
0.0
  0
LINE
  5
8CB8
330
1F
100
AcDbEntity
  8
AM_0
100
AcDbLine
 10
63.89314511370582
 20
-13.07328125727849
 30
0.0
 11
62.98721194135953
 21
-13.44588471927687
 31
0.0
  0
LINE
  5
8CB9
330
1F
100
AcDbEntity
  8
AM_0
100
AcDbLine
 10
63.21018236767042
 20
-11.66805225348605
 30
0.0
 11
63.78030451627421
 21
-11.40191977197275
 31
0.0
  0
LINE
  5
8CBA
330
1F
100
AcDbEntity
  8
AM_0
100
AcDbLine
 10
64.03360997293669
 20
-13.01550912304583
 30
0.0
 11
62.98721194135953
 21
-13.44588471927687
 31
0.0
  0
LINE
  5
8CBB
330
1F
100
AcDbEntity
  8
AM_0
100
AcDbLine
 10
59.15818820014988
 20
-9.628167530121345
 30
0.0
 11
59.13148331789296
 21
-9.055803854510259
 31
0.0
  0
LINE
  5
8CBC
330
1F
100
AcDbEntity
  8
AM_0
100
AcDbLine
 10
55.33183732908423
 20
-13.97862860158932
 30
0.0
 11
55.8364088824211
 21
-12.65907989915126
 31
0.0
  0
POLYLINE
  5
8CBD
102
{ACAD_REACTORS
330
8DE3
330
8DF2
102
}
330
1F
100
AcDbEntity
  8
AM_0
 62
     7
100
AcDb3dPolyline
 66
     1
 10
0.0
 20
0.0
 30
0.0
 70
     8
  0
VERTEX
  5
8CBE
330
8CBD
100
AcDbEntity
  8
AM_0
 62
     7
100
AcDbVertex
100
AcDb3dPolylineVertex
 10
29.11488484615517
 20
27.10550015388053
 30
0.0
 70
    32
  0
VERTEX
  5
8CBF
330
8CBD
100
AcDbEntity
  8
AM_0
 62
     7
100
AcDbVertex
100
AcDb3dPolylineVertex
 10
29.11488484615517
 20
19.18775106207452
 30
0.0
 70
    32
  0
SEQEND
  5
8CC0
330
8CBD
100
AcDbEntity
  8
AM_0
 62
     7
  0
POLYLINE
  5
8CC1
102
{ACAD_REACTORS
330
8DE3
330
8DF2
102
}
330
1F
100
AcDbEntity
  8
AM_0
 62
     7
100
AcDb3dPolyline
 66
     1
 10
0.0
 20
0.0
 30
0.0
 70
     8
  0
VERTEX
  5
8CC2
330
8CC1
100
AcDbEntity
  8
AM_0
 62
     7
100
AcDbVertex
100
AcDb3dPolylineVertex
 10
29.11488484615517
 20
27.10550015388053
 30
0.0
 70
    32
  0
VERTEX
  5
8CC3
330
8CC1
100
AcDbEntity
  8
AM_0
 62
     7
100
AcDbVertex
100
AcDb3dPolylineVertex
 10
21.19713575434923
 20
27.10550015388053
 30
0.0
 70
    32
  0
SEQEND
  5
8CC4
330
8CC1
100
AcDbEntity
  8
AM_0
 62
     7
  0
POLYLINE
  5
8CC5
102
{ACAD_REACTORS
330
8DE3
330
8DF2
102
}
330
1F
100
AcDbEntity
  8
AM_0
 62
     7
100
AcDb3dPolyline
 66
     1
 10
0.0
 20
0.0
 30
0.0
 70
     8
  0
VERTEX
  5
8CC6
330
8CC5
100
AcDbEntity
  8
AM_0
 62
     7
100
AcDbVertex
100
AcDb3dPolylineVertex
 10
18.04713575434914
 20
27.10550015388053
 30
0.0
 70
    32
  0
VERTEX
  5
8CC7
330
8CC5
100
AcDbEntity
  8
AM_0
 62
     7
100
AcDbVertex
100
AcDb3dPolylineVertex
 10
21.19713575434923
 20
26.69079478833053
 30
0.0
 70
    32
  0
SEQEND
  5
8CC8
330
8CC5
100
AcDbEntity
  8
AM_0
 62
     7
  0
POLYLINE
  5
8CC9
102
{ACAD_REACTORS
330
8DE3
330
8DF2
102
}
330
1F
100
AcDbEntity
  8
AM_0
 62
     7
100
AcDb3dPolyline
 66
     1
 10
0.0
 20
0.0
 30
0.0
 70
     8
  0
VERTEX
  5
8CCA
330
8CC9
100
AcDbEntity
  8
AM_0
 62
     7
100
AcDbVertex
100
AcDb3dPolylineVertex
 10
21.19713575434923
 20
27.52020551943052
 30
0.0
 70
    32
  0
VERTEX
  5
8CCB
330
8CC9
100
AcDbEntity
  8
AM_0
 62
     7
100
AcDbVertex
100
AcDb3dPolylineVertex
 10
18.04713575434914
 20
27.10550015388053
 30
0.0
 70
    32
  0
SEQEND
  5
8CCC
330
8CC9
100
AcDbEntity
  8
AM_0
 62
     7
  0
POLYLINE
  5
8CCD
102
{ACAD_REACTORS
330
8DE3
330
8DF2
102
}
330
1F
100
AcDbEntity
  8
AM_0
 62
     7
100
AcDb3dPolyline
 66
     1
 10
0.0
 20
0.0
 30
0.0
 70
     8
  0
VERTEX
  5
8CCE
330
8CCD
100
AcDbEntity
  8
AM_0
 62
     7
100
AcDbVertex
100
AcDb3dPolylineVertex
 10
21.19713575434923
 20
27.10550015388053
 30
0.0
 70
    32
  0
VERTEX
  5
8CCF
330
8CCD
100
AcDbEntity
  8
AM_0
 62
     7
100
AcDbVertex
100
AcDb3dPolylineVertex
 10
18.04713575434914
 20
27.10550015388053
 30
0.0
 70
    32
  0
SEQEND
  5
8CD0
330
8CCD
100
AcDbEntity
  8
AM_0
 62
     7
  0
POLYLINE
  5
8CD1
102
{ACAD_REACTORS
330
8DE3
330
8DF2
102
}
330
1F
100
AcDbEntity
  8
AM_0
 62
     7
100
AcDb3dPolyline
 66
     1
 10
0.0
 20
0.0
 30
0.0
 70
     8
  0
VERTEX
  5
8CD2
330
8CD1
100
AcDbEntity
  8
AM_0
 62
     7
100
AcDbVertex
100
AcDb3dPolylineVertex
 10
29.11488484615517
 20
16.03775106207449
 30
0.0
 70
    32
  0
VERTEX
  5
8CD3
330
8CD1
100
AcDbEntity
  8
AM_0
 62
     7
100
AcDbVertex
100
AcDb3dPolylineVertex
 10
29.52959021170523
 20
19.18775106207452
 30
0.0
 70
    32
  0
SEQEND
  5
8CD4
330
8CD1
100
AcDbEntity
  8
AM_0
 62
     7
  0
POLYLINE
  5
8CD5
102
{ACAD_REACTORS
330
8DE3
330
8DF2
102
}
330
1F
100
AcDbEntity
  8
AM_0
 62
     7
100
AcDb3dPolyline
 66
     1
 10
0.0
 20
0.0
 30
0.0
 70
     8
  0
VERTEX
  5
8CD6
330
8CD5
100
AcDbEntity
  8
AM_0
 62
     7
100
AcDbVertex
100
AcDb3dPolylineVertex
 10
28.70017948060524
 20
19.18775106207452
 30
0.0
 70
    32
  0
VERTEX
  5
8CD7
330
8CD5
100
AcDbEntity
  8
AM_0
 62
     7
100
AcDbVertex
100
AcDb3dPolylineVertex
 10
29.11488484615517
 20
16.03775106207449
 30
0.0
 70
    32
  0
SEQEND
  5
8CD8
330
8CD5
100
AcDbEntity
  8
AM_0
 62
     7
  0
POLYLINE
  5
8CD9
102
{ACAD_REACTORS
330
8DE3
330
8DF2
102
}
330
1F
100
AcDbEntity
  8
AM_0
 62
     7
100
AcDb3dPolyline
 66
     1
 10
0.0
 20
0.0
 30
0.0
 70
     8
  0
VERTEX
  5
8CDA
330
8CD9
100
AcDbEntity
  8
AM_0
 62
     7
100
AcDbVertex
100
AcDb3dPolylineVertex
 10
29.11488484615517
 20
19.18775106207452
 30
0.0
 70
    32
  0
VERTEX
  5
8CDB
330
8CD9
100
AcDbEntity
  8
AM_0
 62
     7
100
AcDbVertex
100
AcDb3dPolylineVertex
 10
29.11488484615517
 20
16.03775106207449
 30
0.0
 70
    32
  0
SEQEND
  5
8CDC
330
8CD9
100
AcDbEntity
  8
AM_0
 62
     7
  0
TEXT
  5
8CDD
330
1F
100
AcDbEntity
  8
AM_6
100
AcDbText
 10
26.17538927143471
 20
11.49636361696912
 30
0.0
 40
3.149999999999999
  1
-5%%d
100
AcDbText
  0
TEXT
  5
8CDE
330
1F
100
AcDbEntity
  8
AM_6
100
AcDbText
 10
10.6332180717527
 20
24.74126707291289
 30
0.0
 40
3.149999999999999
  1
-7%%D
100
AcDbText
  0
LINE
  5
8CE0
330
1F
100
AcDbEntity
  8
AM_5
 62
     3
100
AcDbLine
 10
0.0
 20
-0.8631572107979934
 30
0.0
 11
0.0
 21
65.61185841368551
 31
0.0
  0
LINE
  5
8CE1
330
1F
100
AcDbEntity
  8
AM_0
100
AcDbLine
 10
-32.02440345590605
 20
60.15243775148157
 30
0.0
 11
-31.51186854854699
 21
60.17422705542653
 31
0.0
  0
LINE
  5
8CE2
330
1F
100
AcDbEntity
  8
AM_0
100
AcDbLine
 10
-31.47383554326882
 20
59.86452233600978
 30
0.0
 11
-32.62285783003574
 21
59.81567415906342
 31
0.0
  0
LINE
  5
8CE3
330
1F
100
AcDbEntity
  8
AM_0
100
AcDbLine
 10
-36.40066916235139
 20
59.68179443245039
 30
0.0
 11
-31.4513958099202
 21
59.68179443245039
 31
0.0
  0
LINE
  5
8CE4
330
1F
100
AcDbEntity
  8
AM_0
100
AcDbLine
 10
-15.41556017770744
 20
63.61992117532368
 30
0.0
 11
-35.69303010985231
 21
61.03612173365248
 31
0.0
  0
LINE
  5
8CE5
330
1F
100
AcDbEntity
  8
AM_0
100
AcDbLine
 10
-30.46792556144533
 20
54.90833432682099
 30
0.0
 11
-31.12612329933847
 21
60.26807238181318
 31
0.0
  0
LINE
  5
8CE6
330
1F
100
AcDbEntity
  8
AM_0
100
AcDbLine
 10
-26.84532787986825
 20
55.7068238477445
 30
0.0
 11
-30.46792556144533
 21
54.90833432682099
 31
0.0
  0
LINE
  5
8CE7
330
1F
100
AcDbEntity
  8
AM_0
100
AcDbLine
 10
-30.84852850271124
 20
54.7726149221993
 30
0.0
 11
-31.51782516271202
 21
60.22273207114093
 31
0.0
  0
LINE
  5
8CE8
330
1F
100
AcDbEntity
  8
AM_0
100
AcDbLine
 10
-17.28355976234615
 20
54.9886555639073
 30
0.0
 11
-17.31543603668308
 21
55.24822570640221
 31
0.0
  0
LINE
  5
8CE9
330
1F
100
AcDbEntity
  8
AM_0
100
AcDbLine
 10
-15.45114568829183
 20
55.61362934867976
 30
0.0
 11
-17.27592530127924
 21
54.86012107702596
 31
0.0
  0
LINE
  5
8CEA
330
1F
100
AcDbEntity
  8
AM_0
100
AcDbLine
 10
-21.50553422207406
 20
54.93268285780631
 30
0.0
 11
-18.34362867158017
 21
55.43725441114317
 31
0.0
  0
LINE
  5
8CEB
330
1F
100
AcDbEntity
  8
AM_0
100
AcDbLine
 10
-18.74160617575353
 20
55.96046366375221
 30
0.0
 11
-25.69496669104592
 21
54.85085812364856
 31
0.0
  0
LINE
  5
8CEC
330
1F
100
AcDbEntity
  8
AM_0
100
AcDbLine
 10
-12.17316534553833
 20
63.70707243885728
 30
0.0
 11
-15.54315047177317
 21
63.16929589787203
 31
0.0
  0
LINE
  5
8CED
330
1F
100
AcDbEntity
  8
AM_0
100
AcDbLine
 10
-15.00263421597931
 20
70.15798281640842
 30
0.0
 11
-15.77299109471842
 21
76.43103852778127
 31
0.0
  0
LINE
  5
8CEE
330
1F
100
AcDbEntity
  8
AM_0
100
AcDbLine
 10
-14.68028792449615
 20
63.81604479560618
 30
0.0
 11
-15.45207106052618
 21
70.10071459350425
 31
0.0
  0
LINE
  5
8CF1
330
1F
100
AcDbEntity
  8
AM_0
100
AcDbLine
 10
-21.90333256021836
 20
61.88939836330475
 30
0.0
 11
-14.68028792449615
 21
63.81604479560618
 31
0.0
  0
LINE
  5
8CF2
330
1F
100
AcDbEntity
  8
AM_0
100
AcDbLine
 10
-1.615729632082187
 20
71.86377139384564
 30
0.0
 11
-0.8439464960520126
 21
65.57910159594759
 31
0.0
  0
LINE
  5
8CF3
330
1F
100
AcDbEntity
  8
AM_0
100
AcDbLine
 10
-0.000045451317078
 20
65.61260482884371
 30
0.0
 11
-0.7718285873472574
 21
71.89727462674181
 31
0.0
  0
LINE
  5
8CF4
330
1F
100
AcDbEntity
  8
AM_0
100
AcDbLine
 10
-3.2676233162568
 20
78.02449976293573
 30
0.0
 11
-2.497266437517694
 21
71.75144405156285
 31
0.0
  0
LINE
  5
8CF5
330
1F
100
AcDbEntity
  8
AM_0
100
AcDbLine
 10
-1.243602380221943
 20
71.90094242051467
 30
0.0
 11
-2.001771749154473
 21
78.07475461227998
 31
0.0
  0
LINE
  5
8CF6
330
1F
100
AcDbEntity
  8
AM_0
100
AcDbLine
 10
-0.1162897034740808
 20
65.56110193396024
 30
0.0
 11
-7.339334339196511
 21
63.63445550165882
 31
0.0
  0
LINE
  5
8CF7
330
1F
100
AcDbEntity
  8
AM_0
100
AcDbLine
 10
-14.68028792449615
 20
63.81604479560618
 30
0.0
 11
-0.8439464960520126
 21
65.57910159594759
 31
0.0
  0
LINE
  5
8CF8
330
1F
100
AcDbEntity
  8
AM_0
100
AcDbLine
 10
-9.582551523671554
 20
63.80380464140507
 30
0.0
 11
-12.73656071371044
 21
58.75903372887195
 31
0.0
  0
LINE
  5
8CF9
330
1F
100
AcDbEntity
  8
AM_0
100
AcDbLine
 10
-13.36472141072692
 20
58.73232884661515
 30
0.0
 11
-10.73078185479755
 21
63.75499013272595
 31
0.0
  0
LINE
  5
8CFA
330
1F
100
AcDbEntity
  8
AM_0
100
AcDbLine
 10
-11.67575465499464
 20
63.6682356693333
 30
0.0
 11
-14.16038585305023
 21
58.93029060121508
 31
0.0
  0
LINE
  5
8CFB
330
1F
100
AcDbEntity
  8
AM_0
100
AcDbLine
 10
-9.393634350582374
 20
63.71344947790261
 30
0.0
 11
-12.40775186613677
 21
58.8924323364662
 31
0.0
  0
LINE
  5
8CFC
330
1F
100
AcDbEntity
  8
AM_0
100
AcDbLine
 10
-9.748823743266939
 20
63.14533156552785
 30
0.0
 11
-8.44169232938816
 21
63.49399064242785
 31
0.0
  0
LINE
  5
8CFD
330
1F
100
AcDbEntity
  8
AM_0
100
AcDbLine
 10
-8.44169232938816
 20
63.49399064242785
 30
0.0
 11
-9.62511821726423
 21
63.3431959348738
 31
0.0
  0
LINE
  5
8CFE
330
1F
100
AcDbEntity
  8
AM_0
100
AcDbLine
 10
-9.391052524071255
 20
63.73652655736193
 30
0.0
 11
-9.43516430855675
 21
64.09573108871946
 31
0.0
  0
LINE
  5
8CFF
330
1F
100
AcDbEntity
  8
AM_0
100
AcDbLine
 10
-7.339334339196511
 20
63.63445550165882
 30
0.0
 11
-9.62511821726423
 21
63.3431959348738
 31
0.0
  0
LINE
  5
8D00
330
1F
100
AcDbEntity
  8
AM_0
100
AcDbLine
 10
-13.39356818443809
 20
63.51232261275187
 30
0.0
 11
-13.3941823580393
 21
63.51732385999584
 31
0.0
  0
LINE
  5
8D01
330
1F
100
AcDbEntity
  8
AM_0
100
AcDbLine
 10
-12.73656071371044
 20
58.7590337288719
 30
0.0
 11
-13.36472141072692
 21
58.73232884661509
 31
0.0
  0
LINE
  5
8D02
330
1F
100
AcDbEntity
  8
AM_0
100
AcDbLine
 10
-16.30974375364361
 20
76.3627763834352
 30
0.0
 11
-15.41556017770744
 21
63.61992117532368
 31
0.0
  0
LINE
  5
8D03
330
1F
100
AcDbEntity
  8
AM_0
100
AcDbLine
 10
-16.30815402365355
 20
76.36288067527413
 30
0.0
 11
-15.53784095357812
 21
70.09018170010408
 31
0.0
  0
LINE
  5
8D05
330
1F
100
AcDbEntity
  8
AM_0
100
AcDbLine
 10
-15.45924672103758
 20
70.09983339306721
 30
0.0
 11
-15.86271271210517
 21
69.99221446622286
 31
0.0
  0
LINE
  5
8D06
330
1F
100
AcDbEntity
  8
AM_0
100
AcDbLine
 10
-23.08135137552915
 20
61.41103711116149
 30
0.0
 11
-26.84532787986836
 21
55.70682384774456
 31
0.0
  0
LINE
  5
8D07
330
1F
100
AcDbEntity
  8
AM_0
100
AcDbLine
 10
-26.3830719705644
 20
55.27267271935047
 30
0.0
 11
-22.22701458035658
 21
61.57107486437332
 31
0.0
  0
LINE
  5
8D08
330
1F
100
AcDbEntity
  8
AM_0
100
AcDbLine
 10
-23.08135137552903
 20
61.41103711116149
 30
0.0
 11
-30.05643594152934
 21
59.87359563323231
 31
0.0
  0
LINE
  5
8D09
330
1F
100
AcDbEntity
  8
AM_0
100
AcDbLine
 10
-17.05350825025459
 20
62.39665427637375
 30
0.0
 11
-19.63317676216934
 21
62.06794728861417
 31
0.0
  0
LINE
  5
8D0A
330
1F
100
AcDbEntity
  8
AM_0
100
AcDbLine
 10
-19.93135485199388
 20
62.41539591803929
 30
0.0
 11
-15.41556017770744
 21
63.61992117532368
 31
0.0
  0
LINE
  5
8D0B
330
1F
100
AcDbEntity
  8
AM_0
100
AcDbLine
 10
-15.75081346321383
 20
62.60453611272983
 30
0.0
 11
-22.22701458035658
 21
61.57107486437327
 31
0.0
  0
LINE
  5
8D0C
330
1F
100
AcDbEntity
  8
AM_0
100
AcDbLine
 10
-17.05350825025471
 20
62.39665427637375
 30
0.0
 11
-21.17567576764042
 21
61.87139870131741
 31
0.0
  0
LINE
  5
8D0D
330
1F
100
AcDbEntity
  8
AM_0
100
AcDbLine
 10
-15.54315047177317
 20
63.16929589787209
 30
0.0
 11
-15.75081346321394
 21
62.60453611272983
 31
0.0
  0
LINE
  5
8D0E
330
1F
100
AcDbEntity
  8
AM_0
100
AcDbLine
 10
-21.90333256021836
 20
61.88939836330475
 30
0.0
 11
-21.94215590228338
 21
62.20553883585343
 31
0.0
  0
LINE
  5
8D0F
330
1F
100
AcDbEntity
  8
AM_0
100
AcDbLine
 10
-22.01957681237536
 20
61.83789546842128
 30
0.0
 11
-22.06264004436059
 21
62.18856158280313
 31
0.0
  0
LINE
  5
8D10
330
1F
100
AcDbEntity
  8
AM_0
100
AcDbLine
 10
-15.71139221585599
 20
55.54915820416325
 30
0.0
 11
-16.71066801521556
 21
55.13652613883222
 31
0.0
  0
LINE
  5
8D11
330
1F
100
AcDbEntity
  8
AM_0
100
AcDbLine
 10
-18.34362867158017
 20
55.43725441114317
 30
0.0
 11
-15.71139221585599
 21
55.54915820416319
 31
0.0
  0
LINE
  5
8D12
330
1F
100
AcDbEntity
  8
AM_0
100
AcDbLine
 10
-26.09394715322503
 20
60.74700362726061
 30
0.0
 11
-26.11680948395258
 21
60.93317276302567
 31
0.0
  0
LINE
  5
8D13
330
1F
100
AcDbEntity
  8
AM_0
100
AcDbLine
 10
-26.04327138701853
 20
60.75817353124598
 30
0.0
 11
-26.06658591880966
 21
60.94802496354494
 31
0.0
  0
LINE
  5
8D14
330
1F
100
AcDbEntity
  8
AM_0
100
AcDbLine
 10
-24.84976535846317
 20
61.22214689031427
 30
0.0
 11
-24.82574400274404
 21
61.0265397543915
 31
0.0
  0
LINE
  5
8D15
330
1F
100
AcDbEntity
  8
AM_0
100
AcDbLine
 10
-30.26298333261627
 20
60.33583544179909
 30
0.0
 11
-27.40885731288904
 21
60.45717238577687
 31
0.0
  0
LINE
  5
8D16
330
1F
100
AcDbEntity
  8
AM_0
100
AcDbLine
 10
-28.73067056573347
 20
60.16581957108771
 30
0.0
 11
-30.08525031591352
 21
60.10823256682614
 31
0.0
  0
LINE
  5
8D17
330
1F
100
AcDbEntity
  8
AM_0
100
AcDbLine
 10
-30.05643594152946
 20
59.87359563323231
 30
0.0
 11
-30.08525031591364
 21
60.10823256682614
 31
0.0
  0
LINE
  5
8D18
330
1F
100
AcDbEntity
  8
AM_0
100
AcDbLine
 10
-30.08525031591352
 20
60.10823256682614
 30
0.0
 11
-30.28198114115548
 21
60.3350061656961
 31
0.0
  0
LINE
  5
8D1A
330
1F
100
AcDbEntity
  8
AM_0
100
AcDbLine
 10
-22.83066383776418
 20
52.48767370271567
 30
0.0
 11
-23.54284593325144
 21
52.59357247326637
 31
0.0
  0
LINE
  5
8D1B
330
1F
100
AcDbEntity
  8
AM_0
100
AcDbLine
 10
-23.54284593325144
 20
52.59357247326637
 30
0.0
 11
-22.01197607219648
 21
52.93100534586127
 31
0.0
  0
LINE
  5
8D1C
330
1F
100
AcDbEntity
  8
AM_0
100
AcDbLine
 10
-19.76892411565415
 20
53.16253944790538
 30
0.0
 11
-19.056742020167
 21
53.05664067735468
 31
0.0
  0
LINE
  5
8D1D
330
1F
100
AcDbEntity
  8
AM_0
100
AcDbLine
 10
-19.05674202016689
 20
53.05664067735468
 30
0.0
 11
-20.58761188122196
 21
52.71920780475984
 31
0.0
  0
LINE
  5
8D1E
330
1F
100
AcDbEntity
  8
AM_0
100
AcDbLine
 10
-18.07648375584858
 20
53.48963179194562
 30
0.0
 11
-17.49978416641875
 21
54.22201157680799
 31
0.0
  0
LINE
  5
8D1F
330
1F
100
AcDbEntity
  8
AM_0
100
AcDbLine
 10
-22.83066383776418
 20
52.48767370271567
 30
0.0
 11
-22.86209543872996
 21
52.74362284706395
 31
0.0
  0
LINE
  5
8D20
330
1F
100
AcDbEntity
  8
AM_0
100
AcDbLine
 10
-20.58761188122196
 20
52.71920780475979
 30
0.0
 11
-22.83066383776406
 21
52.48767370271567
 31
0.0
  0
LINE
  5
8D21
330
1F
100
AcDbEntity
  8
AM_0
100
AcDbLine
 10
-20.58761188122196
 20
52.71920780475979
 30
0.0
 11
-20.63112539879466
 21
53.07354061785556
 31
0.0
  0
LINE
  5
8D22
330
1F
100
AcDbEntity
  8
AM_0
100
AcDbLine
 10
-22.01197607219637
 20
52.93100534586127
 30
0.0
 11
-19.76892411565415
 21
53.16253944790538
 31
0.0
  0
LINE
  5
8D23
330
1F
100
AcDbEntity
  8
AM_0
100
AcDbLine
 10
-29.17757544122946
 20
53.47229375531636
 30
0.0
 11
-25.29698918687256
 21
54.32764887103953
 31
0.0
  0
LINE
  5
8D24
330
1F
100
AcDbEntity
  8
AM_0
100
AcDbLine
 10
-25.62178241313552
 20
53.62346054208912
 30
0.0
 11
-29.17757544122946
 21
53.47229375531636
 31
0.0
  0
LINE
  5
8D25
330
1F
100
AcDbEntity
  8
AM_0
100
AcDbLine
 10
-25.61665635394899
 20
53.61322056547847
 30
0.0
 11
-29.29600111119509
 21
53.4568012463596
 31
0.0
  0
LINE
  5
8D26
330
1F
100
AcDbEntity
  8
AM_0
100
AcDbLine
 10
-25.16229766343156
 20
54.29161813103561
 30
0.0
 11
-24.49941156865077
 21
54.43773085090517
 31
0.0
  0
LINE
  5
8D27
330
1F
100
AcDbEntity
  8
AM_0
100
AcDbLine
 10
-25.29698918687256
 20
54.32764887103953
 30
0.0
 11
-24.16092076657571
 21
54.50894075290382
 31
0.0
  0
LINE
  5
8D28
330
1F
100
AcDbEntity
  8
AM_0
100
AcDbLine
 10
-24.58811611228452
 20
52.68997672615269
 30
0.0
 11
-25.32488593620257
 21
53.26105709903119
 31
0.0
  0
LINE
  5
8D29
330
1F
100
AcDbEntity
  8
AM_0
100
AcDbLine
 10
-25.72018212341561
 20
53.95260385829409
 30
0.0
 11
-25.74423009760164
 21
54.14842774976309
 31
0.0
  0
ARC
  5
8D2A
330
1F
100
AcDbEntity
  8
AM_0
100
AcDbCircle
 10
-29.35971279193427
 20
54.95544757613102
 30
0.0
 40
1.5
100
AcDbArc
 50
187.0011021389652
 51
272.4343392726702
  0
LINE
  5
8D2B
330
1F
100
AcDbEntity
  8
AM_0
100
AcDbLine
 10
-36.68998371085956
 20
60.76153102685153
 30
0.0
 11
-38.00836431693778
 21
65.63461343244917
 31
0.0
  0
LINE
  5
8D2C
330
1F
100
AcDbEntity
  8
AM_0
100
AcDbLine
 10
-35.69303010985231
 20
61.03612173365248
 30
0.0
 11
-36.68998371085956
 21
60.76153102685153
 31
0.0
  0
LINE
  5
8D2D
330
1F
100
AcDbEntity
  8
AM_0
100
AcDbLine
 10
-32.50054612223255
 20
60.0720348159859
 30
0.0
 11
-32.62285783003574
 21
59.81567415906347
 31
0.0
  0
LINE
  5
8D2E
330
1F
100
AcDbEntity
  8
AM_0
100
AcDbLine
 10
-36.68998371085956
 20
60.76153102685153
 30
0.0
 11
-36.40066916235139
 21
59.68179443245039
 31
0.0
  0
LINE
  5
8D30
330
1F
100
AcDbEntity
  8
AM_0
100
AcDbLine
 10
-15.41556017770744
 20
-1.925222670522259
 30
0.0
 11
-35.68468901928588
 21
-2.987482700959304
 31
0.0
  0
LINE
  5
8D35
330
1F
100
AcDbEntity
  8
AM_5
 62
     3
100
AcDbLine
 10
-0.001961350465308
 20
11.97731910382944
 30
0.0
 11
-0.0019613504654217
 21
19.490810810299
 31
0.0
  0
LINE
  5
8D38
330
1F
100
AcDbEntity
  8
AM_5
 62
     3
100
AcDbLine
 10
-14.68028792449615
 20
-0.7242353234820201
 30
0.0
 11
-19.42109920890447
 21
-0.972690714862324
 31
0.0
  0
LINE
  5
8D39
330
1F
100
AcDbEntity
  8
AM_0
100
AcDbLine
 10
-12.17316534553833
 20
-5.454880287910725
 30
0.0
 11
-15.54315047177317
 21
-6.861266224980909
 31
0.0
  0
LINE
  5
8D3A
330
1F
100
AcDbEntity
  8
AM_0
100
AcDbLine
 10
-14.68028792449615
 20
-0.7242353234820485
 30
0.0
 11
-15.25827045073254
 21
-1.138968614892291
 31
0.0
  0
LINE
  5
8D3B
330
1F
100
AcDbEntity
  8
AM_0
100
AcDbLine
 10
-19.67289823572787
 20
-8.87912187918198
 30
0.0
 11
-14.68028792449615
 21
-0.7242353234820485
 31
0.0
  0
LINE
  5
8D3C
330
1F
100
AcDbEntity
  8
AM_0
100
AcDbLine
 10
-0.1162897034740808
 20
-1.2174504084374
 30
0.0
 11
-7.339334339196511
 21
-13.01550912304583
 31
0.0
  0
LINE
  5
8D3D
330
1F
100
AcDbEntity
  8
AM_0
100
AcDbLine
 10
-14.68028792449615
 20
-0.7242353234820485
 30
0.0
 11
-0.8439464960520126
 21
0.0008966040811629
 31
0.0
  0
LINE
  5
8D3E
330
1F
100
AcDbEntity
  8
AM_0
100
AcDbLine
 10
-9.582551523671554
 20
-6.454151209397252
 30
0.0
 11
-12.73656071371044
 21
-9.628167530121345
 31
0.0
  0
LINE
  5
8D3F
330
1F
100
AcDbEntity
  8
AM_0
100
AcDbLine
 10
-12.37246487843424
 20
-10.38297276152786
 30
0.0
 11
-9.397244883395387
 21
-7.388879766547972
 31
0.0
  0
LINE
  5
8D40
330
1F
100
AcDbEntity
  8
AM_0
100
AcDbLine
 10
-13.36472141072692
 20
-9.055803854510202
 30
0.0
 11
-10.73078185479755
 21
-5.407913621001512
 31
0.0
  0
LINE
  5
8D41
330
1F
100
AcDbEntity
  8
AM_0
100
AcDbLine
 10
-10.55985013577048
 20
-11.4019197719727
 30
0.0
 11
-9.494813711668143
 21
-7.89532457712221
 31
0.0
  0
LINE
  5
8D42
330
1F
100
AcDbEntity
  8
AM_0
100
AcDbLine
 10
-11.67575465499464
 20
-5.312760974043612
 30
0.0
 11
-14.16038585305023
 21
-8.753865710427817
 31
0.0
  0
LINE
  5
8D43
330
1F
100
AcDbEntity
  8
AM_0
100
AcDbLine
 10
-8.44169232938816
 20
-13.07328125727843
 30
0.0
 11
-11.36701360620782
 21
-13.22659084906416
 31
0.0
  0
LINE
  5
8D44
330
1F
100
AcDbEntity
  8
AM_0
100
AcDbLine
 10
-7.339334339196511
 20
-13.01550912304583
 30
0.0
 11
-11.36701360620793
 21
-13.22659084906416
 31
0.0
  0
LINE
  5
8D45
330
1F
100
AcDbEntity
  8
AM_0
100
AcDbLine
 10
-10.89364833864067
 20
-11.66805225348605
 30
0.0
 11
-10.55985013577048
 21
-11.4019197719727
 31
0.0
  0
LINE
  5
8D46
330
1F
100
AcDbEntity
  8
AM_0
100
AcDbLine
 10
-8.684858997894593
 20
-13.47046759311882
 30
0.0
 11
-7.917316865432894
 21
-13.43024241445607
 31
0.0
  0
LINE
  5
8D47
330
1F
100
AcDbEntity
  8
AM_0
100
AcDbLine
 10
-8.464983222523414
 20
-13.45894439201515
 30
0.0
 11
-8.844548148058493
 21
-13.73130247158559
 31
0.0
  0
LINE
  5
8D48
330
1F
100
AcDbEntity
  8
AM_0
100
AcDbLine
 10
-8.234975733462988
 20
-13.44689021029677
 30
0.0
 11
-8.721963234824897
 21
-13.79632971780336
 31
0.0
  0
LINE
  5
8D49
330
1F
100
AcDbEntity
  8
AM_0
100
AcDbLine
 10
-7.339334339196511
 20
-13.01550912304583
 30
0.0
 11
-7.917316865432894
 21
-13.43024241445607
 31
0.0
  0
LINE
  5
8D4A
330
1F
100
AcDbEntity
  8
AM_0
100
AcDbLine
 10
-12.73656071371044
 20
-9.628167530121345
 30
0.0
 11
-13.36472141072692
 21
-9.055803854510259
 31
0.0
  0
LINE
  5
8D4B
330
1F
100
AcDbEntity
  8
AM_0
100
AcDbLine
 10
-19.67289823572775
 20
-8.879121879181923
 30
0.0
 11
-15.41556017770744
 21
-1.925222670522259
 31
0.0
  0
LINE
  5
8D4D
330
1F
100
AcDbEntity
  8
AM_0
100
AcDbLine
 10
-15.25827045073265
 20
-1.138968614892348
 30
0.0
 11
-15.75037603543751
 21
-1.942769626092115
 31
0.0
  0
LINE
  5
8D4E
330
1F
100
AcDbEntity
  8
AM_0
100
AcDbLine
 10
-15.99630484271449
 20
-1.955658208741397
 30
0.0
 11
-15.57176535325322
 21
-1.651028480669197
 31
0.0
  0
LINE
  5
8D4F
330
1F
100
AcDbEntity
  8
AM_0
100
AcDbLine
 10
-15.48897651460936
 20
-1.515801906766682
 30
0.0
 11
-15.99572031730736
 21
-1.879417614257306
 31
0.0
  0
LINE
  5
8D50
330
1F
100
AcDbEntity
  8
AM_0
100
AcDbLine
 10
-15.75081346321383
 20
-7.242329827751291
 30
0.0
 11
-22.22701458035658
 21
-9.94502370787643
 31
0.0
  0
LINE
  5
8D51
330
1F
100
AcDbEntity
  8
AM_0
100
AcDbLine
 10
-15.54315047177317
 20
-6.861266224980852
 30
0.0
 11
-15.75081346321394
 21
-7.242329827751291
 31
0.0
  0
LINE
  5
8D52
330
1F
100
AcDbEntity
  8
AM_0
100
AcDbLine
 10
-21.50553422207406
 20
-13.97862860158926
 30
0.0
 11
-18.34362867158017
 21
-12.6590798991512
 31
0.0
  0
LINE
  5
8D55
330
1F
100
AcDbEntity
  8
AM_0
100
AcDbLine
 10
-36.68161971085959
 20
-4.714694128725952
 30
0.0
 11
-38.00000031693793
 21
-6.998196322167117
 31
0.0
  0
LINE
  5
8D56
330
1F
100
AcDbEntity
  8
AM_0
100
AcDbLine
 10
-35.68466610985234
 20
-2.987919838992624
 30
0.0
 11
-36.68161971085959
 21
-4.714694128725895
 31
0.0
  0
LINE
  5
8D58
330
1F
100
AcDbEntity
  8
AM_0
100
AcDbLine
 10
55.0408916710511
 20
-22.29273615421004
 30
0.0
 11
54.18553655532798
 21
-26.59153083469965
 31
0.0
  0
LINE
  5
8D59
330
1F
100
AcDbEntity
  8
AM_0
100
AcDbLine
 10
54.18553655532798
 20
-26.59153083469965
 30
0.0
 11
54.01245906551458
 21
-22.88197438422014
 31
0.0
  0
LINE
  5
8D5A
330
1F
100
AcDbEntity
  8
AM_0
100
AcDbLine
 10
54.17032038557374
 20
-26.79213383605281
 30
0.0
 11
53.98708501893577
 21
-22.86486439737052
 31
0.0
  0
LINE
  5
8D5B
330
1F
100
AcDbEntity
  8
AM_0
100
AcDbLine
 10
60.91570186545777
 20
-27.06940563187572
 30
0.0
 11
60.87035185704087
 21
-26.09742240960088
 31
0.0
  0
LINE
  5
8D5C
330
1F
100
AcDbEntity
  8
AM_0
100
AcDbLine
 10
61.04775138596767
 20
-25.20585803212355
 30
0.0
 11
61.14330474043072
 21
-27.25384568664537
 31
0.0
  0
LINE
  5
8D5D
330
1F
100
AcDbEntity
  8
AM_0
100
AcDbLine
 10
55.71580362545262
 20
-27.73199872673984
 30
0.0
 11
56.51429314637619
 21
-23.71899589098706
 31
0.0
  0
LINE
  5
8D5E
330
1F
100
AcDbEntity
  8
AM_0
100
AcDbLine
 10
60.68106493186395
 20
-27.04872978133386
 30
0.0
 11
62.21850640979312
 21
-19.32194458370508
 31
0.0
  0
LINE
  5
8D5F
330
1F
100
AcDbEntity
  8
AM_0
100
AcDbLine
 10
62.36503117646941
 20
-18.40678102159438
 30
0.0
 11
56.06662903144649
 21
-23.26185850671834
 31
0.0
  0
LINE
  5
8D60
330
1F
100
AcDbEntity
  8
AM_0
100
AcDbLine
 10
56.51429314637619
 20
-23.71899589098711
 30
0.0
 11
62.21850640979312
 21
-19.32194458370508
 31
0.0
  0
LINE
  5
8D61
330
1F
100
AcDbEntity
  8
AM_0
100
AcDbLine
 10
61.46723294689639
 20
-23.374764589052
 30
0.0
 11
61.41304435650534
 21
-23.36998957269446
 31
0.0
  0
LINE
  5
8D62
330
1F
100
AcDbEntity
  8
AM_0
100
AcDbLine
 10
61.65774273108161
 20
-22.14019851677312
 30
0.0
 11
61.7859805686611
 21
-22.15149864042791
 31
0.0
  0
LINE
  5
8D63
330
1F
100
AcDbEntity
  8
AM_0
100
AcDbLine
 10
61.80954702060034
 20
-22.02523789652031
 30
0.0
 11
61.68283871642938
 21
-22.01407255302842
 31
0.0
  0
LINE
  5
8D64
330
1F
100
AcDbEntity
  8
AM_0
100
AcDbLine
 10
61.82507171554096
 20
-21.93912451335302
 30
0.0
 11
61.69994543747055
 21
-21.92809857560053
 31
0.0
  0
LINE
  5
8D65
330
1F
100
AcDbEntity
  8
AM_0
100
AcDbLine
 10
52.88682817399365
 20
-20.36739759062675
 30
0.0
 11
53.21184122208058
 21
-20.39603724723781
 31
0.0
  0
LINE
  5
8D66
330
1F
100
AcDbEntity
  8
AM_0
100
AcDbLine
 10
53.11836227603783
 20
-20.86583837264197
 30
0.0
 11
52.88682817399365
 21
-20.36739759062675
 31
0.0
  0
LINE
  5
8D67
330
1F
100
AcDbEntity
  8
AM_0
100
AcDbLine
 10
55.61340560287124
 20
-22.59591069796806
 30
0.0
 11
56.52082660726126
 21
-15.36067978220813
 31
0.0
  0
LINE
  5
8D68
330
1F
100
AcDbEntity
  8
AM_0
100
AcDbLine
 10
53.45579514863266
 20
-19.16998759549812
 30
0.0
 11
53.11836227603783
 21
-20.86583837264191
 31
0.0
  0
LINE
  5
8D69
330
1F
100
AcDbEntity
  8
AM_0
100
AcDbLine
 10
55.94831267544112
 20
-15.05750523845006
 30
0.0
 11
55.53568061011026
 21
-18.34758587519218
 31
0.0
  0
LINE
  5
8D6A
330
1F
100
AcDbEntity
  8
AM_0
100
AcDbLine
 10
55.24284216123112
 20
-14.58295268291215
 30
0.0
 11
55.59476533468899
 21
-14.61396361893656
 31
0.0
  0
LINE
  5
8D6B
330
1F
100
AcDbEntity
  8
AM_0
100
AcDbLine
 10
52.9927269445443
 20
-18.17310603146768
 30
0.0
 11
53.50174100126491
 21
-18.21795957774986
 31
0.0
  0
LINE
  5
8D6C
330
1F
100
AcDbEntity
  8
AM_0
100
AcDbLine
 10
53.56169391918331
 20
-16.97569603633917
 30
0.0
 11
53.45579514863254
 21
-19.16998759549812
 31
0.0
  0
LINE
  5
8D6D
330
1F
100
AcDbEntity
  8
AM_0
100
AcDbLine
 10
53.33015981713913
 20
-16.47725525432394
 30
0.0
 11
53.56169391918331
 21
-16.97569603633917
 31
0.0
  0
LINE
  5
8D6E
330
1F
100
AcDbEntity
  8
AM_0
100
AcDbLine
 10
52.9927269445443
 20
-18.17310603146768
 30
0.0
 11
53.33015981713913
 21
-16.47725525432383
 31
0.0
  0
LINE
  5
8D6F
330
1F
100
AcDbEntity
  8
AM_0
100
AcDbLine
 10
53.75201513320042
 20
-15.43722596099326
 30
0.0
 11
54.45680664432723
 21
-14.83755170281938
 31
0.0
  0
LINE
  5
8D70
330
1F
100
AcDbEntity
  8
AM_0
100
AcDbLine
 10
52.88682817399365
 20
-20.36739759062669
 30
0.0
 11
52.9927269445443
 21
-18.17310603146768
 31
0.0
  0
LINE
  5
8D71
330
1F
100
AcDbEntity
  8
AM_0
100
AcDbLine
 10
54.49672620352624
 20
-23.05014294755471
 30
0.0
 11
54.76787148497817
 21
-23.07403585831076
 31
0.0
  0
LINE
  5
8D72
330
1F
100
AcDbEntity
  8
AM_0
100
AcDbLine
 10
55.18914981827868
 20
-21.11061459746406
 30
0.0
 11
55.0408916710511
 21
-22.29273615421004
 31
0.0
  0
LINE
  5
8D73
330
1F
100
AcDbEntity
  8
AM_0
100
AcDbLine
 10
55.11956481804339
 20
-21.48182726644188
 30
0.0
 11
54.97345209817376
 21
-22.21615219345904
 31
0.0
  0
LINE
  5
8D74
330
1F
100
AcDbEntity
  8
AM_0
100
AcDbLine
 10
53.17826743589785
 20
-21.94831966807021
 30
0.0
 11
53.76732758964215
 21
-22.66200617161609
 31
0.0
  0
LINE
  5
8D75
330
1F
100
AcDbEntity
  8
AM_0
100
AcDbLine
 10
61.12643518068478
 20
-28.20877536910228
 30
0.0
 11
55.71580362545262
 21
-27.7319987267399
 31
0.0
  0
LINE
  5
8D76
330
1F
100
AcDbEntity
  8
AM_0
100
AcDbLine
 10
55.53702285419467
 20
-28.21643414550112
 30
0.0
 11
61.08691628855592
 21
-28.70548233333147
 31
0.0
  0
LINE
  5
8D77
330
1F
100
AcDbEntity
  8
AM_0
100
AcDbLine
 10
60.08094890372831
 20
-28.61683801387119
 30
0.0
 11
60.08094890372831
 21
-31.99819632216686
 31
0.0
  0
LINE
  5
8D78
330
1F
100
AcDbEntity
  8
AM_0
100
AcDbLine
 10
60.62314345769516
 20
-29.86804242682616
 30
0.0
 11
60.56676313007358
 21
-28.65964722630497
 31
0.0
  0
LINE
  5
8D79
330
1F
100
AcDbEntity
  8
AM_0
100
AcDbLine
 10
60.89433180325602
 20
-28.68851208072141
 30
0.0
 11
60.94091039914395
 21
-29.68682752322667
 31
0.0
  0
LINE
  5
8D7A
330
1F
100
AcDbEntity
  8
AM_0
100
AcDbLine
 10
60.94091039914395
 20
-29.68682752322667
 30
0.0
 11
60.95290598007284
 21
-29.6878845556156
 31
0.0
  0
LINE
  5
8D7B
330
1F
100
AcDbEntity
  8
AM_0
100
AcDbLine
 10
60.94091039914395
 20
-29.68682752322667
 30
0.0
 11
60.62314345769516
 21
-29.86804242682616
 31
0.0
  0
LINE
  5
8D7C
330
1F
100
AcDbEntity
  8
AM_0
100
AcDbLine
 10
60.91570186545777
 20
-27.06940563187572
 30
0.0
 11
60.68106493186395
 21
-27.04872978133386
 31
0.0
  0
LINE
  5
8D7D
330
1F
100
AcDbEntity
  8
AM_0
100
AcDbLine
 10
61.14430077324448
 20
-27.2763868902046
 30
0.0
 11
60.91570186545777
 21
-27.06940563187572
 31
0.0
  0
LINE
  5
8D7E
330
1F
100
AcDbEntity
  8
AM_0
100
AcDbLine
 10
60.80266887745563
 20
-31.99819632216686
 30
0.0
 11
60.08094890372831
 21
-31.99819632216686
 31
0.0
  0
ARC
  5
8D7F
330
1F
100
AcDbEntity
  8
AM_0
100
AcDbCircle
 10
55.66869037614253
 20
-26.72222409879953
 30
0.0
 40
1.5
100
AcDbArc
 50
182.6713229492383
 51
264.9641901036115
  0
LINE
  5
8D82
330
1F
100
AcDbEntity
  8
AM_0
100
AcDbLine
 10
-23.01834716093969
 20
-29.86804242682613
 30
0.0
 11
-32.62285783003574
 21
-21.11666231801
 31
0.0
  0
LINE
  5
8D83
330
1F
100
AcDbEntity
  8
AM_0
100
AcDbLine
 10
-32.47124869562878
 20
-20.93544741441051
 30
0.0
 11
-22.86673802653262
 21
-29.68682752322667
 31
0.0
  0
LINE
  5
8D84
330
1F
100
AcDbEntity
  8
AM_0
100
AcDbLine
 10
-25.90496627936477
 20
-31.99819632216683
 30
0.0
 11
-36.40066916235139
 21
-31.99819632216683
 31
0.0
  0
LINE
  5
8D85
330
1F
100
AcDbEntity
  8
AM_0
100
AcDbLine
 10
-36.40066916235139
 20
-17.37112636521185
 30
0.0
 11
-25.90496627936477
 21
-31.99819632216683
 31
0.0
  0
LINE
  5
8D86
330
1F
100
AcDbEntity
  8
AM_0
100
AcDbLine
 10
-17.14712128337237
 20
-22.59591069796801
 30
0.0
 11
-14.94960944242973
 21
-15.36067978220813
 31
0.0
  0
LINE
  5
8D87
330
1F
100
AcDbEntity
  8
AM_0
100
AcDbLine
 10
-12.94036065967554
 20
-18.40678102159438
 30
0.0
 11
-17.09641804988348
 21
-23.26185850671834
 31
0.0
  0
LINE
  5
8D88
330
1F
100
AcDbEntity
  8
AM_0
100
AcDbLine
 10
-17.21994887266783
 20
-23.69611356832945
 30
0.0
 11
-13.42806896509
 21
-19.26646569846354
 31
0.0
  0
LINE
  5
8D89
330
1F
100
AcDbEntity
  8
AM_0
100
AcDbLine
 10
-27.54640114249844
 20
-25.09383661480994
 30
0.0
 11
-23.85235857746147
 21
-28.45975204127778
 31
0.0
  0
LINE
  5
8D8A
330
1F
100
AcDbEntity
  8
AM_0
100
AcDbLine
 10
-21.78949031115564
 20
-26.59153083469965
 30
0.0
 11
-29.17757544122946
 21
-19.85969998176402
 31
0.0
  0
LINE
  5
8D8B
330
1F
100
AcDbEntity
  8
AM_0
100
AcDbLine
 10
-30.35404193410545
 20
-21.09188063638946
 30
0.0
 11
-22.96595680403163
 21
-27.82371148932508
 31
0.0
  0
LINE
  5
8D8C
330
1F
100
AcDbEntity
  8
AM_0
100
AcDbLine
 10
-17.90890405679863
 20
-22.29273615420999
 30
0.0
 11
-21.78949031115576
 21
-26.59153083469965
 31
0.0
  0
LINE
  5
8D8D
330
1F
100
AcDbEntity
  8
AM_0
100
AcDbLine
 10
-17.24961078483977
 20
-23.72986569500443
 30
0.0
 11
-20.8581908092193
 21
-27.72734019914833
 31
0.0
  0
LINE
  5
8D8E
330
1F
100
AcDbEntity
  8
AM_0
100
AcDbLine
 10
-22.83066383776418
 20
-20.36739759062669
 30
0.0
 11
-23.54284593325144
 21
-18.17310603146767
 31
0.0
  0
LINE
  5
8D8F
330
1F
100
AcDbEntity
  8
AM_0
100
AcDbLine
 10
-23.54284593325144
 20
-18.17310603146761
 30
0.0
 11
-22.01197607219648
 21
-16.47725525432383
 31
0.0
  0
LINE
  5
8D90
330
1F
100
AcDbEntity
  8
AM_0
100
AcDbLine
 10
-20.58761188122196
 20
-20.86583837264191
 30
0.0
 11
-22.83066383776406
 21
-20.36739759062669
 31
0.0
  0
LINE
  5
8D91
330
1F
100
AcDbEntity
  8
AM_0
100
AcDbLine
 10
-20.69448966883999
 20
-20.84208847782338
 30
0.0
 11
-19.42101672157639
 21
-19.43137412369782
 31
0.0
  0
LINE
  5
8D92
330
1F
100
AcDbEntity
  8
AM_0
100
AcDbLine
 10
-19.05674202016689
 20
-19.16998759549812
 30
0.0
 11
-20.58761188122196
 21
-20.86583837264191
 31
0.0
  0
LINE
  5
8D93
330
1F
100
AcDbEntity
  8
AM_0
100
AcDbLine
 10
-19.056742020167
 20
-19.16998759549812
 30
0.0
 11
-19.4210167215765
 21
-19.43137412369788
 31
0.0
  0
LINE
  5
8D94
330
1F
100
AcDbEntity
  8
AM_0
100
AcDbLine
 10
-19.76892411565415
 20
-16.97569603633911
 30
0.0
 11
-19.056742020167
 21
-19.16998759549812
 31
0.0
  0
LINE
  5
8D95
330
1F
100
AcDbEntity
  8
AM_0
100
AcDbLine
 10
-15.71139221585599
 20
-15.05750523845
 30
0.0
 11
-16.71066801521556
 21
-18.34758587519212
 31
0.0
  0
LINE
  5
8D96
330
1F
100
AcDbEntity
  8
AM_0
100
AcDbLine
 10
-20.13319881706377
 20
-17.23708256453886
 30
0.0
 11
-22.26937298598795
 21
-16.76239167734218
 31
0.0
  0
LINE
  5
8D97
330
1F
100
AcDbEntity
  8
AM_0
100
AcDbLine
 10
-19.4210167215765
 20
-19.43137412369788
 30
0.0
 11
-20.13319881706377
 21
-17.23708256453886
 31
0.0
  0
LINE
  5
8D98
330
1F
100
AcDbEntity
  8
AM_0
100
AcDbLine
 10
-19.76892411565427
 20
-16.97569603633911
 30
0.0
 11
-20.13319881706377
 21
-17.23708256453886
 31
0.0
  0
LINE
  5
8D99
330
1F
100
AcDbEntity
  8
AM_0
100
AcDbLine
 10
-22.01197607219637
 20
-16.47725525432389
 30
0.0
 11
-19.76892411565415
 21
-16.97569603633911
 31
0.0
  0
LINE
  5
8D9A
330
1F
100
AcDbEntity
  8
AM_0
100
AcDbLine
 10
-19.02414308872835
 20
-22.26957035798591
 30
0.0
 11
-19.4291906249058
 21
-22.56021356990157
 31
0.0
  0
LINE
  5
8D9B
330
1F
100
AcDbEntity
  8
AM_0
100
AcDbLine
 10
-17.85013495158432
 20
-21.48182726644193
 30
0.0
 11
-18.25083712313483
 21
-21.76935244746164
 31
0.0
  0
LINE
  5
8D9C
330
1F
100
AcDbEntity
  8
AM_0
100
AcDbLine
 10
-17.85013495158432
 20
-21.48182726644188
 30
0.0
 11
-18.51302104636511
 21
-22.21615219345898
 31
0.0
  0
LINE
  5
8D9D
330
1F
100
AcDbEntity
  8
AM_0
100
AcDbLine
 10
-17.54986560334384
 20
-21.110614597464
 30
0.0
 11
-17.90890405679863
 21
-22.29273615420999
 31
0.0
  0
LINE
  5
8D9E
330
1F
100
AcDbEntity
  8
AM_0
100
AcDbLine
 10
-18.51302104636511
 20
-22.21615219345898
 30
0.0
 11
-18.91372321791561
 21
-22.50367737447868
 31
0.0
  0
LINE
  5
8D9F
330
1F
100
AcDbEntity
  8
AM_0
100
AcDbLine
 10
-18.91372321791561
 20
-22.50367737447868
 30
0.0
 11
-18.25083712313483
 21
-21.76935244746158
 31
0.0
  0
LINE
  5
8DA0
330
1F
100
AcDbEntity
  8
AM_0
100
AcDbLine
 10
-29.17757544122946
 20
-19.85969998176402
 30
0.0
 11
-25.29698918687256
 21
-15.56090530127464
 31
0.0
  0
LINE
  5
8DA1
330
1F
100
AcDbEntity
  8
AM_0
100
AcDbLine
 10
-26.84532787986825
 20
-14.96761578217102
 30
0.0
 11
-30.46792556144533
 21
-18.98061861792352
 31
0.0
  0
LINE
  5
8DA2
330
1F
100
AcDbEntity
  8
AM_0
100
AcDbLine
 10
-25.16229766343156
 20
-16.15750442581695
 30
0.0
 11
-24.49941156865077
 21
-15.42317949879985
 31
0.0
  0
LINE
  5
8DA3
330
1F
100
AcDbEntity
  8
AM_0
100
AcDbLine
 10
-25.29698918687256
 20
-15.56090530127464
 30
0.0
 11
-24.16092076657571
 21
-15.08679322362273
 31
0.0
  0
LINE
  5
8DA4
330
1F
100
AcDbEntity
  8
AM_0
100
AcDbLine
 10
-23.97959879703341
 20
-15.363525272481
 30
0.0
 11
-24.38464633321098
 21
-15.65416848439666
 31
0.0
  0
LINE
  5
8DA5
330
1F
100
AcDbEntity
  8
AM_0
100
AcDbLine
 10
-30.26298333261627
 20
-18.50246557782922
 30
0.0
 11
-30.26244087603004
 21
-18.50295985015002
 31
0.0
  0
LINE
  5
8DA6
330
1F
100
AcDbEntity
  8
AM_0
100
AcDbLine
 10
-30.26298333261627
 20
-18.50246557782922
 30
0.0
 11
-31.26690140653704
 21
-19.55392640310962
 31
0.0
  0
LINE
  5
8DA7
330
1F
100
AcDbEntity
  8
AM_0
100
AcDbLine
 10
-31.26690140653704
 20
-19.55392640310962
 30
0.0
 11
-31.42718227515718
 21
-19.66893647551749
 31
0.0
  0
LINE
  5
8DA8
330
1F
100
AcDbEntity
  8
AM_0
100
AcDbLine
 10
-31.39545458950215
 20
-19.69784591679017
 30
0.0
 11
-31.42718227515718
 21
-19.66893647551749
 31
0.0
  0
LINE
  5
8DA9
330
1F
100
AcDbEntity
  8
AM_0
100
AcDbLine
 10
-30.05643594152946
 20
-18.29734967251754
 30
0.0
 11
-30.08525031591364
 21
-18.3180255230594
 31
0.0
  0
LINE
  5
8DAA
330
1F
100
AcDbEntity
  8
AM_0
100
AcDbLine
 10
-30.46792556144533
 20
-18.98061861792352
 30
0.0
 11
-31.2748978539073
 21
-19.55966428061667
 31
0.0
  0
LINE
  5
8DAB
330
1F
100
AcDbEntity
  8
AM_0
100
AcDbLine
 10
-30.08525031591352
 20
-18.3180255230594
 30
0.0
 11
-30.55318316102466
 21
-18.80640845823005
 31
0.0
  0
LINE
  5
8DAC
330
1F
100
AcDbEntity
  8
AM_0
100
AcDbLine
 10
-31.24044370753529
 20
-21.72792118834216
 30
0.0
 11
-30.35404193410545
 21
-21.09188063638946
 31
0.0
  0
LINE
  5
8DAD
330
1F
100
AcDbEntity
  8
AM_0
100
AcDbLine
 10
-31.24044370753529
 20
-21.72792118834216
 30
0.0
 11
-27.54640114249844
 21
-25.09383661480994
 31
0.0
  0
LINE
  5
8DAE
330
1F
100
AcDbEntity
  8
AM_0
100
AcDbLine
 10
-20.0279633886887
 20
-31.99819632216683
 30
0.0
 11
-25.90496627936477
 21
-31.99819632216683
 31
0.0
  0
LINE
  5
8DAF
330
1F
100
AcDbEntity
  8
AM_0
100
AcDbLine
 10
-22.96595680403163
 20
-27.82371148932508
 30
0.0
 11
-23.85235857746147
 21
-28.45975204127778
 31
0.0
  0
LINE
  5
8DB0
330
1F
100
AcDbEntity
  8
AM_0
100
AcDbLine
 10
-22.86673802653262
 20
-29.68682752322667
 30
0.0
 11
-23.01834716093969
 21
-29.86804242682607
 31
0.0
  0
ARC
  5
8DB1
330
1F
100
AcDbEntity
  8
AM_0
100
AcDbCircle
 10
-21.97162766186045
 20
-26.72222409879953
 30
0.0
 40
1.5
100
AcDbArc
 50
305.6614570189099
 51
317.9269611299652
  0
LINE
  5
8DB2
330
1F
100
AcDbEntity
  8
AM_0
100
AcDbLine
 10
-21.09713547804187
 20
-27.94093793741808
 30
0.0
 11
-21.94515630671173
 21
-28.54943811431576
 31
0.0
  0
LINE
  5
8DB3
330
1F
100
AcDbEntity
  8
AM_0
100
AcDbLine
 10
-36.40066916235139
 20
-17.37112636521185
 30
0.0
 11
-36.40066916235139
 21
-31.99819632216683
 31
0.0
  0
LINE
  5
8DB4
330
1F
100
AcDbEntity
  8
AM_0
100
AcDbLine
 10
-32.47124869562878
 20
-20.93544741441051
 30
0.0
 11
-32.62285783003574
 21
-21.11666231800994
 31
0.0
  0
LINE
  5
8DB5
330
1F
100
AcDbEntity
  8
AM_0
100
AcDbLine
 10
-36.40066916235139
 20
-31.99819632216683
 30
0.0
 11
-38.00836431693801
 21
-31.99819632216683
 31
0.0
  0
LINE
  5
8DB8
330
1F
100
AcDbEntity
  8
AM_0
100
AcDbLine
 10
-150.0000003169377
 20
65.6346134324492
 30
0.0
 11
-150.0000003169377
 21
90.63461343245039
 31
0.0
  0
LINE
  5
8DBE
330
1F
100
AcDbEntity
  8
AM_0
100
AcDbLine
 10
-150.0000003169377
 20
-31.99819632216683
 30
0.0
 11
-150.0000003169378
 21
-6.998196322166819
 31
0.0
  0
LINE
  5
8DC0
330
1F
100
AcDbEntity
  8
AM_5
 62
     3
100
AcDbLine
 10
-150.0000003169377
 20
-6.998196322166819
 30
0.0
 11
-150.0000003169377
 21
65.68179443244919
 31
0.0
  0
DIMENSION
  5
8DC9
330
1F
100
AcDbEntity
  8
AM_5
100
AcDbDimension
  2
*D18
 10
-165.7741157065394
 20
-6.99819632216683
 30
0.0
 11
-169.1744897222874
 21
-19.49819632216685
 31
0.0
 70
    32
  3
AM_JIS$0
100
AcDbAlignedDimension
 13
-150.0083643169377
 23
-31.99819632216683
 33
0.0
 14
-150.0083643169377
 24
-6.998196322166833
 34
0.0
 50
270.0
100
AcDbRotatedDimension
  0
DIMENSION
  5
8DE5
330
1F
100
AcDbEntity
  8
AM_5
100
AcDbDimension
  2
*D19
 10
12.08204228120564
 20
-0.0000000000000036
 30
0.0
 11
8.681668265457611
 21
-15.99909816108342
 31
0.0
 70
    32
  3
AM_JIS$0
100
AcDbAlignedDimension
 13
-20.02796338868859
 23
-31.99819632216683
 33
0.0
 14
-0.7466236926206875
 24
0.0
 34
0.0
 50
270.0
100
AcDbRotatedDimension
  0
DIMENSION
  5
8DF3
330
1F
100
AcDbEntity
  8
AM_5
100
AcDbDimension
  2
*D20
 10
-0.0019613504654217
 20
28.56199442615438
 30
0.0
 11
-15.91313725093733
 21
15.14416532017275
 31
0.0
 70
    34
  3
AM_JIS$2
100
AcDb2LineAngularDimension
 13
-14.68028792449615
 23
-0.7242353234820201
 33
0.0
 14
-19.42109920890447
 24
-0.972690714862324
 34
0.0
 15
-0.0019613504654217
 25
-0.863157011917508
 35
0.0
 16
-9.548255313003927
 26
15.93272435017331
 36
0.0
1001
ACAD
1000
DSTYLE
1002
{
1070
   271
1070
     0
1002
}
  0
DIMENSION
  5
8E00
330
1F
100
AcDbEntity
  8
AM_5
100
AcDbDimension
  2
*D21
 10
0.0000000000000017
 20
27.48082846530489
 30
0.0
 11
-19.00000015846896
 21
30.88082846530489
 31
0.0
 70
    32
  3
AM_JIS$0
100
AcDbAlignedDimension
 13
-38.00000031693793
 23
-6.998196322167117
 33
0.0
 14
0.0
 24
-0.8035048034918617
 34
0.0
 50
180.0
100
AcDbRotatedDimension
1001
ACAD
1000
DSTYLE
1002
{
1070
   271
1070
     6
1002
}
  0
DIMENSION
  5
8E0E
330
1F
100
AcDbEntity
  8
AM_5
100
AcDbDimension
  2
*D22
 10
-150.0000003169378
 20
37.35649087938686
 30
0.0
 11
-75.0000001584689
 21
40.75649087938686
 31
0.0
 70
    32
  3
AM_JIS$0
100
AcDbAlignedDimension
 13
0.0
 23
-0.8035048034918617
 33
0.0
 14
-150.0000003169378
 24
-6.998196322166819
 34
0.0
 50
180.0
100
AcDbRotatedDimension
1001
ACAD
1000
DSTYLE
1002
{
1070
   271
1070
     6
1002
}
  0
DIMENSION
  5
8E48
330
1F
100
AcDbEntity
  8
AM_5
100
AcDbDimension
  2
*D23
 10
13.19486915436027
 20
90.63461343245039
 30
0.0
 11
9.79449513861223
 21
78.13461344943007
 31
0.0
 70
    32
  3
AM_JIS$0
100
AcDbAlignedDimension
 13
-0.1638310748486447
 23
65.63461346640976
 33
0.0
 14
-2.003952526650664
 24
90.63461343245039
 34
0.0
 50
270.0
100
AcDbRotatedDimension
1001
ACAD
1000
DSTYLE
1002
{
1070
   271
1070
     6
1002
}
  0
DIMENSION
  5
8E83
330
1F
100
AcDbEntity
  8
AM_5
100
AcDbDimension
  2
*D24
 10
-167.3673640027415
 20
90.63461343245041
 30
0.0
 11
-170.7677380184895
 21
78.13461343244978
 31
0.0
 70
    32
  3
AM_JIS$0
100
AcDbAlignedDimension
 13
-150.0000003169377
 23
65.6346134324492
 33
0.0
 14
-150.0000003169377
 24
90.63461343245039
 34
0.0
 50
270.0
100
AcDbRotatedDimension
1001
ACAD
1000
DSTYLE
1002
{
1070
   271
1070
     6
1002
}
  0
LINE
  5
8F23
330
1F
100
AcDbEntity
  8
AM_0
100
AcDbLine
 10
-1.581547281355055
 20
71.86816012139786
 30
0.0
 11
-15.45207521556354
 21
70.10074720193498
 31
0.0
  0
LINE
  5
8F24
330
1F
100
AcDbEntity
  8
AM_0
100
AcDbLine
 10
-3.27479897676814
 20
78.0236185624987
 30
0.0
 11
-16.30803722702499
 21
76.36289492060102
 31
0.0
  0
LINE
  5
8F2F
330
1F
100
AcDbEntity
  8
AM_0
100
AcDbLine
 10
70.24482698766644
 20
-13.60452499553875
 30
0.0
 11
70.3283110539191
 21
-13.57018863049883
 31
0.0
  0
ENDSEC
  0
SECTION
  2
OBJECTS
  0
DICTIONARY
  5
C
330
0
100
AcDbDictionary
  3
ACAD_GROUP
350
D
  3
ACAD_LAYOUT
350
1A
  3
ACAD_MLINESTYLE
350
17
  3
ACAD_PLOTSETTINGS
350
19
  3
ACAD_PLOTSTYLENAME
350
E
  3
ACDBVARIABLEDICTIONARY
350
30
  3
ACMDICTIONARY
350
4D
  3
AMG
350
3F
  3
AMGSNAPSETTINGS
350
73
  3
ENG_DATA
350
21C6
  3
FILENAME
350
21C9
  3
HOLD_DIC_DATA
350
21C4
  3
TABLE_DIC_DATA
350
1C0B
  3
ZWKSIZE
350
21CB
  3
DWGPROPS
350
8F40
  3
ACDBHEADERROUNDTRIPXREC
350
8F4E
  0
DICTIONARY
  5
165
330
1F
100
AcDbDictionary
280
     1
  3
ACAD_INDEX
360
8F42
  3
ACAD_LAYOUTSELFREF
360
8F71
  0
DICTIONARY
  5
8F6F
330
1B
100
AcDbDictionary
280
     1
  3
ACAD_LAYOUTSELFREF
360
8F70
  0
DICTIONARY
  5
D
102
{ACAD_REACTORS
330
C
102
}
330
C
100
AcDbDictionary
  3
*A1
350
7C0D
  3
*A2
350
7C0E
  3
*A3
350
847B
  3
*A4
350
8DE3
  3
*A5
350
8DF2
  0
DICTIONARY
  5
1A
102
{ACAD_REACTORS
330
C
102
}
330
C
100
AcDbDictionary
  0
DICTIONARY
  5
17
102
{ACAD_REACTORS
330
C
102
}
330
C
100
AcDbDictionary
  3
STANDARD
350
18
  0
DICTIONARY
  5
19
102
{ACAD_REACTORS
330
C
102
}
330
C
100
AcDbDictionary
  0
ACDBDICTIONARYWDFLT
  5
E
102
{ACAD_REACTORS
330
C
102
}
330
C
100
AcDbDictionary
281
     1
  3
Normal
350
F
100
AcDbDictionaryWithDefault
340
F
  0
DICTIONARY
  5
30
102
{ACAD_REACTORS
330
C
102
}
330
C
100
AcDbDictionary
  3
INDEXCTL
350
31
  3
SORTENTS
350
42BE
  0
DICTIONARY
  5
4D
102
{ACAD_REACTORS
330
C
102
}
330
C
100
AcDbDictionary
  3
ACMSTDDICTIONARY
350
17E
  0
DICTIONARY
  5
3F
102
{ACAD_REACTORS
330
C
102
}
330
C
100
AcDbDictionary
  3
ACMGSETTINGS
350
40
  0
DICTIONARY
  5
73
102
{ACAD_REACTORS
330
C
102
}
330
C
100
AcDbDictionary
  0
DICTIONARY
  5
21C6
102
{ACAD_REACTORS
330
C
102
}
330
C
100
AcDbDictionary
  3
ENG_ID
350
21C7
  0
DICTIONARY
  5
21C9
102
{ACAD_REACTORS
330
C
102
}
330
C
100
AcDbDictionary
  3
FILENAME
350
21CA
  0
DICTIONARY
  5
21C4
102
{ACAD_REACTORS
330
C
102
}
330
C
100
AcDbDictionary
  3
HOLD_DATA
350
21C5
  0
DICTIONARY
  5
1C0B
102
{ACAD_REACTORS
330
C
102
}
330
C
100
AcDbDictionary
  3
INPUT_DATA
350
1C0D
  3
TABLE_DATA
350
1C0C
  0
DICTIONARY
  5
21CB
102
{ACAD_REACTORS
330
C
102
}
330
C
100
AcDbDictionary
  3
ZWKSIZE
350
21CC
  0
XRECORD
  5
8F40
102
{ACAD_REACTORS
330
C
102
}
330
C
100
AcDbXrecord
  1
DWGPROPS COOKIE
  2

  3

  4

  6

  7

  8

  9

300
AmdtFileType=82
301
=
302
=
303
=
304
=
305
=
306
=
307
=
308
=
309
=
 40
0.4977236689814815
 41
2451943.610431666
 42
2453022.975484745
  1

 90
        1
  0
DICTIONARY
  5
8F4E
102
{ACAD_REACTORS
330
C
102
}
330
C
100
AcDbDictionary
  3
TSTACKALIGN
350
8F4F
  3
TSTACKSIZE
350
8F50
  3
HYPERLINKBASE
350
8F51
  3
STYLESHEET
350
8F52
  3
LAYOUTDICT
350
8F53
  3
PLOTSETDICT
350
8F54
  3
PLOTSTYLNAMDICT
350
8F55
  3
LWETCUNION
350
8F56
  3
INSUNITS
350
8F57
  3
CEPSNTYPE
350
8F58
  3
FINGERPRINTGUID
350
8F59
  3
VERSIONGUID
350
8F5A
  3
PSVPSCALE
350
8F5B
  3
DIMSTYLEDATA
350
8F5C
  3
PUCSORTHOREF
350
8F5D
  3
PUCSORTHOVIEW
350
8F5E
  3
PUCSBASE
350
8F5F
  3
PUCSORGTOP
350
8F60
  3
PUCSORGBOTTOM
350
8F61
  3
PUCSORGLEFT
350
8F62
  3
PUCSORGRIGHT
350
8F63
  3
PUCSORGFRONT
350
8F64
  3
PUCSORGBACK
350
8F65
  3
UCSORTHOREF
350
8F66
  3
UCSORTHOVIEW
350
8F67
  3
UCSBASE
350
8F68
  3
UCSORGTOP
350
8F69
  3
UCSORGBOTTOM
350
8F6A
  3
UCSORGLEFT
350
8F6B
  3
UCSORGRIGHT
350
8F6C
  3
UCSORGFRONT
350
8F6D
  3
UCSORGBACK
350
8F6E
  0
DICTIONARY
  5
8F42
102
{ACAD_REACTORS
330
165
102
}
330
165
100
AcDbDictionary
  3
*A1
350
8F43
  0
XRECORD
  5
8F71
102
{ACAD_REACTORS
330
165
102
}
330
165
100
AcDbXrecord
340
1F
  0
XRECORD
  5
8F70
102
{ACAD_REACTORS
330
8F6F
102
}
330
8F6F
100
AcDbXrecord
340
1B
  0
GROUP
  5
7C0D
102
{ACAD_REACTORS
330
D
102
}
330
D
100
AcDbGroup
300

 70
     1
 71
     1
  0
GROUP
  5
7C0E
102
{ACAD_REACTORS
330
D
102
}
330
D
100
AcDbGroup
300

 70
     1
 71
     1
  0
GROUP
  5
847B
102
{ACAD_REACTORS
330
D
102
}
330
D
100
AcDbGroup
300

 70
     1
 71
     1
  0
GROUP
  5
8DE3
102
{ACAD_REACTORS
330
D
102
}
330
D
100
AcDbGroup
300

 70
     1
 71
     1
340
8CBD
340
8CC1
340
8CCD
340
8CC9
340
8CC5
340
8CD9
340
8CD5
340
8CD1
  0
GROUP
  5
8DF2
102
{ACAD_REACTORS
330
D
102
}
330
D
100
AcDbGroup
300

 70
     1
 71
     1
340
8CBD
340
8CC1
340
8CD9
340
8CD5
340
8CD1
340
8CCD
340
8CC9
340
8CC5
  0
MLINESTYLE
  5
18
102
{ACAD_REACTORS
330
17
102
}
330
17
100
AcDbMlineStyle
  2
STANDARD
 70
     0
  3

 62
   256
 51
90.0
 52
90.0
 71
     2
 49
0.5
 62
   256
  6
BYLAYER
 49
-0.5
 62
   256
  6
BYLAYER
  0
ACDBPLACEHOLDER
  5
F
102
{ACAD_REACTORS
330
E
102
}
330
E
100
AcDbPlaceHolder
280
     0
  0
DICTIONARYVAR
  5
31
102
{ACAD_REACTORS
330
30
102
}
330
30
100
DictionaryVariables
280
     0
  1
1
  0
DICTIONARYVAR
  5
42BE
102
{ACAD_REACTORS
330
30
102
}
330
30
100
DictionaryVariables
280
     0
  1
96
  0
DICTIONARY
  5
17E
102
{ACAD_REACTORS
330
4D
102
}
330
4D
100
AcDbDictionary
  0
DICTIONARY
  5
40
102
{ACAD_REACTORS
330
3F
102
}
330
3F
100
AcDbDictionary
  3
DWGSETTINGS
350
41
  0
XRECORD
  5
21C7
102
{ACAD_REACTORS
330
21C6
102
}
330
21C6
100
AcDbXrecord
  1
HOLD
  0

  0
XRECORD
  5
21CA
102
{ACAD_REACTORS
330
21C9
102
}
330
21C9
100
AcDbXrecord
  1
21000065__00___
  0

  0
XRECORD
  5
21C5
102
{ACAD_REACTORS
330
21C4
102
}
330
21C4
100
AcDbXrecord
  1
クランクシャフト加工用 ^M^J１コーナー型 ^M^J15.875 ^M^J20 ^M^Jクランプオン ^M^J９０° ^M^J1 ^M^J鋼 ^M^J ^M^J ^M^J ^M^J ^M^J
  0

  0
XRECORD
  5
1C0D
102
{ACAD_REACTORS
330
1C0B
102
}
330
1C0B
100
AcDbXrecord
  1
1,,,,,,,,,^M^J2,,,,,,,,,^M^J3,,,,,,,,,^M^J4,,,,,,,,,^M^J5,,,,,,,,,^M^J6,,,,,,,,,^M^J7,,,,,,,,,^M^J8,,,,,,,,,^M^J9,,,,,,,,,^M^J10,,,,,,,,,
  0

  0
XRECORD
  5
1C0C
102
{ACAD_REACTORS
330
1C0B
102
}
330
1C0B
100
AcDbXrecord
  1
10,10
  0

  0
XRECORD
  5
21CC
102
{ACAD_REACTORS
330
21CB
102
}
330
21CB
100
AcDbXrecord
  1
3
  0

  0
XRECORD
  5
8F4F
102
{ACAD_REACTORS
330
8F4E
102
}
330
8F4E
100
AcDbXrecord
 90
        1
  0
XRECORD
  5
8F50
102
{ACAD_REACTORS
330
8F4E
102
}
330
8F4E
100
AcDbXrecord
 90
       70
  0
XRECORD
  5
8F51
102
{ACAD_REACTORS
330
8F4E
102
}
330
8F4E
100
AcDbXrecord
  1

  0
XRECORD
  5
8F52
102
{ACAD_REACTORS
330
8F4E
102
}
330
8F4E
100
AcDbXrecord
  1
sei_cad.ctb
  0
XRECORD
  5
8F53
102
{ACAD_REACTORS
330
8F4E
102
}
330
8F4E
100
AcDbXrecord
340
1A
  0
XRECORD
  5
8F54
102
{ACAD_REACTORS
330
8F4E
102
}
330
8F4E
100
AcDbXrecord
340
19
  0
XRECORD
  5
8F55
102
{ACAD_REACTORS
330
8F4E
102
}
330
8F4E
100
AcDbXrecord
340
E
  0
XRECORD
  5
8F56
102
{ACAD_REACTORS
330
8F4E
102
}
330
8F4E
100
AcDbXrecord
 90
    10781
  0
XRECORD
  5
8F57
102
{ACAD_REACTORS
330
8F4E
102
}
330
8F4E
100
AcDbXrecord
 90
        4
  0
XRECORD
  5
8F58
102
{ACAD_REACTORS
330
8F4E
102
}
330
8F4E
100
AcDbXrecord
 90
        0
  0
XRECORD
  5
8F59
102
{ACAD_REACTORS
330
8F4E
102
}
330
8F4E
100
AcDbXrecord
  1
{C77AB3BE-9CA2-11D3-BAF3-006094EB760E}
  0
XRECORD
  5
8F5A
102
{ACAD_REACTORS
330
8F4E
102
}
330
8F4E
100
AcDbXrecord
  1
{26E0F011-6978-4931-981E-15D7E2CDB05B}
  0
XRECORD
  5
8F5B
102
{ACAD_REACTORS
330
8F4E
102
}
330
8F4E
100
AcDbXrecord
 40
0.0
  0
XRECORD
  5
8F5C
102
{ACAD_REACTORS
330
8F4E
102
}
330
8F4E
100
AcDbXrecord
1000
DSTYLE
1002
{
1070
    79
 70
     2
1070
   179
 70
     1
1070
   341
340
59
1070
   342
340
59
1070
   371
 70
    -1
1070
   372
 70
    -1
1002
}
  0
XRECORD
  5
8F5D
102
{ACAD_REACTORS
330
8F4E
102
}
330
8F4E
100
AcDbXrecord
340
0
  0
XRECORD
  5
8F5E
102
{ACAD_REACTORS
330
8F4E
102
}
330
8F4E
100
AcDbXrecord
 70
     0
  0
XRECORD
  5
8F5F
102
{ACAD_REACTORS
330
8F4E
102
}
330
8F4E
100
AcDbXrecord
340
0
  0
XRECORD
  5
8F60
102
{ACAD_REACTORS
330
8F4E
102
}
330
8F4E
100
AcDbXrecord
 10
0.0
 20
0.0
 30
0.0
  0
XRECORD
  5
8F61
102
{ACAD_REACTORS
330
8F4E
102
}
330
8F4E
100
AcDbXrecord
 10
0.0
 20
0.0
 30
0.0
  0
XRECORD
  5
8F62
102
{ACAD_REACTORS
330
8F4E
102
}
330
8F4E
100
AcDbXrecord
 10
0.0
 20
0.0
 30
0.0
  0
XRECORD
  5
8F63
102
{ACAD_REACTORS
330
8F4E
102
}
330
8F4E
100
AcDbXrecord
 10
0.0
 20
0.0
 30
0.0
  0
XRECORD
  5
8F64
102
{ACAD_REACTORS
330
8F4E
102
}
330
8F4E
100
AcDbXrecord
 10
0.0
 20
0.0
 30
0.0
  0
XRECORD
  5
8F65
102
{ACAD_REACTORS
330
8F4E
102
}
330
8F4E
100
AcDbXrecord
 10
0.0
 20
0.0
 30
0.0
  0
XRECORD
  5
8F66
102
{ACAD_REACTORS
330
8F4E
102
}
330
8F4E
100
AcDbXrecord
340
0
  0
XRECORD
  5
8F67
102
{ACAD_REACTORS
330
8F4E
102
}
330
8F4E
100
AcDbXrecord
 70
     0
  0
XRECORD
  5
8F68
102
{ACAD_REACTORS
330
8F4E
102
}
330
8F4E
100
AcDbXrecord
340
0
  0
XRECORD
  5
8F69
102
{ACAD_REACTORS
330
8F4E
102
}
330
8F4E
100
AcDbXrecord
 10
0.0
 20
0.0
 30
0.0
  0
XRECORD
  5
8F6A
102
{ACAD_REACTORS
330
8F4E
102
}
330
8F4E
100
AcDbXrecord
 10
0.0
 20
0.0
 30
0.0
  0
XRECORD
  5
8F6B
102
{ACAD_REACTORS
330
8F4E
102
}
330
8F4E
100
AcDbXrecord
 10
0.0
 20
0.0
 30
0.0
  0
XRECORD
  5
8F6C
102
{ACAD_REACTORS
330
8F4E
102
}
330
8F4E
100
AcDbXrecord
 10
0.0
 20
0.0
 30
0.0
  0
XRECORD
  5
8F6D
102
{ACAD_REACTORS
330
8F4E
102
}
330
8F4E
100
AcDbXrecord
 10
0.0
 20
0.0
 30
0.0
  0
XRECORD
  5
8F6E
102
{ACAD_REACTORS
330
8F4E
102
}
330
8F4E
100
AcDbXrecord
 10
0.0
 20
0.0
 30
0.0
  0
LAYER_INDEX
  5
8F43
102
{ACAD_REACTORS
330
8F42
102
}
330
8F42
100
AcDbIndex
 40
2453151.555906562
100
AcDbLayerIndex
  8
0
360
8F44
 90
        1
  8
AM_5
360
8F45
 90
       11
  8
Defpoints
360
8F46
 90
        0
  8
AM_0
360
8F47
 90
      782
  8
AM_6
360
8F48
 90
        3
  8
AM_1
360
8F49
 90
        0
  8
AM_VIS
360
8F4A
 90
        0
  8
AM_7
360
8F4B
 90
        0
  8
AM_11
360
8F4C
 90
        0
  0
XRECORD
  5
41
102
{ACAD_REACTORS
330
40
102
}
330
40
100
AcDbXrecord
  1
VERSION
140
15.0
  1
PRODUCT
  2
AutoCAD Mechanical 2000
  0
IDBUFFER
  5
8F44
330
0
100
AcDbIdBuffer
330
1649
  0
IDBUFFER
  5
8F45
330
0
100
AcDbIdBuffer
330
8CE0
330
8D35
330
8D38
330
8DC0
330
8DC9
330
8DE5
330
8DF3
330
8E00
330
8E0E
330
8E48
330
8E83
  0
IDBUFFER
  5
8F46
330
0
100
AcDbIdBuffer
  0
IDBUFFER
  5
8F47
330
0
100
AcDbIdBuffer
330
8C00
330
8C01
330
8C02
330
8C03
330
8C04
330
8C05
330
8C06
330
8C07
330
8C08
330
8C09
330
8C0A
330
8C0B
330
8C0C
330
8C0D
330
8C0E
330
8C0F
330
8C10
330
8C11
330
8C12
330
8C13
330
8C14
330
8C15
330
8C16
330
8C17
330
8C18
330
8C19
330
8C1A
330
8C1B
330
8C1C
330
8C1D
330
8C1E
330
8C1F
330
8C20
330
8C21
330
8C23
330
8C24
330
8C25
330
8C26
330
8C27
330
8C28
330
8C8E
330
8C8F
330
8C91
330
8C92
330
8C93
330
8C94
330
8C95
330
8C96
330
8C9B
330
8C9C
330
8C9D
330
8C9E
330
8C9F
330
8CA0
330
8CA1
330
8CA2
330
8CA3
330
8CA4
330
8CA5
330
8CA6
330
8CA7
330
8CAB
330
8CAC
330
8CAD
330
8CAE
330
8CAF
330
8CB0
330
8CB1
330
8CB2
330
8CB3
330
8CB4
330
8CB5
330
8CB6
330
8CB7
330
8CB8
330
8CB9
330
8CBA
330
8CBB
330
8CBC
330
8CBD
330
8CC1
330
8CC5
330
8CC9
330
8CCD
330
8CD1
330
8CD5
330
8CD9
330
8CE1
330
8CE2
330
8CE3
330
8CE4
330
8CE5
330
8CE6
330
8CE7
330
8CE8
330
8CE9
330
8CEA
330
8CEB
330
8CEC
330
8CED
330
8CEE
330
8CF1
330
8CF2
330
8CF3
330
8CF4
330
8CF5
330
8CF6
330
8CF7
330
8CF8
330
8CF9
330
8CFA
330
8CFB
330
8CFC
330
8CFD
330
8CFE
330
8CFF
330
8D00
330
8D01
330
8D02
330
8D03
330
8D05
330
8D06
330
8D07
330
8D08
330
8D09
330
8D0A
330
8D0B
330
8D0C
330
8D0D
330
8D0E
330
8D0F
330
8D10
330
8D11
330
8D12
330
8D13
330
8D14
330
8D15
330
8D16
330
8D17
330
8D18
330
8D1A
330
8D1B
330
8D1C
330
8D1D
330
8D1E
330
8D1F
330
8D20
330
8D21
330
8D22
330
8D23
330
8D24
330
8D25
330
8D26
330
8D27
330
8D28
330
8D29
330
8D2A
330
8D2B
330
8D2C
330
8D2D
330
8D2E
330
8D30
330
8D39
330
8D3A
330
8D3B
330
8D3C
330
8D3D
330
8D3E
330
8D3F
330
8D40
330
8D41
330
8D42
330
8D43
330
8D44
330
8D45
330
8D46
330
8D47
330
8D48
330
8D49
330
8D4A
330
8D4B
330
8D4D
330
8D4E
330
8D4F
330
8D50
330
8D51
330
8D52
330
8D55
330
8D56
330
8D58
330
8D59
330
8D5A
330
8D5B
330
8D5C
330
8D5D
330
8D5E
330
8D5F
330
8D60
330
8D61
330
8D62
330
8D63
330
8D64
330
8D65
330
8D66
330
8D67
330
8D68
330
8D69
330
8D6A
330
8D6B
330
8D6C
330
8D6D
330
8D6E
330
8D6F
330
8D70
330
8D71
330
8D72
330
8D73
330
8D74
330
8D75
330
8D76
330
8D77
330
8D78
330
8D79
330
8D7A
330
8D7B
330
8D7C
330
8D7D
330
8D7E
330
8D7F
330
8D82
330
8D83
330
8D84
330
8D85
330
8D86
330
8D87
330
8D88
330
8D89
330
8D8A
330
8D8B
330
8D8C
330
8D8D
330
8D8E
330
8D8F
330
8D90
330
8D91
330
8D92
330
8D93
330
8D94
330
8D95
330
8D96
330
8D97
330
8D98
330
8D99
330
8D9A
330
8D9B
330
8D9C
330
8D9D
330
8D9E
330
8D9F
330
8DA0
330
8DA1
330
8DA2
330
8DA3
330
8DA4
330
8DA5
330
8DA6
330
8DA7
330
8DA8
330
8DA9
330
8DAA
330
8DAB
330
8DAC
330
8DAD
330
8DAE
330
8DAF
330
8DB0
330
8DB1
330
8DB2
330
8DB3
330
8DB4
330
8DB5
330
8DB8
330
8DBE
330
8F23
330
8F24
330
8F2F
330
89FF
330
8A00
330
8A01
330
8A02
330
8A05
330
8A06
330
8A07
330
8A08
330
8A16
330
8A18
330
8A19
330
8A1A
330
8A1B
330
8A1C
330
8A1D
330
8A1E
330
8A1F
330
8A20
330
8A21
330
8A22
330
8A23
330
8A24
330
8A25
330
8A26
330
8A27
330
8A28
330
8A29
330
8A2A
330
8A2B
330
8A2C
330
8A2D
330
8A2E
330
8A2F
330
8A30
330
8A31
330
8A32
330
8A33
330
8A34
330
8A35
330
8A36
330
8A37
330
8A38
330
8A39
330
8A3A
330
8A3B
330
8A3C
330
8A3D
330
8A3E
330
8A3F
330
8A40
330
8A41
330
8A42
330
8A43
330
8A44
330
8A45
330
8A46
330
8A47
330
8A48
330
8A49
330
8A4A
330
8A4B
330
8A4C
330
8A4D
330
8A4E
330
8A4F
330
8A50
330
8A51
330
8A52
330
8A53
330
8A54
330
8A55
330
8A56
330
8A57
330
8A58
330
8A59
330
8A5A
330
8A5B
330
8A5C
330
8A5D
330
8A5E
330
8A5F
330
8A60
330
8A61
330
8A62
330
8A63
330
8A64
330
8A65
330
8A66
330
8A67
330
8A68
330
8A69
330
8A6A
330
8A6B
330
8A6C
330
8A6D
330
8A6E
330
8A6F
330
8A70
330
8A71
330
8A72
330
8A73
330
8A74
330
8A75
330
8A76
330
8A77
330
8A78
330
8A79
330
8A7A
330
8A7B
330
8A7C
330
8A7D
330
8A7E
330
8A7F
330
8A80
330
8A81
330
8A82
330
8A83
330
8A84
330
8A85
330
8A86
330
8A87
330
8A88
330
8A89
330
8A8A
330
8A8B
330
8A8C
330
8A8D
330
8A8E
330
8A8F
330
8A90
330
8A91
330
8A92
330
8A93
330
8A94
330
8A95
330
8A96
330
8A97
330
8A98
330
8A99
330
8A9A
330
8A9B
330
8A9C
330
8A9D
330
8A9E
330
8A9F
330
8AA0
330
8AA1
330
8AA2
330
8AA3
330
8AA4
330
8AA5
330
8AA6
330
8AA7
330
8AA8
330
8AA9
330
8AAA
330
8AAB
330
8AAC
330
8AAD
330
8AAE
330
8AAF
330
8AB0
330
8AB1
330
8AB2
330
8AB3
330
8AB4
330
8AB5
330
8AB6
330
8AB7
330
8AB8
330
8AB9
330
8ABA
330
8ABB
330
8ABC
330
8ABD
330
8ABE
330
8ABF
330
8AC0
330
8AC1
330
8AC2
330
8AC3
330
8AC4
330
8AC5
330
8AC6
330
8AC7
330
8AC8
330
8AC9
330
8ACA
330
8ACB
330
8ACC
330
8ACD
330
8ACE
330
8ACF
330
8AD0
330
8AD1
330
8AD2
330
8AD3
330
8AD4
330
8AD5
330
8AD6
330
8AD7
330
8AD8
330
8AD9
330
8ADA
330
8ADB
330
8ADC
330
8ADD
330
8ADE
330
8ADF
330
8AE0
330
8AE1
330
8AE2
330
8AE3
330
8AE4
330
8AE5
330
8AE6
330
8AE7
330
8AE8
330
8AE9
330
8AEA
330
8AEB
330
8AEC
330
8AED
330
8AEE
330
8AEF
330
8AF0
330
8AF1
330
8AF2
330
8AF3
330
8AF4
330
8AF5
330
8AF6
330
8AF7
330
8AF8
330
8AF9
330
8AFA
330
8AFB
330
8AFC
330
8AFD
330
8AFE
330
8AFF
330
8B00
330
8B01
330
8B02
330
8B03
330
8B04
330
8B05
330
8B06
330
8B07
330
8B08
330
8B09
330
8B0A
330
8B0B
330
8B0C
330
8B0D
330
8B0E
330
8B0F
330
8B10
330
8B11
330
8B12
330
8B13
330
8B14
330
8B15
330
8B16
330
8B17
330
8B18
330
8B19
330
8B1A
330
8B1B
330
8B1C
330
8B1D
330
8B1E
330
8B1F
330
8B20
330
8B21
330
8B22
330
8B23
330
8B24
330
8B25
330
8B26
330
8B27
330
8B28
330
8B29
330
8B2A
330
8B2B
330
8B2C
330
8B2D
330
8B2E
330
8B2F
330
8B30
330
8B31
330
8B32
330
8B33
330
8B34
330
8B35
330
8B36
330
8B37
330
8B38
330
8B39
330
8B3A
330
8B3B
330
8B3C
330
8B3D
330
8B3E
330
8B3F
330
8B40
330
8B41
330
8B42
330
8B43
330
8B44
330
8B45
330
8B46
330
8B47
330
8B48
330
8B49
330
8B4A
330
8B4B
330
8B4C
330
8B4D
330
8B4E
330
8B4F
330
8B50
330
8B51
330
8B52
330
8B53
330
8B54
330
8B55
330
8B56
330
8B57
330
8B58
330
8B59
330
8B5A
330
8B5B
330
8B5C
330
8B5D
330
8B5E
330
8B5F
330
8B60
330
8B61
330
8B62
330
8B63
330
8B64
330
8B65
330
8B66
330
8B67
330
8B68
330
8B69
330
8B6A
330
8B6B
330
8B6C
330
8B6D
330
8B6E
330
8B6F
330
8B70
330
8B71
330
8B72
330
8B73
330
8B74
330
8B75
330
8B76
330
8B77
330
8B78
330
8B79
330
8B7A
330
8B7B
330
8B7C
330
8B7D
330
8B7E
330
8B7F
330
8B80
330
8B81
330
8B82
330
8B83
330
8B84
330
8B85
330
8B86
330
8B87
330
8B88
330
8B89
330
8B8A
330
8B8B
330
8B8C
330
8B8D
330
8B8E
330
8B8F
330
8B90
330
8B91
330
8B92
330
8B93
330
8B94
330
8B95
330
8B96
330
8B97
330
8B98
330
8B99
330
8B9A
330
8B9B
330
8B9C
330
8B9D
330
8B9E
330
8B9F
330
8BA0
330
8BA1
330
8BA2
330
8BA3
330
8BA4
330
8BA5
330
8BA6
330
8BA7
330
8BA8
330
8BA9
330
8BAA
330
8BAB
330
8BAC
330
8BAD
330
8BAE
330
8BAF
330
8BB0
330
8BB1
330
8BB2
330
8BB3
330
8BB4
330
8BB5
330
8BB6
330
8BB7
330
8BB8
330
8BB9
330
8BBA
330
8BBB
330
8BBC
330
8BBD
330
8BBE
330
8BBF
330
8BC0
330
8BC1
330
8BC2
330
8BC3
330
8BC4
330
8BC5
330
8BC6
330
8BC7
330
8BC8
330
8BC9
330
8BCA
330
8BCB
330
8BCC
330
8BCD
330
8BCE
330
8BCF
330
8BD0
330
8BD1
330
8BD2
330
8BD3
330
8BD4
330
8BD5
330
8BD6
330
8BD7
330
8BD8
330
8BD9
330
8BDA
330
8BDB
330
8BDC
330
8BDD
330
8BDE
330
8BDF
330
8BE0
330
8BE1
330
8BE2
330
8BE3
330
8BE4
330
8BE5
330
8BE6
330
8BE7
330
8BE8
330
8BE9
330
8BEA
330
8BEB
330
8BEC
330
8BED
330
8BEE
330
8BF0
330
8BF1
330
8BF2
330
8BF3
330
8BF4
330
8BF5
330
8BF6
330
8BF7
330
8BF8
330
8BF9
330
8BFA
330
8BFB
330
8BFC
330
8BFD
330
8BFE
330
8BFF
  0
IDBUFFER
  5
8F48
330
0
100
AcDbIdBuffer
330
7495
330
8CDD
330
8CDE
  0
IDBUFFER
  5
8F49
330
0
100
AcDbIdBuffer
  0
IDBUFFER
  5
8F4A
330
0
100
AcDbIdBuffer
  0
IDBUFFER
  5
8F4B
330
0
100
AcDbIdBuffer
  0
IDBUFFER
  5
8F4C
330
0
100
AcDbIdBuffer
  0
ENDSEC
  0
EOF
