  0
SECTION
  2
HEADER
  9
$ACADVER
  1
AC1015
  9
$ACADMAINTVER
 70
     6
  9
$DWGCODEPAGE
  3
ANSI_932
  9
$INSBASE
 10
0.0
 20
0.0
 30
0.0
  9
$EXTMIN
 10
-91.47439433832744
 20
-130.6138616010213
 30
-0.0000000349181948
  9
$EXTMAX
 10
190.8830717540889
 20
27.02218008069542
 30
0.0000000814935746
  9
$LIMMIN
 10
0.0
 20
0.0
  9
$LIMMAX
 10
420.0
 20
297.0
  9
$ORTHOMODE
 70
     1
  9
$REGENMODE
 70
     1
  9
$FILLMODE
 70
     1
  9
$QTEXTMODE
 70
     0
  9
$MIRRTEXT
 70
     1
  9
$LTSCALE
 40
1.0
  9
$ATTMODE
 70
     1
  9
$TEXTSIZE
 40
4.0
  9
$TRACEWID
 40
1.0
  9
$TEXTSTYLE
  7
STANDARD
  9
$CLAYER
  8
AM_0
  9
$CELTYPE
  6
ByLayer
  9
$CECOLOR
 62
   256
  9
$CELTSCALE
 40
1.0
  9
$DISPSILH
 70
     0
  9
$DIMSCALE
 40
1.0
  9
$DIMASZ
 40
2.5
  9
$DIMEXO
 40
0.0
  9
$DIMDLI
 40
10.0
  9
$DIMRND
 40
0.0
  9
$DIMDLE
 40
0.0
  9
$DIMEXE
 40
1.0
  9
$DIMTP
 40
0.1
  9
$DIMTM
 40
0.1000000001
  9
$DIMTXT
 40
3.8
  9
$DIMCEN
 40
0.0
  9
$DIMTSZ
 40
0.0
  9
$DIMTOL
 70
     0
  9
$DIMLIM
 70
     0
  9
$DIMTIH
 70
     0
  9
$DIMTOH
 70
     0
  9
$DIMSE1
 70
     0
  9
$DIMSE2
 70
     0
  9
$DIMTAD
 70
     3
  9
$DIMZIN
 70
     1
  9
$DIMBLK
  1
Open30
  9
$DIMASO
 70
     1
  9
$DIMSHO
 70
     1
  9
$DIMPOST
  1

  9
$DIMAPOST
  1
"
  9
$DIMALT
 70
     0
  9
$DIMALTD
 70
     2
  9
$DIMALTF
 40
0.0393701
  9
$DIMLFAC
 40
1.0
  9
$DIMTOFL
 70
     1
  9
$DIMTVP
 40
0.0
  9
$DIMTIX
 70
     0
  9
$DIMSOXD
 70
     0
  9
$DIMSAH
 70
     0
  9
$DIMBLK1
  1

  9
$DIMBLK2
  1

  9
$DIMSTYLE
  2
AM_JIS
  9
$DIMCLRD
 70
   256
  9
$DIMCLRE
 70
   256
  9
$DIMCLRT
 70
     2
  9
$DIMTFAC
 40
0.71
  9
$DIMGAP
 40
1.5
  9
$DIMJUST
 70
     0
  9
$DIMSD1
 70
     0
  9
$DIMSD2
 70
     0
  9
$DIMTOLJ
 70
     0
  9
$DIMTZIN
 70
     8
  9
$DIMALTZ
 70
     0
  9
$DIMALTTZ
 70
     0
  9
$DIMUPT
 70
     0
  9
$DIMDEC
 70
     0
  9
$DIMTDEC
 70
     2
  9
$DIMALTU
 70
     2
  9
$DIMALTTD
 70
     2
  9
$DIMTXSTY
  7
STANDARD
  9
$DIMAUNIT
 70
     1
  9
$DIMADEC
 70
     0
  9
$DIMALTRND
 40
0.0
  9
$DIMAZIN
 70
     2
  9
$DIMDSEP
 70
    46
  9
$DIMATFIT
 70
     3
  9
$DIMFRAC
 70
     0
  9
$DIMLDRBLK
  1
Open30
  9
$DIMLUNIT
 70
     2
  9
$DIMLWD
 70
    -1
  9
$DIMLWE
 70
    -1
  9
$DIMTMOVE
 70
     0
  9
$LUNITS
 70
     2
  9
$LUPREC
 70
     2
  9
$SKETCHINC
 40
1.0
  9
$FILLETRAD
 40
10.0
  9
$AUNITS
 70
     1
  9
$AUPREC
 70
     5
  9
$MENU
  1
.
  9
$ELEVATION
 40
0.0
  9
$PELEVATION
 40
0.0
  9
$THICKNESS
 40
0.0
  9
$LIMCHECK
 70
     0
  9
$CHAMFERA
 40
0.5
  9
$CHAMFERB
 40
0.5
  9
$CHAMFERC
 40
20.0
  9
$CHAMFERD
 40
0.0
  9
$SKPOLY
 70
     0
  9
$TDCREATE
 40
2451943.610431667
  9
$TDUCREATE
 40
2451943.235431667
  9
$TDUPDATE
 40
2455441.378081956
  9
$TDUUPDATE
 40
2455441.003081956
  9
$TDINDWG
 40
1.5306077315
  9
$TDUSRTIMER
 40
1.5306075579
  9
$USRTIMER
 70
     1
  9
$ANGBASE
 50
0.0
  9
$ANGDIR
 70
     0
  9
$PDMODE
 70
     0
  9
$PDSIZE
 40
0.0
  9
$PLINEWID
 40
0.0
  9
$SPLFRAME
 70
     0
  9
$SPLINETYPE
 70
     6
  9
$SPLINESEGS
 70
     8
  9
$HANDSEED
  5
170DE
  9
$SURFTAB1
 70
     6
  9
$SURFTAB2
 70
     6
  9
$SURFTYPE
 70
     6
  9
$SURFU
 70
     6
  9
$SURFV
 70
     6
  9
$UCSBASE
  2

  9
$UCSNAME
  2

  9
$UCSORG
 10
0.0
 20
0.0
 30
0.0
  9
$UCSXDIR
 10
1.0
 20
0.0
 30
0.0
  9
$UCSYDIR
 10
0.0
 20
1.0
 30
0.0
  9
$UCSORTHOREF
  2

  9
$UCSORTHOVIEW
 70
     0
  9
$UCSORGTOP
 10
0.0
 20
0.0
 30
0.0
  9
$UCSORGBOTTOM
 10
0.0
 20
0.0
 30
0.0
  9
$UCSORGLEFT
 10
0.0
 20
0.0
 30
0.0
  9
$UCSORGRIGHT
 10
0.0
 20
0.0
 30
0.0
  9
$UCSORGFRONT
 10
0.0
 20
0.0
 30
0.0
  9
$UCSORGBACK
 10
0.0
 20
0.0
 30
0.0
  9
$PUCSBASE
  2

  9
$PUCSNAME
  2

  9
$PUCSORG
 10
0.0
 20
0.0
 30
0.0
  9
$PUCSXDIR
 10
1.0
 20
0.0
 30
0.0
  9
$PUCSYDIR
 10
0.0
 20
1.0
 30
0.0
  9
$PUCSORTHOREF
  2

  9
$PUCSORTHOVIEW
 70
     0
  9
$PUCSORGTOP
 10
0.0
 20
0.0
 30
0.0
  9
$PUCSORGBOTTOM
 10
0.0
 20
0.0
 30
0.0
  9
$PUCSORGLEFT
 10
0.0
 20
0.0
 30
0.0
  9
$PUCSORGRIGHT
 10
0.0
 20
0.0
 30
0.0
  9
$PUCSORGFRONT
 10
0.0
 20
0.0
 30
0.0
  9
$PUCSORGBACK
 10
0.0
 20
0.0
 30
0.0
  9
$USERI1
 70
     0
  9
$USERI2
 70
     0
  9
$USERI3
 70
     0
  9
$USERI4
 70
     0
  9
$USERI5
 70
     0
  9
$USERR1
 40
0.0
  9
$USERR2
 40
0.0
  9
$USERR3
 40
0.0
  9
$USERR4
 40
0.0
  9
$USERR5
 40
0.0
  9
$WORLDVIEW
 70
     1
  9
$SHADEDGE
 70
     3
  9
$SHADEDIF
 70
    70
  9
$TILEMODE
 70
     1
  9
$MAXACTVP
 70
    64
  9
$PINSBASE
 10
0.0
 20
0.0
 30
0.0
  9
$PLIMCHECK
 70
     0
  9
$PEXTMIN
 10
1.000000000000000E+20
 20
1.000000000000000E+20
 30
1.000000000000000E+20
  9
$PEXTMAX
 10
-1.000000000000000E+20
 20
-1.000000000000000E+20
 30
-1.000000000000000E+20
  9
$PLIMMIN
 10
0.0
 20
0.0
  9
$PLIMMAX
 10
420.0
 20
297.0
  9
$UNITMODE
 70
     0
  9
$VISRETAIN
 70
     1
  9
$PLINEGEN
 70
     0
  9
$PSLTSCALE
 70
     1
  9
$TREEDEPTH
 70
  3020
  9
$CMLSTYLE
  2
Standard
  9
$CMLJUST
 70
     0
  9
$CMLSCALE
 40
20.0
  9
$PROXYGRAPHICS
 70
     1
  9
$MEASUREMENT
 70
     1
  9
$CELWEIGHT
370
    -1
  9
$ENDCAPS
280
     0
  9
$JOINSTYLE
280
     0
  9
$LWDISPLAY
290
     0
  9
$INSUNITS
 70
     4
  9
$HYPERLINKBASE
  1

  9
$STYLESHEET
  1
sei_cad.ctb
  9
$XEDIT
290
     1
  9
$CEPSNTYPE
380
     0
  9
$PSTYLEMODE
290
     1
  9
$FINGERPRINTGUID
  2
{C77AB3BE-9CA2-11D3-BAF3-006094EB760E}
  9
$VERSIONGUID
  2
{69BC0755-A4E0-41F4-9C2E-5FCAD389053A}
  9
$EXTNAMES
290
     1
  9
$PSVPSCALE
 40
0.0
  9
$OLESTARTUP
290
     0
  0
ENDSEC
  0
SECTION
  2
CLASSES
  0
CLASS
  1
ACDBDICTIONARYWDFLT
  2
AcDbDictionaryWithDefault
  3
ObjectDBX Classes
 90
        0
280
     0
281
     0
  0
CLASS
  1
ACDBPLACEHOLDER
  2
AcDbPlaceHolder
  3
ObjectDBX Classes
 90
        0
280
     0
281
     0
  0
CLASS
  1
LAYOUT
  2
AcDbLayout
  3
ObjectDBX Classes
 90
        0
280
     0
281
     0
  0
CLASS
  1
ACME_DOCUMENT
  2
AcMeDbDoc
  3
AcMeServices
 90
        0
280
     1
281
     0
  0
CLASS
  1
ACMESCOPE
  2
AcMeScope
  3
AcMeServices
 90
        0
280
     1
281
     0
  0
CLASS
  1
ACMECOMMANDHISTORY
  2
AcMeCommandHistory
  3
AcMeServices
 90
        0
280
     1
281
     0
  0
CLASS
  1
DICTIONARYVAR
  2
AcDbDictionaryVar
  3
ObjectDBX Classes
 90
        0
280
     0
281
     0
  0
CLASS
  1
ACIMSYSVARMAN
  2
AcImSysVarManager
  3
AcMeServices
 90
        0
280
     1
281
     0
  0
CLASS
  1
ACIMREALSYSVAR
  2
AcImRealSysVar
  3
AcMeServices
 90
        0
280
     1
281
     0
  0
CLASS
  1
ACIMINTSYSVAR
  2
AcImIntSysVar
  3
AcMeServices
 90
        0
280
     1
281
     0
  0
CLASS
  1
ACMEDRAWINGMAN
  2
AcMeDrawingMan
  3
AcMeServices
 90
        0
280
     1
281
     0
  0
CLASS
  1
ACMEVIEW
  2
AcMeView
  3
AcMeServices
 90
        0
280
     1
281
     0
  0
CLASS
  1
ACDBENTITYCACHE
  2
AcMeEntityCache
  3
AcMeServices
 90
        0
280
     1
281
     0
  0
CLASS
  1
GSMANAGER
  2
AcMeGSManager
  3
AcMeServices
 90
        0
280
     1
281
     0
  0
CLASS
  1
AMDTINTERNALREACTOR
  2
AmdtInternalReactor
  3
AcMeServices
 90
        0
280
     1
281
     0
  0
CLASS
  1
ACMESTATEMGR
  2
AcMeStateMgr
  3
AcMeServices
 90
        0
280
     1
281
     0
  0
CLASS
  1
ACME_DATABASE
  2
AcMeDbDatabase
  3
AcMeServices
 90
        0
280
     1
281
     0
  0
CLASS
  1
ACRFINSADJUSTERMGR
  2
AcRfInsAdjusterMgr
  3
AcMeServices
 90
        0
280
     1
281
     0
  0
CLASS
  1
AMGSETTINGSOBJ
  2
AmgSettingsObj
  3
"AcadM|Product Description: AutoCAD Mechanical 2000|Company: Autodesk"
 90
        0
280
     1
281
     0
  0
CLASS
  1
AMGOBJPROPCFG
  2
AmgObjPropCfg
  3
"AmgLay|Product Description: AutoCAD Mechanical 2000|Company: Autodesk"
 90
        1
280
     1
281
     0
  0
CLASS
  1
ACMDATADICTIONARY
  2
AcmDataDictionary
  3
"AcmSymBB|Product Description: AutoCAD Mechanical 2004 DX|Company: Autodesk"
 90
        0
280
     1
281
     0
  0
CLASS
  1
ACMDATAENTRYBLOCK
  2
AcmDataEntryBlock
  3
"AcmSymBB|Product Description: AutoCAD Mechanical 2004 DX|Company: Autodesk"
 90
        0
280
     1
281
     0
  0
CLASS
  1
ACIMSTRSYSVAR
  2
AcImStrSysVar
  3
AcMeServices
 90
        0
280
     1
281
     0
  0
CLASS
  1
ACAMGFILTERDAT
  2
AcAmgFilterDat
  3
"AcadM|Product Description: AutoCAD Mechanical 2000|Company: Autodesk"
 90
        0
280
     1
281
     0
  0
CLASS
  1
LAYER_INDEX
  2
AcDbLayerIndex
  3
ObjectDBX Classes
 90
        0
280
     0
281
     0
  0
CLASS
  1
IDBUFFER
  2
AcDbIdBuffer
  3
ObjectDBX Classes
 90
        0
280
     0
281
     0
  0
CLASS
  1
ACMSTANDARDJIS
  2
AcmStandardJIS
  3
"Amdt_StdImp|Product Description: AutoCAD Mechanical 2004 DX|Company: Autodesk"
 90
        0
280
     1
281
     0
  0
CLASS
  1
ACMSURFSTANDARDJIS
  2
AcmSurfTextStdJIS
  3
"Amdt_StdImp|Product Description: AutoCAD Mechanical 2004 DX|Company: Autodesk"
 90
        0
280
     1
281
     0
  0
CLASS
  1
ACMFCFSTANDARDJIS
  2
AcmFCFStdJIS
  3
"Amdt_StdImp|Product Description: AutoCAD Mechanical 2004 DX|Company: Autodesk"
 90
        0
280
     1
281
     0
  0
CLASS
  1
ACMWELDSTANDARDJIS
  2
AcmWeldingStdJIS
  3
"Amdt_StdImp|Product Description: AutoCAD Mechanical 2004 DX|Company: Autodesk"
 90
        0
280
     1
281
     0
  0
CLASS
  1
ACMIDSTANDARDJIS
  2
AcmIdStdJIS
  3
"Amdt_StdImp|Product Description: AutoCAD Mechanical 2004 DX|Company: Autodesk"
 90
        0
280
     1
281
     0
  0
CLASS
  1
ACMDATUMSTANDARDJIS
  2
AcmDatumStdJIS
  3
"Amdt_StdImp|Product Description: AutoCAD Mechanical 2004 DX|Company: Autodesk"
 90
        0
280
     1
281
     0
  0
CLASS
  1
ACMBOMSTANDARDJIS
  2
AcmBOMStdJIS
  3
"Amdt_StdImp|Product Description: AutoCAD Mechanical 2004 DX|Company: Autodesk"
 90
        0
280
     1
281
     0
  0
CLASS
  1
AMDTNOTE
  2
AmdtNote
  3
"AcmSymBB|Product Description: AutoCAD Mechanical 2004 DX|Company: Autodesk"
 90
     1023
280
     1
281
     1
  0
CLASS
  1
TABLESTYLE
  2
AcDbTableStyle
  3
ObjectDBX Classes
 90
     2047
280
     0
281
     0
  0
CLASS
  1
ACGREFMASTER
  2
AcGrefMaster
  3
AcAttribServices
 90
        0
280
     1
281
     0
  0
CLASS
  1
AM_DRAWING_MGR
  2
AcDmDwgMgr
  3
AcMechDwgViewMgmt
 90
        0
280
     1
281
     0
  0
CLASS
  1
AM_DWG_DOCUMENT
  2
AcDmDwgDocument
  3
AcMechDwgViewMgmt
 90
        0
280
     1
281
     0
  0
CLASS
  1
AM_DWG_SHEET
  2
AcDmSheet
  3
AcMechDwgViewMgmt
 90
        0
280
     1
281
     0
  0
CLASS
  1
AM_VIEWDIMPARMAP
  2
AcDmViewDimParMap
  3
AcMechDwgViewMgmt
 90
        0
280
     1
281
     0
  0
CLASS
  1
AM_DWGMGR_NAME
  2
AcDmDwgMgrName
  3
AcMechDwgViewMgmt
 90
        0
280
     1
281
     0
  0
CLASS
  1
ACGREFACADMASTER
  2
AcGrefacadMaster
  3
AcGrefServices
 90
        0
280
     1
281
     0
  0
CLASS
  1
AMDTMENUSTATEMGR
  2
AmdtMenuStateMgr
  3
McadcomServices
 90
        0
280
     1
281
     0
  0
CLASS
  1
AMDTMCOMMENUSTATE
  2
AmdtMcomMenuState
  3
McadcomServices
 90
        0
280
     1
281
     0
  0
CLASS
  1
AMIMASTER
  2
AmiMaster
  3
AmiServices
 90
        0
280
     1
281
     0
  0
CLASS
  1
MAPIAMMOUDLE
  2
MApiAmModule
  3
MApiAmServices
 90
        0
280
     1
281
     0
  0
CLASS
  1
AMDTADMENUSTATE
  2
AmdtAdMenuState
  3
DesignerServices
 90
        0
280
     1
281
     0
  0
CLASS
  1
ADAPPL
  2
AcAdAppl
  3
DesignerServices
 90
        0
280
     1
281
     0
  0
CLASS
  1
DEPMGR
  2
AcAdDepMgr
  3
DesignerServices
 90
        0
280
     1
281
     0
  0
CLASS
  1
PARAMMGR
  2
AcAdParamMgr
  3
DesignerServices
 90
        0
280
     1
281
     0
  0
CLASS
  1
PARAMSCOPE
  2
AcAdParamScope
  3
DesignerServices
 90
        0
280
     1
281
     0
  0
CLASS
  1
NAMEDAPPL
  2
AcAdNamedAppl
  3
DesignerServices
 90
        0
280
     1
281
     0
  0
CLASS
  1
AMDTDMMENUSTATE
  2
AmdtDmMenuState
  3
AcMechDwgViewMgmt
 90
        0
280
     1
281
     0
  0
CLASS
  1
AMDTAMMENUSTATE
  2
AmdtAmMenuState
  3
DesignerAssemblies
 90
        0
280
     1
281
     0
  0
CLASS
  1
ACAMPROJECT
  2
AcAmProject
  3
DesignerAssemblies
 90
        0
280
     1
281
     0
  0
CLASS
  1
ACAMGRCOMPDEF
  2
AcAmGrCompDef
  3
DesignerAssemblies
 90
        0
280
     1
281
     0
  0
CLASS
  1
ACCMCONTEXT
  2
AcCmContext
  3
DesignerAssemblies
 90
        0
280
     1
281
     0
  0
CLASS
  1
ACAMCOMPDEF
  2
AcAmCompDef
  3
DesignerAssemblies
 90
        0
280
     1
281
     0
  0
CLASS
  1
ACAMCOMPDEFMGR
  2
AcAmCompDefMgr
  3
DesignerAssemblies
 90
        0
280
     1
281
     0
  0
CLASS
  1
AMCONTEXTMGR
  2
AcAmContextMgr
  3
DesignerAssemblies
 90
        0
280
     1
281
     0
  0
CLASS
  1
ACAMCONTEXTMODELER
  2
AcAmContextModeler
  3
DesignerAssemblies
 90
        0
280
     1
281
     0
  0
CLASS
  1
ACAMGTITLESTD
  2
AcAmgTitleStd
  3
"TITLEAPP"
 90
        0
280
     1
281
     0
  0
CLASS
  1
ACMDETAILSTANDARDJIS
  2
AmdtDetailSymStdJIS
  3
"Amdt_StdImp|Product Description: AutoCAD Mechanical 2004 DX|Company: Autodesk"
 90
        0
280
     1
281
     0
  0
CLASS
  1
ACMSECTIONSTANDARDJIS
  2
AmdtSectionSymStdJIS
  3
"Amdt_StdImp|Product Description: AutoCAD Mechanical 2004 DX|Company: Autodesk"
 90
        0
280
     1
281
     0
  0
CLASS
  1
ACMCENTERLINESTANDARDJIS
  2
AmdtCenterLineStdJIS
  3
"Amdt_StdImp|Product Description: AutoCAD Mechanical 2004 DX|Company: Autodesk"
 90
        0
280
     1
281
     0
  0
CLASS
  1
ACMTHREADLINESTANDARDJIS
  2
AmdtThreadLineStdJIS
  3
"Amdt_StdImp|Product Description: AutoCAD Mechanical 2004 DX|Company: Autodesk"
 90
        0
280
     1
281
     0
  0
CLASS
  1
ACMNOTESTANDARDJIS
  2
AmdtNoteStdJIS
  3
"Amdt_StdImp|Product Description: AutoCAD Mechanical 2004 DX|Company: Autodesk"
 90
        0
280
     1
281
     0
  0
CLASS
  1
AMDTNOTETEMPLATEDB
  2
AmdtNoteTemplateDB
  3
AMDT_STDIMP_MODULE_NAME
 90
        0
280
     1
281
     0
  0
CLASS
  1
ACAMGLAYSTD
  2
AcAmgLayStd
  3
"AcAmgLayStd|Product Description: AutoCAD Mechanical 2000|Company: Autodesk"
 90
        0
280
     1
281
     0
  0
CLASS
  1
ACAMGDIMSTD
  2
AcAmgDimStd
  3
"AcAmgDimStd|Product Description: AutoCAD Mechanical 2000|Company: Autodesk"
 90
        0
280
     1
281
     0
  0
CLASS
  1
ACAMGHOLECHARTSTDJIS
  2
AcAmgHoleChartStdJIS
  3
ACMSYMBB_MODULE_NAME
 90
        0
280
     1
281
     0
  0
CLASS
  1
CATALOGSTATE
  2
AcAmCatalogState
  3
DesignerAssemblies
 90
        0
280
     1
281
     0
  0
CLASS
  1
ACAMGRCOMPDEFSET
  2
AcAmGrCompDefSet
  3
DesignerAssemblies
 90
        0
280
     1
281
     0
  0
CLASS
  1
AMDTBROWSERDBTAB
  2
AmdtBrowserDbTab
  3
McadcomServices
 90
        0
280
     1
281
     0
  0
CLASS
  1
CBROWSERAPPOBJECT
  2
CBrowserAppObject
  3
McadcomServices
 90
        0
280
     1
281
     0
  0
CLASS
  1
DM_PLACEHOLDER
  2
AcDmSelsetPlaceholder
  3
AcMechDwgViewMgmt
 90
        0
280
     1
281
     0
  0
CLASS
  1
SORTENTSTABLE
  2
AcDbSortentsTable
  3
ObjectDBX Classes
 90
        0
280
     0
281
     0
  0
CLASS
  1
ACMSTANDARDISO
  2
AcmStandardISO
  3
"Amdt_StdImp|Product Description: AutoCAD Mechanical 2004 DX|Company: Autodesk"
 90
        0
280
     1
281
     0
  0
CLASS
  1
AMDTEDGESTANDARDISO13715
  2
AmdtEdgeStdISO13715
  3
"Amdt_StdImp|Product Description: AutoCAD Mechanical 2004 DX|Company: Autodesk"
 90
        0
280
     1
281
     0
  0
CLASS
  1
ACMSURFSTANDARDISO
  2
AcmSurfTextStdISO
  3
"Amdt_StdImp|Product Description: AutoCAD Mechanical 2004 DX|Company: Autodesk"
 90
        0
280
     1
281
     0
  0
CLASS
  1
ACMFCFSTANDARDISO
  2
AcmFCFStdISO
  3
"Amdt_StdImp|Product Description: AutoCAD Mechanical 2004 DX|Company: Autodesk"
 90
        0
280
     1
281
     0
  0
CLASS
  1
ACMWELDSTANDARDISO
  2
AcmWeldingStdISO
  3
"Amdt_StdImp|Product Description: AutoCAD Mechanical 2004 DX|Company: Autodesk"
 90
        0
280
     1
281
     0
  0
CLASS
  1
ACMIDSTANDARDISO
  2
AcmIdStdISO
  3
"Amdt_StdImp|Product Description: AutoCAD Mechanical 2004 DX|Company: Autodesk"
 90
        0
280
     1
281
     0
  0
CLASS
  1
ACMDATUMSTANDARDISO
  2
AcmDatumStdISO
  3
"Amdt_StdImp|Product Description: AutoCAD Mechanical 2004 DX|Company: Autodesk"
 90
        0
280
     1
281
     0
  0
CLASS
  1
ACMBOMSTANDARDISO
  2
AcmBOMStdISO
  3
"Amdt_StdImp|Product Description: AutoCAD Mechanical 2004 DX|Company: Autodesk"
 90
        0
280
     1
281
     0
  0
CLASS
  1
ACMDETAILSTANDARDISO
  2
AmdtDetailSymStdISO
  3
"Amdt_StdImp|Product Description: AutoCAD Mechanical 2004 DX|Company: Autodesk"
 90
        0
280
     1
281
     0
  0
CLASS
  1
ACMSECTIONSTANDARDISO
  2
AmdtSectionSymStdISO
  3
"Amdt_StdImp|Product Description: AutoCAD Mechanical 2004 DX|Company: Autodesk"
 90
        0
280
     1
281
     0
  0
CLASS
  1
ACMCENTERLINESTANDARDISO
  2
AmdtCenterLineStdISO
  3
"Amdt_StdImp|Product Description: AutoCAD Mechanical 2004 DX|Company: Autodesk"
 90
        0
280
     1
281
     0
  0
CLASS
  1
ACMTHREADLINESTANDARDISO
  2
AmdtThreadLineStdISO
  3
"Amdt_StdImp|Product Description: AutoCAD Mechanical 2004 DX|Company: Autodesk"
 90
        0
280
     1
281
     0
  0
CLASS
  1
ACMNOTESTANDARDISO
  2
AmdtNoteStdISO
  3
"Amdt_StdImp|Product Description: AutoCAD Mechanical 2004 DX|Company: Autodesk"
 90
        0
280
     1
281
     0
  0
CLASS
  1
ACAMGHOLECHARTSTDISO
  2
AcAmgHoleChartStdISO
  3
ACMSYMBB_MODULE_NAME
 90
        0
280
     1
281
     0
  0
CLASS
  1
AMDTFORMULAUPDATEDISPATCHER
  2
AmdtFormulaUpdateDispatcher
  3
AcMeServices
 90
        0
280
     1
281
     0
  0
ENDSEC
  0
SECTION
  2
TABLES
  0
TABLE
  2
VPORT
  5
8
330
0
100
AcDbSymbolTable
 70
     3
  0
VPORT
  5
170D7
330
8
100
AcDbSymbolTableRecord
100
AcDbViewportTableRecord
  2
*Active
 70
     0
 10
0.0
 20
0.0
 11
1.0
 21
1.0
 12
49.70433870788072
 22
-51.79584076016295
 13
0.0
 23
0.0
 14
2.5
 24
2.5
 15
10.0
 25
10.0
 16
0.0
 26
0.0
 36
1.0
 17
0.0
 27
0.0
 37
0.0
 40
167.2442755036603
 41
1.697058823529412
 42
50.0
 43
0.0
 44
0.0
 50
0.0
 51
0.0
 71
    16
 72
 20000
 73
     1
 74
     3
 75
     0
 76
     0
 77
     0
 78
     0
281
     0
 65
     1
110
0.0
120
0.0
130
0.0
111
1.0
121
0.0
131
0.0
112
0.0
122
1.0
132
0.0
 79
     0
146
0.0
  0
ENDTAB
  0
TABLE
  2
LTYPE
  5
5
330
0
100
AcDbSymbolTable
 70
    16
  0
LTYPE
  5
14
330
5
100
AcDbSymbolTableRecord
100
AcDbLinetypeTableRecord
  2
ByBlock
 70
     0
  3

 72
    65
 73
     0
 40
0.0
  0
LTYPE
  5
15
330
5
100
AcDbSymbolTableRecord
100
AcDbLinetypeTableRecord
  2
ByLayer
 70
     0
  3

 72
    65
 73
     0
 40
0.0
  0
LTYPE
  5
16
330
5
100
AcDbSymbolTableRecord
100
AcDbLinetypeTableRecord
  2
Continuous
 70
     0
  3
Solid line
 72
    65
 73
     0
 40
0.0
  0
LTYPE
  5
43
330
5
100
AcDbSymbolTableRecord
100
AcDbLinetypeTableRecord
  2
AM_ISO02W050
 70
     0
  3
__ __ __ __ __ __ __ __ __ __ __ __ __ __ __
 72
    65
 73
     2
 40
7.5
 49
6.0
 74
     0
 49
-1.5
 74
     0
  0
LTYPE
  5
44
330
5
100
AcDbSymbolTableRecord
100
AcDbLinetypeTableRecord
  2
AM_ISO08W050
 70
     0
  3
____ . ____ . ____ . ____ . ____ . ____ . ____
 72
    65
 73
     4
 40
18.0
 49
12.0
 74
     0
 49
-1.5
 74
     0
 49
3.0
 74
     0
 49
-1.5
 74
     0
  0
LTYPE
  5
45
330
5
100
AcDbSymbolTableRecord
100
AcDbLinetypeTableRecord
  2
AM_ISO09W050
 70
     0
  3
_____ . . _____ . . _____ . . ____ .. ____
 72
    65
 73
     6
 40
22.5
 49
12.0
 74
     0
 49
-1.5
 74
     0
 49
3.0
 74
     0
 49
-1.5
 74
     0
 49
3.0
 74
     0
 49
-1.5
 74
     0
  0
LTYPE
  5
46
330
5
100
AcDbSymbolTableRecord
100
AcDbLinetypeTableRecord
  2
Amconstr
 70
     0
  3
_______________________
 72
    65
 73
     2
 40
9999.0
 49
9999.0
 74
     0
 49
0.0
 74
     0
  0
LTYPE
  5
47
330
5
100
AcDbSymbolTableRecord
100
AcDbLinetypeTableRecord
  2
AM_ISO02W050x2
 70
     0
  3
 _ _ _ _ _ _ _ _ _ _ _ _
 72
    65
 73
     2
 40
3.75
 49
3.0
 74
     0
 49
-0.75
 74
     0
  0
LTYPE
  5
48
330
5
100
AcDbSymbolTableRecord
100
AcDbLinetypeTableRecord
  2
AM_ISO08W050x2
 70
     0
  3
__ . __ . __ . __ . __ . __
 72
    65
 73
     4
 40
9.0
 49
6.0
 74
     0
 49
-0.75
 74
     0
 49
1.5
 74
     0
 49
-0.75
 74
     0
  0
LTYPE
  5
4B
330
5
100
AcDbSymbolTableRecord
100
AcDbLinetypeTableRecord
  2
Amzigzag
 70
     0
  3
/\/-/\/-/\/-/\/-/\/-/\/
 72
    65
 73
     2
 40
11.0001
 49
0.0001
 74
     4
 75
   135
340
4A
 46
0.04
 50
0.0
 44
0.0
 45
0.0
 49
-11.0
 74
     0
  0
LTYPE
  5
188
330
5
100
AcDbSymbolTableRecord
100
AcDbLinetypeTableRecord
  2
ACJISTGB
 70
     0
  3
__ . . __ . .
 72
    65
 73
     6
 40
9.0
 49
4.0
 74
     0
 49
-1.0
 74
     0
 49
1.0
 74
     0
 49
-1.0
 74
     0
 49
1.0
 74
     0
 49
-1.0
 74
     0
  0
LTYPE
  5
189
330
5
100
AcDbSymbolTableRecord
100
AcDbLinetypeTableRecord
  2
ACJISTGL
 70
     0
  3
_ _ _ _ _
 72
    65
 73
     2
 40
3.0
 49
2.0
 74
     0
 49
-1.0
 74
     0
  0
LTYPE
  5
652
330
5
100
AcDbSymbolTableRecord
100
AcDbLinetypeTableRecord
  2
CENTER
 70
     0
  3
____ _ ____ _ ____ _ ____ _ ____ _ ____ _ ____
 72
    65
 73
     4
 40
17.5
 49
13.0
 74
     0
 49
-1.5
 74
     0
 49
1.5
 74
     0
 49
-1.5
 74
     0
  0
LTYPE
  5
12AB
330
5
100
AcDbSymbolTableRecord
100
AcDbLinetypeTableRecord
  2
HIDDEN
 70
     0
  3
Hidden __ __ __ __ __ __ __ __ __ __ __ __ __ _
 72
    65
 73
     2
 40
0.375
 49
0.25
 74
     0
 49
-0.125
 74
     0
  0
LTYPE
  5
12AC
330
5
100
AcDbSymbolTableRecord
100
AcDbLinetypeTableRecord
  2
PHANTOM2
 70
     0
  3
Phantom (.5x) ___ _ _ ___ _ _ ___ _ _ ___ _ _
 72
    65
 73
     6
 40
1.25
 49
0.625
 74
     0
 49
-0.125
 74
     0
 49
0.125
 74
     0
 49
-0.125
 74
     0
 49
0.125
 74
     0
 49
-0.125
 74
     0
  0
LTYPE
  5
F5A5
330
5
100
AcDbSymbolTableRecord
100
AcDbLinetypeTableRecord
  2
ACISOWELD
 70
     0
  3
_ _ _ _ _
 72
    65
 73
     2
 40
2.0
 49
2.0
 74
     0
 49
-1.0
 74
     0
  0
LTYPE
  5
F5A6
330
5
100
AcDbSymbolTableRecord
100
AcDbLinetypeTableRecord
  2
ACISOTGB
 70
     0
  3
__ . . __ . .
 72
    65
 73
     6
 40
9.0
 49
4.0
 74
     0
 49
-1.0
 74
     0
 49
1.0
 74
     0
 49
-1.0
 74
     0
 49
1.0
 74
     0
 49
-1.0
 74
     0
  0
LTYPE
  5
F5A7
330
5
100
AcDbSymbolTableRecord
100
AcDbLinetypeTableRecord
  2
ACISOTGL
 70
     0
  3
_ _ _ _ _
 72
    65
 73
     2
 40
3.0
 49
2.0
 74
     0
 49
-1.0
 74
     0
  0
ENDTAB
  0
TABLE
  2
LAYER
  5
2
102
{ACAD_XDICTIONARY
360
EDC8
102
}
330
0
100
AcDbSymbolTable
 70
     5
  0
LAYER
  5
10
330
2
100
AcDbSymbolTableRecord
100
AcDbLayerTableRecord
  2
0
 70
     0
 62
     7
  6
Continuous
370
    -3
390
F
  0
LAYER
  5
7D
330
2
100
AcDbSymbolTableRecord
100
AcDbLayerTableRecord
  2
AM_5
 70
     0
 62
     3
  6
Continuous
370
    13
390
F
  0
LAYER
  5
7F
330
2
100
AcDbSymbolTableRecord
100
AcDbLayerTableRecord
  2
Defpoints
 70
     0
 62
     7
  6
Continuous
290
     0
370
    -3
390
F
  0
LAYER
  5
12B1
330
2
100
AcDbSymbolTableRecord
100
AcDbLayerTableRecord
  2
AM_0
 70
     0
 62
     7
  6
Continuous
370
    30
390
F
  0
LAYER
  5
16FC3
330
2
100
AcDbSymbolTableRecord
100
AcDbLayerTableRecord
  2
AM_6
 70
     0
 62
     2
  6
Continuous
370
    30
390
F
  0
ENDTAB
  0
TABLE
  2
STYLE
  5
3
330
0
100
AcDbSymbolTable
 70
     6
  0
STYLE
  5
11
330
3
100
AcDbSymbolTableRecord
100
AcDbTextStyleTableRecord
  2
STANDARD
 70
     0
 40
0.0
 41
1.0
 50
0.0
 71
     0
 42
4.0
  3
ISOCP.SHX
  4
EXTFONT.SHX
  0
STYLE
  5
4A
330
3
100
AcDbSymbolTableRecord
100
AcDbTextStyleTableRecord
  2

 70
     1
 40
0.0
 41
1.0
 50
0.0
 71
     0
 42
2.5
  3
ltypeshp.shx
  4

  0
STYLE
  5
180
330
3
100
AcDbSymbolTableRecord
100
AcDbTextStyleTableRecord
  2
ACJISTS
 70
     0
 40
1.0
 41
1.0
 50
0.0
 71
     0
 42
2.5
  3
isocp.shx
  4
bigfont.shx
  0
STYLE
  5
187
330
3
100
AcDbSymbolTableRecord
100
AcDbTextStyleTableRecord
  2
ACJISGDT
 70
     0
 40
0.0
 41
1.0
 50
0.0
 71
     0
 42
2.5
  3
amgdt.shx
  4

  0
STYLE
  5
F5A9
330
3
100
AcDbSymbolTableRecord
100
AcDbTextStyleTableRecord
  2
ACISOTS
 70
     0
 40
1.0
 41
1.0
 50
0.0
 71
     0
 42
1.0
  3
isocp.shx
  4
extfont.shx
  0
STYLE
  5
F5AA
330
3
100
AcDbSymbolTableRecord
100
AcDbTextStyleTableRecord
  2
ACISOGDT
 70
     0
 40
0.0
 41
1.0
 50
0.0
 71
     0
 42
1.0
  3
amgdt.shx
  4

  0
ENDTAB
  0
TABLE
  2
VIEW
  5
6
330
0
100
AcDbSymbolTable
 70
     6
  0
VIEW
  5
A30
330
6
100
AcDbSymbolTableRecord
100
AcDbViewTableRecord
  2
AM_VIEW1
 70
     0
 40
148.5
 10
109.5616966580977
 20
222.75
 41
219.1233933161954
 11
0.0
 21
0.0
 31
1.0
 12
0.0
 22
0.0
 32
0.0
 42
50.0
 43
0.0
 44
0.0
 50
0.0
 71
    16
281
     0
 72
     0
  0
VIEW
  5
A31
330
6
100
AcDbSymbolTableRecord
100
AcDbViewTableRecord
  2
AM_VIEW2
 70
     0
 40
148.5
 10
310.4383033419023
 20
222.75
 41
219.1233933161954
 11
0.0
 21
0.0
 31
1.0
 12
0.0
 22
0.0
 32
0.0
 42
50.0
 43
0.0
 44
0.0
 50
0.0
 71
    16
281
     0
 72
     0
  0
VIEW
  5
A32
330
6
100
AcDbSymbolTableRecord
100
AcDbViewTableRecord
  2
AM_VIEW3
 70
     0
 40
148.5
 10
109.5616966580977
 20
74.25
 41
219.1233933161954
 11
0.0
 21
0.0
 31
1.0
 12
0.0
 22
0.0
 32
0.0
 42
50.0
 43
0.0
 44
0.0
 50
0.0
 71
    16
281
     0
 72
     0
  0
VIEW
  5
A33
330
6
100
AcDbSymbolTableRecord
100
AcDbViewTableRecord
  2
AM_VIEW4
 70
     0
 40
148.5
 10
310.4383033419023
 20
74.25
 41
219.1233933161954
 11
0.0
 21
0.0
 31
1.0
 12
0.0
 22
0.0
 32
0.0
 42
50.0
 43
0.0
 44
0.0
 50
0.0
 71
    16
281
     0
 72
     0
  0
VIEW
  5
A34
330
6
100
AcDbSymbolTableRecord
100
AcDbViewTableRecord
  2
AM_VIEW5
 70
     0
 40
148.5
 10
210.0
 20
148.5
 41
219.1233933161954
 11
0.0
 21
0.0
 31
1.0
 12
0.0
 22
0.0
 32
0.0
 42
50.0
 43
0.0
 44
0.0
 50
0.0
 71
    16
281
     0
 72
     0
  0
VIEW
  5
A35
330
6
100
AcDbSymbolTableRecord
100
AcDbViewTableRecord
  2
AM_VIEW6
 70
     0
 40
296.99703
 10
210.0
 20
148.5
 41
438.2424041645245
 11
0.0
 21
0.0
 31
1.0
 12
0.0
 22
0.0
 32
0.0
 42
50.0
 43
0.0
 44
0.0
 50
0.0
 71
    16
281
     0
 72
     0
  0
ENDTAB
  0
TABLE
  2
UCS
  5
7
330
0
100
AcDbSymbolTable
 70
     0
  0
ENDTAB
  0
TABLE
  2
APPID
  5
9
330
0
100
AcDbSymbolTable
 70
    45
  0
APPID
  5
12
330
9
100
AcDbSymbolTableRecord
100
AcDbRegAppTableRecord
  2
ACAD
 70
     0
  0
APPID
  5
2C
330
9
100
AcDbSymbolTableRecord
100
AcDbRegAppTableRecord
  2
MCAD_NO_VIS
 70
     0
  0
APPID
  5
2D
330
9
100
AcDbSymbolTableRecord
100
AcDbRegAppTableRecord
  2
ACAD_TEMP_GRAPHIC
 70
     0
  0
APPID
  5
B9
330
9
100
AcDbSymbolTableRecord
100
AcDbRegAppTableRecord
  2
GENIUS_GENDTOL_13
 70
     0
  0
APPID
  5
359
330
9
100
AcDbSymbolTableRecord
100
AcDbRegAppTableRecord
  2
GENIUS_GENREC_14
 70
     0
  0
APPID
  5
35A
330
9
100
AcDbSymbolTableRecord
100
AcDbRegAppTableRecord
  2
GENIUS_GENODEF_13
 70
     0
  0
APPID
  5
35B
330
9
100
AcDbSymbolTableRecord
100
AcDbRegAppTableRecord
  2
GENIUS_GENOBJ-N-REC_13
 70
     0
  0
APPID
  5
667
330
9
100
AcDbSymbolTableRecord
100
AcDbRegAppTableRecord
  2
GENIUS_GENCFG_13
 70
     0
  0
APPID
  5
668
330
9
100
AcDbSymbolTableRecord
100
AcDbRegAppTableRecord
  2
GENIUS_GENCFG0_13
 70
     0
  0
APPID
  5
669
330
9
100
AcDbSymbolTableRecord
100
AcDbRegAppTableRecord
  2
GENIUS_GENCFG1_13
 70
     0
  0
APPID
  5
66A
330
9
100
AcDbSymbolTableRecord
100
AcDbRegAppTableRecord
  2
GENIUS_GENCFG2_13
 70
     0
  0
APPID
  5
66B
330
9
100
AcDbSymbolTableRecord
100
AcDbRegAppTableRecord
  2
GENIUS_GENCFG3_13
 70
     0
  0
APPID
  5
66C
330
9
100
AcDbSymbolTableRecord
100
AcDbRegAppTableRecord
  2
GENIUS_GENCFG4_13
 70
     0
  0
APPID
  5
A76
330
9
100
AcDbSymbolTableRecord
100
AcDbRegAppTableRecord
  2
GENIUS_GENBLLY_14
 70
     0
  0
APPID
  5
A77
330
9
100
AcDbSymbolTableRecord
100
AcDbRegAppTableRecord
  2
GENIUS_GENOBJ-N-CEN_13
 70
     0
  0
APPID
  5
A83
330
9
100
AcDbSymbolTableRecord
100
AcDbRegAppTableRecord
  2
GENIUS_GENTRA_14
 70
     0
  0
APPID
  5
A8D
330
9
100
AcDbSymbolTableRecord
100
AcDbRegAppTableRecord
  2
GENIUS_GENOBJ-N-TIT_13
 70
     0
  0
APPID
  5
A8E
330
9
100
AcDbSymbolTableRecord
100
AcDbRegAppTableRecord
  2
GENIUS_GENTITLE_13
 70
     0
  0
APPID
  5
A8F
330
9
100
AcDbSymbolTableRecord
100
AcDbRegAppTableRecord
  2
GENIUS_GENOENT_13
 70
     0
  0
APPID
  5
A90
330
9
100
AcDbSymbolTableRecord
100
AcDbRegAppTableRecord
  2
GENIUS_GENOREF_13
 70
     0
  0
APPID
  5
A91
330
9
100
AcDbSymbolTableRecord
100
AcDbRegAppTableRecord
  2
GENIUS_GENOLIS_13
 70
     0
  0
APPID
  5
A92
330
9
100
AcDbSymbolTableRecord
100
AcDbRegAppTableRecord
  2
GENIUS_GENZVEED_13
 70
     0
  0
APPID
  5
A93
330
9
100
AcDbSymbolTableRecord
100
AcDbRegAppTableRecord
  2
GENIUS_GENSCREG_15
 70
     0
  0
APPID
  5
A94
330
9
100
AcDbSymbolTableRecord
100
AcDbRegAppTableRecord
  2
GENIUS_GENOBJ-N-SDF_13
 70
     0
  0
APPID
  5
12B5
330
9
100
AcDbSymbolTableRecord
100
AcDbRegAppTableRecord
  2
GENIUS_GENOBJ-N-RSBK_13
 70
     0
  0
APPID
  5
12B6
330
9
100
AcDbSymbolTableRecord
100
AcDbRegAppTableRecord
  2
GENIUS_GENOBJ-N-LIB_13
 70
     0
  0
APPID
  5
12B7
330
9
100
AcDbSymbolTableRecord
100
AcDbRegAppTableRecord
  2
GENIUS_GENSCALE_13
 70
     0
  0
APPID
  5
12B8
330
9
100
AcDbSymbolTableRecord
100
AcDbRegAppTableRecord
  2
GENIUS_GENOBJ-N-HTC_13
 70
     0
  0
APPID
  5
12B9
330
9
100
AcDbSymbolTableRecord
100
AcDbRegAppTableRecord
  2
GENIUS_GENHATCH_13
 70
     0
  0
APPID
  5
18AA
330
9
100
AcDbSymbolTableRecord
100
AcDbRegAppTableRecord
  2
BASE_TYPE
 70
     0
  0
APPID
  5
18AB
330
9
100
AcDbSymbolTableRecord
100
AcDbRegAppTableRecord
  2
GENIUS_GENOBJ-N-FIL_13
 70
     0
  0
APPID
  5
1E91
330
9
100
AcDbSymbolTableRecord
100
AcDbRegAppTableRecord
  2
GENIUS_GENOBJ-N-CRS_13
 70
     0
  0
APPID
  5
3B24
330
9
100
AcDbSymbolTableRecord
100
AcDbRegAppTableRecord
  2
GENIUS_GENDIMSH_14
 70
     0
  0
APPID
  5
4D78
330
9
100
AcDbSymbolTableRecord
100
AcDbRegAppTableRecord
  2
GENIUS_GENOBJ-N-DIM_13
 70
     0
  0
APPID
  5
4D79
330
9
100
AcDbSymbolTableRecord
100
AcDbRegAppTableRecord
  2
GENIUS_GENDIM_13
 70
     0
  0
APPID
  5
517C
330
9
100
AcDbSymbolTableRecord
100
AcDbRegAppTableRecord
  2
GENIUS_GENFIL_13
 70
     0
  0
APPID
  5
517D
330
9
100
AcDbSymbolTableRecord
100
AcDbRegAppTableRecord
  2
GENIUS_GENOBJ-N-CHA_13
 70
     0
  0
APPID
  5
ED83
330
9
100
AcDbSymbolTableRecord
100
AcDbRegAppTableRecord
  2
AD_DRAW
 70
     0
  0
APPID
  5
ED86
330
9
100
AcDbSymbolTableRecord
100
AcDbRegAppTableRecord
  2
ACATTRIBSERVICES
 70
     0
  0
APPID
  5
EDA4
330
9
100
AcDbSymbolTableRecord
100
AcDbRegAppTableRecord
  2
DESIGNERASSEMBLIES
 70
     0
  0
APPID
  5
EDB7
330
9
100
AcDbSymbolTableRecord
100
AcDbRegAppTableRecord
  2
ACADM_DIM_EDIT
 70
     0
  0
APPID
  5
EDB8
330
9
100
AcDbSymbolTableRecord
100
AcDbRegAppTableRecord
  2
AMDT_DM_ADJ
 70
     0
  0
APPID
  5
F08C
330
9
100
AcDbSymbolTableRecord
100
AcDbRegAppTableRecord
  2
ACAD_PSEXT
 70
     0
  0
APPID
  5
F2B1
330
9
100
AcDbSymbolTableRecord
100
AcDbRegAppTableRecord
  2
GENIUS_GENCEN_19
 70
     0
  0
APPID
  5
10513
330
9
100
AcDbSymbolTableRecord
100
AcDbRegAppTableRecord
  2
ACAD_DSTYLE_DIMTEXT_FILL
 70
     0
  0
ENDTAB
  0
TABLE
  2
DIMSTYLE
  5
A
330
0
100
AcDbSymbolTable
 70
    17
100
AcDbDimStyleTable
  0
DIMSTYLE
105
58
330
A
100
AcDbSymbolTableRecord
100
AcDbDimStyleTableRecord
  2
AM_JIS
 70
     0
  4
"
 41
2.5
 42
0.0
 43
10.0
 44
1.0
 47
0.1
 48
0.1000000001
 73
     0
 74
     0
 77
     3
 78
     1
 79
     2
140
3.8
141
0.0
143
0.0393701
146
0.71
147
1.5
172
     1
176
   256
177
   256
178
     2
179
     1
271
     2
272
     2
275
     1
283
     0
284
     8
340
11
341
59
342
59
371
    -1
372
    -1
  0
DIMSTYLE
105
5F
330
A
100
AcDbSymbolTableRecord
100
AcDbDimStyleTableRecord
  2
AM_JIS$3
 70
     0
  4
"
 41
2.5
 42
0.0
 43
10.0
 44
1.0
 47
0.1
 48
0.1000000001
 73
     0
 77
     3
 78
     1
 79
     2
140
3.8
141
0.0
143
0.0393701
146
0.71
147
1.5
172
     1
176
   256
177
   256
178
     2
179
     1
271
     2
272
     2
275
     1
283
     0
284
     8
288
     1
289
     0
340
11
341
59
342
59
371
    -1
372
    -1
  0
DIMSTYLE
105
60
330
A
100
AcDbSymbolTableRecord
100
AcDbDimStyleTableRecord
  2
AM_JIS$4
 70
     0
  4
"
 41
2.5
 42
0.0
 43
10.0
 44
1.0
 47
0.1
 48
0.1000000001
 73
     0
 77
     3
 78
     1
 79
     2
140
3.8
141
0.0
143
0.0393701
146
0.71
147
1.5
172
     1
176
   256
177
   256
178
     2
179
     1
271
     2
272
     2
275
     1
283
     0
284
     8
288
     1
289
     0
340
11
341
59
342
59
371
    -1
372
    -1
  0
DIMSTYLE
105
61
330
A
100
AcDbSymbolTableRecord
100
AcDbDimStyleTableRecord
  2
AM_JIS$6
 70
     0
  4
"
 41
2.5
 42
0.0
 43
10.0
 44
1.0
 47
0.1
 48
0.1000000001
 73
     0
 74
     0
 78
     1
 79
     2
140
3.8
141
0.0
143
0.0393701
146
0.71
147
1.5
172
     1
176
   256
177
   256
178
     2
179
     1
271
     2
272
     2
275
     1
283
     0
284
     8
340
11
341
59
342
59
371
    -1
372
    -1
  0
DIMSTYLE
105
62
330
A
100
AcDbSymbolTableRecord
100
AcDbDimStyleTableRecord
  2
AM_JIS$7
 70
     0
  4
"
 41
2.5
 42
0.0
 43
10.0
 44
1.0
 47
0.1
 48
0.1000000001
 73
     0
 74
     0
 77
     3
 78
     1
 79
     2
140
5.0
141
0.0
143
0.0393701
146
0.71
147
1.5
172
     1
176
   256
177
   256
178
     2
179
     1
271
     2
272
     2
275
     1
283
     0
284
     8
340
11
341
59
342
59
371
    -1
372
    -1
  0
DIMSTYLE
105
63
330
A
100
AcDbSymbolTableRecord
100
AcDbDimStyleTableRecord
  2
AM_JIS$SF
 70
     0
  4
"
 41
2.5
 42
1.0
 43
10.0
 44
1.0
 47
0.1
 48
0.1
 73
     0
 74
     0
 75
     1
 76
     1
 77
     3
 78
     8
 79
     2
140
3.5
141
0.0
143
0.0393701
146
0.71
147
1.5
176
   256
177
   256
178
     2
271
     2
272
     3
274
     4
340
11
341
59
342
59
343
59
344
59
371
    -1
372
    -1
  0
DIMSTYLE
105
68
330
A
100
AcDbSymbolTableRecord
100
AcDbDimStyleTableRecord
  2
AM_JIS$SH
 70
     0
  4
"
 41
2.5
 42
1.0
 43
10.0
 44
1.0
 47
0.1
 48
0.1
 73
     0
 74
     0
 75
     1
 76
     1
 77
     3
 78
     8
 79
     2
140
3.5
141
0.0
143
0.0393701
144
2.0
146
0.71
147
1.5
173
     1
176
   256
177
   256
178
     2
271
     2
272
     3
274
     4
340
11
341
59
342
59
343
64
344
59
371
    -1
372
    -1
  0
DIMSTYLE
105
65F
330
A
100
AcDbSymbolTableRecord
100
AcDbDimStyleTableRecord
  2
STANDARD
 70
     0
340
11
  0
DIMSTYLE
105
18A8
102
{ACAD_REACTORS
330
13985
330
139C8
330
13A3B
330
13B18
330
13B3A
330
14E3C
102
}
330
A
100
AcDbSymbolTableRecord
100
AcDbDimStyleTableRecord
  2
AM_JIS$0
 70
     0
  4
"
 41
2.5
 42
0.0
 43
10.0
 44
1.0
 47
0.1
 48
0.1000000001
 73
     0
 74
     0
 77
     3
 78
     1
 79
     2
140
3.8
141
0.0
143
0.0393701
146
0.71
147
1.5
172
     1
176
     3
177
     3
178
     2
271
     2
272
     2
275
     1
283
     0
284
     8
289
     0
340
11
341
59
342
59
371
    13
372
    13
  0
DIMSTYLE
105
18A9
102
{ACAD_REACTORS
330
17001
102
}
330
A
100
AcDbSymbolTableRecord
100
AcDbDimStyleTableRecord
  2
AM_JIS$2
 70
     0
  4
"
 41
2.5
 42
0.0
 43
10.0
 44
1.0
 47
0.1
 48
0.1000000001
 73
     0
 74
     0
 77
     3
 78
     1
 79
     2
140
3.8
141
0.0
143
0.0393701
146
0.71
147
1.5
172
     1
176
     3
177
     3
178
     2
271
     2
272
     2
275
     1
283
     0
284
     8
289
     0
340
11
341
59
342
59
371
    13
372
    13
  0
DIMSTYLE
105
F5AE
330
A
100
AcDbSymbolTableRecord
100
AcDbDimStyleTableRecord
  2
AM_ISO
 70
     0
  4
"
 41
2.5
 42
1.0
 43
10.0
 44
1.0
 47
0.1
 48
0.1
 73
     0
 74
     0
 77
     1
 78
     8
 79
     2
140
3.5
141
0.0
143
0.0393701
146
0.71
147
1.5
172
     1
176
   256
177
   256
178
     2
271
     2
272
     3
274
     4
283
     0
284
     8
340
11
371
    -1
372
    -1
  0
DIMSTYLE
105
F5AF
330
A
100
AcDbSymbolTableRecord
100
AcDbDimStyleTableRecord
  2
AM_ISO$3
 70
     0
  4
"
 41
2.5
 42
1.0
 43
10.0
 44
1.0
 47
0.1
 48
0.1
 73
     0
 77
     1
 78
     8
 79
     2
140
3.5
141
0.0
143
0.0393701
146
0.71
147
1.5
176
   256
177
   256
178
     2
271
     2
272
     3
274
     4
283
     0
284
     8
288
     1
289
     0
340
11
371
    -1
372
    -1
  0
DIMSTYLE
105
F5B0
330
A
100
AcDbSymbolTableRecord
100
AcDbDimStyleTableRecord
  2
AM_ISO$4
 70
     0
  4
"
 41
2.5
 42
1.0
 43
10.0
 44
1.0
 47
0.1
 48
0.1
 73
     0
 77
     1
 78
     8
 79
     2
140
3.5
141
0.0
143
0.0393701
146
0.71
147
1.5
176
   256
177
   256
178
     2
271
     2
272
     3
274
     4
283
     0
284
     8
288
     1
289
     0
340
11
371
    -1
372
    -1
  0
DIMSTYLE
105
F5B1
330
A
100
AcDbSymbolTableRecord
100
AcDbDimStyleTableRecord
  2
AM_ISO$6
 70
     0
  4
"
 41
2.5
 42
1.0
 43
10.0
 44
1.0
 47
0.1
 48
0.1
 73
     0
 74
     0
 78
     8
 79
     2
140
3.5
141
0.0
143
0.0393701
146
0.71
147
1.5
172
     1
176
   256
177
   256
178
     2
271
     2
272
     3
274
     4
283
     0
284
     8
340
11
371
    -1
372
    -1
  0
DIMSTYLE
105
F5B2
330
A
100
AcDbSymbolTableRecord
100
AcDbDimStyleTableRecord
  2
AM_ISO$7
 70
     0
  4
"
 41
2.5
 42
1.0
 43
10.0
 44
1.0
 47
0.1
 48
0.1
 73
     0
 74
     0
 77
     1
 78
     8
 79
     2
140
5.0
141
0.0
143
0.0393701
146
0.71
147
1.5
172
     1
176
   256
177
   256
178
     2
271
     2
272
     3
274
     4
283
     0
284
     8
340
11
371
    -1
372
    -1
  0
DIMSTYLE
105
F5B3
330
A
100
AcDbSymbolTableRecord
100
AcDbDimStyleTableRecord
  2
AM_ISO$SF
 70
     0
  4
"
 41
2.5
 42
1.0
 43
10.0
 44
1.0
 47
0.1
 48
0.1
 73
     0
 74
     0
 75
     1
 76
     1
 77
     1
 78
     8
 79
     2
140
3.5
141
0.0
143
0.0393701
146
0.71
147
1.5
172
     1
176
   256
177
   256
178
     2
271
     2
272
     3
274
     4
283
     0
284
     8
340
11
371
    -1
372
    -1
  0
DIMSTYLE
105
F5B4
330
A
100
AcDbSymbolTableRecord
100
AcDbDimStyleTableRecord
  2
AM_ISO$SH
 70
     0
  4
"
 41
2.5
 42
1.0
 43
10.0
 44
1.0
 47
0.1
 48
0.1
 73
     0
 74
     0
 75
     1
 76
     1
 77
     1
 78
     8
 79
     2
140
3.5
141
0.0
143
0.0393701
144
2.0
146
0.71
147
1.5
172
     1
173
     1
176
   256
177
   256
178
     2
271
     2
272
     3
274
     4
283
     0
284
     8
340
11
343
64
371
    -1
372
    -1
  0
ENDTAB
  0
TABLE
  2
BLOCK_RECORD
  5
1
330
0
100
AcDbSymbolTable
 70
    11
  0
BLOCK_RECORD
  5
1F
102
{ACAD_XDICTIONARY
360
165
102
}
330
1
100
AcDbSymbolTableRecord
100
AcDbBlockTableRecord
  2
*Model_Space
340
22
  0
BLOCK_RECORD
  5
1B
330
1
100
AcDbSymbolTableRecord
100
AcDbBlockTableRecord
  2
*Paper_Space
340
1E
  0
BLOCK_RECORD
  5
23
330
1
100
AcDbSymbolTableRecord
100
AcDbBlockTableRecord
  2
*Paper_Space0
340
26
  0
BLOCK_RECORD
  5
59
330
1
100
AcDbSymbolTableRecord
100
AcDbBlockTableRecord
  2
_Open30
340
0
102
{BLKREFS
331
16F73
331
16F74
331
16FB4
331
16FB5
331
16F85
331
16F86
331
16F8E
331
16F8F
331
16F97
331
16F98
331
16FA0
331
16FA1
331
1701E
331
1701F
102
}
  0
BLOCK_RECORD
  5
64
330
1
100
AcDbSymbolTableRecord
100
AcDbBlockTableRecord
  2
GENAXEH
340
0
  0
BLOCK_RECORD
  5
ED9B
330
1
100
AcDbSymbolTableRecord
100
AcDbBlockTableRecord
  2
*U3
340
0
  0
BLOCK_RECORD
  5
13986
330
1
100
AcDbSymbolTableRecord
100
AcDbBlockTableRecord
  2
*D4
340
0
  0
BLOCK_RECORD
  5
139C9
330
1
100
AcDbSymbolTableRecord
100
AcDbBlockTableRecord
  2
*D5
340
0
  0
BLOCK_RECORD
  5
13A3C
330
1
100
AcDbSymbolTableRecord
100
AcDbBlockTableRecord
  2
*D6
340
0
  0
BLOCK_RECORD
  5
13B19
330
1
100
AcDbSymbolTableRecord
100
AcDbBlockTableRecord
  2
*D7
340
0
  0
BLOCK_RECORD
  5
13B3B
330
1
100
AcDbSymbolTableRecord
100
AcDbBlockTableRecord
  2
*D8
340
0
  0
BLOCK_RECORD
  5
14E3D
330
1
100
AcDbSymbolTableRecord
100
AcDbBlockTableRecord
  2
*D9
340
0
  0
BLOCK_RECORD
  5
17002
330
1
100
AcDbSymbolTableRecord
100
AcDbBlockTableRecord
  2
*D10
340
0
  0
ENDTAB
  0
ENDSEC
  0
SECTION
  2
BLOCKS
  0
BLOCK
  5
20
330
1F
100
AcDbEntity
  8
0
100
AcDbBlockBegin
  2
*Model_Space
 70
     0
 71
     0
 10
0.0
 20
0.0
 30
0.0
  3
*Model_Space
  1

  0
ENDBLK
  5
21
330
1F
100
AcDbEntity
  8
0
100
AcDbBlockEnd
  0
BLOCK
  5
1C
330
1B
100
AcDbEntity
 67
     1
  8
0
100
AcDbBlockBegin
  2
*Paper_Space
 70
     0
 71
     0
 10
0.0
 20
0.0
 30
0.0
  3
*Paper_Space
  1

  0
ENDBLK
  5
1D
330
1B
100
AcDbEntity
 67
     1
  8
0
100
AcDbBlockEnd
  0
BLOCK
  5
24
330
23
100
AcDbEntity
  8
0
100
AcDbBlockBegin
  2
*Paper_Space0
 70
     0
 71
     0
 10
0.0
 20
0.0
 30
0.0
  3
*Paper_Space0
  1

  0
ENDBLK
  5
25
330
23
100
AcDbEntity
  8
0
100
AcDbBlockEnd
  0
BLOCK
  5
5D
330
59
100
AcDbEntity
  8
0
100
AcDbBlockBegin
  2
_Open30
 70
     0
 71
     0
 10
0.0
 20
0.0
 30
0.0
  3
_Open30
  1

  0
LINE
  5
5A
330
59
100
AcDbEntity
  8
0
 62
     0
370
    -2
100
AcDbLine
 10
-1.0
 20
0.26794919
 30
0.0
 11
0.0
 21
0.0
 31
0.0
  0
LINE
  5
5B
330
59
100
AcDbEntity
  8
0
 62
     0
370
    -2
100
AcDbLine
 10
0.0
 20
0.0
 30
0.0
 11
-1.0
 21
-0.26794919
 31
0.0
  0
LINE
  5
5C
330
59
100
AcDbEntity
  8
0
 62
     0
370
    -2
100
AcDbLine
 10
0.0
 20
0.0
 30
0.0
 11
-1.0
 21
0.0
 31
0.0
  0
ENDBLK
  5
5E
330
59
100
AcDbEntity
  8
0
100
AcDbBlockEnd
  0
BLOCK
  5
66
330
64
100
AcDbEntity
  8
0
100
AcDbBlockBegin
  2
GENAXEH
 70
     0
 71
     0
 10
0.0
 20
0.0
 30
0.0
  3
GENAXEH
  1

  0
LINE
  5
65
330
64
100
AcDbEntity
  8
0
100
AcDbLine
 10
-1.0
 20
0.0
 30
0.0
 11
1.0
 21
0.0
 31
0.0
  0
ENDBLK
  5
67
330
64
100
AcDbEntity
  8
0
100
AcDbBlockEnd
  0
BLOCK
  5
ED9C
330
ED9B
100
AcDbEntity
  8
0
100
AcDbBlockBegin
  2
*U3
 70
     1
 71
     0
 10
0.0
 20
0.0
 30
0.0
  3
*U3
  1

  0
ENDBLK
  5
ED9D
330
ED9B
100
AcDbEntity
  8
0
100
AcDbBlockEnd
  0
BLOCK
  5
139B7
330
13986
100
AcDbEntity
  8
0
100
AcDbBlockBegin
  2
*D4
 70
     1
 71
     0
 10
0.0
 20
0.0
 30
0.0
  3
*D4
  1

  0
LINE
  5
16F70
330
13986
100
AcDbEntity
  8
AM_5
 62
     3
370
    13
100
AcDbLine
 10
8.032675428778333
 20
26.99999999999997
 30
0.0
 11
-18.60454798536599
 21
26.99999999999998
 31
0.0
  0
LINE
  5
16F71
330
13986
100
AcDbEntity
  8
AM_5
 62
     3
370
    13
100
AcDbLine
 10
0.0
 20
0.0
 30
0.0
 11
-18.604547985366
 21
0.0000000000000053
 31
0.0
  0
LINE
  5
16F72
330
13986
100
AcDbEntity
  8
AM_5
 62
     3
370
    13
100
AcDbLine
 10
-17.60454798536599
 20
24.49999999999998
 30
0.0
 11
-17.604547985366
 21
2.500000000000005
 31
0.0
  0
INSERT
  5
16F73
330
13986
100
AcDbEntity
  8
AM_5
 62
     3
370
    13
100
AcDbBlockReference
  2
_Open30
 10
-17.60454798536599
 20
26.99999999999998
 30
0.0
 41
2.5
 42
2.5
 43
2.5
 50
90.0
  0
INSERT
  5
16F74
330
13986
100
AcDbEntity
  8
AM_5
 62
     3
370
    13
100
AcDbBlockReference
  2
_Open30
 10
-17.604547985366
 20
0.000000000000005
 30
0.0
 41
2.5
 42
2.5
 43
2.5
 50
270.0
  0
MTEXT
  5
16F75
330
13986
100
AcDbEntity
  8
AM_5
 62
     2
370
    13
100
AcDbMText
 10
-21.00492200111403
 20
13.99646844969411
 30
0.0
 40
3.8
 41
0.0
 71
     5
 72
     1
  1
27{
 11
6.123031769111886E-17
 21
1.0
 31
0.0
 73
     1
 44
1.0
  0
POINT
  5
16F76
330
13986
100
AcDbEntity
  8
Defpoints
 62
     0
100
AcDbPoint
 10
8.032675428778333
 20
26.99999999999997
 30
0.0
  0
POINT
  5
16F77
330
13986
100
AcDbEntity
  8
Defpoints
 62
     0
100
AcDbPoint
 10
0.0
 20
0.0
 30
0.0
  0
POINT
  5
16F78
330
13986
100
AcDbEntity
  8
Defpoints
 62
     0
100
AcDbPoint
 10
-17.604547985366
 20
0.000000000000005
 30
0.0
  0
ENDBLK
  5
139B8
330
13986
100
AcDbEntity
  8
0
100
AcDbBlockEnd
  0
BLOCK
  5
139DF
330
139C9
100
AcDbEntity
  8
0
100
AcDbBlockBegin
  2
*D5
 70
     1
 71
     0
 10
0.0
 20
0.0
 30
0.0
  3
*D5
  1

  0
LINE
  5
16FB1
330
139C9
100
AcDbEntity
  8
AM_5
 62
     3
370
    13
100
AcDbLine
 10
0.0
 20
0.0
 30
0.0
 11
-0.0000000000000022
 21
-35.42746171263676
 31
0.0
  0
LINE
  5
16FB2
330
139C9
100
AcDbEntity
  8
AM_5
 62
     3
370
    13
100
AcDbLine
 10
170.0
 20
-5.000000000000028
 30
0.0
 11
170.0
 21
-35.42746171263676
 31
0.0
  0
LINE
  5
16FB3
330
139C9
100
AcDbEntity
  8
AM_5
 62
     3
370
    13
100
AcDbLine
 10
2.499999999999998
 20
-34.42746171263676
 30
0.0
 11
167.5
 21
-34.42746171263676
 31
0.0
  0
INSERT
  5
16FB4
330
139C9
100
AcDbEntity
  8
AM_5
 62
     3
370
    13
100
AcDbBlockReference
  2
_Open30
 10
-0.0000000000000021
 20
-34.42746171263676
 30
0.0
 41
2.5
 42
2.5
 43
2.5
 50
180.0
  0
INSERT
  5
16FB5
330
139C9
100
AcDbEntity
  8
AM_5
 62
     3
370
    13
100
AcDbBlockReference
  2
_Open30
 10
170.0
 20
-34.42746171263676
 30
0.0
 41
2.5
 42
2.5
 43
2.5
  0
MTEXT
  5
16FB6
330
139C9
100
AcDbEntity
  8
AM_5
 62
     2
370
    13
100
AcDbMText
 10
85.00000000000001
 20
-31.02746171263676
 30
0.0
 40
3.8
 41
0.0
 71
     5
 72
     1
  1
170
 73
     1
 44
1.0
  0
POINT
  5
16FB7
330
139C9
100
AcDbEntity
  8
Defpoints
 62
     0
100
AcDbPoint
 10
0.0
 20
0.0
 30
0.0
  0
POINT
  5
16FB8
330
139C9
100
AcDbEntity
  8
Defpoints
 62
     0
100
AcDbPoint
 10
170.0
 20
-5.000000000000028
 30
0.0
  0
POINT
  5
16FB9
330
139C9
100
AcDbEntity
  8
Defpoints
 62
     0
100
AcDbPoint
 10
170.0
 20
-34.42746171263676
 30
0.0
  0
ENDBLK
  5
139E0
330
139C9
100
AcDbEntity
  8
0
100
AcDbBlockEnd
  0
BLOCK
  5
13A52
330
13A3C
100
AcDbEntity
  8
0
100
AcDbBlockBegin
  2
*D6
 70
     1
 71
     0
 10
0.0
 20
0.0
 30
0.0
  3
*D6
  1

  0
LINE
  5
16F82
330
13A3C
100
AcDbEntity
  8
AM_5
 62
     3
370
    13
100
AcDbLine
 10
0.0000000000000568
 20
-78.24431145334322
 30
0.0
 11
-20.2172452671995
 21
-78.24431145334322
 31
0.0
  0
LINE
  5
16F83
330
13A3C
100
AcDbEntity
  8
AM_5
 62
     3
370
    13
100
AcDbLine
 10
1.505146997044704
 20
-110.2443114533432
 30
0.0
 11
-20.2172452671995
 21
-110.2443114533432
 31
0.0
  0
LINE
  5
16F84
330
13A3C
100
AcDbEntity
  8
AM_5
 62
     3
370
    13
100
AcDbLine
 10
-19.2172452671995
 20
-80.74431145334322
 30
0.0
 11
-19.2172452671995
 21
-107.7443114533432
 31
0.0
  0
INSERT
  5
16F85
330
13A3C
100
AcDbEntity
  8
AM_5
 62
     3
370
    13
100
AcDbBlockReference
  2
_Open30
 10
-19.2172452671995
 20
-78.24431145334322
 30
0.0
 41
2.5
 42
2.5
 43
2.5
 50
90.0
  0
INSERT
  5
16F86
330
13A3C
100
AcDbEntity
  8
AM_5
 62
     3
370
    13
100
AcDbBlockReference
  2
_Open30
 10
-19.2172452671995
 20
-110.2443114533432
 30
0.0
 41
2.5
 42
2.5
 43
2.5
 50
270.0
  0
MTEXT
  5
16F87
330
13A3C
100
AcDbEntity
  8
AM_5
 62
     2
370
    13
100
AcDbMText
 10
-22.61761928294752
 20
-94.24431145334322
 30
0.0
 40
3.8
 41
0.0
 71
     5
 72
     1
  1
32
 11
6.123031769111886E-17
 21
1.0
 31
0.0
 73
     1
 44
1.0
  0
POINT
  5
16F88
330
13A3C
100
AcDbEntity
  8
Defpoints
 62
     0
100
AcDbPoint
 10
0.0000000000000568
 20
-78.24431145334322
 30
0.0
  0
POINT
  5
16F89
330
13A3C
100
AcDbEntity
  8
Defpoints
 62
     0
100
AcDbPoint
 10
1.505146997044704
 20
-110.2443114533432
 30
0.0
  0
POINT
  5
16F8A
330
13A3C
100
AcDbEntity
  8
Defpoints
 62
     0
100
AcDbPoint
 10
-19.2172452671995
 20
-110.2443114533432
 30
0.0
  0
ENDBLK
  5
13A53
330
13A3C
100
AcDbEntity
  8
0
100
AcDbBlockEnd
  0
BLOCK
  5
13B51
330
13B19
100
AcDbEntity
  8
0
100
AcDbBlockBegin
  2
*D7
 70
     1
 71
     0
 10
0.0
 20
0.0
 30
0.0
  3
*D7
  1

  0
LINE
  5
16F8B
330
13B19
100
AcDbEntity
  8
AM_5
 62
     3
370
    13
100
AcDbLine
 10
170.0
 20
26.99999999999997
 30
0.0
 11
188.9670459649508
 21
26.99999999999997
 31
0.0
  0
LINE
  5
16F8C
330
13B19
100
AcDbEntity
  8
AM_5
 62
     3
370
    13
100
AcDbLine
 10
170.0
 20
-5.000000000000028
 30
0.0
 11
188.9670459649508
 21
-5.000000000000033
 31
0.0
  0
LINE
  5
16F8D
330
13B19
100
AcDbEntity
  8
AM_5
 62
     3
370
    13
100
AcDbLine
 10
187.9670459649508
 20
24.49999999999997
 30
0.0
 11
187.9670459649508
 21
-2.500000000000033
 31
0.0
  0
INSERT
  5
16F8E
330
13B19
100
AcDbEntity
  8
AM_5
 62
     3
370
    13
100
AcDbBlockReference
  2
_Open30
 10
187.9670459649508
 20
26.99999999999997
 30
0.0
 41
2.5
 42
2.5
 43
2.5
 50
90.0
  0
INSERT
  5
16F8F
330
13B19
100
AcDbEntity
  8
AM_5
 62
     3
370
    13
100
AcDbBlockReference
  2
_Open30
 10
187.9670459649508
 20
-5.000000000000033
 30
0.0
 41
2.5
 42
2.5
 43
2.5
 50
270.0
  0
MTEXT
  5
16F90
330
13B19
100
AcDbEntity
  8
AM_5
 62
     2
370
    13
100
AcDbMText
 10
184.5666719492028
 20
11.31655479522689
 30
0.0
 40
3.8
 41
0.0
 71
     5
 72
     1
  1
32
 11
6.123031769111886E-17
 21
1.0
 31
0.0
 73
     1
 44
1.0
  0
POINT
  5
16F91
330
13B19
100
AcDbEntity
  8
Defpoints
 62
     0
100
AcDbPoint
 10
170.0
 20
26.99999999999997
 30
0.0
  0
POINT
  5
16F92
330
13B19
100
AcDbEntity
  8
Defpoints
 62
     0
100
AcDbPoint
 10
170.0
 20
-5.000000000000028
 30
0.0
  0
POINT
  5
16F93
330
13B19
100
AcDbEntity
  8
Defpoints
 62
     0
100
AcDbPoint
 10
187.9670459649508
 20
-5.000000000000033
 30
0.0
  0
ENDBLK
  5
13B52
330
13B19
100
AcDbEntity
  8
0
100
AcDbBlockEnd
  0
BLOCK
  5
13B53
330
13B3B
100
AcDbEntity
  8
0
100
AcDbBlockBegin
  2
*D8
 70
     1
 71
     0
 10
0.0
 20
0.0
 30
0.0
  3
*D8
  1

  0
LINE
  5
16F94
330
13B3B
100
AcDbEntity
  8
AM_5
 62
     3
370
    13
100
AcDbLine
 10
170.0
 20
-78.24431145334322
 30
0.0
 11
190.8503568793997
 21
-78.24431145334322
 31
0.0
  0
LINE
  5
16F95
330
13B3B
100
AcDbEntity
  8
AM_5
 62
     3
370
    13
100
AcDbLine
 10
170.0
 20
-110.2443114533432
 30
0.0
 11
190.8503568793997
 21
-110.2443114533432
 31
0.0
  0
LINE
  5
16F96
330
13B3B
100
AcDbEntity
  8
AM_5
 62
     3
370
    13
100
AcDbLine
 10
189.8503568793997
 20
-80.74431145334322
 30
0.0
 11
189.8503568793997
 21
-107.7443114533432
 31
0.0
  0
INSERT
  5
16F97
330
13B3B
100
AcDbEntity
  8
AM_5
 62
     3
370
    13
100
AcDbBlockReference
  2
_Open30
 10
189.8503568793997
 20
-78.24431145334322
 30
0.0
 41
2.5
 42
2.5
 43
2.5
 50
90.0
  0
INSERT
  5
16F98
330
13B3B
100
AcDbEntity
  8
AM_5
 62
     3
370
    13
100
AcDbBlockReference
  2
_Open30
 10
189.8503568793997
 20
-110.2443114533432
 30
0.0
 41
2.5
 42
2.5
 43
2.5
 50
270.0
  0
MTEXT
  5
16F99
330
13B3B
100
AcDbEntity
  8
AM_5
 62
     2
370
    13
100
AcDbMText
 10
186.4499828636517
 20
-94.728275386516
 30
0.0
 40
3.8
 41
0.0
 71
     5
 72
     1
  1
32
 11
6.123031769111886E-17
 21
1.0
 31
0.0
 73
     1
 44
1.0
  0
POINT
  5
16F9A
330
13B3B
100
AcDbEntity
  8
Defpoints
 62
     0
100
AcDbPoint
 10
170.0
 20
-78.24431145334322
 30
0.0
  0
POINT
  5
16F9B
330
13B3B
100
AcDbEntity
  8
Defpoints
 62
     0
100
AcDbPoint
 10
170.0
 20
-110.2443114533432
 30
0.0
  0
POINT
  5
16F9C
330
13B3B
100
AcDbEntity
  8
Defpoints
 62
     0
100
AcDbPoint
 10
189.8503568793997
 20
-110.2443114533432
 30
0.0
  0
ENDBLK
  5
13B54
330
13B3B
100
AcDbEntity
  8
0
100
AcDbBlockEnd
  0
BLOCK
  5
14E5C
330
14E3D
100
AcDbEntity
  8
0
100
AcDbBlockBegin
  2
*D9
 70
     1
 71
     0
 10
0.0
 20
0.0
 30
0.0
  3
*D9
  1

  0
LINE
  5
16F9D
330
14E3D
100
AcDbEntity
  8
AM_5
 62
     3
370
    13
100
AcDbLine
 10
36.00000000000003
 20
-78.24431145334322
 30
0.0
 11
36.00000000000003
 21
-48.64674819812208
 31
0.0
  0
LINE
  5
16F9E
330
14E3D
100
AcDbEntity
  8
AM_5
 62
     3
370
    13
100
AcDbLine
 10
0.0
 20
-78.24431145334322
 30
0.0
 11
0.0000000000000018
 21
-48.64674819812208
 31
0.0
  0
LINE
  5
16F9F
330
14E3D
100
AcDbEntity
  8
AM_5
 62
     3
370
    13
100
AcDbLine
 10
33.50000000000003
 20
-49.64674819812208
 30
0.0
 11
2.500000000000002
 21
-49.64674819812208
 31
0.0
  0
INSERT
  5
16FA0
330
14E3D
100
AcDbEntity
  8
AM_5
 62
     3
370
    13
100
AcDbBlockReference
  2
_Open30
 10
36.00000000000003
 20
-49.64674819812208
 30
0.0
 41
2.5
 42
2.5
 43
2.5
  0
INSERT
  5
16FA1
330
14E3D
100
AcDbEntity
  8
AM_5
 62
     3
370
    13
100
AcDbBlockReference
  2
_Open30
 10
0.0000000000000018
 20
-49.64674819812208
 30
0.0
 41
2.5
 42
2.5
 43
2.5
 50
180.0
  0
MTEXT
  5
16FA2
330
14E3D
100
AcDbEntity
  8
AM_5
 62
     2
370
    13
100
AcDbMText
 10
18.00000000000001
 20
-46.24674819812208
 30
0.0
 40
3.8
 41
0.0
 71
     5
 72
     1
  1
36
 73
     1
 44
1.0
  0
POINT
  5
16FA3
330
14E3D
100
AcDbEntity
  8
Defpoints
 62
     0
100
AcDbPoint
 10
36.00000000000003
 20
-78.24431145334322
 30
0.0
  0
POINT
  5
16FA4
330
14E3D
100
AcDbEntity
  8
Defpoints
 62
     0
100
AcDbPoint
 10
0.0
 20
-78.24431145334322
 30
0.0
  0
POINT
  5
16FA5
330
14E3D
100
AcDbEntity
  8
Defpoints
 62
     0
100
AcDbPoint
 10
0.0000000000000018
 20
-49.64674819812208
 30
0.0
  0
ENDBLK
  5
14E5D
330
14E3D
100
AcDbEntity
  8
0
100
AcDbBlockEnd
  0
BLOCK
  5
1700E
330
17002
100
AcDbEntity
  8
0
100
AcDbBlockBegin
  2
*D10
 70
     1
 71
     0
 10
0.0
 20
0.0
 30
0.0
  3
*D10
  1

  0
LINE
  5
1701B
330
17002
100
AcDbEntity
  8
AM_0
 62
     3
370
    13
100
AcDbLine
 10
0.0
 20
-0.0000000000000155
 30
0.0
 11
-0.0000000000000036
 21
-22.30691261381906
 31
0.0
  0
LINE
  5
1701C
330
17002
100
AcDbEntity
  8
AM_0
 62
     3
370
    13
100
AcDbLine
 10
13.86061372743799
 20
-3.713940254866714
 30
0.0
 11
21.54682299846122
 21
-5.773453821893977
 31
0.0
  0
ARC
  5
1701D
330
17002
100
AcDbEntity
  8
AM_0
 62
     3
370
    13
100
AcDbCircle
 10
0.0
 20
-0.0000000000000155
 30
0.0
 40
21.30691261381904
100
AcDbArc
 50
276.7265372774729
 51
338.2734627225273
  0
INSERT
  5
1701E
330
17002
100
AcDbEntity
  8
AM_0
 62
     3
370
    13
100
AcDbBlockReference
  2
_Open30
 10
-0.0000000000000036
 20
-21.30691261381906
 30
0.0
 41
2.5
 42
2.5
 43
2.5
 50
183.3632686387364
  0
INSERT
  5
1701F
330
17002
100
AcDbEntity
  8
AM_0
 62
     3
370
    13
100
AcDbBlockReference
  2
_Open30
 10
20.58089717217214
 20
-5.514634776791459
 30
0.0
 41
2.5
 42
2.5
 43
2.5
 50
71.63673136126371
  0
MTEXT
  5
17020
330
17002
100
AcDbEntity
  8
AM_0
 62
     2
100
AcDbMText
 10
12.35516425639964
 20
-12.96176822645495
 30
0.0
 40
3.8
 41
0.0
 71
     5
 72
     1
  1
75°
 11
0.7238415971523828
 21
0.6899661891947224
 31
0.0
 73
     1
 44
1.0
  0
POINT
  5
17021
330
17002
100
AcDbEntity
  8
Defpoints
 62
     0
100
AcDbPoint
 10
9.00469037191321
 20
-19.31062081961363
 30
0.0
  0
POINT
  5
17022
330
17002
100
AcDbEntity
  8
Defpoints
 62
     0
100
AcDbPoint
 10
0.0
 20
0.9264701734194603
 30
0.0
  0
POINT
  5
17023
330
17002
100
AcDbEntity
  8
Defpoints
 62
     0
100
AcDbPoint
 10
0.8942924589731832
 20
-0.2396249421791197
 30
0.0
  0
POINT
  5
17024
330
17002
100
AcDbEntity
  8
Defpoints
 62
     0
100
AcDbPoint
 10
13.86061372743799
 20
-3.713940254866714
 30
0.0
  0
POINT
  5
17025
330
17002
100
AcDbEntity
  8
Defpoints
 62
     0
100
AcDbPoint
 10
0.0
 20
0.0
 30
0.0
  0
ENDBLK
  5
1700F
330
17002
100
AcDbEntity
  8
0
100
AcDbBlockEnd
  0
ENDSEC
  0
SECTION
  2
ENTITIES
  0
DIMENSION
  5
13985
330
1F
100
AcDbEntity
  8
AM_5
370
    13
100
AcDbDimension
  2
*D4
 10
-17.604547985366
 20
0.000000000000005
 30
0.0
 11
-17.604547985366
 21
13.99646844969411
 31
0.0
 70
   160
  1
<>{
 71
     5
 42
26.99999999999998
  3
AM_JIS$0
100
AcDbAlignedDimension
 13
8.032675428778333
 23
26.99999999999997
 33
0.0
 14
0.0
 24
0.0
 34
0.0
 50
90.0
100
AcDbRotatedDimension
1001
ACAD
1000
DSTYLE
1002
{
1070
   271
1070
     0
1002
}
  0
DIMENSION
  5
139C8
330
1F
100
AcDbEntity
  8
AM_5
370
    13
100
AcDbDimension
  2
*D5
 10
170.0
 20
-34.42746171263676
 30
0.0
 11
85.00000000000001
 21
-31.02746171263676
 31
0.0
 70
    32
 71
     5
 42
170.0
  3
AM_JIS$0
100
AcDbAlignedDimension
 13
0.0
 23
0.0
 33
0.0
 14
170.0
 24
-5.000000000000028
 34
0.0
100
AcDbRotatedDimension
1001
ACAD
1000
DSTYLE
1002
{
1070
   179
1070
     0
1070
   271
1070
     0
1002
}
  0
DIMENSION
  5
13A3B
330
1F
100
AcDbEntity
  8
AM_5
370
    13
100
AcDbDimension
  2
*D6
 10
-19.2172452671995
 20
-110.2443114533432
 30
0.0
 11
-22.61761928294752
 21
-94.24431145334322
 31
0.0
 70
    32
 71
     5
 42
32.0
  3
AM_JIS$0
100
AcDbAlignedDimension
 13
0.0000000000000568
 23
-78.24431145334322
 33
0.0
 14
1.505146997044704
 24
-110.2443114533432
 34
0.0
 50
90.0
100
AcDbRotatedDimension
1001
ACAD
1000
DSTYLE
1002
{
1070
   179
1070
     0
1070
   271
1070
     0
1002
}
  0
DIMENSION
  5
13B18
330
1F
100
AcDbEntity
  8
AM_5
370
    13
100
AcDbDimension
  2
*D7
 10
187.9670459649508
 20
-5.000000000000033
 30
0.0
 11
187.9670459649508
 21
11.31655479522689
 31
0.0
 70
   160
 71
     5
 42
32.0
  3
AM_JIS$0
100
AcDbAlignedDimension
 13
170.0
 23
26.99999999999997
 33
0.0
 14
170.0
 24
-5.000000000000028
 34
0.0
 50
90.0
100
AcDbRotatedDimension
1001
ACAD
1000
DSTYLE
1002
{
1070
   179
1070
     0
1070
   271
1070
     0
1002
}
  0
DIMENSION
  5
13B3A
330
1F
100
AcDbEntity
  8
AM_5
370
    13
100
AcDbDimension
  2
*D8
 10
189.8503568793997
 20
-110.2443114533432
 30
0.0
 11
189.8503568793997
 21
-94.728275386516
 31
0.0
 70
   160
 71
     5
 42
32.0
  3
AM_JIS$0
100
AcDbAlignedDimension
 13
170.0
 23
-78.24431145334322
 33
0.0
 14
170.0
 24
-110.2443114533432
 34
0.0
 50
90.0
100
AcDbRotatedDimension
1001
ACAD
1000
DSTYLE
1002
{
1070
   179
1070
     0
1070
   271
1070
     0
1002
}
  0
LINE
  5
14DDC
330
1F
100
AcDbEntity
  8
AM_5
370
    13
100
AcDbLine
 10
0.0
 20
0.9264701734194603
 30
0.0
 11
0.0
 21
0.0
 31
0.0
  0
LINE
  5
14DE6
330
1F
100
AcDbEntity
  8
AM_5
370
    13
100
AcDbLine
 10
0.8942924589731831
 20
-0.2396249421791197
 30
0.0
 11
0.0
 21
0.0
 31
0.0
  0
DIMENSION
  5
14E3C
330
1F
100
AcDbEntity
  8
AM_5
370
    13
100
AcDbDimension
  2
*D9
 10
0.0000000000000018
 20
-49.64674819812208
 30
0.0
 11
18.00000000000001
 21
-46.24674819812208
 31
0.0
 70
    32
 71
     5
 42
36.00000000000003
  3
AM_JIS$0
100
AcDbAlignedDimension
 13
36.00000000000003
 23
-78.24431145334322
 33
0.0
 14
0.0
 24
-78.24431145334322
 34
0.0
100
AcDbRotatedDimension
1001
ACAD
1000
DSTYLE
1002
{
1070
   271
1070
     0
1002
}
  0
LINE
  5
16AAD
330
1F
100
AcDbEntity
  8
AM_0
370
    30
100
AcDbLine
 10
21.54984964583676
 20
11.23575764800791
 30
0.0
 11
23.44169419956475
 21
9.915594020041482
 31
0.0
  0
LINE
  5
16AAE
330
1F
100
AcDbEntity
  8
AM_0
370
    30
100
AcDbLine
 10
21.27290274519706
 20
11.03942577589092
 30
0.0
 11
21.54984964583676
 21
11.23575764800791
 31
0.0
  0
LINE
  5
16AAF
330
1F
100
AcDbEntity
  8
AM_0
370
    30
100
AcDbLine
 10
21.27290274519706
 20
11.03942577589092
 30
0.0
 11
21.45241611887118
 21
13.33297213677443
 31
0.0
  0
LINE
  5
16AB0
330
1F
100
AcDbEntity
  8
AM_0
370
    30
100
AcDbLine
 10
21.72398477204379
 20
13.46058901761515
 30
0.0
 11
21.54984964583676
 21
11.23575764800788
 31
0.0
  0
LINE
  5
16AB1
330
1F
100
AcDbEntity
  8
AM_0
370
    30
100
AcDbLine
 10
21.45241611887118
 20
13.33297213677443
 30
0.0
 11
23.52377404627319
 21
14.30635486969152
 31
0.0
  0
LINE
  5
16AB2
330
1F
100
AcDbEntity
  8
AM_0
370
    30
100
AcDbLine
 10
23.52377404627319
 20
14.30635486969152
 30
0.0
 11
25.41561860000118
 21
12.98619124172512
 31
0.0
  0
LINE
  5
16AB3
330
1F
100
AcDbEntity
  8
AM_0
370
    30
100
AcDbLine
 10
25.41561860000118
 20
12.9861912417251
 30
0.0
 11
25.23610522632711
 21
10.69264488084158
 31
0.0
  0
LINE
  5
16AB4
330
1F
100
AcDbEntity
  8
AM_0
370
    30
100
AcDbLine
 10
25.94065106778535
 20
8.6438222572435
 30
0.0
 11
26.35607141874485
 21
8.938320065418964
 31
0.0
  0
LINE
  5
16AB5
330
1F
100
AcDbEntity
  8
AM_0
370
    30
100
AcDbLine
 10
21.02481717805264
 20
15.5781266324895
 30
0.0
 11
21.44023752901219
 21
15.87262444066496
 31
0.0
  0
ELLIPSE
  5
16AB6
330
1F
100
AcDbEntity
  8
AM_0
370
    30
100
AcDbEllipse
 10
23.89815447387852
 20
12.40547225304195
 30
0.0
 11
-2.457916944866345
 21
3.467152187622993
 31
0.0
210
0.0
220
0.0
230
1.0
 40
0.9907374393020274
 41
3.141592653589796
 42
6.283185307179585
  0
ELLIPSE
  5
16AB7
330
1F
100
AcDbEntity
  8
AM_0
370
    30
100
AcDbEllipse
 10
23.34426067259918
 20
12.01280850880801
 30
0.0
 11
-1.735000196376243
 21
2.447401544204465
 31
0.0
210
0.0
220
0.0
230
1.0
 40
0.9907374393020274
 41
-0.0000000000000006
 42
6.283185307179585
  0
ELLIPSE
  5
16AB8
330
1F
100
AcDbEntity
  8
AM_0
370
    30
100
AcDbEllipse
 10
23.48273412291897
 20
12.11097444486651
 30
0.0
 11
-2.457916944866345
 21
3.467152187622993
 31
0.0
210
0.0
220
0.0
230
1.0
 40
0.9907374393020274
 41
0.0000000000000002
 42
6.283185307179586
  0
LINE
  5
16AB9
330
1F
100
AcDbEntity
  8
AM_0
370
    30
100
AcDbLine
 10
4.967532309598852
 20
15.55661269099292
 30
0.0
 11
5.103365404550061
 21
15.65290683895267
 31
0.0
  0
LINE
  5
16ABC
330
1F
100
AcDbEntity
  8
AM_0
370
    30
100
AcDbLine
 10
4.879931181617479
 20
15.03740304385678
 30
0.0
 11
4.840839301051261
 21
15.04787768168509
 31
0.0
  0
LINE
  5
16ABD
330
1F
100
AcDbEntity
  8
AM_0
370
    30
100
AcDbLine
 10
4.840839301051261
 20
15.04787768168509
 30
0.0
 11
4.970993585289108
 21
15.14014603431676
 31
0.0
  0
LINE
  5
16ABE
330
1F
100
AcDbEntity
  8
AM_0
370
    30
100
AcDbLine
 10
15.3136356027716
 20
-2.867750497941842
 30
0.0
 11
15.37113951486069
 21
-2.645001030591772
 31
0.0
  0
LINE
  5
16AC0
330
1F
100
AcDbEntity
  8
AM_0
370
    30
100
AcDbLine
 10
0.8942924589731831
 20
-0.2396249421791197
 30
0.0
 11
13.86061372743799
 21
-3.713940254866714
 31
0.0
  0
LINE
  5
16AC1
330
1F
100
AcDbEntity
  8
AM_0
370
    30
100
AcDbLine
 10
3.387817425717714
 20
14.20168792476022
 30
0.0
 11
0.0379138857490773
 21
1.225366799936893
 31
0.0
  0
LINE
  5
16AC2
330
1F
100
AcDbEntity
  8
AM_0
370
    30
100
AcDbLine
 10
3.848517571446024
 20
14.87124754984646
 30
0.0
 11
4.551962699070856
 21
15.36993050502358
 31
0.0
  0
LINE
  5
16AC3
330
1F
100
AcDbEntity
  8
AM_0
370
    30
100
AcDbLine
 10
14.85293545704317
 20
-3.53731012302805
 30
0.0
 11
15.55638058466801
 21
-3.038627167850933
 31
0.0
  0
ELLIPSE
  5
16AC4
330
1F
100
AcDbEntity
  8
AM_0
370
    30
100
AcDbEllipse
 10
4.54251764999654
 20
13.89228693216467
 30
0.0
 11
0.6940000785504954
 21
-0.9789606176817836
 31
0.0
210
0.0
220
0.0
230
1.0
 40
0.9907374393020274
 41
2.267685298997741
 42
3.838481625792633
  0
ELLIPSE
  5
16AC5
330
1F
100
AcDbEntity
  8
AM_0
370
    30
100
AcDbEllipse
 10
5.245962777621372
 20
14.39096988734178
 30
0.0
 11
0.6940000785504954
 21
-0.9789606176817836
 31
0.0
210
0.0
220
0.0
230
1.0
 40
0.9907374393020274
 41
2.656811652889187
 42
3.141592653589807
  0
ELLIPSE
  5
16AC6
330
1F
100
AcDbEntity
  8
AM_0
370
    30
100
AcDbEllipse
 10
14.15893537849271
 20
-2.558349505346286
 30
0.0
 11
0.6940000785504897
 21
-0.9789606176817756
 31
0.0
210
0.0
220
0.0
230
1.0
 40
0.9907374393020275
 41
5.409277952587514
 42
6.980074279382415
  0
ELLIPSE
  5
16AC7
330
1F
100
AcDbEntity
  8
AM_0
370
    30
100
AcDbEllipse
 10
14.86238050611749
 20
-2.059666550169169
 30
0.0
 11
0.6940000785504897
 21
-0.9789606176817756
 31
0.0
210
0.0
220
0.0
230
1.0
 40
0.9907374393020275
 41
-0.0000000000000105
 42
0.0955325100127219
  0
ELLIPSE
  5
16AC8
330
1F
100
AcDbEntity
  8
AM_0
370
    30
100
AcDbEllipse
 10
1.192614110027904
 20
0.9159658073413368
 30
0.0
 11
0.6940000785504897
 21
-0.9789606176817756
 31
0.0
210
0.0
220
0.0
230
1.0
 40
0.9907374393020275
 41
3.838481625792624
 42
5.409277952587519
  0
ELLIPSE
  5
16AC9
330
1F
100
AcDbEntity
  8
AM_0
370
    30
100
AcDbEllipse
 10
9.350726514244656
 20
5.666968713409176
 30
0.0
 11
-1.836208541164858
 21
2.59016663428306
 31
0.0
210
0.0
220
0.0
230
1.0
 40
0.9907374393020275
 41
5.747877940625546
 42
9.604886727226795
  0
LINE
  5
16ACB
330
1F
100
AcDbEntity
  8
AM_0
370
    30
100
AcDbLine
 10
2.246327951942163
 20
-110.2443114533432
 30
0.0
 11
23.22710261857182
 21
-110.2443114533432
 31
0.0
  0
LINE
  5
16ACE
330
1F
100
AcDbEntity
  8
AM_0
370
    30
100
AcDbLine
 10
170.0
 20
-78.24431145334322
 30
0.0
 11
170.0
 21
-110.2443114533432
 31
0.0
  0
LINE
  5
16ACF
330
1F
100
AcDbEntity
  8
AM_0
370
    30
100
AcDbLine
 10
23.22710261857182
 20
-110.2443114533432
 30
0.0
 11
170.0
 21
-110.2443114533432
 31
0.0
  0
LINE
  5
16AD0
330
1F
100
AcDbEntity
  8
AM_0
370
    30
100
AcDbLine
 10
23.22710261857182
 20
-110.2443114533432
 30
0.0
 11
23.22710261857182
 21
-75.90258196606385
 31
0.0
  0
LINE
  5
16AD1
330
1F
100
AcDbEntity
  8
AM_0
370
    30
100
AcDbLine
 10
36.00000000000003
 20
-78.24431145334322
 30
0.0
 11
170.0
 21
-78.24431145334322
 31
0.0
  0
LINE
  5
16AD3
330
1F
100
AcDbEntity
  8
AM_0
370
    30
100
AcDbLine
 10
36.00000000000003
 20
-78.24431145334322
 30
0.0
 11
35.01923618257555
 21
-74.58405105648976
 31
0.0
  0
LINE
  5
16AD4
330
1F
100
AcDbEntity
  8
AM_0
370
    30
100
AcDbLine
 10
34.78194278167055
 20
-73.69846002801154
 30
0.0
 11
34.87062233548582
 21
-74.02941662844262
 31
0.0
  0
LINE
  5
16AD5
330
1F
100
AcDbEntity
  8
AM_0
370
    30
100
AcDbLine
 10
34.78194278167067
 20
-73.6984600280118
 30
0.0
 11
34.69298714448601
 21
-73.36647307041915
 31
0.0
  0
LINE
  5
16AD6
330
1F
100
AcDbEntity
  8
AM_0
370
    30
100
AcDbLine
 10
2.246327951942163
 20
-110.2443114533432
 30
0.0
 11
2.246327951942163
 21
-89.15431783281002
 31
0.0
  0
LINE
  5
16AD7
330
1F
100
AcDbEntity
  8
AM_0
370
    30
100
AcDbLine
 10
4.879931181617423
 20
-76.5066953554155
 30
0.0
 11
4.876795694717686
 21
-76.38688680579713
 31
0.0
  0
LINE
  5
16AD8
330
1F
100
AcDbEntity
  8
AM_0
370
    30
100
AcDbLine
 10
16.31159771250347
 20
-87.86394437726875
 30
0.0
 11
15.73663665623056
 21
-87.91602143435088
 31
0.0
  0
LINE
  5
16AD9
330
1F
100
AcDbEntity
  8
AM_0
370
    30
100
AcDbLine
 10
15.36098155052972
 20
-76.61505532648744
 30
0.0
 11
16.31159771250347
 21
-87.86394437726875
 31
0.0
  0
LINE
  5
16ADA
330
1F
100
AcDbEntity
  8
AM_0
370
    30
100
AcDbLine
 10
4.876795694717742
 20
-76.3868868057971
 30
0.0
 11
7.700789817861931
 21
-76.13110373745516
 31
0.0
  0
LINE
  5
16ADB
330
1F
100
AcDbEntity
  8
AM_0
370
    30
100
AcDbLine
 10
14.96280372596718
 20
-75.47334734039546
 30
0.0
 11
15.22646821954842
 21
-75.44946594750292
 31
0.0
  0
LINE
  5
16ADC
330
1F
100
AcDbEntity
  8
AM_0
370
    30
100
AcDbLine
 10
4.876795694717742
 20
-76.38688680579713
 30
0.0
 11
8.032675428778333
 21
-75.06499561543757
 31
0.0
  0
LINE
  5
16ADD
330
1F
100
AcDbEntity
  8
AM_0
370
    30
100
AcDbLine
 10
8.032675428778333
 20
-75.06499561543754
 30
0.0
 11
8.685958595092615
 21
-74.99194911856617
 31
0.0
  0
LINE
  5
16ADE
330
1F
100
AcDbEntity
  8
AM_0
370
    30
100
AcDbLine
 10
33.6720425058908
 20
-72.74431145334322
 30
0.0
 11
34.52627944162887
 21
-72.74431145334322
 31
0.0
  0
LINE
  5
16ADF
330
1F
100
AcDbEntity
  8
AM_0
370
    30
100
AcDbLine
 10
34.69298714448601
 20
-73.36647307041915
 30
0.0
 11
34.52627944162887
 21
-72.74431145334322
 31
0.0
  0
LINE
  5
16AE4
330
1F
100
AcDbEntity
  8
AM_0
370
    30
100
AcDbLine
 10
34.87062233548582
 20
-74.02941662844259
 30
0.0
 11
27.47772913167775
 21
-73.61932661499502
 31
0.0
  0
LINE
  5
16AE5
330
1F
100
AcDbEntity
  8
AM_0
370
    30
100
AcDbLine
 10
35.01923618257555
 20
-74.58405105648976
 30
0.0
 11
34.87062233548582
 21
-74.02941662844259
 31
0.0
  0
LINE
  5
16AE6
330
1F
100
AcDbEntity
  8
AM_0
370
    30
100
AcDbLine
 10
35.01923618257555
 20
-74.58405105648978
 30
0.0
 11
23.22710261857182
 21
-75.90258196606388
 31
0.0
  0
LINE
  5
16AE7
330
1F
100
AcDbEntity
  8
AM_0
370
    30
100
AcDbLine
 10
23.22710261857182
 20
-75.90258196606385
 30
0.0
 11
15.36098155052972
 21
-76.61505532648744
 31
0.0
  0
LINE
  5
16AE8
330
1F
100
AcDbEntity
  8
AM_0
370
    30
100
AcDbLine
 10
17.98694740656666
 20
-75.51512712142426
 30
0.0
 11
15.36098155052972
 21
-76.61505532648744
 31
0.0
  0
LINE
  5
16AEA
330
1F
100
AcDbEntity
  8
AM_0
370
    30
100
AcDbLine
 10
1.505146997044704
 20
-89.19633893602884
 30
0.0
 11
1.505146997044704
 21
-110.2443114533432
 31
0.0
  0
LINE
  5
16AEB
330
1F
100
AcDbEntity
  8
AM_0
370
    30
100
AcDbLine
 10
2.246327951942163
 20
-110.2443114533432
 30
0.0
 11
1.505146997044704
 21
-110.2443114533432
 31
0.0
  0
ELLIPSE
  5
16AEC
330
1F
100
AcDbEntity
  8
AM_0
370
    30
100
AcDbEllipse
 10
24.29364564429037
 20
-74.40124079042371
 30
0.0
 11
4.223678803854411
 21
0.4722683155484623
 31
0.0
210
0.0
220
0.0
230
1.0
 40
0.0785327488467904
 41
2.563471602969745
 42
5.341263905879771
  0
ELLIPSE
  5
16AEE
330
1F
100
AcDbEntity
  8
AM_0
370
    30
100
AcDbEllipse
 10
16.85087403249011
 20
-75.44372393877012
 30
0.0
 11
2.732968637788148
 21
0.3055853806490055
 31
0.0
210
0.0
220
0.0
230
1.0
 40
0.0785327488467905
 41
5.132294084332338
 42
8.481659412796955
  0
LINE
  5
16AF2
330
1F
100
AcDbEntity
  8
AM_0
370
    30
100
AcDbLine
 10
15.14422261943568
 20
-75.24699668488483
 30
0.0
 11
14.40556194496273
 21
-76.16860040911817
 31
0.0
  0
LINE
  5
16AF3
330
1F
100
AcDbEntity
  8
AM_0
370
    30
100
AcDbLine
 10
9.9573869138666
 20
-76.66603879149324
 30
0.0
 11
14.40556194496273
 21
-76.16860040911817
 31
0.0
  0
ELLIPSE
  5
16AF6
330
1F
100
AcDbEntity
  8
AM_0
370
    30
100
AcDbEllipse
 10
9.455405348183803
 20
-72.18095741890764
 30
0.0
 11
0.5021634331210251
 21
-4.485061022225313
 31
0.0
210
0.0
220
0.0
230
0.9999999999999998
 40
0.5539447355273705
 41
5.984080688528324
 42
6.283112106191847
  0
SPLINE
  5
16AF7
330
1F
100
AcDbEntity
  8
AM_0
370
    30
100
AcDbSpline
210
0.0
220
0.0
230
1.0
 70
     8
 71
     3
 72
    10
 73
     6
 74
     0
 42
0.0000000001
 43
0.0000000001
 40
-2.157312736907659
 40
-2.157312736907659
 40
-2.157312736907659
 40
-2.157312736907659
 40
-1.827815814189497
 40
-1.827815814189497
 40
-1.778111397632678
 40
-1.778111397632678
 40
-1.778111397632678
 40
-1.778111397632678
 10
7.449087514455272
 20
-76.4221481230849
 30
0.0
 10
7.432200243547101
 20
-76.44221272955787
 30
0.0
 10
7.424940469578615
 20
-76.47586033038149
 30
0.0
 10
7.426374569621345
 20
-76.52462649423211
 30
0.0
 10
7.426743956684192
 20
-76.53131538129566
 30
0.0
 10
7.42729741485951
 20
-76.53830132235675
 30
0.0
  0
LINE
  5
16AF9
330
1F
100
AcDbEntity
  8
AM_0
370
    30
100
AcDbLine
 10
31.01595461144305
 20
-73.09190467473533
 30
0.0
 11
31.85854038002177
 21
-73.86233390513405
 31
0.0
  0
LINE
  5
16AFA
330
1F
100
AcDbEntity
  8
AM_0
370
    30
100
AcDbLine
 10
25.90741928895992
 20
-67.63478419944471
 30
0.0
 11
25.01049499622971
 21
-67.76848329619341
 31
0.0
  0
ELLIPSE
  5
16AFD
330
1F
100
AcDbEntity
  8
AM_0
370
    30
100
AcDbEllipse
 10
9.702705408907974
 20
-74.39265782370754
 30
0.0
 11
-2.192569734155423
 21
-2.343800469308605
 31
0.0
210
0.0
220
0.0
230
1.0
 40
0.2622393249479157
 41
6.048315220602023
 42
6.949987678413788
  0
ARC
  5
16B02
330
1F
100
AcDbEntity
  8
AM_0
370
    30
100
AcDbCircle
 10
8.826867449500782
 20
-77.49737713137603
 30
0.0
 40
1.020448589486723
100
AcDbArc
 50
68.35976984182526
 51
117.2320378942934
  0
LINE
  5
16B07
330
1F
100
AcDbEntity
  8
AM_0
370
    30
100
AcDbLine
 10
20.04721347675454
 20
-74.69869635411672
 30
0.0
 11
15.14422261943574
 21
-75.24699668488481
 31
0.0
  0
LINE
  5
16B08
330
1F
100
AcDbEntity
  8
AM_0
370
    30
100
AcDbLine
 10
21.59673705831293
 20
-74.49597064679134
 30
0.0
 11
31.01595461144305
 21
-73.09190467473533
 31
0.0
  0
ELLIPSE
  5
16B0E
330
1F
100
AcDbEntity
  8
AM_0
370
    30
100
AcDbEllipse
 10
20.95461286579271
 20
-74.46035147693641
 30
0.0
 11
-2.366482495890666
 21
-0.3180132836986083
 31
0.0
210
0.0
220
0.0
230
1.0
 40
0.0524704782475453
 41
1.170239670272522
 42
1.838524567644513
  0
LINE
  5
16B15
330
1F
100
AcDbEntity
  8
AM_0
370
    30
100
AcDbLine
 10
33.15988474929807
 20
-68.16388589962446
 30
0.0
 11
33.80915212511221
 21
-73.97053598173963
 31
0.0
  0
LINE
  5
16B16
330
1F
100
AcDbEntity
  8
AM_0
370
    30
100
AcDbLine
 10
7.428782819364272
 20
-76.55388974068046
 30
0.0
 11
7.496398368331512
 21
-77.15860183247585
 31
0.0
  0
LINE
  5
16B17
330
1F
100
AcDbEntity
  8
AM_0
370
    30
100
AcDbLine
 10
12.44142097336416
 20
-76.38824983856696
 30
0.0
 11
12.44866279337688
 21
-76.45301624503972
 31
0.0
  0
LINE
  5
16B18
330
1F
100
AcDbEntity
  8
AM_0
370
    30
100
AcDbLine
 10
7.449087514455272
 20
-76.4221481230849
 30
0.0
 11
11.55315426173129
 21
-71.67659923903463
 31
0.0
  0
ARC
  5
16B19
330
1F
100
AcDbEntity
  8
AM_0
370
    30
100
AcDbCircle
 10
18.84744559814683
 20
-77.46815525492079
 30
0.0
 40
9.313903971249308
100
AcDbArc
 50
104.7177485167472
 51
141.5509610613119
  0
LINE
  5
16B1A
330
1F
100
AcDbEntity
  8
AM_0
370
    30
100
AcDbLine
 10
19.28767551293075
 20
-67.87717420557604
 30
0.0
 11
16.48117785329188
 21
-68.45984885774971
 31
0.0
  0
LINE
  5
16B1B
330
1F
100
AcDbEntity
  8
AM_0
370
    30
100
AcDbLine
 10
31.7522531279981
 20
-66.83287128314731
 30
0.0
 11
27.63014905766354
 21
-66.60421469809546
 31
0.0
  0
ELLIPSE
  5
16B1D
330
1F
100
AcDbEntity
  8
AM_0
370
    30
100
AcDbEllipse
 10
23.08412241866907
 20
-67.66162578662869
 30
0.0
 11
4.472130498198787
 21
0.5000488046983719
 31
0.0
210
0.0
220
0.0
230
1.0
 40
0.0785327488467904
 41
2.575033219631869
 42
5.14891395917004
  0
ELLIPSE
  5
16B1E
330
1F
100
AcDbEntity
  8
AM_0
370
    30
100
AcDbEllipse
 10
23.98104671139927
 20
-67.52792668987999
 30
0.0
 11
4.472130498198787
 21
0.5000488046983719
 31
0.0
210
0.0
220
0.0
230
1.0
 40
0.0785327488467904
 41
5.148913959170042
 42
6.849744741137609
  0
ARC
  5
16B27
330
1F
100
AcDbEntity
  8
AM_0
370
    30
100
AcDbCircle
 10
31.66917458323181
 20
-68.33056883452392
 30
0.0
 40
1.5
100
AcDbArc
 50
6.379995481236998
 51
86.82500867726172
  0
LINE
  5
16B28
330
1F
100
AcDbEntity
  8
AM_0
370
    30
100
AcDbLine
 10
25.23610522632711
 20
-65.80363239891759
 30
0.0
 11
23.16474729892505
 21
-66.11239723691065
 31
0.0
  0
LINE
  5
16B29
330
1F
100
AcDbEntity
  8
AM_0
370
    30
100
AcDbLine
 10
23.16474729892505
 20
-66.11239723691065
 30
0.0
 11
21.27290274519706
 21
-66.21928742943396
 31
0.0
  0
LINE
  5
16B2A
330
1F
100
AcDbEntity
  8
AM_0
370
    30
100
AcDbLine
 10
21.27290274519706
 20
-66.21928742943396
 30
0.0
 11
21.45241611887118
 21
-66.01741278396423
 31
0.0
  0
LINE
  5
16B2C
330
1F
100
AcDbEntity
  8
AM_0
370
    30
100
AcDbLine
 10
21.45241611887118
 20
-66.01741278396423
 30
0.0
 11
23.52377404627319
 21
-65.70864794597117
 31
0.0
  0
LINE
  5
16B2E
330
1F
100
AcDbEntity
  8
AM_0
370
    30
100
AcDbLine
 10
23.52377404627319
 20
-65.70864794597117
 30
0.0
 11
25.41561860000118
 21
-65.60175775344783
 31
0.0
  0
LINE
  5
16B2F
330
1F
100
AcDbEntity
  8
AM_0
370
    30
100
AcDbLine
 10
25.41561860000118
 20
-65.60175775344783
 30
0.0
 11
25.23610522632711
 21
-65.80363239891756
 31
0.0
  0
LINE
  5
16B30
330
1F
100
AcDbEntity
  8
AM_0
370
    30
100
AcDbLine
 10
21.78551186167428
 20
-74.46783112498008
 30
0.0
 11
21.83912181701456
 21
-74.94728575827136
 31
0.0
  0
LINE
  5
16B31
330
1F
100
AcDbEntity
  8
AM_0
370
    30
100
AcDbLine
 10
26.73418884813808
 20
-73.73016168224791
 30
0.0
 11
26.80815570390209
 21
-74.3916759752731
 31
0.0
  0
LINE
  5
16B32
330
1F
100
AcDbEntity
  8
AM_0
370
    30
100
AcDbLine
 10
19.25905531906457
 20
-67.62121270611692
 30
0.0
 11
19.33182814358
 21
-68.27204831435648
 31
0.0
  0
LINE
  5
16B33
330
1F
100
AcDbEntity
  8
AM_0
370
    30
100
AcDbLine
 10
27.70641292677342
 20
-66.67667607501994
 30
0.0
 11
27.77549615939088
 21
-67.2945142312156
 31
0.0
  0
LINE
  5
16B34
330
1F
100
AcDbEntity
  8
AM_0
370
    30
100
AcDbLine
 10
20.37004321784892
 20
-66.22440791777257
 30
0.0
 11
19.26925939535622
 21
-67.5936152695383
 31
0.0
  0
LINE
  5
16B35
330
1F
100
AcDbEntity
  8
AM_0
370
    30
100
AcDbLine
 10
26.31435339182085
 20
-65.55974815472484
 30
0.0
 11
27.69036547514972
 21
-66.65201393855404
 31
0.0
  0
ELLIPSE
  5
16B36
330
1F
100
AcDbEntity
  8
AM_0
370
    30
100
AcDbEllipse
 10
23.34426067259918
 20
-65.9105225914409
 30
0.0
 11
2.981420332132525
 21
0.3333658697989145
 31
0.0
210
0.0
220
0.0
230
1.0
 40
0.0785327488467905
 41
2.183096959374582
 42
8.466282266554165
  0
ELLIPSE
  5
16B37
330
1F
100
AcDbEntity
  8
AM_0
370
    30
100
AcDbEllipse
 10
23.48273412291897
 20
-67.14894439056843
 30
0.0
 11
4.223678803854411
 21
0.4722683155484624
 31
0.0
210
0.0
220
0.0
230
1.0
 40
0.0785327488467904
 41
3.062734902964628
 42
6.362043057804814
  0
LINE
  5
16B39
330
1F
100
AcDbEntity
  8
AM_0
370
    30
100
AcDbLine
 10
2.200722708089558
 20
-89.15844852455246
 30
0.0
 11
15.04676270319206
 21
-87.99491935887122
 31
0.0
  0
LINE
  5
16B3B
330
1F
100
AcDbEntity
  8
AM_0
370
    30
100
AcDbLine
 10
0.783235204890417
 20
-84.48729053976058
 30
0.0
 11
1.306476226291267
 21
-89.16683803138372
 31
0.0
  0
ELLIPSE
  5
16B3C
330
1F
100
AcDbEntity
  8
AM_0
370
    30
100
AcDbEllipse
 10
15.34508435424672
 20
-87.86996251778291
 30
0.0
 11
1.192568132853006
 21
0.1333463479195751
 31
0.0
210
0.0
220
0.0
230
1.0
 40
0.0785327488467904
 41
4.450782258372294
 42
5.643048846623837
  0
ELLIPSE
  5
16B3D
330
1F
100
AcDbEntity
  8
AM_0
370
    30
100
AcDbEllipse
 10
2.499044359144278
 20
-89.03349168346415
 30
0.0
 11
1.192568132852996
 21
0.133346347919574
 31
0.0
210
0.0
220
0.0
230
1.0
 40
0.0785327488467904
 41
3.1415926535898
 42
4.450782258372273
  0
LINE
  5
16B3E
330
1F
100
AcDbEntity
  8
AM_0
370
    30
100
AcDbLine
 10
17.80716056951607
 20
-75.33581246621338
 30
0.0
 11
14.85901563177211
 21
-75.60284048582318
 31
0.0
  0
LINE
  5
16B3F
330
1F
100
AcDbEntity
  8
AM_0
370
    30
100
AcDbLine
 10
7.588104007722478
 20
-76.2614027928764
 30
0.0
 11
4.840839301051261
 21
-76.51023609973808
 31
0.0
  0
LINE
  5
16B40
330
1F
100
AcDbEntity
  8
AM_0
370
    30
100
AcDbLine
 10
15.3136356027716
 20
-76.75934361072515
 30
0.0
 11
15.37113951486074
 21
-76.73525716852603
 31
0.0
  0
LINE
  5
16B41
330
1F
100
AcDbEntity
  8
AM_0
370
    30
100
AcDbLine
 10
18.46347135218653
 20
-75.43998404093756
 30
0.0
 11
18.66353914274023
 21
-75.35618241600446
 31
0.0
  0
LINE
  5
16B42
330
1F
100
AcDbEntity
  8
AM_0
370
    30
100
AcDbLine
 10
18.66353914274023
 20
-75.35618241600449
 30
0.0
 11
18.66888228223334
 21
-75.40396818583025
 31
0.0
  0
LINE
  5
16B43
330
1F
100
AcDbEntity
  8
AM_0
370
    30
100
AcDbLine
 10
15.3136356027716
 20
-76.75934361072515
 30
0.0
 11
15.55743360779516
 21
-78.93972377246459
 31
0.0
  0
LINE
  5
16B44
330
1F
100
AcDbEntity
  8
AM_0
370
    30
100
AcDbLine
 10
0.8942924589731831
 20
-78.16331097663533
 30
0.0
 11
13.86061372743799
 21
-76.98888734311063
 31
0.0
  0
LINE
  5
16B46
330
1F
100
AcDbEntity
  8
AM_0
370
    30
100
AcDbLine
 10
1.597737586598015
 20
-84.45449371620322
 30
0.0
 11
14.56405885506277
 21
-83.28007008267852
 31
0.0
  0
LINE
  5
16B48
330
1F
100
AcDbEntity
  8
AM_0
370
    30
100
AcDbLine
 10
3.387817425717714
 20
-76.73977983212356
 30
0.0
 11
0.0379138857490773
 21
-78.14294102684423
 31
0.0
  0
LINE
  5
16B49
330
1F
100
AcDbEntity
  8
AM_0
370
    30
100
AcDbLine
 10
18.70140705131442
 20
-75.32742295938209
 30
0.0
 11
18.70914043996302
 21
-75.39658565491328
 31
0.0
  0
LINE
  5
16B4A
330
1F
100
AcDbEntity
  8
AM_0
370
    30
100
AcDbLine
 10
0.0000459771748922
 20
-78.17170048346659
 30
0.0
 11
0.7034911047997241
 21
-84.46288322303448
 31
0.0
  0
ELLIPSE
  5
16B4B
330
1F
100
AcDbEntity
  8
AM_0
370
    30
100
AcDbEllipse
 10
4.54251764999654
 20
-76.63519294082636
 30
0.0
 11
1.192568132853006
 21
0.1333463479195751
 31
0.0
210
0.0
220
0.0
230
1.0
 40
0.0785327488467904
 41
1.309189604782494
 42
2.879985931577386
  0
ELLIPSE
  5
16B4C
330
1F
100
AcDbEntity
  8
AM_0
370
    30
100
AcDbEllipse
 10
17.50883891846135
 20
-75.46076930730166
 30
0.0
 11
1.192568132853034
 21
0.1333463479195782
 31
0.0
210
0.0
220
0.0
230
1.0
 40
0.0785327488467903
 41
6.021578585167194
 42
7.592374911962092
  0
ELLIPSE
  5
16B4D
330
1F
100
AcDbEntity
  8
AM_0
370
    30
100
AcDbEllipse
 10
14.15893537849271
 20
-76.86393050202236
 30
0.0
 11
1.192568132852996
 21
0.133346347919574
 31
0.0
210
0.0
220
0.0
230
1.0
 40
0.0785327488467904
 41
4.450782258372272
 42
6.021578585167173
  0
ELLIPSE
  5
16B4E
330
1F
100
AcDbEntity
  8
AM_0
370
    30
100
AcDbEllipse
 10
14.86238050611749
 20
-83.15511324159022
 30
0.0
 11
1.192568132852996
 21
0.133346347919574
 31
0.0
210
0.0
220
0.0
230
1.0
 40
0.0785327488467904
 41
4.450782258372272
 42
5.772152611042638
  0
ELLIPSE
  5
16B4F
330
1F
100
AcDbEntity
  8
AM_0
370
    30
100
AcDbEllipse
 10
1.192614110027904
 20
-78.03835413554702
 30
0.0
 11
1.192568132852996
 21
0.133346347919574
 31
0.0
210
0.0
220
0.0
230
1.0
 40
0.0785327488467904
 41
2.87998593157738
 42
4.450782258372275
  0
ELLIPSE
  5
16B50
330
1F
100
AcDbEntity
  8
AM_0
370
    30
100
AcDbEllipse
 10
1.896059237652736
 20
-84.32953687511491
 30
0.0
 11
1.192568132852996
 21
0.133346347919574
 31
0.0
210
0.0
220
0.0
230
1.0
 40
0.0785327488467904
 41
3.1415926535898
 42
4.450782258372276
  0
ELLIPSE
  5
16B51
330
1F
100
AcDbEntity
  8
AM_0
370
    30
100
AcDbEllipse
 10
9.350726514244656
 20
-76.74956172142436
 30
0.0
 11
3.15533651817359
 21
0.3528122122038513
 31
0.0
210
0.0
220
0.0
230
0.9999999999999999
 40
0.0785327488467903
 41
2.207737626075677
 42
6.345915752668573
  0
LINE
  5
16B52
330
1F
100
AcDbEntity
  8
AM_0
370
    30
100
AcDbLine
 10
-91.44318022922002
 20
0.6217816285030438
 30
0.0
 11
-91.44318022922002
 21
-4.999999999999972
 31
0.0
  0
LINE
  5
16B56
330
1F
100
AcDbEntity
  8
AM_0
370
    30
100
AcDbLine
 10
-91.44318022922002
 20
-5.000000000000028
 30
0.0
 11
-57.10145074194062
 21
-5.000000000000028
 31
0.0
  0
LINE
  5
16B59
330
1F
100
AcDbEntity
  8
AM_0
370
    30
100
AcDbLine
 10
-91.44318022922002
 20
26.99999999999997
 30
0.0
 11
-91.44318022922002
 21
1.837667709234523
 31
0.0
  0
LINE
  5
16B5A
330
1F
100
AcDbEntity
  8
AM_0
370
    30
100
AcDbLine
 10
-91.44318022922002
 20
26.99999999999997
 30
0.0
 11
-56.26386439131429
 21
26.99999999999997
 31
0.0
  0
LINE
  5
16B5B
330
1F
100
AcDbEntity
  8
AM_0
370
    30
100
AcDbLine
 10
-91.44318022922002
 20
0.8717816285030153
 30
0.0
 11
-70.38702812135013
 21
0.8717816285030153
 31
0.0
  0
LINE
  5
16B5C
330
1F
100
AcDbEntity
  8
AM_0
370
    30
100
AcDbLine
 10
-91.44318022922002
 20
2.087667709234523
 30
0.0
 11
-70.36530390941087
 21
2.087667709234523
 31
0.0
  0
LINE
  5
16B5D
330
1F
100
AcDbEntity
  8
AM_0
370
    30
100
AcDbLine
 10
-68.79783901679716
 20
16.16189689811819
 30
0.0
 11
-59.89750281446689
 21
15.25961369077902
 31
0.0
  0
LINE
  5
16B5E
330
1F
100
AcDbEntity
  8
AM_0
370
    30
100
AcDbLine
 10
-57.70556413129228
 20
15.03740304385676
 30
0.0
 11
-57.58575558167391
 21
15.02525729565591
 31
0.0
  0
LINE
  5
16B5F
330
1F
100
AcDbEntity
  8
AM_0
370
    30
100
AcDbLine
 10
-69.06281315314553
 20
-2.896996045165423
 30
0.0
 11
-69.09171365704751
 21
-2.811499244535071
 31
0.0
  0
LINE
  5
16B60
330
1F
100
AcDbEntity
  8
AM_0
370
    30
100
AcDbLine
 10
-68.86011043469384
 20
15.58601586708161
 30
0.0
 11
-68.79783901679716
 21
16.16189689811816
 31
0.0
  0
LINE
  5
16B61
330
1F
100
AcDbEntity
  8
AM_0
370
    30
100
AcDbLine
 10
-68.70295824211743
 20
15.88120965806328
 30
0.0
 11
-68.7978390167971
 21
16.16189689811816
 31
0.0
  0
LINE
  5
16B62
330
1F
100
AcDbEntity
  8
AM_0
370
    30
100
AcDbLine
 10
-57.81392410236421
 20
-2.642279212252589
 30
0.0
 11
-57.93412594440278
 21
-2.645001030591828
 31
0.0
  0
LINE
  5
16B63
330
1F
100
AcDbEntity
  8
AM_0
370
    30
100
AcDbLine
 10
-68.24635375798786
 20
-2.878508357145933
 30
0.0
 11
-69.06281315314553
 21
-2.896996045165395
 31
0.0
  0
LINE
  5
16B64
330
1F
100
AcDbEntity
  8
AM_0
370
    30
100
AcDbLine
 10
-69.06281315314553
 20
-2.896996045165423
 30
0.0
 11
-69.05389235480172
 21
-2.81449722433527
 31
0.0
  0
LINE
  5
16B65
330
1F
100
AcDbEntity
  8
AM_0
370
    30
100
AcDbLine
 10
-57.58575558167385
 20
15.02525729565591
 30
0.0
 11
-56.64833472337969
 21
12.25207090070103
 31
0.0
  0
LINE
  5
16B66
330
1F
100
AcDbEntity
  8
AM_0
370
    30
100
AcDbLine
 10
-57.58575558167391
 20
15.02525729565596
 30
0.0
 11
-56.29089749995167
 21
27.0
 31
0.0
  0
LINE
  5
16B67
330
1F
100
AcDbEntity
  8
AM_0
370
    30
100
AcDbLine
 10
-56.26386439131429
 20
26.99999999999997
 30
0.0
 11
-53.94318022922002
 21
26.99999999999997
 31
0.0
  0
LINE
  5
16B68
330
1F
100
AcDbEntity
  8
AM_0
370
    30
100
AcDbLine
 10
-53.94318022922002
 20
26.99999999999997
 30
0.0
 11
-53.94318022922003
 21
21.39430871706239
 31
0.0
  0
LINE
  5
16B6B
330
1F
100
AcDbEntity
  8
AM_0
370
    30
100
AcDbLine
 10
-55.22828540431939
 20
2.20667949410219
 30
0.0
 11
-55.17731595348816
 21
4.145826458488727
 31
0.0
  0
LINE
  5
16B6C
330
1F
100
AcDbEntity
  8
AM_0
370
    30
100
AcDbLine
 10
-55.78291983236656
 20
-5.000000000000028
 30
0.0
 11
-55.22828540431939
 21
2.206679494102218
 31
0.0
  0
LINE
  5
16B6D
330
1F
100
AcDbEntity
  8
AM_0
370
    30
100
AcDbLine
 10
-55.78291983236656
 20
-5.000000000000028
 30
0.0
 11
-57.10145074194062
 21
-5.000000000000028
 31
0.0
  0
LINE
  5
16B6E
330
1F
100
AcDbEntity
  8
AM_0
370
    30
100
AcDbLine
 10
-57.01694318233345
 20
-5.000000000000028
 30
0.0
 11
-57.81392410236421
 21
-2.642279212252589
 31
0.0
  0
LINE
  5
16B6F
330
1F
100
AcDbEntity
  8
AM_0
370
    30
100
AcDbLine
 10
-57.14530952344441
 20
3.541014280644333
 30
0.0
 11
-57.81392410236421
 21
-2.642279212252561
 31
0.0
  0
LINE
  5
16B70
330
1F
100
AcDbEntity
  8
AM_0
370
    30
100
AcDbLine
 10
-56.76722321609597
 20
12.26149483056264
 30
0.0
 11
-56.64833472337986
 21
12.25207090070103
 31
0.0
  0
LINE
  5
16B71
330
1F
100
AcDbEntity
  8
AM_0
370
    30
100
AcDbLine
 10
-91.44318022922002
 20
0.6217816285030153
 30
0.0
 11
-91.44318022922002
 21
1.837667709234523
 31
0.0
  0
ELLIPSE
  5
16B73
330
1F
100
AcDbEntity
  8
AM_0
370
    30
100
AcDbEllipse
 10
-55.60010956630046
 20
12.68584196186833
 30
0.0
 11
0.3358311927981925
 21
4.236710682822673
 31
0.0
210
0.0
220
0.0
230
1.0
 40
0.1107787602558729
 41
5.988205287152646
 42
8.024018566505824
  0
ELLIPSE
  5
16B74
330
1F
100
AcDbEntity
  8
AM_0
370
    30
100
AcDbEllipse
 10
-56.6425927146469
 20
10.03311331115208
 30
0.0
 11
0.2173025365164778
 21
2.741401030061728
 31
0.0
210
0.0
220
0.0
230
1.0
 40
0.1107787602558731
 41
5.173080887251364
 42
6.919643956307259
  0
LINE
  5
16B77
330
1F
100
AcDbEntity
  8
AM_0
370
    30
100
AcDbLine
 10
-56.44586546076161
 20
3.842912569985884
 30
0.0
 11
-57.36746918499497
 21
3.445124379848636
 31
0.0
  0
LINE
  5
16B78
330
1F
100
AcDbEntity
  8
AM_0
370
    30
100
AcDbLine
 10
-57.86490756737001
 20
3.444264689848609
 30
0.0
 11
-57.36746918499497
 21
3.445124379848608
 31
0.0
  0
ELLIPSE
  5
16B79
330
1F
100
AcDbEntity
  8
AM_0
370
    30
100
AcDbEllipse
 10
-53.37982619478439
 20
5.59648670186337
 30
0.0
 11
-4.49338255133542
 21
-2.149515270927044
 31
0.0
210
0.0
220
0.0
230
1.0
 40
0.0240146468742179
 41
6.034535508540487
 42
6.333566926204011
  0
ARC
  5
16B7A
330
1F
100
AcDbEntity
  8
AM_0
370
    30
100
AcDbCircle
 10
-58.86027469329244
 20
6.519048261703745
 30
0.0
 40
1.256451181770411
100
AcDbArc
 50
333.363710452048
 51
17.14713733865386
  0
LINE
  5
16B7B
330
1F
100
AcDbEntity
  8
AM_0
370
    30
100
AcDbLine
 10
-48.95911958860094
 20
7.896099847107791
 30
0.0
 11
-48.96735207207016
 21
7.870146900813552
 31
0.0
  0
LINE
  5
16B7C
330
1F
100
AcDbEntity
  8
AM_0
370
    30
100
AcDbLine
 10
-48.75363705294078
 20
16.00099437572584
 30
0.0
 11
-48.61993795619205
 21
16.42248146288151
 31
0.0
  0
ELLIPSE
  5
16B7F
330
1F
100
AcDbEntity
  8
AM_0
370
    30
100
AcDbEllipse
 10
-55.59152659958428
 20
5.771801478033382
 30
0.0
 11
2.002050509799097
 21
2.031881368396899
 31
0.0
210
0.0
220
0.0
230
1.0
 40
0.663185394158567
 41
2.073734198963686
 42
2.975406656775451
  0
SPLINE
  5
16B84
330
1F
100
AcDbEntity
  8
AM_0
370
    30
100
AcDbSpline
210
0.0
220
0.0
230
1.0
 70
     8
 71
     3
 72
    14
 73
    10
 74
     0
 42
0.0000000001
 43
0.0000000001
 40
1.778111397635681
 40
1.778111397635681
 40
1.778111397635681
 40
1.778111397635681
 40
1.827815814189506
 40
1.827815814189506
 40
2.260672009070338
 40
2.260672009070338
 40
2.69352820395117
 40
2.69352820395117
 40
2.731310280445213
 40
2.731310280445213
 40
2.731310280445213
 40
2.731310280445213
 10
-57.78890318603081
 20
3.987549624967755
 30
0.0
 10
-57.78259309756103
 20
3.977142766850278
 30
0.0
 10
-57.77657623099415
 20
3.966887416364102
 30
0.0
 10
-57.72099166181127
 20
3.86897753565728
 30
0.0
 10
-57.68665202603992
 20
3.781728425034714
 30
0.0
 10
-57.66950131810594
 20
3.639471660079579
 30
0.0
 10
-57.68590396371619
 20
3.584370400010556
 30
0.0
 10
-57.73828020860699
 20
3.545612771276126
 30
0.0
 10
-57.74282378502934
 20
3.542572679546169
 30
0.0
 10
-57.74772080124839
 20
3.539633945396275
 30
0.0
  0
LINE
  5
16B89
330
1F
100
AcDbEntity
  8
AM_0
370
    30
100
AcDbLine
 10
-54.74600290834289
 20
20.8024455354221
 30
0.0
 11
-53.98207397853625
 21
20.38648129900986
 31
0.0
  0
LINE
  5
16B8B
330
1F
100
AcDbEntity
  8
AM_0
370
    30
100
AcDbLine
 10
-55.89756512999347
 20
3.843860161342036
 30
0.0
 11
-56.44586546076161
 21
3.842912569985884
 31
0.0
  0
LINE
  5
16B8C
330
1F
100
AcDbEntity
  8
AM_0
370
    30
100
AcDbLine
 10
-53.98207397853625
 20
20.38648129900986
 30
0.0
 11
-55.38613995059225
 21
15.96015613206691
 31
0.0
  0
ELLIPSE
  5
16B8F
330
1F
100
AcDbEntity
  8
AM_0
370
    30
100
AcDbEllipse
 10
-53.3798261947845
 20
5.59648670186337
 30
0.0
 11
-4.309833773155557
 21
2.150168506589766
 31
0.0
210
0.0
220
0.0
230
1.0
 40
0.3877820167388267
 41
0.1163090237321154
 42
0.4153404413956674
  0
LINE
  5
16B90
330
1F
100
AcDbEntity
  8
AM_0
370
    30
100
AcDbLine
 10
-57.17002653324082
 20
10.95688510211551
 30
0.0
 11
-57.75730113067905
 21
7.538181568582132
 31
0.0
  0
LINE
  5
16B91
330
1F
100
AcDbEntity
  8
AM_0
370
    30
100
AcDbLine
 10
-57.17002653324082
 20
10.95688510211551
 30
0.0
 11
-56.25151214838795
 21
11.23713851438313
 31
0.0
  0
LINE
  5
16B92
330
1F
100
AcDbEntity
  8
AM_0
370
    30
100
AcDbLine
 10
-56.25151214838795
 20
11.23713851438313
 30
0.0
 11
-55.60419005295645
 21
15.00539674424587
 31
0.0
  0
ELLIPSE
  5
16B97
330
1F
100
AcDbEntity
  8
AM_0
370
    30
100
AcDbEllipse
 10
-55.42175912044715
 20
14.6050148862482
 30
0.0
 11
-0.2431348237164504
 21
-1.72654998886271
 31
0.0
210
0.0
220
0.0
230
0.9999999999999999
 40
0.1388077566167946
 41
3.82966674983911
 42
4.497951647211102
  0
ELLIPSE
  5
16BA0
330
1F
100
AcDbEntity
  8
AM_0
370
    30
100
AcDbEllipse
 10
-55.65922025281319
 20
5.570739914123408
 30
0.0
 11
-0.2431348237164519
 21
-1.726549988862713
 31
0.0
210
0.0
220
0.0
230
1.0
 40
0.1388077566167947
 41
0.0197891988773289
 42
0.0831545368604069
  0
ELLIPSE
  5
16BA2
330
1F
100
AcDbEntity
  8
AM_0
370
    30
100
AcDbEllipse
 10
-50.37897694641296
 20
7.808464778409814
 30
0.0
 11
0.7189360087405633
 21
-1.320387581279941
 31
0.0
210
0.0
220
0.0
230
1.0
 40
0.7224741980298114
 41
6.212452238420478
 42
6.275817576391946
  0
LINE
  5
16BA5
330
1F
100
AcDbEntity
  8
AM_0
370
    30
100
AcDbLine
 10
-57.6025472660705
 20
8.43905074643024
 30
0.0
 11
-57.89510906651285
 21
8.462241232107743
 31
0.0
  0
LINE
  5
16BA6
330
1F
100
AcDbEntity
  8
AM_0
370
    30
100
AcDbLine
 10
-57.86722018549861
 20
3.444347033579874
 30
0.0
 11
-58.37482397713015
 21
3.484583245012402
 31
0.0
  0
LINE
  5
16BA7
330
1F
100
AcDbEntity
  8
AM_0
370
    30
100
AcDbLine
 10
-49.17344782175294
 20
21.01622651045287
 30
0.0
 11
-54.71123902670624
 21
21.45519040604458
 31
0.0
  0
LINE
  5
16BA8
330
1F
100
AcDbEntity
  8
AM_0
370
    30
100
AcDbLine
 10
-49.00750863440695
 20
7.171063126688324
 30
0.0
 11
-48.78197528798077
 21
7.882058156223394
 31
0.0
  0
LINE
  5
16BA9
330
1F
100
AcDbEntity
  8
AM_0
370
    30
100
AcDbLine
 10
-47.87827293364566
 20
16.21803420015084
 30
0.0
 11
-47.7924943647395
 21
19.48150376458986
 31
0.0
  0
LINE
  5
16BAA
330
1F
100
AcDbEntity
  8
AM_0
370
    30
100
AcDbLine
 10
-49.72925794037431
 20
6.454669852739613
 30
0.0
 11
-55.88160922609197
 21
3.847352604841717
 31
0.0
  0
ARC
  5
16BAC
330
1F
100
AcDbEntity
  8
AM_0
370
    30
100
AcDbCircle
 10
-50.0820936388013
 20
7.544961835194215
 30
0.0
 40
1.137775538448414
100
AcDbArc
 50
293.0085652321903
 51
340.8148082841053
  0
ELLIPSE
  5
16BAE
330
1F
100
AcDbEntity
  8
AM_0
370
    30
100
AcDbEllipse
 10
-48.86049456250547
 20
11.9355706382697
 30
0.0
 11
0.355585968845145
 21
4.485928958282829
 31
0.0
210
0.0
220
0.0
230
1.0
 40
0.1107787602558729
 41
0.4453058490905512
 42
3.586898502680342
  0
ELLIPSE
  5
16BAF
330
1F
100
AcDbEntity
  8
AM_0
370
    30
100
AcDbEllipse
 10
-48.72679546575679
 20
12.35705772542536
 30
0.0
 11
0.355585968845145
 21
4.485928958282829
 31
0.0
210
0.0
220
0.0
230
1.0
 40
0.1107787602558729
 41
5.824386503279126
 42
6.728491156270137
  0
ELLIPSE
  5
16BB8
330
1F
100
AcDbEntity
  8
AM_0
370
    30
100
AcDbEllipse
 10
-50.09488592009089
 20
7.38690324862273
 30
0.0
 11
0.4575131630424397
 21
-0.8892028484226204
 31
0.0
210
0.0
220
0.0
230
1.0
 40
0.5640606871921836
 41
6.225427535372528
 42
6.283185307179771
  0
ARC
  5
16BBA
330
1F
100
AcDbEntity
  8
AM_0
370
    30
100
AcDbCircle
 10
-49.29197647803468
 20
19.5209168576919
 30
0.0
 40
1.5
100
AcDbArc
 50
358.4943574561963
 51
85.46781394891741
  0
LINE
  5
16BBB
330
1F
100
AcDbEntity
  8
AM_0
370
    30
100
AcDbLine
 10
-47.00250117479433
 20
10.69264488084161
 30
0.0
 11
-47.3112660127874
 21
9.719262147924525
 31
0.0
  0
LINE
  5
16BBC
330
1F
100
AcDbEntity
  8
AM_0
370
    30
100
AcDbLine
 10
-47.3112660127874
 20
9.719262147924525
 30
0.0
 11
-47.41815620531074
 21
11.03942577589092
 31
0.0
  0
LINE
  5
16BBD
330
1F
100
AcDbEntity
  8
AM_0
370
    30
100
AcDbLine
 10
-47.41815620531074
 20
11.03942577589092
 30
0.0
 11
-47.21628155984101
 21
13.33297213677443
 31
0.0
  0
LINE
  5
16BBE
330
1F
100
AcDbEntity
  8
AM_0
370
    30
100
AcDbLine
 10
-47.21628155984101
 20
13.33297213677443
 30
0.0
 11
-46.90751672184794
 21
14.30635486969152
 31
0.0
  0
LINE
  5
16BBF
330
1F
100
AcDbEntity
  8
AM_0
370
    30
100
AcDbLine
 10
-46.90751672184794
 20
14.30635486969152
 30
0.0
 11
-46.8006265293246
 21
12.98619124172512
 31
0.0
  0
LINE
  5
16BC1
330
1F
100
AcDbEntity
  8
AM_0
370
    30
100
AcDbLine
 10
-46.8006265293246
 20
12.9861912417251
 30
0.0
 11
-47.00250117479433
 21
10.69264488084158
 31
0.0
  0
LINE
  5
16BC4
330
1F
100
AcDbEntity
  8
AM_0
370
    30
100
AcDbLine
 10
-48.01198197364701
 20
16.34768512768918
 30
0.0
 11
-48.62817043966126
 21
16.39652851658732
 31
0.0
  0
LINE
  5
16BC5
330
1F
100
AcDbEntity
  8
AM_0
370
    30
100
AcDbLine
 10
-48.6836443592434
 20
7.874263762043825
 30
0.0
 11
-49.39939069198883
 21
7.930998800771249
 31
0.0
  0
LINE
  5
16BC6
330
1F
100
AcDbEntity
  8
AM_0
370
    30
100
AcDbLine
 10
-46.83688333545919
 20
14.98186424574831
 30
0.0
 11
-47.96176012131232
 21
16.31713673886526
 31
0.0
  0
LINE
  5
16BC7
330
1F
100
AcDbEntity
  8
AM_0
370
    30
100
AcDbLine
 10
-47.30804345881401
 20
9.037898435708371
 30
0.0
 11
-48.62923696273165
 21
7.896518507975344
 31
0.0
  0
ELLIPSE
  5
16BC8
330
1F
100
AcDbEntity
  8
AM_0
370
    30
100
AcDbEllipse
 10
-47.10939136731767
 20
12.01280850880801
 30
0.0
 11
0.23705731256343
 21
2.990619305521886
 31
0.0
210
0.0
220
0.0
230
0.9999999999999998
 40
0.1107787602558729
 41
0.6210815028848834
 42
6.90426681006447
  0
ELLIPSE
  5
16BC9
330
1F
100
AcDbEntity
  8
AM_0
370
    30
100
AcDbEllipse
 10
-48.34781316644521
 20
12.11097444486651
 30
0.0
 11
0.3358311927981926
 21
4.236710682822672
 31
0.0
210
0.0
220
0.0
230
1.0
 40
0.110778760255873
 41
6.171488377092839
 42
9.536474890856132
  0
LINE
  5
16BCB
330
1F
100
AcDbEntity
  8
AM_0
370
    30
100
AcDbLine
 10
-70.35731730042923
 20
0.676946280681932
 30
0.0
 11
-69.19378813474802
 21
-2.765139761943686
 31
0.0
  0
LINE
  5
16BCF
330
1F
100
AcDbEntity
  8
AM_0
370
    30
100
AcDbLine
 10
-68.94680249353078
 20
14.99788511121287
 30
0.0
 11
-70.3369473506381
 21
2.141938022797916
 31
0.0
  0
LINE
  5
16BD0
330
1F
100
AcDbEntity
  8
AM_0
370
    30
100
AcDbLine
 10
-64.08289298808202
 20
15.51499111230353
 30
0.0
 11
-68.74739267720824
 21
15.88473184082605
 31
0.0
  0
LINE
  5
16BD1
330
1F
100
AcDbEntity
  8
AM_0
370
    30
100
AcDbLine
 10
-64.49217844269836
 20
-3.176090436379923
 30
0.0
 11
-69.16365421868508
 21
-2.805796734631969
 31
0.0
  0
ELLIPSE
  5
16BD2
330
1F
100
AcDbEntity
  8
AM_0
370
    30
100
AcDbEllipse
 10
-68.84221560223361
 20
14.68848411861731
 30
0.0
 11
0.09482292502535664
 21
1.196247722208735
 31
0.0
210
0.0
220
0.0
230
1.0
 40
0.1107787602558729
 41
-0.0000000000055671
 42
1.317970475082165
  0
ELLIPSE
  5
16BD3
330
1F
100
AcDbEntity
  8
AM_0
370
    30
100
AcDbEllipse
 10
-69.06883129365971
 20
-1.60954901242323
 30
0.0
 11
0.09482292502535801
 21
1.196247722208752
 31
0.0
210
0.0
220
0.0
230
1.0
 40
0.1107787602558729
 41
2.888766801877068
 42
3.141592653584236
  0
ELLIPSE
  5
16BD4
330
1F
100
AcDbEntity
  8
AM_0
370
    30
100
AcDbEllipse
 10
-70.23236045934092
 20
1.83253703020236
 30
0.0
 11
0.09482292502535723
 21
1.196247722208743
 31
0.0
210
0.0
220
0.0
230
1.0
 40
0.1107787602558728
 41
1.31797047508214
 42
2.888766801877042
  0
LINE
  5
16BD5
330
1F
100
AcDbEntity
  8
AM_0
370
    30
100
AcDbLine
 10
-56.53468124209016
 20
11.5735623689975
 30
0.0
 11
-57.70910487561488
 21
15.04787768168509
 31
0.0
  0
LINE
  5
16BD6
330
1F
100
AcDbEntity
  8
AM_0
370
    30
100
AcDbLine
 10
-57.95821238660196
 20
-2.867750497941842
 30
0.0
 11
-57.27108745398854
 21
3.486725247261802
 31
0.0
  0
LINE
  5
16BD7
330
1F
100
AcDbEntity
  8
AM_0
370
    30
100
AcDbLine
 10
-59.36217975251211
 20
-0.2396249421791197
 30
0.0
 11
-58.18775611898738
 21
-3.713940254866714
 31
0.0
  0
LINE
  5
16BD9
330
1F
100
AcDbEntity
  8
AM_0
370
    30
100
AcDbLine
 10
-65.65336249207999
 20
0.2590580129980253
 30
0.0
 11
-64.47893885855532
 21
-3.215257299689569
 31
0.0
  0
LINE
  5
16BDC
330
1F
100
AcDbEntity
  8
AM_0
370
    30
100
AcDbLine
 10
-57.93864860800031
 20
14.20168792476022
 30
0.0
 11
-59.34180980272103
 21
1.225366799936893
 31
0.0
  0
LINE
  5
16BDE
330
1F
100
AcDbEntity
  8
AM_0
370
    30
100
AcDbLine
 10
-64.22983134756819
 20
14.70037087993734
 30
0.0
 11
-65.63299254228886
 21
1.72404975511401
 31
0.0
  0
LINE
  5
16BDF
330
1F
100
AcDbEntity
  8
AM_0
370
    30
100
AcDbLine
 10
-57.73923879167776
 20
15.08853465437343
 30
0.0
 11
-64.03042153124565
 21
15.58721760955055
 31
0.0
  0
LINE
  5
16BE0
330
1F
100
AcDbEntity
  8
AM_0
370
    30
100
AcDbLine
 10
-58.1576222029245
 20
-3.754597227555024
 30
0.0
 11
-64.44880494249239
 21
-3.255914272377908
 31
0.0
  0
ELLIPSE
  5
16BE1
330
1F
100
AcDbEntity
  8
AM_0
370
    30
100
AcDbEllipse
 10
-57.83406171670313
 20
13.89228693216467
 30
0.0
 11
0.09482292502535801
 21
1.196247722208752
 31
0.0
210
0.0
220
0.0
230
1.0
 40
0.1107787602558729
 41
6.030359455466853
 42
7.601155782261746
  0
ELLIPSE
  5
16BE2
330
1F
100
AcDbEntity
  8
AM_0
370
    30
100
AcDbEllipse
 10
-64.12524445627102
 20
14.39096988734178
 30
0.0
 11
0.09482292502535801
 21
1.196247722208752
 31
0.0
210
0.0
220
0.0
230
1.0
 40
0.1107787602558729
 41
-0.0000000000055702
 42
1.31797047508216
  0
ELLIPSE
  5
16BE3
330
1F
100
AcDbEntity
  8
AM_0
370
    30
100
AcDbEllipse
 10
-56.65963808317846
 20
10.41797161947704
 30
0.0
 11
0.09482292502536019
 21
1.19624772220878
 31
0.0
210
0.0
220
0.0
230
1.0
 40
0.1107787602558729
 41
5.392654140338744
 42
6.030359455466865
  0
ELLIPSE
  5
16BE4
330
1F
100
AcDbEntity
  8
AM_0
370
    30
100
AcDbEllipse
 10
-58.06279927789913
 20
-2.558349505346286
 30
0.0
 11
0.09482292502535723
 21
1.196247722208743
 31
0.0
210
0.0
220
0.0
230
1.0
 40
0.1107787602558729
 41
2.888766801877038
 42
4.45956312867194
  0
ELLIPSE
  5
16BE5
330
1F
100
AcDbEntity
  8
AM_0
370
    30
100
AcDbEllipse
 10
-64.35398201746702
 20
-2.059666550169169
 30
0.0
 11
0.09482292502535723
 21
1.196247722208743
 31
0.0
210
0.0
220
0.0
230
1.0
 40
0.1107787602558729
 41
2.888766801877038
 42
3.141592653584216
  0
ELLIPSE
  5
16BE6
330
1F
100
AcDbEntity
  8
AM_0
370
    30
100
AcDbEllipse
 10
-59.2372229114238
 20
0.9159658073413368
 30
0.0
 11
0.09482292502535723
 21
1.196247722208743
 31
0.0
210
0.0
220
0.0
230
1.0
 40
0.1107787602558729
 41
1.317970475082147
 42
2.888766801877042
  0
ELLIPSE
  5
16BE7
330
1F
100
AcDbEntity
  8
AM_0
370
    30
100
AcDbEllipse
 10
-65.52840565099169
 20
1.414648762518453
 30
0.0
 11
0.09482292502535723
 21
1.196247722208743
 31
0.0
210
0.0
220
0.0
230
1.0
 40
0.1107787602558729
 41
1.317970475082147
 42
2.888766801877042
  0
ELLIPSE
  5
16BE8
330
1F
100
AcDbEntity
  8
AM_0
370
    30
100
AcDbEllipse
 10
-57.94843049730113
 20
5.666968713409176
 30
0.0
 11
0.2508856557962967
 21
3.165072098343997
 31
0.0
210
0.0
220
0.0
230
1.0
 40
0.1107787602558729
 41
5.880935108546566
 42
10.22600185311629
  0
LINE
  5
16C93
330
1F
100
AcDbEntity
  8
AM_0
370
    30
100
AcDbLine
 10
170.0
 20
-5.000000000000028
 30
0.0
 11
170.0
 21
26.99999999999997
 31
0.0
  0
LINE
  5
16C94
330
1F
100
AcDbEntity
  8
AM_0
370
    30
100
AcDbLine
 10
36.00000000000003
 20
-5.000000000000028
 30
0.0
 11
170.0
 21
-5.000000000000028
 31
0.0
  0
LINE
  5
16C95
330
1F
100
AcDbEntity
  8
AM_0
370
    30
100
AcDbLine
 10
28.78745440329939
 20
26.99999999999997
 30
0.0
 11
34.52627944162893
 21
26.99999999999997
 31
0.0
  0
LINE
  5
16C96
330
1F
100
AcDbEntity
  8
AM_0
370
    30
100
AcDbLine
 10
170.0
 20
26.99999999999997
 30
0.0
 11
36.00000000000003
 21
26.99999999999997
 31
0.0
  0
LINE
  5
16C99
330
1F
100
AcDbEntity
  8
AM_0
370
    30
100
AcDbLine
 10
34.52627944162887
 20
18.90477944033549
 30
0.0
 11
34.52627944162887
 21
26.99999999999997
 31
0.0
  0
LINE
  5
16C9A
330
1F
100
AcDbEntity
  8
AM_0
370
    30
100
AcDbLine
 10
34.52627944162887
 20
26.99999999999997
 30
0.0
 11
36.00000000000003
 21
26.99999999999997
 31
0.0
  0
LINE
  5
16C9B
330
1F
100
AcDbEntity
  8
AM_0
370
    30
100
AcDbLine
 10
36.00000000000003
 20
26.99999999999997
 30
0.0
 11
36.00000000000003
 21
-5.000000000000028
 31
0.0
  0
LINE
  5
16C9C
330
1F
100
AcDbEntity
  8
AM_0
370
    30
100
AcDbLine
 10
36.00000000000003
 20
-5.000000000000028
 30
0.0
 11
35.01923618257555
 21
-5.000000000000028
 31
0.0
  0
LINE
  5
16CA2
330
1F
100
AcDbEntity
  8
AM_0
370
    30
100
AcDbLine
 10
4.879931181617479
 20
15.03740304385678
 30
0.0
 11
12.98176753423266
 21
12.86652253596449
 31
0.0
  0
LINE
  5
16CA3
330
1F
100
AcDbEntity
  8
AM_0
370
    30
100
AcDbLine
 10
4.940294480437444
 20
15.02122874668547
 30
0.0
 11
8.032675428778333
 21
26.99999999999997
 31
0.0
  0
LINE
  5
16CA4
330
1F
100
AcDbEntity
  8
AM_0
370
    30
100
AcDbLine
 10
8.032675428778333
 20
26.99999999999997
 30
0.0
 11
28.78745440329939
 21
26.99999999999997
 31
0.0
  0
LINE
  5
16CA6
330
1F
100
AcDbEntity
  8
AM_0
370
    30
100
AcDbLine
 10
34.86523234229509
 20
2.468054555457286
 30
0.0
 11
34.52627944162887
 21
18.90477944033549
 31
0.0
  0
LINE
  5
16CAA
330
1F
100
AcDbEntity
  8
AM_0
370
    30
100
AcDbLine
 10
35.01923618257555
 20
-5.000000000000028
 30
0.0
 11
34.86523234229509
 21
2.468054555457286
 31
0.0
  0
LINE
  5
16CAB
330
1F
100
AcDbEntity
  8
AM_0
370
    30
100
AcDbLine
 10
35.01923618257555
 20
-5.000000000000028
 30
0.0
 11
23.22710261857182
 21
-5.000000000000028
 31
0.0
  0
LINE
  5
16CAC
330
1F
100
AcDbEntity
  8
AM_0
370
    30
100
AcDbLine
 10
23.22710261857182
 20
-4.999999999999972
 30
0.0
 11
15.31077621604078
 21
-2.878826733420539
 31
0.0
  0
LINE
  5
16CAD
330
1F
100
AcDbEntity
  8
AM_0
370
    30
100
AcDbLine
 10
17.04544330755496
 20
3.840649500919625
 30
0.0
 11
15.37116359349594
 21
-2.644907758621628
 31
0.0
  0
LINE
  5
16CB2
330
1F
100
AcDbEntity
  8
AM_0
370
    30
100
AcDbLine
 10
25.90741928895992
 20
8.29163398796922
 30
0.0
 11
26.27298919780426
 21
8.550792059163626
 31
0.0
  0
LINE
  5
16CB3
330
1F
100
AcDbEntity
  8
AM_0
370
    30
100
AcDbLine
 10
25.01049499622971
 20
7.870146900813552
 30
0.0
 11
25.37606490507406
 21
8.129304972007958
 31
0.0
  0
LINE
  5
16CB4
330
1F
100
AcDbEntity
  8
AM_0
370
    30
100
AcDbLine
 10
25.37606490507406
 20
8.129304972007958
 30
0.0
 11
26.27298919780432
 21
8.550792059163626
 31
0.0
  0
LINE
  5
16CB5
330
1F
100
AcDbEntity
  8
AM_0
370
    30
100
AcDbLine
 10
15.14422261943568
 20
3.842912569985884
 30
0.0
 11
14.40556194496273
 21
3.445124379848636
 31
0.0
  0
LINE
  5
16CB6
330
1F
100
AcDbEntity
  8
AM_0
370
    30
100
AcDbLine
 10
9.9573869138666
 20
3.444264689848609
 30
0.0
 11
14.40556194496273
 21
3.445124379848608
 31
0.0
  0
ELLIPSE
  5
16CB7
330
1F
100
AcDbEntity
  8
AM_0
370
    30
100
AcDbEllipse
 10
32.40527035685071
 20
11.00847138052876
 30
0.0
 11
1.4704357733956
 21
0.8592425310966921
 31
0.0
210
0.0
220
0.0
230
1.0
 40
0.8797692712950186
 41
4.81217557948221
 42
5.055963035023962
  0
ELLIPSE
  5
16CB8
330
1F
100
AcDbEntity
  8
AM_0
370
    30
100
AcDbEllipse
 10
9.455405348183803
 20
5.59648670186337
 30
0.0
 11
-2.383276694058168
 21
1.118618832402428
 31
0.0
210
0.0
220
0.0
230
1.0
 40
0.7714933256363011
 41
1.818547079247241
 42
2.117578496910765
  0
ARC
  5
16CB9
330
1F
100
AcDbEntity
  8
AM_0
370
    30
100
AcDbCircle
 10
9.522520570206638
 20
6.018489973375068
 30
0.0
 40
2.096162315742848
100
AcDbArc
 50
155.4480495589488
 51
181.7151862132576
  0
LINE
  5
16CBA
330
1F
100
AcDbEntity
  8
AM_0
370
    30
100
AcDbLine
 10
25.90741928895992
 20
8.29163398796922
 30
0.0
 11
25.01049499622971
 21
7.870146900813552
 31
0.0
  0
LINE
  5
16CBB
330
1F
100
AcDbEntity
  8
AM_0
370
    30
100
AcDbLine
 10
21.15774984110837
 20
16.00099437572584
 30
0.0
 11
22.05467413383863
 21
16.42248146288151
 31
0.0
  0
ELLIPSE
  5
16CBE
330
1F
100
AcDbEntity
  8
AM_0
370
    30
100
AcDbEllipse
 10
9.702705408907974
 20
5.771801478033382
 30
0.0
 11
-1.265085826226919
 21
2.158789195029436
 31
0.0
210
0.0
220
0.0
230
1.0
 40
0.8770332477894023
 41
1.020188407822859
 42
1.921860865634624
  0
ARC
  5
16CC3
330
1F
100
AcDbEntity
  8
AM_0
370
    30
100
AcDbCircle
 10
9.699419394709963
 20
5.491622319542529
 30
0.0
 40
2.014077075074484
100
AcDbArc
 50
228.3122253710358
 51
255.7364406636425
  0
LINE
  5
16CC8
330
1F
100
AcDbEntity
  8
AM_0
370
    30
100
AcDbLine
 10
31.68283199712769
 20
16.2092990689446
 30
0.0
 11
29.54241802206028
 21
20.72643655500698
 31
0.0
  0
LINE
  5
16CC9
330
1F
100
AcDbEntity
  8
AM_0
370
    30
100
AcDbLine
 10
33.82324597219505
 20
11.69216158288222
 30
0.0
 11
31.68283199712764
 21
16.2092990689446
 31
0.0
  0
ELLIPSE
  5
16CCB
330
1F
100
AcDbEntity
  8
AM_0
370
    30
100
AcDbEllipse
 10
28.12444240671593
 20
20.04274635265352
 30
0.0
 11
1.4704357733956
 21
0.8592425310966925
 31
0.0
210
0.0
220
0.0
230
1.0
 40
0.8797692712950183
 41
1.075244162762019
 42
1.494807272098093
  0
LINE
  5
16CCD
330
1F
100
AcDbEntity
  8
AM_0
370
    30
100
AcDbLine
 10
27.48231821419572
 20
21.39788759847224
 30
0.0
 11
25.45087827626779
 21
20.38648129900986
 31
0.0
  0
LINE
  5
16CCF
330
1F
100
AcDbEntity
  8
AM_0
370
    30
100
AcDbLine
 10
20.04721347675454
 20
3.843860161342036
 30
0.0
 11
15.14422261943574
 21
3.842912569985884
 31
0.0
  0
LINE
  5
16CD0
330
1F
100
AcDbEntity
  8
AM_0
370
    30
100
AcDbLine
 10
25.45087827626779
 20
20.38648129900986
 30
0.0
 11
16.03166072313766
 21
15.96015613206691
 31
0.0
  0
ELLIPSE
  5
16CD3
330
1F
100
AcDbEntity
  8
AM_0
370
    30
100
AcDbEllipse
 10
9.455405348183803
 20
5.59648670186337
 30
0.0
 11
0.2130261148216871
 21
2.718204744296215
 31
0.0
210
0.0
220
0.0
230
1.0
 40
0.7820016237258145
 41
0.8382489799631553
 42
1.137280397626707
  0
LINE
  5
16CD4
330
1F
100
AcDbEntity
  8
AM_0
370
    30
100
AcDbLine
 10
10.8461667135995
 20
10.95688510211551
 30
0.0
 11
8.017513060780999
 21
7.538181568582132
 31
0.0
  0
LINE
  5
16CD5
330
1F
100
AcDbEntity
  8
AM_0
370
    30
100
AcDbLine
 10
10.8461667135995
 20
10.95688510211551
 30
0.0
 11
11.6405204197512
 21
11.23713851438313
 31
0.0
  0
LINE
  5
16CD6
330
1F
100
AcDbEntity
  8
AM_0
370
    30
100
AcDbLine
 10
11.64052041975126
 20
11.23713851438313
 30
0.0
 11
14.75839750447412
 21
15.00539674424587
 31
0.0
  0
ELLIPSE
  5
16CDB
330
1F
100
AcDbEntity
  8
AM_0
370
    30
100
AcDbEllipse
 10
16.67378491565788
 20
14.6050148862482
 30
0.0
 11
-2.279651777607641
 21
-1.066360162444344
 31
0.0
210
0.0
220
0.0
230
1.0
 40
0.5958383874942632
 41
4.715349374146989
 42
5.383634271518982
  0
ELLIPSE
  5
16CE5
330
1F
100
AcDbEntity
  8
AM_0
370
    30
100
AcDbEllipse
 10
20.95461286579271
 20
5.570739914123408
 30
0.0
 11
-2.279651777607653
 21
-1.06636016244435
 31
0.0
210
0.0
220
0.0
230
1.0
 40
0.5958383874942603
 41
0.9054718231852055
 42
1.540809636463422
  0
LINE
  5
16CEB
330
1F
100
AcDbEntity
  8
AM_0
370
    30
100
AcDbLine
 10
32.53667468141995
 20
9.262941113464905
 30
0.0
 11
33.30393149203869
 21
9.806861141727865
 31
0.0
  0
LINE
  5
16CEC
330
1F
100
AcDbEntity
  8
AM_0
370
    30
100
AcDbLine
 10
26.60446073652778
 20
6.449239313467274
 30
0.0
 11
32.30713282006028
 21
9.129067103810087
 31
0.0
  0
LINE
  5
16CED
330
1F
100
AcDbEntity
  8
AM_0
370
    30
100
AcDbLine
 10
26.58474108666863
 20
6.440207825386608
 30
0.0
 11
21.52135657268323
 21
4.181074703774101
 31
0.0
  0
ELLIPSE
  5
16CF1
330
1F
100
AcDbEntity
  8
AM_0
370
    30
100
AcDbEllipse
 10
23.44969232751342
 20
12.1947287094641
 30
0.0
 11
2.602500294564365
 21
-3.671102316306696
 31
0.0
210
0.0
220
0.0
230
1.0
 40
0.9907374393020275
 41
3.191869538574333
 42
6.107409653385252
  0
ELLIPSE
  5
16CF2
330
1F
100
AcDbEntity
  8
AM_0
370
    30
100
AcDbEllipse
 10
24.34661662024362
 20
12.61621579661977
 30
0.0
 11
2.602500294564365
 21
-3.671102316306696
 31
0.0
210
0.0
220
0.0
230
1.0
 40
0.9907374393020275
 41
6.107409653385254
 42
6.23290842219505
  0
ELLIPSE
  5
16CF3
330
1F
100
AcDbEntity
  8
AM_0
370
    30
100
AcDbEllipse
 10
32.47785953309975
 20
11.0599309521487
 30
0.0
 11
0.8675000981881219
 21
-1.223700772102233
 31
0.0
210
0.0
220
0.0
230
1.0
 40
0.9907374393020274
 41
0.2437874555417433
 42
1.395020673000564
  0
ELLIPSE
  5
16CF5
330
1F
100
AcDbEntity
  8
AM_0
370
    30
100
AcDbEllipse
 10
23.08412241866907
 20
11.9355706382697
 30
0.0
 11
-2.602500294564365
 21
3.671102316306696
 31
0.0
210
0.0
220
0.0
230
1.0
 40
0.9907374393020275
 41
6.107409653385254
 42
9.249002306975047
  0
ELLIPSE
  5
16CF6
330
1F
100
AcDbEntity
  8
AM_0
370
    30
100
AcDbEllipse
 10
23.98104671139927
 20
12.35705772542536
 30
0.0
 11
-2.602500294564365
 21
3.671102316306696
 31
0.0
210
0.0
220
0.0
230
1.0
 40
0.9907374393020275
 41
2.965816999795461
 42
6.107409653385254
  0
ELLIPSE
  5
16CF9
330
1F
100
AcDbEntity
  8
AM_0
370
    30
100
AcDbEllipse
 10
28.19703158296491
 20
20.0942059242735
 30
0.0
 11
0.8675000981881219
 21
-1.223700772102233
 31
0.0
210
0.0
220
0.0
230
1.0
 40
0.9907374393020275
 41
1.395020673000564
 42
2.546253890459386
  0
ARC
  5
16D05
330
1F
100
AcDbEntity
  8
AM_0
370
    30
100
AcDbCircle
 10
31.66917458323181
 20
10.48664188556714
 30
0.0
 40
1.5
100
AcDbArc
 50
295.1700015405042
 51
305.3334079641343
  0
LINE
  5
16D06
330
1F
100
AcDbEntity
  8
AM_0
370
    30
100
AcDbLine
 10
25.23610522632711
 20
10.69264488084161
 30
0.0
 11
23.16474729892505
 21
9.719262147924525
 31
0.0
  0
LINE
  5
16D07
330
1F
100
AcDbEntity
  8
AM_0
370
    30
100
AcDbLine
 10
23.44169419956475
 20
9.915594020041482
 30
0.0
 11
25.24148347379415
 21
10.76135987211782
 31
0.0
  0
LINE
  5
16D08
330
1F
100
AcDbEntity
  8
AM_0
370
    30
100
AcDbLine
 10
23.16474729892505
 20
9.719262147924525
 30
0.0
 11
23.44169419956475
 21
9.91559402004151
 31
0.0
  0
LINE
  5
16D09
330
1F
100
AcDbEntity
  8
AM_0
370
    30
100
AcDbLine
 10
23.16474729892505
 20
9.719262147924525
 30
0.0
 11
21.27290274519706
 21
11.03942577589092
 31
0.0
  0
ACAD_PROXY_ENTITY
  5
16DAE
330
1F
100
AcDbEntity
  8
AM_5
370
    13
100
AcDbProxyEntity
 90
      498
 91
      533
 95
       25
 70
     0
 92
      668
310
9C020000270000000C00000016000000000000C00C00000013000000010000000C00000016000000000000C00C000000170000000D0000003C00000006000000020000002CF75F677C2741C0A8609DD6AA423CC000000000000000002882E885D13D3FC00B3DD14B6FD030C000000000000000000C00000016000000000000
310
C00C00000010000000FFFFFFFF0C00000012000000FFFFFFFF0C00000017000000000000000C00000014000000010000000C00000013000000020000000C00000016000000000000C00C000000170000000D0000003C00000006000000020000002882E885D13D3FC00B3DD14B6FD030C00000000000000000D87861551B6D
310
3EC0108E663A068B2BC000000000000000000C00000016000000000000C00C00000010000000FFFFFFFF0C00000012000000FFFFFFFF0C00000017000000000000000C00000014000000010000000C00000013000000030000000C00000016000000000000C00C000000170000000D0000003C0000000600000002000000AE
310
9BEF7645D73EC0E39E9783E9EB30C00000000000000000D87861551B6D3EC0108E663A068B2BC000000000000000000C00000016000000000000C00C00000010000000FFFFFFFF0C00000012000000FFFFFFFF0C00000017000000000000000C00000014000000010000000C00000013000000040000000C00000016000000
310
000000C00C000000170000000D0000003C0000000600000002000000D87861551B6D3EC0108E663A068B2BC00000000000000000A268E1945DA43FC034DB0A14F5B430C000000000000000000C00000016000000000000C00C00000010000000FFFFFFFF0C00000012000000FFFFFFFF0C00000017000000000000000C0000
310
0014000000010000000C00000013000000050000000C00000016000000000000C0
 93
     1601
310
5DC08541A09A6713FC02A164483F7A44C702052FD211F77A3B8FC950693C17D90D0BF8950693C17D90D03F052FD211F77A3B8FEA54051F8000000C800AA0B3DD7D9DF09D0700A8609DD6AA423CC09018FFFFFFFF361E185546DB4FB00108E663A068B2BC0A8FFFFFFFF1FFFFFFFF059EEBECEF84E838054304EEB55211E604
310
5409C8704CB796CF933040C0123AA475E3C94EF02A414BF4847DDE8EE3F2541A4F05F64342FE8333333333333094041D050000000000003C2FC000000000000F0BF40401015213500500
340
17F
340
EDAB
330
0
330
0
340
0
340
0
340
180
330
0
330
0
 94
        0
  0
ACAD_PROXY_ENTITY
  5
16DAF
330
1F
100
AcDbEntity
  8
AM_5
370
    13
100
AcDbProxyEntity
 90
      498
 91
      533
 95
       25
 70
     0
 92
      668
310
9C020000270000000C00000016000000000000C00C00000013000000010000000C00000016000000000000C00C000000170000000D0000003C00000006000000020000002CF75F677C2741C0A8609DD6AA423CC00000000000000000CBCAF343BDDC36C0D7CC741FD2533FC000000000000000000C00000016000000000000
310
C00C00000010000000FFFFFFFF0C00000012000000FFFFFFFF0C00000017000000000000000C00000014000000010000000C00000013000000020000000C00000016000000000000C00C000000170000000D0000003C0000000600000002000000CBCAF343BDDC36C0D7CC741FD2533FC00000000000000000C8D45515D1D1
310
33C014EBFD27441240C000000000000000000C00000016000000000000C00C00000010000000FFFFFFFF0C00000012000000FFFFFFFF0C00000017000000000000000C00000014000000010000000C00000013000000030000000C00000016000000000000C00C000000170000000D0000003C0000000600000002000000A2
310
2CBA7B37F836C051B36D2E5EBA3FC00000000000000000C8D45515D1D133C014EBFD27441240C000000000000000000C00000016000000000000C00C00000010000000FFFFFFFF0C00000012000000FFFFFFFF0C00000017000000000000000C00000014000000010000000C00000013000000040000000C00000016000000
310
000000C00C000000170000000D0000003C0000000600000002000000C8D45515D1D133C014EBFD27441240C00000000000000000F3682D0C43C136C05DE67B1046ED3EC000000000000000000C00000016000000000000C00C00000010000000FFFFFFFF0C00000012000000FFFFFFFF0C00000017000000000000000C0000
310
0014000000010000000C00000013000000050000000C00000016000000000000C0
 93
     1601
310
5DC78E734072C9E37C03A3E90A73F47CFF022581A4F05F64342FC14BF4847DDE8EEBF814BF4847DDE8EE3F2581A4F05F64342FEA54051F8000000C800AA0B3DD7D9DF09D0700A8609DD6AA423CC09018FFFFFFFF3235154574744CF0014EBFD27441240C0A8FFFFFFFF1FFFFFFFF059EEBECEF84E838054304EEB55211E604
310
5409C870FC3BDAE7EE9840C00E380BC19F0C0FB02A4960693C17D90D0BF052FD211F77A3BAFE8333333333333094041D050000000000003C2FC000000000000F0BF40401015213500500
340
17F
340
EDAB
330
0
330
0
340
0
340
0
340
180
330
0
330
0
 94
        0
  0
TEXT
  5
16DB0
330
1F
100
AcDbEntity
  8
AM_0
 62
     0
370
    30
100
AcDbText
 10
-18.66868951985859
 20
-34.43397850588929
 30
0.0
 40
4.0
  1
-5%%D
100
AcDbText
  0
TEXT
  5
16DB1
330
1F
100
AcDbEntity
  8
AM_0
 62
     0
370
    30
100
AcDbText
 10
-32.79449668107802
 20
-12.82422900831435
 30
0.0
 40
4.0
  1
-6%%D
100
AcDbText
  0
TEXT
  5
16FCC
330
1F
100
AcDbEntity
  8
AM_6
 62
     0
370
    30
100
AcDbText
 10
57.11303318832427
 20
-130.5613387215341
 30
0.0
 40
3.8
  1
DSBNR3232P15
  7
ACISOTS
100
AcDbText
  0
DIMENSION
  5
17001
330
1F
100
AcDbEntity
  8
AM_0
100
AcDbDimension
  2
*D10
 10
0.0
 20
0.0
 30
0.0
 11
14.70104929966169
 21
-15.42282965677305
 31
0.0
 70
   162
 71
     5
 42
1.30899693899575
  3
AM_JIS$2
100
AcDb2LineAngularDimension
 13
0.8942924589731831
 23
-0.2396249421791197
 33
0.0
 14
13.86061372743799
 24
-3.713940254866714
 34
0.0
 15
0.0
 25
0.9264701734194603
 35
0.0
 16
9.00469037191321
 26
-19.31062081961363
 36
0.0
1001
ACAD
1000
DSTYLE
1002
{
1070
   271
1070
     0
1002
}
  0
LINE
  5
170B8
330
1F
100
AcDbEntity
  8
AM_0
100
AcDbLine
 10
-54.71123902670624
 20
21.45519040604458
 30
0.0
 11
-54.74600290834289
 21
20.8024455354221
 31
0.0
  0
ENDSEC
  0
SECTION
  2
OBJECTS
  0
DICTIONARY
  5
C
330
0
100
AcDbDictionary
281
     1
  3
ACAD_COLOR
350
ED4C
  3
ACAD_GROUP
350
D
  3
ACAD_LAYOUT
350
1A
  3
ACAD_MATERIAL
350
ED4B
  3
ACAD_MLINESTYLE
350
17
  3
ACAD_PLOTSETTINGS
350
19
  3
ACAD_PLOTSTYLENAME
350
E
  3
ACAD_TABLESTYLE
350
ED4D
  3
AcAmCatalogState
350
EDB4
  3
ACDBHEADERROUNDTRIPXREC
350
170DA
  3
AcDbVariableDictionary
350
30
  3
ACDMSYSVARMGR
350
ED67
  3
ACGREF_MASTER
350
ED5F
  3
ACGREFACAD_MASTER
350
ED87
  3
AcmDictionary
350
4D
  3
ACME_BOM_MANAGER_NAME
350
36
  3
ACME_COMMAND_HISTORY
350
2F
  3
ACME_SCOPE_NAME
350
2E
  3
ACMESTATEMGR
350
3B
  3
AcmeSysVarManager
350
32
  3
AcmSystemVariableManager
350
6A
  3
AD_APPL
350
ED92
  3
ADSYSVARMGR
350
ED91
  3
AmdtNamedDwgMgr
350
ED82
  3
AMG
350
3F
  3
AMGSNAPSETTINGS
350
73
  3
AMI_MASTER
350
ED8A
  3
AUTOCAD_ASSEMBLIES_PROJECT
350
ED9A
  3
Designer_Assemblies_SysVars
350
ED95
  3
DWGPROPS
350
170DD
  3
FILENAME
350
217A
  3
GREFAM_MODULE
350
ED8B
  3
ZWKSIZE
350
217C
  0
DICTIONARY
  5
EDC8
330
2
100
AcDbDictionary
280
     1
281
     1
  3
ACAD_LAYERSTATES
360
F5B5
  3
AMLAYER_GROUPCOLORS
360
EDC9
  0
DICTIONARY
  5
165
330
1F
100
AcDbDictionary
280
     1
281
     1
  3
ACAD_SORTENTS
360
F11C
  0
DICTIONARY
  5
ED4C
102
{ACAD_REACTORS
330
C
102
}
330
C
100
AcDbDictionary
281
     1
  0
DICTIONARY
  5
D
102
{ACAD_REACTORS
330
C
102
}
330
C
100
AcDbDictionary
281
     1
  0
DICTIONARY
  5
1A
102
{ACAD_REACTORS
330
C
102
}
330
C
100
AcDbDictionary
281
     1
  3
Model
350
22
  3
ﾚｲｱｳﾄ1
350
1E
  3
ﾚｲｱｳﾄ2
350
26
  0
DICTIONARY
  5
ED4B
102
{ACAD_REACTORS
330
C
102
}
330
C
100
AcDbDictionary
281
     1
  0
DICTIONARY
  5
17
102
{ACAD_REACTORS
330
C
102
}
330
C
100
AcDbDictionary
281
     1
  3
Standard
350
18
  0
DICTIONARY
  5
19
102
{ACAD_REACTORS
330
C
102
}
330
C
100
AcDbDictionary
281
     1
  0
ACDBDICTIONARYWDFLT
  5
E
102
{ACAD_REACTORS
330
C
102
}
330
C
100
AcDbDictionary
281
     1
  3
Normal
350
F
100
AcDbDictionaryWithDefault
340
F
  0
DICTIONARY
  5
ED4D
102
{ACAD_REACTORS
330
C
102
}
330
C
100
AcDbDictionary
281
     1
  3
Standard
350
ED4E
  0
ACAD_PROXY_OBJECT
  5
EDB4
102
{ACAD_REACTORS
330
C
102
}
330
C
100
AcDbProxyObject
 90
      499
 91
      571
 95
       25
 70
     0
 93
      184
310
3FFFFFFFE00A028140285221D2E31B0B2483ECB65400AA
  0
DICTIONARY
  5
170DA
102
{ACAD_REACTORS
330
C
102
}
330
C
100
AcDbDictionary
281
     1
  3
COLORDICT
350
170DB
  3
MATERIALDICT
350
170DC
  0
DICTIONARY
  5
30
102
{ACAD_REACTORS
330
C
102
}
330
C
100
AcDbDictionary
281
     1
  3
CTABLESTYLE
350
EE09
  3
HIDETEXT
350
170D9
  3
INDEXCTL
350
170D8
  0
ACAD_PROXY_OBJECT
  5
ED67
102
{ACAD_REACTORS
330
C
102
}
330
C
100
AcDbProxyObject
 90
      499
 91
      507
 95
       25
 70
     0
 93
      240
310
4C51A47A0000000000000000000000000000000000000000000000000000
330
ED68
330
ED69
330
ED6A
330
ED6B
330
ED6C
330
ED6D
330
ED6E
330
ED6F
330
ED70
330
ED71
330
ED72
330
ED73
330
ED74
330
ED75
330
ED76
330
ED77
330
ED78
330
ED79
330
ED7A
330
ED7B
330
ED7C
330
ED7D
330
ED7E
330
ED7F
330
ED80
330
ED81
 94
        0
  0
ACAD_PROXY_OBJECT
  5
ED5F
102
{ACAD_REACTORS
330
C
102
}
330
C
100
AcDbProxyObject
 90
      499
 91
      535
 95
       25
 70
     0
 93
       34
310
0400004280
  0
ACAD_PROXY_OBJECT
  5
ED87
102
{ACAD_REACTORS
330
C
102
}
330
C
100
AcDbProxyObject
 90
      499
 91
      541
 95
       25
 70
     0
 93
      114
310
04000041C080000000000000000000
  0
DICTIONARY
  5
4D
102
{ACAD_REACTORS
330
C
102
}
330
C
100
AcDbDictionary
281
     1
  3
AcmBOMDATA
350
4E
  3
AcmStdDictionary
350
17E
  3
AMDTSECTSYM_ARROWCOLOR
350
EDA8
  0
ACAD_PROXY_OBJECT
  5
36
102
{ACAD_REACTORS
330
C
102
}
330
C
100
AcDbProxyObject
 90
      499
 91
      510
 95
       25
 70
     0
 93
       50
310
00010040400000
330
0
330
0
330
37
 94
        0
  0
ACAD_PROXY_OBJECT
  5
2F
102
{ACAD_REACTORS
330
C
102
}
330
C
100
AcDbProxyObject
 90
      499
 91
      505
 95
       25
 70
     0
 93
     2850
310
47805054552415345805054552415345805054552415345805045A4F4F4D805055055524745805055153415645404052D4D5347202D205050413A2020206465736B746F702E6172782046696C6556657273696F6E3A20392E322E302E34014390535115149154D15511109353D1102014213880B4815539113C05084E202D2
310
0554E444F014115539113E014115539113E014151549054D16014151549054D16014151549054D16014151549054D16014151549054D16014151549054D16014151549054D16014151549054D16014151549054D16014151549054D16014311D4925417D4D514915510D22014151549054D16014151549054D160141151492
310
536014151549054D16014151549054D16014151549054D16014151549054D160141915615115391201411693D3D3601415454D05591501014B5354D1C80B481414104E88080819195CDADD1BDC0B985C9E08119A5B1955995C9CDA5BDB8E880E4B8C8B8C0B8D00
  0
ACAD_PROXY_OBJECT
  5
2E
102
{ACAD_REACTORS
330
C
102
}
330
C
100
AcDbProxyObject
 90
      499
 91
      504
 95
       25
 70
     0
 93
      594
310
09000046408000000000000000001354E60000000000000000000000000000000000000000000000000000000000000000000000000000000000000000000000000000000000AAA406AA80
360
33
360
34
360
35
360
37
360
6B
360
6C
360
ED60
360
ED61
360
ED62
360
ED63
360
ED64
360
ED65
360
ED68
360
ED69
360
ED6A
360
ED6B
360
ED6C
360
ED6D
360
ED6E
360
ED6F
360
ED70
360
ED71
360
ED72
360
ED73
360
ED74
360
ED75
360
ED76
360
ED77
360
ED78
360
ED79
360
ED7A
360
ED7B
360
ED7C
360
ED7D
360
ED7E
360
ED7F
360
ED80
360
ED81
360
ED8D
360
ED8E
360
ED8F
360
ED90
360
ED96
360
ED97
360
ED98
360
ED99
360
ED9E
360
ED9F
360
EDA0
360
EDA1
360
EDA2
360
EDA3
360
EDCB
 94
        0
  0
ACAD_PROXY_OBJECT
  5
3B
102
{ACAD_REACTORS
330
C
102
}
330
C
100
AcDbProxyObject
 90
      499
 91
      515
 95
       25
 70
     0
 93
       50
310
09000042641280
  0
ACAD_PROXY_OBJECT
  5
32
102
{ACAD_REACTORS
330
C
102
}
330
C
100
AcDbProxyObject
 90
      499
 91
      507
 95
       25
 70
     0
 93
       48
310
903412000000
330
33
330
34
330
35
 94
        0
  0
ACAD_PROXY_OBJECT
  5
6A
102
{ACAD_REACTORS
330
C
102
}
330
C
100
AcDbProxyObject
 90
      499
 91
      507
 95
       25
 70
     0
 93
       48
310
903412000000
330
6B
330
6C
330
EDCB
 94
        0
  0
ACAD_PROXY_OBJECT
  5
ED92
102
{ACAD_REACTORS
330
C
102
}
330
C
100
AcDbProxyObject
 90
      499
 91
      551
 95
       25
 70
     0
 93
       42
310
000900004040
330
ED8D
 94
        0
  0
ACAD_PROXY_OBJECT
  5
ED91
102
{ACAD_REACTORS
330
C
102
}
330
C
100
AcDbProxyObject
 90
      499
 91
      507
 95
       25
 70
     0
 93
        8
310
AA
  0
ACAD_PROXY_OBJECT
  5
ED82
102
{ACAD_REACTORS
330
C
102
}
330
C
100
AcDbProxyObject
 90
      499
 91
      540
 95
       25
 70
     0
 93
       42
310
000100005E80
330
ED60
 94
        0
  0
DICTIONARY
  5
3F
102
{ACAD_REACTORS
330
C
102
}
330
C
100
AcDbDictionary
281
     1
  3
AcMgSettings
350
40
  3
AMGLAYCFG
350
42
  0
DICTIONARY
  5
73
102
{ACAD_REACTORS
330
C
102
}
330
C
100
AcDbDictionary
281
     1
  3
DIMENSION
350
62F
  3
FEA
350
630
  3
HATCH (1)
350
631
  3
HATCH (2)
350
632
  3
SYMBOLS
350
633
  0
ACAD_PROXY_OBJECT
  5
ED8A
102
{ACAD_REACTORS
330
C
102
}
330
C
100
AcDbProxyObject
 90
      499
 91
      544
 95
       25
 70
     0
 93
       34
310
0500004280
  0
ACAD_PROXY_OBJECT
  5
ED9A
102
{ACAD_REACTORS
330
C
102
}
330
C
100
AcDbProxyObject
 90
      499
 91
      554
 95
       25
 70
     0
 93
       98
310
0900004E400000000000000000
330
EDA1
330
0
330
EDA2
330
0
330
0
330
0
330
0
330
0
 94
        0
  0
ACAD_PROXY_OBJECT
  5
ED95
102
{ACAD_REACTORS
330
C
102
}
330
C
100
AcDbProxyObject
 90
      499
 91
      507
 95
       25
 70
     0
 93
       56
310
90441600000000
330
ED96
330
ED97
330
ED98
330
ED99
 94
        0
  0
XRECORD
  5
170DD
102
{ACAD_REACTORS
330
C
102
}
330
C
100
AcDbXrecord
280
     1
  1
DWGPROPS COOKIE
  2

  3

  4

  6

  7

  8

  9

300
AmdtFileType=84
301
=
302
=
303
=
304
=
305
=
306
=
307
=
308
=
309
=
 40
0.0
 41
2451943.235431667
 42
2455441.003081956
  1

 90
        1
  0
DICTIONARY
  5
217A
102
{ACAD_REACTORS
330
C
102
}
330
C
100
AcDbDictionary
281
     1
  3
FILENAME
350
217B
  0
ACAD_PROXY_OBJECT
  5
ED8B
102
{ACAD_REACTORS
330
C
102
}
330
C
100
AcDbProxyObject
 90
      499
 91
      545
 95
       25
 70
     0
 93
        8
310
05
  0
DICTIONARY
  5
217C
102
{ACAD_REACTORS
330
C
102
}
330
C
100
AcDbDictionary
281
     1
  3
ZWKSIZE
350
217D
  0
DICTIONARY
  5
F5B5
102
{ACAD_REACTORS
330
EDC8
102
}
330
EDC8
100
AcDbDictionary
281
     1
  0
DICTIONARY
  5
EDC9
102
{ACAD_REACTORS
330
EDC8
102
}
330
EDC8
100
AcDbDictionary
280
     1
281
     1
  3
基本画層グループ
360
EDCA
  0
SORTENTSTABLE
  5
F11C
102
{ACAD_REACTORS
330
165
102
}
330
165
100
AcDbSortentsTable
330
1F
331
0
  5
16AF6
331
13985
  5
13BEC
331
139C8
  5
13C13
331
13A3B
  5
13C14
331
13B18
  5
13C56
331
13B3A
  5
13C57
331
14DDC
  5
14E20
331
14DE6
  5
14E21
331
14E3C
  5
14ECA
331
16AAD
  5
16AAD
331
16AAE
  5
16AAE
331
16AAF
  5
16AAF
331
16AB0
  5
16AB0
331
16AB1
  5
16AB1
331
16AB2
  5
16AB2
331
16AB3
  5
16AB3
331
16AB4
  5
16AB4
331
16AB5
  5
16AB5
331
16AB6
  5
16AB6
331
16AB7
  5
16AB7
331
16AB8
  5
16AB8
331
16AB9
  5
16AB9
331
16ABC
  5
16ABC
331
16ABD
  5
16ABD
331
16ABE
  5
16ABE
331
16AC0
  5
16AC0
331
16AC1
  5
16AC1
331
16AC2
  5
16AC2
331
16AC3
  5
16AC3
331
16AC4
  5
16AC4
331
16AC5
  5
16AC5
331
16AC6
  5
16AC6
331
16AC7
  5
16AC7
331
16AC8
  5
16AC8
331
16AC9
  5
16AC9
331
16ACB
  5
16ACB
331
16ACE
  5
16ACE
331
16ACF
  5
16ACF
331
16AD0
  5
16AD0
331
16AD1
  5
16AD1
331
16AD3
  5
16AD3
331
16AD4
  5
16AD4
331
16AD5
  5
16AD5
331
16AD6
  5
16AD6
331
16AD7
  5
16AD7
331
16AD8
  5
16AD8
331
16AD9
  5
16AD9
331
16ADA
  5
16ADA
331
16ADB
  5
16ADB
331
16ADC
  5
16ADC
331
16ADD
  5
16ADD
331
16ADE
  5
16ADE
331
16ADF
  5
16ADF
331
16AE4
  5
16AE4
331
16AE5
  5
16AE5
331
16AE6
  5
16AE6
331
16AE7
  5
16AE7
331
16AE8
  5
16AE8
331
16AEA
  5
16AEA
331
16AEB
  5
16AEB
331
16AEC
  5
16AEC
331
16AEE
  5
16AF2
331
16AF2
  5
16AF3
331
16AF3
  5
16AF4
331
16AF6
  5
16AF7
331
16AF7
  5
16AF9
331
16AF9
  5
16AFA
331
16AFA
  5
16AFD
331
16AFD
  5
16B02
331
16B02
  5
16B07
331
16B07
  5
16B08
331
16B08
  5
16B0E
331
16B0E
  5
16B15
331
16B15
  5
16B16
331
16B16
  5
16B17
331
16B17
  5
16B18
331
16B18
  5
16B19
331
16B19
  5
16B1A
331
16B1A
  5
16B1B
331
16B1B
  5
16B1D
331
16B1D
  5
16B1E
331
16B1E
  5
16B27
331
16B27
  5
16B28
331
16B28
  5
16B29
331
16B29
  5
16B2A
331
16B2A
  5
16B2C
331
16B2C
  5
16B2E
331
16B2E
  5
16B2F
331
16B2F
  5
16B30
331
16B30
  5
16B31
331
16B31
  5
16B32
331
16B32
  5
16B33
331
16B33
  5
16B34
331
16B34
  5
16B35
331
16B35
  5
16B36
331
16B36
  5
16B37
331
16B37
  5
16B39
331
16B39
  5
16B3B
331
16B3B
  5
16B3C
331
16B3C
  5
16B3D
331
16B3D
  5
16B3E
331
16B3E
  5
16B3F
331
16B3F
  5
16B40
331
16B40
  5
16B41
331
16B41
  5
16B42
331
16B42
  5
16B43
331
16B43
  5
16B44
331
16B44
  5
16B46
331
16B46
  5
16B48
331
16B48
  5
16B49
331
16B49
  5
16B4A
331
16B4A
  5
16B4B
331
16B4B
  5
16B4C
331
16B4C
  5
16B4D
331
16B4D
  5
16B4E
331
16B4E
  5
16B4F
331
16B4F
  5
16B50
331
16B50
  5
16B51
331
16B51
  5
16B52
331
16B52
  5
16B56
331
16B56
  5
16B59
331
16B59
  5
16B5A
331
16B5A
  5
16B5B
331
16B5B
  5
16B5C
331
16B5C
  5
16B5D
331
16B5D
  5
16B5E
331
16B5E
  5
16B5F
331
16B5F
  5
16B60
331
16B60
  5
16B61
331
16B61
  5
16B62
331
16B62
  5
16B63
331
16B63
  5
16B64
331
16B64
  5
16B65
331
16B65
  5
16B66
331
16B66
  5
16B67
331
16B67
  5
16B68
331
16B68
  5
16B6B
331
16B6B
  5
16B6C
331
16B6C
  5
16B6D
331
16B6D
  5
16B6E
331
16B6E
  5
16B6F
331
16B6F
  5
16B70
331
16B70
  5
16B71
331
16B71
  5
16B73
331
16B73
  5
16B74
331
16B74
  5
16B77
331
16B77
  5
16B78
331
16B78
  5
16B79
331
16B79
  5
16B7A
331
16B7A
  5
16B7B
331
16B7B
  5
16B7C
331
16B7C
  5
16B7F
331
16B7F
  5
16B84
331
16B84
  5
16B89
331
16B89
  5
16B8B
331
16B8B
  5
16B8C
331
16B8C
  5
16B8F
331
16B8F
  5
16B90
331
16B90
  5
16B91
331
16B91
  5
16B92
331
16B92
  5
16B97
331
16B97
  5
16BA0
331
16BA0
  5
16BA2
331
16BA2
  5
16BA5
331
16BA5
  5
16BA6
331
16BA6
  5
16BA7
331
16BA7
  5
16BA8
331
16BA8
  5
16BA9
331
16BA9
  5
16BAA
331
16BAA
  5
16BAC
331
16BAC
  5
16BAE
331
16BAE
  5
16BAF
331
16BAF
  5
16BB8
331
16BB8
  5
16BBA
331
16BBA
  5
16BBB
331
16BBB
  5
16BBC
331
16BBC
  5
16BBD
331
16BBD
  5
16BBE
331
16BBE
  5
16BBF
331
16BBF
  5
16BC1
331
16BC1
  5
16BC4
331
16BC4
  5
16BC5
331
16BC5
  5
16BC6
331
16BC6
  5
16BC7
331
16BC7
  5
16BC8
331
16BC8
  5
16BC9
331
16BC9
  5
16BCB
331
16BCB
  5
16BCF
331
16BCF
  5
16BD0
331
16BD0
  5
16BD1
331
16BD1
  5
16BD2
331
16BD2
  5
16BD3
331
16BD3
  5
16BD4
331
16BD4
  5
16BD5
331
16BD5
  5
16BD6
331
16BD6
  5
16BD7
331
16BD7
  5
16BD9
331
16BD9
  5
16BDC
331
16BDC
  5
16BDE
331
16BDE
  5
16BDF
331
16BDF
  5
16BE0
331
16BE0
  5
16BE1
331
16BE1
  5
16BE2
331
16BE2
  5
16BE3
331
16BE3
  5
16BE4
331
16BE4
  5
16BE5
331
16BE5
  5
16BE6
331
16BE6
  5
16BE7
331
16BE7
  5
16BE8
331
16BE8
  5
16C93
331
16C93
  5
16C94
331
16C94
  5
16C95
331
16C95
  5
16C96
331
16C96
  5
16C99
331
16C99
  5
16C9A
331
16C9A
  5
16C9B
331
16C9B
  5
16C9C
331
16C9C
  5
16CA2
331
16CA2
  5
16CA3
331
16CA3
  5
16CA4
331
16CA4
  5
16CA6
331
16CA6
  5
16CAA
331
16CAA
  5
16CAB
331
16CAB
  5
16CAC
331
16CAC
  5
16CAD
331
16CAD
  5
16CB2
331
16CB2
  5
16CB3
331
16CB3
  5
16CB4
331
16CB4
  5
16CB5
331
16CB5
  5
16CB6
331
16CB6
  5
16CB7
331
16CB7
  5
16CB8
331
16CB8
  5
16CB9
331
16CB9
  5
16CBA
331
16CBA
  5
16CBB
331
16CBB
  5
16CBE
331
16CBE
  5
16CC3
331
16CC3
  5
16CC8
331
16CC8
  5
16CC9
331
16CC9
  5
16CCB
331
16CCB
  5
16CCD
331
16CCD
  5
16CCF
331
16CCF
  5
16CD0
331
16CD0
  5
16CD3
331
16CD3
  5
16CD4
331
16CD4
  5
16CD5
331
16CD5
  5
16CD6
331
16CD6
  5
16CDB
331
16CDB
  5
16CE5
331
16CE5
  5
16CEB
331
16CEB
  5
16CEC
331
16CEC
  5
16CED
331
16CED
  5
16CF1
331
16CF1
  5
16CF2
331
16CF2
  5
16CF3
331
16CF3
  5
16CF5
331
16CF5
  5
16CF6
331
16CF6
  5
16CF9
331
16CF9
  5
16D05
331
16D05
  5
16D06
331
16D06
  5
16D07
331
16D07
  5
16D08
331
16D08
  5
16D09
331
16D09
  5
16DAE
331
16DAE
  5
16DAF
331
16DAF
  5
16DB0
331
16DB0
  5
16DB1
331
16DB1
  5
16FCC
331
16FCC
  5
17001
331
17001
  5
170B8
331
170B8
  5
170D6
  0
LAYOUT
  5
22
102
{ACAD_REACTORS
330
1A
102
}
330
1A
100
AcDbPlotSettings
  1

  2
SII LP-2150 (D-SCAN C2)
  4
User120
  6
AM_VIEW1
 40
3.174999952316284
 41
3.174999952316284
 42
3.17498779296875
 43
3.17498779296875
 44
296.9259948730469
 45
419.9889831542969
 46
0.0
 47
0.0
 48
0.0
 49
0.0
140
420.0
141
297.0
142
1.0
143
1.022107788374329
 70
 11952
 72
     1
 73
     1
 74
     4
  7
sei_cad.ctb
 75
     0
147
0.9783703943695685
148
0.0
149
0.0
100
AcDbLayout
  1
Model
 70
     1
 71
     0
 10
0.0
 20
0.0
 11
12.0
 21
9.0
 12
0.0
 22
0.0
 32
0.0
 14
0.0
 24
0.0
 34
0.0
 15
0.0
 25
0.0
 35
0.0
146
0.0
 13
0.0
 23
0.0
 33
0.0
 16
1.0
 26
0.0
 36
0.0
 17
0.0
 27
1.0
 37
0.0
 76
     0
330
1F
1001
ACAD_PSEXT
1000
SII LP-2150 (D-SCAN C2)
1000
SII LP-2150 (D-SCAN C2)
1000
133.153.16.130#3000
1000

1070
     0
  0
LAYOUT
  5
1E
102
{ACAD_REACTORS
330
1A
102
}
330
1A
100
AcDbPlotSettings
  1

  2
Canon LASER SHOT LBP-2030
  4

  6

 40
0.0
 41
0.0
 42
0.0
 43
0.0
 44
0.0
 45
0.0
 46
0.0
 47
0.0
 48
0.0
 49
0.0
140
0.0
141
0.0
142
1.0
143
1.0
 70
   688
 72
     0
 73
     0
 74
     5
  7
sei_cad.ctb
 75
    16
147
1.0
148
0.0
149
0.0
100
AcDbLayout
  1
ﾚｲｱｳﾄ1
 70
     1
 71
     1
 10
0.0
 20
0.0
 11
420.0
 21
297.0
 12
0.0
 22
0.0
 32
0.0
 14
1.000000000000000E+20
 24
1.000000000000000E+20
 34
1.000000000000000E+20
 15
-1.000000000000000E+20
 25
-1.000000000000000E+20
 35
-1.000000000000000E+20
146
0.0
 13
0.0
 23
0.0
 33
0.0
 16
1.0
 26
0.0
 36
0.0
 17
0.0
 27
1.0
 37
0.0
 76
     0
330
1B
  0
LAYOUT
  5
26
102
{ACAD_REACTORS
330
1A
102
}
330
1A
100
AcDbPlotSettings
  1

  2
Canon LASER SHOT LBP-2030
  4

  6

 40
0.0
 41
0.0
 42
0.0
 43
0.0
 44
0.0
 45
0.0
 46
0.0
 47
0.0
 48
0.0
 49
0.0
140
0.0
141
0.0
142
1.0
143
1.0
 70
   688
 72
     0
 73
     0
 74
     5
  7
sei_cad.ctb
 75
    16
147
1.0
148
0.0
149
0.0
100
AcDbLayout
  1
ﾚｲｱｳﾄ2
 70
     1
 71
     2
 10
0.0
 20
0.0
 11
12.0
 21
9.0
 12
0.0
 22
0.0
 32
0.0
 14
0.0
 24
0.0
 34
0.0
 15
0.0
 25
0.0
 35
0.0
146
0.0
 13
0.0
 23
0.0
 33
0.0
 16
1.0
 26
0.0
 36
0.0
 17
0.0
 27
1.0
 37
0.0
 76
     0
330
23
  0
MLINESTYLE
  5
18
102
{ACAD_REACTORS
330
17
102
}
330
17
100
AcDbMlineStyle
  2
STANDARD
 70
     0
  3

 62
   256
 51
90.0
 52
90.0
 71
     2
 49
0.5
 62
   256
  6
BYLAYER
 49
-0.5
 62
   256
  6
BYLAYER
  0
ACDBPLACEHOLDER
  5
F
102
{ACAD_REACTORS
330
E
102
}
330
E
  0
TABLESTYLE
  5
ED4E
102
{ACAD_REACTORS
330
ED4D
102
}
330
ED4D
100
AcDbTableStyle
  3
Standard
 70
     0
 71
     8
 40
1.5
 41
1.5
280
     0
281
     0
  7
STANDARD
140
4.5
170
     2
 62
     0
 63
     7
283
     0
274
    -2
284
     1
 64
     0
275
    -2
285
     1
 65
     0
276
    -2
286
     1
 66
     0
277
    -2
287
     1
 67
     0
278
    -2
288
     1
 68
     0
279
    -2
289
     1
 69
     0
  7
STANDARD
140
6.0
170
     5
 62
     0
 63
     7
283
     0
274
    -2
284
     1
 64
     0
275
    -2
285
     1
 65
     0
276
    -2
286
     1
 66
     0
277
    -2
287
     1
 67
     0
278
    -2
288
     1
 68
     0
279
    -2
289
     1
 69
     0
  7
STANDARD
140
4.5
170
     5
 62
     0
 63
     7
283
     0
274
    -2
284
     1
 64
     0
275
    -2
285
     1
 65
     0
276
    -2
286
     1
 66
     0
277
    -2
287
     1
 67
     0
278
    -2
288
     1
 68
     0
279
    -2
289
     1
 69
     0
  0
XRECORD
  5
170DB
102
{ACAD_REACTORS
330
170DA
102
}
330
170DA
100
AcDbXrecord
280
     1
340
ED4C
  0
XRECORD
  5
170DC
102
{ACAD_REACTORS
330
170DA
102
}
330
170DA
100
AcDbXrecord
280
     1
340
ED4B
  0
DICTIONARYVAR
  5
EE09
102
{ACAD_REACTORS
330
30
102
}
330
30
100
DictionaryVariables
280
     0
  1
STANDARD
  0
DICTIONARYVAR
  5
170D9
102
{ACAD_REACTORS
330
30
102
}
330
30
100
DictionaryVariables
280
     0
  1
0
  0
DICTIONARYVAR
  5
170D8
102
{ACAD_REACTORS
330
30
102
}
330
30
100
DictionaryVariables
280
     0
  1
1
  0
ACAD_PROXY_OBJECT
  5
4E
102
{ACAD_REACTORS
330
4D
102
}
330
4D
100
AcDbProxyObject
 90
      499
 91
      520
 95
       25
 70
     0
 93
      118
310
405010040CA904C415CD5B075DD208
350
4F
 94
        0
  0
DICTIONARY
  5
17E
102
{ACAD_REACTORS
330
4D
102
}
330
4D
100
AcDbDictionary
281
     1
  3
ISO
350
F94D
  3
JIS
350
17F
  0
XRECORD
  5
EDA8
102
{ACAD_REACTORS
330
4D
102
}
330
4D
100
AcDbXrecord
280
     1
 90
-1023410169
  0
ACAD_PROXY_OBJECT
  5
33
330
2E
100
AcDbProxyObject
 90
      499
 91
      508
 95
       25
 70
     0
 93
      156
310
00010143D050D351505391D5531054925390D490
330
2E
 94
        0
  0
ACAD_PROXY_OBJECT
  5
34
330
2E
100
AcDbProxyObject
 90
      499
 91
      508
 95
       25
 70
     0
 93
      148
310
000101439050D351531253915054925390D490
330
2E
 94
        0
  0
ACAD_PROXY_OBJECT
  5
35
330
2E
100
AcDbProxyObject
 90
      499
 91
      509
 95
       25
 70
     0
 93
      156
310
000101439050D35154D6535093D314D256915080
330
2E
 94
        0
  0
ACAD_PROXY_OBJECT
  5
37
330
2E
100
AcDbProxyObject
 90
      499
 91
      511
 95
       25
 70
     0
 93
       88
310
000101411093D34C402B00
330
2E
330
0
330
0
 94
        0
  0
ACAD_PROXY_OBJECT
  5
6B
330
2E
100
AcDbProxyObject
 90
      499
 91
      509
 95
       25
 70
     0
 93
      108
310
00010142505351D153D35054D4E0
330
2E
 94
        0
  0
ACAD_PROXY_OBJECT
  5
6C
330
2E
100
AcDbProxyObject
 90
      499
 91
      522
 95
       25
 70
     0
 93
      140
310
00010142105350D55494D511005034A49530
330
2E
 94
        0
  0
ACAD_PROXY_OBJECT
  5
ED60
330
2E
100
AcDbProxyObject
 90
      499
 91
      536
 95
       25
 70
     0
 93
      486
310
0001014124FEA55D00507392E312E302E34014124FEA55D00507392E322E302E324050100004157D554D1548182D4454FB21E93F2E07A17AD46E278FD8
330
2E
330
ED61
330
ED67
 94
        0
  0
ACAD_PROXY_OBJECT
  5
ED61
330
2E
100
AcDbProxyObject
 90
      499
 91
      537
 95
       25
 70
     0
 93
       56
310
000190240E0000
330
2E
330
ED62
330
ED64
 94
        0
  0
ACAD_PROXY_OBJECT
  5
ED62
330
2E
100
AcDbProxyObject
 90
      499
 91
      538
 95
       25
 70
     0
 93
       48
310
0001AA000000
330
2E
330
1E
330
ED63
330
0
 94
        0
  0
ACAD_PROXY_OBJECT
  5
ED63
330
2E
100
AcDbProxyObject
 90
      499
 91
      539
 95
       25
 70
     0
 93
       28
310
0001AAA0
330
2E
 94
        0
  0
ACAD_PROXY_OBJECT
  5
ED64
330
2E
100
AcDbProxyObject
 90
      499
 91
      538
 95
       25
 70
     0
 93
       48
310
0001AA000000
330
2E
330
26
330
ED65
330
0
 94
        0
  0
ACAD_PROXY_OBJECT
  5
ED65
330
2E
100
AcDbProxyObject
 90
      499
 91
      539
 95
       25
 70
     0
 93
       28
310
0001AAA0
330
2E
 94
        0
  0
ACAD_PROXY_OBJECT
  5
ED68
330
2E
100
AcDbProxyObject
 90
      499
 91
      509
 95
       25
 70
     0
 93
      108
310
000101421053521310D05310D010
330
2E
 94
        0
  0
ACAD_PROXY_OBJECT
  5
ED69
330
2E
100
AcDbProxyObject
 90
      499
 91
      509
 95
       25
 70
     0
 93
      124
310
00010142905354915554D15112535010
330
2E
 94
        0
  0
ACAD_PROXY_OBJECT
  5
ED6A
330
2E
100
AcDbProxyObject
 90
      499
 91
      509
 95
       25
 70
     0
 93
      132
310
00010143105354D150D51253D391125360
330
2E
 94
        0
  0
ACAD_PROXY_OBJECT
  5
ED6B
330
2E
100
AcDbProxyObject
 90
      499
 91
      509
 95
       25
 70
     0
 93
      124
310
00010142905355941093D49111549010
330
2E
 94
        0
  0
ACAD_PROXY_OBJECT
  5
ED6C
330
2E
100
AcDbProxyObject
 90
      499
 91
      509
 95
       25
 70
     0
 93
      116
310
0001014290535115D1D0D3D313D4A0
330
2E
 94
        0
  0
ACAD_PROXY_OBJECT
  5
ED6D
330
2E
100
AcDbProxyObject
 90
      499
 91
      509
 95
       25
 70
     0
 93
      148
310
00010143505355925155D49151949154D21010
330
2E
 94
        0
  0
ACAD_PROXY_OBJECT
  5
ED6E
330
2E
100
AcDbProxyObject
 90
      499
 91
      509
 95
       25
 70
     0
 93
      172
310
00010144105350539393D51154149154D15495915010
330
2E
 94
        0
  0
ACAD_PROXY_OBJECT
  5
ED6F
330
2E
100
AcDbProxyObject
 90
      499
 91
      509
 95
       25
 70
     0
 93
      172
310
00010144105350555513D11253505494905391D15010
330
2E
 94
        0
  0
ACAD_PROXY_OBJECT
  5
ED70
330
2E
100
AcDbProxyObject
 90
      499
 91
      509
 95
       25
 70
     0
 93
      124
310
00010142D05351561514915191125360
330
2E
 94
        0
  0
ACAD_PROXY_OBJECT
  5
ED71
330
2E
100
AcDbProxyObject
 90
      499
 91
      509
 95
       25
 70
     0
 93
      132
310
00010142D05355105410539393D5115010
330
2E
 94
        0
  0
ACAD_PROXY_OBJECT
  5
ED72
330
2E
100
AcDbProxyObject
 90
      499
 91
      509
 95
       25
 70
     0
 93
      108
310
00010142105350555513D0D31010
330
2E
 94
        0
  0
ACAD_PROXY_OBJECT
  5
ED73
330
2E
100
AcDbProxyObject
 90
      499
 91
      509
 95
       25
 70
     0
 93
      108
310
00010142105350D3119150551050
330
2E
 94
        0
  0
ACAD_PROXY_OBJECT
  5
ED74
330
2E
100
AcDbProxyObject
 90
      499
 91
      509
 95
       25
 70
     0
 93
      108
310
00010142105350D315925155D3F0
330
2E
 94
        0
  0
ACAD_PROXY_OBJECT
  5
ED75
330
2E
100
AcDbProxyObject
 90
      499
 91
      509
 95
       25
 70
     0
 93
      148
310
0001014350535212511156915493D112535010
330
2E
 94
        0
  0
ACAD_PROXY_OBJECT
  5
ED76
330
2E
100
AcDbProxyObject
 90
      499
 91
      509
 95
       25
 70
     0
 93
      124
310
00010142905352105510D21254D3D010
330
2E
 94
        0
  0
ACAD_PROXY_OBJECT
  5
ED77
330
2E
100
AcDbProxyObject
 90
      499
 91
      509
 95
       25
 70
     0
 93
      148
310
00010143905354D25391D31152105513105660
330
2E
 94
        0
  0
ACAD_PROXY_OBJECT
  5
ED78
330
2E
100
AcDbProxyObject
 90
      499
 91
      509
 95
       25
 70
     0
 93
      124
310
00010142D0535115D1D193111254D420
330
2E
 94
        0
  0
ACAD_PROXY_OBJECT
  5
ED79
330
2E
100
AcDbProxyObject
 90
      499
 91
      509
 95
       25
 70
     0
 93
      100
310
00010142105350555513D213A0
330
2E
 94
        0
  0
ACAD_PROXY_OBJECT
  5
ED7A
330
2E
100
AcDbProxyObject
 90
      499
 91
      509
 95
       25
 70
     0
 93
      116
310
000101425053521390D3D553951010
330
2E
 94
        0
  0
ACAD_PROXY_OBJECT
  5
ED7B
330
2E
100
AcDbProxyObject
 90
      499
 91
      509
 95
       25
 70
     0
 93
      108
310
0001014210535213941493D29010
330
2E
 94
        0
  0
ACAD_PROXY_OBJECT
  5
ED7C
330
2E
100
AcDbProxyObject
 90
      499
 91
      509
 95
       25
 70
     0
 93
      108
310
0001014210535213951654115070
330
2E
 94
        0
  0
ACAD_PROXY_OBJECT
  5
ED7D
330
2E
100
AcDbProxyObject
 90
      499
 91
      509
 95
       25
 70
     0
 93
      108
310
000101421053521395925155D0F0
330
2E
 94
        0
  0
ACAD_PROXY_OBJECT
  5
ED7E
330
2E
100
AcDbProxyObject
 90
      499
 91
      509
 95
       25
 70
     0
 93
      140
310
00010143505354D150D51253D390D3D41660
330
2E
 94
        0
  0
ACAD_PROXY_OBJECT
  5
ED7F
330
2E
100
AcDbProxyObject
 90
      499
 91
      509
 95
       25
 70
     0
 93
      108
310
00010142105350D3141493D29030
330
2E
 94
        0
  0
ACAD_PROXY_OBJECT
  5
ED80
330
2E
100
AcDbProxyObject
 90
      499
 91
      508
 95
       25
 70
     0
 93
      212
310
00010143905350555513D2105510D21493D500000000000002E400
330
2E
 94
        0
  0
ACAD_PROXY_OBJECT
  5
ED81
330
2E
100
AcDbProxyObject
 90
      499
 91
      509
 95
       25
 70
     0
 93
      156
310
00010143905350555513D2105510D21111551010
330
2E
 94
        0
  0
ACAD_PROXY_OBJECT
  5
ED8D
330
2E
100
AcDbProxyObject
 90
      499
 91
      547
 95
       25
 70
     0
 93
      698
310
0001000000009AA6A9AA4051E546875204170722032312030303A33303A353620323030352028555443290141CE4B8C4B8C0B8D00518576564205365702030312030393A30343A323620323031300141CE4B8C8B8C0B8C80
330
2E
330
ED8E
330
ED8F
330
ED91
330
0
 94
        0
  0
ACAD_PROXY_OBJECT
  5
ED8E
330
2E
100
AcDbProxyObject
 90
      499
 91
      548
 95
       25
 70
     0
 93
       70
310
0001AAA80820000000
330
2E
330
ED8E
330
ED8E
 94
        0
  0
ACAD_PROXY_OBJECT
  5
ED8F
330
2E
100
AcDbProxyObject
 90
      499
 91
      549
 95
       25
 70
     0
 93
       48
310
000100000000
330
2E
330
0
330
ED90
330
0
330
0
 94
        0
  0
ACAD_PROXY_OBJECT
  5
ED90
330
2E
100
AcDbProxyObject
 90
      499
 91
      550
 95
       25
 70
     0
 93
       40
310
000100AAAA
330
2E
330
0
 94
        0
  0
ACAD_PROXY_OBJECT
  5
ED96
330
2E
100
AcDbProxyObject
 90
      499
 91
      522
 95
       25
 70
     0
 93
      180
310
00010143105050D3D35411119390535140504434F4D500
330
2E
 94
        0
  0
ACAD_PROXY_OBJECT
  5
ED97
330
2E
100
AcDbProxyObject
 90
      499
 91
      522
 95
       25
 70
     0
 93
      212
310
0001014390505193D311115491119390535140506466F6C6465720
330
2E
 94
        0
  0
ACAD_PROXY_OBJECT
  5
ED98
330
2E
100
AcDbProxyObject
 90
      499
 91
      522
 95
       25
 70
     0
 93
      180
310
00010143105050539393D1119390535140504284156290
330
2E
 94
        0
  0
ACAD_PROXY_OBJECT
  5
ED99
330
2E
100
AcDbProxyObject
 90
      499
 91
      522
 95
       25
 70
     0
 93
      436
310
00010143905050D3D35415925155D31254D50052295BD96CA0A90B396CA0A894591A496CA0A8DB691A496CA0A89BA96CA0A95E28F95310
330
2E
 94
        0
  0
ACAD_PROXY_OBJECT
  5
ED9E
330
2E
100
AcDbProxyObject
 90
      499
 91
      555
 95
       25
 70
     0
 93
       32
310
00010000
330
2E
340
ED9B
330
EDA0
330
ED9B
 94
        0
  0
ACAD_PROXY_OBJECT
  5
ED9F
330
2E
100
AcDbProxyObject
 90
      499
 91
      556
 95
       25
 70
     0
 93
       18
310
000180
330
2E
 94
        0
  0
ACAD_PROXY_OBJECT
  5
EDA0
330
2E
100
AcDbProxyObject
 90
      499
 91
      557
 95
       25
 70
     0
 93
      186
310
000101431114D093948CCC8CCC940C4D5050055401550000
330
2E
330
ED9E
330
ED9F
 94
        0
  0
ACAD_PROXY_OBJECT
  5
EDA1
330
2E
100
AcDbProxyObject
 90
      499
 91
      558
 95
       25
 70
     0
 93
      178
310
000100AAAAAABAC03B2E67439410EA36E89D743EA29000
330
2E
330
EDA0
 94
        0
  0
ACAD_PROXY_OBJECT
  5
EDA2
330
2E
100
AcDbProxyObject
 90
      499
 91
      559
 95
       25
 70
     0
 93
      108
310
000190140A000000000000AAAAA0
330
2E
330
EDA3
330
EDA3
330
EDA3
330
EDA3
330
EDA3
330
0
 94
        0
  0
ACAD_PROXY_OBJECT
  5
EDA3
330
2E
100
AcDbProxyObject
 90
      499
 91
      560
 95
       25
 70
     0
 93
       51
310
00010000AAAA80
330
2E
330
EDA2
330
EDA0
 94
        0
  0
ACAD_PROXY_OBJECT
  5
EDCB
330
2E
100
AcDbProxyObject
 90
      499
 91
      509
 95
       25
 70
     0
 93
      140
310
0001014350535311D0D3D313D49353D11160
330
2E
 94
        0
  0
DICTIONARY
  5
40
102
{ACAD_REACTORS
330
3F
102
}
330
3F
100
AcDbDictionary
281
     1
  3
DWGSETTINGS
350
41
  3
FEM
350
69
  3
Shaft
350
56
  3
TRANSSETTINGS
350
4C
  0
ACAD_PROXY_OBJECT
  5
42
102
{ACAD_REACTORS
330
3F
102
}
330
3F
100
AcDbProxyObject
 90
      499
 91
      519
 95
       25
 70
     0
 93
    23232
310
41502491013041105357CC201C00030C011E441013141105357CC603800030C011E441013241105357CCA01400030C011E441013341105357CCE01800030C010D9013441105357CD200C00030C010D9013541105357CD600C00030C010D9013641105357CDA00800030C011E9013741105357CDE01000030C010D901384110
310
5357CE200400030C011E9013941105357CE63F400030C0241102324141505357CC4C201C00030C011E902344141505357CC4C600C00030C010D902495041505357CC4CA01C00030C011E40902304E41505357CC13A01C00030C011E902314E41505357CC53A03800030C011E902324E41505357CC93A01400030C011E90233
310
4E41505357CCD3A01800030C010D902344E41505357CD13A00C00030C010D902354E41505357CD53A00C00030C010D902364E41505357CD93A00800030C011E902374E41505357CDD3A01000030C010D902384E41505357CE13A00400030C011E902394E41505357CE53A3F400030C024110332414E41905357CC4C13A01C0
310
0030C011E90334414E41905357CC4C53A00C00030C010D90349504E41905357CC4C93A01C00030C011E409044B4C494E41505357D0D3200400030C011E42504494E464F42105357D410549151A01000030C010D42D055241484D3541905357D093D4A01C00030C011E425045649455742105357D5925155D4E00400030C011
310
E42D06424548494E4441905357D25395A3F400030C0243505545241494C41505357D514A00C00030C010D4250348494441905357D21251201C00030C011E4250356495341905357D59254E01C00030C011E4250650415244494D42505357D41054911253600C00030C010D4250652454644494D42505357D49151911253601
310
000030C010D425774110531514901348070000C300479034110915312501348000000C0003FFFFFFFD034110921395901398000000C0003FFFFFFFE415092139594D06424548494E448000000C0003FFFFFFFE411093125110234418000000C0003FFFFFFFD03411093D05410234418000000C0003FFFFFFFD03411093D48C
310
9055241484D358010000C30047A411093D48CD055241484D358020000C30047A411093D48D5055241484D358000000C0003FFFFFFFE411093D48DD055241484D3581E0000C30047903411094105410234418000000C0003FFFFFFFD03411094115610234418000000C0003FFFFFFFD034110951112501358000000C0003FFF
310
FFFFD034110D0530C901348000000C0003FFFFFFFE4110D0530CD01348020000C30047A4110D0530D501348070000C30047A4110D0530DD013481E0000C30047A4110D15393901378000000C0003FFFFFFFE4110D15395D01378000000C0003FFFFFFFE4110D312539044B4C494E8000000C0003FFFFFFFE4110D3D38C5013
310
08000000C0003FFFFFFFD034110D3D38C901318000000C0003FFFFFFFD034110D3D38CD01328000000C0003FFFFFFFD034110D3D38D101328000000C0003FFFFFFFD034111115494101348000000C0003FFFFFFFD034111115510501348000000C0003FFFFFFFE4111125051D01358000000C0003FFFFFFFE4111125312501
310
358000000C0003FFFFFFFE411112535410650415244494D8000000C0003FFFFFFFE411112535490652454644494D8000000C0003FFFFFFFE411156135410234418000000C0003FFFFFFFD034111915353901388000000C0003FFFFFFFE415191535413901388030000C3004364151915354D410234418000000C0003FFFFFF
310
FE4151915354D510234418030000C300436415191535593901328000000C0003FFFFFFFE415191535595101328030000C3004364111931055101308000000C0003FFFFFFFD03411194905490234418000000C0003FFFFFFFD034111D49312501358000000C0003FFFFFFFD034111D5931250234418000000C0003FFFFFFFD0
310
34112105510D01388000000C0003FFFFFFFD014112125113901338000000C0003FFFFFFFD034112125115D01338000000C0003FFFFFFFD034112131253901348000000C0003FFFFFFFD01411213D0D3901378000000C0003FFFFFFFE411213D0D5D01378000000C0003FFFFFFFE4112539193D04494E464F8000000C0003FF
310
FFFFFE4113105112501348000000C0003FFFFFFFD034113115051101358000000C0003FFFFFFFE419397D0921395902394E8000000C0003FFFFFFFE419397D0D3D38C502304E8000000C0003FFFFFFFD03419397D0D3D38C902314E8000000C0003FFFFFFFD03419397D0D3D38CD02324E8000000C0003FFFFFFFD03419397
310
D0D3D38D102324E8000000C0003FFFFFFFD03419397D0D15393902374E8000000C0003FFFFFFFE419397D0D15395D02374E8000000C0003FFFFFFFE419397D1125312502354E8000000C0003FFFFFFFE419397D2105510D02384E8000000C0003FFFFFFFD01419397D2125113902334E8000000C0003FFFFFFFD03419397D2
310
125115D02334E8000000C0003FFFFFFFD03419397D3115051102354E8000000C0003FFFFFFFE419397D391D25410349504E8000000C0003FFFFFFFE419397D412105390334414E8000000C0003FFFFFFFE419397D510D3D3902304E8000000C0003FFFFFFFD03419397D5121312502344E8000000C0003FFFFFFFD01419397
310
D5131153902304E8000000C0003FFFFFFFD03419397D516150CD02364E8000000C0003FFFFFFFD03419397D594131250332414E8000000C0003FFFFFFFE411391D25410249508000000C0003FFFFFFFE411410530C9055241484D358010000C30047A411410530CD055241484D358020000C30047A411410530D5055241484
310
D358000000C0003FFFFFFFE411410530DD055241484D3581E0000C30047903411412105390234418000000C0003FFFFFFFE411413D4D3901368070000C30047A419413D4D49151901368050000C30047903411413D4D6101368000000C0003FFFFFFFD03411414D150D0234418000000C0003FFFFFFFD03411490D1D390137
310
8000000C0003FFFFFFFE411490D1D5D01378000000C0003FFFFFFFE4114919112501348000000C0003FFFFFFFD034114945514901348070000C30047903411494D093D01348000000C0003FFFFFFFD034114D09492D01348000000C0003FFFFFFFD014114D0D153901378000000C0003FFFFFFFD034114D150D51013480000
310
00C0003FFFFFFFD014114D15313901378000000C0003FFFFFFFD034114D15315D01378000000C0003FFFFFFFD034114D4D654D01308000000C0003FFFFFFFD034114D51312501348070000C300479034114D6508C501358000000C0003FFFFFFFD034114D6508C901358000000C0003FFFFFFFD034114D6508CD0135802000
310
0C30047A4114D6508D501358070000C300479034114D65353901378000000C0003FFFFFFFD034114D65355D01378000000C0003FFFFFFFD03411510D3D3901308000000C0003FFFFFFFD034115121312501348000000C0003FFFFFFFD01411512550C9055241484D358010000C30047A411512550CD055241484D358020000
310
C30047A411512550D5055241484D358000000C0003FFFFFFFE411512550DD055241484D3581E0000C300479034115131153901308000000C0003FFFFFFFD03415514905253105545241494C8000000C0003FFFFFFFE41151492D3901378000000C0003FFFFFFFD0341151492D5D01378000000C0003FFFFFFFD03411514931
310
2501348000000C0003FFFFFFFD01411516150C501368030000C300436411516150C901368030000C300436411516150CD01368000000C0003FFFFFFFE411516150D501368070000C30047A411516150DD013681E0000C30047A4115925155D04564945578000000C0003FFFFFFFE41159151121034849448000000C0003FFF
310
FFFFD0241159151159035649538000000C0003FFFFFFFD02411594131250232418000000C0003FFFFFFFE4116925690501348000000C0003FFFFFFFD01411354D653501358020000C30047AAAA3F400030C01013F90A4051E4091E40D0D4110D4151E4190D41D1E4391E4791E7F6
340
16
340
16
340
16
340
43
340
16
340
16
340
16
340
44
340
16
340
16
340
44
340
45
340
16
340
16
340
16
340
16
340
43
340
16
340
16
340
16
340
44
340
16
340
16
340
44
340
45
340
16
340
46
340
16
340
16
340
16
340
16
340
16
340
43
340
16
340
16
340
16
340
47
340
15
340
15
340
15
340
15
340
15
340
15
340
15
340
15
340
15
340
15
340
15
340
15
340
15
340
15
340
15
340
15
340
48
340
15
340
15
340
15
340
15
340
15
340
15
340
15
340
15
340
15
340
15
340
15
340
15
340
15
340
15
340
15
340
16
340
15
340
15
340
15
340
15
340
15
340
15
340
15
340
15
340
47
340
15
340
15
340
48
340
15
340
15
340
15
340
15
340
15
340
15
340
15
340
15
340
15
340
48
340
15
340
15
340
15
340
47
340
15
340
15
340
15
340
15
340
15
340
15
340
15
340
15
340
15
340
15
340
15
340
15
340
15
340
15
340
15
340
15
340
15
340
15
340
15
340
48
340
15
340
15
340
48
340
15
340
15
340
16
340
15
340
48
340
15
340
15
340
47
340
15
340
15
340
16
340
15
340
48
340
15
340
15
340
15
340
15
340
15
340
15
340
15
340
15
340
15
340
48
340
15
340
15
340
15
340
15
340
15
340
15
340
15
340
15
340
15
340
15
340
15
340
4B
340
16
 94
        0
  0
ACAD_PROXY_OBJECT
  5
62F
102
{ACAD_REACTORS
330
73
102
}
330
73
100
AcDbProxyObject
 90
      499
 91
      523
 95
       25
 70
     0
 93
      253
310
43D1444494D454E53494F4E2C414D44545F2A5F44494D404A9012A404A9012A0
  0
ACAD_PROXY_OBJECT
  5
630
102
{ACAD_REACTORS
330
73
102
}
330
73
100
AcDbProxyObject
 90
      499
 91
      523
 95
       25
 70
     0
 93
      181
310
43D012A42D05357D191504B505357CA9012A404A9012A8
  0
ACAD_PROXY_OBJECT
  5
631
102
{ACAD_REACTORS
330
73
102
}
330
73
100
AcDbProxyObject
 90
      499
 91
      523
 95
       25
 70
     0
 93
      133
310
43D054841544348404A9012A404A9012A8
  0
ACAD_PROXY_OBJECT
  5
632
102
{ACAD_REACTORS
330
73
102
}
330
73
100
AcDbProxyObject
 90
      499
 91
      523
 95
       25
 70
     0
 93
      549
310
43D044C494E4549CE0B0E138B0A8B4E0B0A8B4E138B105357CE0B105357CE138B0A8B505357CE0B0A8B505357CE139012A404A910494E534552542C5354445041525432448
  0
ACAD_PROXY_OBJECT
  5
633
102
{ACAD_REACTORS
330
73
102
}
330
73
100
AcDbProxyObject
 90
      499
 91
      523
 95
       25
 70
     0
 93
      909
310
43D6641434D46434652414D452C41434D444154554D5441524745542C41434D444154554D49442C41434D57454C4453594D2C41434D5355524653594D2C41434D4645415449442C41434D504152545245462C41434D42414C4C4F4F4E2C414D44544544474553594D404A9012A404A9012A8
  0
XRECORD
  5
217B
102
{ACAD_REACTORS
330
217A
102
}
330
217A
100
AcDbXrecord
280
     1
  1
21000753__00___
  0

  0
XRECORD
  5
217D
102
{ACAD_REACTORS
330
217C
102
}
330
217C
100
AcDbXrecord
280
     1
  1
3
  0

  0
XRECORD
  5
EDCA
102
{ACAD_REACTORS
330
EDC9
102
}
330
EDC9
100
AcDbXrecord
280
     1
 90
-1073741824
  0
ACAD_PROXY_OBJECT
  5
4F
102
{ACAD_REACTORS
330
4E
102
}
330
4E
100
AcDbProxyObject
 90
      499
 91
      521
 95
       25
 70
     0
 93
      157
310
057356C1D77406406AA8FFFFFFFF05DD01009010
330
1F
330
0
330
EDA0
 94
        0
  0
ACAD_PROXY_OBJECT
  5
F94D
102
{ACAD_REACTORS
330
17E
102
}
330
17E
100
AcDbProxyObject
 90
      499
 91
      577
 95
       25
 70
     0
 93
     2497
310
5DC0000000000000C408030000C30040D254D3D01640600800030C0200800030C000000000000000C40C88A2085A0B6B23A22B233B2A9BA3220480A1C82C6DAA6EAE4CCA8CAF0E8A6E8C88120284A0B1B6A321A329BA3220480A1A82C6DAAECAD8C8D2DCCEA6E8C8812028420B1B6A4B229BA3220480A1682C6DA88C2E8EAD
310
AA6E8C88120284A0B1B6A127A6A9BA3220480A2082DAC8E888CAE8C2D2D8A6F2DAA6E8C88120288A0B6B23A29B2B1BA34B7B729BCB6A9BA3220480A2282DAC8E886CADCE8CAE498D2DCCAA6E8C88120288A0B6B23A2A343932B0B22634B732A9BA3220480A1682DAC8E89CDEE8CAA6E8C88120285A0B1A0B6B3A630BCA9BA3
310
220480A1682C682DACE88D2DAA6E8C88120288A0B1A0B6B3A437B632A1B430B93A29BA3220480A1A82C682DACEA8D2E8D8CAA6E8C8812032048080
340
F5A9
360
F94E
360
F94F
360
F950
360
F951
360
F952
360
F953
360
F954
360
F955
360
F956
360
F957
360
F958
360
F959
360
F95F
360
F960
360
F961
360
F962
340
0
340
0
 94
        0
  0
ACAD_PROXY_OBJECT
  5
17F
102
{ACAD_REACTORS
330
17E
102
}
330
17E
100
AcDbProxyObject
 90
      499
 91
      526
 95
       25
 70
     0
 93
     2379
310
5DC33333333333309408000000C00040D29254D01640600800030C0200800030C003333333333330940C8121E8720B1B6A9BAB9332A32BC3A29BA3220480A1282C6DA8C868CA6E8C88120286A0B1B6ABB2B63234B733A9BA3220480A1082C6DA92C8A6E8C88120285A0B1B6A230BA3AB6A9BA3220480A1282C6DA849E9AA6E
310
8C88120286A0B1A0B6B3AA34BA3632A9BA3220480A2082DAC8E888CAE8C2D2D8A6F2DAA6E8C88120288A0B6B23A29B2B1BA34B7B729BCB6A9BA3220480A2282DAC8E886CADCE8CAE498D2DCCAA6E8C88120288A0B6B23A2A343932B0B22634B732A9BA3220480A1682DAC8E89CDEE8CAA6E8C88120285A0B1A0B6B3A630BCA
310
9BA3220480A1682C682DACE88D2DAA6E8C88120288A0B1A0B6B3A437B632A1B430B93A29BA3220480C812020
340
180
360
181
360
182
360
183
360
184
360
185
360
186
360
EDA5
360
EDA6
360
EDA7
360
EDA9
360
EDAA
360
EDAB
360
EDB1
360
EDB2
360
EDB3
340
0
340
0
 94
        0
  0
ACAD_PROXY_OBJECT
  5
41
102
{ACAD_REACTORS
330
40
102
}
330
40
100
AcDbProxyObject
 90
      499
 91
      518
 95
       25
 70
     0
 93
     2954
310
4050B44574753455454494E4753A0E8482A68AA6A88882A069492A684A1A0A723A0A92920ACA0A811A1AA0C868A9C829C8E82A12686AF87260F862666A8321A2A72224A0A50602A2140ECC009A020E868A9C889282A682A106260F86460F8666083A1A2A72224A9AA250000000000000042020C868A9C988A9C94000000000
310
000048808321A2A727A323250000000000000122020E868A9C9E8C8C62940000000000000488083A1A2A727A32319250000000000000122021CC6D0C2DACCCAE4C8D2DADADEC8CA9FC84A1A624A720A92920ACA0A819A971AA108698929C8AA8B2A082A0AB098929C8A84A22BA3AAA9A1A0A622A50A0E9882A6A89E849482A
310
02608426A0A5A2AB24A2ABA7E8120CA0A68682988A0C00800010652455649534941501304154D0D0531150540CC4E8C5085354414E44415244415034A4953425512535154D51053541283E3FDC545C8ADCD050756455253494F4E4150531352E3030441ED115D1D4D15515125391D4D153911F40
  0
ACAD_PROXY_OBJECT
  5
69
102
{ACAD_REACTORS
330
40
102
}
330
40
100
AcDbProxyObject
 90
      499
 91
      518
 95
       25
 70
     0
 93
      411
310
4050346454D21092DCC6E486DECACC942842630BCA3B937BAB820A8320A6AFA322A0A20F688AE8EA68AA8A8929C8EA68A9C88FA0
  0
ACAD_PROXY_OBJECT
  5
56
102
{ACAD_REACTORS
330
40
102
}
330
40
100
AcDbProxyObject
 90
      499
 91
      518
 95
       25
 70
     0
 93
      583
310
40505536861667421292DCE8CAE4E4EAE0E89FA0484A634B3B43A2634B732A7F21A98D2CED0E898D2DCCAACD2CAEE9FC8229B4B232A7E80A20F688AE8EA68AA8A8929C8EA68A9C88FA
  0
ACAD_PROXY_OBJECT
  5
4C
102
{ACAD_REACTORS
330
40
102
}
330
40
100
AcDbProxyObject
 90
      499
 91
      518
 95
       25
 70
     0
 93
      852
310
4050D5452414E5353455454494E4753A2488A482AE929C8EA8A4829CA69882A8929E9C0C00800050D4F524947494E414C4C595F4F4E0600400028529A7AAA921A2A620A723A0A81A52827212AAA0A48AA68AA4AC8A0C0080001107B44574753455454494E4753454E447D0
  0
ACAD_PROXY_OBJECT
  5
F94E
330
F94D
100
AcDbProxyObject
 90
      499
 91
      578
 95
       25
 70
     0
 93
       13
310
5DD8
  0
ACAD_PROXY_OBJECT
  5
F94F
330
F94D
100
AcDbProxyObject
 90
      499
 91
      579
 95
       25
 70
     0
 93
       96
310
5DEA0E80A0280A0280A0280F
  0
ACAD_PROXY_OBJECT
  5
F950
330
F94D
100
AcDbProxyObject
 90
      499
 91
      580
 95
       25
 70
     0
 93
      272
310
5DD0E4050140501405014050140501405014050140D01405012C0000000000000040
340
F5AA
 94
        0
  0
ACAD_PROXY_OBJECT
  5
F951
330
F94D
100
AcDbProxyObject
 90
      499
 91
      581
 95
       25
 70
     0
 93
      497
310
5DE8666666666667A67E199999999999E99FD22405014050140501405014050140501405014050140501405014050140501405014050140501405014050100
340
F5A5
 94
        0
  0
ACAD_PROXY_OBJECT
  5
F952
330
F94D
100
AcDbProxyObject
 90
      499
 91
      582
 95
       25
 70
     0
 93
       10
310
5DC0
  0
ACAD_PROXY_OBJECT
  5
F953
330
F94D
100
AcDbProxyObject
 90
      499
 91
      583
 95
       25
 70
     0
 93
      257
310
5DE290EA22A7D90F49F80000000000001081400000000000004204010000618000
340
F5A6
340
F5A7
 94
        0
  0
ACAD_PROXY_OBJECT
  5
F954
330
F94D
100
AcDbProxyObject
 90
      499
 91
      584
 95
       25
 70
     0
 93
    13013
310
5DD0E411255115350141236025B690140501406901000000000000091013347454E545241434F2C4A504E2C302C8D8096DA2C47454E54524154582C25732C2847454E4D53472067656E647767203232322940690120281A8AA2CA0282484A4BE52028120280A0320200000000000012202668E8A9CA8A482869E5894A09C58
310
605921292F94588E8A9CA8A482A8B0584AE658508E8A9C9AA68E40CECADCC8EECE406464665280D202405044E414D454050496BC914F4051C40640A80000000000004E404CD1D15395149050D3CB1294138B0C0B25AF2453CB11D15395149055160B095CCB0A11D1539354D1C819D95B991DD9C80C8C8D8A50192C3D494628
310
4953424C414E4B28504152543A4E414D45292C424C4F434B3A4E414D452C504152543A4E414D452940480A0A888AA686A480A09251B1DBE80A3A80C81D0000000000100A28099A3A2A72A2920A1A7962528271618164946C76F9623A2A72A2920AA2C1612B9961423A2A726A9A39033B2B7323BB39019189B94A0348090142
310
14D51053911054911014122D2E29A50147501904A000000000000125013347454E545241434F2C4A504E2C302C8B4B8A692C47454E54524154582C25732C2847454E4D53472067656E64776720323138294069012028426A0AA22A924A0A62028246EF4BDFA028EA0320B40000000000001CA02668E8A9CA8A482869E5894A
310
09C5860591BBD2F7E588E8A9CA8A482A8B0584AE658508E8A9C9AA68E40CECADCC8EECE406464625280D202405044E4F544540504928D8B4C4051D40641A80000000000003E404CD1D15395149050D3CB1294138B0C0B24A362D30B11D15395149055160B095CCB0A11D1539354D1C819D95B991DD9C80C8C8D4A501240480
310
A0CAC8A9C889EA480A1106F1072706BF02B680A3A80C83D00000000000007C809BA3A2A72A2920A1A79625282716181641BC41C9C1AFC0AD9623A2A72A2920AA2C1612B9961423A2A726A9A39033B2B7323BB39019191A14A0248090141911154D0D48C90141A43825AF880C90147501908A000000000020145013447454E5
310
45241434F2C4A504E2C302C90E096BE20322C47454E54524154582C25732C2847454E4D53472067656E6477672033362940490120284A9AA20A72220A922192028345A5C53490192028EA03213400000000000024A026A8E8A9CA8A482869E5894A09C586059169714D24064588E8A9CA8A482A8B0584AE658508E8A9C9AA6
310
8E40CECADCC8EECE4064646052809202405094D4154455249414C32405068DDE97BF20324051D40642A8713D0AD7A37045404D11D15395149050D3CB1294138B0C0B2377A5EFC80C8B11D15395149055160B095CCB0A11D1539354D1C819D95B991DD9C80D0C0A501240480A089A82A6A680A091D7F2F9480A3A80A0485A06
310
8100000000000007C809923A2A72A2920A1A796252827161816475FCBE51623A2A72A2920AA2C1612B9961423A2A726A9A39033B2B7323BB3901A1914A024809014154149250D150141226FE29A501475014090C409020000000000000F9013247454E545241434F2C4A504E2C302C89BF8A692C47454E54524154582C2573
310
2C2847454E4D53472067656E6477672034332940490120281A224A6A02824850CB202028EA028121A81A040000000000001F202648E8A9CA8A482869E5894A09C58605921432C80588E8A9CA8A482A8B0584AE658508E8A9C9AA68E40CECADCC8EECE406868528092024050E445020000000000000510201C00030C0001018
310
0000000000003E400000000000000F901073D3C4954454D3E4050180000000000003E400000000000000F901073D3C4954454D3E40501800000000000034400000000000000D101073D3C4954454D3E40501800000000000034400000000000000D101073D3C4954454D3E405029010000000000000F9000000000000003E4
310
041CF4F125511534F901418F4F1455164F9014060000000000000F9000000000000003E4041CF4F125511534F9014060000000000000D100000000000000344041CF4F125511534F901901000000000000000F9000000000000003E40A2200000000000008204018000618048220681A048120280C88214844882034852034
310
8452028521485214814000000000000F0BF0000000000003C2FD018020000C3008070000C3003373333333333B0FCCDCCCCCCCCCCEC3F000000000000031012034164050341105901A000000000000062040100006180401000061804008000618008098A02808
340
0
340
0
 94
        0
  0
ACAD_PROXY_OBJECT
  5
F955
330
F94D
100
AcDbProxyObject
 90
      499
 91
      585
 95
       25
 70
     0
 93
      898
310
5DC4000000000000144048CF4F11115510525317D3105091530F880A0F11115510525317D05094D4D0D053114F8A51141C9A9999999999B93F26A666666666724FC000000000000E03F400000000000000400000000000000510000000000000024408070000C300000000000000051000
340
16
340
F5A9
 94
        0
  0
ACAD_PROXY_OBJECT
  5
F956
330
F94D
100
AcDbProxyObject
 90
      499
 91
      586
 95
       25
 70
     0
 93
      823
310
5DC0B00000000000002880959E9E29A2A1AA24A7A72FA620A122A62FA324A929AA1F169E29A2A1AA24A7A72FA620A122A62FA620A9AA1F000000000000048803FFFE01C00030C0088C0380006180000000000000048800000000000000A2000000000000002880
340
652
340
F5A9
 94
        0
  0
ACAD_PROXY_OBJECT
  5
F957
330
F94D
100
AcDbProxyObject
 90
      499
 91
      587
 95
       25
 70
     0
 93
      152
310
5DE80000000000000840A3D0A5723F0BD1F200
  0
ACAD_PROXY_OBJECT
  5
F958
330
F94D
100
AcDbProxyObject
 90
      499
 91
      588
 95
       25
 70
     0
 93
       14
310
5DE0
340
0
 94
        0
  0
ACAD_PROXY_OBJECT
  5
F959
330
F94D
100
AcDbProxyObject
 90
      499
 91
      589
 95
       25
 70
     0
 93
     8619
310
5DD084050BA4050AA405024050E836583938376838C815B836720314043A013D2525633C486F6C653A63746469613E2078203C486F6C653A637464657074683E20555C503C696628657175616C28486F6C653A7461707065642C223022292C22252563222C486F6C653A6E6F6D696E616C202220782022293E3C6966286571
310
75616C28486F6C653A7461707065642C223022292C486F6C653A6469612C486F6C653A706974636864657363293E3C696628657175616C28486F6C653A7461707065642C223122292C22207820222C2222293E3C696628657175616C28486F6C653A7461707065642C223122292C486F6C653A74617064657074682C222229
310
3E203C696628657175616C28486F6C653A7465726D696E6174696F6E2C223022292C22202F20222C2222293E3C696628657175616C28486F6C653A7465726D696E6174696F6E2C223022292C486F6C653A64657074682C2222293E406901405034050E836583938376838C815B836720314043B013D2525633C486F6C653A6
310
3746469613E2078203C486F6C653A6374616E676C653E2525645C503C696628657175616C28486F6C653A7461707065642C223022292C22252563222C486F6C653A6E6F6D696E616C202220782022293E3C696628657175616C28486F6C653A7461707065642C223022292C486F6C653A6469612C486F6C653A70697463686
310
4657363293E3C696628657175616C28486F6C653A7461707065642C223122292C22207820222C2222293E3C696628657175616C28486F6C653A7461707065642C223122292C486F6C653A74617064657074682C2222293E203C696628657175616C28486F6C653A7465726D696E6174696F6E2C223022292C22202F20222C2
310
222293E3C696628657175616C28486F6C653A7465726D696E6174696F6E2C223022292C486F6C653A64657074682C2222293E406901405014050E836583938376838C815B8367203140416013D3C696628657175616C28486F6C653A7461707065642C223022292C22252563222C486F6C653A6E6F6D696E616C2022207820
310
22293E3C696628657175616C28486F6C653A7461707065642C223022292C486F6C653A6469612C486F6C653A706974636864657363293E3C696628657175616C28486F6C653A7461707065642C223122292C22207820222C2222293E3C696628657175616C28486F6C653A7461707065642C223122292C486F6C653A746170
310
64657074682C2222293E203C696628657175616C28486F6C653A7465726D696E6174696F6E2C223022292C22202F20222C2222293E3C696628657175616C28486F6C653A7465726D696E6174696F6E2C223022292C486F6C653A64657074682C2222293E4069014051E4090E836583938376838C815B83672032405173D3C5
310
35444503A444553433E203C535444503A5354443E40690E836583938376838C815B836720314050C3D3C535444503A444553433E40690240515AAABBA120
360
F95A
330
F95A
360
F95B
330
F95B
360
F95C
330
F95C
360
F95D
360
F95E
330
F95D
330
F95E
 94
        0
  0
ACAD_PROXY_OBJECT
  5
F95F
330
F94D
100
AcDbProxyObject
 90
      499
 91
      568
 95
       25
 70
     0
 93
       26
310
5DD02A80
340
0
 94
        0
  0
ACAD_PROXY_OBJECT
  5
F960
330
F94D
100
AcDbProxyObject
 90
      499
 91
      569
 95
       25
 70
     0
 93
      250
310
5DD020000000000000A1000000000000002440408F0F9023C3E409A0DCFFFF80
340
F5AE
340
0
340
0
340
F5AF
340
F5B0
340
F5B1
340
F5B2
340
F5B3
340
F5B4
340
0
 94
        0
  0
ACAD_PROXY_OBJECT
  5
F961
330
F94D
100
AcDbProxyObject
 90
      499
 91
      590
 95
       25
 70
     0
 93
    13889
310
5DD1D003FFFFFFFD030300030000000000000310200800030C01030300030000000000000310200800030C00050C8DC0955782CC838A83588367014ED1D15395149050D3CB1294138B0C0B23702555E0B320E2A0D620D9CB11D15395149055160B095CCB0A11D1539354D1C819D95B991A5B5E880CCC0A78000C0000000000
310
00000000000000000000010000000000000310200800030C010000000000000310200800030C020143CF4F111959985D5B1D151A5D1B194F8050A8C8A8365815B8375838B014E51D15395149050D3CB1294138B0C0B2322A0D96056E0DD60E2CB11D15395149055160B095CCB0A11D1539354D1C819D95B991A5B5E880CCC4
310
A78000C000000000000000000000000000000010000000000000310200800030C010000000000000310200800030C020143CF4F111959985D5B1D151A5D1B194F90D44111409034110541D0C4350F4050E44D03449074510F000141232D24D7C053247454E545241434F2C4A504E2C302C8CB4935F2C47454E54524154582C
310
25732C2847454E4D53472067656E64696D7A20312900010104002214000281464500A608E8A9CA8A482869E5894A09C5860591914588E8A9CA8A482A8B0584AE658508E8A9C9AA68E40CECADCC8D2DAF4406452029E9E9E27B934B3B4B71F1E24A31427A91424A9A12620A7259427B934B3B4B7149624A9A12620A7259424B
310
A32B6949496111116111711149F1E24BA32B69F00808200111A000140560052F47454E545241434F2C4A504E2C302C582C47454E54524154582C25732C2847454E4D53472067656E64696D7A20332900010100002054000280AC80A5E8E8A9CA8A482869E5894A09C586058B2588E8A9CA8A482A8B0584AE658508E8A9C9AA
310
68E40CECADCC8D2DAF4406852000202000040E800050152014BD1D15395149050D3CB1294138B0C0B148B11D15395149055160B095CCB0A11D1539354D1C819D95B991A5B5E880D8A400040400008250000A0507A6029823A2A72A2920A1A79625282716181641E99623A2A72A2920AA2C1612B9961423A2A726A9A39033B2
310
B73234B6BD101B948000808180105A000140A0F4C053047454E545241434F2C4A504E2C302C83D32C47454E54524154582C25732C2847454E4D53472067656E64696D7A203829000101010020F400028248704B5F00A668E8A9CA8A482869E5894A09C58605921C12D7C588E8A9CA8A482A8B0584AE658508E8A9C9AA68E40
310
CECADCC8D2DAF440646052000200080043280005048B4B8A69014CD1D15395149050D3CB1294138B0C0B22D2E29A4B11D15395149055160B095CCB0A11D1539354D1C819D95B991A5B5E880C8C4A4000400100086D0000A09196926BE029923A2A72A2920A1A796252827161816465A49AF9623A2A72A2920AA2C1612B9961
310
423A2A726A9A39033B2B73234B6BD10189480A02620202080043E80005048D8096DA014CD1D15395149050D3CB1294138B0C0B236025B68B11D15395149055160B095CCB0A11D1539354D1C819D95B991A5B5E880C4D0A4000404140280D0000A190687072706CD06C5069D06B0029DA3A2A72A2920A1A7962528271618164
310
1A1C1C9C1B341B141A741AC1623A2A72A2920AA2C1612B9961423A2A726A9A39033B2B73234B6BD10189A94800080828050EA000143A322A0D0E0E4E0D9A0D8A0D3A0D60053D47454E545241434F2C4A504E2C302C8C8A8343839383668362834E83582C47454E54524154582C25732C2847454E4D53472067656E64696D7A
310
2031372900010105002274000281464500A628E8A9CA8A482869E5894A09C5860591914588E8A9CA8A482A8B0584AE658508E8A9C9AA68E40CECADCC8D2DAF440626C52000202080044A8000504909497CA014CD1D15395149050D3CB1294138B0C0B242525F28B11D15395149055160B095CCB0A11D1539354D1C819D95B9
310
91A5B5E880C4E4A400040418008A521E000000000000001CA040C00000000000034408080000000000006881010000000000000D102040000000000001A204080000000000003440818000000000000728103000000000000125020600000000004028A040000000000000034408000000000000004881000000000000000D
310
102000000000000001A204000000000000003440818000000000000508143C0000000000000039408180000000000006881030000000000000D102060000000000001A2040C00000000000034408180000000000006881030000000000000E5020600000000000024A040C0000000000805140800000000000000688100000
310
00000000009102000000000000001A2040000000000000034408180000000000006881030000000000000A10284220000000878000002020000008380000020400000081800000208000000828000002028900000000
340
0
340
0
340
0
340
0
340
F5A9
340
F5A9
 94
        0
  0
ACAD_PROXY_OBJECT
  5
F962
330
F94D
100
AcDbProxyObject
 90
      499
 91
      561
 95
       25
 70
     0
 93
     7018
310
5DD9740D254D3D0649534F5F4133429254D3D7D5125513115051349534F5F42525F5265766973696F6E6C69737446111413478342028323937783834316D6D2920421254D3D7D04D1E0D11141327835202835393478323130326D6D29421254D3D7D04C9E0D51141347839202832393778313839326D6D29421254D3D7D04D
310
1E0E51141337837202834323078323038306D6D29421254D3D7D04CDE0DD1141347838202832393778313638326D6D29421254D3D7D04D1E0E11141327834202835393478313638326D6D29421254D3D7D04C9E0D10E41312028353934783834316D6D29419254D3D7D04C51141347837202832393778313437316D6D29421
310
254D3D7D04D1E0DD1141347836202832393778313236316D6D29421254D3D7D04D1E0D91141347835202832393778313035316D6D29421254D3D7D04D1E0D5104130202838343078313138396D6D2920419254D3D7D04C10E41332028323937783432306D6D29419254D3D7D04CD1141327833202835393478313236316D6D
310
29421254D3D7D04C9E0CD10413478332028323937783633306D6D29421254D3D7D04D1E0CD1141337834202834323078313138396D6D29421254D3D7D04CDE0D11141337836202834323078313738336D6D29421254D3D7D04CDE0D91141337835202834323078313438366D6D29421254D3D7D04CDE0D50E4132202834323
310
0783539346D6D29419254D3D7D04C910413378332028343230783839316D6D29421254D3D7D04CDE0CD0E41342028323937783231306D6D29419254D3D7D04D1124130783220283131383978313638326D6D29421254D3D7D04C1E0C9124130783320283131383978323532336D6D29421254D3D7D04C1E0CD114131783420
310
2838343178323337386D6D29421254D3D7D04C5E0D11141317833202838343178313738336D6D29421254D3D7D04C5E0CD02431254D3C82557247A25E4C81050A49534F5F5449544C4541431254D3C82557247A25E4C81090A49534F5F5449544C45424110E979A97F0838A835883675F42525F44D254D3D7D09497D4995D9
310
A5CDA5BDB9B1A5CDD10E979A97F0838A835883675F54525F44D254D3D7D51497D4995D9A5CDA5BDB9B1A5CDD10E979A97F0838A835883675F424C5F44D254D3D7D09317D4995D9A5CDA5BDB9B1A5CDD10E979A97F0838A835883675F544C5F44D254D3D7D51317D4995D9A5CDA5BDB9B1A5CDD00
  0
ACAD_PROXY_OBJECT
  5
181
330
17F
100
AcDbProxyObject
 90
      499
 91
      527
 95
       25
 70
     0
 93
       86
310
5DEA0C80A0280A0280A034
  0
ACAD_PROXY_OBJECT
  5
182
330
17F
100
AcDbProxyObject
 90
      499
 91
      528
 95
       25
 70
     0
 93
      282
310
5DD0E4050140501405014050140501405014050141101405014041000000000000001000
340
187
 94
        0
  0
ACAD_PROXY_OBJECT
  5
183
330
17F
100
AcDbProxyObject
 90
      499
 91
      529
 95
       25
 70
     0
 93
      323
310
5DCC199999999999E99F91740501405014050140501405014050140501405014050140501405014040
340
0
 94
        0
  0
ACAD_PROXY_OBJECT
  5
184
330
17F
100
AcDbProxyObject
 90
      499
 91
      530
 95
       25
 70
     0
 93
       10
310
5DC0
  0
ACAD_PROXY_OBJECT
  5
185
330
17F
100
AcDbProxyObject
 90
      499
 91
      531
 95
       25
 70
     0
 93
      257
310
5DE0C16A22A7D90F49F80000000000001081400000000000004204010000618000
340
188
340
189
 94
        0
  0
ACAD_PROXY_OBJECT
  5
186
330
17F
100
AcDbProxyObject
 90
      499
 91
      532
 95
       25
 70
     0
 93
     5277
310
5DD06411255115350141236025B6901405014069010000000000000910240690120281A8AA2CA0282484A4BE52028120280A032020000000000001220480D202405044E414D454050496BC914F4051C40640A80000000000004E4090193C3D3C4946284953424C414E4B28504152543A4E414D45292C424C4F434B3A4E414D
310
452C504152543A4E414D45293E3C41435F44455343524950544E3E40480A109A82A88AA492829880A091BBD2F7E80A3A80C81D0E27A15AF46E08A81203480901411393D5115014124A363B7D0147501904A0000000000000F902406428F4F1050D7D393D5114F901202832B22A72227A92028366EF6EE06F582028EA0320B4
310
0000000000001F20480C879E9E20A1AFAB27222FA620A122A61F20240506445020000000000000490201C00030C00010180000000000003E400000000000000F901073D3C4954454D3E4050180000000000003E400000000000000F901073D3C4954454D3E40501800000000000034400000000000000D101073D3C4954454
310
D3E40501800000000000034400000000000000D101073D3C4954454D3E405029010000000000000F9000000000000003E4041CF4F125511534F901418F4F1455164F9014060000000000000F9000000000000003E4041CF4F125511534F901800000000000034400000000000000D101073D3C4954454D3E40640400000000
310
0000003E400000000000000F90288800000000000020810000001800120881A068120480A032208521122080D21480D211480A1485214852050000000000003C2FC000000000000F0BF40600800030C0200400030C00CDCCCCCCCCCCEC3F3373333333333B0FC3333333333330940C80D069014090341504901A1999999999
310
9984A040100006180400800061804010000618008098A02808
340
0
340
0
 94
        0
  0
ACAD_PROXY_OBJECT
  5
EDA5
330
17F
100
AcDbProxyObject
 90
      499
 91
      561
 95
       25
 70
     0
 93
     3042
310
5DD9740D29254D064A49535F413342929254D7D512551311505134A49535F42525F5265766973696F6E6C6973744190F4134522028323937783231306D6D2941D29254D7D04D1490E41312028353934783834316D6D2941929254D7D04C50E41332028323937783432306D6D2941929254D7D04CD0F41344C2028323130783
310
239376D6D2941D29254D7D04D1310E41322028343230783539346D6D2941929254D7D04C90F4130202838343178313138396D6D2941929254D7D04C10243129254C82557247A25E4C81050A4A49535F5449544C454143129254C82557247A25E4C81090A4A49535F5449544C45424110E979A97F0838A835883675F42525F4
310
4D29254D7D09497D4995D9A5CDA5BDB9B1A5CDD10E979A97F0838A835883675F54525F44D29254D7D51497D4995D9A5CDA5BDB9B1A5CDD10E979A97F0838A835883675F424C5F44D29254D7D09317D4995D9A5CDA5BDB9B1A5CDD10E979A97F0838A835883675F544C5F44D29254D7D51317D4995D9A5CDA5BDB9B1A5CDD00
  0
ACAD_PROXY_OBJECT
  5
EDA6
330
17F
100
AcDbProxyObject
 90
      499
 91
      562
 95
       25
 70
     0
 93
      898
310
5DC4000000000000124048CF4F11115510525317D3105091530F880A0F11115510525317D05094D4D0D053114F8A50241C9A9999999999B93F26A666666666724FC000000000000E03F400000000000000400000000000000510000000000000024408070000C300000000000000049000
340
16
340
180
 94
        0
  0
ACAD_PROXY_OBJECT
  5
EDA7
330
17F
100
AcDbProxyObject
 90
      499
 91
      563
 95
       25
 70
     0
 93
      823
310
5DC0B00000000000002480959E9E29A2A1AA24A7A72FA620A122A62FA324A929AA1F169E29A2A1AA24A7A72FA620A122A62FA620A9AA1F000000000000048803FFFE01C00030C008140380006180000000000000048800000000000000A2000000000000002480
340
652
340
180
 94
        0
  0
ACAD_PROXY_OBJECT
  5
EDA9
330
17F
100
AcDbProxyObject
 90
      499
 91
      564
 95
       25
 70
     0
 93
      152
310
5DE8273108AC1C5A0640A3D0A5723F0BD1F200
  0
ACAD_PROXY_OBJECT
  5
EDAA
330
17F
100
AcDbProxyObject
 90
      499
 91
      565
 95
       25
 70
     0
 93
       14
310
5DE0
340
0
 94
        0
  0
ACAD_PROXY_OBJECT
  5
EDAB
330
17F
100
AcDbProxyObject
 90
      499
 91
      566
 95
       25
 70
     0
 93
     6059
310
5DD084050BA4050AA405024050E836583938376838C815B83672031405983D3C486F6C653A6469613E3C696628657175616C28486F6C653A7465726D696E6174696F6E2C223022292C2220905B82B320222C22208368838A838B22293E3C696628657175616C28486F6C653A7465726D696E6174696F6E2C223022292C486F
310
6C653A64657074682C2222293E2C203C486F6C653A63746469613E2082B482AE82E882CC905B82B3203C486F6C653A637464657074683E406901405034050E836583938376838C815B83672031405EF3D3C486F6C653A6374616E676C653E252564202525633C486F6C653A63746469613E208E4D8C8A2C203C69662865717
310
5616C28486F6C653A7461707065642C223022292C22252563222C486F6C653A6E6F6D696E616C202220782022293E3C696628657175616C28486F6C653A7461707065642C223022292C486F6C653A6469612C486F6C653A706974636864657363293E203C696628657175616C28486F6C653A7465726D696E6174696F6E2C2
310
23022292C22905B82B320222C222022293E3C696628657175616C28486F6C653A7465726D696E6174696F6E2C223022292C486F6C653A64657074682C2222293E406901405014050E836583938376838C815B83672031405C73D3C696628657175616C28486F6C653A7461707065642C223022292C22252563222C486F6C65
310
3A6E6F6D696E616C202220782022293E3C696628657175616C28486F6C653A7461707065642C223022292C486F6C653A6469612C486F6C653A706974636864657363293E203C696628657175616C28486F6C653A7465726D696E6174696F6E2C223022292C22905B82B320222C222022293E3C696628657175616C28486F6C
310
653A7465726D696E6174696F6E2C223022292C486F6C653A64657074682C2222293E4069014051E4090E836583938376838C815B83672032405173D3C535444503A444553433E203C535444503A5354443E40690E836583938376838C815B836720314050C3D3C535444503A444553433E40690240515AAABBA120
360
EDAF
330
EDAF
360
EDB0
330
EDB0
360
EDAE
330
EDAE
360
EDAD
360
EDAC
330
EDAD
330
EDAC
 94
        0
  0
ACAD_PROXY_OBJECT
  5
EDB1
330
17F
100
AcDbProxyObject
 90
      499
 91
      568
 95
       25
 70
     0
 93
       26
310
5DD02A80
340
42
 94
        0
  0
ACAD_PROXY_OBJECT
  5
EDB2
330
17F
100
AcDbProxyObject
 90
      499
 91
      569
 95
       25
 70
     0
 93
      250
310
5DD020000000000000A1000000000000002440408F0F9023C3E409A0DCFFFF80
340
58
340
18A8
340
18A9
340
5F
340
60
340
61
340
62
340
63
340
68
340
0
 94
        0
  0
ACAD_PROXY_OBJECT
  5
EDB3
330
17F
100
AcDbProxyObject
 90
      499
 91
      570
 95
       25
 70
     0
 93
    13889
310
5DD1D003FFFFFFFD030300030CCCCCCCCCCCC250200800030C01030300030CCCCCCCCCCCC250200800030C00050C8DC0955782CC838A83588367014ED1D15395149050D3CB1294138B0C0B23702555E0B320E2A0D620D9CB11D15395149055160B095CCB0A11D1539354D1C819D95B991A5B5E880CCC0A78000C0000000000
310
00000000000000000000010CCCCCCCCCCCC250200800030C010CCCCCCCCCCCC250200800030C020143CF4F111959985D5B1D151A5D1B194F8050A8C8A8365815B8375838B014E51D15395149050D3CB1294138B0C0B2322A0D96056E0DD60E2CB11D15395149055160B095CCB0A11D1539354D1C819D95B991A5B5E880CCC4
310
A78000C000000000000000000000000000000010CCCCCCCCCCCC250200800030C010CCCCCCCCCCCC250200800030C020143CF4F111959985D5B1D151A5D1B194F90D44111409034110541D0C4350F4050E44D03449074510F000141232D24D7C053247454E545241434F2C4A504E2C302C8CB4935F2C47454E54524154582C
310
25732C2847454E4D53472067656E64696D7A20312900010104002214000281464500A608E8A9CA8A482869E5894A09C5860591914588E8A9CA8A482A8B0584AE658508E8A9C9AA68E40CECADCC8D2DAF4406452029E9E9E27B934B3B4B71F1E24A31427A91424A9A12620A7259427B934B3B4B7149624A9A12620A7259424B
310
A32B6949496111116111711149F1E24BA32B69F00808200111A000140560052F47454E545241434F2C4A504E2C302C582C47454E54524154582C25732C2847454E4D53472067656E64696D7A20332900010100002054000280AC80A5E8E8A9CA8A482869E5894A09C586058B2588E8A9CA8A482A8B0584AE658508E8A9C9AA
310
68E40CECADCC8D2DAF4406852000202000040E800050152014BD1D15395149050D3CB1294138B0C0B148B11D15395149055160B095CCB0A11D1539354D1C819D95B991A5B5E880D8A400040400008250000A0507A6029823A2A72A2920A1A79625282716181641E99623A2A72A2920AA2C1612B9961423A2A726A9A39033B2
310
B73234B6BD101B948000808180105A000140A0F4C053047454E545241434F2C4A504E2C302C83D32C47454E54524154582C25732C2847454E4D53472067656E64696D7A203829000101010020F400028248704B5F00A668E8A9CA8A482869E5894A09C58605921C12D7C588E8A9CA8A482A8B0584AE658508E8A9C9AA68E40
310
CECADCC8D2DAF440646052000200080043280005048B4B8A69014CD1D15395149050D3CB1294138B0C0B22D2E29A4B11D15395149055160B095CCB0A11D1539354D1C819D95B991A5B5E880C8C4A4000400100086D0000A09196926BE029923A2A72A2920A1A796252827161816465A49AF9623A2A72A2920AA2C1612B9961
310
423A2A726A9A39033B2B73234B6BD10189480A02620202080043E80005048D8096DA014CD1D15395149050D3CB1294138B0C0B236025B68B11D15395149055160B095CCB0A11D1539354D1C819D95B991A5B5E880C4D0A4000404140280D0000A190687072706CD06C5069D06B0029DA3A2A72A2920A1A7962528271618164
310
1A1C1C9C1B341B141A741AC1623A2A72A2920AA2C1612B9961423A2A726A9A39033B2B73234B6BD10189A94800080820050EA000143A322A0D0E0E4E0D9A0D8A0D3A0D60053D47454E545241434F2C4A504E2C302C8C8A8343839383668362834E83582C47454E54524154582C25732C2847454E4D53472067656E64696D7A
310
2031372900010105002274000281464500A628E8A9CA8A482869E5894A09C5860591914588E8A9CA8A482A8B0584AE658508E8A9C9AA68E40CECADCC8D2DAF440626C52000202080044A8000504909497CA014CD1D15395149050D3CB1294138B0C0B242525F28B11D15395149055160B095CCB0A11D1539354D1C819D95B9
310
91A5B5E880C4E4A400040418008A521E000000000000001CA040C00000000000034408080000000000006881010000000000000D102040000000000001A204080000000000003440818000000000000728103000000000000125020600000000004028A040000000000000034408000000000000004881000000000000000D
310
102000000000000001A204000000000000003440818000000000000508143C0000000000000039408180000000000006881030000000000000D102060000000000001A2040C00000000000034408180000000000006881030000000000000E5020600000000000024A040C0000000000805140800000000000000688100000
310
00000000009102000000000000001A2040000000000000034408180000000000006881030000000000000A10284220000000878000002020000008380000020400000081800000208000000828000002028900000000
340
0
340
0
340
0
340
0
340
180
340
180
 94
        0
  0
ACAD_PROXY_OBJECT
  5
F95A
330
F959
100
AcDbProxyObject
 90
      499
 91
      567
 95
       25
 70
     0
 93
     2680
310
5DE0143A0D960E4E0DDA0E32056E0D9C80C4043A013D2525633C486F6C653A63746469613E2078203C486F6C653A637464657074683E20555C503C696628657175616C28486F6C653A7461707065642C223022292C22252563222C486F6C653A6E6F6D696E616C202220782022293E3C696628657175616C28486F6C653A74
310
61707065642C223022292C486F6C653A6469612C486F6C653A706974636864657363293E3C696628657175616C28486F6C653A7461707065642C223122292C22207820222C2222293E3C696628657175616C28486F6C653A7461707065642C223122292C486F6C653A74617064657074682C2222293E203C69662865717561
310
6C28486F6C653A7465726D696E6174696F6E2C223022292C22202F20222C2222293E3C696628657175616C28486F6C653A7465726D696E6174696F6E2C223022292C486F6C653A64657074682C2222293E
  0
ACAD_PROXY_OBJECT
  5
F95B
330
F959
100
AcDbProxyObject
 90
      499
 91
      567
 95
       25
 70
     0
 93
     2688
310
5DE0143A0D960E4E0DDA0E32056E0D9C80C4043B013D2525633C486F6C653A63746469613E2078203C486F6C653A6374616E676C653E2525645C503C696628657175616C28486F6C653A7461707065642C223022292C22252563222C486F6C653A6E6F6D696E616C202220782022293E3C696628657175616C28486F6C653A
310
7461707065642C223022292C486F6C653A6469612C486F6C653A706974636864657363293E3C696628657175616C28486F6C653A7461707065642C223122292C22207820222C2222293E3C696628657175616C28486F6C653A7461707065642C223122292C486F6C653A74617064657074682C2222293E203C696628657175
310
616C28486F6C653A7465726D696E6174696F6E2C223022292C22202F20222C2222293E3C696628657175616C28486F6C653A7465726D696E6174696F6E2C223022292C486F6C653A64657074682C2222293E
  0
ACAD_PROXY_OBJECT
  5
F95C
330
F959
100
AcDbProxyObject
 90
      499
 91
      567
 95
       25
 70
     0
 93
     2392
310
5DE0143A0D960E4E0DDA0E32056E0D9C80C40416013D3C696628657175616C28486F6C653A7461707065642C223022292C22252563222C486F6C653A6E6F6D696E616C202220782022293E3C696628657175616C28486F6C653A7461707065642C223022292C486F6C653A6469612C486F6C653A706974636864657363293E
310
3C696628657175616C28486F6C653A7461707065642C223122292C22207820222C2222293E3C696628657175616C28486F6C653A7461707065642C223122292C486F6C653A74617064657074682C2222293E203C696628657175616C28486F6C653A7465726D696E6174696F6E2C223022292C22202F20222C2222293E3C69
310
6628657175616C28486F6C653A7465726D696E6174696F6E2C223022292C486F6C653A64657074682C2222293E
  0
ACAD_PROXY_OBJECT
  5
F95D
330
F959
100
AcDbProxyObject
 90
      499
 91
      567
 95
       25
 70
     0
 93
      344
310
5DE0143A0D960E4E0DDA0E32056E0D9C80C805173D3C535444503A444553433E203C535444503A5354443E
  0
ACAD_PROXY_OBJECT
  5
F95E
330
F959
100
AcDbProxyObject
 90
      499
 91
      567
 95
       25
 70
     0
 93
      256
310
5DE0143A0D960E4E0DDA0E32056E0D9C80C4050C3D3C535444503A444553433E
  0
ACAD_PROXY_OBJECT
  5
EDAF
330
EDAB
100
AcDbProxyObject
 90
      499
 91
      567
 95
       25
 70
     0
 93
     1376
310
5DE0143A0D960E4E0DDA0E32056E0D9C80C405983D3C486F6C653A6469613E3C696628657175616C28486F6C653A7465726D696E6174696F6E2C223022292C2220905B82B320222C22208368838A838B22293E3C696628657175616C28486F6C653A7465726D696E6174696F6E2C223022292C486F6C653A64657074682C22
310
22293E2C203C486F6C653A63746469613E2082B482AE82E882CC905B82B3203C486F6C653A637464657074683E
  0
ACAD_PROXY_OBJECT
  5
EDB0
330
EDAB
100
AcDbProxyObject
 90
      499
 91
      567
 95
       25
 70
     0
 93
     2072
310
5DE0143A0D960E4E0DDA0E32056E0D9C80C405EF3D3C486F6C653A6374616E676C653E252564202525633C486F6C653A63746469613E208E4D8C8A2C203C696628657175616C28486F6C653A7461707065642C223022292C22252563222C486F6C653A6E6F6D696E616C202220782022293E3C696628657175616C28486F6C
310
653A7461707065642C223022292C486F6C653A6469612C486F6C653A706974636864657363293E203C696628657175616C28486F6C653A7465726D696E6174696F6E2C223022292C22905B82B320222C222022293E3C696628657175616C28486F6C653A7465726D696E6174696F6E2C223022292C486F6C653A6465707468
310
2C2222293E
  0
ACAD_PROXY_OBJECT
  5
EDAE
330
EDAB
100
AcDbProxyObject
 90
      499
 91
      567
 95
       25
 70
     0
 93
     1752
310
5DE0143A0D960E4E0DDA0E32056E0D9C80C405C73D3C696628657175616C28486F6C653A7461707065642C223022292C22252563222C486F6C653A6E6F6D696E616C202220782022293E3C696628657175616C28486F6C653A7461707065642C223022292C486F6C653A6469612C486F6C653A706974636864657363293E20
310
3C696628657175616C28486F6C653A7465726D696E6174696F6E2C223022292C22905B82B320222C222022293E3C696628657175616C28486F6C653A7465726D696E6174696F6E2C223022292C486F6C653A64657074682C2222293E
  0
ACAD_PROXY_OBJECT
  5
EDAD
330
EDAB
100
AcDbProxyObject
 90
      499
 91
      567
 95
       25
 70
     0
 93
      344
310
5DE0143A0D960E4E0DDA0E32056E0D9C80C805173D3C535444503A444553433E203C535444503A5354443E
  0
ACAD_PROXY_OBJECT
  5
EDAC
330
EDAB
100
AcDbProxyObject
 90
      499
 91
      567
 95
       25
 70
     0
 93
      256
310
5DE0143A0D960E4E0DDA0E32056E0D9C80C4050C3D3C535444503A444553433E
  0
ENDSEC
  0
EOF
