  0
SECTION
  2
HEADER
  9
$ACADVER
  1
AC1015
  9
$ACADMAINTVER
 70
     6
  9
$DWGCODEPAGE
  3
ANSI_932
  9
$INSBASE
 10
0.0
 20
0.0
 30
0.0
  9
$EXTMIN
 10
-129.8425355028621
 20
-165.3532948893453
 30
-0.0000000000112498
  9
$EXTMAX
 10
270.3899322664656
 20
35.04041777526686
 30
0.0000000000002956
  9
$LIMMIN
 10
0.0
 20
0.0
  9
$LIMMAX
 10
594.0
 20
420.0
  9
$ORTHOMODE
 70
     0
  9
$REGENMODE
 70
     1
  9
$FILLMODE
 70
     1
  9
$QTEXTMODE
 70
     0
  9
$MIRRTEXT
 70
     1
  9
$LTSCALE
 40
1.0
  9
$ATTMODE
 70
     1
  9
$TEXTSIZE
 40
6.0
  9
$TRACEWID
 40
1.0
  9
$TEXTSTYLE
  7
STANDARD
  9
$CLAYER
  8
AM_0
  9
$CELTYPE
  6
ByLayer
  9
$CECOLOR
 62
   256
  9
$CELTSCALE
 40
1.0
  9
$DISPSILH
 70
     0
  9
$DIMSCALE
 40
1.0
  9
$DIMASZ
 40
2.5
  9
$DIMEXO
 40
0.0
  9
$DIMDLI
 40
10.0
  9
$DIMRND
 40
0.0
  9
$DIMDLE
 40
0.0
  9
$DIMEXE
 40
1.0
  9
$DIMTP
 40
0.1
  9
$DIMTM
 40
0.1000000001
  9
$DIMTXT
 40
3.8
  9
$DIMCEN
 40
0.0
  9
$DIMTSZ
 40
0.0
  9
$DIMTOL
 70
     0
  9
$DIMLIM
 70
     0
  9
$DIMTIH
 70
     0
  9
$DIMTOH
 70
     0
  9
$DIMSE1
 70
     0
  9
$DIMSE2
 70
     0
  9
$DIMTAD
 70
     3
  9
$DIMZIN
 70
     1
  9
$DIMBLK
  1
Open30
  9
$DIMASO
 70
     1
  9
$DIMSHO
 70
     1
  9
$DIMPOST
  1

  9
$DIMAPOST
  1
"
  9
$DIMALT
 70
     0
  9
$DIMALTD
 70
     2
  9
$DIMALTF
 40
0.0393701
  9
$DIMLFAC
 40
0.5
  9
$DIMTOFL
 70
     1
  9
$DIMTVP
 40
0.0
  9
$DIMTIX
 70
     0
  9
$DIMSOXD
 70
     0
  9
$DIMSAH
 70
     0
  9
$DIMBLK1
  1

  9
$DIMBLK2
  1

  9
$DIMSTYLE
  2
AM_JIS
  9
$DIMCLRD
 70
   256
  9
$DIMCLRE
 70
   256
  9
$DIMCLRT
 70
     2
  9
$DIMTFAC
 40
0.71
  9
$DIMGAP
 40
1.5
  9
$DIMJUST
 70
     0
  9
$DIMSD1
 70
     0
  9
$DIMSD2
 70
     0
  9
$DIMTOLJ
 70
     0
  9
$DIMTZIN
 70
     8
  9
$DIMALTZ
 70
     0
  9
$DIMALTTZ
 70
     0
  9
$DIMUPT
 70
     0
  9
$DIMDEC
 70
     0
  9
$DIMTDEC
 70
     2
  9
$DIMALTU
 70
     2
  9
$DIMALTTD
 70
     2
  9
$DIMTXSTY
  7
STANDARD
  9
$DIMAUNIT
 70
     1
  9
$DIMADEC
 70
     0
  9
$DIMALTRND
 40
0.0
  9
$DIMAZIN
 70
     2
  9
$DIMDSEP
 70
    46
  9
$DIMATFIT
 70
     3
  9
$DIMFRAC
 70
     0
  9
$DIMLDRBLK
  1
Open30
  9
$DIMLUNIT
 70
     2
  9
$DIMLWD
 70
    -1
  9
$DIMLWE
 70
    -1
  9
$DIMTMOVE
 70
     0
  9
$LUNITS
 70
     2
  9
$LUPREC
 70
     2
  9
$SKETCHINC
 40
1.0
  9
$FILLETRAD
 40
4.0
  9
$AUNITS
 70
     1
  9
$AUPREC
 70
     5
  9
$MENU
  1
.
  9
$ELEVATION
 40
0.0
  9
$PELEVATION
 40
0.0
  9
$THICKNESS
 40
0.0
  9
$LIMCHECK
 70
     0
  9
$CHAMFERA
 40
0.5
  9
$CHAMFERB
 40
0.5
  9
$CHAMFERC
 40
20.0
  9
$CHAMFERD
 40
0.0
  9
$SKPOLY
 70
     0
  9
$TDCREATE
 40
2451943.610431667
  9
$TDUCREATE
 40
2451943.235431667
  9
$TDUPDATE
 40
2455441.419055625
  9
$TDUUPDATE
 40
2455441.044055625
  9
$TDINDWG
 40
0.9004537269
  9
$TDUSRTIMER
 40
0.9004535532
  9
$USRTIMER
 70
     1
  9
$ANGBASE
 50
0.0
  9
$ANGDIR
 70
     0
  9
$PDMODE
 70
     0
  9
$PDSIZE
 40
0.0
  9
$PLINEWID
 40
0.0
  9
$SPLFRAME
 70
     0
  9
$SPLINETYPE
 70
     6
  9
$SPLINESEGS
 70
     8
  9
$HANDSEED
  5
1658D
  9
$SURFTAB1
 70
     6
  9
$SURFTAB2
 70
     6
  9
$SURFTYPE
 70
     6
  9
$SURFU
 70
     6
  9
$SURFV
 70
     6
  9
$UCSBASE
  2

  9
$UCSNAME
  2

  9
$UCSORG
 10
0.0
 20
0.0
 30
0.0
  9
$UCSXDIR
 10
1.0
 20
0.0
 30
0.0
  9
$UCSYDIR
 10
0.0
 20
1.0
 30
0.0
  9
$UCSORTHOREF
  2

  9
$UCSORTHOVIEW
 70
     0
  9
$UCSORGTOP
 10
0.0
 20
0.0
 30
0.0
  9
$UCSORGBOTTOM
 10
0.0
 20
0.0
 30
0.0
  9
$UCSORGLEFT
 10
0.0
 20
0.0
 30
0.0
  9
$UCSORGRIGHT
 10
0.0
 20
0.0
 30
0.0
  9
$UCSORGFRONT
 10
0.0
 20
0.0
 30
0.0
  9
$UCSORGBACK
 10
0.0
 20
0.0
 30
0.0
  9
$PUCSBASE
  2

  9
$PUCSNAME
  2

  9
$PUCSORG
 10
0.0
 20
0.0
 30
0.0
  9
$PUCSXDIR
 10
1.0
 20
0.0
 30
0.0
  9
$PUCSYDIR
 10
0.0
 20
1.0
 30
0.0
  9
$PUCSORTHOREF
  2

  9
$PUCSORTHOVIEW
 70
     0
  9
$PUCSORGTOP
 10
0.0
 20
0.0
 30
0.0
  9
$PUCSORGBOTTOM
 10
0.0
 20
0.0
 30
0.0
  9
$PUCSORGLEFT
 10
0.0
 20
0.0
 30
0.0
  9
$PUCSORGRIGHT
 10
0.0
 20
0.0
 30
0.0
  9
$PUCSORGFRONT
 10
0.0
 20
0.0
 30
0.0
  9
$PUCSORGBACK
 10
0.0
 20
0.0
 30
0.0
  9
$USERI1
 70
     0
  9
$USERI2
 70
     0
  9
$USERI3
 70
     0
  9
$USERI4
 70
     0
  9
$USERI5
 70
     0
  9
$USERR1
 40
0.0
  9
$USERR2
 40
0.0
  9
$USERR3
 40
0.0
  9
$USERR4
 40
0.0
  9
$USERR5
 40
0.0
  9
$WORLDVIEW
 70
     1
  9
$SHADEDGE
 70
     3
  9
$SHADEDIF
 70
    70
  9
$TILEMODE
 70
     1
  9
$MAXACTVP
 70
    64
  9
$PINSBASE
 10
0.0
 20
0.0
 30
0.0
  9
$PLIMCHECK
 70
     0
  9
$PEXTMIN
 10
1.000000000000000E+20
 20
1.000000000000000E+20
 30
1.000000000000000E+20
  9
$PEXTMAX
 10
-1.000000000000000E+20
 20
-1.000000000000000E+20
 30
-1.000000000000000E+20
  9
$PLIMMIN
 10
0.0
 20
0.0
  9
$PLIMMAX
 10
420.0
 20
297.0
  9
$UNITMODE
 70
     0
  9
$VISRETAIN
 70
     1
  9
$PLINEGEN
 70
     0
  9
$PSLTSCALE
 70
     1
  9
$TREEDEPTH
 70
  3020
  9
$CMLSTYLE
  2
Standard
  9
$CMLJUST
 70
     0
  9
$CMLSCALE
 40
20.0
  9
$PROXYGRAPHICS
 70
     1
  9
$MEASUREMENT
 70
     1
  9
$CELWEIGHT
370
    -1
  9
$ENDCAPS
280
     0
  9
$JOINSTYLE
280
     0
  9
$LWDISPLAY
290
     0
  9
$INSUNITS
 70
     4
  9
$HYPERLINKBASE
  1

  9
$STYLESHEET
  1
sei_cad.ctb
  9
$XEDIT
290
     1
  9
$CEPSNTYPE
380
     0
  9
$PSTYLEMODE
290
     1
  9
$FINGERPRINTGUID
  2
{C77AB3BE-9CA2-11D3-BAF3-006094EB760E}
  9
$VERSIONGUID
  2
{2A7697A8-AABF-4905-84BB-1B8F93048FEB}
  9
$EXTNAMES
290
     1
  9
$PSVPSCALE
 40
0.0
  9
$OLESTARTUP
290
     0
  0
ENDSEC
  0
SECTION
  2
CLASSES
  0
CLASS
  1
ACDBDICTIONARYWDFLT
  2
AcDbDictionaryWithDefault
  3
ObjectDBX Classes
 90
        0
280
     0
281
     0
  0
CLASS
  1
ACDBPLACEHOLDER
  2
AcDbPlaceHolder
  3
ObjectDBX Classes
 90
        0
280
     0
281
     0
  0
CLASS
  1
LAYOUT
  2
AcDbLayout
  3
ObjectDBX Classes
 90
        0
280
     0
281
     0
  0
CLASS
  1
ACME_DOCUMENT
  2
AcMeDbDoc
  3
AcMeServices
 90
        0
280
     1
281
     0
  0
CLASS
  1
ACMESCOPE
  2
AcMeScope
  3
AcMeServices
 90
        0
280
     1
281
     0
  0
CLASS
  1
ACMECOMMANDHISTORY
  2
AcMeCommandHistory
  3
AcMeServices
 90
        0
280
     1
281
     0
  0
CLASS
  1
DICTIONARYVAR
  2
AcDbDictionaryVar
  3
ObjectDBX Classes
 90
        0
280
     0
281
     0
  0
CLASS
  1
ACIMSYSVARMAN
  2
AcImSysVarManager
  3
AcMeServices
 90
        0
280
     1
281
     0
  0
CLASS
  1
ACIMREALSYSVAR
  2
AcImRealSysVar
  3
AcMeServices
 90
        0
280
     1
281
     0
  0
CLASS
  1
ACIMINTSYSVAR
  2
AcImIntSysVar
  3
AcMeServices
 90
        0
280
     1
281
     0
  0
CLASS
  1
ACMEDRAWINGMAN
  2
AcMeDrawingMan
  3
AcMeServices
 90
        0
280
     1
281
     0
  0
CLASS
  1
ACMEVIEW
  2
AcMeView
  3
AcMeServices
 90
        0
280
     1
281
     0
  0
CLASS
  1
ACDBENTITYCACHE
  2
AcMeEntityCache
  3
AcMeServices
 90
        0
280
     1
281
     0
  0
CLASS
  1
GSMANAGER
  2
AcMeGSManager
  3
AcMeServices
 90
        0
280
     1
281
     0
  0
CLASS
  1
AMDTINTERNALREACTOR
  2
AmdtInternalReactor
  3
AcMeServices
 90
        0
280
     1
281
     0
  0
CLASS
  1
ACMESTATEMGR
  2
AcMeStateMgr
  3
AcMeServices
 90
        0
280
     1
281
     0
  0
CLASS
  1
ACME_DATABASE
  2
AcMeDbDatabase
  3
AcMeServices
 90
        0
280
     1
281
     0
  0
CLASS
  1
ACRFINSADJUSTERMGR
  2
AcRfInsAdjusterMgr
  3
AcMeServices
 90
        0
280
     1
281
     0
  0
CLASS
  1
AMGSETTINGSOBJ
  2
AmgSettingsObj
  3
"AcadM|Product Description: AutoCAD Mechanical 2000|Company: Autodesk"
 90
        0
280
     1
281
     0
  0
CLASS
  1
AMGOBJPROPCFG
  2
AmgObjPropCfg
  3
"AmgLay|Product Description: AutoCAD Mechanical 2000|Company: Autodesk"
 90
        1
280
     1
281
     0
  0
CLASS
  1
ACMDATADICTIONARY
  2
AcmDataDictionary
  3
"AcmSymBB|Product Description: AutoCAD Mechanical 2004 DX|Company: Autodesk"
 90
        0
280
     1
281
     0
  0
CLASS
  1
ACMDATAENTRYBLOCK
  2
AcmDataEntryBlock
  3
"AcmSymBB|Product Description: AutoCAD Mechanical 2004 DX|Company: Autodesk"
 90
        0
280
     1
281
     0
  0
CLASS
  1
ACIMSTRSYSVAR
  2
AcImStrSysVar
  3
AcMeServices
 90
        0
280
     1
281
     0
  0
CLASS
  1
ACAMGFILTERDAT
  2
AcAmgFilterDat
  3
"AcadM|Product Description: AutoCAD Mechanical 2000|Company: Autodesk"
 90
        0
280
     1
281
     0
  0
CLASS
  1
LAYER_INDEX
  2
AcDbLayerIndex
  3
ObjectDBX Classes
 90
        0
280
     0
281
     0
  0
CLASS
  1
IDBUFFER
  2
AcDbIdBuffer
  3
ObjectDBX Classes
 90
        0
280
     0
281
     0
  0
CLASS
  1
ACMSTANDARDJIS
  2
AcmStandardJIS
  3
"Amdt_StdImp|Product Description: AutoCAD Mechanical 2004 DX|Company: Autodesk"
 90
        0
280
     1
281
     0
  0
CLASS
  1
ACMSURFSTANDARDJIS
  2
AcmSurfTextStdJIS
  3
"Amdt_StdImp|Product Description: AutoCAD Mechanical 2004 DX|Company: Autodesk"
 90
        0
280
     1
281
     0
  0
CLASS
  1
ACMFCFSTANDARDJIS
  2
AcmFCFStdJIS
  3
"Amdt_StdImp|Product Description: AutoCAD Mechanical 2004 DX|Company: Autodesk"
 90
        0
280
     1
281
     0
  0
CLASS
  1
ACMWELDSTANDARDJIS
  2
AcmWeldingStdJIS
  3
"Amdt_StdImp|Product Description: AutoCAD Mechanical 2004 DX|Company: Autodesk"
 90
        0
280
     1
281
     0
  0
CLASS
  1
ACMIDSTANDARDJIS
  2
AcmIdStdJIS
  3
"Amdt_StdImp|Product Description: AutoCAD Mechanical 2004 DX|Company: Autodesk"
 90
        0
280
     1
281
     0
  0
CLASS
  1
ACMDATUMSTANDARDJIS
  2
AcmDatumStdJIS
  3
"Amdt_StdImp|Product Description: AutoCAD Mechanical 2004 DX|Company: Autodesk"
 90
        0
280
     1
281
     0
  0
CLASS
  1
ACMBOMSTANDARDJIS
  2
AcmBOMStdJIS
  3
"Amdt_StdImp|Product Description: AutoCAD Mechanical 2004 DX|Company: Autodesk"
 90
        0
280
     1
281
     0
  0
CLASS
  1
AMDTNOTE
  2
AmdtNote
  3
"AcmSymBB|Product Description: AutoCAD Mechanical 2004 DX|Company: Autodesk"
 90
     1023
280
     1
281
     1
  0
CLASS
  1
TABLESTYLE
  2
AcDbTableStyle
  3
ObjectDBX Classes
 90
     2047
280
     0
281
     0
  0
CLASS
  1
ACGREFMASTER
  2
AcGrefMaster
  3
AcAttribServices
 90
        0
280
     1
281
     0
  0
CLASS
  1
AM_DRAWING_MGR
  2
AcDmDwgMgr
  3
AcMechDwgViewMgmt
 90
        0
280
     1
281
     0
  0
CLASS
  1
AM_DWG_DOCUMENT
  2
AcDmDwgDocument
  3
AcMechDwgViewMgmt
 90
        0
280
     1
281
     0
  0
CLASS
  1
AM_DWG_SHEET
  2
AcDmSheet
  3
AcMechDwgViewMgmt
 90
        0
280
     1
281
     0
  0
CLASS
  1
AM_VIEWDIMPARMAP
  2
AcDmViewDimParMap
  3
AcMechDwgViewMgmt
 90
        0
280
     1
281
     0
  0
CLASS
  1
AM_DWGMGR_NAME
  2
AcDmDwgMgrName
  3
AcMechDwgViewMgmt
 90
        0
280
     1
281
     0
  0
CLASS
  1
ACGREFACADMASTER
  2
AcGrefacadMaster
  3
AcGrefServices
 90
        0
280
     1
281
     0
  0
CLASS
  1
AMDTMENUSTATEMGR
  2
AmdtMenuStateMgr
  3
McadcomServices
 90
        0
280
     1
281
     0
  0
CLASS
  1
AMDTMCOMMENUSTATE
  2
AmdtMcomMenuState
  3
McadcomServices
 90
        0
280
     1
281
     0
  0
CLASS
  1
AMIMASTER
  2
AmiMaster
  3
AmiServices
 90
        0
280
     1
281
     0
  0
CLASS
  1
MAPIAMMOUDLE
  2
MApiAmModule
  3
MApiAmServices
 90
        0
280
     1
281
     0
  0
CLASS
  1
AMDTADMENUSTATE
  2
AmdtAdMenuState
  3
DesignerServices
 90
        0
280
     1
281
     0
  0
CLASS
  1
ADAPPL
  2
AcAdAppl
  3
DesignerServices
 90
        0
280
     1
281
     0
  0
CLASS
  1
DEPMGR
  2
AcAdDepMgr
  3
DesignerServices
 90
        0
280
     1
281
     0
  0
CLASS
  1
PARAMMGR
  2
AcAdParamMgr
  3
DesignerServices
 90
        0
280
     1
281
     0
  0
CLASS
  1
PARAMSCOPE
  2
AcAdParamScope
  3
DesignerServices
 90
        0
280
     1
281
     0
  0
CLASS
  1
NAMEDAPPL
  2
AcAdNamedAppl
  3
DesignerServices
 90
        0
280
     1
281
     0
  0
CLASS
  1
AMDTDMMENUSTATE
  2
AmdtDmMenuState
  3
AcMechDwgViewMgmt
 90
        0
280
     1
281
     0
  0
CLASS
  1
AMDTAMMENUSTATE
  2
AmdtAmMenuState
  3
DesignerAssemblies
 90
        0
280
     1
281
     0
  0
CLASS
  1
ACAMPROJECT
  2
AcAmProject
  3
DesignerAssemblies
 90
        0
280
     1
281
     0
  0
CLASS
  1
ACAMGRCOMPDEF
  2
AcAmGrCompDef
  3
DesignerAssemblies
 90
        0
280
     1
281
     0
  0
CLASS
  1
ACCMCONTEXT
  2
AcCmContext
  3
DesignerAssemblies
 90
        0
280
     1
281
     0
  0
CLASS
  1
ACAMCOMPDEF
  2
AcAmCompDef
  3
DesignerAssemblies
 90
        0
280
     1
281
     0
  0
CLASS
  1
ACAMCOMPDEFMGR
  2
AcAmCompDefMgr
  3
DesignerAssemblies
 90
        0
280
     1
281
     0
  0
CLASS
  1
AMCONTEXTMGR
  2
AcAmContextMgr
  3
DesignerAssemblies
 90
        0
280
     1
281
     0
  0
CLASS
  1
ACAMCONTEXTMODELER
  2
AcAmContextModeler
  3
DesignerAssemblies
 90
        0
280
     1
281
     0
  0
CLASS
  1
ACAMGTITLESTD
  2
AcAmgTitleStd
  3
"TITLEAPP"
 90
        0
280
     1
281
     0
  0
CLASS
  1
ACMDETAILSTANDARDJIS
  2
AmdtDetailSymStdJIS
  3
"Amdt_StdImp|Product Description: AutoCAD Mechanical 2004 DX|Company: Autodesk"
 90
        0
280
     1
281
     0
  0
CLASS
  1
ACMSECTIONSTANDARDJIS
  2
AmdtSectionSymStdJIS
  3
"Amdt_StdImp|Product Description: AutoCAD Mechanical 2004 DX|Company: Autodesk"
 90
        0
280
     1
281
     0
  0
CLASS
  1
ACMCENTERLINESTANDARDJIS
  2
AmdtCenterLineStdJIS
  3
"Amdt_StdImp|Product Description: AutoCAD Mechanical 2004 DX|Company: Autodesk"
 90
        0
280
     1
281
     0
  0
CLASS
  1
ACMTHREADLINESTANDARDJIS
  2
AmdtThreadLineStdJIS
  3
"Amdt_StdImp|Product Description: AutoCAD Mechanical 2004 DX|Company: Autodesk"
 90
        0
280
     1
281
     0
  0
CLASS
  1
ACMNOTESTANDARDJIS
  2
AmdtNoteStdJIS
  3
"Amdt_StdImp|Product Description: AutoCAD Mechanical 2004 DX|Company: Autodesk"
 90
        0
280
     1
281
     0
  0
CLASS
  1
AMDTNOTETEMPLATEDB
  2
AmdtNoteTemplateDB
  3
AMDT_STDIMP_MODULE_NAME
 90
        0
280
     1
281
     0
  0
CLASS
  1
ACAMGLAYSTD
  2
AcAmgLayStd
  3
"AcAmgLayStd|Product Description: AutoCAD Mechanical 2000|Company: Autodesk"
 90
        0
280
     1
281
     0
  0
CLASS
  1
ACAMGDIMSTD
  2
AcAmgDimStd
  3
"AcAmgDimStd|Product Description: AutoCAD Mechanical 2000|Company: Autodesk"
 90
        0
280
     1
281
     0
  0
CLASS
  1
ACAMGHOLECHARTSTDJIS
  2
AcAmgHoleChartStdJIS
  3
ACMSYMBB_MODULE_NAME
 90
        0
280
     1
281
     0
  0
CLASS
  1
CATALOGSTATE
  2
AcAmCatalogState
  3
DesignerAssemblies
 90
        0
280
     1
281
     0
  0
CLASS
  1
ACAMGRCOMPDEFSET
  2
AcAmGrCompDefSet
  3
DesignerAssemblies
 90
        0
280
     1
281
     0
  0
CLASS
  1
AMDTBROWSERDBTAB
  2
AmdtBrowserDbTab
  3
McadcomServices
 90
        0
280
     1
281
     0
  0
CLASS
  1
CBROWSERAPPOBJECT
  2
CBrowserAppObject
  3
McadcomServices
 90
        0
280
     1
281
     0
  0
CLASS
  1
DM_PLACEHOLDER
  2
AcDmSelsetPlaceholder
  3
AcMechDwgViewMgmt
 90
        0
280
     1
281
     0
  0
CLASS
  1
SORTENTSTABLE
  2
AcDbSortentsTable
  3
ObjectDBX Classes
 90
        0
280
     0
281
     0
  0
CLASS
  1
ACMSTANDARDANSI
  2
AcmStandardANSI
  3
"Amdt_StdImp|Product Description: AutoCAD Mechanical 2004 DX|Company: Autodesk"
 90
        0
280
     1
281
     0
  0
CLASS
  1
ACMSURFSTANDARDANSI
  2
AcmSurfTextStdANSI
  3
"Amdt_StdImp|Product Description: AutoCAD Mechanical 2004 DX|Company: Autodesk"
 90
        0
280
     1
281
     0
  0
CLASS
  1
ACMFCFSTANDARDANSI
  2
AcmFCFStdANSI
  3
"Amdt_StdImp|Product Description: AutoCAD Mechanical 2004 DX|Company: Autodesk"
 90
        0
280
     1
281
     0
  0
CLASS
  1
ACMWELDSTANDARDANSI
  2
AcmWeldingStdANSI
  3
"Amdt_StdImp|Product Description: AutoCAD Mechanical 2004 DX|Company: Autodesk"
 90
        0
280
     1
281
     0
  0
CLASS
  1
ACMIDSTANDARDANSI
  2
AcmIdStdANSI
  3
"Amdt_StdImp|Product Description: AutoCAD Mechanical 2004 DX|Company: Autodesk"
 90
        0
280
     1
281
     0
  0
CLASS
  1
ACMDATUMSTANDARDANSI
  2
AcmDatumStdANSI
  3
"Amdt_StdImp|Product Description: AutoCAD Mechanical 2004 DX|Company: Autodesk"
 90
        0
280
     1
281
     0
  0
CLASS
  1
ACMBOMSTANDARDANSI
  2
AcmBOMStdANSI
  3
"Amdt_StdImp|Product Description: AutoCAD Mechanical 2004 DX|Company: Autodesk"
 90
        0
280
     1
281
     0
  0
CLASS
  1
ACMDETAILSTANDARDANSI
  2
AmdtDetailSymStdANSI
  3
"Amdt_StdImp|Product Description: AutoCAD Mechanical 2004 DX|Company: Autodesk"
 90
        0
280
     1
281
     0
  0
CLASS
  1
ACMSECTIONSTANDARDANSI
  2
AmdtSectionSymStdANSI
  3
"Amdt_StdImp|Product Description: AutoCAD Mechanical 2004 DX|Company: Autodesk"
 90
        0
280
     1
281
     0
  0
CLASS
  1
ACMCENTERLINESTANDARDANSI
  2
AmdtCenterLineStdANSI
  3
"Amdt_StdImp|Product Description: AutoCAD Mechanical 2004 DX|Company: Autodesk"
 90
        0
280
     1
281
     0
  0
CLASS
  1
ACMTHREADLINESTANDARDANSI
  2
AmdtThreadLineStdANSI
  3
"Amdt_StdImp|Product Description: AutoCAD Mechanical 2004 DX|Company: Autodesk"
 90
        0
280
     1
281
     0
  0
CLASS
  1
ACMNOTESTANDARDANSI
  2
AmdtNoteStdANSI
  3
"Amdt_StdImp|Product Description: AutoCAD Mechanical 2004 DX|Company: Autodesk"
 90
        0
280
     1
281
     0
  0
CLASS
  1
ACAMGHOLECHARTSTDANSI
  2
AcAmgHoleChartStdANSI
  3
ACMSYMBB_MODULE_NAME
 90
        0
280
     1
281
     0
  0
CLASS
  1
ACMSTANDARDISO
  2
AcmStandardISO
  3
"Amdt_StdImp|Product Description: AutoCAD Mechanical 2004 DX|Company: Autodesk"
 90
        0
280
     1
281
     0
  0
CLASS
  1
AMDTEDGESTANDARDISO13715
  2
AmdtEdgeStdISO13715
  3
"Amdt_StdImp|Product Description: AutoCAD Mechanical 2004 DX|Company: Autodesk"
 90
        0
280
     1
281
     0
  0
CLASS
  1
ACMSURFSTANDARDISO
  2
AcmSurfTextStdISO
  3
"Amdt_StdImp|Product Description: AutoCAD Mechanical 2004 DX|Company: Autodesk"
 90
        0
280
     1
281
     0
  0
CLASS
  1
ACMFCFSTANDARDISO
  2
AcmFCFStdISO
  3
"Amdt_StdImp|Product Description: AutoCAD Mechanical 2004 DX|Company: Autodesk"
 90
        0
280
     1
281
     0
  0
CLASS
  1
ACMWELDSTANDARDISO
  2
AcmWeldingStdISO
  3
"Amdt_StdImp|Product Description: AutoCAD Mechanical 2004 DX|Company: Autodesk"
 90
        0
280
     1
281
     0
  0
CLASS
  1
ACMIDSTANDARDISO
  2
AcmIdStdISO
  3
"Amdt_StdImp|Product Description: AutoCAD Mechanical 2004 DX|Company: Autodesk"
 90
        0
280
     1
281
     0
  0
CLASS
  1
ACMDATUMSTANDARDISO
  2
AcmDatumStdISO
  3
"Amdt_StdImp|Product Description: AutoCAD Mechanical 2004 DX|Company: Autodesk"
 90
        0
280
     1
281
     0
  0
CLASS
  1
ACMBOMSTANDARDISO
  2
AcmBOMStdISO
  3
"Amdt_StdImp|Product Description: AutoCAD Mechanical 2004 DX|Company: Autodesk"
 90
        0
280
     1
281
     0
  0
CLASS
  1
ACMDETAILSTANDARDISO
  2
AmdtDetailSymStdISO
  3
"Amdt_StdImp|Product Description: AutoCAD Mechanical 2004 DX|Company: Autodesk"
 90
        0
280
     1
281
     0
  0
CLASS
  1
ACMSECTIONSTANDARDISO
  2
AmdtSectionSymStdISO
  3
"Amdt_StdImp|Product Description: AutoCAD Mechanical 2004 DX|Company: Autodesk"
 90
        0
280
     1
281
     0
  0
CLASS
  1
ACMCENTERLINESTANDARDISO
  2
AmdtCenterLineStdISO
  3
"Amdt_StdImp|Product Description: AutoCAD Mechanical 2004 DX|Company: Autodesk"
 90
        0
280
     1
281
     0
  0
CLASS
  1
ACMTHREADLINESTANDARDISO
  2
AmdtThreadLineStdISO
  3
"Amdt_StdImp|Product Description: AutoCAD Mechanical 2004 DX|Company: Autodesk"
 90
        0
280
     1
281
     0
  0
CLASS
  1
ACMNOTESTANDARDISO
  2
AmdtNoteStdISO
  3
"Amdt_StdImp|Product Description: AutoCAD Mechanical 2004 DX|Company: Autodesk"
 90
        0
280
     1
281
     0
  0
CLASS
  1
ACAMGHOLECHARTSTDISO
  2
AcAmgHoleChartStdISO
  3
ACMSYMBB_MODULE_NAME
 90
        0
280
     1
281
     0
  0
CLASS
  1
ACMFCFRAME
  2
AcmFCF
  3
"AcmSymBB|Product Description: AutoCAD Mechanical 2004 DX|Company: Autodesk"
 90
     1023
280
     1
281
     1
  0
CLASS
  1
ACMDATUMID
  2
AcmDatumId
  3
"AcmSymBB|Product Description: AutoCAD Mechanical 2004 DX|Company: Autodesk"
 90
     1023
280
     1
281
     1
  0
CLASS
  1
AMDTFORMULAUPDATEDISPATCHER
  2
AmdtFormulaUpdateDispatcher
  3
AcMeServices
 90
        0
280
     1
281
     0
  0
ENDSEC
  0
SECTION
  2
TABLES
  0
TABLE
  2
VPORT
  5
8
330
0
100
AcDbSymbolTable
 70
    41
  0
VPORT
  5
16586
330
8
100
AcDbSymbolTableRecord
100
AcDbViewportTableRecord
  2
*Active
 70
     0
 10
0.0
 20
0.0
 11
1.0
 21
1.0
 12
70.27369838180175
 22
-65.15643855703922
 13
0.0
 23
0.0
 14
2.5
 24
2.5
 15
10.0
 25
10.0
 16
0.0
 26
0.0
 36
1.0
 17
0.0
 27
0.0
 37
0.0
 40
237.0632872984303
 41
1.697058823529412
 42
50.0
 43
0.0
 44
0.0
 50
0.0
 51
0.0
 71
    16
 72
  2000
 73
     1
 74
     3
 75
     0
 76
     0
 77
     0
 78
     0
281
     0
 65
     1
110
0.0
120
0.0
130
0.0
111
1.0
121
0.0
131
0.0
112
0.0
122
1.0
132
0.0
 79
     0
146
0.0
  0
ENDTAB
  0
TABLE
  2
LTYPE
  5
5
330
0
100
AcDbSymbolTable
 70
    18
  0
LTYPE
  5
14
330
5
100
AcDbSymbolTableRecord
100
AcDbLinetypeTableRecord
  2
ByBlock
 70
     0
  3

 72
    65
 73
     0
 40
0.0
  0
LTYPE
  5
15
330
5
100
AcDbSymbolTableRecord
100
AcDbLinetypeTableRecord
  2
ByLayer
 70
     0
  3

 72
    65
 73
     0
 40
0.0
  0
LTYPE
  5
16
330
5
100
AcDbSymbolTableRecord
100
AcDbLinetypeTableRecord
  2
Continuous
 70
     0
  3
Solid line
 72
    65
 73
     0
 40
0.0
  0
LTYPE
  5
43
330
5
100
AcDbSymbolTableRecord
100
AcDbLinetypeTableRecord
  2
AM_ISO02W050
 70
     0
  3
__ __ __ __ __ __ __ __ __ __ __ __ __ __ __
 72
    65
 73
     2
 40
7.5
 49
6.0
 74
     0
 49
-1.5
 74
     0
  0
LTYPE
  5
44
330
5
100
AcDbSymbolTableRecord
100
AcDbLinetypeTableRecord
  2
AM_ISO08W050
 70
     0
  3
____ . ____ . ____ . ____ . ____ . ____ . ____
 72
    65
 73
     4
 40
18.0
 49
12.0
 74
     0
 49
-1.5
 74
     0
 49
3.0
 74
     0
 49
-1.5
 74
     0
  0
LTYPE
  5
45
330
5
100
AcDbSymbolTableRecord
100
AcDbLinetypeTableRecord
  2
AM_ISO09W050
 70
     0
  3
_____ . . _____ . . _____ . . ____ .. ____
 72
    65
 73
     6
 40
22.5
 49
12.0
 74
     0
 49
-1.5
 74
     0
 49
3.0
 74
     0
 49
-1.5
 74
     0
 49
3.0
 74
     0
 49
-1.5
 74
     0
  0
LTYPE
  5
46
330
5
100
AcDbSymbolTableRecord
100
AcDbLinetypeTableRecord
  2
Amconstr
 70
     0
  3
_______________________
 72
    65
 73
     2
 40
9999.0
 49
9999.0
 74
     0
 49
0.0
 74
     0
  0
LTYPE
  5
47
330
5
100
AcDbSymbolTableRecord
100
AcDbLinetypeTableRecord
  2
AM_ISO02W050x2
 70
     0
  3
 _ _ _ _ _ _ _ _ _ _ _ _
 72
    65
 73
     2
 40
3.75
 49
3.0
 74
     0
 49
-0.75
 74
     0
  0
LTYPE
  5
48
330
5
100
AcDbSymbolTableRecord
100
AcDbLinetypeTableRecord
  2
AM_ISO08W050x2
 70
     0
  3
__ . __ . __ . __ . __ . __
 72
    65
 73
     4
 40
9.0
 49
6.0
 74
     0
 49
-0.75
 74
     0
 49
1.5
 74
     0
 49
-0.75
 74
     0
  0
LTYPE
  5
4B
330
5
100
AcDbSymbolTableRecord
100
AcDbLinetypeTableRecord
  2
Amzigzag
 70
     0
  3
/\/-/\/-/\/-/\/-/\/-/\/
 72
    65
 73
     2
 40
11.0001
 49
0.0001
 74
     4
 75
   135
340
4A
 46
0.04
 50
0.0
 44
0.0
 45
0.0
 49
-11.0
 74
     0
  0
LTYPE
  5
188
330
5
100
AcDbSymbolTableRecord
100
AcDbLinetypeTableRecord
  2
ACJISTGB
 70
     0
  3
__ . . __ . .
 72
    65
 73
     6
 40
9.0
 49
4.0
 74
     0
 49
-1.0
 74
     0
 49
1.0
 74
     0
 49
-1.0
 74
     0
 49
1.0
 74
     0
 49
-1.0
 74
     0
  0
LTYPE
  5
189
330
5
100
AcDbSymbolTableRecord
100
AcDbLinetypeTableRecord
  2
ACJISTGL
 70
     0
  3
_ _ _ _ _
 72
    65
 73
     2
 40
3.0
 49
2.0
 74
     0
 49
-1.0
 74
     0
  0
LTYPE
  5
652
330
5
100
AcDbSymbolTableRecord
100
AcDbLinetypeTableRecord
  2
CENTER
 70
     0
  3
____ _ ____ _ ____ _ ____ _ ____ _ ____ _ ____
 72
    65
 73
     4
 40
17.5
 49
13.0
 74
     0
 49
-1.5
 74
     0
 49
1.5
 74
     0
 49
-1.5
 74
     0
  0
LTYPE
  5
12AB
330
5
100
AcDbSymbolTableRecord
100
AcDbLinetypeTableRecord
  2
HIDDEN
 70
     0
  3
Hidden __ __ __ __ __ __ __ __ __ __ __ __ __ _
 72
    65
 73
     2
 40
0.375
 49
0.25
 74
     0
 49
-0.125
 74
     0
  0
LTYPE
  5
12AC
330
5
100
AcDbSymbolTableRecord
100
AcDbLinetypeTableRecord
  2
PHANTOM2
 70
     0
  3
Phantom (.5x) ___ _ _ ___ _ _ ___ _ _ ___ _ _
 72
    65
 73
     6
 40
1.25
 49
0.625
 74
     0
 49
-0.125
 74
     0
 49
0.125
 74
     0
 49
-0.125
 74
     0
 49
0.125
 74
     0
 49
-0.125
 74
     0
  0
LTYPE
  5
644C
330
5
100
AcDbSymbolTableRecord
100
AcDbLinetypeTableRecord
  2
ACANSTGB
 70
     0
  3
__ . . __ . .
 72
    65
 73
     6
 40
0.35433070866
 49
0.15748031496
 74
     0
 49
-0.03937007874
 74
     0
 49
0.03937007874
 74
     0
 49
-0.03937007874
 74
     0
 49
0.03937007874
 74
     0
 49
-0.03937007874
 74
     0
  0
LTYPE
  5
644D
330
5
100
AcDbSymbolTableRecord
100
AcDbLinetypeTableRecord
  2
ACANSTGL
 70
     0
  3
_ _ _ _ _
 72
    65
 73
     2
 40
0.11811023622
 49
0.07874015748
 74
     0
 49
-0.03937007874
 74
     0
  0
LTYPE
  5
7C90
330
5
100
AcDbSymbolTableRecord
100
AcDbLinetypeTableRecord
  2
ACISOWELD
 70
     0
  3
_ _ _ _ _
 72
    65
 73
     2
 40
2.0
 49
2.0
 74
     0
 49
-1.0
 74
     0
  0
LTYPE
  5
7C91
330
5
100
AcDbSymbolTableRecord
100
AcDbLinetypeTableRecord
  2
ACISOTGB
 70
     0
  3
__ . . __ . .
 72
    65
 73
     6
 40
9.0
 49
4.0
 74
     0
 49
-1.0
 74
     0
 49
1.0
 74
     0
 49
-1.0
 74
     0
 49
1.0
 74
     0
 49
-1.0
 74
     0
  0
LTYPE
  5
7C92
330
5
100
AcDbSymbolTableRecord
100
AcDbLinetypeTableRecord
  2
ACISOTGL
 70
     0
  3
_ _ _ _ _
 72
    65
 73
     2
 40
3.0
 49
2.0
 74
     0
 49
-1.0
 74
     0
  0
ENDTAB
  0
TABLE
  2
LAYER
  5
2
102
{ACAD_XDICTIONARY
360
5D34
102
}
330
0
100
AcDbSymbolTable
 70
     5
  0
LAYER
  5
10
330
2
100
AcDbSymbolTableRecord
100
AcDbLayerTableRecord
  2
0
 70
     0
 62
     7
  6
Continuous
370
    -3
390
F
  0
LAYER
  5
7F
330
2
100
AcDbSymbolTableRecord
100
AcDbLayerTableRecord
  2
Defpoints
 70
     0
 62
     7
  6
Continuous
290
     0
370
    -3
390
F
  0
LAYER
  5
12B1
330
2
100
AcDbSymbolTableRecord
100
AcDbLayerTableRecord
  2
AM_0
 70
     0
 62
     7
  6
Continuous
370
    30
390
F
  0
LAYER
  5
18C7
330
2
100
AcDbSymbolTableRecord
100
AcDbLayerTableRecord
  2
AM_6
 70
     0
 62
     2
  6
Continuous
370
    30
390
F
  0
LAYER
  5
7C24
330
2
100
AcDbSymbolTableRecord
100
AcDbLayerTableRecord
  2
AM_5
 70
     0
 62
     3
  6
Continuous
370
    13
390
F
  0
ENDTAB
  0
TABLE
  2
STYLE
  5
3
330
0
100
AcDbSymbolTable
 70
     8
  0
STYLE
  5
11
330
3
100
AcDbSymbolTableRecord
100
AcDbTextStyleTableRecord
  2
STANDARD
 70
     0
 40
0.0
 41
1.0
 50
0.0
 71
     0
 42
6.0
  3
ISOCP.SHX
  4
EXTFONT.SHX
  0
STYLE
  5
4A
330
3
100
AcDbSymbolTableRecord
100
AcDbTextStyleTableRecord
  2

 70
     1
 40
0.0
 41
1.0
 50
0.0
 71
     0
 42
2.5
  3
ltypeshp.shx
  4

  0
STYLE
  5
180
330
3
100
AcDbSymbolTableRecord
100
AcDbTextStyleTableRecord
  2
ACJISTS
 70
     0
 40
1.0
 41
1.0
 50
0.0
 71
     0
 42
2.5
  3
isocp.shx
  4
bigfont.shx
  0
STYLE
  5
187
330
3
100
AcDbSymbolTableRecord
100
AcDbTextStyleTableRecord
  2
ACJISGDT
 70
     0
 40
0.0
 41
1.0
 50
0.0
 71
     0
 42
2.5
  3
amgdt.shx
  4

  0
STYLE
  5
644E
330
3
100
AcDbSymbolTableRecord
100
AcDbTextStyleTableRecord
  2
ACANSTS
 70
     0
 40
1.0
 41
1.0
 50
0.0
 71
     0
 42
2.5
  3
romans.shx
  4
extfont.shx
  0
STYLE
  5
644F
330
3
100
AcDbSymbolTableRecord
100
AcDbTextStyleTableRecord
  2
ACANSGDT
 70
     0
 40
0.0
 41
1.0
 50
0.0
 71
     0
 42
2.5
  3
amgdtans.shx
  4

  0
STYLE
  5
7C97
330
3
100
AcDbSymbolTableRecord
100
AcDbTextStyleTableRecord
  2
ACISOTS
 70
     0
 40
1.0
 41
1.0
 50
0.0
 71
     0
 42
1.0
  3
isocp.shx
  4
extfont.shx
  0
STYLE
  5
7C98
330
3
100
AcDbSymbolTableRecord
100
AcDbTextStyleTableRecord
  2
ACISOGDT
 70
     0
 40
0.0
 41
1.0
 50
0.0
 71
     0
 42
1.0
  3
amgdt.shx
  4

  0
ENDTAB
  0
TABLE
  2
VIEW
  5
6
330
0
100
AcDbSymbolTable
 70
     6
  0
VIEW
  5
A30
330
6
100
AcDbSymbolTableRecord
100
AcDbViewTableRecord
  2
AM_VIEW1
 70
     0
 40
210.0
 10
153.7072243346008
 20
315.0
 41
307.4144486692015
 11
0.0
 21
0.0
 31
1.0
 12
0.0
 22
0.0
 32
0.0
 42
50.0
 43
0.0
 44
0.0
 50
0.0
 71
    16
281
     0
 72
     0
  0
VIEW
  5
A31
330
6
100
AcDbSymbolTableRecord
100
AcDbViewTableRecord
  2
AM_VIEW2
 70
     0
 40
210.0
 10
440.2927756653992
 20
315.0
 41
307.4144486692015
 11
0.0
 21
0.0
 31
1.0
 12
0.0
 22
0.0
 32
0.0
 42
50.0
 43
0.0
 44
0.0
 50
0.0
 71
    16
281
     0
 72
     0
  0
VIEW
  5
A32
330
6
100
AcDbSymbolTableRecord
100
AcDbViewTableRecord
  2
AM_VIEW3
 70
     0
 40
210.0
 10
153.7072243346008
 20
105.0
 41
307.4144486692015
 11
0.0
 21
0.0
 31
1.0
 12
0.0
 22
0.0
 32
0.0
 42
50.0
 43
0.0
 44
0.0
 50
0.0
 71
    16
281
     0
 72
     0
  0
VIEW
  5
A33
330
6
100
AcDbSymbolTableRecord
100
AcDbViewTableRecord
  2
AM_VIEW4
 70
     0
 40
210.0
 10
440.2927756653992
 20
105.0
 41
307.4144486692015
 11
0.0
 21
0.0
 31
1.0
 12
0.0
 22
0.0
 32
0.0
 42
50.0
 43
0.0
 44
0.0
 50
0.0
 71
    16
281
     0
 72
     0
  0
VIEW
  5
A34
330
6
100
AcDbSymbolTableRecord
100
AcDbViewTableRecord
  2
AM_VIEW5
 70
     0
 40
210.0
 10
297.0
 20
210.0
 41
307.4144486692015
 11
0.0
 21
0.0
 31
1.0
 12
0.0
 22
0.0
 32
0.0
 42
50.0
 43
0.0
 44
0.0
 50
0.0
 71
    16
281
     0
 72
     0
  0
VIEW
  5
A35
330
6
100
AcDbSymbolTableRecord
100
AcDbViewTableRecord
  2
AM_VIEW6
 70
     0
 40
419.9958
 10
297.0
 20
210.0
 41
614.8227490494296
 11
0.0
 21
0.0
 31
1.0
 12
0.0
 22
0.0
 32
0.0
 42
50.0
 43
0.0
 44
0.0
 50
0.0
 71
    16
281
     0
 72
     0
  0
ENDTAB
  0
TABLE
  2
UCS
  5
7
330
0
100
AcDbSymbolTable
 70
     0
  0
ENDTAB
  0
TABLE
  2
APPID
  5
9
330
0
100
AcDbSymbolTable
 70
    44
  0
APPID
  5
12
330
9
100
AcDbSymbolTableRecord
100
AcDbRegAppTableRecord
  2
ACAD
 70
     0
  0
APPID
  5
2C
330
9
100
AcDbSymbolTableRecord
100
AcDbRegAppTableRecord
  2
MCAD_NO_VIS
 70
     0
  0
APPID
  5
2D
330
9
100
AcDbSymbolTableRecord
100
AcDbRegAppTableRecord
  2
ACAD_TEMP_GRAPHIC
 70
     0
  0
APPID
  5
B9
330
9
100
AcDbSymbolTableRecord
100
AcDbRegAppTableRecord
  2
GENIUS_GENDTOL_13
 70
     0
  0
APPID
  5
359
330
9
100
AcDbSymbolTableRecord
100
AcDbRegAppTableRecord
  2
GENIUS_GENREC_14
 70
     0
  0
APPID
  5
35A
330
9
100
AcDbSymbolTableRecord
100
AcDbRegAppTableRecord
  2
GENIUS_GENODEF_13
 70
     0
  0
APPID
  5
35B
330
9
100
AcDbSymbolTableRecord
100
AcDbRegAppTableRecord
  2
GENIUS_GENOBJ-N-REC_13
 70
     0
  0
APPID
  5
667
330
9
100
AcDbSymbolTableRecord
100
AcDbRegAppTableRecord
  2
GENIUS_GENCFG_13
 70
     0
  0
APPID
  5
668
330
9
100
AcDbSymbolTableRecord
100
AcDbRegAppTableRecord
  2
GENIUS_GENCFG0_13
 70
     0
  0
APPID
  5
669
330
9
100
AcDbSymbolTableRecord
100
AcDbRegAppTableRecord
  2
GENIUS_GENCFG1_13
 70
     0
  0
APPID
  5
66A
330
9
100
AcDbSymbolTableRecord
100
AcDbRegAppTableRecord
  2
GENIUS_GENCFG2_13
 70
     0
  0
APPID
  5
66B
330
9
100
AcDbSymbolTableRecord
100
AcDbRegAppTableRecord
  2
GENIUS_GENCFG3_13
 70
     0
  0
APPID
  5
66C
330
9
100
AcDbSymbolTableRecord
100
AcDbRegAppTableRecord
  2
GENIUS_GENCFG4_13
 70
     0
  0
APPID
  5
A76
330
9
100
AcDbSymbolTableRecord
100
AcDbRegAppTableRecord
  2
GENIUS_GENBLLY_14
 70
     0
  0
APPID
  5
A77
330
9
100
AcDbSymbolTableRecord
100
AcDbRegAppTableRecord
  2
GENIUS_GENOBJ-N-CEN_13
 70
     0
  0
APPID
  5
A83
330
9
100
AcDbSymbolTableRecord
100
AcDbRegAppTableRecord
  2
GENIUS_GENTRA_14
 70
     0
  0
APPID
  5
A8D
330
9
100
AcDbSymbolTableRecord
100
AcDbRegAppTableRecord
  2
GENIUS_GENOBJ-N-TIT_13
 70
     0
  0
APPID
  5
A8E
330
9
100
AcDbSymbolTableRecord
100
AcDbRegAppTableRecord
  2
GENIUS_GENTITLE_13
 70
     0
  0
APPID
  5
A8F
330
9
100
AcDbSymbolTableRecord
100
AcDbRegAppTableRecord
  2
GENIUS_GENOENT_13
 70
     0
  0
APPID
  5
A90
330
9
100
AcDbSymbolTableRecord
100
AcDbRegAppTableRecord
  2
GENIUS_GENOREF_13
 70
     0
  0
APPID
  5
A91
330
9
100
AcDbSymbolTableRecord
100
AcDbRegAppTableRecord
  2
GENIUS_GENOLIS_13
 70
     0
  0
APPID
  5
A92
330
9
100
AcDbSymbolTableRecord
100
AcDbRegAppTableRecord
  2
GENIUS_GENZVEED_13
 70
     0
  0
APPID
  5
A93
330
9
100
AcDbSymbolTableRecord
100
AcDbRegAppTableRecord
  2
GENIUS_GENSCREG_15
 70
     0
  0
APPID
  5
A94
330
9
100
AcDbSymbolTableRecord
100
AcDbRegAppTableRecord
  2
GENIUS_GENOBJ-N-SDF_13
 70
     0
  0
APPID
  5
12B5
330
9
100
AcDbSymbolTableRecord
100
AcDbRegAppTableRecord
  2
GENIUS_GENOBJ-N-RSBK_13
 70
     0
  0
APPID
  5
12B6
330
9
100
AcDbSymbolTableRecord
100
AcDbRegAppTableRecord
  2
GENIUS_GENOBJ-N-LIB_13
 70
     0
  0
APPID
  5
12B7
330
9
100
AcDbSymbolTableRecord
100
AcDbRegAppTableRecord
  2
GENIUS_GENSCALE_13
 70
     0
  0
APPID
  5
12B8
330
9
100
AcDbSymbolTableRecord
100
AcDbRegAppTableRecord
  2
GENIUS_GENOBJ-N-HTC_13
 70
     0
  0
APPID
  5
12B9
330
9
100
AcDbSymbolTableRecord
100
AcDbRegAppTableRecord
  2
GENIUS_GENHATCH_13
 70
     0
  0
APPID
  5
18CB
330
9
100
AcDbSymbolTableRecord
100
AcDbRegAppTableRecord
  2
GENIUS_GENFIL_13
 70
     0
  0
APPID
  5
18CC
330
9
100
AcDbSymbolTableRecord
100
AcDbRegAppTableRecord
  2
GENIUS_GENOBJ-N-CHA_13
 70
     0
  0
APPID
  5
18CD
330
9
100
AcDbSymbolTableRecord
100
AcDbRegAppTableRecord
  2
GENIUS_GENOBJ-N-FIL_13
 70
     0
  0
APPID
  5
18CE
330
9
100
AcDbSymbolTableRecord
100
AcDbRegAppTableRecord
  2
GENIUS_GENOBJ-N-DIM_13
 70
     0
  0
APPID
  5
18CF
330
9
100
AcDbSymbolTableRecord
100
AcDbRegAppTableRecord
  2
GENIUS_GENDIM_13
 70
     0
  0
APPID
  5
25AC
330
9
100
AcDbSymbolTableRecord
100
AcDbRegAppTableRecord
  2
BASE_TYPE
 70
     0
  0
APPID
  5
2EBA
330
9
100
AcDbSymbolTableRecord
100
AcDbRegAppTableRecord
  2
AD_DRAW
 70
     0
  0
APPID
  5
2EBD
330
9
100
AcDbSymbolTableRecord
100
AcDbRegAppTableRecord
  2
ACATTRIBSERVICES
 70
     0
  0
APPID
  5
2EDB
330
9
100
AcDbSymbolTableRecord
100
AcDbRegAppTableRecord
  2
DESIGNERASSEMBLIES
 70
     0
  0
APPID
  5
2EEE
330
9
100
AcDbSymbolTableRecord
100
AcDbRegAppTableRecord
  2
ACADM_DIM_EDIT
 70
     0
  0
APPID
  5
2EEF
330
9
100
AcDbSymbolTableRecord
100
AcDbRegAppTableRecord
  2
AMDT_DM_ADJ
 70
     0
  0
APPID
  5
34C9
330
9
100
AcDbSymbolTableRecord
100
AcDbRegAppTableRecord
  2
ACAD_DSTYLE_DIMTEXT_FILL
 70
     0
  0
APPID
  5
34CA
330
9
100
AcDbSymbolTableRecord
100
AcDbRegAppTableRecord
  2
ACAD_PSEXT
 70
     0
  0
APPID
  5
3BAA
330
9
100
AcDbSymbolTableRecord
100
AcDbRegAppTableRecord
  2
GENIUS_GENCEN_19
 70
     0
  0
APPID
  5
5C9D
330
9
100
AcDbSymbolTableRecord
100
AcDbRegAppTableRecord
  2
GENIUS_GENDIMSH_14
 70
     0
  0
ENDTAB
  0
TABLE
  2
DIMSTYLE
  5
A
330
0
100
AcDbSymbolTable
 70
    24
100
AcDbDimStyleTable
  0
DIMSTYLE
105
58
330
A
100
AcDbSymbolTableRecord
100
AcDbDimStyleTableRecord
  2
AM_JIS
 70
     0
  4
"
 41
2.5
 42
0.0
 43
10.0
 44
1.0
 47
0.1
 48
0.1000000001
 73
     0
 74
     0
 77
     3
 78
     1
 79
     2
140
3.8
141
0.0
143
0.0393701
146
0.71
147
1.5
172
     1
176
   256
177
   256
178
     2
179
     1
271
     2
272
     2
275
     1
283
     0
284
     8
340
11
341
59
342
59
371
    -1
372
    -1
  0
DIMSTYLE
105
5F
330
A
100
AcDbSymbolTableRecord
100
AcDbDimStyleTableRecord
  2
AM_JIS$3
 70
     0
  4
"
 41
2.5
 42
0.0
 43
10.0
 44
1.0
 47
0.1
 48
0.1000000001
 73
     0
 77
     3
 78
     1
 79
     2
140
3.8
141
0.0
143
0.0393701
146
0.71
147
1.5
172
     1
176
   256
177
   256
178
     2
179
     1
271
     2
272
     2
275
     1
283
     0
284
     8
288
     1
289
     0
340
11
341
59
342
59
371
    -1
372
    -1
  0
DIMSTYLE
105
60
330
A
100
AcDbSymbolTableRecord
100
AcDbDimStyleTableRecord
  2
AM_JIS$4
 70
     0
  4
"
 41
2.5
 42
0.0
 43
10.0
 44
1.0
 47
0.1
 48
0.1000000001
 73
     0
 77
     3
 78
     1
 79
     2
140
3.8
141
0.0
143
0.0393701
146
0.71
147
1.5
172
     1
176
   256
177
   256
178
     2
179
     1
271
     2
272
     2
275
     1
283
     0
284
     8
288
     1
289
     0
340
11
341
59
342
59
371
    -1
372
    -1
  0
DIMSTYLE
105
61
330
A
100
AcDbSymbolTableRecord
100
AcDbDimStyleTableRecord
  2
AM_JIS$6
 70
     0
  4
"
 41
2.5
 42
0.0
 43
10.0
 44
1.0
 47
0.1
 48
0.1000000001
 73
     0
 74
     0
 78
     1
 79
     2
140
3.8
141
0.0
143
0.0393701
146
0.71
147
1.5
172
     1
176
   256
177
   256
178
     2
179
     1
271
     2
272
     2
275
     1
283
     0
284
     8
340
11
341
59
342
59
371
    -1
372
    -1
  0
DIMSTYLE
105
62
330
A
100
AcDbSymbolTableRecord
100
AcDbDimStyleTableRecord
  2
AM_JIS$7
 70
     0
  4
"
 41
2.5
 42
0.0
 43
10.0
 44
1.0
 47
0.1
 48
0.1000000001
 73
     0
 74
     0
 77
     3
 78
     1
 79
     2
140
5.0
141
0.0
143
0.0393701
146
0.71
147
1.5
172
     1
176
   256
177
   256
178
     2
179
     1
271
     2
272
     2
275
     1
283
     0
284
     8
340
11
341
59
342
59
371
    -1
372
    -1
  0
DIMSTYLE
105
63
330
A
100
AcDbSymbolTableRecord
100
AcDbDimStyleTableRecord
  2
AM_JIS$SF
 70
     0
  4
"
 41
2.5
 42
1.0
 43
10.0
 44
1.0
 47
0.1
 48
0.1
 73
     0
 74
     0
 75
     1
 76
     1
 77
     3
 78
     8
 79
     2
140
3.5
141
0.0
143
0.0393701
146
0.71
147
1.5
176
   256
177
   256
178
     2
271
     2
272
     3
274
     4
340
11
341
59
342
59
343
59
344
59
371
    -1
372
    -1
  0
DIMSTYLE
105
68
330
A
100
AcDbSymbolTableRecord
100
AcDbDimStyleTableRecord
  2
AM_JIS$SH
 70
     0
  4
"
 41
2.5
 42
1.0
 43
10.0
 44
1.0
 47
0.1
 48
0.1
 73
     0
 74
     0
 75
     1
 76
     1
 77
     3
 78
     8
 79
     2
140
3.5
141
0.0
143
0.0393701
144
2.0
146
0.71
147
1.5
173
     1
176
   256
177
   256
178
     2
271
     2
272
     3
274
     4
340
11
341
59
342
59
343
64
344
59
371
    -1
372
    -1
  0
DIMSTYLE
105
65F
330
A
100
AcDbSymbolTableRecord
100
AcDbDimStyleTableRecord
  2
STANDARD
 70
     0
340
11
  0
DIMSTYLE
105
18C9
102
{ACAD_REACTORS
330
10A37
330
10A93
330
10ABD
330
10ADF
330
113BF
330
13958
102
}
330
A
100
AcDbSymbolTableRecord
100
AcDbDimStyleTableRecord
  2
AM_JIS$0
 70
     0
  4
"
 41
2.5
 42
0.0
 43
10.0
 44
1.0
 47
0.1
 48
0.1000000001
 73
     0
 74
     0
 77
     3
 78
     1
 79
     2
140
3.8
141
0.0
143
0.0393701
146
0.71
147
1.5
172
     1
176
     3
177
     3
178
     2
271
     2
272
     2
275
     1
283
     0
284
     8
289
     0
340
11
341
59
342
59
371
    13
372
    13
  0
DIMSTYLE
105
18CA
102
{ACAD_REACTORS
330
16455
102
}
330
A
100
AcDbSymbolTableRecord
100
AcDbDimStyleTableRecord
  2
AM_JIS$2
 70
     0
  4
"
 41
2.5
 42
0.0
 43
10.0
 44
1.0
 47
0.1
 48
0.1000000001
 73
     0
 74
     0
 77
     3
 78
     1
 79
     2
140
3.8
141
0.0
143
0.0393701
146
0.71
147
1.5
172
     1
176
     3
177
     3
178
     2
271
     2
272
     2
275
     1
283
     0
284
     8
289
     0
340
11
341
59
342
59
371
    13
372
    13
  0
DIMSTYLE
105
6450
330
A
100
AcDbSymbolTableRecord
100
AcDbDimStyleTableRecord
  2
AM_ANSI
 70
     0
  4
mm
 41
0.1
 42
0.05
 43
0.5
 44
0.1
 47
0.1
 48
0.1
 78
     7
 79
     2
140
0.12
141
0.0
146
0.71
147
0.06
176
   256
177
   256
178
     2
274
     4
284
     7
340
11
371
    -1
372
    -1
  0
DIMSTYLE
105
6451
330
A
100
AcDbSymbolTableRecord
100
AcDbDimStyleTableRecord
  2
AM_ANSI$3
 70
     0
  4
mm
 41
0.1
 42
0.05
 43
0.5
 44
0.1
 47
0.1
 48
0.1
 78
     7
 79
     2
140
0.12
141
0.0
146
0.71
147
0.06
176
   256
177
   256
178
     2
274
     4
284
     7
288
     1
289
     0
340
11
371
    -1
372
    -1
  0
DIMSTYLE
105
6452
330
A
100
AcDbSymbolTableRecord
100
AcDbDimStyleTableRecord
  2
AM_ANSI$4
 70
     0
  4
mm
 41
0.1
 42
0.05
 43
0.5
 44
0.1
 47
0.1
 48
0.1
 78
     7
 79
     2
140
0.12
141
0.0
146
0.71
147
0.06
176
   256
177
   256
178
     2
274
     4
284
     7
288
     1
289
     0
340
11
371
    -1
372
    -1
  0
DIMSTYLE
105
6453
330
A
100
AcDbSymbolTableRecord
100
AcDbDimStyleTableRecord
  2
AM_ANSI$7
 70
     0
  4
mm
 41
0.1
 42
0.05
 43
0.5
 44
0.1
 47
0.1
 48
0.1
 78
     7
 79
     2
140
0.24
141
0.0
146
0.71
147
0.06
176
   256
177
   256
178
     2
274
     4
284
     7
340
11
371
    -1
372
    -1
  0
DIMSTYLE
105
6454
330
A
100
AcDbSymbolTableRecord
100
AcDbDimStyleTableRecord
  2
AM_ANSI$SF
 70
     0
  4
mm
 41
0.1
 42
0.05
 43
0.5
 44
0.1
 47
0.1
 48
0.1
 75
     1
 76
     1
 78
     7
 79
     2
140
0.12
141
0.0
146
0.71
147
0.06
176
   256
177
   256
178
     2
274
     4
284
     7
340
11
371
    -1
372
    -1
  0
DIMSTYLE
105
6455
330
A
100
AcDbSymbolTableRecord
100
AcDbDimStyleTableRecord
  2
AM_ANSI$SH
 70
     0
  4
mm
 41
0.1
 42
0.05
 43
0.5
 44
0.1
 47
0.1
 48
0.1
 75
     1
 76
     1
 78
     7
 79
     2
140
0.12
141
0.0
146
0.71
147
0.06
173
     1
176
   256
177
   256
178
     2
274
     4
284
     7
340
11
343
64
371
    -1
372
    -1
  0
DIMSTYLE
105
6456
330
A
100
AcDbSymbolTableRecord
100
AcDbDimStyleTableRecord
  2
STANDARD$0
 70
     0
340
11
  0
DIMSTYLE
105
7C9B
330
A
100
AcDbSymbolTableRecord
100
AcDbDimStyleTableRecord
  2
AM_ISO
 70
     0
  4
mm
 41
0.1
 42
0.05
 43
0.5
 44
0.1
 47
0.1
 48
0.1
 73
     0
 74
     0
 77
     1
 78
     7
 79
     2
140
0.12
141
0.0
146
0.71
147
0.06
172
     1
176
   256
177
   256
178
     2
274
     4
283
     0
284
     7
340
11
371
    -1
372
    -1
  0
DIMSTYLE
105
7C9C
330
A
100
AcDbSymbolTableRecord
100
AcDbDimStyleTableRecord
  2
AM_ISO$3
 70
     0
  4
mm
 41
0.1
 42
0.05
 43
0.5
 44
0.1
 47
0.1
 48
0.1
 73
     0
 77
     1
 78
     7
 79
     2
140
0.12
141
0.0
146
0.71
147
0.06
176
   256
177
   256
178
     2
274
     4
283
     0
284
     7
288
     1
289
     0
340
11
371
    -1
372
    -1
  0
DIMSTYLE
105
7C9D
330
A
100
AcDbSymbolTableRecord
100
AcDbDimStyleTableRecord
  2
AM_ISO$4
 70
     0
  4
mm
 41
0.1
 42
0.05
 43
0.5
 44
0.1
 47
0.1
 48
0.1
 73
     0
 77
     1
 78
     7
 79
     2
140
0.12
141
0.0
146
0.71
147
0.06
176
   256
177
   256
178
     2
274
     4
283
     0
284
     7
288
     1
289
     0
340
11
371
    -1
372
    -1
  0
DIMSTYLE
105
7C9E
330
A
100
AcDbSymbolTableRecord
100
AcDbDimStyleTableRecord
  2
AM_ISO$6
 70
     0
  4
mm
 41
0.1
 42
0.05
 43
0.5
 44
0.1
 47
0.1
 48
0.1
 73
     0
 74
     0
 78
     7
 79
     2
140
0.12
141
0.0
146
0.71
147
0.06
172
     1
176
   256
177
   256
178
     2
274
     4
283
     0
284
     7
340
11
371
    -1
372
    -1
  0
DIMSTYLE
105
7C9F
330
A
100
AcDbSymbolTableRecord
100
AcDbDimStyleTableRecord
  2
AM_ISO$7
 70
     0
  4
mm
 41
2.5
 42
0.05
 43
0.5
 44
0.1
 47
0.1
 48
0.1
 73
     0
 74
     0
 77
     1
 78
     7
 79
     2
140
5.0
141
0.0
146
0.71
147
1.5
172
     1
176
   256
177
   256
178
     2
274
     4
283
     0
284
     7
340
11
371
    -1
372
    -1
  0
DIMSTYLE
105
7CA0
330
A
100
AcDbSymbolTableRecord
100
AcDbDimStyleTableRecord
  2
AM_ISO$SF
 70
     0
  4
mm
 41
0.1
 42
0.05
 43
0.5
 44
0.1
 47
0.1
 48
0.1
 73
     0
 74
     0
 75
     1
 76
     1
 77
     1
 78
     7
 79
     2
140
0.12
141
0.0
146
0.71
147
0.06
172
     1
176
   256
177
   256
178
     2
274
     4
283
     0
284
     7
340
11
371
    -1
372
    -1
  0
DIMSTYLE
105
7CA1
330
A
100
AcDbSymbolTableRecord
100
AcDbDimStyleTableRecord
  2
AM_ISO$SH
 70
     0
  4
mm
 41
0.1
 42
0.05
 43
0.5
 44
0.1
 47
0.1
 48
0.1
 73
     0
 74
     0
 75
     1
 76
     1
 77
     1
 78
     7
 79
     2
140
0.12
141
0.0
144
2.0
146
0.71
147
0.06
172
     1
173
     1
176
   256
177
   256
178
     2
274
     4
283
     0
284
     7
340
11
343
64
371
    -1
372
    -1
  0
ENDTAB
  0
TABLE
  2
BLOCK_RECORD
  5
1
330
0
100
AcDbSymbolTable
 70
    11
  0
BLOCK_RECORD
  5
1F
102
{ACAD_XDICTIONARY
360
165
102
}
330
1
100
AcDbSymbolTableRecord
100
AcDbBlockTableRecord
  2
*Model_Space
340
22
  0
BLOCK_RECORD
  5
1B
330
1
100
AcDbSymbolTableRecord
100
AcDbBlockTableRecord
  2
*Paper_Space
340
1E
  0
BLOCK_RECORD
  5
23
330
1
100
AcDbSymbolTableRecord
100
AcDbBlockTableRecord
  2
*Paper_Space0
340
26
  0
BLOCK_RECORD
  5
59
330
1
100
AcDbSymbolTableRecord
100
AcDbBlockTableRecord
  2
_Open30
340
0
102
{BLKREFS
331
164AE
331
164AF
331
164B7
331
164B8
331
164C0
331
164C1
331
164C9
331
164CA
331
164D2
331
164D3
331
164DB
331
164DC
331
164E4
331
164E5
102
}
  0
BLOCK_RECORD
  5
64
330
1
100
AcDbSymbolTableRecord
100
AcDbBlockTableRecord
  2
GENAXEH
340
0
  0
BLOCK_RECORD
  5
2ED2
330
1
100
AcDbSymbolTableRecord
100
AcDbBlockTableRecord
  2
*U3
340
0
  0
BLOCK_RECORD
  5
10A38
330
1
100
AcDbSymbolTableRecord
100
AcDbBlockTableRecord
  2
*D4
340
0
  0
BLOCK_RECORD
  5
10A94
330
1
100
AcDbSymbolTableRecord
100
AcDbBlockTableRecord
  2
*D5
340
0
  0
BLOCK_RECORD
  5
10ABE
330
1
100
AcDbSymbolTableRecord
100
AcDbBlockTableRecord
  2
*D6
340
0
  0
BLOCK_RECORD
  5
10AE0
330
1
100
AcDbSymbolTableRecord
100
AcDbBlockTableRecord
  2
*D7
340
0
  0
BLOCK_RECORD
  5
113C0
330
1
100
AcDbSymbolTableRecord
100
AcDbBlockTableRecord
  2
*D8
340
0
  0
BLOCK_RECORD
  5
13959
330
1
100
AcDbSymbolTableRecord
100
AcDbBlockTableRecord
  2
*D9
340
0
  0
BLOCK_RECORD
  5
16456
330
1
100
AcDbSymbolTableRecord
100
AcDbBlockTableRecord
  2
*D10
340
0
  0
ENDTAB
  0
ENDSEC
  0
SECTION
  2
BLOCKS
  0
BLOCK
  5
20
330
1F
100
AcDbEntity
  8
0
100
AcDbBlockBegin
  2
*Model_Space
 70
     0
 71
     0
 10
0.0
 20
0.0
 30
0.0
  3
*Model_Space
  1

  0
ENDBLK
  5
21
330
1F
100
AcDbEntity
  8
0
100
AcDbBlockEnd
  0
BLOCK
  5
1C
330
1B
100
AcDbEntity
 67
     1
  8
0
100
AcDbBlockBegin
  2
*Paper_Space
 70
     0
 71
     0
 10
0.0
 20
0.0
 30
0.0
  3
*Paper_Space
  1

  0
ENDBLK
  5
1D
330
1B
100
AcDbEntity
 67
     1
  8
0
100
AcDbBlockEnd
  0
BLOCK
  5
24
330
23
100
AcDbEntity
  8
0
100
AcDbBlockBegin
  2
*Paper_Space0
 70
     0
 71
     0
 10
0.0
 20
0.0
 30
0.0
  3
*Paper_Space0
  1

  0
ENDBLK
  5
25
330
23
100
AcDbEntity
  8
0
100
AcDbBlockEnd
  0
BLOCK
  5
5D
330
59
100
AcDbEntity
  8
0
100
AcDbBlockBegin
  2
_Open30
 70
     0
 71
     0
 10
0.0
 20
0.0
 30
0.0
  3
_Open30
  1

  0
LINE
  5
5A
330
59
100
AcDbEntity
  8
0
 62
     0
370
    -2
100
AcDbLine
 10
-1.0
 20
0.26794919
 30
0.0
 11
0.0
 21
0.0
 31
0.0
  0
LINE
  5
5B
330
59
100
AcDbEntity
  8
0
 62
     0
370
    -2
100
AcDbLine
 10
0.0
 20
0.0
 30
0.0
 11
-1.0
 21
-0.26794919
 31
0.0
  0
LINE
  5
5C
330
59
100
AcDbEntity
  8
0
 62
     0
370
    -2
100
AcDbLine
 10
0.0
 20
0.0
 30
0.0
 11
-1.0
 21
0.0
 31
0.0
  0
ENDBLK
  5
5E
330
59
100
AcDbEntity
  8
0
100
AcDbBlockEnd
  0
BLOCK
  5
66
330
64
100
AcDbEntity
  8
0
100
AcDbBlockBegin
  2
GENAXEH
 70
     0
 71
     0
 10
0.0
 20
0.0
 30
0.0
  3
GENAXEH
  1

  0
LINE
  5
65
330
64
100
AcDbEntity
  8
0
100
AcDbLine
 10
-1.0
 20
0.0
 30
0.0
 11
1.0
 21
0.0
 31
0.0
  0
ENDBLK
  5
67
330
64
100
AcDbEntity
  8
0
100
AcDbBlockEnd
  0
BLOCK
  5
2ED3
330
2ED2
100
AcDbEntity
  8
0
100
AcDbBlockBegin
  2
*U3
 70
     1
 71
     0
 10
0.0
 20
0.0
 30
0.0
  3
*U3
  1

  0
ENDBLK
  5
2ED4
330
2ED2
100
AcDbEntity
  8
0
100
AcDbBlockEnd
  0
BLOCK
  5
10A60
330
10A38
100
AcDbEntity
  8
0
100
AcDbBlockBegin
  2
*D4
 70
     1
 71
     0
 10
0.0
 20
0.0
 30
0.0
  3
*D4
  1

  0
LINE
  5
164AB
330
10A38
100
AcDbEntity
  8
AM_5
 62
     3
370
    13
100
AcDbLine
 10
19.14959166922213
 20
35.00000000000011
 30
0.0
 11
-26.34155385738199
 21
35.00000000000013
 31
0.0
  0
LINE
  5
164AC
330
10A38
100
AcDbEntity
  8
AM_5
 62
     3
370
    13
100
AcDbLine
 10
0.0
 20
0.0
 30
0.0
 11
-26.341553857382
 21
0.0000000000000075
 31
0.0
  0
LINE
  5
164AD
330
10A38
100
AcDbEntity
  8
AM_5
 62
     3
370
    13
100
AcDbLine
 10
-25.34155385738199
 20
32.50000000000013
 30
0.0
 11
-25.341553857382
 21
2.500000000000007
 31
0.0
  0
INSERT
  5
164AE
330
10A38
100
AcDbEntity
  8
AM_5
 62
     3
370
    13
100
AcDbBlockReference
  2
_Open30
 10
-25.34155385738199
 20
35.00000000000013
 30
0.0
 41
2.5
 42
2.5
 43
2.5
 50
90.0
  0
INSERT
  5
164AF
330
10A38
100
AcDbEntity
  8
AM_5
 62
     3
370
    13
100
AcDbBlockReference
  2
_Open30
 10
-25.341553857382
 20
0.0000000000000072
 30
0.0
 41
2.5
 42
2.5
 43
2.5
 50
270.0
  0
MTEXT
  5
164B0
330
10A38
100
AcDbEntity
  8
AM_5
 62
     2
370
    13
100
AcDbMText
 10
-28.74155385738199
 20
18.41734269325821
 30
0.0
 40
3.8
 41
0.0
 71
     5
 72
     1
  1
35{
 11
6.123031769111886E-17
 21
1.0
 31
0.0
 73
     1
 44
1.0
  0
POINT
  5
164B1
330
10A38
100
AcDbEntity
  8
Defpoints
 62
     0
100
AcDbPoint
 10
19.14959166922213
 20
35.00000000000011
 30
0.0
  0
POINT
  5
164B2
330
10A38
100
AcDbEntity
  8
Defpoints
 62
     0
100
AcDbPoint
 10
0.0
 20
0.0
 30
0.0
  0
POINT
  5
164B3
330
10A38
100
AcDbEntity
  8
Defpoints
 62
     0
100
AcDbPoint
 10
-25.341553857382
 20
0.0000000000000072
 30
0.0
  0
ENDBLK
  5
10A61
330
10A38
100
AcDbEntity
  8
0
100
AcDbBlockEnd
  0
BLOCK
  5
10AAC
330
10A94
100
AcDbEntity
  8
0
100
AcDbBlockBegin
  2
*D5
 70
     1
 71
     0
 10
0.0
 20
0.0
 30
0.0
  3
*D5
  1

  0
LINE
  5
164B4
330
10A94
100
AcDbEntity
  8
AM_5
 62
     3
370
    13
100
AcDbLine
 10
0.0
 20
-5.166504743277756
 30
0.0
 11
-0.0000000000000022
 21
-40.64863929335172
 31
0.0
  0
LINE
  5
164B5
330
10A94
100
AcDbEntity
  8
AM_5
 62
     3
370
    13
100
AcDbLine
 10
250.0
 20
-4.999999999999886
 30
0.0
 11
250.0
 21
-40.64863929335172
 31
0.0
  0
LINE
  5
164B6
330
10A94
100
AcDbEntity
  8
AM_5
 62
     3
370
    13
100
AcDbLine
 10
2.499999999999998
 20
-39.64863929335172
 30
0.0
 11
247.5
 21
-39.64863929335172
 31
0.0
  0
INSERT
  5
164B7
330
10A94
100
AcDbEntity
  8
AM_5
 62
     3
370
    13
100
AcDbBlockReference
  2
_Open30
 10
-0.0000000000000021
 20
-39.64863929335172
 30
0.0
 41
2.5
 42
2.5
 43
2.5
 50
180.0
  0
INSERT
  5
164B8
330
10A94
100
AcDbEntity
  8
AM_5
 62
     3
370
    13
100
AcDbBlockReference
  2
_Open30
 10
250.0
 20
-39.64863929335172
 30
0.0
 41
2.5
 42
2.5
 43
2.5
  0
MTEXT
  5
164B9
330
10A94
100
AcDbEntity
  8
AM_5
 62
     2
370
    13
100
AcDbMText
 10
124.0869575468629
 20
-36.24826527760369
 30
0.0
 40
3.8
 41
0.0
 71
     5
 72
     1
  1
250
 73
     1
 44
1.0
  0
POINT
  5
164BA
330
10A94
100
AcDbEntity
  8
Defpoints
 62
     0
100
AcDbPoint
 10
0.0
 20
-5.166504743277756
 30
0.0
  0
POINT
  5
164BB
330
10A94
100
AcDbEntity
  8
Defpoints
 62
     0
100
AcDbPoint
 10
250.0
 20
-4.999999999999886
 30
0.0
  0
POINT
  5
164BC
330
10A94
100
AcDbEntity
  8
Defpoints
 62
     0
100
AcDbPoint
 10
250.0
 20
-39.64863929335172
 30
0.0
  0
ENDBLK
  5
10AAD
330
10A94
100
AcDbEntity
  8
0
100
AcDbBlockEnd
  0
BLOCK
  5
10AF6
330
10ABE
100
AcDbEntity
  8
0
100
AcDbBlockBegin
  2
*D6
 70
     1
 71
     0
 10
0.0
 20
0.0
 30
0.0
  3
*D6
  1

  0
LINE
  5
164BD
330
10ABE
100
AcDbEntity
  8
AM_5
 62
     3
370
    13
100
AcDbLine
 10
250.0
 20
35.00000000000011
 30
0.0
 11
270.3652103379645
 21
35.00000000000011
 31
0.0
  0
LINE
  5
164BE
330
10ABE
100
AcDbEntity
  8
AM_5
 62
     3
370
    13
100
AcDbLine
 10
250.0
 20
-4.999999999999886
 30
0.0
 11
270.3652103379645
 21
-4.999999999999893
 31
0.0
  0
LINE
  5
164BF
330
10ABE
100
AcDbEntity
  8
AM_5
 62
     3
370
    13
100
AcDbLine
 10
269.3652103379645
 20
32.50000000000011
 30
0.0
 11
269.3652103379645
 21
-2.499999999999892
 31
0.0
  0
INSERT
  5
164C0
330
10ABE
100
AcDbEntity
  8
AM_5
 62
     3
370
    13
100
AcDbBlockReference
  2
_Open30
 10
269.3652103379645
 20
35.00000000000011
 30
0.0
 41
2.5
 42
2.5
 43
2.5
 50
90.0
  0
INSERT
  5
164C1
330
10ABE
100
AcDbEntity
  8
AM_5
 62
     3
370
    13
100
AcDbBlockReference
  2
_Open30
 10
269.3652103379645
 20
-4.999999999999892
 30
0.0
 41
2.5
 42
2.5
 43
2.5
 50
270.0
  0
MTEXT
  5
164C2
330
10ABE
100
AcDbEntity
  8
AM_5
 62
     2
370
    13
100
AcDbMText
 10
265.9652103379646
 20
15.00000000000015
 30
0.0
 40
3.8
 41
0.0
 71
     5
 72
     1
  1
40
 11
6.123031769111886E-17
 21
1.0
 31
0.0
 73
     1
 44
1.0
  0
POINT
  5
164C3
330
10ABE
100
AcDbEntity
  8
Defpoints
 62
     0
100
AcDbPoint
 10
250.0
 20
35.00000000000011
 30
0.0
  0
POINT
  5
164C4
330
10ABE
100
AcDbEntity
  8
Defpoints
 62
     0
100
AcDbPoint
 10
250.0
 20
-4.999999999999886
 30
0.0
  0
POINT
  5
164C5
330
10ABE
100
AcDbEntity
  8
Defpoints
 62
     0
100
AcDbPoint
 10
269.3652103379645
 20
-4.999999999999892
 30
0.0
  0
ENDBLK
  5
10AF7
330
10ABE
100
AcDbEntity
  8
0
100
AcDbBlockEnd
  0
BLOCK
  5
10AF8
330
10AE0
100
AcDbEntity
  8
0
100
AcDbBlockBegin
  2
*D7
 70
     1
 71
     0
 10
0.0
 20
0.0
 30
0.0
  3
*D7
  1

  0
LINE
  5
164C6
330
10AE0
100
AcDbEntity
  8
AM_5
 62
     3
370
    13
100
AcDbLine
 10
250.0
 20
-100.5242015801105
 30
0.0
 11
270.3880874620455
 21
-100.5242015801105
 31
0.0
  0
LINE
  5
164C7
330
10AE0
100
AcDbEntity
  8
AM_5
 62
     3
370
    13
100
AcDbLine
 10
250.0
 20
-140.5242015801105
 30
0.0
 11
270.3880874620454
 21
-140.5242015801105
 31
0.0
  0
LINE
  5
164C8
330
10AE0
100
AcDbEntity
  8
AM_5
 62
     3
370
    13
100
AcDbLine
 10
269.3880874620455
 20
-103.0242015801105
 30
0.0
 11
269.3880874620454
 21
-138.0242015801105
 31
0.0
  0
INSERT
  5
164C9
330
10AE0
100
AcDbEntity
  8
AM_5
 62
     3
370
    13
100
AcDbBlockReference
  2
_Open30
 10
269.3880874620455
 20
-100.5242015801105
 30
0.0
 41
2.5
 42
2.5
 43
2.5
 50
90.0
  0
INSERT
  5
164CA
330
10AE0
100
AcDbEntity
  8
AM_5
 62
     3
370
    13
100
AcDbBlockReference
  2
_Open30
 10
269.3880874620454
 20
-140.5242015801105
 30
0.0
 41
2.5
 42
2.5
 43
2.5
 50
270.0
  0
MTEXT
  5
164CB
330
10AE0
100
AcDbEntity
  8
AM_5
 62
     2
370
    13
100
AcDbMText
 10
265.9880874620455
 20
-120.5242015801104
 30
0.0
 40
3.8
 41
0.0
 71
     5
 72
     1
  1
40
 11
6.123031769111886E-17
 21
1.0
 31
0.0
 73
     1
 44
1.0
  0
POINT
  5
164CC
330
10AE0
100
AcDbEntity
  8
Defpoints
 62
     0
100
AcDbPoint
 10
250.0
 20
-100.5242015801105
 30
0.0
  0
POINT
  5
164CD
330
10AE0
100
AcDbEntity
  8
Defpoints
 62
     0
100
AcDbPoint
 10
250.0
 20
-140.5242015801105
 30
0.0
  0
POINT
  5
164CE
330
10AE0
100
AcDbEntity
  8
Defpoints
 62
     0
100
AcDbPoint
 10
269.3880874620454
 20
-140.5242015801105
 30
0.0
  0
ENDBLK
  5
10AF9
330
10AE0
100
AcDbEntity
  8
0
100
AcDbBlockEnd
  0
BLOCK
  5
113D6
330
113C0
100
AcDbEntity
  8
0
100
AcDbBlockBegin
  2
*D8
 70
     1
 71
     0
 10
0.0
 20
0.0
 30
0.0
  3
*D8
  1

  0
LINE
  5
164CF
330
113C0
100
AcDbEntity
  8
AM_5
 62
     3
370
    13
100
AcDbLine
 10
0.0
 20
-100.5242015801105
 30
0.0
 11
-21.47612017165917
 21
-100.5242015801105
 31
0.0
  0
LINE
  5
164D0
330
113C0
100
AcDbEntity
  8
AM_5
 62
     3
370
    13
100
AcDbLine
 10
3.664795873473054
 20
-140.5242015801105
 30
0.0
 11
-21.47612017165918
 21
-140.5242015801105
 31
0.0
  0
LINE
  5
164D1
330
113C0
100
AcDbEntity
  8
AM_5
 62
     3
370
    13
100
AcDbLine
 10
-20.47612017165917
 20
-103.0242015801105
 30
0.0
 11
-20.47612017165918
 21
-138.0242015801105
 31
0.0
  0
INSERT
  5
164D2
330
113C0
100
AcDbEntity
  8
AM_5
 62
     3
370
    13
100
AcDbBlockReference
  2
_Open30
 10
-20.47612017165917
 20
-100.5242015801105
 30
0.0
 41
2.5
 42
2.5
 43
2.5
 50
90.0
  0
INSERT
  5
164D3
330
113C0
100
AcDbEntity
  8
AM_5
 62
     3
370
    13
100
AcDbBlockReference
  2
_Open30
 10
-20.47612017165918
 20
-140.5242015801105
 30
0.0
 41
2.5
 42
2.5
 43
2.5
 50
270.0
  0
MTEXT
  5
164D4
330
113C0
100
AcDbEntity
  8
AM_5
 62
     2
370
    13
100
AcDbMText
 10
-23.87612017165915
 20
-120.5242015801105
 30
0.0
 40
3.8
 41
0.0
 71
     5
 72
     1
  1
40
 11
6.123031769111886E-17
 21
1.0
 31
0.0
 73
     1
 44
1.0
  0
POINT
  5
164D5
330
113C0
100
AcDbEntity
  8
Defpoints
 62
     0
100
AcDbPoint
 10
0.0
 20
-100.5242015801105
 30
0.0
  0
POINT
  5
164D6
330
113C0
100
AcDbEntity
  8
Defpoints
 62
     0
100
AcDbPoint
 10
3.664795873473054
 20
-140.5242015801105
 30
0.0
  0
POINT
  5
164D7
330
113C0
100
AcDbEntity
  8
Defpoints
 62
     0
100
AcDbPoint
 10
-20.47612017165918
 20
-140.5242015801105
 30
0.0
  0
ENDBLK
  5
113D7
330
113C0
100
AcDbEntity
  8
0
100
AcDbBlockEnd
  0
BLOCK
  5
13978
330
13959
100
AcDbEntity
  8
0
100
AcDbBlockBegin
  2
*D9
 70
     1
 71
     0
 10
0.0
 20
0.0
 30
0.0
  3
*D9
  1

  0
LINE
  5
164D8
330
13959
100
AcDbEntity
  8
AM_5
 62
     3
370
    13
100
AcDbLine
 10
58.0
 20
-100.5242015801105
 30
0.0
 11
58.0
 21
-63.73620956793093
 31
0.0
  0
LINE
  5
164D9
330
13959
100
AcDbEntity
  8
AM_5
 62
     3
370
    13
100
AcDbLine
 10
0.0
 20
-100.5242015801105
 30
0.0
 11
0.0000000000000023
 21
-63.73620956793093
 31
0.0
  0
LINE
  5
164DA
330
13959
100
AcDbEntity
  8
AM_5
 62
     3
370
    13
100
AcDbLine
 10
55.5
 20
-64.73620956793093
 30
0.0
 11
2.500000000000002
 21
-64.73620956793093
 31
0.0
  0
INSERT
  5
164DB
330
13959
100
AcDbEntity
  8
AM_5
 62
     3
370
    13
100
AcDbBlockReference
  2
_Open30
 10
58.0
 20
-64.73620956793093
 30
0.0
 41
2.5
 42
2.5
 43
2.5
  0
INSERT
  5
164DC
330
13959
100
AcDbEntity
  8
AM_5
 62
     3
370
    13
100
AcDbBlockReference
  2
_Open30
 10
0.0000000000000022
 20
-64.73620956793093
 30
0.0
 41
2.5
 42
2.5
 43
2.5
 50
180.0
  0
MTEXT
  5
164DD
330
13959
100
AcDbEntity
  8
AM_5
 62
     2
370
    13
100
AcDbMText
 10
29.0
 20
-61.33620956793093
 30
0.0
 40
3.8
 41
0.0
 71
     5
 72
     1
  1
58
 73
     1
 44
1.0
  0
POINT
  5
164DE
330
13959
100
AcDbEntity
  8
Defpoints
 62
     0
100
AcDbPoint
 10
58.0
 20
-100.5242015801105
 30
0.0
  0
POINT
  5
164DF
330
13959
100
AcDbEntity
  8
Defpoints
 62
     0
100
AcDbPoint
 10
0.0
 20
-100.5242015801105
 30
0.0
  0
POINT
  5
164E0
330
13959
100
AcDbEntity
  8
Defpoints
 62
     0
100
AcDbPoint
 10
0.0000000000000022
 20
-64.73620956793093
 30
0.0
  0
ENDBLK
  5
13979
330
13959
100
AcDbEntity
  8
0
100
AcDbBlockEnd
  0
BLOCK
  5
16462
330
16456
100
AcDbEntity
  8
0
100
AcDbBlockBegin
  2
*D10
 70
     1
 71
     0
 10
0.0
 20
0.0
 30
0.0
  3
*D10
  1

  0
LINE
  5
164E1
330
16456
100
AcDbEntity
  8
AM_5
 62
     3
370
    13
100
AcDbLine
 10
0.0
 20
0.0
 30
0.0
 11
-0.0000000000000036
 21
-28.04387216355986
 31
0.0
  0
LINE
  5
164E2
330
16456
100
AcDbEntity
  8
AM_5
 62
     3
370
    13
100
AcDbLine
 10
21.61093876806717
 20
-5.79063359058182
 30
0.0
 11
27.08830039193169
 21
-7.258288214349509
 31
0.0
  0
ARC
  5
164E3
330
16456
100
AcDbEntity
  8
AM_5
 62
     3
370
    13
100
AcDbCircle
 10
0.0
 20
0.0000000000000937
 30
0.0
 40
27.04387216355995
100
AcDbArc
 50
275.2984461607534
 51
339.7015538392469
  0
INSERT
  5
164E4
330
16456
100
AcDbEntity
  8
AM_5
 62
     3
370
    13
100
AcDbBlockReference
  2
_Open30
 10
-0.0000000000000036
 20
-27.04387216355986
 30
0.0
 41
2.5
 42
2.5
 43
2.5
 50
182.6492230803767
  0
INSERT
  5
164E5
330
16456
100
AcDbEntity
  8
AM_5
 62
     3
370
    13
100
AcDbBlockReference
  2
_Open30
 10
26.12237456564262
 20
-6.999469169246993
 30
0.0
 41
2.5
 42
2.5
 43
2.5
 50
72.35077691962356
  0
MTEXT
  5
164E6
330
16456
100
AcDbEntity
  8
AM_5
 62
     2
370
    13
100
AcDbMText
 10
15.91861883136922
 20
-17.48228432981054
 30
0.0
 40
3.8
 41
0.0
 71
     5
 72
     1
  1
75°
 11
0.7394002221325839
 21
0.6732661520604504
 31
0.0
 73
     1
 44
1.0
  0
POINT
  5
164E7
330
16456
100
AcDbEntity
  8
Defpoints
 62
     0
100
AcDbPoint
 10
11.42923424450145
 20
-24.51007193345796
 30
0.0
  0
POINT
  5
164E8
330
16456
100
AcDbEntity
  8
Defpoints
 62
     0
100
AcDbPoint
 10
0.0
 20
0.0
 30
0.0
  0
POINT
  5
164E9
330
16456
100
AcDbEntity
  8
Defpoints
 62
     0
100
AcDbPoint
 10
1.788584917946423
 20
-0.4792498843581255
 30
0.0
  0
POINT
  5
164EA
330
16456
100
AcDbEntity
  8
Defpoints
 62
     0
100
AcDbPoint
 10
21.61093876806717
 20
-5.79063359058182
 30
0.0
  0
POINT
  5
164EB
330
16456
100
AcDbEntity
  8
Defpoints
 62
     0
100
AcDbPoint
 10
0.0
 20
1.852940346838977
 30
0.0
  0
ENDBLK
  5
16463
330
16456
100
AcDbEntity
  8
0
100
AcDbBlockEnd
  0
ENDSEC
  0
SECTION
  2
ENTITIES
  0
TEXT
  5
DA89
330
1F
100
AcDbEntity
  8
AM_6
100
AcDbText
 10
564.1847052307783
 20
166.3015973528435
 30
0.0
 40
3.0
  1

 41
0.9289077013748464
100
AcDbText
  0
TEXT
  5
DABB
330
1F
100
AcDbEntity
  8
AM_6
100
AcDbText
 10
564.1847052307783
 20
172.3015973528435
 30
0.0
 40
3.0
  1

 41
0.8170201257138606
100
AcDbText
  0
DIMENSION
  5
10A37
330
1F
100
AcDbEntity
  8
AM_5
370
    13
100
AcDbDimension
  2
*D4
 10
-25.341553857382
 20
0.0000000000000072
 30
0.0
 11
-25.341553857382
 21
18.41734269325821
 31
0.0
 70
   160
  1
<>{
 71
     5
 42
35.00000000000012
  3
AM_JIS$0
100
AcDbAlignedDimension
 13
19.14959166922213
 23
35.00000000000011
 33
0.0
 14
0.0
 24
0.0
 34
0.0
 50
90.0
100
AcDbRotatedDimension
1001
ACAD
1000
DSTYLE
1002
{
1070
   179
1070
     0
1070
   271
1070
     0
1002
}
  0
DIMENSION
  5
10A93
330
1F
100
AcDbEntity
  8
AM_5
370
    13
100
AcDbDimension
  2
*D5
 10
250.0
 20
-39.64863929335172
 30
0.0
 11
124.0869575468629
 21
-39.64863929335172
 31
0.0
 70
   160
 71
     5
 42
250.0
  3
AM_JIS$0
100
AcDbAlignedDimension
 13
0.0
 23
-5.166504743277756
 33
0.0
 14
250.0
 24
-4.999999999999886
 34
0.0
100
AcDbRotatedDimension
1001
ACAD
1000
DSTYLE
1002
{
1070
   179
1070
     0
1070
   271
1070
     0
1002
}
  0
DIMENSION
  5
10ABD
330
1F
100
AcDbEntity
  8
AM_5
370
    13
100
AcDbDimension
  2
*D6
 10
269.3652103379645
 20
-4.999999999999892
 30
0.0
 11
265.9652103379646
 21
15.00000000000015
 31
0.0
 70
    32
 71
     5
 42
40.0
  3
AM_JIS$0
100
AcDbAlignedDimension
 13
250.0
 23
35.00000000000011
 33
0.0
 14
250.0
 24
-4.999999999999886
 34
0.0
 50
90.0
100
AcDbRotatedDimension
1001
ACAD
1000
DSTYLE
1002
{
1070
   179
1070
     0
1070
   271
1070
     0
1002
}
  0
DIMENSION
  5
10ADF
330
1F
100
AcDbEntity
  8
AM_5
370
    13
100
AcDbDimension
  2
*D7
 10
269.3880874620454
 20
-140.5242015801105
 30
0.0
 11
265.9880874620455
 21
-120.5242015801104
 31
0.0
 70
    32
 71
     5
 42
40.0
  3
AM_JIS$0
100
AcDbAlignedDimension
 13
250.0
 23
-100.5242015801105
 33
0.0
 14
250.0
 24
-140.5242015801105
 34
0.0
 50
90.0
100
AcDbRotatedDimension
1001
ACAD
1000
DSTYLE
1002
{
1070
   179
1070
     0
1070
   271
1070
     0
1002
}
  0
DIMENSION
  5
113BF
330
1F
100
AcDbEntity
  8
AM_5
370
    13
100
AcDbDimension
  2
*D8
 10
-20.47612017165918
 20
-140.5242015801105
 30
0.0
 11
-23.87612017165915
 21
-120.5242015801105
 31
0.0
 70
    32
 71
     5
 42
40.0
  3
AM_JIS$0
100
AcDbAlignedDimension
 13
0.0
 23
-100.5242015801105
 33
0.0
 14
3.664795873473054
 24
-140.5242015801105
 34
0.0
 50
90.0
100
AcDbRotatedDimension
1001
ACAD
1000
DSTYLE
1002
{
1070
   179
1070
     0
1070
   271
1070
     0
1002
}
  0
LINE
  5
12F9F
330
1F
100
AcDbEntity
  8
AM_5
100
AcDbLine
 10
0.0
 20
0.0
 30
0.0
 11
0.0
 21
1.852940346838977
 31
0.0
  0
LINE
  5
12FA9
330
1F
100
AcDbEntity
  8
AM_5
100
AcDbLine
 10
1.788584917946366
 20
-0.4792498843581825
 30
0.0
 11
0.0
 21
0.0
 31
0.0
  0
DIMENSION
  5
13958
330
1F
100
AcDbEntity
  8
AM_5
370
    13
100
AcDbDimension
  2
*D9
 10
0.0000000000000022
 20
-64.73620956793093
 30
0.0
 11
29.0
 21
-61.33620956793093
 31
0.0
 70
    32
 71
     5
 42
58.0
  3
AM_JIS$0
100
AcDbAlignedDimension
 13
58.0
 23
-100.5242015801105
 33
0.0
 14
0.0
 24
-100.5242015801105
 34
0.0
100
AcDbRotatedDimension
1001
ACAD
1000
DSTYLE
1002
{
1070
   271
1070
     0
1002
}
  0
ACAD_PROXY_ENTITY
  5
14232
330
1F
100
AcDbEntity
  8
AM_5
370
    13
100
AcDbProxyEntity
 90
      498
 91
      533
 95
       25
 70
     0
 92
      668
310
9C020000270000000C00000016000000000000C00C00000013000000010000000C00000016000000000000C00C000000170000000D0000003C00000006000000020000008016E41B185F45C0109BBB1B798743C000000000000000006860787784D643C09312ABACB69C3BC000000000000000000C00000016000000000000
310
C00C00000010000000FFFFFFFF0C00000012000000FFFFFFFF0C00000017000000000000000C00000014000000010000000C00000013000000020000000C00000016000000000000C00C000000170000000D0000003C00000006000000020000006860787784D643C09312ABACB69C3BC00000000000000000C0DB345F296E
310
43C0901C0D7ECA9138C000000000000000000C00000016000000000000C00C00000010000000FFFFFFFF0C00000012000000FFFFFFFF0C00000017000000000000000C00000014000000010000000C00000013000000030000000C00000016000000000000C00C000000170000000D0000003C00000006000000020000002B
310
EDFB6F3EA343C06A7471E430B83BC00000000000000000C0DB345F296E43C0901C0D7ECA9138C000000000000000000C00000016000000000000C00C00000010000000FFFFFFFF0C00000012000000FFFFFFFF0C00000017000000000000000C00000014000000010000000C00000013000000040000000C00000016000000
310
000000C00C000000170000000D0000003C0000000600000002000000C0DB345F296E43C0901C0D7ECA9138C00000000000000000A6D3F47ECA0944C0BBB0E4743C813BC000000000000000000C00000016000000000000C00C00000010000000FFFFFFFF0C00000012000000FFFFFFFF0C00000017000000000000000C0000
310
0014000000010000000C00000013000000050000000C00000016000000000000C0
 93
     1601
310
5DC584911B96EF043C0080BFB1BC9578F302052FD211F77A3B8FC950693C17D90D0BF8950693C17D90D03F052FD211F77A3B8FEA54051F8000000C800AA2005B906C617D1700109BBB1B798743C09018FFFFFFFF3036CD17CA5B90F00901C0D7ECA9138C0A8FFFFFFFF1FFFFFFFF1002DC83630BE8B80084DDD8DBCC3A1E04
310
5409C870A0D61A842F6844C03837CD673AFE10B02A414BF4847DDE8EE3F2541A4F05F64342FE8333333333333094041D050000000000003C2FC000000000000F0BF40401015213500500
340
17F
340
2EE2
330
0
330
0
340
0
340
0
340
180
330
0
330
0
 94
        0
  0
ACAD_PROXY_ENTITY
  5
14233
330
1F
100
AcDbEntity
  8
AM_5
370
    13
100
AcDbProxyEntity
 90
      498
 91
      533
 95
       25
 70
     0
 92
      668
310
9C020000270000000C00000016000000000000C00C00000013000000010000000C00000016000000000000C00C000000170000000D0000003C00000006000000020000008016E41B185F45C0109BBB1B798743C000000000000000007209FCACF44B3FC02B5127C00C1045C000000000000000000C00000016000000000000
310
C00C00000010000000FFFFFFFF0C00000012000000FFFFFFFF0C00000017000000000000000C00000014000000010000000C00000013000000020000000C00000016000000000000C00C000000170000000D0000003C00000006000000020000007209FCACF44B3FC02B5127C00C1045C0000000000000000070135E7E0841
310
3CC0D4D56AD8677845C000000000000000000C00000016000000000000C00C00000010000000FFFFFFFF0C00000012000000FFFFFFFF0C00000017000000000000000C00000014000000010000000C00000013000000030000000C00000016000000000000C00C000000170000000D0000003C00000006000000020000004A
310
6BC2E46E673FC068C4A3C7524345C0000000000000000070135E7E08413CC0D4D56AD8677845C000000000000000000C00000016000000000000C00C00000010000000FFFFFFFF0C00000012000000FFFFFFFF0C00000017000000000000000C00000014000000010000000C00000013000000040000000C00000016000000
310
000000C00C000000170000000D0000003C000000060000000200000070135E7E08413CC0D4D56AD8677845C000000000000000009BA735757A303FC0EEDDAAB8C6DC44C000000000000000000C00000016000000000000C00C00000010000000FFFFFFFF0C00000012000000FFFFFFFF0C00000017000000000000000C0000
310
0014000000010000000C00000013000000050000000C00000016000000000000C0
 93
     1601
310
5DC10931EB8B10640C00D1A239F88BD913022581A4F05F64342FC14BF4847DDE8EEBF814BF4847DDE8EE3F2581A4F05F64342FEA54051F8000000C800AA2005B906C617D1700109BBB1B798743C09018FFFFFFFF1C04D79F82104F300D4D56AD8677845C0A8FFFFFFFF1FFFFFFFF1002DC83630BE8B80084DDD8DBCC3A1E04
310
5409C870505B5E9C8AD044C03736A12CD85F91302A4960693C17D90D0BF052FD211F77A3BAFE8333333333333094041D050000000000003C2FC000000000000F0BF40401015213500500
340
17F
340
2EE2
330
0
330
0
340
0
340
0
340
180
330
0
330
0
 94
        0
  0
TEXT
  5
14234
330
1F
100
AcDbEntity
  8
AM_0
100
AcDbText
 10
-27.10312876366436
 20
-45.23194265267705
 30
0.0
 40
4.0
  1
-5%%D
100
AcDbText
  0
TEXT
  5
14235
330
1F
100
AcDbEntity
  8
AM_0
100
AcDbText
 10
-41.22893592488379
 20
-23.62219315510208
 30
0.0
 40
4.0
  1
-6%%D
100
AcDbText
  0
LINE
  5
154AA
330
1F
100
AcDbEntity
  8
AM_0
100
AcDbLine
 10
36.7783028348598
 20
21.21055480372525
 30
0.0
 11
40.05407510308237
 21
20.11920499194679
 31
0.0
  0
LINE
  5
154AB
330
1F
100
AcDbEntity
  8
AM_0
100
AcDbLine
 10
40.05407510308237
 20
20.11920499194679
 30
0.0
 11
40.77460654486197
 21
16.73606464001676
 31
0.0
  0
LINE
  5
154AC
330
1F
100
AcDbEntity
  8
AM_0
100
AcDbLine
 10
40.77460654486197
 20
16.73606464001671
 30
0.0
 11
38.21936571841889
 21
14.44427409986514
 31
0.0
  0
LINE
  5
154AD
330
1F
100
AcDbEntity
  8
AM_0
100
AcDbLine
 10
38.21936571841889
 20
14.4442740998652
 30
0.0
 11
34.9435934501962
 21
15.53562391164365
 31
0.0
  0
LINE
  5
154AE
330
1F
100
AcDbEntity
  8
AM_0
100
AcDbLine
 10
35.4974872514756
 20
15.92828765587757
 30
0.0
 11
38.68861091460053
 21
14.86513920599992
 31
0.0
  0
LINE
  5
154AF
330
1F
100
AcDbEntity
  8
AM_0
100
AcDbLine
 10
34.9435934501962
 20
15.53562391164365
 30
0.0
 11
35.4974872514756
 21
15.92828765587757
 31
0.0
  0
LINE
  5
154B0
330
1F
100
AcDbEntity
  8
AM_0
100
AcDbLine
 10
34.9435934501962
 20
15.53562391164365
 30
0.0
 11
34.22306200841672
 21
18.91876426357368
 31
0.0
  0
LINE
  5
154B1
330
1F
100
AcDbEntity
  8
AM_0
100
AcDbLine
 10
34.77695580969612
 20
19.31142800780759
 30
0.0
 11
35.4974872514756
 21
15.92828765587757
 31
0.0
  0
LINE
  5
154B2
330
1F
100
AcDbEntity
  8
AM_0
100
AcDbLine
 10
34.22306200841672
 20
18.91876426357368
 30
0.0
 11
34.77695580969601
 21
19.31142800780759
 31
0.0
  0
LINE
  5
154B3
330
1F
100
AcDbEntity
  8
AM_0
100
AcDbLine
 10
34.22306200841672
 20
18.91876426357368
 30
0.0
 11
36.7783028348598
 21
21.21055480372525
 31
0.0
  0
LINE
  5
154B4
330
1F
100
AcDbEntity
  8
AM_0
100
AcDbLine
 10
36.86295143995744
 20
21.18235344182443
 30
0.0
 11
34.77695580969612
 21
19.31142800780759
 31
0.0
  0
LINE
  5
154B5
330
1F
100
AcDbEntity
  8
AM_0
100
AcDbLine
 10
34.62589726653778
 20
23.75837978834596
 30
0.0
 11
33.85044594474675
 21
23.20865054641843
 31
0.0
  0
LINE
  5
154B6
330
1F
100
AcDbEntity
  8
AM_0
100
AcDbLine
 10
42.1442314508347
 20
13.15297309679323
 30
0.0
 11
41.36878012904367
 21
12.6032438548657
 31
0.0
  0
ELLIPSE
  5
154B7
330
1F
100
AcDbEntity
  8
AM_0
100
AcDbEllipse
 10
38.38506435868635
 20
18.45567644256954
 30
0.0
 11
3.759167092148532
 21
-5.302703345776338
 31
0.0
210
0.0
220
0.0
230
1.0
 40
0.9907374393020275
 41
2.15224347057482
 42
3.141592653589777
  0
ELLIPSE
  5
154B8
330
1F
100
AcDbEntity
  8
AM_0
100
AcDbEllipse
 10
38.38506435868635
 20
18.45567644256954
 30
0.0
 11
3.759167092148532
 21
-5.302703345776338
 31
0.0
210
0.0
220
0.0
230
1.0
 40
0.9907374393020275
 41
-0.0000000000000157
 42
0.9893491830159892
  0
ELLIPSE
  5
154B9
330
1F
100
AcDbEntity
  8
AM_0
100
AcDbEllipse
 10
37.6096130368951
 20
17.905947200642
 30
0.0
 11
3.759167092148532
 21
-5.302703345776338
 31
0.0
210
0.0
220
0.0
230
1.0
 40
0.9907374393020275
 41
-0.0000000000000018
 42
6.283185307179585
  0
ELLIPSE
  5
154BA
330
1F
100
AcDbEntity
  8
AM_0
100
AcDbEllipse
 10
37.49883427663917
 20
17.82741445179522
 30
0.0
 11
-3.180833693356454
 21
4.486902831041522
 31
0.0
210
0.0
220
0.0
230
1.0
 40
0.9907374393020274
 41
0.000000000000002
 42
6.283185307179588
  0
LINE
  5
154BB
330
1F
100
AcDbEntity
  8
AM_0
100
AcDbLine
 10
40.57259881328662
 20
11.64824744590607
 30
0.0
 11
41.04894748238689
 21
11.98593826594725
 31
0.0
  0
LINE
  5
154BC
330
1F
100
AcDbEntity
  8
AM_0
100
AcDbLine
 10
39.83811944404124
 20
11.34934527641559
 30
0.0
 11
40.31446811314152
 21
11.68703609645678
 31
0.0
  0
LINE
  5
154BD
330
1F
100
AcDbEntity
  8
AM_0
100
AcDbLine
 10
40.31446811314152
 20
11.68703609645678
 30
0.0
 11
41.04894748238689
 21
11.98593826594725
 31
0.0
  0
LINE
  5
154BE
330
1F
100
AcDbEntity
  8
AM_0
100
AcDbLine
 10
41.29913162361299
 20
32.76519935415274
 30
0.0
 11
43.8467398485376
 21
33.85590294524855
 31
0.0
  0
LINE
  5
154BF
330
1F
100
AcDbEntity
  8
AM_0
100
AcDbLine
 10
49.28283422828156
 20
31.8246084070276
 30
0.0
 11
55.37170993959717
 21
17.03663543189163
 31
0.0
  0
ELLIPSE
  5
154C1
330
1F
100
AcDbEntity
  8
AM_0
100
AcDbEllipse
 10
45.36895877636653
 20
30.15890970146455
 30
0.0
 11
-3.785891723523199
 21
-2.036084053062133
 31
0.0
210
0.0
220
0.0
230
1.0
 40
0.9294124038432475
 41
3.557253185922077
 42
4.616758153026646
  0
ELLIPSE
  5
154C3
330
1F
100
AcDbEntity
  8
AM_0
100
AcDbEllipse
 10
14.93521803310659
 20
9.011897405060836
 30
0.0
 11
1.895953486262691
 21
-3.413411192030643
 31
0.0
210
0.0
220
0.0
230
1.0
 40
0.8959972020133102
 41
3.93127435549733
 42
5.233919793055161
  0
ARC
  5
154C5
330
1F
100
AcDbEntity
  8
AM_0
100
AcDbCircle
 10
37.27870312999244
 20
17.88978683601096
 30
0.0
 40
7.060739215075688
100
AcDbArc
 50
176.7894508242293
 51
227.9689002851393
  0
ELLIPSE
  5
154C9
330
1F
100
AcDbEntity
  8
AM_0
100
AcDbEllipse
 10
27.62304663284454
 20
28.94313021640932
 30
0.0
 11
-16.7445543926368
 21
-19.94381433207322
 31
0.0
210
0.0
220
0.0
230
0.9999999999999998
 40
0.053861851984312
 41
5.107569875189657
 42
5.526448895668267
  0
ELLIPSE
  5
154CB
330
1F
100
AcDbEntity
  8
AM_0
100
AcDbEllipse
 10
14.24097776960343
 20
8.519739918128437
 30
0.0
 11
0.008155253196462599
 21
4.260976788343202
 31
0.0
210
0.0
220
0.0
230
0.9999999999999997
 40
0.7193614827362929
 41
0.7686946987723496
 42
1.16456953119032
  0
LINE
  5
154CC
330
1F
100
AcDbEntity
  8
AM_0
100
AcDbLine
 10
12.11593247920223
 20
11.58668824449859
 30
0.0
 11
14.71090582074385
 21
15.06156810243084
 31
0.0
  0
LINE
  5
154D1
330
1F
100
AcDbEntity
  8
AM_0
100
AcDbLine
 10
20.18539126736278
 20
22.09763842511057
 30
0.0
 11
20.74850004137113
 21
22.79977670963382
 31
0.0
  0
LINE
  5
154D4
330
1F
100
AcDbEntity
  8
AM_0
100
AcDbLine
 10
26.2671899683337
 20
26.65091607269568
 30
0.0
 11
37.28787909978928
 21
31.13587239496286
 31
0.0
  0
LINE
  5
154D5
330
1F
100
AcDbEntity
  8
AM_0
100
AcDbLine
 10
20.74850004137124
 20
22.79977670963382
 30
0.0
 11
26.2671899683337
 21
26.65091607269568
 31
0.0
  0
ELLIPSE
  5
154D7
330
1F
100
AcDbEntity
  8
AM_0
100
AcDbEllipse
 10
51.45783448768214
 20
15.37093672632858
 30
0.0
 11
-3.785891723523199
 21
-2.036084053062133
 31
0.0
210
0.0
220
0.0
230
1.0
 40
0.9294124038432475
 41
1.70330103071033
 42
2.534670466541414
  0
LINE
  5
154DD
330
1F
100
AcDbEntity
  8
AM_0
100
AcDbLine
 10
40.57259881328673
 20
11.64824744590601
 30
0.0
 11
39.83811944404124
 21
11.34934527641559
 31
0.0
  0
LINE
  5
154DE
330
1F
100
AcDbEntity
  8
AM_0
100
AcDbLine
 10
34.51035319664004
 20
24.28882162965954
 30
0.0
 11
35.24483256588542
 21
24.58772379915001
 31
0.0
  0
LINE
  5
154E3
330
1F
100
AcDbEntity
  8
AM_0
100
AcDbLine
 10
19.0250558255741
 20
4.583848288970216
 30
0.0
 11
14.68657898936363
 21
5.343392614362585
 31
0.0
  0
ELLIPSE
  5
154E4
330
1F
100
AcDbEntity
  8
AM_0
100
AcDbEllipse
 10
14.24097776960321
 20
8.519739918128266
 30
0.0
 11
-3.381728013627891
 21
2.2109554260319
 31
0.0
210
0.0
220
0.0
230
1.0
 40
0.7009501650897023
 41
1.724713467912402
 42
2.120588300329787
  0
ELLIPSE
  5
154E6
330
1F
100
AcDbEntity
  8
AM_0
100
AcDbEllipse
 10
36.97809326815934
 20
6.222650544422038
 30
0.0
 11
25.36152287908634
 21
-1.074196217592532
 31
0.0
210
0.0
220
0.0
230
1.0
 40
0.1329426058729854
 41
3.931536535120563
 42
4.350415555599192
  0
LINE
  5
154EB
330
1F
100
AcDbEntity
  8
AM_0
100
AcDbLine
 10
51.32706780847695
 20
10.71370629350787
 30
0.0
 11
35.40050353530671
 21
4.468956609991494
 31
0.0
  0
LINE
  5
154EC
330
1F
100
AcDbEntity
  8
AM_0
100
AcDbLine
 10
35.40050353530683
 20
4.468956609991551
 30
0.0
 11
28.74960905792693
 21
3.367587662312587
 31
0.0
  0
LINE
  5
154ED
330
1F
100
AcDbEntity
  8
AM_0
100
AcDbLine
 10
28.74960905792682
 20
3.367587662312587
 30
0.0
 11
27.86350635371309
 21
3.449900520729273
 31
0.0
  0
ELLIPSE
  5
154F1
330
1F
100
AcDbEntity
  8
AM_0
100
AcDbEllipse
 10
50.6080250081763
 20
14.76849385490192
 30
0.0
 11
-0.6603938520325166
 21
-4.015534399100204
 31
0.0
210
0.0
220
0.0
230
1.0
 40
0.9651478128389036
 41
0.5338208924065555
 42
0.7619564236799294
  0
ELLIPSE
  5
154F2
330
1F
100
AcDbEntity
  8
AM_0
100
AcDbEllipse
 10
52.89774170065584
 20
11.61559145536063
 30
0.0
 11
-3.776654566841283
 21
-1.606149763738427
 31
0.0
210
0.0
220
0.0
230
1.0
 40
0.058348061870816
 41
1.117206131443503
 42
1.30919234916299
  0
LINE
  5
154F5
330
1F
100
AcDbEntity
  8
AM_0
100
AcDbLine
 10
53.83378978772686
 20
12.15212814687999
 30
0.0
 11
52.80570266886269
 21
11.42330154409177
 31
0.0
  0
ELLIPSE
  5
154F6
330
1F
100
AcDbEntity
  8
AM_0
100
AcDbEllipse
 10
37.65058498944109
 20
18.15677427307884
 30
0.0
 11
4.048333791544517
 21
-5.710603603143788
 31
0.0
210
0.0
220
0.0
230
1.0
 40
0.9907374393020267
 41
3.183702409966346
 42
6.055049775906051
  0
ELLIPSE
  5
154F7
330
1F
100
AcDbEntity
  8
AM_0
100
AcDbEllipse
 10
38.38506435868635
 20
18.45567644256931
 30
0.0
 11
4.048333791544517
 21
-5.710603603143788
 31
0.0
210
0.0
220
0.0
230
1.0
 40
0.9907374393020267
 41
6.055049775906067
 42
6.24107555080305
  0
ELLIPSE
  5
154F8
330
1F
100
AcDbEntity
  8
AM_0
100
AcDbEllipse
 10
39.72884065580649
 20
32.23962745806415
 30
0.0
 11
-3.698737898114011
 21
-1.522937280735865
 31
0.0
210
0.0
220
0.0
230
1.0
 40
0.0307108400801932
 41
0.8374773529432351
 42
1.996576840447453
  0
ELLIPSE
  5
154F9
330
1F
100
AcDbEntity
  8
AM_0
100
AcDbEllipse
 10
45.61043738205467
 20
30.33009755957534
 30
0.0
 11
-2.313333595168292
 21
3.263202058939311
 31
0.0
210
0.0
220
0.0
230
1.0
 40
0.9907374393020272
 41
4.484253449111183
 42
4.995544808801506
  0
ELLIPSE
  5
154FA
330
1F
100
AcDbEntity
  8
AM_0
100
AcDbEllipse
 10
51.69931309337022
 20
15.54212458443936
 30
0.0
 11
-2.313333595168292
 21
3.263202058939311
 31
0.0
210
0.0
220
0.0
230
1.0
 40
0.9907374393020272
 41
3.972962089420856
 42
4.484253449111183
  0
ELLIPSE
  5
154FB
330
1F
100
AcDbEntity
  8
AM_0
100
AcDbEllipse
 10
37.1742363203407
 20
17.81908345303759
 30
0.0
 11
-4.048333791544446
 21
5.710603603143839
 31
0.0
210
0.0
220
0.0
230
1.0
 40
0.9907374393020259
 41
1.793673753847204
 42
2.913457122316282
  0
ELLIPSE
  5
154FC
330
1F
100
AcDbEntity
  8
AM_0
100
AcDbEllipse
 10
37.90871568958619
 20
18.11798562252807
 30
0.0
 11
-4.048333791544446
 21
5.710603603143839
 31
0.0
210
0.0
220
0.0
230
1.0
 40
0.9907374393020259
 41
2.913457122316283
 42
6.055049775906109
  0
ELLIPSE
  5
154FD
330
1F
100
AcDbEntity
  8
AM_0
100
AcDbEllipse
 10
37.1742363203407
 20
17.81908345303759
 30
0.0
 11
-4.048333791544446
 21
5.710603603143839
 31
0.0
210
0.0
220
0.0
230
1.0
 40
0.9907374393020259
 41
6.055049775906109
 42
7.174833144375191
  0
LINE
  5
15504
330
1F
100
AcDbEntity
  8
AM_0
100
AcDbLine
 10
250.0
 20
-4.99999999999983
 30
0.0
 11
250.0
 21
35.00000000000017
 31
0.0
  0
LINE
  5
15505
330
1F
100
AcDbEntity
  8
AM_0
100
AcDbLine
 10
57.99999999999994
 20
-4.99999999999983
 30
0.0
 11
250.0
 21
-4.99999999999983
 31
0.0
  0
LINE
  5
15506
330
1F
100
AcDbEntity
  8
AM_0
100
AcDbLine
 10
49.94629675462403
 20
35.00000000000011
 30
0.0
 11
49.53596948715375
 21
35.00000000000011
 31
0.0
  0
LINE
  5
15507
330
1F
100
AcDbEntity
  8
AM_0
100
AcDbLine
 10
49.53596948715381
 20
35.00000000000011
 30
0.0
 11
48.73056935726538
 21
35.00000000000011
 31
0.0
  0
LINE
  5
15508
330
1F
100
AcDbEntity
  8
AM_0
100
AcDbLine
 10
48.73056935726532
 20
35.00000000000011
 30
0.0
 11
44.91938225212766
 21
35.00000000000011
 31
0.0
  0
LINE
  5
15509
330
1F
100
AcDbEntity
  8
AM_0
100
AcDbLine
 10
44.91938225212766
 20
35.00000000000011
 30
0.0
 11
44.55023011829667
 21
35.00000000000011
 31
0.0
  0
LINE
  5
1550A
330
1F
100
AcDbEntity
  8
AM_0
100
AcDbLine
 10
44.55023011829667
 20
35.00000000000011
 30
0.0
 11
42.10936103714425
 21
35.00000000000011
 31
0.0
  0
LINE
  5
1550B
330
1F
100
AcDbEntity
  8
AM_0
100
AcDbLine
 10
250.0
 20
35.00000000000011
 30
0.0
 11
58.0
 21
35.00000000000011
 31
0.0
  0
LINE
  5
1550D
330
1F
100
AcDbEntity
  8
AM_0
100
AcDbLine
 10
49.94629675462403
 20
35.00000000000011
 30
0.0
 11
55.72243186433531
 21
35.00000000000011
 31
0.0
  0
LINE
  5
15511
330
1F
100
AcDbEntity
  8
AM_0
100
AcDbLine
 10
56.25786205017323
 20
0.8877202316618877
 30
0.0
 11
55.72243186433525
 21
26.85214963285506
 31
0.0
  0
LINE
  5
15512
330
1F
100
AcDbEntity
  8
AM_0
100
AcDbLine
 10
55.72243186433525
 20
26.85214963285506
 30
0.0
 11
55.72243186433525
 21
35.00000000000011
 31
0.0
  0
LINE
  5
15513
330
1F
100
AcDbEntity
  8
AM_0
100
AcDbLine
 10
55.72243186433525
 20
35.00000000000011
 30
0.0
 11
58.0
 21
35.00000000000011
 31
0.0
  0
LINE
  5
15514
330
1F
100
AcDbEntity
  8
AM_0
100
AcDbLine
 10
58.0
 20
35.00000000000011
 30
0.0
 11
58.0
 21
-4.999999999999943
 31
0.0
  0
LINE
  5
15515
330
1F
100
AcDbEntity
  8
AM_0
100
AcDbLine
 10
58.00000000000006
 20
-4.99999999999983
 30
0.0
 11
56.37927673982767
 21
-4.99999999999983
 31
0.0
  0
LINE
  5
1551A
330
1F
100
AcDbEntity
  8
AM_0
100
AcDbLine
 10
7.450017544074257
 20
24.14275057702929
 30
0.0
 11
19.28573602458357
 21
20.97137936833468
 31
0.0
  0
LINE
  5
1551B
330
1F
100
AcDbEntity
  8
AM_0
100
AcDbLine
 10
7.429039860482249
 20
24.06149057789884
 30
0.0
 11
10.25287190676045
 21
35.00000000000011
 31
0.0
  0
LINE
  5
1551C
330
1F
100
AcDbEntity
  8
AM_0
100
AcDbLine
 10
42.10936103714425
 20
35.00000000000011
 30
0.0
 11
10.25287190676045
 21
35.00000000000011
 31
0.0
  0
LINE
  5
1551F
330
1F
100
AcDbEntity
  8
AM_0
100
AcDbLine
 10
56.37927673982762
 20
-4.99999999999983
 30
0.0
 11
56.25786205017323
 21
0.8877202316618877
 31
0.0
  0
LINE
  5
15520
330
1F
100
AcDbEntity
  8
AM_0
100
AcDbLine
 10
56.37927673982762
 20
-4.99999999999983
 30
0.0
 11
26.09212843678856
 21
-4.999999999999773
 31
0.0
  0
LINE
  5
15521
330
1F
100
AcDbEntity
  8
AM_0
100
AcDbLine
 10
26.09212843678833
 20
-4.99999999999983
 30
0.0
 11
24.39100263256648
 21
-4.544184714534822
 31
0.0
  0
LINE
  5
15522
330
1F
100
AcDbEntity
  8
AM_0
100
AcDbLine
 10
26.48928426920736
 20
3.583803450648418
 30
0.0
 11
24.39100263256648
 21
-4.544184714534822
 31
0.0
  0
LINE
  5
15527
330
1F
100
AcDbEntity
  8
AM_0
100
AcDbLine
 10
1.788584917946423
 20
-0.4792498843581257
 30
0.0
 11
21.61093876806717
 21
-5.79063359058182
 31
0.0
  0
LINE
  5
15528
330
1F
100
AcDbEntity
  8
AM_0
100
AcDbLine
 10
5.197016114604139
 20
22.28837479997486
 30
0.0
 11
0.0758277714980977
 21
2.4507335998739
 31
0.0
  0
LINE
  5
15529
330
1F
100
AcDbEntity
  8
AM_0
100
AcDbLine
 10
6.118416406060987
 20
23.62749405014739
 30
0.0
 11
6.997999762492555
 21
24.25104407599093
 31
0.0
  0
LINE
  5
1552A
330
1F
100
AcDbEntity
  8
AM_0
100
AcDbLine
 10
23.59558222727742
 20
-5.437373326904492
 30
0.0
 11
24.4751655837091
 21
-4.81382330106095
 31
0.0
  0
ELLIPSE
  5
1552B
330
1F
100
AcDbEntity
  8
AM_0
100
AcDbEllipse
 10
7.506416563161793
 20
21.66957281478375
 30
0.0
 11
1.388000157100978
 21
-1.957921235363552
 31
0.0
210
0.0
220
0.0
230
1.0
 40
0.9907374393020275
 41
2.370250605994877
 42
3.838481625792639
  0
ELLIPSE
  5
1552C
330
1F
100
AcDbEntity
  8
AM_0
100
AcDbEllipse
 10
8.385999919593473
 20
22.29312284062729
 30
0.0
 11
1.388000157100978
 21
-1.957921235363552
 31
0.0
210
0.0
220
0.0
230
1.0
 40
0.9907374393020275
 41
2.877180925203508
 42
3.14159265358979
  0
ELLIPSE
  5
1552D
330
1F
100
AcDbEntity
  8
AM_0
100
AcDbEllipse
 10
22.2075820701765
 20
-3.479452091540964
 30
0.0
 11
1.388000157100978
 21
-1.957921235363552
 31
0.0
210
0.0
220
0.0
230
1.0
 40
0.9907374393020275
 41
5.409277952587519
 42
6.886247235584003
  0
ELLIPSE
  5
1552E
330
1F
100
AcDbEntity
  8
AM_0
100
AcDbEllipse
 10
23.08716542660818
 20
-2.855902065697421
 30
0.0
 11
1.388000157100978
 21
-1.957921235363552
 31
0.0
210
0.0
220
0.0
230
1.0
 40
0.9907374393020275
 41
-0.0000000000000039
 42
0.1242613281326353
  0
ELLIPSE
  5
1552F
330
1F
100
AcDbEntity
  8
AM_0
100
AcDbEllipse
 10
2.385228220055751
 20
1.831931614682787
 30
0.0
 11
1.388000157100978
 21
-1.957921235363552
 31
0.0
210
0.0
220
0.0
230
1.0
 40
0.9907374393020275
 41
3.838481625792624
 42
5.40927795258753
  0
ELLIPSE
  5
15530
330
1F
100
AcDbEntity
  8
AM_0
100
AcDbEllipse
 10
14.8569993166692
 20
9.095060361621393
 30
0.0
 11
-2.66033363444357
 21
3.75268236778018
 31
0.0
210
0.0
220
0.0
230
0.9999999999999999
 40
0.9907374393020276
 41
5.953395015681384
 42
9.260006924021283
  0
LINE
  5
15533
330
1F
100
AcDbEntity
  8
AM_0
100
AcDbLine
 10
-69.4962108324122
 20
21.21055480372525
 30
0.0
 11
-69.21644014939739
 21
20.11920499194679
 31
0.0
  0
LINE
  5
15535
330
1F
100
AcDbEntity
  8
AM_0
100
AcDbLine
 10
-69.21644014939739
 20
20.11920499194679
 30
0.0
 11
-69.40404558788453
 21
16.73606464001676
 31
0.0
  0
LINE
  5
15537
330
1F
100
AcDbEntity
  8
AM_0
100
AcDbLine
 10
-69.40404558788453
 20
16.73606464001671
 30
0.0
 11
-69.87142170938637
 21
14.44427409986514
 31
0.0
  0
LINE
  5
15538
330
1F
100
AcDbEntity
  8
AM_0
100
AcDbLine
 10
-69.87142170938637
 20
14.4442740998652
 30
0.0
 11
-70.15119239240119
 21
15.53562391164365
 31
0.0
  0
LINE
  5
15539
330
1F
100
AcDbEntity
  8
AM_0
100
AcDbLine
 10
-70.15119239240119
 20
15.53562391164365
 30
0.0
 11
-69.96358695391416
 21
18.91876426357368
 31
0.0
  0
LINE
  5
1553A
330
1F
100
AcDbEntity
  8
AM_0
100
AcDbLine
 10
-69.96358695391416
 20
18.91876426357368
 30
0.0
 11
-69.4962108324122
 21
21.21055480372525
 31
0.0
  0
LINE
  5
1553B
330
1F
100
AcDbEntity
  8
AM_0
100
AcDbLine
 10
-74.30497469337888
 20
11.67333105861479
 30
0.0
 11
-71.18817788742206
 21
11.42627203867795
 31
0.0
  0
LINE
  5
1553C
330
1F
100
AcDbEntity
  8
AM_0
100
AcDbLine
 10
-73.12283232308448
 20
24.62040340417826
 30
0.0
 11
-70.16092953298062
 21
24.38562236260617
 31
0.0
  0
LINE
  5
1553D
330
1F
100
AcDbEntity
  8
AM_0
100
AcDbLine
 10
-69.18421821249206
 20
23.27068330285243
 30
0.0
 11
-70.08411964117465
 21
24.33890129734601
 31
0.0
  0
LINE
  5
1553E
330
1F
100
AcDbEntity
  8
AM_0
100
AcDbLine
 10
-70.04801177197589
 20
12.37341265111257
 30
0.0
 11
-71.1049665751101
 21
11.46030870892611
 31
0.0
  0
ELLIPSE
  5
1553F
330
1F
100
AcDbEntity
  8
AM_0
100
AcDbEllipse
 10
-70.67455371020139
 20
17.905947200642
 30
0.0
 11
0.5136241772206885
 21
6.479675161964092
 31
0.0
210
0.0
220
0.0
230
1.0
 40
0.1107787602558723
 41
6.171488377087257
 42
9.536474890850558
  0
ELLIPSE
  5
15540
330
1F
100
AcDbEntity
  8
AM_0
100
AcDbEllipse
 10
-69.68381627089934
 20
17.82741445179522
 30
0.0
 11
0.4346050730329537
 21
5.482802060123465
 31
0.0
210
0.0
220
0.0
230
1.0
 40
0.1107787602558723
 41
0.6210815028848826
 42
6.904266810064468
  0
LINE
  5
15542
330
1F
100
AcDbEntity
  8
AM_0
100
AcDbLine
 10
-81.40610475612107
 20
32.76519935415274
 30
0.0
 11
-82.26554774344083
 21
33.51146201846973
 31
0.0
  0
LINE
  5
15545
330
1F
100
AcDbEntity
  8
AM_0
100
AcDbLine
 10
-86.33488355871782
 20
18.91004648420534
 30
0.0
 11
-85.09115168939468
 21
19.7539135260061
 31
0.0
  0
LINE
  5
15546
330
1F
100
AcDbEntity
  8
AM_0
100
AcDbLine
 10
-87.03837175705087
 20
14.65094607719192
 30
0.0
 11
-86.33430964496995
 21
18.90920062249609
 31
0.0
  0
SPLINE
  5
15547
330
1F
100
AcDbEntity
  8
AM_0
100
AcDbSpline
210
0.0
220
0.0
230
1.0
 70
     8
 71
     3
 72
    22
 73
    18
 74
     0
 42
0.0000000001
 43
0.0000000001
 40
0.4191155189952706
 40
0.4191155189952706
 40
0.4191155189952706
 40
0.4191155189952706
 40
0.4907603336795066
 40
0.4907603336795066
 40
0.6264651623151367
 40
0.6264651623151367
 40
0.8231267390988372
 40
0.8231267390988372
 40
1.019788315882538
 40
1.019788315882538
 40
1.894592917205253
 40
1.894592917205253
 40
2.162956111120389
 40
2.162956111120389
 40
2.237597803316576
 40
2.237597803316576
 40
2.295739688035789
 40
2.295739688035789
 40
2.295739688035789
 40
2.295739688035789
 10
-86.65468739441099
 20
14.03604029167053
 30
0.0
 10
-86.64427467843586
 20
14.01798087008274
 30
0.0
 10
-86.63486991169384
 20
13.99900782737285
 30
0.0
 10
-86.61104778668209
 20
13.94307066670115
 30
0.0
 10
-86.5997550618963
 20
13.90514684058627
 30
0.0
 10
-86.58116488233793
 20
13.81940169615399
 30
0.0
 10
-86.57543048835964
 20
13.76300068745894
 30
0.0
 10
-86.5753818316806
 20
13.6497727186815
 30
0.0
 10
-86.58095673503829
 20
13.59294849851875
 30
0.0
 10
-86.6273538196748
 20
13.31233320456653
 30
0.0
 10
-86.74549372188665
 20
13.0495332342602
 30
0.0
 10
-86.96069062556171
 20
12.79620042258415
 30
0.0
 10
-87.02827404551965
 20
12.72876995962002
 30
0.0
 10
-87.12509369811994
 20
12.67851529306626
 30
0.0
 10
-87.15207688477494
 20
12.66780840270752
 30
0.0
 10
-87.19502088858201
 20
12.65841318094255
 30
0.0
 10
-87.21819702053983
 20
12.6565054125337
 30
0.0
 10
-87.23739813453415
 20
12.6580274265437
 30
0.0
  0
SPLINE
  5
15548
330
1F
100
AcDbEntity
  8
AM_0
100
AcDbSpline
210
0.0
220
0.0
230
1.0
 70
    12
 71
     2
 72
     6
 73
     3
 74
     0
 42
0.0000000001
 43
0.0000000001
 40
0.5039601188750094
 40
0.5039601188750094
 40
0.5039601188750094
 40
1.416976529959438
 40
1.416976529959438
 40
1.416976529959438
 10
-87.03837175705075
 20
14.65094607719192
 30
0.0
 41
1.00276972147184
 10
-86.82304374016651
 20
14.32803118360227
 30
0.0
 41
1.003893790573034
 10
-86.65468739441099
 20
14.03604029167053
 30
0.0
 41
1.0
  0
LINE
  5
15549
330
1F
100
AcDbEntity
  8
AM_0
100
AcDbLine
 10
-86.82459298369054
 20
4.155088233132688
 30
0.0
 11
-85.61731089260127
 21
3.904666624172705
 31
0.0
  0
LINE
  5
1554A
330
1F
100
AcDbEntity
  8
AM_0
100
AcDbLine
 10
-86.82455129090442
 20
4.155289233973861
 30
0.0
 11
-87.36216900216971
 21
4.906209166427345
 31
0.0
  0
LINE
  5
1554B
330
1F
100
AcDbEntity
  8
AM_0
100
AcDbLine
 10
-87.36202568929957
 20
4.905290439238627
 30
0.0
 11
-86.95573040547345
 21
4.968668712958731
 31
0.0
  0
SPLINE
  5
1554C
330
1F
100
AcDbEntity
  8
AM_0
100
AcDbSpline
210
0.0
220
0.0
230
1.0
 70
     8
 71
     3
 72
    22
 73
    18
 74
     0
 42
0.0000000001
 43
0.0000000001
 40
2.295739688035787
 40
2.295739688035787
 40
2.295739688035787
 40
2.295739688035787
 40
2.353881572755
 40
2.353881572755
 40
2.428523264951187
 40
2.428523264951187
 40
2.696886458866326
 40
2.696886458866326
 40
3.571691060189035
 40
3.571691060189035
 40
3.768352636972737
 40
3.768352636972737
 40
3.965014213756439
 40
3.965014213756439
 40
4.100719042392069
 40
4.100719042392069
 40
4.172363857076305
 40
4.172363857076305
 40
4.172363857076305
 40
4.172363857076305
 10
-87.48369628385024
 20
5.245639881946374
 30
0.0
 10
-87.46449516985592
 20
5.244117867936382
 30
0.0
 10
-87.44146352178439
 20
5.241677367541513
 30
0.0
 10
-87.39901333677074
 20
5.236211023014732
 30
0.0
 10
-87.37252576308231
 20
5.232002351114943
 30
0.0
 10
-87.27794112678259
 20
5.214993796104579
 30
0.0
 10
-87.2131659844415
 20
5.19790863405666
 30
0.0
 10
-87.00840124951537
 20
5.137283432193897
 30
0.0
 10
-86.90076195034783
 20
5.084065846408464
 30
0.0
 10
-86.86533340786036
 20
5.034580871910521
 30
0.0
 10
-86.86196793563329
 20
5.02491186084859
 30
0.0
 10
-86.86638498416653
 20
5.006672283238743
 30
0.0
 10
-86.87427789419803
 20
4.998112359209529
 30
0.0
 10
-86.8961194234771
 20
4.986007543179937
 30
0.0
 10
-86.90884078221745
 20
4.980936370912559
 30
0.0
 10
-86.93474821013729
 20
4.974115961764994
 30
0.0
 10
-86.94485622906836
 20
4.971924502098375
 30
0.0
 10
-86.95593386549615
 20
4.969973021877024
 30
0.0
  0
LINE
  5
1554D
330
1F
100
AcDbEntity
  8
AM_0
100
AcDbLine
 10
-87.48369628385035
 20
5.245639881946374
 30
0.0
 11
-88.03244506244505
 21
5.289137531575648
 31
0.0
  0
LINE
  5
1554E
330
1F
100
AcDbEntity
  8
AM_0
100
AcDbLine
 10
-87.487891485761
 20
12.67788327397528
 30
0.0
 11
-87.23739813453426
 21
12.65802742654358
 31
0.0
  0
LINE
  5
1554F
330
1F
100
AcDbEntity
  8
AM_0
100
AcDbLine
 10
-88.04523484738104
 20
5.455462648220646
 30
0.0
 11
-86.63140456641645
 21
5.343392614362585
 31
0.0
  0
LINE
  5
15550
330
1F
100
AcDbEntity
  8
AM_0
100
AcDbLine
 10
-87.66835291611767
 20
11.68532805578593
 30
0.0
 11
-86.42395289850686
 21
11.58668824449865
 31
0.0
  0
ELLIPSE
  5
15551
330
1F
100
AcDbEntity
  8
AM_0
100
AcDbEllipse
 10
-83.97727714131145
 20
9.011897405060836
 30
0.0
 11
-2.237118970971689
 21
-3.514981795042225
 31
0.0
210
0.0
220
0.0
230
1.0
 40
0.6603098243389098
 41
4.79090559283133
 42
6.093551030389161
  0
LINE
  5
15553
330
1F
100
AcDbEntity
  8
AM_0
100
AcDbLine
 10
-74.43048253417828
 20
12.64687883164987
 30
0.0
 11
-74.23362927492133
 21
18.28657473401552
 31
0.0
  0
ELLIPSE
  5
15557
330
1F
100
AcDbEntity
  8
AM_0
100
AcDbEllipse
 10
-126.361864999657
 20
28.94313021640932
 30
0.0
 11
-42.81126963702345
 21
12.31053763019522
 31
0.0
210
0.0
220
0.0
230
1.0
 40
0.3671197749995924
 41
3.037179372929148
 42
3.456058393407757
  0
ELLIPSE
  5
15559
330
1F
100
AcDbEntity
  8
AM_0
100
AcDbEllipse
 10
-77.76841707341873
 20
8.519739918128437
 30
0.0
 11
-8.791268978709667
 21
2.773779531819327
 31
0.0
210
0.0
220
0.0
230
1.0
 40
0.3679238688275873
 41
6.188571160255769
 42
6.584445992673739
  0
LINE
  5
1555A
330
1F
100
AcDbEntity
  8
AM_0
100
AcDbLine
 10
-86.42395289850686
 20
11.58668824449859
 30
0.0
 11
-84.25478328337704
 21
15.06156810243084
 31
0.0
  0
LINE
  5
1555F
330
1F
100
AcDbEntity
  8
AM_0
100
AcDbLine
 10
-84.25208286943803
 20
22.09763842511057
 30
0.0
 11
-84.58694539306737
 21
22.79977670963382
 31
0.0
  0
LINE
  5
15562
330
1F
100
AcDbEntity
  8
AM_0
100
AcDbLine
 10
-83.66460799824506
 20
26.65091607269568
 30
0.0
 11
-82.07682685140378
 21
31.13587239496286
 31
0.0
  0
LINE
  5
15563
330
1F
100
AcDbEntity
  8
AM_0
100
AcDbLine
 10
-84.58694539306737
 20
22.79977670963382
 30
0.0
 11
-83.66460799824506
 21
26.65091607269568
 31
0.0
  0
LINE
  5
15564
330
1F
100
AcDbEntity
  8
AM_0
100
AcDbLine
 10
-84.58694539306737
 20
22.79977670963382
 30
0.0
 11
-85.09066794349417
 21
19.75320055801086
 31
0.0
  0
LINE
  5
15565
330
1F
100
AcDbEntity
  8
AM_0
100
AcDbLine
 10
-85.61727602357814
 20
3.904834727665786
 30
0.0
 11
-85.23263642995926
 21
3.367587662312587
 31
0.0
  0
ELLIPSE
  5
15566
330
1F
100
AcDbEntity
  8
AM_0
100
AcDbEllipse
 10
-75.72107883570232
 20
29.89379626284608
 30
0.0
 11
-4.035068680179644
 21
-2.141946232817143
 31
0.0
210
0.0
220
0.0
230
1.0
 40
0.2427223306012937
 41
3.003116284556764
 42
3.280069022622805
  0
LINE
  5
15567
330
1F
100
AcDbEntity
  8
AM_0
100
AcDbLine
 10
-74.38239246876856
 20
12.64520025069851
 30
0.0
 11
-74.49916411991092
 21
9.130936197584504
 31
0.0
  0
LINE
  5
15568
330
1F
100
AcDbEntity
  8
AM_0
100
AcDbLine
 10
-73.57609459879188
 20
11.61555494646149
 30
0.0
 11
-73.67033914987201
 21
11.34934527641559
 31
0.0
  0
LINE
  5
15569
330
1F
100
AcDbEntity
  8
AM_0
100
AcDbLine
 10
-73.24038738874936
 20
24.28882162965954
 30
0.0
 11
-73.13456891575527
 21
24.58772379915001
 31
0.0
  0
LINE
  5
1556E
330
1F
100
AcDbEntity
  8
AM_0
100
AcDbLine
 10
-84.60293601872343
 20
4.583848288970216
 30
0.0
 11
-86.63140456641645
 21
5.343392614362585
 31
0.0
  0
ELLIPSE
  5
1556F
330
1F
100
AcDbEntity
  8
AM_0
100
AcDbEllipse
 10
-77.76841707341634
 20
8.519739918128266
 30
0.0
 11
-9.021775404316918
 21
-3.043269628663706
 31
0.0
210
0.0
220
0.0
230
1.0
 40
0.1237147188880089
 41
6.038018324723365
 42
6.43389315714075
  0
ELLIPSE
  5
15571
330
1F
100
AcDbEntity
  8
AM_0
100
AcDbEllipse
 10
-127.1168190628525
 20
6.222650544422038
 30
0.0
 11
-43.3308709801026
 21
2.223111806019638
 31
0.0
210
0.0
220
0.0
230
1.0
 40
0.0635366035908143
 41
2.920495553015858
 42
3.339374573494481
  0
ARC
  5
15574
330
1F
100
AcDbEntity
  8
AM_0
100
AcDbCircle
 10
-81.81187476874732
 20
14.01145206744167
 30
0.0
 40
8.455444588992751
100
AcDbArc
 50
294.1239589875699
 51
302.5262193021367
  0
LINE
  5
15575
330
1F
100
AcDbEntity
  8
AM_0
100
AcDbLine
 10
-74.49916411991092
 20
9.130936197584504
 30
0.0
 11
-72.67824867311015
 21
11.54438542587246
 31
0.0
  0
LINE
  5
15576
330
1F
100
AcDbEntity
  8
AM_0
100
AcDbLine
 10
-85.23263642995926
 20
3.367587662312587
 30
0.0
 11
-84.87170823402346
 21
3.449900520729273
 31
0.0
  0
ELLIPSE
  5
15577
330
1F
100
AcDbEntity
  8
AM_0
100
AcDbEllipse
 10
-101.425269093997
 20
-3.019760205183047
 30
0.0
 11
27.11039436272054
 21
12.7141752277065
 31
0.0
210
0.0
220
0.0
230
1.0
 40
0.0878791010549701
 41
5.769436475968221
 42
6.118302807236336
  0
LINE
  5
15578
330
1F
100
AcDbEntity
  8
AM_0
100
AcDbLine
 10
-82.24503987961339
 20
34.12864990549002
 30
0.0
 11
-73.88787972116802
 21
33.46620319280902
 31
0.0
  0
LINE
  5
1557A
330
1F
100
AcDbEntity
  8
AM_0
100
AcDbLine
 10
-71.79639976093699
 20
32.15042952772518
 30
0.0
 11
-73.88774698033376
 21
33.46615915488627
 31
0.0
  0
LINE
  5
1557B
330
1F
100
AcDbEntity
  8
AM_0
100
AcDbLine
 10
-71.65287227109059
 20
31.88004772721513
 30
0.0
 11
-71.89732292160431
 21
24.52326099467808
 31
0.0
  0
LINE
  5
1557C
330
1F
100
AcDbEntity
  8
AM_0
100
AcDbLine
 10
-78.28968822551161
 20
6.324531672889862
 30
0.0
 11
-84.1299604219189
 21
3.678863703856052
 31
0.0
  0
ELLIPSE
  5
1557D
330
1F
100
AcDbEntity
  8
AM_0
100
AcDbEllipse
 10
-85.04725298964127
 20
32.23962745806415
 30
0.0
 11
3.997793638793165
 21
-0.1328383288998662
 31
0.0
210
0.0
220
0.0
230
1.0
 40
0.3805547319572272
 41
5.56251069796728
 42
6.721610185471499
  0
ELLIPSE
  5
1557E
330
1F
100
AcDbEntity
  8
AM_0
100
AcDbEllipse
 10
-87.37630846002764
 20
9.28132829793509
 30
0.0
 11
0.4296353072227802
 21
5.420105502000183
 31
0.0
210
0.0
220
0.0
230
1.0
 40
0.1107787602558783
 41
3.781826367598473
 42
3.873345126113237
  0
ELLIPSE
  5
15580
330
1F
100
AcDbEntity
  8
AM_0
100
AcDbEllipse
 10
-86.8972340120655
 20
9.243353520957612
 30
0.0
 11
0.3914253514711845
 21
4.938064133613933
 31
0.0
210
0.0
220
0.0
230
1.0
 40
0.1107787602558783
 41
3.675296495874719
 42
3.720917988276484
  0
ELLIPSE
  5
15581
330
1F
100
AcDbEntity
  8
AM_0
100
AcDbEllipse
 10
-87.24751259291838
 20
9.271119040585006
 30
0.0
 11
0.3239783271700341
 21
4.087179717546627
 31
0.0
210
0.0
220
0.0
230
1.0
 40
0.1107787602558783
 41
0.0000000000000145
 42
0.6029133765207831
  0
ELLIPSE
  5
15582
330
1F
100
AcDbEntity
  8
AM_0
100
AcDbEllipse
 10
-73.45536326931062
 20
17.81908345303759
 30
0.0
 11
0.5531337293147033
 21
6.978111712884399
 31
0.0
210
0.0
220
0.0
230
1.0
 40
0.1107787602558844
 41
2.414755256732078
 42
3.534538625201157
  0
ELLIPSE
  5
15583
330
1F
100
AcDbEntity
  8
AM_0
100
AcDbEllipse
 10
-73.34954479631665
 20
18.11798562252807
 30
0.0
 11
0.5531337293147033
 21
6.978111712884399
 31
0.0
210
0.0
220
0.0
230
1.0
 40
0.1107787602558844
 41
5.902934100486772
 42
6.676131278790994
  0
ELLIPSE
  5
15584
330
1F
100
AcDbEntity
  8
AM_0
100
AcDbEllipse
 10
-73.45536326931062
 20
17.81908345303759
 30
0.0
 11
0.5531337293147033
 21
6.978111712884399
 31
0.0
210
0.0
220
0.0
230
1.0
 40
0.1107787602558844
 41
0.3929459716113982
 42
1.512729340080481
  0
LINE
  5
15585
330
1F
100
AcDbEntity
  8
AM_0
100
AcDbLine
 10
-129.8314971149464
 20
35.00000000000011
 30
0.0
 11
-129.8314971149464
 21
3.434335026334111
 31
0.0
  0
LINE
  5
15586
330
1F
100
AcDbEntity
  8
AM_0
100
AcDbLine
 10
-129.8314971149464
 20
3.684335026334111
 30
0.0
 11
-105.3455687952097
 21
3.684335026334111
 31
0.0
  0
LINE
  5
15587
330
1F
100
AcDbEntity
  8
AM_0
100
AcDbLine
 10
-129.8314971149464
 20
0.7593856487248445
 30
0.0
 11
-129.8314971149464
 21
-4.999999999999886
 31
0.0
  0
LINE
  5
15588
330
1F
100
AcDbEntity
  8
AM_0
100
AcDbLine
 10
-129.8314971149464
 20
1.009385648724845
 30
0.0
 11
-105.4204571042076
 21
1.009385648724845
 31
0.0
  0
LINE
  5
1558B
330
1F
100
AcDbEntity
  8
AM_0
100
AcDbLine
 10
-129.8314971149464
 20
-4.999999999999886
 30
0.0
 11
-103.4132336776501
 21
-4.999999999999886
 31
0.0
  0
LINE
  5
1558C
330
1F
100
AcDbEntity
  8
AM_0
100
AcDbLine
 10
-81.33149711494639
 20
35.00000000000011
 30
0.0
 11
-81.37737763201005
 21
35.00000000000011
 31
0.0
  0
LINE
  5
1558D
330
1F
100
AcDbEntity
  8
AM_0
100
AcDbLine
 10
-81.37737763201005
 20
35.00000000000011
 30
0.0
 11
-81.94184909449848
 21
35.00000000000011
 31
0.0
  0
LINE
  5
1558E
330
1F
100
AcDbEntity
  8
AM_0
100
AcDbLine
 10
-81.94184909449848
 20
35.00000000000011
 30
0.0
 11
-82.20777975911392
 21
35.00000000000011
 31
0.0
  0
LINE
  5
1558F
330
1F
100
AcDbEntity
  8
AM_0
100
AcDbLine
 10
-129.8314971149464
 20
35.00000000000011
 30
0.0
 11
-85.76979551825923
 21
35.00000000000011
 31
0.0
  0
LINE
  5
15590
330
1F
100
AcDbEntity
  8
AM_0
100
AcDbLine
 10
-81.33149711494642
 20
34.05623614413173
 30
0.0
 11
-81.33149711494639
 21
35.00000000000011
 31
0.0
  0
LINE
  5
15592
330
1F
100
AcDbEntity
  8
AM_0
100
AcDbLine
 10
-103.3432454739527
 20
-4.999999999999773
 30
0.0
 11
-103.4132336776501
 21
-4.999999999999773
 31
0.0
  0
LINE
  5
15593
330
1F
100
AcDbEntity
  8
AM_0
100
AcDbLine
 10
-103.4132336776501
 20
-4.999999999999773
 30
0.0
 11
-103.5828492944212
 21
-4.498223538936202
 31
0.0
  0
LINE
  5
15594
330
1F
100
AcDbEntity
  8
AM_0
100
AcDbLine
 10
-103.0902089525401
 20
24.32894374761185
 30
0.0
 11
-102.9335897100343
 21
25.77734582196297
 31
0.0
  0
LINE
  5
15595
330
1F
100
AcDbEntity
  8
AM_0
100
AcDbLine
 10
-87.34331243380768
 20
-4.544184714534765
 30
0.0
 11
-87.46908136917898
 21
-4.547032592645394
 31
0.0
  0
LINE
  5
15596
330
1F
100
AcDbEntity
  8
AM_0
100
AcDbLine
 10
-97.81176010757913
 20
-4.999999999999773
 30
0.0
 11
-103.3432454739528
 21
-4.999999999999773
 31
0.0
  0
LINE
  5
15597
330
1F
100
AcDbEntity
  8
AM_0
100
AcDbLine
 10
-103.3432454739527
 20
-4.999999999999773
 30
0.0
 11
-103.29623622048
 21
-4.565262229885775
 31
0.0
  0
LINE
  5
15598
330
1F
100
AcDbEntity
  8
AM_0
100
AcDbLine
 10
-102.7465706831191
 20
25.22408458774748
 30
0.0
 11
-102.9335897100344
 21
25.77734582196302
 31
0.0
  0
LINE
  5
15599
330
1F
100
AcDbEntity
  8
AM_0
100
AcDbLine
 10
-102.9335897100344
 20
25.77734582196302
 30
0.0
 11
-86.96910047338099
 21
24.15892487420058
 31
0.0
  0
LINE
  5
1559A
330
1F
100
AcDbEntity
  8
AM_0
100
AcDbLine
 10
-86.96910047338099
 20
24.15892487420052
 30
0.0
 11
-85.40756201349893
 21
19.53940187785514
 31
0.0
  0
LINE
  5
1559B
330
1F
100
AcDbEntity
  8
AM_0
100
AcDbLine
 10
-86.96910047338099
 20
24.15892487420058
 30
0.0
 11
-85.79682862689654
 21
35.00000000000017
 31
0.0
  0
LINE
  5
1559C
330
1F
100
AcDbEntity
  8
AM_0
100
AcDbLine
 10
-82.20777975911403
 20
35.00000000000011
 30
0.0
 11
-85.76979551825923
 21
35.00000000000011
 31
0.0
  0
LINE
  5
1559D
330
1F
100
AcDbEntity
  8
AM_0
100
AcDbLine
 10
-82.37220740695841
 20
30.3015200708121
 30
0.0
 11
-82.21608673672105
 21
35.00000000000017
 31
0.0
  0
LINE
  5
1559E
330
1F
100
AcDbEntity
  8
AM_0
100
AcDbLine
 10
-83.35000449235508
 20
0.6245391747675626
 30
0.0
 11
-83.23504506104807
 21
4.084264141648816
 31
0.0
  0
LINE
  5
1559F
330
1F
100
AcDbEntity
  8
AM_0
100
AcDbLine
 10
-83.78287556297494
 20
-4.99999999999983
 30
0.0
 11
-83.35000449235508
 21
0.6245391747675626
 31
0.0
  0
LINE
  5
155A0
330
1F
100
AcDbEntity
  8
AM_0
100
AcDbLine
 10
-83.78287556297494
 20
-4.99999999999983
 30
0.0
 11
-87.53730678631054
 21
-4.99999999999983
 31
0.0
  0
LINE
  5
155A1
330
1F
100
AcDbEntity
  8
AM_0
100
AcDbLine
 10
-87.18923308418248
 20
-4.99999999999983
 30
0.0
 11
-87.34331243380768
 21
-4.544184714534822
 31
0.0
  0
LINE
  5
155A2
330
1F
100
AcDbEntity
  8
AM_0
100
AcDbLine
 10
-86.41190258137442
 20
4.069418191155762
 30
0.0
 11
-87.34331243380768
 21
-4.544184714534822
 31
0.0
  0
LINE
  5
155A3
330
1F
100
AcDbEntity
  8
AM_0
100
AcDbLine
 10
-85.51172855461493
 20
19.50527363419445
 30
0.0
 11
-85.46367095270637
 21
19.50146425399834
 31
0.0
  0
LINE
  5
155A4
330
1F
100
AcDbEntity
  8
AM_0
100
AcDbLine
 10
-129.8314971149464
 20
0.7593856487249582
 30
0.0
 11
-129.8314971149464
 21
3.434335026334168
 31
0.0
  0
ELLIPSE
  5
155A5
330
1F
100
AcDbEntity
  8
AM_0
100
AcDbEllipse
 10
-85.40156756331351
 20
16.19624293706386
 30
0.0
 11
0.3160764167512385
 21
3.987492407362514
 31
0.0
210
0.0
220
0.0
230
1.0
 40
0.1107787602558808
 41
6.142774287147908
 42
6.858859722393586
  0
LINE
  5
155A7
330
1F
100
AcDbEntity
  8
AM_0
100
AcDbLine
 10
-105.3800657017551
 20
0.8129001183406786
 30
0.0
 11
-103.5959876477106
 21
-4.464965147018575
 31
0.0
  0
LINE
  5
155AB
330
1F
100
AcDbEntity
  8
AM_0
100
AcDbLine
 10
-103.2077703546084
 20
23.45533580480895
 30
0.0
 11
-105.3393258021729
 21
3.742883602572704
 31
0.0
  0
LINE
  5
155AC
330
1F
100
AcDbEntity
  8
AM_0
100
AcDbLine
 10
-96.59865598900447
 20
24.73675805555899
 30
0.0
 11
-102.8089507219632
 21
25.22902926403538
 31
0.0
  0
LINE
  5
155AD
330
1F
100
AcDbEntity
  8
AM_0
100
AcDbLine
 10
-97.45529903556231
 20
-5.028255586931103
 30
0.0
 11
-103.5357198155847
 21
-4.546279092395196
 31
0.0
  0
ELLIPSE
  5
155AE
330
1F
100
AcDbEntity
  8
AM_0
100
AcDbEllipse
 10
-102.998596572014
 20
22.83653381961784
 30
0.0
 11
0.1896458500507143
 21
2.392495444417492
 31
0.0
210
0.0
220
0.0
230
1.0
 40
0.1107787602558726
 41
-0.0000000000055409
 42
1.317970475082168
  0
ELLIPSE
  5
155AF
330
1F
100
AcDbEntity
  8
AM_0
100
AcDbEllipse
 10
-103.346073965534
 20
-2.153783647977718
 30
0.0
 11
0.1896458500507137
 21
2.392495444417484
 31
0.0
210
0.0
220
0.0
230
1.0
 40
0.1107787602558726
 41
2.888766801877053
 42
3.141592653584252
  0
ELLIPSE
  5
155B0
330
1F
100
AcDbEntity
  8
AM_0
100
AcDbEllipse
 10
-105.1301520195785
 20
3.124081617381592
 30
0.0
 11
0.1896458500507159
 21
2.392495444417512
 31
0.0
210
0.0
220
0.0
230
1.0
 40
0.1107787602558726
 41
1.317970475082167
 42
2.888766801877049
  0
LINE
  5
155B1
330
1F
100
AcDbEntity
  8
AM_0
100
AcDbLine
 10
-85.50173590668305
 20
19.47571223170468
 30
0.0
 11
-87.02457635583392
 21
23.98075431382455
 31
0.0
  0
LINE
  5
155B2
330
1F
100
AcDbEntity
  8
AM_0
100
AcDbLine
 10
-87.41500039349683
 20
-4.098254076732019
 30
0.0
 11
-86.52917455785791
 21
4.093791532256375
 31
0.0
  0
LINE
  5
155B3
330
1F
100
AcDbEntity
  8
AM_0
100
AcDbLine
 10
-89.66949615886949
 20
-0.4792498843581257
 30
0.0
 11
-87.87408785826779
 21
-5.79063359058182
 31
0.0
  0
LINE
  5
155B8
330
1F
100
AcDbEntity
  8
AM_0
100
AcDbLine
 10
-87.48366382060488
 20
22.28837479997486
 30
0.0
 11
-89.62875625928734
 21
2.4507335998739
 31
0.0
  0
LINE
  5
155BB
330
1F
100
AcDbEntity
  8
AM_0
100
AcDbLine
 10
-87.08484418795968
 20
24.06206825920123
 30
0.0
 11
-96.52682224456393
 21
24.81050519306599
 31
0.0
  0
LINE
  5
155BC
330
1F
100
AcDbEntity
  8
AM_0
100
AcDbLine
 10
-87.81382002614191
 20
-5.871947535958441
 30
0.0
 11
-97.39402236899802
 21
-5.112553982583671
 31
0.0
  0
ELLIPSE
  5
155BD
330
1F
100
AcDbEntity
  8
AM_0
100
AcDbEllipse
 10
-87.27449003801041
 20
21.66957281478375
 30
0.0
 11
0.1896458500507138
 21
2.392495444417484
 31
0.0
210
0.0
220
0.0
230
1.0
 40
0.1107787602558726
 41
6.030359455466845
 42
7.601155782261744
  0
ELLIPSE
  5
155BE
330
1F
100
AcDbEntity
  8
AM_0
100
AcDbEllipse
 10
-96.71535441891525
 20
22.41799393179059
 30
0.0
 11
0.1910456479666022
 21
2.392416678102271
 31
0.0
210
0.0
220
0.0
230
0.9999999999999999
 40
0.1115194351716643
 41
0.0052368053463785
 42
1.298567927803257
  0
ELLIPSE
  5
155BF
330
1F
100
AcDbEntity
  8
AM_0
100
AcDbEllipse
 10
-87.62417417609117
 20
-3.479452091540964
 30
0.0
 11
0.1896458500507138
 21
2.392495444417484
 31
0.0
210
0.0
220
0.0
230
1.0
 40
0.1107787602558726
 41
2.888766801877053
 42
4.459563128671951
  0
ELLIPSE
  5
155C0
330
1F
100
AcDbEntity
  8
AM_0
100
AcDbEllipse
 10
-97.20437651894731
 20
-2.720058538166207
 30
0.0
 11
0.1896458500507138
 21
2.392495444417484
 31
0.0
210
0.0
220
0.0
230
1.0
 40
0.1107787602558726
 41
2.888766801877053
 42
3.141592653584252
  0
ELLIPSE
  5
155C1
330
1F
100
AcDbEntity
  8
AM_0
100
AcDbEllipse
 10
-89.41958247669288
 20
1.831931614682787
 30
0.0
 11
0.1896458500507138
 21
2.392495444417484
 31
0.0
210
0.0
220
0.0
230
1.0
 40
0.1107787602558726
 41
1.317970475082158
 42
2.888766801877064
  0
ELLIPSE
  5
155C3
330
1F
100
AcDbEntity
  8
AM_0
100
AcDbEllipse
 10
-87.44933210705085
 20
9.095060361621393
 30
0.0
 11
0.3634878792639245
 21
4.585616268466891
 31
0.0
210
0.0
220
0.0
230
1.0
 40
0.1107787602558727
 41
5.914842037054618
 42
10.00777841236758
  0
LINE
  5
155C4
330
1F
100
AcDbEntity
  8
AM_0
100
AcDbLine
 10
36.7783028348598
 20
-80.1889152975763
 30
0.0
 11
40.05407510308237
 21
-79.90914461456148
 31
0.0
  0
LINE
  5
155C6
330
1F
100
AcDbEntity
  8
AM_0
100
AcDbLine
 10
40.05407510308237
 20
-79.90914461456148
 30
0.0
 11
40.77460654486197
 21
-80.0967500530486
 31
0.0
  0
LINE
  5
155C7
330
1F
100
AcDbEntity
  8
AM_0
100
AcDbLine
 10
40.77460654486197
 20
-80.09675005304857
 30
0.0
 11
38.21936571841889
 21
-80.5641261745505
 31
0.0
  0
LINE
  5
155C8
330
1F
100
AcDbEntity
  8
AM_0
100
AcDbLine
 10
38.21936571841889
 20
-80.5641261745505
 30
0.0
 11
34.9435934501962
 21
-80.84389685756531
 31
0.0
  0
LINE
  5
155C9
330
1F
100
AcDbEntity
  8
AM_0
100
AcDbLine
 10
34.9435934501962
 20
-80.84389685756531
 30
0.0
 11
34.22306200841672
 21
-80.6562914190782
 31
0.0
  0
LINE
  5
155CA
330
1F
100
AcDbEntity
  8
AM_0
100
AcDbLine
 10
34.22306200841672
 20
-80.6562914190782
 30
0.0
 11
36.7783028348598
 21
-80.18891529757627
 31
0.0
  0
LINE
  5
155CC
330
1F
100
AcDbEntity
  8
AM_0
100
AcDbLine
 10
35.12344604200348
 20
-95.12898841823588
 30
0.0
 11
35.15100903877806
 21
-95.37549499387234
 31
0.0
  0
LINE
  5
155CD
330
1F
100
AcDbEntity
  8
AM_0
100
AcDbLine
 10
43.04626133934289
 20
-93.9928271639059
 30
0.0
 11
43.10146325780897
 21
-94.48651934117245
 31
0.0
  0
LINE
  5
155CE
330
1F
100
AcDbEntity
  8
AM_0
100
AcDbLine
 10
44.39113240723236
 20
-83.52272698177708
 30
0.0
 11
44.06935708984895
 21
-80.64496545746775
 31
0.0
  0
LINE
  5
155CF
330
1F
100
AcDbEntity
  8
AM_0
100
AcDbLine
 10
31.48690544395595
 20
-85.10379873802216
 30
0.0
 11
31.14986898394136
 21
-82.08955089326318
 31
0.0
  0
LINE
  5
155D0
330
1F
100
AcDbEntity
  8
AM_0
100
AcDbLine
 10
32.04610227626381
 20
-80.9519771676714
 30
0.0
 11
31.16547521826965
 21
-82.04734304908405
 31
0.0
  0
LINE
  5
155D1
330
1F
100
AcDbEntity
  8
AM_0
100
AcDbLine
 10
42.94400426187895
 20
-79.73343426875064
 30
0.0
 11
44.04481392854211
 21
-80.60724689581409
 31
0.0
  0
ELLIPSE
  5
155D2
330
1F
100
AcDbEntity
  8
AM_0
100
AcDbEllipse
 10
37.6096130368951
 20
-81.36725817536546
 30
0.0
 11
6.459744052953797
 21
0.722292717897696
 31
0.0
210
0.0
220
0.0
230
1.0
 40
0.0785327488467901
 41
3.062734902964606
 42
6.36204305780478
  0
ELLIPSE
  5
155D3
330
1F
100
AcDbEntity
  8
AM_0
100
AcDbEllipse
 10
37.49883427663917
 20
-80.37652073606341
 30
0.0
 11
5.465937275576303
 21
0.6111707612980069
 31
0.0
210
0.0
220
0.0
230
1.0
 40
0.0785327488467902
 41
2.183096959374581
 42
8.466282266554167
  0
LINE
  5
155D5
330
1F
100
AcDbEntity
  8
AM_0
100
AcDbLine
 10
23.88469421273999
 20
-97.5180430717931
 30
0.0
 11
24.92953411647193
 21
-96.31064579794759
 31
0.0
  0
LINE
  5
155D6
330
1F
100
AcDbEntity
  8
AM_0
100
AcDbLine
 10
23.88378440554743
 20
-97.51725575606849
 30
0.0
 11
18.54332203103331
 21
-98.05487346733381
 31
0.0
  0
LINE
  5
155D7
330
1F
100
AcDbEntity
  8
AM_0
100
AcDbLine
 10
17.76825886085135
 20
-97.64470896165847
 30
0.0
 11
18.54501363497911
 21
-98.05164454983691
 31
0.0
  0
SPLINE
  5
155D8
330
1F
100
AcDbEntity
  8
AM_0
100
AcDbSpline
210
0.0
220
0.0
230
1.0
 70
     8
 71
     3
 72
    22
 73
    18
 74
     0
 42
0.0000000001
 43
0.0000000001
 40
2.295739688035787
 40
2.295739688035787
 40
2.295739688035787
 40
2.295739688035787
 40
2.353881572755
 40
2.353881572755
 40
2.428523264951187
 40
2.428523264951187
 40
2.696886458866326
 40
2.696886458866326
 40
3.571691060189035
 40
3.571691060189035
 40
3.768352636972737
 40
3.768352636972737
 40
3.965014213756439
 40
3.965014213756439
 40
4.100719042392069
 40
4.100719042392069
 40
4.172363857076305
 40
4.172363857076305
 40
4.172363857076305
 40
4.172363857076305
 10
16.04231864057874
 20
-98.17640074901439
 30
0.0
 10
16.04017167860945
 20
-98.15719963502008
 30
0.0
 10
16.04228443659827
 20
-98.13416798694848
 30
0.0
 10
16.05356069546815
 20
-98.09171780193489
 30
0.0
 10
16.0666800199615
 20
-98.06523022824635
 30
0.0
 10
16.12862305166425
 20
-97.97064559194666
 30
0.0
 10
16.21249966812093
 20
-97.90587044960557
 30
0.0
 10
16.5280937291368
 20
-97.70110571467947
 30
0.0
 10
16.85676828598173
 20
-97.5934664155119
 30
0.0
 10
17.20870014048251
 20
-97.55803787302446
 30
0.0
 10
17.28001263770545
 20
-97.55467240079733
 30
0.0
 10
17.4222465393957
 20
-97.55908944933063
 30
0.0
 10
17.493165858878
 20
-97.5669823593621
 30
0.0
 10
17.60110370966879
 20
-97.58882388864117
 30
0.0
 10
17.64888063530111
 20
-97.60154524738158
 30
0.0
 10
17.71943871132953
 20
-97.62745267530141
 30
0.0
 10
17.74338716470084
 20
-97.63756069423243
 30
0.0
 10
17.76620029598746
 20
-97.64863833066022
 30
0.0
  0
LINE
  5
155D9
330
1F
100
AcDbEntity
  8
AM_0
100
AcDbLine
 10
16.04231864057863
 20
-98.17640074901442
 30
0.0
 11
16.06270037344643
 21
-98.35868249493194
 31
0.0
  0
LINE
  5
155DA
330
1F
100
AcDbEntity
  8
AM_0
100
AcDbLine
 10
14.81914719974157
 20
-98.50971797845327
 30
0.0
 11
14.68657898936351
 21
-97.32410903158055
 31
0.0
  0
ELLIPSE
  5
155DB
330
1F
100
AcDbEntity
  8
AM_0
100
AcDbEllipse
 10
14.93521803310659
 20
-94.6699816064756
 30
0.0
 11
-3.523868970792976
 21
-3.116565147265705
 31
0.0
210
0.0
220
0.0
230
1.0
 40
0.2337790011356809
 41
5.853120344537328
 42
7.155765782095159
  0
SPLINE
  5
155DD
330
1F
100
AcDbEntity
  8
AM_0
100
AcDbSpline
210
0.0
220
0.0
230
1.0
 70
     8
 71
     3
 72
    18
 73
    14
 74
     0
 42
0.0000000001
 43
0.0000000001
 40
18.52347829209615
 40
18.52347829209615
 40
18.52347829209615
 40
18.52347829209615
 40
18.90564418962463
 40
18.90564418962463
 40
20.22546727700546
 40
20.22546727700546
 40
21.54529036438629
 40
21.54529036438629
 40
22.86511345176712
 40
22.86511345176712
 40
24.18493653914795
 40
24.18493653914795
 40
24.5671024366764
 40
24.5671024366764
 40
24.5671024366764
 40
24.5671024366764
 10
32.55129899955591
 20
-85.07509693393266
 30
0.0
 10
32.45093371948474
 20
-85.07915312775262
 30
0.0
 10
32.35307889842045
 20
-85.08288724361179
 30
0.0
 10
31.9297130753713
 20
-85.09773722967699
 30
0.0
 10
31.63454438259964
 20
-85.10433535304475
 30
0.0
 10
31.12766289780393
 20
-85.10377064288102
 30
0.0
 10
30.91598004101354
 20
-85.0965818326234
 30
0.0
 10
30.5811367601807
 20
-85.06955991544294
 30
0.0
 10
30.44656634868602
 20
-85.04880602033759
 30
0.0
 10
30.26473936430807
 20
-84.99379182454507
 30
0.0
 10
30.21744707677897
 20
-84.95955703418429
 30
0.0
 10
30.2173579827188
 20
-84.91053415484399
 30
0.0
 10
30.22125150965235
 20
-84.89921734447216
 30
0.0
 10
30.22904596030298
 20
-84.88769066690912
 30
0.0
  0
ELLIPSE
  5
155DE
330
1F
100
AcDbEntity
  8
AM_0
100
AcDbEllipse
 10
33.54996540873844
 20
-84.11519323439109
 30
0.0
 11
21.46274054529201
 21
15.56452673260196
 31
0.0
210
0.0
220
0.0
230
1.0
 40
0.2235134148488854
 41
2.350026905027375
 42
2.437077482517496
  0
ARC
  5
155DF
330
1F
100
AcDbEntity
  8
AM_0
100
AcDbCircle
 10
30.57812454422628
 20
-104.6382932967182
 30
0.0
 40
19.53723475658045
100
AcDbArc
 50
119.3334065659637
 51
138.2935551717461
  0
LINE
  5
155E0
330
1F
100
AcDbEntity
  8
AM_0
100
AcDbLine
 10
14.94380549543951
 20
-92.86722244225646
 30
0.0
 11
11.42846739709319
 21
-97.15927862702341
 31
0.0
  0
ELLIPSE
  5
155E1
330
1F
100
AcDbEntity
  8
AM_0
100
AcDbEllipse
 10
25.87351061968207
 20
-110.7501933004088
 30
0.0
 11
-13.86197269065664
 21
-24.2294786203627
 31
0.0
210
0.0
220
0.0
230
1.0
 40
0.727367293316357
 41
3.677994550837174
 42
4.026860882105212
  0
LINE
  5
155E2
330
1F
100
AcDbEntity
  8
AM_0
100
AcDbLine
 10
24.92876529771047
 20
-96.30998048874221
 30
0.0
 11
28.74960905792682
 21
-95.92534089512336
 31
0.0
  0
LINE
  5
155E3
330
1F
100
AcDbEntity
  8
AM_0
100
AcDbLine
 10
52.21799740539734
 20
-93.71625312434077
 30
0.0
 11
50.43244519058646
 21
-92.83586938320977
 31
0.0
  0
LINE
  5
155E4
330
1F
100
AcDbEntity
  8
AM_0
100
AcDbLine
 10
35.40050353530671
 20
-95.09437262533382
 30
0.0
 11
46.42119266676269
 21
-93.50659147849251
 31
0.0
  0
LINE
  5
155E7
330
1F
100
AcDbEntity
  8
AM_0
100
AcDbLine
 10
40.57259881328673
 20
-84.25722514204213
 30
0.0
 11
39.83811944404124
 21
-84.36304361503611
 31
0.0
  0
LINE
  5
155E9
330
1F
100
AcDbEntity
  8
AM_0
100
AcDbLine
 10
31.40074797988984
 20
-84.33325910453559
 30
0.0
 11
28.78206488506498
 21
-84.77091901576668
 31
0.0
  0
LINE
  5
155EB
330
1F
100
AcDbEntity
  8
AM_0
100
AcDbLine
 10
19.0250558255741
 20
-95.29564048388747
 30
0.0
 11
14.68657898936363
 21
-97.32410903158055
 31
0.0
  0
ELLIPSE
  5
155EC
330
1F
100
AcDbEntity
  8
AM_0
100
AcDbEllipse
 10
14.24097776960321
 20
-88.4611215385805
 30
0.0
 11
-0.3233727279788267
 21
-9.028652416924011
 31
0.0
210
0.0
220
0.0
230
1.0
 40
0.4104540281634601
 41
6.094426057593526
 42
6.490300890010911
  0
ELLIPSE
  5
155EE
330
1F
100
AcDbEntity
  8
AM_0
100
AcDbEllipse
 10
36.97809326815934
 20
-137.8095235280166
 30
0.0
 11
17.59451321965914
 21
-42.67151538931933
 31
0.0
210
0.0
220
0.0
230
1.0
 40
0.4280694438679488
 41
2.742531633007152
 42
3.161410653485779
  0
LINE
  5
155F4
330
1F
100
AcDbEntity
  8
AM_0
100
AcDbLine
 10
35.40050353530683
 20
-95.09437262533382
 30
0.0
 11
28.74960905792693
 21
-95.92534089512338
 31
0.0
  0
LINE
  5
155F5
330
1F
100
AcDbEntity
  8
AM_0
100
AcDbLine
 10
28.74960905792682
 20
-95.92534089512336
 30
0.0
 11
27.86350635371309
 21
-95.56441269918759
 31
0.0
  0
ELLIPSE
  5
155F8
330
1F
100
AcDbEntity
  8
AM_0
100
AcDbEllipse
 10
50.79014562100349
 20
-86.92469829341391
 30
0.0
 11
2.647112590418035
 21
3.359719158082653
 31
0.0
210
0.0
220
0.0
230
1.0
 40
0.7686570993426108
 41
5.810701401612173
 42
6.755669212746825
  0
LINE
  5
155FF
330
1F
100
AcDbEntity
  8
AM_0
100
AcDbLine
 10
25.22933702750447
 20
-97.0227285040861
 30
0.0
 11
25.8792844801161
 21
-96.21429290375002
 31
0.0
  0
LINE
  5
15600
330
1F
100
AcDbEntity
  8
AM_0
100
AcDbLine
 10
11.46852336831512
 20
-98.76256025562878
 30
0.0
 11
11.33983741637894
 21
-97.61167185246418
 31
0.0
  0
LINE
  5
15601
330
1F
100
AcDbEntity
  8
AM_0
100
AcDbLine
 10
55.48395455740069
 20
-93.97981649495617
 30
0.0
 11
54.53875299961698
 21
-85.52651218987236
 31
0.0
  0
LINE
  5
15602
330
1F
100
AcDbEntity
  8
AM_0
100
AcDbLine
 10
44.26392109054746
 20
-82.38502681387956
 30
0.0
 11
51.97196057842467
 21
-83.00706708342642
 31
0.0
  0
LINE
  5
15603
330
1F
100
AcDbEntity
  8
AM_0
100
AcDbLine
 10
54.3225237747028
 20
-84.85906873555067
 30
0.0
 11
54.53382329500948
 21
-85.50383106072923
 31
0.0
  0
ELLIPSE
  5
15604
330
1F
100
AcDbEntity
  8
AM_0
100
AcDbEllipse
 10
15.31527884500395
 20
-98.06901292519171
 30
0.0
 11
9.938067773775067
 21
1.111219565996517
 31
0.0
210
0.0
220
0.0
230
1.0
 40
0.0785327488467926
 41
5.743120040186042
 42
6.204327556554381
  0
ELLIPSE
  5
15606
330
1F
100
AcDbEntity
  8
AM_0
100
AcDbEllipse
 10
48.86215422277996
 20
-96.47701761672997
 30
0.0
 11
0.3217547525101076
 21
3.987038233982358
 31
0.0
210
0.0
220
0.0
230
1.0
 40
0.9242483109459988
 41
5.931853955150347
 42
7.090953442654566
  0
ELLIPSE
  5
15607
330
1F
100
AcDbEntity
  8
AM_0
100
AcDbEllipse
 10
37.1742363203407
 20
-84.14806773447472
 30
0.0
 11
6.956647441642549
 21
0.7778536961975479
 31
0.0
210
0.0
220
0.0
230
1.0
 40
0.078532748846795
 41
3.97677071322176
 42
5.096554081690839
  0
ELLIPSE
  5
15608
330
1F
100
AcDbEntity
  8
AM_0
100
AcDbEllipse
 10
37.90871568958619
 20
-84.04224926148075
 30
0.0
 11
6.956647441642549
 21
0.7778536961975479
 31
0.0
210
0.0
220
0.0
230
1.0
 40
0.078532748846795
 41
5.09655408169083
 42
6.663436513872609
  0
ELLIPSE
  5
15609
330
1F
100
AcDbEntity
  8
AM_0
100
AcDbEllipse
 10
37.1742363203407
 20
-84.14806773447472
 30
0.0
 11
6.956647441642549
 21
0.7778536961975479
 31
0.0
210
0.0
220
0.0
230
1.0
 40
0.078532748846795
 41
2.536792611897984
 42
3.074744796570163
  0
LINE
  5
1560A
330
1F
100
AcDbEntity
  8
AM_0
100
AcDbLine
 10
3.664795873473054
 20
-140.5242015801105
 30
0.0
 11
25.1591157348962
 21
-140.5242015801105
 31
0.0
  0
LINE
  5
1560B
330
1F
100
AcDbEntity
  8
AM_0
100
AcDbLine
 10
3.664795873473054
 20
-140.5242015801105
 30
0.0
 11
3.664795873473054
 21
-116.0691972867821
 31
0.0
  0
LINE
  5
15611
330
1F
100
AcDbEntity
  8
AM_0
100
AcDbLine
 10
250.0
 20
-100.5242015801105
 30
0.0
 11
250.0
 21
-140.5242015801105
 31
0.0
  0
LINE
  5
15612
330
1F
100
AcDbEntity
  8
AM_0
100
AcDbLine
 10
25.1591157348962
 20
-140.5242015801105
 30
0.0
 11
250.0
 21
-140.5242015801105
 31
0.0
  0
LINE
  5
15613
330
1F
100
AcDbEntity
  8
AM_0
100
AcDbLine
 10
25.1591157348962
 20
-140.5242015801105
 30
0.0
 11
25.1591157348962
 21
-114.1059381428141
 31
0.0
  0
LINE
  5
15614
330
1F
100
AcDbEntity
  8
AM_0
100
AcDbLine
 10
57.99999999999994
 20
-100.5242015801105
 30
0.0
 11
250.0
 21
-100.5242015801105
 31
0.0
  0
LINE
  5
15615
330
1F
100
AcDbEntity
  8
AM_0
100
AcDbLine
 10
55.72243186433531
 20
-92.02420158011046
 30
0.0
 11
55.26528855447145
 21
-92.02420158011046
 31
0.0
  0
LINE
  5
15616
330
1F
100
AcDbEntity
  8
AM_0
100
AcDbLine
 10
56.26328928602828
 20
-94.04270895751918
 30
0.0
 11
56.04412012522244
 21
-93.22475851393969
 31
0.0
  0
LINE
  5
15617
330
1F
100
AcDbEntity
  8
AM_0
100
AcDbLine
 10
56.04412012522244
 20
-93.22475851393972
 30
0.0
 11
55.87172709198757
 21
-92.58137895503637
 31
0.0
  0
LINE
  5
15618
330
1F
100
AcDbEntity
  8
AM_0
100
AcDbLine
 10
55.87172709198757
 20
-92.58137895503637
 30
0.0
 11
55.72243186433525
 21
-92.02420158011046
 31
0.0
  0
LINE
  5
15619
330
1F
100
AcDbEntity
  8
AM_0
100
AcDbLine
 10
58.00000000000006
 20
-100.5242015801105
 30
0.0
 11
56.37927673982767
 21
-94.47558002813898
 31
0.0
  0
LINE
  5
1561A
330
1F
100
AcDbEntity
  8
AM_0
100
AcDbLine
 10
25.1591157348962
 20
-107.1252996317812
 30
0.0
 11
25.1591157348962
 21
-97.96644510895376
 31
0.0
  0
LINE
  5
1561B
330
1F
100
AcDbEntity
  8
AM_0
100
AcDbLine
 10
25.78504739862137
 20
-114.0359499391169
 30
0.0
 11
25.1591157348962
 21
-114.1059381428141
 31
0.0
  0
LINE
  5
1561C
330
1F
100
AcDbEntity
  8
AM_0
100
AcDbLine
 10
25.1591157348962
 20
-114.1059381428141
 30
0.0
 11
24.29799025887382
 21
-114.1839345220131
 31
0.0
  0
LINE
  5
1561D
330
1F
100
AcDbEntity
  8
AM_0
100
AcDbLine
 10
24.39100263256648
 20
-98.03601689897178
 30
0.0
 11
25.1591157348962
 21
-107.1252996317812
 31
0.0
  0
LINE
  5
1561E
330
1F
100
AcDbEntity
  8
AM_0
100
AcDbLine
 10
25.1591157348962
 20
-107.1252996317812
 30
0.0
 11
25.78504739862092
 21
-114.0359499391169
 31
0.0
  0
LINE
  5
1561F
330
1F
100
AcDbEntity
  8
AM_0
100
AcDbLine
 10
7.393018725490379
 20
-97.79036344004419
 30
0.0
 11
7.389654245254405
 21
-97.66180493854517
 31
0.0
  0
LINE
  5
15620
330
1F
100
AcDbEntity
  8
AM_0
100
AcDbLine
 10
7.389654245254405
 20
-97.66180493854515
 30
0.0
 11
11.37942428347355
 21
-97.300431798994
 31
0.0
  0
LINE
  5
15621
330
1F
100
AcDbEntity
  8
AM_0
100
AcDbLine
 10
7.389654245254292
 20
-97.66180493854515
 30
0.0
 11
10.25287190676045
 21
-96.46249998342327
 31
0.0
  0
LINE
  5
15622
330
1F
100
AcDbEntity
  8
AM_0
100
AcDbLine
 10
12.17519878225266
 20
-96.24755606425168
 30
0.0
 11
10.25287190676045
 21
-96.46249998342327
 31
0.0
  0
LINE
  5
15624
330
1F
100
AcDbEntity
  8
AM_0
100
AcDbLine
 10
56.26328928602823
 20
-94.04270895751915
 30
0.0
 11
46.69073191300706
 21
-93.27020173552614
 31
0.0
  0
LINE
  5
15625
330
1F
100
AcDbEntity
  8
AM_0
100
AcDbLine
 10
56.37927673982762
 20
-94.47558002813898
 30
0.0
 11
56.26328928602823
 21
-94.04270895751915
 31
0.0
  0
LINE
  5
15626
330
1F
100
AcDbEntity
  8
AM_0
100
AcDbLine
 10
56.37927673982762
 20
-94.47558002813898
 30
0.0
 11
25.1591157348962
 21
-97.96644510895376
 31
0.0
  0
LINE
  5
15627
330
1F
100
AcDbEntity
  8
AM_0
100
AcDbLine
 10
25.1591157348962
 20
-97.96644510895376
 30
0.0
 11
24.39100263256648
 21
-98.03601689897181
 31
0.0
  0
LINE
  5
15628
330
1F
100
AcDbEntity
  8
AM_0
100
AcDbLine
 10
28.81890723926938
 20
-96.18131754899932
 30
0.0
 11
24.39100263256648
 21
-98.03601689897181
 31
0.0
  0
LINE
  5
15629
330
1F
100
AcDbEntity
  8
AM_0
100
AcDbLine
 10
2.03419777269869
 20
-116.1415045310259
 30
0.0
 11
2.03419777269869
 21
-140.5242015801105
 31
0.0
  0
LINE
  5
1562A
330
1F
100
AcDbEntity
  8
AM_0
100
AcDbLine
 10
3.664795873473054
 20
-140.5242015801105
 30
0.0
 11
2.03419777269869
 21
-140.5242015801105
 31
0.0
  0
ELLIPSE
  5
1562B
330
1F
100
AcDbEntity
  8
AM_0
100
AcDbEllipse
 10
39.08152505134808
 20
-94.53113847076364
 30
0.0
 11
6.459744052953806
 21
0.7222927178976462
 31
0.0
210
0.0
220
0.0
230
1.0
 40
0.0785327488467901
 41
3.504480323746578
 42
5.375262803878987
  0
ELLIPSE
  5
1562C
330
1F
100
AcDbEntity
  8
AM_0
100
AcDbEllipse
 10
27.05357571383138
 20
-96.09427202847763
 30
0.0
 11
3.975227109510029
 21
0.4444878263985844
 31
0.0
210
0.0
220
0.0
230
1.0
 40
0.07853274884679
 41
5.163739758804868
 42
6.312207811054929
  0
LINE
  5
1562E
330
1F
100
AcDbEntity
  8
AM_0
100
AcDbLine
 10
3.625349194787532
 20
-116.0727701669192
 30
0.0
 11
23.32261052061131
 21
-114.2886921128747
 31
0.0
  0
LINE
  5
15630
330
1F
100
AcDbEntity
  8
AM_0
100
AcDbLine
 10
1.139665066599564
 20
-109.8542980591951
 30
0.0
 11
1.83685623119095
 21
-116.0895491805818
 31
0.0
  0
ELLIPSE
  5
15631
330
1F
100
AcDbEntity
  8
AM_0
100
AcDbEllipse
 10
23.91925382272075
 20
-114.0387784306981
 30
0.0
 11
2.385136265705992
 21
0.2666926958391473
 31
0.0
210
0.0
220
0.0
230
1.0
 40
0.0785327488467901
 41
4.450782258372275
 42
5.596695210447384
  0
ELLIPSE
  5
15632
330
1F
100
AcDbEntity
  8
AM_0
100
AcDbEllipse
 10
4.221992496896974
 20
-115.8228564847427
 30
0.0
 11
2.38513626570602
 21
0.2666926958391504
 31
0.0
210
0.0
220
0.0
230
0.9999999999999999
 40
0.0785327488467901
 41
3.141592653589806
 42
4.450782258372267
  0
LINE
  5
15633
330
1F
100
AcDbEntity
  8
AM_0
100
AcDbLine
 10
11.34971697149945
 20
-97.42321508280139
 30
0.0
 11
8.103059865271234
 21
-97.71728082099799
 31
0.0
  0
LINE
  5
15634
330
1F
100
AcDbEntity
  8
AM_0
100
AcDbLine
 10
29.29538017302116
 20
-96.10619583565705
 30
0.0
 11
29.63817086184031
 21
-95.96261241997846
 31
0.0
  0
LINE
  5
15635
330
1F
100
AcDbEntity
  8
AM_0
100
AcDbLine
 10
29.63817086184031
 20
-95.96261241997846
 30
0.0
 11
29.64744719062037
 21
-96.04557422782384
 31
0.0
  0
LINE
  5
15636
330
1F
100
AcDbEntity
  8
AM_0
100
AcDbLine
 10
1.788584917946423
 20
-100.3622006240336
 30
0.0
 11
21.61093876806717
 21
-98.56679232343186
 31
0.0
  0
LINE
  5
1563A
330
1F
100
AcDbEntity
  8
AM_0
100
AcDbLine
 10
5.197016114604139
 20
-98.17636828576895
 30
0.0
 11
0.0758277714980977
 21
-100.3214607244514
 31
0.0
  0
LINE
  5
1563B
330
1F
100
AcDbEntity
  8
AM_0
100
AcDbLine
 10
29.71390667898857
 20
-95.90509350673366
 30
0.0
 11
29.72798036149766
 21
-96.03095991053152
 31
0.0
  0
LINE
  5
1563C
330
1F
100
AcDbEntity
  8
AM_0
100
AcDbLine
 10
0.0000919543497275
 20
-100.3789796376962
 30
0.0
 11
1.055209203266797
 21
-109.8153026200164
 31
0.0
  0
ELLIPSE
  5
1563D
330
1F
100
AcDbEntity
  8
AM_0
100
AcDbEllipse
 10
7.506416563161793
 20
-97.96719450317457
 30
0.0
 11
2.385136265705992
 21
0.2666926958391473
 31
0.0
210
0.0
220
0.0
230
1.0
 40
0.0785327488467901
 41
1.309189604782487
 42
2.879985931577385
  0
ELLIPSE
  5
1563E
330
1F
100
AcDbEntity
  8
AM_0
100
AcDbEllipse
 10
27.32877041328254
 20
-96.1717862025728
 30
0.0
 11
2.385136265706019
 21
0.2666926958391503
 31
0.0
210
0.0
220
0.0
230
1.0
 40
0.0785327488467901
 41
6.02157858516718
 42
6.812754140013999
  0
ELLIPSE
  5
1563F
330
1F
100
AcDbEntity
  8
AM_0
100
AcDbEllipse
 10
22.2075820701765
 20
-98.31687864125524
 30
0.0
 11
2.385136265705992
 21
0.2666926958391473
 31
0.0
210
0.0
220
0.0
230
1.0
 40
0.0785327488467901
 41
4.45078225837228
 42
5.870043806308201
  0
ELLIPSE
  5
15641
330
1F
100
AcDbEntity
  8
AM_0
100
AcDbEllipse
 10
2.385228220055751
 20
-100.112286941857
 30
0.0
 11
2.385136265705992
 21
0.2666926958391473
 31
0.0
210
0.0
220
0.0
230
1.0
 40
0.0785327488467901
 41
2.879985931577385
 42
4.450782258372291
  0
ELLIPSE
  5
15642
330
1F
100
AcDbEntity
  8
AM_0
100
AcDbEllipse
 10
3.440345468972788
 20
-109.5486099241773
 30
0.0
 11
2.385136265705992
 21
0.2666926958391473
 31
0.0
210
0.0
220
0.0
230
1.0
 40
0.0785327488467901
 41
3.1415926535898
 42
4.450782258372291
  0
ELLIPSE
  5
15643
330
1F
100
AcDbEntity
  8
AM_0
100
AcDbEllipse
 10
14.8569993166692
 20
-98.14203657221492
 30
0.0
 11
4.571511175936538
 21
0.5111610003583341
 31
0.0
210
0.0
220
0.0
230
1.0
 40
0.0785327488467901
 41
2.414414264379514
 42
5.59127368024725
  0
TEXT
  5
16409
330
1F
100
AcDbEntity
  8
AM_0
370
    30
100
AcDbText
 10
92.44485543767297
 20
-165.3111692203178
 30
0.0
 40
3.8
  1
DSBNR4040S2509
  7
ACISOTS
100
AcDbText
  0
DIMENSION
  5
16455
330
1F
100
AcDbEntity
  8
AM_5
370
    13
100
AcDbDimension
  2
*D10
 10
0.0
 20
1.852940346838977
 30
0.0
 11
18.20772374837475
 21
-19.99624508506133
 31
0.0
 70
   162
 71
     5
 42
1.308996938995753
  3
AM_JIS$2
100
AcDb2LineAngularDimension
 13
1.788584917946423
 23
-0.4792498843581257
 33
0.0
 14
21.61093876806717
 24
-5.79063359058182
 34
0.0
 15
0.0
 25
0.0
 35
0.0
 16
11.42923424450145
 26
-24.51007193345796
 36
0.0
1001
ACAD
1000
DSTYLE
1002
{
1070
   144
1040
0.5
1070
   271
1070
     0
1002
}
  0
LINE
  5
16563
330
1F
100
AcDbEntity
  8
AM_0
100
AcDbLine
 10
2.810693232584384
 20
-109.8022144821316
 30
0.0
 11
22.63304708270502
 21
-108.0068061815298
 31
0.0
  0
SPLINE
  5
16569
330
1F
100
AcDbEntity
  8
AM_0
100
AcDbSpline
210
0.0
220
0.0
230
1.0
 70
     8
 71
     3
 72
    12
 73
     8
 74
     0
 42
0.0000000001
 43
0.0000000001
 40
4.45078225837228
 40
4.45078225837228
 40
4.45078225837228
 40
4.45078225837228
 40
4.781170714562723
 40
4.781170714562723
 40
5.315210248989106
 40
5.315210248989106
 40
5.562389468229789
 40
5.562389468229789
 40
5.562389468229789
 40
5.562389468229789
 10
22.63304708270515
 20
-108.0068061815298
 30
0.0
 10
22.90195867038105
 20
-107.9824495334601
 30
0.0
 10
23.18051936767939
 20
-107.9534335270146
 30
0.0
 10
23.90141635801185
 20
-107.8688755127173
 30
0.0
 10
24.33713472700034
 20
-107.8082269216966
 30
0.0
 10
24.89250320760102
 20
-107.7155492128252
 30
0.0
 10
25.05560224562387
 20
-107.6859355496431
 30
0.0
 10
25.2071030989762
 20
-107.6551080941846
 30
0.0
  0
SPLINE
  5
16579
330
1F
100
AcDbEntity
  8
AM_0
100
AcDbSpline
210
0.0
220
0.0
230
1.0
 70
     8
 71
     3
 72
    18
 73
    14
 74
     0
 42
0.0000000001
 43
0.0000000001
 40
1.317970475082158
 40
1.317970475082158
 40
1.317970475082158
 40
1.317970475082158
 40
1.652865510928421
 40
1.652865510928421
 40
2.150891502541287
 40
2.150891502541287
 40
2.454066875589119
 40
2.454066875589119
 40
2.667234406354773
 40
2.667234406354773
 40
2.808339269101298
 40
2.808339269101298
 40
2.888766801877064
 40
2.888766801877064
 40
2.888766801877064
 40
2.888766801877064
 10
-99.0660545786308
 20
3.244142709161756
 30
0.0
 10
-99.09619178223203
 20
2.965436290253645
 30
0.0
 10
-99.12181233497581
 20
2.676776482768704
 30
0.0
 10
-99.17167728160165
 20
1.96548033829885
 30
0.0
 10
-99.18913787053751
 20
1.547629755595977
 30
0.0
 10
-99.19314520408604
 20
0.9436577533187801
 30
0.0
 10
-99.18931867351061
 20
0.7311595362809038
 30
0.0
 10
-99.17074226466782
 20
0.3936860147468268
 30
0.0
 10
-99.15994227618921
 20
0.2620466059436573
 30
0.0
 10
-99.12973933819511
 20
0.0369662521592777
 30
0.0
 10
-99.11493312739646
 20
-0.0539837836299116
 30
0.0
 10
-99.07597508670959
 20
-0.2199073195177557
 30
0.0
 10
-99.05864203400201
 20
-0.2850615878001864
 30
0.0
 10
-99.03274858907346
 20
-0.3616625600966508
 30
0.0
  0
LINE
  5
1657F
330
1F
100
AcDbEntity
  8
AM_0
100
AcDbLine
 10
-96.92096213994979
 20
23.08178390924891
 30
0.0
 11
-99.06605457863226
 21
3.244142709147943
 31
0.0
  0
LINE
  5
16585
330
1F
100
AcDbEntity
  8
AM_0
100
AcDbLine
 10
-99.03274858906804
 20
-0.3616625601124947
 30
0.0
 11
-97.45429020112394
 21
-5.031240037207082
 31
0.0
  0
ENDSEC
  0
SECTION
  2
OBJECTS
  0
DICTIONARY
  5
C
330
0
100
AcDbDictionary
281
     1
  3
ACAD_COLOR
350
2E84
  3
ACAD_GROUP
350
D
  3
ACAD_LAYOUT
350
1A
  3
ACAD_MATERIAL
350
2E83
  3
ACAD_MLINESTYLE
350
17
  3
ACAD_PLOTSETTINGS
350
19
  3
ACAD_PLOTSTYLENAME
350
E
  3
ACAD_TABLESTYLE
350
2E85
  3
AcAmCatalogState
350
2EEB
  3
ACDBHEADERROUNDTRIPXREC
350
16589
  3
AcDbVariableDictionary
350
30
  3
ACDMSYSVARMGR
350
2E9E
  3
ACGREF_MASTER
350
2E96
  3
ACGREFACAD_MASTER
350
2EBE
  3
AcmDictionary
350
4D
  3
ACME_BOM_MANAGER_NAME
350
36
  3
ACME_COMMAND_HISTORY
350
2F
  3
ACME_SCOPE_NAME
350
2E
  3
ACMESTATEMGR
350
3B
  3
AcmeSysVarManager
350
32
  3
AcmSystemVariableManager
350
6A
  3
AD_APPL
350
2EC9
  3
ADSYSVARMGR
350
2EC8
  3
AmdtNamedDwgMgr
350
2EB9
  3
AMG
350
3F
  3
AMGSNAPSETTINGS
350
73
  3
AMI_MASTER
350
2EC1
  3
AUTOCAD_ASSEMBLIES_PROJECT
350
2ED1
  3
Designer_Assemblies_SysVars
350
2ECC
  3
DWGPROPS
350
1658C
  3
eng_data
350
2E12
  3
FILENAME
350
2BED
  3
GREFAM_MODULE
350
2EC2
  3
line_dic_data
350
2E10
  3
table_dic_data
350
25AD
  3
ZWKSIZE
350
2BEF
  0
DICTIONARY
  5
5D34
330
2
100
AcDbDictionary
280
     1
281
     1
  3
ACAD_LAYERFILTERS
360
5D37
  3
ACAD_LAYERSTATES
360
7CA2
  3
ACLYDICTIONARY
360
5D36
  3
AMLAYER_GROUPCOLORS
360
5D35
  0
DICTIONARY
  5
165
330
1F
100
AcDbDictionary
280
     1
281
     1
  3
ACAD_SORTENTS
360
5E25
  0
DICTIONARY
  5
2E84
102
{ACAD_REACTORS
330
C
102
}
330
C
100
AcDbDictionary
281
     1
  0
DICTIONARY
  5
D
102
{ACAD_REACTORS
330
C
102
}
330
C
100
AcDbDictionary
281
     1
  0
DICTIONARY
  5
1A
102
{ACAD_REACTORS
330
C
102
}
330
C
100
AcDbDictionary
281
     1
  3
Model
350
22
  3
ﾚｲｱｳﾄ1
350
1E
  3
ﾚｲｱｳﾄ2
350
26
  0
DICTIONARY
  5
2E83
102
{ACAD_REACTORS
330
C
102
}
330
C
100
AcDbDictionary
281
     1
  0
DICTIONARY
  5
17
102
{ACAD_REACTORS
330
C
102
}
330
C
100
AcDbDictionary
281
     1
  3
Standard
350
18
  0
DICTIONARY
  5
19
102
{ACAD_REACTORS
330
C
102
}
330
C
100
AcDbDictionary
281
     1
  0
ACDBDICTIONARYWDFLT
  5
E
102
{ACAD_REACTORS
330
C
102
}
330
C
100
AcDbDictionary
281
     1
  3
Normal
350
F
100
AcDbDictionaryWithDefault
340
F
  0
DICTIONARY
  5
2E85
102
{ACAD_REACTORS
330
C
102
}
330
C
100
AcDbDictionary
281
     1
  3
Standard
350
2E86
  0
ACAD_PROXY_OBJECT
  5
2EEB
102
{ACAD_REACTORS
330
C
102
}
330
C
100
AcDbProxyObject
 90
      499
 91
      571
 95
       25
 70
     0
 93
      160
310
3FFFFFFFE00A028140283A19D2E3A32B6B8400AA
  0
DICTIONARY
  5
16589
102
{ACAD_REACTORS
330
C
102
}
330
C
100
AcDbDictionary
281
     1
  3
COLORDICT
350
1658A
  3
MATERIALDICT
350
1658B
  0
DICTIONARY
  5
30
102
{ACAD_REACTORS
330
C
102
}
330
C
100
AcDbDictionary
281
     1
  3
CTABLESTYLE
350
2EF6
  3
DIMASSOC
350
16587
  3
HIDETEXT
350
16588
  3
INDEXCTL
350
31
  0
ACAD_PROXY_OBJECT
  5
2E9E
102
{ACAD_REACTORS
330
C
102
}
330
C
100
AcDbProxyObject
 90
      499
 91
      507
 95
       25
 70
     0
 93
      240
310
4C51A47A0000000000000000000000000000000000000000000000000000
330
2E9F
330
2EA0
330
2EA1
330
2EA2
330
2EA3
330
2EA4
330
2EA5
330
2EA6
330
2EA7
330
2EA8
330
2EA9
330
2EAA
330
2EAB
330
2EAC
330
2EAD
330
2EAE
330
2EAF
330
2EB0
330
2EB1
330
2EB2
330
2EB3
330
2EB4
330
2EB5
330
2EB6
330
2EB7
330
2EB8
 94
        0
  0
ACAD_PROXY_OBJECT
  5
2E96
102
{ACAD_REACTORS
330
C
102
}
330
C
100
AcDbProxyObject
 90
      499
 91
      535
 95
       25
 70
     0
 93
       34
310
0400004280
  0
ACAD_PROXY_OBJECT
  5
2EBE
102
{ACAD_REACTORS
330
C
102
}
330
C
100
AcDbProxyObject
 90
      499
 91
      541
 95
       25
 70
     0
 93
      114
310
04000041C080000000000000000000
  0
DICTIONARY
  5
4D
102
{ACAD_REACTORS
330
C
102
}
330
C
100
AcDbDictionary
281
     1
  3
AcmBOMDATA
350
4E
  3
AcmStdDictionary
350
17E
  3
AMDTSECTSYM_ARROWCOLOR
350
2EDF
  0
ACAD_PROXY_OBJECT
  5
36
102
{ACAD_REACTORS
330
C
102
}
330
C
100
AcDbProxyObject
 90
      499
 91
      510
 95
       25
 70
     0
 93
       50
310
00010040400000
330
0
330
0
330
37
 94
        0
  0
ACAD_PROXY_OBJECT
  5
2F
102
{ACAD_REACTORS
330
C
102
}
330
C
100
AcDbProxyObject
 90
      499
 91
      505
 95
       25
 70
     0
 93
     3690
310
4780506455854454E4440405184D5347202D20436F6D6D616E642043414E43454C4C45442E01411353D591601411353D59150101461354D1C80B4810DBDB5B585B990810D05390D1531311510B805045452494D805045452494D40405184D5347202D20436F6D6D616E642043414E43454C4C45442E014151549054D160141
310
51549054D160141151492536014115539113E014193D19194D15510101461354D1C80B4810DBDB5B585B990810D05390D1531311510B805064F464653455440405184D5347202D20436F6D6D616E642043414E43454C4C45442E014193D19194D15510101461354D1C80B4810DBDB5B585B990810D05390D1531311510B805
310
054552415345805044D4F564580506455854454E44805044D4F56458050C475249505F53545245544348805045452494D805045452494D80506455854454E44805045452494D805044D4F564540405184D5347202D20436F6D6D616E642043414E43454C4C45442E01411353D59160141151492536014151549054D1601411
310
51492536014151549054D16014115149253601411693D3D3601415454D05591501014B5354D1C80B481414104E88080819195CDADD1BDC0B985C9E08119A5B1955995C9CDA5BDB8E880E4B8C8B8C0B8D00
  0
ACAD_PROXY_OBJECT
  5
2E
102
{ACAD_REACTORS
330
C
102
}
330
C
100
AcDbProxyObject
 90
      499
 91
      504
 95
       25
 70
     0
 93
      586
310
09000046408000000000000000001344E200000000000000000000000000000000000000000000000000000000000000000000000000000000000000000000000000000000AAA406AA80
360
33
360
34
360
35
360
37
360
6B
360
6C
360
2E97
360
2E98
360
2E99
360
2E9A
360
2E9B
360
2E9C
360
2E9F
360
2EA0
360
2EA1
360
2EA2
360
2EA3
360
2EA4
360
2EA5
360
2EA6
360
2EA7
360
2EA8
360
2EA9
360
2EAA
360
2EAB
360
2EAC
360
2EAD
360
2EAE
360
2EAF
360
2EB0
360
2EB1
360
2EB2
360
2EB3
360
2EB4
360
2EB5
360
2EB6
360
2EB7
360
2EB8
360
2EC4
360
2EC5
360
2EC6
360
2EC7
360
2ECD
360
2ECE
360
2ECF
360
2ED0
360
2ED5
360
2ED6
360
2ED7
360
2ED8
360
2ED9
360
2EDA
 94
        0
  0
ACAD_PROXY_OBJECT
  5
3B
102
{ACAD_REACTORS
330
C
102
}
330
C
100
AcDbProxyObject
 90
      499
 91
      515
 95
       25
 70
     0
 93
       50
310
09000042641280
  0
ACAD_PROXY_OBJECT
  5
32
102
{ACAD_REACTORS
330
C
102
}
330
C
100
AcDbProxyObject
 90
      499
 91
      507
 95
       25
 70
     0
 93
       48
310
903412000000
330
33
330
34
330
35
 94
        0
  0
ACAD_PROXY_OBJECT
  5
6A
102
{ACAD_REACTORS
330
C
102
}
330
C
100
AcDbProxyObject
 90
      499
 91
      507
 95
       25
 70
     0
 93
       40
310
90240E0000
330
6B
330
6C
 94
        0
  0
ACAD_PROXY_OBJECT
  5
2EC9
102
{ACAD_REACTORS
330
C
102
}
330
C
100
AcDbProxyObject
 90
      499
 91
      551
 95
       25
 70
     0
 93
       42
310
000900004040
330
2EC4
 94
        0
  0
ACAD_PROXY_OBJECT
  5
2EC8
102
{ACAD_REACTORS
330
C
102
}
330
C
100
AcDbProxyObject
 90
      499
 91
      507
 95
       25
 70
     0
 93
        8
310
AA
  0
ACAD_PROXY_OBJECT
  5
2EB9
102
{ACAD_REACTORS
330
C
102
}
330
C
100
AcDbProxyObject
 90
      499
 91
      540
 95
       25
 70
     0
 93
       42
310
000100005E80
330
2E97
 94
        0
  0
DICTIONARY
  5
3F
102
{ACAD_REACTORS
330
C
102
}
330
C
100
AcDbDictionary
281
     1
  3
AcMgSettings
350
40
  3
AMGLAYCFG
350
42
  0
DICTIONARY
  5
73
102
{ACAD_REACTORS
330
C
102
}
330
C
100
AcDbDictionary
281
     1
  3
DIMENSION
350
62F
  3
FEA
350
630
  3
HATCH (1)
350
631
  3
HATCH (2)
350
632
  3
SYMBOLS
350
633
  0
ACAD_PROXY_OBJECT
  5
2EC1
102
{ACAD_REACTORS
330
C
102
}
330
C
100
AcDbProxyObject
 90
      499
 91
      544
 95
       25
 70
     0
 93
       34
310
0500004280
  0
ACAD_PROXY_OBJECT
  5
2ED1
102
{ACAD_REACTORS
330
C
102
}
330
C
100
AcDbProxyObject
 90
      499
 91
      554
 95
       25
 70
     0
 93
       98
310
0900004E400000000000000000
330
2ED8
330
0
330
2ED9
330
0
330
0
330
0
330
0
330
0
 94
        0
  0
ACAD_PROXY_OBJECT
  5
2ECC
102
{ACAD_REACTORS
330
C
102
}
330
C
100
AcDbProxyObject
 90
      499
 91
      507
 95
       25
 70
     0
 93
       56
310
90441600000000
330
2ECD
330
2ECE
330
2ECF
330
2ED0
 94
        0
  0
XRECORD
  5
1658C
102
{ACAD_REACTORS
330
C
102
}
330
C
100
AcDbXrecord
280
     1
  1
DWGPROPS COOKIE
  2

  3

  4

  6

  7

  8

  9

300
AmdtFileType=82
301
=
302
=
303
=
304
=
305
=
306
=
307
=
308
=
309
=
 40
0.0
 41
2451943.235431667
 42
2455441.044055625
  1

 90
        1
  0
DICTIONARY
  5
2E12
102
{ACAD_REACTORS
330
C
102
}
330
C
100
AcDbDictionary
281
     1
  3
eng_id
350
2E13
  0
DICTIONARY
  5
2BED
102
{ACAD_REACTORS
330
C
102
}
330
C
100
AcDbDictionary
281
     1
  3
FILENAME
350
2BEE
  0
ACAD_PROXY_OBJECT
  5
2EC2
102
{ACAD_REACTORS
330
C
102
}
330
C
100
AcDbProxyObject
 90
      499
 91
      545
 95
       25
 70
     0
 93
        8
310
05
  0
DICTIONARY
  5
2E10
102
{ACAD_REACTORS
330
C
102
}
330
C
100
AcDbDictionary
281
     1
  3
line_data
350
2E11
  0
DICTIONARY
  5
25AD
102
{ACAD_REACTORS
330
C
102
}
330
C
100
AcDbDictionary
281
     1
  3
input_data
350
25AF
  3
table_data
350
25AE
  0
DICTIONARY
  5
2BEF
102
{ACAD_REACTORS
330
C
102
}
330
C
100
AcDbDictionary
281
     1
  3
ZWKSIZE
350
2BF0
  0
DICTIONARY
  5
5D37
102
{ACAD_REACTORS
330
5D34
102
}
330
5D34
100
AcDbDictionary
281
     1
  0
DICTIONARY
  5
7CA2
102
{ACAD_REACTORS
330
5D34
102
}
330
5D34
100
AcDbDictionary
281
     1
  0
DICTIONARY
  5
5D36
102
{ACAD_REACTORS
330
5D34
102
}
330
5D34
100
AcDbDictionary
281
     1
1001
ACAD
1000
<All
  0
DICTIONARY
  5
5D35
102
{ACAD_REACTORS
330
5D34
102
}
330
5D34
100
AcDbDictionary
280
     1
281
     1
  0
SORTENTSTABLE
  5
5E25
102
{ACAD_REACTORS
330
165
102
}
330
165
100
AcDbSortentsTable
330
1F
331
0
  5
155BD
331
DA89
  5
DA89
331
DABB
  5
DABB
331
10A37
  5
10B4B
331
10A93
  5
10B4D
331
10ABD
  5
10B4E
331
10ADF
  5
10B4F
331
113BF
  5
113BF
331
12F9F
  5
1351E
331
12FA9
  5
1351F
331
13958
  5
1397B
331
14232
  5
14233
331
14233
  5
14234
331
14234
  5
14235
331
14235
  5
14236
331
154AA
  5
154AC
331
154AB
  5
154AD
331
154AC
  5
154AE
331
154AD
  5
154AF
331
154AE
  5
154B0
331
154AF
  5
154B1
331
154B0
  5
154B2
331
154B1
  5
154B3
331
154B2
  5
154B4
331
154B3
  5
154B5
331
154B4
  5
154B6
331
154B5
  5
154B7
331
154B6
  5
154B8
331
154B7
  5
154B9
331
154B8
  5
154BA
331
154B9
  5
154BB
331
154BA
  5
154BC
331
154BB
  5
154BD
331
154BC
  5
154BE
331
154BD
  5
154BF
331
154BE
  5
154C0
331
154BF
  5
154C1
331
154C1
  5
154C3
331
154C3
  5
154C5
331
154C5
  5
154C7
331
154C9
  5
154CB
331
154CB
  5
154CD
331
154CC
  5
154CE
331
154D1
  5
154D3
331
154D4
  5
154D6
331
154D5
  5
154D7
331
154D7
  5
154D9
331
154DD
  5
154DF
331
154DE
  5
154E0
331
154E3
  5
154E5
331
154E4
  5
154E6
331
154E6
  5
154E8
331
154EB
  5
154ED
331
154EC
  5
154EE
331
154ED
  5
154EF
331
154F1
  5
154F3
331
154F2
  5
154F4
331
154F5
  5
154F7
331
154F6
  5
154F8
331
154F7
  5
154F9
331
154F8
  5
154FA
331
154F9
  5
154FB
331
154FA
  5
154FC
331
154FB
  5
154FD
331
154FC
  5
154FE
331
154FD
  5
154FF
331
15504
  5
15506
331
15505
  5
15507
331
15506
  5
15508
331
15507
  5
15509
331
15508
  5
1550A
331
15509
  5
1550B
331
1550A
  5
1550C
331
1550B
  5
1550D
331
1550D
  5
1550F
331
15511
  5
15513
331
15512
  5
15514
331
15513
  5
15515
331
15514
  5
15516
331
15515
  5
15517
331
1551A
  5
1551C
331
1551B
  5
1551D
331
1551C
  5
1551E
331
1551F
  5
15521
331
15520
  5
15522
331
15521
  5
15523
331
15522
  5
15524
331
15527
  5
15529
331
15528
  5
1552A
331
15529
  5
1552B
331
1552A
  5
1552C
331
1552B
  5
1552D
331
1552C
  5
1552E
331
1552D
  5
1552F
331
1552E
  5
15530
331
1552F
  5
15531
331
15530
  5
15532
331
15533
  5
15535
331
15535
  5
15537
331
15537
  5
15539
331
15538
  5
1553A
331
15539
  5
1553B
331
1553A
  5
1553C
331
1553B
  5
1553D
331
1553C
  5
1553E
331
1553D
  5
1553F
331
1553E
  5
15540
331
1553F
  5
15541
331
15540
  5
15542
331
15542
  5
15544
331
15545
  5
15547
331
15546
  5
15548
331
15547
  5
15549
331
15548
  5
1554A
331
15549
  5
1554B
331
1554A
  5
1554C
331
1554B
  5
1554D
331
1554C
  5
1554E
331
1554D
  5
1554F
331
1554E
  5
15550
331
1554F
  5
15551
331
15550
  5
15552
331
15551
  5
15553
331
15553
  5
15555
331
15557
  5
15559
331
15559
  5
1555B
331
1555A
  5
1555C
331
1555F
  5
15561
331
15562
  5
15564
331
15563
  5
15565
331
15564
  5
15566
331
15565
  5
15567
331
15566
  5
15568
331
15567
  5
15569
331
15568
  5
1556A
331
15569
  5
1556B
331
1556E
  5
15570
331
1556F
  5
15571
331
15571
  5
15573
331
15574
  5
15576
331
15575
  5
15577
331
15576
  5
15578
331
15577
  5
15579
331
15578
  5
1557A
331
1557A
  5
1557C
331
1557B
  5
1557D
331
1557C
  5
1557E
331
1557D
  5
1557F
331
1557E
  5
15580
331
15580
  5
15582
331
15581
  5
15583
331
15582
  5
15584
331
15583
  5
15585
331
15584
  5
15586
331
15585
  5
15587
331
15586
  5
15588
331
15587
  5
15589
331
15588
  5
1558A
331
1558B
  5
1558D
331
1558C
  5
1558E
331
1558D
  5
1558F
331
1558E
  5
15590
331
1558F
  5
15591
331
15590
  5
15592
331
15592
  5
15594
331
15593
  5
15595
331
15594
  5
15596
331
15595
  5
15597
331
15596
  5
15598
331
15597
  5
15599
331
15598
  5
1559A
331
15599
  5
1559B
331
1559A
  5
1559C
331
1559B
  5
1559D
331
1559C
  5
1559E
331
1559D
  5
1559F
331
1559E
  5
155A0
331
1559F
  5
155A1
331
155A0
  5
155A2
331
155A1
  5
155A3
331
155A2
  5
155A4
331
155A3
  5
155A5
331
155A4
  5
155A6
331
155A5
  5
155A7
331
155A7
  5
155A9
331
155AB
  5
155AD
331
155AC
  5
155AE
331
155AD
  5
155AF
331
155AE
  5
155B0
331
155AF
  5
155B1
331
155B0
  5
155B2
331
155B1
  5
155B3
331
155B2
  5
155B4
331
155B3
  5
155B5
331
155B8
  5
155BC
331
155BB
  5
155BF
331
155BC
  5
155C0
331
155BD
  5
155C1
331
155BE
  5
155C2
331
155BF
  5
155C3
331
155C0
  5
155C4
331
155C1
  5
155C5
331
155C3
  5
155C9
331
155C4
  5
155CA
331
155C6
  5
155CB
331
155C7
  5
155CC
331
155C8
  5
155CE
331
155C9
  5
155CF
331
155CA
  5
155D0
331
155CC
  5
155D1
331
155CD
  5
155D2
331
155CE
  5
155D3
331
155CF
  5
155D4
331
155D0
  5
155D5
331
155D1
  5
155D7
331
155D2
  5
155D8
331
155D3
  5
155D9
331
155D5
  5
155DA
331
155D6
  5
155DB
331
155D7
  5
155DC
331
155D8
  5
155DD
331
155D9
  5
155DF
331
155DA
  5
155E0
331
155DB
  5
155E1
331
155DD
  5
155E2
331
155DE
  5
155E3
331
155DF
  5
155E4
331
155E0
  5
155E5
331
155E1
  5
155E6
331
155E2
  5
155E9
331
155E3
  5
155EB
331
155E4
  5
155ED
331
155E7
  5
155EE
331
155E9
  5
155F0
331
155EB
  5
155F6
331
155EC
  5
155F7
331
155EE
  5
155FA
331
155F4
  5
15601
331
155F5
  5
15602
331
155F8
  5
15603
331
155FF
  5
15604
331
15600
  5
15605
331
15601
  5
15606
331
15602
  5
15608
331
15603
  5
15609
331
15604
  5
1560A
331
15606
  5
1560B
331
15607
  5
1560C
331
15608
  5
1560D
331
15609
  5
15613
331
1560A
  5
15614
331
1560B
  5
15615
331
15611
  5
15616
331
15612
  5
15617
331
15613
  5
15618
331
15614
  5
15619
331
15615
  5
1561A
331
15616
  5
1561B
331
15617
  5
1561C
331
15618
  5
1561D
331
15619
  5
1561E
331
1561A
  5
1561F
331
1561B
  5
15620
331
1561C
  5
15621
331
1561D
  5
15622
331
1561E
  5
15623
331
1561F
  5
15624
331
15620
  5
15626
331
15621
  5
15627
331
15622
  5
15628
331
15624
  5
15629
331
15625
  5
1562A
331
15626
  5
1562B
331
15627
  5
1562C
331
15628
  5
1562D
331
15629
  5
1562E
331
1562A
  5
15630
331
1562B
  5
15632
331
1562C
  5
15633
331
1562E
  5
15634
331
15630
  5
15635
331
15631
  5
15636
331
15632
  5
15637
331
15633
  5
15638
331
15634
  5
1563C
331
15635
  5
1563D
331
15636
  5
1563E
331
1563A
  5
15640
331
1563B
  5
15641
331
1563C
  5
15642
331
1563D
  5
15644
331
1563E
  5
15645
331
1563F
  5
16409
331
15641
  5
16569
331
15642
  5
1656F
331
15643
  5
16579
331
16409
  5
1657F
331
16455
  5
16585
331
16563
  5
1563F
331
16569
  5
16563
331
16579
  5
155C8
331
1657F
  5
155BE
331
16585
  5
155BA
  0
LAYOUT
  5
22
102
{ACAD_REACTORS
330
1A
102
}
330
1A
100
AcDbPlotSettings
  1

  2
SII LP-2150 (D-SCAN C2)
  4
User120
  6
AM_VIEW1
 40
3.174999952316284
 41
3.174999952316284
 42
3.17498779296875
 43
3.17498779296875
 44
296.9259948730469
 45
419.9889831542969
 46
0.0
 47
0.0
 48
0.0
 49
0.0
140
594.0
141
420.0
142
1.0
143
1.445404953256627
 70
 11952
 72
     1
 73
     1
 74
     4
  7
sei_cad.ctb
 75
     0
147
0.6918476360184805
148
0.0
149
0.0
100
AcDbLayout
  1
Model
 70
     1
 71
     0
 10
0.0
 20
0.0
 11
12.0
 21
9.0
 12
0.0
 22
0.0
 32
0.0
 14
0.0
 24
0.0
 34
0.0
 15
0.0
 25
0.0
 35
0.0
146
0.0
 13
0.0
 23
0.0
 33
0.0
 16
1.0
 26
0.0
 36
0.0
 17
0.0
 27
1.0
 37
0.0
 76
     0
330
1F
1001
ACAD_PSEXT
1000
SII LP-2150 (D-SCAN C2)
1000
SII LP-2150 (D-SCAN C2)
1000
133.153.16.130#3000
1000

1070
     0
  0
LAYOUT
  5
1E
102
{ACAD_REACTORS
330
1A
102
}
330
1A
100
AcDbPlotSettings
  1

  2
Canon LASER SHOT LBP-2030
  4

  6

 40
0.0
 41
0.0
 42
0.0
 43
0.0
 44
0.0
 45
0.0
 46
0.0
 47
0.0
 48
0.0
 49
0.0
140
0.0
141
0.0
142
1.0
143
1.0
 70
   688
 72
     0
 73
     0
 74
     5
  7
sei_cad.ctb
 75
    16
147
1.0
148
0.0
149
0.0
100
AcDbLayout
  1
ﾚｲｱｳﾄ1
 70
     1
 71
     1
 10
0.0
 20
0.0
 11
420.0
 21
297.0
 12
0.0
 22
0.0
 32
0.0
 14
1.000000000000000E+20
 24
1.000000000000000E+20
 34
1.000000000000000E+20
 15
-1.000000000000000E+20
 25
-1.000000000000000E+20
 35
-1.000000000000000E+20
146
0.0
 13
0.0
 23
0.0
 33
0.0
 16
1.0
 26
0.0
 36
0.0
 17
0.0
 27
1.0
 37
0.0
 76
     0
330
1B
  0
LAYOUT
  5
26
102
{ACAD_REACTORS
330
1A
102
}
330
1A
100
AcDbPlotSettings
  1

  2
Canon LASER SHOT LBP-2030
  4

  6

 40
0.0
 41
0.0
 42
0.0
 43
0.0
 44
0.0
 45
0.0
 46
0.0
 47
0.0
 48
0.0
 49
0.0
140
0.0
141
0.0
142
1.0
143
1.0
 70
   688
 72
     0
 73
     0
 74
     5
  7
sei_cad.ctb
 75
    16
147
1.0
148
0.0
149
0.0
100
AcDbLayout
  1
ﾚｲｱｳﾄ2
 70
     1
 71
     2
 10
0.0
 20
0.0
 11
12.0
 21
9.0
 12
0.0
 22
0.0
 32
0.0
 14
0.0
 24
0.0
 34
0.0
 15
0.0
 25
0.0
 35
0.0
146
0.0
 13
0.0
 23
0.0
 33
0.0
 16
1.0
 26
0.0
 36
0.0
 17
0.0
 27
1.0
 37
0.0
 76
     0
330
23
  0
MLINESTYLE
  5
18
102
{ACAD_REACTORS
330
17
102
}
330
17
100
AcDbMlineStyle
  2
STANDARD
 70
     0
  3

 62
   256
 51
90.0
 52
90.0
 71
     2
 49
0.5
 62
   256
  6
BYLAYER
 49
-0.5
 62
   256
  6
BYLAYER
  0
ACDBPLACEHOLDER
  5
F
102
{ACAD_REACTORS
330
E
102
}
330
E
  0
TABLESTYLE
  5
2E86
102
{ACAD_REACTORS
330
2E85
102
}
330
2E85
100
AcDbTableStyle
  3
Standard
 70
     0
 71
     8
 40
1.5
 41
1.5
280
     0
281
     0
  7
STANDARD
140
4.5
170
     2
 62
     0
 63
     7
283
     0
274
    -2
284
     1
 64
     0
275
    -2
285
     1
 65
     0
276
    -2
286
     1
 66
     0
277
    -2
287
     1
 67
     0
278
    -2
288
     1
 68
     0
279
    -2
289
     1
 69
     0
  7
STANDARD
140
6.0
170
     5
 62
     0
 63
     7
283
     0
274
    -2
284
     1
 64
     0
275
    -2
285
     1
 65
     0
276
    -2
286
     1
 66
     0
277
    -2
287
     1
 67
     0
278
    -2
288
     1
 68
     0
279
    -2
289
     1
 69
     0
  7
STANDARD
140
4.5
170
     5
 62
     0
 63
     7
283
     0
274
    -2
284
     1
 64
     0
275
    -2
285
     1
 65
     0
276
    -2
286
     1
 66
     0
277
    -2
287
     1
 67
     0
278
    -2
288
     1
 68
     0
279
    -2
289
     1
 69
     0
  0
XRECORD
  5
1658A
102
{ACAD_REACTORS
330
16589
102
}
330
16589
100
AcDbXrecord
280
     1
340
2E84
  0
XRECORD
  5
1658B
102
{ACAD_REACTORS
330
16589
102
}
330
16589
100
AcDbXrecord
280
     1
340
2E83
  0
DICTIONARYVAR
  5
2EF6
102
{ACAD_REACTORS
330
30
102
}
330
30
100
DictionaryVariables
280
     0
  1
STANDARD
  0
DICTIONARYVAR
  5
16587
102
{ACAD_REACTORS
330
30
102
}
330
30
100
DictionaryVariables
280
     0
  1
1
  0
DICTIONARYVAR
  5
16588
102
{ACAD_REACTORS
330
30
102
}
330
30
100
DictionaryVariables
280
     0
  1
0
  0
DICTIONARYVAR
  5
31
102
{ACAD_REACTORS
330
30
102
}
330
30
100
DictionaryVariables
280
     0
  1
1
  0
ACAD_PROXY_OBJECT
  5
4E
102
{ACAD_REACTORS
330
4D
102
}
330
4D
100
AcDbProxyObject
 90
      499
 91
      520
 95
       25
 70
     0
 93
      118
310
405010040CA904C415CD5B075DD328
350
4F
 94
        0
  0
DICTIONARY
  5
17E
102
{ACAD_REACTORS
330
4D
102
}
330
4D
100
AcDbDictionary
281
     1
  3
ANSI
350
6B78
  3
ISO
350
7F16
  3
JIS
350
17F
  0
XRECORD
  5
2EDF
102
{ACAD_REACTORS
330
4D
102
}
330
4D
100
AcDbXrecord
280
     1
 90
-1023410169
  0
ACAD_PROXY_OBJECT
  5
33
330
2E
100
AcDbProxyObject
 90
      499
 91
      508
 95
       25
 70
     0
 93
      156
310
00010143D050D351505391D5531054925390D490
330
2E
 94
        0
  0
ACAD_PROXY_OBJECT
  5
34
330
2E
100
AcDbProxyObject
 90
      499
 91
      508
 95
       25
 70
     0
 93
      148
310
000101439050D351531253915054925390D490
330
2E
 94
        0
  0
ACAD_PROXY_OBJECT
  5
35
330
2E
100
AcDbProxyObject
 90
      499
 91
      509
 95
       25
 70
     0
 93
      156
310
000101439050D35154D6535093D314D256915080
330
2E
 94
        0
  0
ACAD_PROXY_OBJECT
  5
37
330
2E
100
AcDbProxyObject
 90
      499
 91
      511
 95
       25
 70
     0
 93
       88
310
000101411093D34C402B00
330
2E
330
0
330
0
 94
        0
  0
ACAD_PROXY_OBJECT
  5
6B
330
2E
100
AcDbProxyObject
 90
      499
 91
      509
 95
       25
 70
     0
 93
      108
310
00010142505351D153D35054D4E0
330
2E
 94
        0
  0
ACAD_PROXY_OBJECT
  5
6C
330
2E
100
AcDbProxyObject
 90
      499
 91
      522
 95
       25
 70
     0
 93
      140
310
00010142105350D55494D511005034A49530
330
2E
 94
        0
  0
ACAD_PROXY_OBJECT
  5
2E97
330
2E
100
AcDbProxyObject
 90
      499
 91
      536
 95
       25
 70
     0
 93
      550
310
0001014124FEA55D00507392E322E302E32014124FEA55D00507392E322E302E324050100004157D554D1548182D4454FB21E93F1EC52B91F85EA50FC505555555555F53F8
330
2E
330
2E98
330
2E9E
 94
        0
  0
ACAD_PROXY_OBJECT
  5
2E98
330
2E
100
AcDbProxyObject
 90
      499
 91
      537
 95
       25
 70
     0
 93
       56
310
000190240E0000
330
2E
330
2E99
330
2E9B
 94
        0
  0
ACAD_PROXY_OBJECT
  5
2E99
330
2E
100
AcDbProxyObject
 90
      499
 91
      538
 95
       25
 70
     0
 93
       48
310
0001AA000000
330
2E
330
1E
330
2E9A
330
0
 94
        0
  0
ACAD_PROXY_OBJECT
  5
2E9A
330
2E
100
AcDbProxyObject
 90
      499
 91
      539
 95
       25
 70
     0
 93
       28
310
0001AAA0
330
2E
 94
        0
  0
ACAD_PROXY_OBJECT
  5
2E9B
330
2E
100
AcDbProxyObject
 90
      499
 91
      538
 95
       25
 70
     0
 93
       48
310
0001AA000000
330
2E
330
26
330
2E9C
330
0
 94
        0
  0
ACAD_PROXY_OBJECT
  5
2E9C
330
2E
100
AcDbProxyObject
 90
      499
 91
      539
 95
       25
 70
     0
 93
       28
310
0001AAA0
330
2E
 94
        0
  0
ACAD_PROXY_OBJECT
  5
2E9F
330
2E
100
AcDbProxyObject
 90
      499
 91
      509
 95
       25
 70
     0
 93
      108
310
000101421053521310D05310D010
330
2E
 94
        0
  0
ACAD_PROXY_OBJECT
  5
2EA0
330
2E
100
AcDbProxyObject
 90
      499
 91
      509
 95
       25
 70
     0
 93
      124
310
00010142905354915554D15112535010
330
2E
 94
        0
  0
ACAD_PROXY_OBJECT
  5
2EA1
330
2E
100
AcDbProxyObject
 90
      499
 91
      509
 95
       25
 70
     0
 93
      132
310
00010143105354D150D51253D391125360
330
2E
 94
        0
  0
ACAD_PROXY_OBJECT
  5
2EA2
330
2E
100
AcDbProxyObject
 90
      499
 91
      509
 95
       25
 70
     0
 93
      124
310
00010142905355941093D49111549010
330
2E
 94
        0
  0
ACAD_PROXY_OBJECT
  5
2EA3
330
2E
100
AcDbProxyObject
 90
      499
 91
      509
 95
       25
 70
     0
 93
      116
310
0001014290535115D1D0D3D313D4A0
330
2E
 94
        0
  0
ACAD_PROXY_OBJECT
  5
2EA4
330
2E
100
AcDbProxyObject
 90
      499
 91
      509
 95
       25
 70
     0
 93
      148
310
00010143505355925155D49151949154D21010
330
2E
 94
        0
  0
ACAD_PROXY_OBJECT
  5
2EA5
330
2E
100
AcDbProxyObject
 90
      499
 91
      509
 95
       25
 70
     0
 93
      172
310
00010144105350539393D51154149154D15495915010
330
2E
 94
        0
  0
ACAD_PROXY_OBJECT
  5
2EA6
330
2E
100
AcDbProxyObject
 90
      499
 91
      509
 95
       25
 70
     0
 93
      172
310
00010144105350555513D11253505494905391D15010
330
2E
 94
        0
  0
ACAD_PROXY_OBJECT
  5
2EA7
330
2E
100
AcDbProxyObject
 90
      499
 91
      509
 95
       25
 70
     0
 93
      124
310
00010142D05351561514915191125360
330
2E
 94
        0
  0
ACAD_PROXY_OBJECT
  5
2EA8
330
2E
100
AcDbProxyObject
 90
      499
 91
      509
 95
       25
 70
     0
 93
      132
310
00010142D05355105410539393D5115010
330
2E
 94
        0
  0
ACAD_PROXY_OBJECT
  5
2EA9
330
2E
100
AcDbProxyObject
 90
      499
 91
      509
 95
       25
 70
     0
 93
      108
310
00010142105350555513D0D31010
330
2E
 94
        0
  0
ACAD_PROXY_OBJECT
  5
2EAA
330
2E
100
AcDbProxyObject
 90
      499
 91
      509
 95
       25
 70
     0
 93
      108
310
00010142105350D3119150551050
330
2E
 94
        0
  0
ACAD_PROXY_OBJECT
  5
2EAB
330
2E
100
AcDbProxyObject
 90
      499
 91
      509
 95
       25
 70
     0
 93
      108
310
00010142105350D315925155D3F0
330
2E
 94
        0
  0
ACAD_PROXY_OBJECT
  5
2EAC
330
2E
100
AcDbProxyObject
 90
      499
 91
      509
 95
       25
 70
     0
 93
      148
310
0001014350535212511156915493D112535010
330
2E
 94
        0
  0
ACAD_PROXY_OBJECT
  5
2EAD
330
2E
100
AcDbProxyObject
 90
      499
 91
      509
 95
       25
 70
     0
 93
      124
310
00010142905352105510D21254D3D010
330
2E
 94
        0
  0
ACAD_PROXY_OBJECT
  5
2EAE
330
2E
100
AcDbProxyObject
 90
      499
 91
      509
 95
       25
 70
     0
 93
      148
310
00010143905354D25391D31152105513105660
330
2E
 94
        0
  0
ACAD_PROXY_OBJECT
  5
2EAF
330
2E
100
AcDbProxyObject
 90
      499
 91
      509
 95
       25
 70
     0
 93
      124
310
00010142D0535115D1D193111254D420
330
2E
 94
        0
  0
ACAD_PROXY_OBJECT
  5
2EB0
330
2E
100
AcDbProxyObject
 90
      499
 91
      509
 95
       25
 70
     0
 93
      100
310
00010142105350555513D213A0
330
2E
 94
        0
  0
ACAD_PROXY_OBJECT
  5
2EB1
330
2E
100
AcDbProxyObject
 90
      499
 91
      509
 95
       25
 70
     0
 93
      116
310
000101425053521390D3D553951010
330
2E
 94
        0
  0
ACAD_PROXY_OBJECT
  5
2EB2
330
2E
100
AcDbProxyObject
 90
      499
 91
      509
 95
       25
 70
     0
 93
      108
310
0001014210535213941493D29010
330
2E
 94
        0
  0
ACAD_PROXY_OBJECT
  5
2EB3
330
2E
100
AcDbProxyObject
 90
      499
 91
      509
 95
       25
 70
     0
 93
      108
310
0001014210535213951654115070
330
2E
 94
        0
  0
ACAD_PROXY_OBJECT
  5
2EB4
330
2E
100
AcDbProxyObject
 90
      499
 91
      509
 95
       25
 70
     0
 93
      108
310
000101421053521395925155D0F0
330
2E
 94
        0
  0
ACAD_PROXY_OBJECT
  5
2EB5
330
2E
100
AcDbProxyObject
 90
      499
 91
      509
 95
       25
 70
     0
 93
      140
310
00010143505354D150D51253D390D3D41660
330
2E
 94
        0
  0
ACAD_PROXY_OBJECT
  5
2EB6
330
2E
100
AcDbProxyObject
 90
      499
 91
      509
 95
       25
 70
     0
 93
      108
310
00010142105350D3141493D29030
330
2E
 94
        0
  0
ACAD_PROXY_OBJECT
  5
2EB7
330
2E
100
AcDbProxyObject
 90
      499
 91
      508
 95
       25
 70
     0
 93
      212
310
00010143905350555513D2105510D21493D500000000000002E400
330
2E
 94
        0
  0
ACAD_PROXY_OBJECT
  5
2EB8
330
2E
100
AcDbProxyObject
 90
      499
 91
      509
 95
       25
 70
     0
 93
      156
310
00010143905350555513D2105510D21111551010
330
2E
 94
        0
  0
ACAD_PROXY_OBJECT
  5
2EC4
330
2E
100
AcDbProxyObject
 90
      499
 91
      547
 95
       25
 70
     0
 93
      698
310
0001000000009AA6A9AA4051E576564204665622032322030383A31343A353520323030362028555443290141CE4B8C8B8C0B8C80518576564205365702030312031303A30333A323620323031300141CE4B8C8B8C0B8C80
330
2E
330
2EC5
330
2EC6
330
2EC8
330
0
 94
        0
  0
ACAD_PROXY_OBJECT
  5
2EC5
330
2E
100
AcDbProxyObject
 90
      499
 91
      548
 95
       25
 70
     0
 93
       70
310
0001AAA80820000000
330
2E
330
2EC5
330
2EC5
 94
        0
  0
ACAD_PROXY_OBJECT
  5
2EC6
330
2E
100
AcDbProxyObject
 90
      499
 91
      549
 95
       25
 70
     0
 93
       48
310
000100000000
330
2E
330
0
330
2EC7
330
0
330
0
 94
        0
  0
ACAD_PROXY_OBJECT
  5
2EC7
330
2E
100
AcDbProxyObject
 90
      499
 91
      550
 95
       25
 70
     0
 93
       40
310
000100AAAA
330
2E
330
0
 94
        0
  0
ACAD_PROXY_OBJECT
  5
2ECD
330
2E
100
AcDbProxyObject
 90
      499
 91
      522
 95
       25
 70
     0
 93
      180
310
00010143105050D3D35411119390535140504434F4D500
330
2E
 94
        0
  0
ACAD_PROXY_OBJECT
  5
2ECE
330
2E
100
AcDbProxyObject
 90
      499
 91
      522
 95
       25
 70
     0
 93
      212
310
0001014390505193D311115491119390535140506466F6C6465720
330
2E
 94
        0
  0
ACAD_PROXY_OBJECT
  5
2ECF
330
2E
100
AcDbProxyObject
 90
      499
 91
      522
 95
       25
 70
     0
 93
      180
310
00010143105050539393D1119390535140504284156290
330
2E
 94
        0
  0
ACAD_PROXY_OBJECT
  5
2ED0
330
2E
100
AcDbProxyObject
 90
      499
 91
      522
 95
       25
 70
     0
 93
      436
310
00010143905050D3D35415925155D31254D50052295BD96CA0A90B396CA0A894591A496CA0A8DB691A496CA0A89BA96CA0A95E28F95310
330
2E
 94
        0
  0
ACAD_PROXY_OBJECT
  5
2ED5
330
2E
100
AcDbProxyObject
 90
      499
 91
      555
 95
       25
 70
     0
 93
       32
310
00010000
330
2E
340
2ED2
330
2ED7
330
2ED2
 94
        0
  0
ACAD_PROXY_OBJECT
  5
2ED6
330
2E
100
AcDbProxyObject
 90
      499
 91
      556
 95
       25
 70
     0
 93
       18
310
000180
330
2E
 94
        0
  0
ACAD_PROXY_OBJECT
  5
2ED7
330
2E
100
AcDbProxyObject
 90
      499
 91
      557
 95
       25
 70
     0
 93
      202
310
000101439114D093948D0C0D0C14CC8D4C0E5050055401550000
330
2E
330
2ED5
330
2ED6
 94
        0
  0
ACAD_PROXY_OBJECT
  5
2ED8
330
2E
100
AcDbProxyObject
 90
      499
 91
      558
 95
       25
 70
     0
 93
      178
310
000100AAAAAAA4EF01A704AFD6912E32EC02AFBE9C05C0
330
2E
330
2ED7
 94
        0
  0
ACAD_PROXY_OBJECT
  5
2ED9
330
2E
100
AcDbProxyObject
 90
      499
 91
      559
 95
       25
 70
     0
 93
      108
310
000190140A000000000000AAAAA0
330
2E
330
2EDA
330
2EDA
330
2EDA
330
2EDA
330
2EDA
330
0
 94
        0
  0
ACAD_PROXY_OBJECT
  5
2EDA
330
2E
100
AcDbProxyObject
 90
      499
 91
      560
 95
       25
 70
     0
 93
       51
310
00010000AAAA80
330
2E
330
2ED9
330
2ED7
 94
        0
  0
DICTIONARY
  5
40
102
{ACAD_REACTORS
330
3F
102
}
330
3F
100
AcDbDictionary
281
     1
  3
DWGSETTINGS
350
41
  3
FEM
350
69
  3
Shaft
350
56
  3
TRANSSETTINGS
350
4C
  0
ACAD_PROXY_OBJECT
  5
42
102
{ACAD_REACTORS
330
3F
102
}
330
3F
100
AcDbProxyObject
 90
      499
 91
      519
 95
       25
 70
     0
 93
    23232
310
41502491013041105357CC201C00030C011E441013141105357CC603800030C011E441013241105357CCA01400030C011E441013341105357CCE01800030C010D9013441105357CD200C00030C010D9013541105357CD600C00030C010D9013641105357CDA00800030C011E9013741105357CDE01000030C010D901384110
310
5357CE200400030C011E9013941105357CE63F400030C0241102324141505357CC4C201C00030C011E902344141505357CC4C600C00030C010D902495041505357CC4CA01C00030C011E40902304E41505357CC13A01C00030C011E902314E41505357CC53A03800030C011E902324E41505357CC93A01400030C011E90233
310
4E41505357CCD3A01800030C010D902344E41505357CD13A00C00030C010D902354E41505357CD53A00C00030C010D902364E41505357CD93A00800030C011E902374E41505357CDD3A01000030C010D902384E41505357CE13A00400030C011E902394E41505357CE53A3F400030C024110332414E41905357CC4C13A01C0
310
0030C011E90334414E41905357CC4C53A00C00030C010D90349504E41905357CC4C93A01C00030C011E409044B4C494E41505357D0D3200400030C011E42504494E464F42105357D410549151A01000030C010D42D055241484D3541905357D093D4A01C00030C011E425045649455742105357D5925155D4E00400030C011
310
E42D06424548494E4441905357D25395A3F400030C0243505545241494C41505357D514A00C00030C010D4250348494441905357D21251201C00030C011E4250356495341905357D59254E01C00030C011E4250650415244494D42505357D41054911253600C00030C010D4250652454644494D42505357D49151911253601
310
000030C010D425774110531514901348070000C300479034110915312501348000000C0003FFFFFFFD034110921395901398000000C0003FFFFFFFE415092139594D06424548494E448000000C0003FFFFFFFE411093125110234418000000C0003FFFFFFFD03411093D05410234418000000C0003FFFFFFFD03411093D48C
310
9055241484D358010000C30047A411093D48CD055241484D358020000C30047A411093D48D5055241484D358000000C0003FFFFFFFE411093D48DD055241484D3581E0000C30047903411094105410234418000000C0003FFFFFFFD03411094115610234418000000C0003FFFFFFFD034110951112501358000000C0003FFF
310
FFFFD034110D0530C901348000000C0003FFFFFFFE4110D0530CD01348020000C30047A4110D0530D501348070000C30047A4110D0530DD013481E0000C30047A4110D15393901378000000C0003FFFFFFFE4110D15395D01378000000C0003FFFFFFFE4110D312539044B4C494E8000000C0003FFFFFFFE4110D3D38C5013
310
08000000C0003FFFFFFFD034110D3D38C901318000000C0003FFFFFFFD034110D3D38CD01328000000C0003FFFFFFFD034110D3D38D101328000000C0003FFFFFFFD034111115494101348000000C0003FFFFFFFD034111115510501348000000C0003FFFFFFFE4111125051D01358000000C0003FFFFFFFE4111125312501
310
358000000C0003FFFFFFFE411112535410650415244494D8000000C0003FFFFFFFE411112535490652454644494D8000000C0003FFFFFFFE411156135410234418000000C0003FFFFFFFD034111915353901388000000C0003FFFFFFFE415191535413901388030000C3004364151915354D410234418000000C0003FFFFFF
310
FE4151915354D510234418030000C300436415191535593901328000000C0003FFFFFFFE415191535595101328030000C3004364111931055101308000000C0003FFFFFFFD03411194905490234418000000C0003FFFFFFFD034111D49312501358000000C0003FFFFFFFD034111D5931250234418000000C0003FFFFFFFD0
310
34112105510D01388000000C0003FFFFFFFD014112125113901338000000C0003FFFFFFFD034112125115D01338000000C0003FFFFFFFD034112131253901348000000C0003FFFFFFFD01411213D0D3901378000000C0003FFFFFFFE411213D0D5D01378000000C0003FFFFFFFE4112539193D04494E464F8000000C0003FF
310
FFFFFE4113105112501348000000C0003FFFFFFFD034113115051101358000000C0003FFFFFFFE419397D0921395902394E8000000C0003FFFFFFFE419397D0D3D38C502304E8000000C0003FFFFFFFD03419397D0D3D38C902314E8000000C0003FFFFFFFD03419397D0D3D38CD02324E8000000C0003FFFFFFFD03419397
310
D0D3D38D102324E8000000C0003FFFFFFFD03419397D0D15393902374E8000000C0003FFFFFFFE419397D0D15395D02374E8000000C0003FFFFFFFE419397D1125312502354E8000000C0003FFFFFFFE419397D2105510D02384E8000000C0003FFFFFFFD01419397D2125113902334E8000000C0003FFFFFFFD03419397D2
310
125115D02334E8000000C0003FFFFFFFD03419397D3115051102354E8000000C0003FFFFFFFE419397D391D25410349504E8000000C0003FFFFFFFE419397D412105390334414E8000000C0003FFFFFFFE419397D510D3D3902304E8000000C0003FFFFFFFD03419397D5121312502344E8000000C0003FFFFFFFD01419397
310
D5131153902304E8000000C0003FFFFFFFD03419397D516150CD02364E8000000C0003FFFFFFFD03419397D594131250332414E8000000C0003FFFFFFFE411391D25410249508000000C0003FFFFFFFE411410530C9055241484D358010000C30047A411410530CD055241484D358020000C30047A411410530D5055241484
310
D358000000C0003FFFFFFFE411410530DD055241484D3581E0000C30047903411412105390234418000000C0003FFFFFFFE411413D4D3901368070000C30047A419413D4D49151901368050000C30047903411413D4D6101368000000C0003FFFFFFFD03411414D150D0234418000000C0003FFFFFFFD03411490D1D390137
310
8000000C0003FFFFFFFE411490D1D5D01378000000C0003FFFFFFFE4114919112501348000000C0003FFFFFFFD034114945514901348070000C30047903411494D093D01348000000C0003FFFFFFFD034114D09492D01348000000C0003FFFFFFFD014114D0D153901378000000C0003FFFFFFFD034114D150D51013480000
310
00C0003FFFFFFFD014114D15313901378000000C0003FFFFFFFD034114D15315D01378000000C0003FFFFFFFD034114D4D654D01308000000C0003FFFFFFFD034114D51312501348070000C300479034114D6508C501358000000C0003FFFFFFFD034114D6508C901358000000C0003FFFFFFFD034114D6508CD0135802000
310
0C30047A4114D6508D501358070000C300479034114D65353901378000000C0003FFFFFFFD034114D65355D01378000000C0003FFFFFFFD03411510D3D3901308000000C0003FFFFFFFD034115121312501348000000C0003FFFFFFFD01411512550C9055241484D358010000C30047A411512550CD055241484D358020000
310
C30047A411512550D5055241484D358000000C0003FFFFFFFE411512550DD055241484D3581E0000C300479034115131153901308000000C0003FFFFFFFD03415514905253105545241494C8000000C0003FFFFFFFE41151492D3901378000000C0003FFFFFFFD0341151492D5D01378000000C0003FFFFFFFD03411514931
310
2501348000000C0003FFFFFFFD01411516150C501368030000C300436411516150C901368030000C300436411516150CD01368000000C0003FFFFFFFE411516150D501368070000C30047A411516150DD013681E0000C30047A4115925155D04564945578000000C0003FFFFFFFE41159151121034849448000000C0003FFF
310
FFFFD0241159151159035649538000000C0003FFFFFFFD02411594131250232418000000C0003FFFFFFFE4116925690501348000000C0003FFFFFFFD01411354D653501358020000C30047AAAA3F400030C01013F90A4391E41D1E4190D4151E4110D40D0D4091E4051E4791E7F6
340
16
340
16
340
16
340
43
340
16
340
16
340
16
340
44
340
16
340
16
340
44
340
45
340
16
340
16
340
16
340
16
340
43
340
16
340
16
340
16
340
44
340
16
340
16
340
44
340
45
340
16
340
46
340
16
340
16
340
16
340
16
340
16
340
43
340
16
340
16
340
16
340
47
340
15
340
15
340
15
340
15
340
15
340
15
340
15
340
15
340
15
340
15
340
15
340
15
340
15
340
15
340
15
340
15
340
48
340
15
340
15
340
15
340
15
340
15
340
15
340
15
340
15
340
15
340
15
340
15
340
15
340
15
340
15
340
15
340
16
340
15
340
15
340
15
340
15
340
15
340
15
340
15
340
15
340
47
340
15
340
15
340
48
340
15
340
15
340
15
340
15
340
15
340
15
340
15
340
15
340
15
340
48
340
15
340
15
340
15
340
47
340
15
340
15
340
15
340
15
340
15
340
15
340
15
340
15
340
15
340
15
340
15
340
15
340
15
340
15
340
15
340
15
340
15
340
15
340
15
340
48
340
15
340
15
340
48
340
15
340
15
340
16
340
15
340
48
340
15
340
15
340
47
340
15
340
15
340
16
340
15
340
48
340
15
340
15
340
15
340
15
340
15
340
15
340
15
340
15
340
15
340
48
340
15
340
15
340
15
340
15
340
15
340
15
340
15
340
15
340
15
340
15
340
15
340
4B
340
16
 94
        0
  0
ACAD_PROXY_OBJECT
  5
62F
102
{ACAD_REACTORS
330
73
102
}
330
73
100
AcDbProxyObject
 90
      499
 91
      523
 95
       25
 70
     0
 93
      253
310
43D1444494D454E53494F4E2C414D44545F2A5F44494D404A9012A404A9012A0
  0
ACAD_PROXY_OBJECT
  5
630
102
{ACAD_REACTORS
330
73
102
}
330
73
100
AcDbProxyObject
 90
      499
 91
      523
 95
       25
 70
     0
 93
      181
310
43D012A42D05357D191504B505357CA9012A404A9012A8
  0
ACAD_PROXY_OBJECT
  5
631
102
{ACAD_REACTORS
330
73
102
}
330
73
100
AcDbProxyObject
 90
      499
 91
      523
 95
       25
 70
     0
 93
      133
310
43D054841544348404A9012A404A9012A8
  0
ACAD_PROXY_OBJECT
  5
632
102
{ACAD_REACTORS
330
73
102
}
330
73
100
AcDbProxyObject
 90
      499
 91
      523
 95
       25
 70
     0
 93
      549
310
43D044C494E4549CE0B0E138B0A8B4E0B0A8B4E138B105357CE0B105357CE138B0A8B505357CE0B0A8B505357CE139012A404A910494E534552542C5354445041525432448
  0
ACAD_PROXY_OBJECT
  5
633
102
{ACAD_REACTORS
330
73
102
}
330
73
100
AcDbProxyObject
 90
      499
 91
      523
 95
       25
 70
     0
 93
      909
310
43D6641434D46434652414D452C41434D444154554D5441524745542C41434D444154554D49442C41434D57454C4453594D2C41434D5355524653594D2C41434D4645415449442C41434D504152545245462C41434D42414C4C4F4F4E2C414D44544544474553594D404A9012A404A9012A8
  0
XRECORD
  5
2E13
102
{ACAD_REACTORS
330
2E12
102
}
330
2E12
100
AcDbXrecord
280
     1
  1
LINE
  0

  0
XRECORD
  5
2BEE
102
{ACAD_REACTORS
330
2BED
102
}
330
2BED
100
AcDbXrecord
280
     1
  1
25000589__00___
  0

  0
XRECORD
  5
2E11
102
{ACAD_REACTORS
330
2E10
102
}
330
2E10
100
AcDbXrecord
280
     1
  1
221.5 ^M^J ^M^J ^M^J ^M^J ^M^J ^M^J ^M^J ^M^J ^M^J ^M^J ^M^Jボーリングクイル ^M^J鋼 ^M^JＣＥ ^M^JＣＥ ^M^Jストレート ^M^J32 ^M^J4 ^M^J ^M^Jアルミ ^M^JT4116-4502A ^M^J
  0

  0
XRECORD
  5
25AF
102
{ACAD_REACTORS
330
25AD
102
}
330
25AD
100
AcDbXrecord
280
     1
  1
1,,,,,,,,,^M^J2,,,,,,,,,^M^J3,,,,,,,,,^M^J4,,,,,,,,,^M^J5,,,,,,,,,^M^J6,,,,,,,,,^M^J7,,,,,,,,,^M^J8,,,,,,,,,^M^J9,,,,,,,,,^M^J10,,,,,,,,,
  0

  0
XRECORD
  5
25AE
102
{ACAD_REACTORS
330
25AD
102
}
330
25AD
100
AcDbXrecord
280
     1
  1
10,10
  0

  0
XRECORD
  5
2BF0
102
{ACAD_REACTORS
330
2BEF
102
}
330
2BEF
100
AcDbXrecord
280
     1
  1
2
  0

  0
ACAD_PROXY_OBJECT
  5
4F
102
{ACAD_REACTORS
330
4E
102
}
330
4E
100
AcDbProxyObject
 90
      499
 91
      521
 95
       25
 70
     0
 93
      157
310
057356C1D77406406AA8FFFFFFFF05DD01009010
330
1F
330
0
330
2ED7
 94
        0
  0
ACAD_PROXY_OBJECT
  5
6B78
102
{ACAD_REACTORS
330
17E
102
}
330
17E
100
AcDbProxyObject
 90
      499
 91
      577
 95
       25
 70
     0
 93
     2395
310
5DCB81E85EB51B8BE3F8030000C30041105394D2501640600800030C0200800030C00B81E85EB51B8BE3F48821E8720B1B6A9BAB9332A32BC3A29BA3220480A1282C6DA8C868CA6E8C88120286A0B1B6ABB2B63234B733A9BA3220480A1082C6DA92C8A6E8C88120285A0B1B6A230BA3AB6A9BA3220480A1282C6DA849E9AA
310
6E8C8812028820B6B23A2232BA30B4B629BCB6A9BA3220480A2282DAC8E8A6CAC6E8D2DEDCA6F2DAA6E8C88120288A0B6B23A21B2B73A32B92634B732A9BA3220480A2282DAC8E8A8D0E4CAC2C898D2DCCAA6E8C88120285A0B6B23A2737BA32A9BA3220480A1682C682DACE98C2F2A6E8C88120285A0B1A0B6B3A234B6A9B
310
A3220480A2282C682DACE90DED8CA86D0C2E4E8A6E8C88120286A0B1A0B6B3AA34BA3632A9BA3220480A02812020
340
644E
360
6B79
360
6B7A
360
6B7B
360
6B7C
360
6B7D
360
6B7E
360
6B7F
360
6B80
360
6B81
360
6B82
360
6B83
360
6B89
360
6B8A
360
6B8B
360
6B8C
340
0
340
0
 94
        0
  0
ACAD_PROXY_OBJECT
  5
7F16
102
{ACAD_REACTORS
330
17E
102
}
330
17E
100
AcDbProxyObject
 90
      499
 91
      590
 95
       25
 70
     0
 93
     2497
310
5DC0000000000000C408030000C30040D254D3D01640600800030C0200800030C000000000000000C40C88A2085A0B6B23A22B233B2A9BA3220480A1C82C6DAA6EAE4CCA8CAF0E8A6E8C88120284A0B1B6A321A329BA3220480A1A82C6DAAECAD8C8D2DCCEA6E8C8812028420B1B6A4B229BA3220480A1682C6DA88C2E8EAD
310
AA6E8C88120284A0B1B6A127A6A9BA3220480A2082DAC8E888CAE8C2D2D8A6F2DAA6E8C88120288A0B6B23A29B2B1BA34B7B729BCB6A9BA3220480A2282DAC8E886CADCE8CAE498D2DCCAA6E8C88120288A0B6B23A2A343932B0B22634B732A9BA3220480A1682DAC8E89CDEE8CAA6E8C88120285A0B1A0B6B3A630BCA9BA3
310
220480A1682C682DACE88D2DAA6E8C88120288A0B1A0B6B3A437B632A1B430B93A29BA3220480A1A82C682DACEA8D2E8D8CAA6E8C8812032048080
340
7C97
360
7F17
360
7F18
360
7F19
360
7F1A
360
7F1B
360
7F1C
360
7F1D
360
7F1E
360
7F1F
360
7F20
360
7F21
360
7F22
360
7F28
360
7F29
360
7F2A
360
7F2B
340
0
340
0
 94
        0
  0
ACAD_PROXY_OBJECT
  5
17F
102
{ACAD_REACTORS
330
17E
102
}
330
17E
100
AcDbProxyObject
 90
      499
 91
      526
 95
       25
 70
     0
 93
     2379
310
5DC33333333333309408000000C00040D29254D01640600800030C0200800030C003333333333330940C8121E8720B1B6A9BAB9332A32BC3A29BA3220480A1282C6DA8C868CA6E8C88120286A0B1B6ABB2B63234B733A9BA3220480A1082C6DA92C8A6E8C88120285A0B1B6A230BA3AB6A9BA3220480A1282C6DA849E9AA6E
310
8C88120286A0B1A0B6B3AA34BA3632A9BA3220480A2082DAC8E888CAE8C2D2D8A6F2DAA6E8C88120288A0B6B23A29B2B1BA34B7B729BCB6A9BA3220480A2282DAC8E886CADCE8CAE498D2DCCAA6E8C88120288A0B6B23A2A343932B0B22634B732A9BA3220480A1682DAC8E89CDEE8CAA6E8C88120285A0B1A0B6B3A630BCA
310
9BA3220480A1682C682DACE88D2DAA6E8C88120288A0B1A0B6B3A437B632A1B430B93A29BA3220480C812020
340
180
360
181
360
182
360
183
360
184
360
185
360
186
360
2EDC
360
2EDD
360
2EDE
360
2EE0
360
2EE1
360
2EE2
360
2EE8
360
2EE9
360
2EEA
340
0
340
0
 94
        0
  0
ACAD_PROXY_OBJECT
  5
41
102
{ACAD_REACTORS
330
40
102
}
330
40
100
AcDbProxyObject
 90
      499
 91
      518
 95
       25
 70
     0
 93
     2970
310
4050B44574753455454494E4753A0E8482A68AA6A88882A069492A684A1A0A723A0A92920ACA0A8196999820C868A9C829C8E82A12686AF87260F862666A8321A2A72224A0A50000000000000122020E868A9C889282A682A106260F86460F8666083A1A2A72224A9AA250000000000000042020C868A9C988A9C940000000
310
00000048808321A2A727A323250000000000000122020E868A9C9E8C8C62940000000000000488083A1A2A727A32319250000000000000122021CC6D0C2DACCCAE4C8D2DADADEC8CA9FC84A1A624A720A92920ACA0A8218971A9C2108698929C8AA8B2A082A0AB098929C8A84A22BA3AAA9A1A0A622A50A0E9882A6A89E849
310
482A02608426A0A5A2AB24A2ABA7E8120CA0A68682988A0C00800010652455649534941501304154D0D0531150540CC4E8C5085354414E44415244415034A4953425512535154D51053541282035A6545C8ADCD050756455253494F4E4150531352E3030441ED115D1D4D15515125391D4D153911F40
  0
ACAD_PROXY_OBJECT
  5
69
102
{ACAD_REACTORS
330
40
102
}
330
40
100
AcDbProxyObject
 90
      499
 91
      518
 95
       25
 70
     0
 93
      411
310
4050346454D21092DCC6E486DECACC942842630BCA3B937BAB820A8320A6AFA322A0A20F688AE8EA68AA8A8929C8EA68A9C88FA0
  0
ACAD_PROXY_OBJECT
  5
56
102
{ACAD_REACTORS
330
40
102
}
330
40
100
AcDbProxyObject
 90
      499
 91
      518
 95
       25
 70
     0
 93
      583
310
40505536861667421292DCE8CAE4E4EAE0E89FA0484A634B3B43A2634B732A7F21A98D2CED0E898D2DCCAACD2CAEE9FC8229B4B232A7E80A20F688AE8EA68AA8A8929C8EA68A9C88FA
  0
ACAD_PROXY_OBJECT
  5
4C
102
{ACAD_REACTORS
330
40
102
}
330
40
100
AcDbProxyObject
 90
      499
 91
      518
 95
       25
 70
     0
 93
      852
310
4050D5452414E5353455454494E4753A2488A482AE929C8EA8A4829CA69882A8929E9C0C00800050D4F524947494E414C4C595F4F4E0600400028529A7AAA921A2A620A723A0A81A52827212AAA0A48AA68AA4AC8A0C0080001107B44574753455454494E4753454E447D0
  0
ACAD_PROXY_OBJECT
  5
6B79
330
6B78
100
AcDbProxyObject
 90
      499
 91
      578
 95
       25
 70
     0
 93
       96
310
5DC20E80A0280A0280A02808
  0
ACAD_PROXY_OBJECT
  5
6B7A
330
6B78
100
AcDbProxyObject
 90
      499
 91
      579
 95
       25
 70
     0
 93
      332
310
5DD0E4050140501405014050140501405014050142501405014050140501405012000000000000000400
340
644F
 94
        0
  0
ACAD_PROXY_OBJECT
  5
6B7B
330
6B78
100
AcDbProxyObject
 90
      499
 91
      580
 95
       25
 70
     0
 93
      403
310
5DCC199999999999E99F91F4050140501405014050140501405014050140501405014050140501405014050140501405014040
340
0
 94
        0
  0
ACAD_PROXY_OBJECT
  5
6B7C
330
6B78
100
AcDbProxyObject
 90
      499
 91
      581
 95
       25
 70
     0
 93
       10
310
5DC0
  0
ACAD_PROXY_OBJECT
  5
6B7D
330
6B78
100
AcDbProxyObject
 90
      499
 91
      582
 95
       25
 70
     0
 93
      257
310
5DE290EA22A7D90F49F9353333333333727F44D4CCCCCCCCCDC9FC010000618000
340
644C
340
644D
 94
        0
  0
ACAD_PROXY_OBJECT
  5
6B7E
330
6B78
100
AcDbProxyObject
 90
      499
 91
      583
 95
       25
 70
     0
 93
    13023
310
5DD0E411255115350141236025B6901405014069011309A4F2590CB64FD3347454E545241434F2C4A504E2C302C8D8096DA2C47454E54524154582C25732C2847454E4D53472067656E647767203232322940690120281A8AA2CA0282484A4BE52028120280A03202261349E4B2196C9FA668E8A9CA8A482869E5894A09C58
310
605921292F94588E8A9CA8A482A8B0584AE658508E8A9C9AA68E40CECADCC8EECE406464665280D202405044E414D454050496BC914F4051C40640A8B95C2E97CBE502404CD1D15395149050D3CB1294138B0C0B25AF2453CB11D15395149055160B095CCB0A11D1539354D1C819D95B991DD9C80C8C8D8A50192C3D494628
310
4953424C414E4B28504152543A4E414D45292C424C4F434B3A4E414D452C504152543A4E414D452940480A0A888AA686A480A09251B1DBE80A3A80C81D10782C06030180C8099A3A2A72A2920A1A7962528271618164946C76F9623A2A72A2920AA2C1612B9961423A2A726A9A39033B2B7323BB39019189B94A0248090142
310
14D51053911054911014122D2E29A50147501904A383BFDFEFF5FBFCFD3347454E545241434F2C4A504E2C302C8B4B8A692C47454E54524154582C25732C2847454E4D53472067656E64776720323138294049012028426A0AA22A924A0A62028246EF4BDFA028EA0320B41396D838E9017D9FA668E8A9CA8A482869E5894A
310
09C5860591BBD2F7E588E8A9CA8A482A8B0584AE658508E8A9C9AA68E40CECADCC8EECE406464625280D202405044E4F544540504928D8B4C4051D40641A8B95C2E97CBE5F23F4CD1D15395149050D3CB1294138B0C0B24A362D30B11D15395149055160B095CCB0A11D1539354D1C819D95B991DD9C80C8C8D4A501A40480
310
A0CAC8A9C889EA480A1106F1072706BF02B680A3A80C83D172B85D2F97CBE47E9BA3A2A72A2920A1A79625282716181641BC41C9C1AFC0AD9623A2A72A2920AA2C1612B9961423A2A726A9A39033B2B7323BB39019191A14A0348090141911154D0D48C90141A43825AF880C90147501908A20F0580C0603019013447454E5
310
45241434F2C4A504E2C302C90E096BE20322C47454E54524154582C25732C2847454E4D53472067656E6477672033362940490120284A9AA20A72220A922192028345A5C53490192028EA0321347077FBFDFEBF7F9FA6A8E8A9CA8A482869E5894A09C586059169714D24064588E8A9CA8A482A8B0584AE658508E8A9C9AA6
310
8E40CECADCC8EECE4064646052809202405094D4154455249414C32405068DDE97BF20324051D40642A8272DB071D202FB3F4D11D15395149050D3CB1294138B0C0B2377A5EFC80C8B11D15395149055160B095CCB0A11D1539354D1C819D95B991DD9C80D0C0A501240480A089A82A6A680A091D7F2F9480A3A80A0485A06
310
81172B85D2F97CBE47E9923A2A72A2920A1A796252827161816475FCBE51623A2A72A2920AA2C1612B9961423A2A726A9A39033B2B7323BB3901A1914A024809014154149250D150141226FE29A501475014090C409022E570BA5F2F97C8FD3247454E545241434F2C4A504E2C302C89BF8A692C47454E54524154582C2573
310
2C2847454E4D53472067656E6477672034332940490120281A224A6A02824850CB202028EA028121A81A045CAE174BE5F2F91FA648E8A9CA8A482869E5894A09C58605921432C80588E8A9CA8A482A8B0584AE658508E8A9C9AA68E40CECADCC8EECE406868528092024050E441022E07A17AD46E338FE07800030C0001018
310
ACD56AB55AADF63F2B355AAD56AB7D8FD073D3C4954454D3E405018ACD56AB55AADF63F2B355AAD56AB7D8FD073D3C4954454D3E40501890C7E3F1783CEE3F2431F8FC5E0F3B8FD073D3C4954454D3E40501890C7E3F1783CEE3F2431F8FC5E0F3B8FD073D3C4954454D3E405029012B355AAD56AB7D8FCACD56AB55AADF63
310
F41CF4F125511534F901418F4F1455164F9014062B355AAD56AB7D8FCACD56AB55AADF63F41CF4F125511534F9014061309A4F2590CBA4FC4C2693C96432E93F41CF4F125511534F901901002B355AAD56AB7D8FCACD56AB55AADF63FA2000000000000008204018000618048220681A048120280C88214844882034852034
310
8452028521485214814000000000000F0BF0000000000003C2FD018020000C3008070000C3000EF7D3E365DBA88FC3BDF4F8D976EA23F2E07A17AD46E2F8FF20341A405024150741A4069703D0BD6A3717C7F0040001860100400018601002000186002026280A02
340
0
340
0
 94
        0
  0
ACAD_PROXY_OBJECT
  5
6B7F
330
6B78
100
AcDbProxyObject
 90
      499
 91
      584
 95
       25
 70
     0
 93
      994
310
5DC0B81E85EB51B8CE3F4BCF511155105253080F11115510525317D3105091530F971414D0D05311480F11115510525317D05094D4D0D053114F92341C9A9999999999B93F26A666666666724FC000000000000E03F4000000000000004000000000000005100000000000000244081E0000C3002E07A17AD46E338FC0
340
12AC
340
644E
 94
        0
  0
ACAD_PROXY_OBJECT
  5
6B80
330
6B78
100
AcDbProxyObject
 90
      499
 91
      585
 95
       25
 70
     0
 93
      823
310
5DC031703D0BD6A3719C7E999EA9A2A1AA24A7A7101E29A2A1AA24A7A72FA620A122A62FA324A929AA1F169E29A2A1AA24A7A72FA620A122A62FA620A9AA1F1353333333333B27E3FFFE01C00030C008840F000061801353333333333B27F1703D0BD6A3719C7E
340
12AC
340
644E
 94
        0
  0
ACAD_PROXY_OBJECT
  5
6B81
330
6B78
100
AcDbProxyObject
 90
      499
 91
      586
 95
       25
 70
     0
 93
      280
310
5DC2B8716D9CEF7C33F0A5723F0BD4A2F0FC295C8FC2F528BC3FA199999999999F99FC
  0
ACAD_PROXY_OBJECT
  5
6B82
330
6B78
100
AcDbProxyObject
 90
      499
 91
      587
 95
       25
 70
     0
 93
       14
310
5DE4
340
0
 94
        0
  0
ACAD_PROXY_OBJECT
  5
6B83
330
6B78
100
AcDbProxyObject
 90
      499
 91
      588
 95
       25
 70
     0
 93
     7123
310
5DD084050BA4050AA405024050E836583938376838C815B8367203140405013D3C696628657175616C28486F6C653A7461707065642C223022292C22252563222C486F6C653A6E6F6D696E616C2022202220696628657175616C28486F6C653A756E6974732C223122292C2278222C222D222920222022293E3C6966286571
310
75616C28486F6C653A7461707065642C223022292C486F6C653A6469612C486F6C653A706974636864657363293E207B5C46414D4744543B787D203C696628657175616C28486F6C653A7465726D696E6174696F6E2C223022292C486F6C653A64657074682C228AD192CA22293E5C507B5C46414D4744543B767D2525633C
310
486F6C653A63746469613E207B5C46414D4744543B787D203C486F6C653A637464657074683E406901405034050E836583938376838C815B83672031405FE3D3C696628657175616C28486F6C653A7461707065642C223022292C22252563222C486F6C653A6E6F6D696E616C2022202220696628657175616C28486F6C653
310
A756E6974732C223122292C2278222C222D222920222022293E3C696628657175616C28486F6C653A7461707065642C223022292C486F6C653A6469612C486F6C653A706974636864657363293E207B5C46414D4744543B787D203C696628657175616C28486F6C653A7465726D696E6174696F6E2C223022292C486F6C653
310
A64657074682C228AD192CA22293E5C507B5C46414D4744543B777D2525633C486F6C653A63746469613E2058203C486F6C653A6374616E676C653E252564406901405014050E836583938376838C815B83672031405CF3D3C696628657175616C28486F6C653A7461707065642C223022292C22252563222C486F6C653A6E
310
6F6D696E616C2022202220696628657175616C28486F6C653A756E6974732C223122292C2278222C222D222920222022293E3C696628657175616C28486F6C653A7461707065642C223022292C486F6C653A6469612C486F6C653A706974636864657363293E5C507B5C46414D4744543B787D203C696628657175616C2848
310
6F6C653A7465726D696E6174696F6E2C223022292C486F6C653A64657074682C228AD192CA22293E4069014051E4090E836583938376838C815B83672032405173D3C535444503A444553433E203C535444503A5354443E40690E836583938376838C815B836720314050C3D3C535444503A444553433E40690240515AAABB
310
A060
360
6B84
330
6B84
360
6B85
330
6B85
360
6B86
330
6B86
360
6B87
360
6B88
330
6B87
330
6B88
 94
        0
  0
ACAD_PROXY_OBJECT
  5
6B89
330
6B78
100
AcDbProxyObject
 90
      499
 91
      568
 95
       25
 70
     0
 93
       26
310
5DD02A80
340
0
 94
        0
  0
ACAD_PROXY_OBJECT
  5
6B8A
330
6B78
100
AcDbProxyObject
 90
      499
 91
      569
 95
       25
 70
     0
 93
      258
310
5DD02000000000000380FC000000000000E03F408F0F9023C3E40DB18CCCFFFF80
340
6450
340
6456
340
0
340
6451
340
6452
340
0
340
6453
340
6454
340
6455
340
0
 94
        0
  0
ACAD_PROXY_OBJECT
  5
6B8B
330
6B78
100
AcDbProxyObject
 90
      499
 91
      589
 95
       25
 70
     0
 93
    13993
310
5DD1D023FFFFFFFD010300002E07A17AD46E2F8FE00800030C01010300002E07A17AD46E2F8FE00800030C00050C8DC0955782CC838A83588367014ED1D15395149050D3CB1294138B0C0B23702555E0B320E2A0D620D9CB11D15395149055160B095CCB0A11D1539354D1C819D95B991A5B5E880CCC0A78000C0000000000
310
00000000000000000000007B14AE47E17AA43F2E07A17AD46E2F8FE00800030C007B14AE47E17AA43F2E07A17AD46E2F8FE00800030C020143CF4F111959985D5B1D151A5D1B194F8050A8C8A8365815B8375838B014E51D15395149050D3CB1294138B0C0B2322A0D96056E0DD60E2CB11D15395149055160B095CCB0A11D
310
1539354D1C819D95B991A5B5E880CCC4A78000C000000000000000000000000000000007B14AE47E17AA43F2E07A17AD46E2F8FE00800030C007B14AE47E17AA43F2E07A17AD46E2F8FE00800030C020143CF4F111959985D5B1D151A5D1B194F90D4410F4450240D0441507431014391244D05449074510C4350F00014123
310
2D24D7C053247454E545241434F2C4A504E2C302C8CB4935F2C47454E54524154582C25732C2847454E4D53472067656E64696D7A20312900010104002214000282465A49AF80A648E8A9CA8A482869E5894A09C586059196926BE588E8A9CA8A482A8B0584AE658508E8A9C9AA68E40CECADCC8D2DAF44062520002020800
310
43E80005028C8A014C11D15395149050D3CB1294138B0C0B23228B11D15395149055160B095CCB0A11D1539354D1C819D95B991A5B5E880C8A4054E3D3C4946284953424C414E4B28486F6C654974656D292C4F726967696E2C20486F6C654974656D293E3C4946284953424C414E4B28486F6C654974656D292C22222C204
310
86F6C65496E646578293E010104002234000280AC00A5E8E8A9CA8A482869E5894A09C586058B0588E8A9CA8A482A8B0584AE658508E8A9C9AA68E40CECADCC8D2DAF4406652000202000040A800050159014BD1D15395149050D3CB1294138B0C0B164B11D15395149055160B095CCB0A11D1539354D1C819D95B991A5B5E
310
880D0A4000404000081D0000A02A40297A3A2A72A2920A1A796252827161816291623A2A72A2920AA2C1612B9961423A2A726A9A39033B2B73234B6BD101B148000808000104A000140A0F4C053047454E545241434F2C4A504E2C302C83D32C47454E54524154582C25732C2847454E4D53472067656E64696D7A20372900
310
0101030020B400028141E980A608E8A9CA8A482869E5894A09C58605907A6588E8A9CA8A482A8B0584AE658508E8A9C9AA68E40CECADCC8D2DAF4407052000202020041E800050490E096BE014CD1D15395149050D3CB1294138B0C0B243825AF8B11D15395149055160B095CCB0A11D1539354D1C819D95B991A5B5E880C8
310
C0A400040010008650000A091B012DB40299A3A2A72A2920A1A79625282716181646C04B6D1623A2A72A2920AA2C1612B9961423A2A726A9A39033B2B73234B6BD10189A148000808280501A00014320D0E0E4E0D9A0D8A0D3A0D60053B47454E545241434F2C4A504E2C302C8343839383668362834E83582C47454E54524
310
154582C25732C2847454E4D53472067656E64696D7A203135290001010500A1D4000281464500A628E8A9CA8A482869E5894A09C5860591914588E8A9CA8A482A8B0584AE658508E8A9C9AA68E40CECADCC8D2DAF440626C52000202080044A800050E8C8A8343839383668362834E8358014F51D15395149050D3CB129413
310
8B0C0B2322A0D0E0E4E0D9A0D8A0D3A0D60B11D15395149055160B095CCB0A11D1539354D1C819D95B991A5B5E880C4DCA4000404140089D0000A0921292F940299A3A2A72A2920A1A796252827161816484A4BE51623A2A72A2920AA2C1612B9961423A2A726A9A39033B2B73234B6BD10189C948000808300114A0001412
310
2D2E29A4053347454E545241434F2C4A504E2C302C8B4B8A692C47454E54524154582C25732C2847454E4D53472067656E64696D7A20323129000100040021B4878030026A6666666667A4FE064D4CCCCCCCCCF49FC049A9999999999E93F809353333333333D27F0226A6666666667A4FE044D4CCCCCCCCCF49FC0D818000
310
00000000000810026A666666666764FE004D4CCCCCCCCCF49FC009A9999999999E93F801353333333333D27F032E07A17AD46E378FE0633B333333333032050F006004D4CCCCCCCCCF49FC0C9A9999999999E93F819353333333333D27F0326A6666666667A4FE064D4CCCCCCCCCF49FC0C9A9999999999E93F81B03000000
310
00000000102004D4CCCCCCCCCEC9FC009A9999999999E93F819353333333333D27F0026A6666666667A4FE065C0F42F5A8DC6F1FC0C6766666666660640A088800000021E000000890000002260000008220E000200890000002060002008100008000
340
0
340
0
340
0
340
0
340
644E
340
644E
 94
        0
  0
ACAD_PROXY_OBJECT
  5
6B8C
330
6B78
100
AcDbProxyObject
 90
      499
 91
      561
 95
       25
 70
     0
 93
     5214
310
5DD9741105394D2506414E53495F4342905394D257D512551554D15414E53495F54525F5265766973696F6E6C697374614191143202831372E307832322E30696E63682941905394D257D0D1146202832382E307834302E30696E63682941905394D257D191142202831312E307831372E30696E63682941905394D257D091
310
144202832322E307833342E30696E63682941905394D257D111145202833342E307834342E30696E63682941905394D257D1510412028382E357831312E30696E63682941905394D257D050543905B9CDA482557247A25E4C81110D0C414E53495F5449544C45444343505B9CDA482557247A25E4C81050B414E53495F5449
310
544C454143905B9CDA482557247A25E4C81050D0C414E53495F5449544C45414343505B9CDA482557247A25E4C81110B414E53495F5449544C4544425554C82557247A25E4D0A414E53495F544954555342110979A97F0838A8358836720415F42525F45505394D257D09497D4995D9A5CDA5BDB9B1A5CDD18510979A97F08
310
38A8358836720415F54525F45505394D257D51497D4995D9A5CDA5BDB9B1A5CDD18510979A97F0838A8358836720445F42525F45505394D257D09497D4995D9A5CDA5BDB9B1A5CDD19110979A97F0838A8358836720445F54525F45505394D257D51497D4995D9A5CDA5BDB9B1A5CDD19110979A97F0838A8358836720415F
310
424C5F45505394D257D09317D4995D9A5CDA5BDB9B1A5CDD18510979A97F0838A8358836720415F544C5F45505394D257D51317D4995D9A5CDA5BDB9B1A5CDD18510979A97F0838A8358836720445F424C5F45505394D257D09317D4995D9A5CDA5BDB9B1A5CDD19110979A97F0838A8358836720445F544C5F45505394D25
310
7D51317D4995D9A5CDA5BDB9B1A5CDD190
  0
ACAD_PROXY_OBJECT
  5
7F17
330
7F16
100
AcDbProxyObject
 90
      499
 91
      591
 95
       25
 70
     0
 93
       13
310
5DD8
  0
ACAD_PROXY_OBJECT
  5
7F18
330
7F16
100
AcDbProxyObject
 90
      499
 91
      592
 95
       25
 70
     0
 93
       96
310
5DEA0E80A0280A0280A0280F
  0
ACAD_PROXY_OBJECT
  5
7F19
330
7F16
100
AcDbProxyObject
 90
      499
 91
      593
 95
       25
 70
     0
 93
      272
310
5DD0E4050140501405014050140501405014050140D01405012C0000000000000040
340
7C98
 94
        0
  0
ACAD_PROXY_OBJECT
  5
7F1A
330
7F16
100
AcDbProxyObject
 90
      499
 91
      594
 95
       25
 70
     0
 93
      497
310
5DE8666666666667A67E199999999999E99FD22405014050140501405014050140501405014050140501405014050140501405014050140501405014050100
340
7C90
 94
        0
  0
ACAD_PROXY_OBJECT
  5
7F1B
330
7F16
100
AcDbProxyObject
 90
      499
 91
      595
 95
       25
 70
     0
 93
       10
310
5DC0
  0
ACAD_PROXY_OBJECT
  5
7F1C
330
7F16
100
AcDbProxyObject
 90
      499
 91
      596
 95
       25
 70
     0
 93
      257
310
5DE290EA22A7D90F49F80000000000001081400000000000004204010000618000
340
7C91
340
7C92
 94
        0
  0
ACAD_PROXY_OBJECT
  5
7F1D
330
7F16
100
AcDbProxyObject
 90
      499
 91
      597
 95
       25
 70
     0
 93
    13013
310
5DD0E411255115350141236025B690140501406901000000000000091013347454E545241434F2C4A504E2C302C8D8096DA2C47454E54524154582C25732C2847454E4D53472067656E647767203232322940690120281A8AA2CA0282484A4BE52028120280A0320200000000000012202668E8A9CA8A482869E5894A09C58
310
605921292F94588E8A9CA8A482A8B0584AE658508E8A9C9AA68E40CECADCC8EECE406464665280D202405044E414D454050496BC914F4051C40640A80000000000004E404CD1D15395149050D3CB1294138B0C0B25AF2453CB11D15395149055160B095CCB0A11D1539354D1C819D95B991DD9C80C8C8D8A50192C3D494628
310
4953424C414E4B28504152543A4E414D45292C424C4F434B3A4E414D452C504152543A4E414D452940480A0A888AA686A480A09251B1DBE80A3A80C81D0000000000100A28099A3A2A72A2920A1A7962528271618164946C76F9623A2A72A2920AA2C1612B9961423A2A726A9A39033B2B7323BB39019189B94A0348090142
310
14D51053911054911014122D2E29A50147501904A000000000000125013347454E545241434F2C4A504E2C302C8B4B8A692C47454E54524154582C25732C2847454E4D53472067656E64776720323138294069012028426A0AA22A924A0A62028246EF4BDFA028EA0320B40000000000001CA02668E8A9CA8A482869E5894A
310
09C5860591BBD2F7E588E8A9CA8A482A8B0584AE658508E8A9C9AA68E40CECADCC8EECE406464625280D202405044E4F544540504928D8B4C4051D40641A80000000000003E404CD1D15395149050D3CB1294138B0C0B24A362D30B11D15395149055160B095CCB0A11D1539354D1C819D95B991DD9C80C8C8D4A501240480
310
A0CAC8A9C889EA480A1106F1072706BF02B680A3A80C83D00000000000007C809BA3A2A72A2920A1A79625282716181641BC41C9C1AFC0AD9623A2A72A2920AA2C1612B9961423A2A726A9A39033B2B7323BB39019191A14A0248090141911154D0D48C90141A43825AF880C90147501908A000000000020145013447454E5
310
45241434F2C4A504E2C302C90E096BE20322C47454E54524154582C25732C2847454E4D53472067656E6477672033362940490120284A9AA20A72220A922192028345A5C53490192028EA03213400000000000024A026A8E8A9CA8A482869E5894A09C586059169714D24064588E8A9CA8A482A8B0584AE658508E8A9C9AA6
310
8E40CECADCC8EECE4064646052809202405094D4154455249414C32405068DDE97BF20324051D40642A8713D0AD7A37045404D11D15395149050D3CB1294138B0C0B2377A5EFC80C8B11D15395149055160B095CCB0A11D1539354D1C819D95B991DD9C80D0C0A501240480A089A82A6A680A091D7F2F9480A3A80A0485A06
310
8100000000000007C809923A2A72A2920A1A796252827161816475FCBE51623A2A72A2920AA2C1612B9961423A2A726A9A39033B2B7323BB3901A1914A024809014154149250D150141226FE29A501475014090C409020000000000000F9013247454E545241434F2C4A504E2C302C89BF8A692C47454E54524154582C2573
310
2C2847454E4D53472067656E6477672034332940490120281A224A6A02824850CB202028EA028121A81A040000000000001F202648E8A9CA8A482869E5894A09C58605921432C80588E8A9CA8A482A8B0584AE658508E8A9C9AA68E40CECADCC8EECE406868528092024050E445020000000000000510201C00030C0001018
310
0000000000003E400000000000000F901073D3C4954454D3E4050180000000000003E400000000000000F901073D3C4954454D3E40501800000000000034400000000000000D101073D3C4954454D3E40501800000000000034400000000000000D101073D3C4954454D3E405029010000000000000F9000000000000003E4
310
041CF4F125511534F901418F4F1455164F9014060000000000000F9000000000000003E4041CF4F125511534F9014060000000000000D100000000000000344041CF4F125511534F901901000000000000000F9000000000000003E40A2200000000000008204018000618048220681A048120280C88214844882034852034
310
8452028521485214814000000000000F0BF0000000000003C2FD018020000C3008070000C3003373333333333B0FCCDCCCCCCCCCCEC3F000000000000031012034164050341105901A000000000000062040100006180401000061804008000618008098A02808
340
0
340
0
 94
        0
  0
ACAD_PROXY_OBJECT
  5
7F1E
330
7F16
100
AcDbProxyObject
 90
      499
 91
      598
 95
       25
 70
     0
 93
      898
310
5DC4000000000000144048CF4F11115510525317D3105091530F880A0F11115510525317D05094D4D0D053114F8A51141C9A9999999999B93F26A666666666724FC000000000000E03F400000000000000400000000000000510000000000000024408070000C300000000000000051000
340
16
340
7C97
 94
        0
  0
ACAD_PROXY_OBJECT
  5
7F1F
330
7F16
100
AcDbProxyObject
 90
      499
 91
      599
 95
       25
 70
     0
 93
      823
310
5DC0B00000000000002880959E9E29A2A1AA24A7A72FA620A122A62FA324A929AA1F169E29A2A1AA24A7A72FA620A122A62FA620A9AA1F000000000000048803FFFE01C00030C0088C0380006180000000000000048800000000000000A2000000000000002880
340
652
340
7C97
 94
        0
  0
ACAD_PROXY_OBJECT
  5
7F20
330
7F16
100
AcDbProxyObject
 90
      499
 91
      600
 95
       25
 70
     0
 93
      152
310
5DE80000000000000840A3D0A5723F0BD1F200
  0
ACAD_PROXY_OBJECT
  5
7F21
330
7F16
100
AcDbProxyObject
 90
      499
 91
      601
 95
       25
 70
     0
 93
       14
310
5DE0
340
0
 94
        0
  0
ACAD_PROXY_OBJECT
  5
7F22
330
7F16
100
AcDbProxyObject
 90
      499
 91
      602
 95
       25
 70
     0
 93
     8619
310
5DD084050BA4050AA405024050E836583938376838C815B836720314043A013D2525633C486F6C653A63746469613E2078203C486F6C653A637464657074683E20555C503C696628657175616C28486F6C653A7461707065642C223022292C22252563222C486F6C653A6E6F6D696E616C202220782022293E3C6966286571
310
75616C28486F6C653A7461707065642C223022292C486F6C653A6469612C486F6C653A706974636864657363293E3C696628657175616C28486F6C653A7461707065642C223122292C22207820222C2222293E3C696628657175616C28486F6C653A7461707065642C223122292C486F6C653A74617064657074682C222229
310
3E203C696628657175616C28486F6C653A7465726D696E6174696F6E2C223022292C22202F20222C2222293E3C696628657175616C28486F6C653A7465726D696E6174696F6E2C223022292C486F6C653A64657074682C2222293E406901405034050E836583938376838C815B836720314043B013D2525633C486F6C653A6
310
3746469613E2078203C486F6C653A6374616E676C653E2525645C503C696628657175616C28486F6C653A7461707065642C223022292C22252563222C486F6C653A6E6F6D696E616C202220782022293E3C696628657175616C28486F6C653A7461707065642C223022292C486F6C653A6469612C486F6C653A70697463686
310
4657363293E3C696628657175616C28486F6C653A7461707065642C223122292C22207820222C2222293E3C696628657175616C28486F6C653A7461707065642C223122292C486F6C653A74617064657074682C2222293E203C696628657175616C28486F6C653A7465726D696E6174696F6E2C223022292C22202F20222C2
310
222293E3C696628657175616C28486F6C653A7465726D696E6174696F6E2C223022292C486F6C653A64657074682C2222293E406901405014050E836583938376838C815B8367203140416013D3C696628657175616C28486F6C653A7461707065642C223022292C22252563222C486F6C653A6E6F6D696E616C2022207820
310
22293E3C696628657175616C28486F6C653A7461707065642C223022292C486F6C653A6469612C486F6C653A706974636864657363293E3C696628657175616C28486F6C653A7461707065642C223122292C22207820222C2222293E3C696628657175616C28486F6C653A7461707065642C223122292C486F6C653A746170
310
64657074682C2222293E203C696628657175616C28486F6C653A7465726D696E6174696F6E2C223022292C22202F20222C2222293E3C696628657175616C28486F6C653A7465726D696E6174696F6E2C223022292C486F6C653A64657074682C2222293E4069014051E4090E836583938376838C815B83672032405173D3C5
310
35444503A444553433E203C535444503A5354443E40690E836583938376838C815B836720314050C3D3C535444503A444553433E40690240515AAABBA120
360
7F23
330
7F23
360
7F24
330
7F24
360
7F25
330
7F25
360
7F26
360
7F27
330
7F26
330
7F27
 94
        0
  0
ACAD_PROXY_OBJECT
  5
7F28
330
7F16
100
AcDbProxyObject
 90
      499
 91
      568
 95
       25
 70
     0
 93
       26
310
5DD02A80
340
0
 94
        0
  0
ACAD_PROXY_OBJECT
  5
7F29
330
7F16
100
AcDbProxyObject
 90
      499
 91
      569
 95
       25
 70
     0
 93
      250
310
5DD020000000000000A1000000000000002440408F0F9023C3E409A0DCFFFF80
340
7C9B
340
0
340
0
340
7C9C
340
7C9D
340
7C9E
340
7C9F
340
7CA0
340
7CA1
340
0
 94
        0
  0
ACAD_PROXY_OBJECT
  5
7F2A
330
7F16
100
AcDbProxyObject
 90
      499
 91
      603
 95
       25
 70
     0
 93
    13889
310
5DD1D003FFFFFFFD030300030000000000000310200800030C01030300030000000000000310200800030C00050C8DC0955782CC838A83588367014ED1D15395149050D3CB1294138B0C0B23702555E0B320E2A0D620D9CB11D15395149055160B095CCB0A11D1539354D1C819D95B991A5B5E880CCC0A78000C0000000000
310
00000000000000000000010000000000000310200800030C010000000000000310200800030C020143CF4F111959985D5B1D151A5D1B194F8050A8C8A8365815B8375838B014E51D15395149050D3CB1294138B0C0B2322A0D96056E0DD60E2CB11D15395149055160B095CCB0A11D1539354D1C819D95B991A5B5E880CCC4
310
A78000C000000000000000000000000000000010000000000000310200800030C010000000000000310200800030C020143CF4F111959985D5B1D151A5D1B194F90D44111409034110541D0C4350F4050E44D03449074510F000141232D24D7C053247454E545241434F2C4A504E2C302C8CB4935F2C47454E54524154582C
310
25732C2847454E4D53472067656E64696D7A20312900010104002214000281464500A608E8A9CA8A482869E5894A09C5860591914588E8A9CA8A482A8B0584AE658508E8A9C9AA68E40CECADCC8D2DAF4406452029E9E9E27B934B3B4B71F1E24A31427A91424A9A12620A7259427B934B3B4B7149624A9A12620A7259424B
310
A32B6949496111116111711149F1E24BA32B69F00808200111A000140560052F47454E545241434F2C4A504E2C302C582C47454E54524154582C25732C2847454E4D53472067656E64696D7A20332900010100002054000280AC80A5E8E8A9CA8A482869E5894A09C586058B2588E8A9CA8A482A8B0584AE658508E8A9C9AA
310
68E40CECADCC8D2DAF4406852000202000040E800050152014BD1D15395149050D3CB1294138B0C0B148B11D15395149055160B095CCB0A11D1539354D1C819D95B991A5B5E880D8A400040400008250000A0507A6029823A2A72A2920A1A79625282716181641E99623A2A72A2920AA2C1612B9961423A2A726A9A39033B2
310
B73234B6BD101B948000808180105A000140A0F4C053047454E545241434F2C4A504E2C302C83D32C47454E54524154582C25732C2847454E4D53472067656E64696D7A203829000101010020F400028248704B5F00A668E8A9CA8A482869E5894A09C58605921C12D7C588E8A9CA8A482A8B0584AE658508E8A9C9AA68E40
310
CECADCC8D2DAF440646052000200080043280005048B4B8A69014CD1D15395149050D3CB1294138B0C0B22D2E29A4B11D15395149055160B095CCB0A11D1539354D1C819D95B991A5B5E880C8C4A4000400100086D0000A09196926BE029923A2A72A2920A1A796252827161816465A49AF9623A2A72A2920AA2C1612B9961
310
423A2A726A9A39033B2B73234B6BD10189480A02620202080043E80005048D8096DA014CD1D15395149050D3CB1294138B0C0B236025B68B11D15395149055160B095CCB0A11D1539354D1C819D95B991A5B5E880C4D0A4000404140280D0000A190687072706CD06C5069D06B0029DA3A2A72A2920A1A7962528271618164
310
1A1C1C9C1B341B141A741AC1623A2A72A2920AA2C1612B9961423A2A726A9A39033B2B73234B6BD10189A94800080828050EA000143A322A0D0E0E4E0D9A0D8A0D3A0D60053D47454E545241434F2C4A504E2C302C8C8A8343839383668362834E83582C47454E54524154582C25732C2847454E4D53472067656E64696D7A
310
2031372900010105002274000281464500A628E8A9CA8A482869E5894A09C5860591914588E8A9CA8A482A8B0584AE658508E8A9C9AA68E40CECADCC8D2DAF440626C52000202080044A8000504909497CA014CD1D15395149050D3CB1294138B0C0B242525F28B11D15395149055160B095CCB0A11D1539354D1C819D95B9
310
91A5B5E880C4E4A400040418008A521E000000000000001CA040C00000000000034408080000000000006881010000000000000D102040000000000001A204080000000000003440818000000000000728103000000000000125020600000000004028A040000000000000034408000000000000004881000000000000000D
310
102000000000000001A204000000000000003440818000000000000508143C0000000000000039408180000000000006881030000000000000D102060000000000001A2040C00000000000034408180000000000006881030000000000000E5020600000000000024A040C0000000000805140800000000000000688100000
310
00000000009102000000000000001A2040000000000000034408180000000000006881030000000000000A10284220000000878000002020000008380000020400000081800000208000000828000002028900000000
340
0
340
0
340
0
340
0
340
7C97
340
7C97
 94
        0
  0
ACAD_PROXY_OBJECT
  5
7F2B
330
7F16
100
AcDbProxyObject
 90
      499
 91
      561
 95
       25
 70
     0
 93
     7018
310
5DD9740D254D3D0649534F5F4133429254D3D7D5125513115051349534F5F42525F5265766973696F6E6C69737446111413478342028323937783834316D6D2920421254D3D7D04D1E0D11141327835202835393478323130326D6D29421254D3D7D04C9E0D51141337837202834323078323038306D6D29421254D3D7D04C
310
DE0DD1141347839202832393778313839326D6D29421254D3D7D04D1E0E50E41312028353934783834316D6D29419254D3D7D04C51141327834202835393478313638326D6D29421254D3D7D04C9E0D11141347838202832393778313638326D6D29421254D3D7D04D1E0E10E41332028323937783432306D6D29419254D3D
310
7D04CD104130202838343078313138396D6D2920419254D3D7D04C11141347835202832393778313035316D6D29421254D3D7D04D1E0D51141347836202832393778313236316D6D29421254D3D7D04D1E0D91141347837202832393778313437316D6D29421254D3D7D04D1E0DD1141327833202835393478313236316D6D
310
29421254D3D7D04C9E0CD1141337834202834323078313138396D6D29421254D3D7D04CDE0D110413478332028323937783633306D6D29421254D3D7D04D1E0CD1141337835202834323078313438366D6D29421254D3D7D04CDE0D51141337836202834323078313738336D6D29421254D3D7D04CDE0D9104133783320283
310
43230783839316D6D29421254D3D7D04CDE0CD0E41322028343230783539346D6D29419254D3D7D04C9124130783220283131383978313638326D6D29421254D3D7D04C1E0C90E41342028323937783231306D6D29419254D3D7D04D1124130783320283131383978323532336D6D29421254D3D7D04C1E0CD114131783420
310
2838343178323337386D6D29421254D3D7D04C5E0D11141317833202838343178313738336D6D29421254D3D7D04C5E0CD02431254D3C82557247A25E4C81050A49534F5F5449544C4541431254D3C82557247A25E4C81090A49534F5F5449544C45424110E979A97F0838A835883675F42525F44D254D3D7D09497D4995D9
310
A5CDA5BDB9B1A5CDD10E979A97F0838A835883675F54525F44D254D3D7D51497D4995D9A5CDA5BDB9B1A5CDD10E979A97F0838A835883675F424C5F44D254D3D7D09317D4995D9A5CDA5BDB9B1A5CDD10E979A97F0838A835883675F544C5F44D254D3D7D51317D4995D9A5CDA5BDB9B1A5CDD00
  0
ACAD_PROXY_OBJECT
  5
181
330
17F
100
AcDbProxyObject
 90
      499
 91
      527
 95
       25
 70
     0
 93
       86
310
5DEA0C80A0280A0280A034
  0
ACAD_PROXY_OBJECT
  5
182
330
17F
100
AcDbProxyObject
 90
      499
 91
      528
 95
       25
 70
     0
 93
      282
310
5DD0E4050140501405014050140501405014050141101405014041000000000000001000
340
187
 94
        0
  0
ACAD_PROXY_OBJECT
  5
183
330
17F
100
AcDbProxyObject
 90
      499
 91
      529
 95
       25
 70
     0
 93
      323
310
5DCC199999999999E99F91740501405014050140501405014050140501405014050140501405014040
340
0
 94
        0
  0
ACAD_PROXY_OBJECT
  5
184
330
17F
100
AcDbProxyObject
 90
      499
 91
      530
 95
       25
 70
     0
 93
       10
310
5DC0
  0
ACAD_PROXY_OBJECT
  5
185
330
17F
100
AcDbProxyObject
 90
      499
 91
      531
 95
       25
 70
     0
 93
      257
310
5DE0C16A22A7D90F49F80000000000001081400000000000004204010000618000
340
188
340
189
 94
        0
  0
ACAD_PROXY_OBJECT
  5
186
330
17F
100
AcDbProxyObject
 90
      499
 91
      532
 95
       25
 70
     0
 93
     5277
310
5DD06411255115350141236025B6901405014069010000000000000910240690120281A8AA2CA0282484A4BE52028120280A032020000000000001220480D202405044E414D454050496BC914F4051C40640A80000000000004E4090193C3D3C4946284953424C414E4B28504152543A4E414D45292C424C4F434B3A4E414D
310
452C504152543A4E414D45293E3C41435F44455343524950544E3E40480A109A82A88AA492829880A091BBD2F7E80A3A80C81D0E27A15AF46E08A81203480901411393D5115014124A363B7D0147501904A0000000000000F902406428F4F1050D7D393D5114F901202832B22A72227A92028366EF6EE06F582028EA0320B4
310
0000000000001F20480C879E9E20A1AFAB27222FA620A122A61F20240506445020000000000000490201C00030C00010180000000000003E400000000000000F901073D3C4954454D3E4050180000000000003E400000000000000F901073D3C4954454D3E40501800000000000034400000000000000D101073D3C4954454
310
D3E40501800000000000034400000000000000D101073D3C4954454D3E405029010000000000000F9000000000000003E4041CF4F125511534F901418F4F1455164F9014060000000000000F9000000000000003E4041CF4F125511534F901800000000000034400000000000000D101073D3C4954454D3E40640400000000
310
0000003E400000000000000F90288800000000000020810000001800120881A068120480A032208521122080D21480D211480A1485214852050000000000003C2FC000000000000F0BF40600800030C0200400030C00CDCCCCCCCCCCEC3F3373333333333B0FC3333333333330940C80D069014090341504901A1999999999
310
9984A040100006180400800061804010000618008098A02808
340
0
340
0
 94
        0
  0
ACAD_PROXY_OBJECT
  5
2EDC
330
17F
100
AcDbProxyObject
 90
      499
 91
      561
 95
       25
 70
     0
 93
     3042
310
5DD9740D29254D064A49535F413342929254D7D512551311505134A49535F42525F5265766973696F6E6C6973744190F4134522028323937783231306D6D2941D29254D7D04D1490E41312028353934783834316D6D2941929254D7D04C50F41344C2028323130783239376D6D2941D29254D7D04D1310E413320283239377
310
83432306D6D2941929254D7D04CD0E41322028343230783539346D6D2941929254D7D04C90F4130202838343178313138396D6D2941929254D7D04C10243129254C82557247A25E4C81050A4A49535F5449544C454143129254C82557247A25E4C81090A4A49535F5449544C45424110E979A97F0838A835883675F42525F4
310
4D29254D7D09497D4995D9A5CDA5BDB9B1A5CDD10E979A97F0838A835883675F54525F44D29254D7D51497D4995D9A5CDA5BDB9B1A5CDD10E979A97F0838A835883675F424C5F44D29254D7D09317D4995D9A5CDA5BDB9B1A5CDD10E979A97F0838A835883675F544C5F44D29254D7D51317D4995D9A5CDA5BDB9B1A5CDD00
  0
ACAD_PROXY_OBJECT
  5
2EDD
330
17F
100
AcDbProxyObject
 90
      499
 91
      562
 95
       25
 70
     0
 93
      898
310
5DC4000000000000124048CF4F11115510525317D3105091530F880A0F11115510525317D05094D4D0D053114F8A50241C9A9999999999B93F26A666666666724FC000000000000E03F400000000000000400000000000000510000000000000024408070000C300000000000000049000
340
16
340
180
 94
        0
  0
ACAD_PROXY_OBJECT
  5
2EDE
330
17F
100
AcDbProxyObject
 90
      499
 91
      563
 95
       25
 70
     0
 93
      823
310
5DC0B00000000000002480959E9E29A2A1AA24A7A72FA620A122A62FA324A929AA1F169E29A2A1AA24A7A72FA620A122A62FA620A9AA1F000000000000048803FFFE01C00030C008140380006180000000000000048800000000000000A2000000000000002480
340
652
340
180
 94
        0
  0
ACAD_PROXY_OBJECT
  5
2EE0
330
17F
100
AcDbProxyObject
 90
      499
 91
      564
 95
       25
 70
     0
 93
      152
310
5DE8273108AC1C5A0640A3D0A5723F0BD1F200
  0
ACAD_PROXY_OBJECT
  5
2EE1
330
17F
100
AcDbProxyObject
 90
      499
 91
      565
 95
       25
 70
     0
 93
       14
310
5DE0
340
0
 94
        0
  0
ACAD_PROXY_OBJECT
  5
2EE2
330
17F
100
AcDbProxyObject
 90
      499
 91
      566
 95
       25
 70
     0
 93
     6059
310
5DD084050BA4050AA405024050E836583938376838C815B83672031405983D3C486F6C653A6469613E3C696628657175616C28486F6C653A7465726D696E6174696F6E2C223022292C2220905B82B320222C22208368838A838B22293E3C696628657175616C28486F6C653A7465726D696E6174696F6E2C223022292C486F
310
6C653A64657074682C2222293E2C203C486F6C653A63746469613E2082B482AE82E882CC905B82B3203C486F6C653A637464657074683E406901405034050E836583938376838C815B83672031405EF3D3C486F6C653A6374616E676C653E252564202525633C486F6C653A63746469613E208E4D8C8A2C203C69662865717
310
5616C28486F6C653A7461707065642C223022292C22252563222C486F6C653A6E6F6D696E616C202220782022293E3C696628657175616C28486F6C653A7461707065642C223022292C486F6C653A6469612C486F6C653A706974636864657363293E203C696628657175616C28486F6C653A7465726D696E6174696F6E2C2
310
23022292C22905B82B320222C222022293E3C696628657175616C28486F6C653A7465726D696E6174696F6E2C223022292C486F6C653A64657074682C2222293E406901405014050E836583938376838C815B83672031405C73D3C696628657175616C28486F6C653A7461707065642C223022292C22252563222C486F6C65
310
3A6E6F6D696E616C202220782022293E3C696628657175616C28486F6C653A7461707065642C223022292C486F6C653A6469612C486F6C653A706974636864657363293E203C696628657175616C28486F6C653A7465726D696E6174696F6E2C223022292C22905B82B320222C222022293E3C696628657175616C28486F6C
310
653A7465726D696E6174696F6E2C223022292C486F6C653A64657074682C2222293E4069014051E4090E836583938376838C815B83672032405173D3C535444503A444553433E203C535444503A5354443E40690E836583938376838C815B836720314050C3D3C535444503A444553433E40690240515AAABBA120
360
2EE6
330
2EE6
360
2EE7
330
2EE7
360
2EE5
330
2EE5
360
2EE4
360
2EE3
330
2EE4
330
2EE3
 94
        0
  0
ACAD_PROXY_OBJECT
  5
2EE8
330
17F
100
AcDbProxyObject
 90
      499
 91
      568
 95
       25
 70
     0
 93
       26
310
5DD02A80
340
42
 94
        0
  0
ACAD_PROXY_OBJECT
  5
2EE9
330
17F
100
AcDbProxyObject
 90
      499
 91
      569
 95
       25
 70
     0
 93
      250
310
5DD020000000000000A1000000000000002440408F0F9023C3E409A0DCFFFF80
340
58
340
18C9
340
18CA
340
5F
340
60
340
61
340
62
340
63
340
68
340
0
 94
        0
  0
ACAD_PROXY_OBJECT
  5
2EEA
330
17F
100
AcDbProxyObject
 90
      499
 91
      570
 95
       25
 70
     0
 93
    13889
310
5DD1D003FFFFFFFD030300030CCCCCCCCCCCC250200800030C01030300030CCCCCCCCCCCC250200800030C00050C8DC0955782CC838A83588367014ED1D15395149050D3CB1294138B0C0B23702555E0B320E2A0D620D9CB11D15395149055160B095CCB0A11D1539354D1C819D95B991A5B5E880CCC0A78000C0000000000
310
00000000000000000000010CCCCCCCCCCCC250200800030C010CCCCCCCCCCCC250200800030C020143CF4F111959985D5B1D151A5D1B194F8050A8C8A8365815B8375838B014E51D15395149050D3CB1294138B0C0B2322A0D96056E0DD60E2CB11D15395149055160B095CCB0A11D1539354D1C819D95B991A5B5E880CCC4
310
A78000C000000000000000000000000000000010CCCCCCCCCCCC250200800030C010CCCCCCCCCCCC250200800030C020143CF4F111959985D5B1D151A5D1B194F90D44111409034110541D0C4350F4050E44D03449074510F000141232D24D7C053247454E545241434F2C4A504E2C302C8CB4935F2C47454E54524154582C
310
25732C2847454E4D53472067656E64696D7A20312900010104002214000281464500A608E8A9CA8A482869E5894A09C5860591914588E8A9CA8A482A8B0584AE658508E8A9C9AA68E40CECADCC8D2DAF4406452029E9E9E27B934B3B4B71F1E24A31427A91424A9A12620A7259427B934B3B4B7149624A9A12620A7259424B
310
A32B6949496111116111711149F1E24BA32B69F00808200111A000140560052F47454E545241434F2C4A504E2C302C582C47454E54524154582C25732C2847454E4D53472067656E64696D7A20332900010100002054000280AC80A5E8E8A9CA8A482869E5894A09C586058B2588E8A9CA8A482A8B0584AE658508E8A9C9AA
310
68E40CECADCC8D2DAF4406852000202000040E800050152014BD1D15395149050D3CB1294138B0C0B148B11D15395149055160B095CCB0A11D1539354D1C819D95B991A5B5E880D8A400040400008250000A0507A6029823A2A72A2920A1A79625282716181641E99623A2A72A2920AA2C1612B9961423A2A726A9A39033B2
310
B73234B6BD101B948000808180105A000140A0F4C053047454E545241434F2C4A504E2C302C83D32C47454E54524154582C25732C2847454E4D53472067656E64696D7A203829000101010020F400028248704B5F00A668E8A9CA8A482869E5894A09C58605921C12D7C588E8A9CA8A482A8B0584AE658508E8A9C9AA68E40
310
CECADCC8D2DAF440646052000200080043280005048B4B8A69014CD1D15395149050D3CB1294138B0C0B22D2E29A4B11D15395149055160B095CCB0A11D1539354D1C819D95B991A5B5E880C8C4A4000400100086D0000A09196926BE029923A2A72A2920A1A796252827161816465A49AF9623A2A72A2920AA2C1612B9961
310
423A2A726A9A39033B2B73234B6BD10189480A02620202080043E80005048D8096DA014CD1D15395149050D3CB1294138B0C0B236025B68B11D15395149055160B095CCB0A11D1539354D1C819D95B991A5B5E880C4D0A4000404140280D0000A190687072706CD06C5069D06B0029DA3A2A72A2920A1A7962528271618164
310
1A1C1C9C1B341B141A741AC1623A2A72A2920AA2C1612B9961423A2A726A9A39033B2B73234B6BD10189A94800080820050EA000143A322A0D0E0E4E0D9A0D8A0D3A0D60053D47454E545241434F2C4A504E2C302C8C8A8343839383668362834E83582C47454E54524154582C25732C2847454E4D53472067656E64696D7A
310
2031372900010105002274000281464500A628E8A9CA8A482869E5894A09C5860591914588E8A9CA8A482A8B0584AE658508E8A9C9AA68E40CECADCC8D2DAF440626C52000202080044A8000504909497CA014CD1D15395149050D3CB1294138B0C0B242525F28B11D15395149055160B095CCB0A11D1539354D1C819D95B9
310
91A5B5E880C4E4A400040418008A521E000000000000001CA040C00000000000034408080000000000006881010000000000000D102040000000000001A204080000000000003440818000000000000728103000000000000125020600000000004028A040000000000000034408000000000000004881000000000000000D
310
102000000000000001A204000000000000003440818000000000000508143C0000000000000039408180000000000006881030000000000000D102060000000000001A2040C00000000000034408180000000000006881030000000000000E5020600000000000024A040C0000000000805140800000000000000688100000
310
00000000009102000000000000001A2040000000000000034408180000000000006881030000000000000A10284220000000878000002020000008380000020400000081800000208000000828000002028900000000
340
0
340
0
340
0
340
0
340
180
340
180
 94
        0
  0
ACAD_PROXY_OBJECT
  5
6B84
330
6B83
100
AcDbProxyObject
 90
      499
 91
      567
 95
       25
 70
     0
 93
     2256
310
5DE0143A0D960E4E0DDA0E32056E0D9C80C40405013D3C696628657175616C28486F6C653A7461707065642C223022292C22252563222C486F6C653A6E6F6D696E616C2022202220696628657175616C28486F6C653A756E6974732C223122292C2278222C222D222920222022293E3C696628657175616C28486F6C653A74
310
61707065642C223022292C486F6C653A6469612C486F6C653A706974636864657363293E207B5C46414D4744543B787D203C696628657175616C28486F6C653A7465726D696E6174696F6E2C223022292C486F6C653A64657074682C228AD192CA22293E5C507B5C46414D4744543B767D2525633C486F6C653A6374646961
310
3E207B5C46414D4744543B787D203C486F6C653A637464657074683E
  0
ACAD_PROXY_OBJECT
  5
6B85
330
6B83
100
AcDbProxyObject
 90
      499
 91
      567
 95
       25
 70
     0
 93
     2192
310
5DE0143A0D960E4E0DDA0E32056E0D9C80C405FE3D3C696628657175616C28486F6C653A7461707065642C223022292C22252563222C486F6C653A6E6F6D696E616C2022202220696628657175616C28486F6C653A756E6974732C223122292C2278222C222D222920222022293E3C696628657175616C28486F6C653A7461
310
707065642C223022292C486F6C653A6469612C486F6C653A706974636864657363293E207B5C46414D4744543B787D203C696628657175616C28486F6C653A7465726D696E6174696F6E2C223022292C486F6C653A64657074682C228AD192CA22293E5C507B5C46414D4744543B777D2525633C486F6C653A63746469613E
310
2058203C486F6C653A6374616E676C653E252564
  0
ACAD_PROXY_OBJECT
  5
6B86
330
6B83
100
AcDbProxyObject
 90
      499
 91
      567
 95
       25
 70
     0
 93
     1816
310
5DE0143A0D960E4E0DDA0E32056E0D9C80C405CF3D3C696628657175616C28486F6C653A7461707065642C223022292C22252563222C486F6C653A6E6F6D696E616C2022202220696628657175616C28486F6C653A756E6974732C223122292C2278222C222D222920222022293E3C696628657175616C28486F6C653A7461
310
707065642C223022292C486F6C653A6469612C486F6C653A706974636864657363293E5C507B5C46414D4744543B787D203C696628657175616C28486F6C653A7465726D696E6174696F6E2C223022292C486F6C653A64657074682C228AD192CA22293E
  0
ACAD_PROXY_OBJECT
  5
6B87
330
6B83
100
AcDbProxyObject
 90
      499
 91
      567
 95
       25
 70
     0
 93
      344
310
5DE0143A0D960E4E0DDA0E32056E0D9C80C805173D3C535444503A444553433E203C535444503A5354443E
  0
ACAD_PROXY_OBJECT
  5
6B88
330
6B83
100
AcDbProxyObject
 90
      499
 91
      567
 95
       25
 70
     0
 93
      256
310
5DE0143A0D960E4E0DDA0E32056E0D9C80C4050C3D3C535444503A444553433E
  0
ACAD_PROXY_OBJECT
  5
7F23
330
7F22
100
AcDbProxyObject
 90
      499
 91
      567
 95
       25
 70
     0
 93
     2680
310
5DE0143A0D960E4E0DDA0E32056E0D9C80C4043A013D2525633C486F6C653A63746469613E2078203C486F6C653A637464657074683E20555C503C696628657175616C28486F6C653A7461707065642C223022292C22252563222C486F6C653A6E6F6D696E616C202220782022293E3C696628657175616C28486F6C653A74
310
61707065642C223022292C486F6C653A6469612C486F6C653A706974636864657363293E3C696628657175616C28486F6C653A7461707065642C223122292C22207820222C2222293E3C696628657175616C28486F6C653A7461707065642C223122292C486F6C653A74617064657074682C2222293E203C69662865717561
310
6C28486F6C653A7465726D696E6174696F6E2C223022292C22202F20222C2222293E3C696628657175616C28486F6C653A7465726D696E6174696F6E2C223022292C486F6C653A64657074682C2222293E
  0
ACAD_PROXY_OBJECT
  5
7F24
330
7F22
100
AcDbProxyObject
 90
      499
 91
      567
 95
       25
 70
     0
 93
     2688
310
5DE0143A0D960E4E0DDA0E32056E0D9C80C4043B013D2525633C486F6C653A63746469613E2078203C486F6C653A6374616E676C653E2525645C503C696628657175616C28486F6C653A7461707065642C223022292C22252563222C486F6C653A6E6F6D696E616C202220782022293E3C696628657175616C28486F6C653A
310
7461707065642C223022292C486F6C653A6469612C486F6C653A706974636864657363293E3C696628657175616C28486F6C653A7461707065642C223122292C22207820222C2222293E3C696628657175616C28486F6C653A7461707065642C223122292C486F6C653A74617064657074682C2222293E203C696628657175
310
616C28486F6C653A7465726D696E6174696F6E2C223022292C22202F20222C2222293E3C696628657175616C28486F6C653A7465726D696E6174696F6E2C223022292C486F6C653A64657074682C2222293E
  0
ACAD_PROXY_OBJECT
  5
7F25
330
7F22
100
AcDbProxyObject
 90
      499
 91
      567
 95
       25
 70
     0
 93
     2392
310
5DE0143A0D960E4E0DDA0E32056E0D9C80C40416013D3C696628657175616C28486F6C653A7461707065642C223022292C22252563222C486F6C653A6E6F6D696E616C202220782022293E3C696628657175616C28486F6C653A7461707065642C223022292C486F6C653A6469612C486F6C653A706974636864657363293E
310
3C696628657175616C28486F6C653A7461707065642C223122292C22207820222C2222293E3C696628657175616C28486F6C653A7461707065642C223122292C486F6C653A74617064657074682C2222293E203C696628657175616C28486F6C653A7465726D696E6174696F6E2C223022292C22202F20222C2222293E3C69
310
6628657175616C28486F6C653A7465726D696E6174696F6E2C223022292C486F6C653A64657074682C2222293E
  0
ACAD_PROXY_OBJECT
  5
7F26
330
7F22
100
AcDbProxyObject
 90
      499
 91
      567
 95
       25
 70
     0
 93
      344
310
5DE0143A0D960E4E0DDA0E32056E0D9C80C805173D3C535444503A444553433E203C535444503A5354443E
  0
ACAD_PROXY_OBJECT
  5
7F27
330
7F22
100
AcDbProxyObject
 90
      499
 91
      567
 95
       25
 70
     0
 93
      256
310
5DE0143A0D960E4E0DDA0E32056E0D9C80C4050C3D3C535444503A444553433E
  0
ACAD_PROXY_OBJECT
  5
2EE6
330
2EE2
100
AcDbProxyObject
 90
      499
 91
      567
 95
       25
 70
     0
 93
     1376
310
5DE0143A0D960E4E0DDA0E32056E0D9C80C405983D3C486F6C653A6469613E3C696628657175616C28486F6C653A7465726D696E6174696F6E2C223022292C2220905B82B320222C22208368838A838B22293E3C696628657175616C28486F6C653A7465726D696E6174696F6E2C223022292C486F6C653A64657074682C22
310
22293E2C203C486F6C653A63746469613E2082B482AE82E882CC905B82B3203C486F6C653A637464657074683E
  0
ACAD_PROXY_OBJECT
  5
2EE7
330
2EE2
100
AcDbProxyObject
 90
      499
 91
      567
 95
       25
 70
     0
 93
     2072
310
5DE0143A0D960E4E0DDA0E32056E0D9C80C405EF3D3C486F6C653A6374616E676C653E252564202525633C486F6C653A63746469613E208E4D8C8A2C203C696628657175616C28486F6C653A7461707065642C223022292C22252563222C486F6C653A6E6F6D696E616C202220782022293E3C696628657175616C28486F6C
310
653A7461707065642C223022292C486F6C653A6469612C486F6C653A706974636864657363293E203C696628657175616C28486F6C653A7465726D696E6174696F6E2C223022292C22905B82B320222C222022293E3C696628657175616C28486F6C653A7465726D696E6174696F6E2C223022292C486F6C653A6465707468
310
2C2222293E
  0
ACAD_PROXY_OBJECT
  5
2EE5
330
2EE2
100
AcDbProxyObject
 90
      499
 91
      567
 95
       25
 70
     0
 93
     1752
310
5DE0143A0D960E4E0DDA0E32056E0D9C80C405C73D3C696628657175616C28486F6C653A7461707065642C223022292C22252563222C486F6C653A6E6F6D696E616C202220782022293E3C696628657175616C28486F6C653A7461707065642C223022292C486F6C653A6469612C486F6C653A706974636864657363293E20
310
3C696628657175616C28486F6C653A7465726D696E6174696F6E2C223022292C22905B82B320222C222022293E3C696628657175616C28486F6C653A7465726D696E6174696F6E2C223022292C486F6C653A64657074682C2222293E
  0
ACAD_PROXY_OBJECT
  5
2EE4
330
2EE2
100
AcDbProxyObject
 90
      499
 91
      567
 95
       25
 70
     0
 93
      344
310
5DE0143A0D960E4E0DDA0E32056E0D9C80C805173D3C535444503A444553433E203C535444503A5354443E
  0
ACAD_PROXY_OBJECT
  5
2EE3
330
2EE2
100
AcDbProxyObject
 90
      499
 91
      567
 95
       25
 70
     0
 93
      256
310
5DE0143A0D960E4E0DDA0E32056E0D9C80C4050C3D3C535444503A444553433E
  0
ENDSEC
  0
EOF
