  0
SECTION
  2
HEADER
  9
$ACADVER
  1
AC1015
  9
$ACADMAINTVER
 70
     6
  9
$DWGCODEPAGE
  3
ANSI_932
  9
$INSBASE
 10
0.0
 20
0.0
 30
0.0
  9
$EXTMIN
 10
-95.92695504729318
 20
-138.548178711056
 30
-0.0000000000000053
  9
$EXTMAX
 10
175.0728534633099
 20
23.68725765636043
 30
0.0000000000000099
  9
$LIMMIN
 10
0.0
 20
0.0
  9
$LIMMAX
 10
420.0
 20
297.0
  9
$ORTHOMODE
 70
     0
  9
$REGENMODE
 70
     1
  9
$FILLMODE
 70
     1
  9
$QTEXTMODE
 70
     0
  9
$MIRRTEXT
 70
     1
  9
$LTSCALE
 40
1.0
  9
$ATTMODE
 70
     1
  9
$TEXTSIZE
 40
4.0
  9
$TRACEWID
 40
1.0
  9
$TEXTSTYLE
  7
STANDARD
  9
$CLAYER
  8
AM_0
  9
$CELTYPE
  6
ByLayer
  9
$CECOLOR
 62
   256
  9
$CELTSCALE
 40
1.0
  9
$DISPSILH
 70
     0
  9
$DIMSCALE
 40
1.0
  9
$DIMASZ
 40
2.5
  9
$DIMEXO
 40
0.0
  9
$DIMDLI
 40
10.0
  9
$DIMRND
 40
0.0
  9
$DIMDLE
 40
0.0
  9
$DIMEXE
 40
1.0
  9
$DIMTP
 40
0.1
  9
$DIMTM
 40
0.1000000001
  9
$DIMTXT
 40
3.8
  9
$DIMCEN
 40
0.0
  9
$DIMTSZ
 40
0.0
  9
$DIMTOL
 70
     0
  9
$DIMLIM
 70
     0
  9
$DIMTIH
 70
     0
  9
$DIMTOH
 70
     0
  9
$DIMSE1
 70
     0
  9
$DIMSE2
 70
     0
  9
$DIMTAD
 70
     3
  9
$DIMZIN
 70
     1
  9
$DIMBLK
  1
Open30
  9
$DIMASO
 70
     1
  9
$DIMSHO
 70
     1
  9
$DIMPOST
  1

  9
$DIMAPOST
  1
"
  9
$DIMALT
 70
     0
  9
$DIMALTD
 70
     2
  9
$DIMALTF
 40
0.0393701
  9
$DIMLFAC
 40
1.0
  9
$DIMTOFL
 70
     1
  9
$DIMTVP
 40
0.0
  9
$DIMTIX
 70
     0
  9
$DIMSOXD
 70
     0
  9
$DIMSAH
 70
     0
  9
$DIMBLK1
  1

  9
$DIMBLK2
  1

  9
$DIMSTYLE
  2
AM_JIS
  9
$DIMCLRD
 70
   256
  9
$DIMCLRE
 70
   256
  9
$DIMCLRT
 70
     2
  9
$DIMTFAC
 40
0.71
  9
$DIMGAP
 40
1.5
  9
$DIMJUST
 70
     0
  9
$DIMSD1
 70
     0
  9
$DIMSD2
 70
     0
  9
$DIMTOLJ
 70
     0
  9
$DIMTZIN
 70
     8
  9
$DIMALTZ
 70
     0
  9
$DIMALTTZ
 70
     0
  9
$DIMUPT
 70
     0
  9
$DIMDEC
 70
     1
  9
$DIMTDEC
 70
     2
  9
$DIMALTU
 70
     2
  9
$DIMALTTD
 70
     2
  9
$DIMTXSTY
  7
STANDARD
  9
$DIMAUNIT
 70
     1
  9
$DIMADEC
 70
     0
  9
$DIMALTRND
 40
0.0
  9
$DIMAZIN
 70
     2
  9
$DIMDSEP
 70
    46
  9
$DIMATFIT
 70
     3
  9
$DIMFRAC
 70
     0
  9
$DIMLDRBLK
  1
Open30
  9
$DIMLUNIT
 70
     2
  9
$DIMLWD
 70
    -1
  9
$DIMLWE
 70
    -1
  9
$DIMTMOVE
 70
     0
  9
$LUNITS
 70
     2
  9
$LUPREC
 70
     2
  9
$SKETCHINC
 40
1.0
  9
$FILLETRAD
 40
0.8
  9
$AUNITS
 70
     1
  9
$AUPREC
 70
     5
  9
$MENU
  1
.
  9
$ELEVATION
 40
0.0
  9
$PELEVATION
 40
0.0
  9
$THICKNESS
 40
0.0
  9
$LIMCHECK
 70
     0
  9
$CHAMFERA
 40
0.5
  9
$CHAMFERB
 40
0.5
  9
$CHAMFERC
 40
20.0
  9
$CHAMFERD
 40
0.0
  9
$SKPOLY
 70
     0
  9
$TDCREATE
 40
2451943.610431667
  9
$TDUCREATE
 40
2451943.235431667
  9
$TDUPDATE
 40
2455441.385801863
  9
$TDUUPDATE
 40
2455441.010801863
  9
$TDINDWG
 40
1.5877939583
  9
$TDUSRTIMER
 40
1.5877937847
  9
$USRTIMER
 70
     1
  9
$ANGBASE
 50
0.0
  9
$ANGDIR
 70
     0
  9
$PDMODE
 70
     0
  9
$PDSIZE
 40
0.0
  9
$PLINEWID
 40
0.0
  9
$SPLFRAME
 70
     0
  9
$SPLINETYPE
 70
     6
  9
$SPLINESEGS
 70
     8
  9
$HANDSEED
  5
18DA9
  9
$SURFTAB1
 70
     6
  9
$SURFTAB2
 70
     6
  9
$SURFTYPE
 70
     6
  9
$SURFU
 70
     6
  9
$SURFV
 70
     6
  9
$UCSBASE
  2

  9
$UCSNAME
  2

  9
$UCSORG
 10
0.0
 20
0.0
 30
0.0
  9
$UCSXDIR
 10
1.0
 20
0.0
 30
0.0
  9
$UCSYDIR
 10
0.0
 20
1.0
 30
0.0
  9
$UCSORTHOREF
  2

  9
$UCSORTHOVIEW
 70
     0
  9
$UCSORGTOP
 10
0.0
 20
0.0
 30
0.0
  9
$UCSORGBOTTOM
 10
0.0
 20
0.0
 30
0.0
  9
$UCSORGLEFT
 10
0.0
 20
0.0
 30
0.0
  9
$UCSORGRIGHT
 10
0.0
 20
0.0
 30
0.0
  9
$UCSORGFRONT
 10
0.0
 20
0.0
 30
0.0
  9
$UCSORGBACK
 10
0.0
 20
0.0
 30
0.0
  9
$PUCSBASE
  2

  9
$PUCSNAME
  2

  9
$PUCSORG
 10
0.0
 20
0.0
 30
0.0
  9
$PUCSXDIR
 10
1.0
 20
0.0
 30
0.0
  9
$PUCSYDIR
 10
0.0
 20
1.0
 30
0.0
  9
$PUCSORTHOREF
  2

  9
$PUCSORTHOVIEW
 70
     0
  9
$PUCSORGTOP
 10
0.0
 20
0.0
 30
0.0
  9
$PUCSORGBOTTOM
 10
0.0
 20
0.0
 30
0.0
  9
$PUCSORGLEFT
 10
0.0
 20
0.0
 30
0.0
  9
$PUCSORGRIGHT
 10
0.0
 20
0.0
 30
0.0
  9
$PUCSORGFRONT
 10
0.0
 20
0.0
 30
0.0
  9
$PUCSORGBACK
 10
0.0
 20
0.0
 30
0.0
  9
$USERI1
 70
     0
  9
$USERI2
 70
     0
  9
$USERI3
 70
     0
  9
$USERI4
 70
     0
  9
$USERI5
 70
     0
  9
$USERR1
 40
0.0
  9
$USERR2
 40
0.0
  9
$USERR3
 40
0.0
  9
$USERR4
 40
0.0
  9
$USERR5
 40
0.0
  9
$WORLDVIEW
 70
     1
  9
$SHADEDGE
 70
     3
  9
$SHADEDIF
 70
    70
  9
$TILEMODE
 70
     1
  9
$MAXACTVP
 70
    64
  9
$PINSBASE
 10
0.0
 20
0.0
 30
0.0
  9
$PLIMCHECK
 70
     0
  9
$PEXTMIN
 10
1.000000000000000E+20
 20
1.000000000000000E+20
 30
1.000000000000000E+20
  9
$PEXTMAX
 10
-1.000000000000000E+20
 20
-1.000000000000000E+20
 30
-1.000000000000000E+20
  9
$PLIMMIN
 10
0.0
 20
0.0
  9
$PLIMMAX
 10
420.0
 20
297.0
  9
$UNITMODE
 70
     0
  9
$VISRETAIN
 70
     1
  9
$PLINEGEN
 70
     0
  9
$PSLTSCALE
 70
     1
  9
$TREEDEPTH
 70
  3020
  9
$CMLSTYLE
  2
Standard
  9
$CMLJUST
 70
     0
  9
$CMLSCALE
 40
20.0
  9
$PROXYGRAPHICS
 70
     1
  9
$MEASUREMENT
 70
     1
  9
$CELWEIGHT
370
    -1
  9
$ENDCAPS
280
     0
  9
$JOINSTYLE
280
     0
  9
$LWDISPLAY
290
     0
  9
$INSUNITS
 70
     4
  9
$HYPERLINKBASE
  1

  9
$STYLESHEET
  1
sei_cad.ctb
  9
$XEDIT
290
     1
  9
$CEPSNTYPE
380
     0
  9
$PSTYLEMODE
290
     1
  9
$FINGERPRINTGUID
  2
{C77AB3BE-9CA2-11D3-BAF3-006094EB760E}
  9
$VERSIONGUID
  2
{A79EFA5F-B13D-4929-9447-12CA2C54CF5F}
  9
$EXTNAMES
290
     1
  9
$PSVPSCALE
 40
0.0
  9
$OLESTARTUP
290
     0
  0
ENDSEC
  0
SECTION
  2
CLASSES
  0
CLASS
  1
ACDBDICTIONARYWDFLT
  2
AcDbDictionaryWithDefault
  3
ObjectDBX Classes
 90
        0
280
     0
281
     0
  0
CLASS
  1
ACDBPLACEHOLDER
  2
AcDbPlaceHolder
  3
ObjectDBX Classes
 90
        0
280
     0
281
     0
  0
CLASS
  1
LAYOUT
  2
AcDbLayout
  3
ObjectDBX Classes
 90
        0
280
     0
281
     0
  0
CLASS
  1
ACME_DOCUMENT
  2
AcMeDbDoc
  3
AcMeServices
 90
        0
280
     1
281
     0
  0
CLASS
  1
ACMESCOPE
  2
AcMeScope
  3
AcMeServices
 90
        0
280
     1
281
     0
  0
CLASS
  1
ACMECOMMANDHISTORY
  2
AcMeCommandHistory
  3
AcMeServices
 90
        0
280
     1
281
     0
  0
CLASS
  1
DICTIONARYVAR
  2
AcDbDictionaryVar
  3
ObjectDBX Classes
 90
        0
280
     0
281
     0
  0
CLASS
  1
ACIMSYSVARMAN
  2
AcImSysVarManager
  3
AcMeServices
 90
        0
280
     1
281
     0
  0
CLASS
  1
ACIMREALSYSVAR
  2
AcImRealSysVar
  3
AcMeServices
 90
        0
280
     1
281
     0
  0
CLASS
  1
ACIMINTSYSVAR
  2
AcImIntSysVar
  3
AcMeServices
 90
        0
280
     1
281
     0
  0
CLASS
  1
ACMEDRAWINGMAN
  2
AcMeDrawingMan
  3
AcMeServices
 90
        0
280
     1
281
     0
  0
CLASS
  1
ACMEVIEW
  2
AcMeView
  3
AcMeServices
 90
        0
280
     1
281
     0
  0
CLASS
  1
ACDBENTITYCACHE
  2
AcMeEntityCache
  3
AcMeServices
 90
        0
280
     1
281
     0
  0
CLASS
  1
GSMANAGER
  2
AcMeGSManager
  3
AcMeServices
 90
        0
280
     1
281
     0
  0
CLASS
  1
AMDTINTERNALREACTOR
  2
AmdtInternalReactor
  3
AcMeServices
 90
        0
280
     1
281
     0
  0
CLASS
  1
ACMESTATEMGR
  2
AcMeStateMgr
  3
AcMeServices
 90
        0
280
     1
281
     0
  0
CLASS
  1
ACME_DATABASE
  2
AcMeDbDatabase
  3
AcMeServices
 90
        0
280
     1
281
     0
  0
CLASS
  1
ACRFINSADJUSTERMGR
  2
AcRfInsAdjusterMgr
  3
AcMeServices
 90
        0
280
     1
281
     0
  0
CLASS
  1
AMGSETTINGSOBJ
  2
AmgSettingsObj
  3
"AcadM|Product Description: AutoCAD Mechanical 2000|Company: Autodesk"
 90
        0
280
     1
281
     0
  0
CLASS
  1
AMGOBJPROPCFG
  2
AmgObjPropCfg
  3
"AmgLay|Product Description: AutoCAD Mechanical 2000|Company: Autodesk"
 90
        1
280
     1
281
     0
  0
CLASS
  1
ACMDATADICTIONARY
  2
AcmDataDictionary
  3
"AcmSymBB|Product Description: AutoCAD Mechanical 2004 DX|Company: Autodesk"
 90
        0
280
     1
281
     0
  0
CLASS
  1
ACMDATAENTRYBLOCK
  2
AcmDataEntryBlock
  3
"AcmSymBB|Product Description: AutoCAD Mechanical 2004 DX|Company: Autodesk"
 90
        0
280
     1
281
     0
  0
CLASS
  1
ACIMSTRSYSVAR
  2
AcImStrSysVar
  3
AcMeServices
 90
        0
280
     1
281
     0
  0
CLASS
  1
ACAMGFILTERDAT
  2
AcAmgFilterDat
  3
"AcadM|Product Description: AutoCAD Mechanical 2000|Company: Autodesk"
 90
        0
280
     1
281
     0
  0
CLASS
  1
LAYER_INDEX
  2
AcDbLayerIndex
  3
ObjectDBX Classes
 90
        0
280
     0
281
     0
  0
CLASS
  1
IDBUFFER
  2
AcDbIdBuffer
  3
ObjectDBX Classes
 90
        0
280
     0
281
     0
  0
CLASS
  1
ACMSTANDARDJIS
  2
AcmStandardJIS
  3
"Amdt_StdImp|Product Description: AutoCAD Mechanical 2004 DX|Company: Autodesk"
 90
        0
280
     1
281
     0
  0
CLASS
  1
ACMSURFSTANDARDJIS
  2
AcmSurfTextStdJIS
  3
"Amdt_StdImp|Product Description: AutoCAD Mechanical 2004 DX|Company: Autodesk"
 90
        0
280
     1
281
     0
  0
CLASS
  1
ACMFCFSTANDARDJIS
  2
AcmFCFStdJIS
  3
"Amdt_StdImp|Product Description: AutoCAD Mechanical 2004 DX|Company: Autodesk"
 90
        0
280
     1
281
     0
  0
CLASS
  1
ACMWELDSTANDARDJIS
  2
AcmWeldingStdJIS
  3
"Amdt_StdImp|Product Description: AutoCAD Mechanical 2004 DX|Company: Autodesk"
 90
        0
280
     1
281
     0
  0
CLASS
  1
ACMIDSTANDARDJIS
  2
AcmIdStdJIS
  3
"Amdt_StdImp|Product Description: AutoCAD Mechanical 2004 DX|Company: Autodesk"
 90
        0
280
     1
281
     0
  0
CLASS
  1
ACMDATUMSTANDARDJIS
  2
AcmDatumStdJIS
  3
"Amdt_StdImp|Product Description: AutoCAD Mechanical 2004 DX|Company: Autodesk"
 90
        0
280
     1
281
     0
  0
CLASS
  1
ACMBOMSTANDARDJIS
  2
AcmBOMStdJIS
  3
"Amdt_StdImp|Product Description: AutoCAD Mechanical 2004 DX|Company: Autodesk"
 90
        0
280
     1
281
     0
  0
CLASS
  1
AMDTNOTE
  2
AmdtNote
  3
"AcmSymBB|Product Description: AutoCAD Mechanical 2004 DX|Company: Autodesk"
 90
     1023
280
     1
281
     1
  0
CLASS
  1
TABLESTYLE
  2
AcDbTableStyle
  3
ObjectDBX Classes
 90
     2047
280
     0
281
     0
  0
CLASS
  1
ACGREFMASTER
  2
AcGrefMaster
  3
AcAttribServices
 90
        0
280
     1
281
     0
  0
CLASS
  1
AM_DRAWING_MGR
  2
AcDmDwgMgr
  3
AcMechDwgViewMgmt
 90
        0
280
     1
281
     0
  0
CLASS
  1
AM_DWG_DOCUMENT
  2
AcDmDwgDocument
  3
AcMechDwgViewMgmt
 90
        0
280
     1
281
     0
  0
CLASS
  1
AM_DWG_SHEET
  2
AcDmSheet
  3
AcMechDwgViewMgmt
 90
        0
280
     1
281
     0
  0
CLASS
  1
AM_VIEWDIMPARMAP
  2
AcDmViewDimParMap
  3
AcMechDwgViewMgmt
 90
        0
280
     1
281
     0
  0
CLASS
  1
AM_DWGMGR_NAME
  2
AcDmDwgMgrName
  3
AcMechDwgViewMgmt
 90
        0
280
     1
281
     0
  0
CLASS
  1
ACGREFACADMASTER
  2
AcGrefacadMaster
  3
AcGrefServices
 90
        0
280
     1
281
     0
  0
CLASS
  1
AMDTMENUSTATEMGR
  2
AmdtMenuStateMgr
  3
McadcomServices
 90
        0
280
     1
281
     0
  0
CLASS
  1
AMDTMCOMMENUSTATE
  2
AmdtMcomMenuState
  3
McadcomServices
 90
        0
280
     1
281
     0
  0
CLASS
  1
AMIMASTER
  2
AmiMaster
  3
AmiServices
 90
        0
280
     1
281
     0
  0
CLASS
  1
MAPIAMMOUDLE
  2
MApiAmModule
  3
MApiAmServices
 90
        0
280
     1
281
     0
  0
CLASS
  1
AMDTADMENUSTATE
  2
AmdtAdMenuState
  3
DesignerServices
 90
        0
280
     1
281
     0
  0
CLASS
  1
ADAPPL
  2
AcAdAppl
  3
DesignerServices
 90
        0
280
     1
281
     0
  0
CLASS
  1
DEPMGR
  2
AcAdDepMgr
  3
DesignerServices
 90
        0
280
     1
281
     0
  0
CLASS
  1
PARAMMGR
  2
AcAdParamMgr
  3
DesignerServices
 90
        0
280
     1
281
     0
  0
CLASS
  1
PARAMSCOPE
  2
AcAdParamScope
  3
DesignerServices
 90
        0
280
     1
281
     0
  0
CLASS
  1
NAMEDAPPL
  2
AcAdNamedAppl
  3
DesignerServices
 90
        0
280
     1
281
     0
  0
CLASS
  1
AMDTDMMENUSTATE
  2
AmdtDmMenuState
  3
AcMechDwgViewMgmt
 90
        0
280
     1
281
     0
  0
CLASS
  1
AMDTAMMENUSTATE
  2
AmdtAmMenuState
  3
DesignerAssemblies
 90
        0
280
     1
281
     0
  0
CLASS
  1
ACAMPROJECT
  2
AcAmProject
  3
DesignerAssemblies
 90
        0
280
     1
281
     0
  0
CLASS
  1
ACAMGRCOMPDEF
  2
AcAmGrCompDef
  3
DesignerAssemblies
 90
        0
280
     1
281
     0
  0
CLASS
  1
ACCMCONTEXT
  2
AcCmContext
  3
DesignerAssemblies
 90
        0
280
     1
281
     0
  0
CLASS
  1
ACAMCOMPDEF
  2
AcAmCompDef
  3
DesignerAssemblies
 90
        0
280
     1
281
     0
  0
CLASS
  1
ACAMCOMPDEFMGR
  2
AcAmCompDefMgr
  3
DesignerAssemblies
 90
        0
280
     1
281
     0
  0
CLASS
  1
AMCONTEXTMGR
  2
AcAmContextMgr
  3
DesignerAssemblies
 90
        0
280
     1
281
     0
  0
CLASS
  1
ACAMCONTEXTMODELER
  2
AcAmContextModeler
  3
DesignerAssemblies
 90
        0
280
     1
281
     0
  0
CLASS
  1
ACAMGTITLESTD
  2
AcAmgTitleStd
  3
"TITLEAPP"
 90
        0
280
     1
281
     0
  0
CLASS
  1
ACMDETAILSTANDARDJIS
  2
AmdtDetailSymStdJIS
  3
"Amdt_StdImp|Product Description: AutoCAD Mechanical 2004 DX|Company: Autodesk"
 90
        0
280
     1
281
     0
  0
CLASS
  1
ACMSECTIONSTANDARDJIS
  2
AmdtSectionSymStdJIS
  3
"Amdt_StdImp|Product Description: AutoCAD Mechanical 2004 DX|Company: Autodesk"
 90
        0
280
     1
281
     0
  0
CLASS
  1
ACMCENTERLINESTANDARDJIS
  2
AmdtCenterLineStdJIS
  3
"Amdt_StdImp|Product Description: AutoCAD Mechanical 2004 DX|Company: Autodesk"
 90
        0
280
     1
281
     0
  0
CLASS
  1
ACMTHREADLINESTANDARDJIS
  2
AmdtThreadLineStdJIS
  3
"Amdt_StdImp|Product Description: AutoCAD Mechanical 2004 DX|Company: Autodesk"
 90
        0
280
     1
281
     0
  0
CLASS
  1
ACMNOTESTANDARDJIS
  2
AmdtNoteStdJIS
  3
"Amdt_StdImp|Product Description: AutoCAD Mechanical 2004 DX|Company: Autodesk"
 90
        0
280
     1
281
     0
  0
CLASS
  1
AMDTNOTETEMPLATEDB
  2
AmdtNoteTemplateDB
  3
AMDT_STDIMP_MODULE_NAME
 90
        0
280
     1
281
     0
  0
CLASS
  1
ACAMGLAYSTD
  2
AcAmgLayStd
  3
"AcAmgLayStd|Product Description: AutoCAD Mechanical 2000|Company: Autodesk"
 90
        0
280
     1
281
     0
  0
CLASS
  1
ACAMGDIMSTD
  2
AcAmgDimStd
  3
"AcAmgDimStd|Product Description: AutoCAD Mechanical 2000|Company: Autodesk"
 90
        0
280
     1
281
     0
  0
CLASS
  1
ACAMGHOLECHARTSTDJIS
  2
AcAmgHoleChartStdJIS
  3
ACMSYMBB_MODULE_NAME
 90
        0
280
     1
281
     0
  0
CLASS
  1
CATALOGSTATE
  2
AcAmCatalogState
  3
DesignerAssemblies
 90
        0
280
     1
281
     0
  0
CLASS
  1
ACAMGRCOMPDEFSET
  2
AcAmGrCompDefSet
  3
DesignerAssemblies
 90
        0
280
     1
281
     0
  0
CLASS
  1
AMDTBROWSERDBTAB
  2
AmdtBrowserDbTab
  3
McadcomServices
 90
        0
280
     1
281
     0
  0
CLASS
  1
CBROWSERAPPOBJECT
  2
CBrowserAppObject
  3
McadcomServices
 90
        0
280
     1
281
     0
  0
CLASS
  1
DM_PLACEHOLDER
  2
AcDmSelsetPlaceholder
  3
AcMechDwgViewMgmt
 90
        0
280
     1
281
     0
  0
CLASS
  1
SORTENTSTABLE
  2
AcDbSortentsTable
  3
ObjectDBX Classes
 90
        0
280
     0
281
     0
  0
CLASS
  1
ACMSTANDARDISO
  2
AcmStandardISO
  3
"Amdt_StdImp|Product Description: AutoCAD Mechanical 2004 DX|Company: Autodesk"
 90
        0
280
     1
281
     0
  0
CLASS
  1
AMDTEDGESTANDARDISO13715
  2
AmdtEdgeStdISO13715
  3
"Amdt_StdImp|Product Description: AutoCAD Mechanical 2004 DX|Company: Autodesk"
 90
        0
280
     1
281
     0
  0
CLASS
  1
ACMSURFSTANDARDISO
  2
AcmSurfTextStdISO
  3
"Amdt_StdImp|Product Description: AutoCAD Mechanical 2004 DX|Company: Autodesk"
 90
        0
280
     1
281
     0
  0
CLASS
  1
ACMFCFSTANDARDISO
  2
AcmFCFStdISO
  3
"Amdt_StdImp|Product Description: AutoCAD Mechanical 2004 DX|Company: Autodesk"
 90
        0
280
     1
281
     0
  0
CLASS
  1
ACMWELDSTANDARDISO
  2
AcmWeldingStdISO
  3
"Amdt_StdImp|Product Description: AutoCAD Mechanical 2004 DX|Company: Autodesk"
 90
        0
280
     1
281
     0
  0
CLASS
  1
ACMIDSTANDARDISO
  2
AcmIdStdISO
  3
"Amdt_StdImp|Product Description: AutoCAD Mechanical 2004 DX|Company: Autodesk"
 90
        0
280
     1
281
     0
  0
CLASS
  1
ACMDATUMSTANDARDISO
  2
AcmDatumStdISO
  3
"Amdt_StdImp|Product Description: AutoCAD Mechanical 2004 DX|Company: Autodesk"
 90
        0
280
     1
281
     0
  0
CLASS
  1
ACMBOMSTANDARDISO
  2
AcmBOMStdISO
  3
"Amdt_StdImp|Product Description: AutoCAD Mechanical 2004 DX|Company: Autodesk"
 90
        0
280
     1
281
     0
  0
CLASS
  1
ACMDETAILSTANDARDISO
  2
AmdtDetailSymStdISO
  3
"Amdt_StdImp|Product Description: AutoCAD Mechanical 2004 DX|Company: Autodesk"
 90
        0
280
     1
281
     0
  0
CLASS
  1
ACMSECTIONSTANDARDISO
  2
AmdtSectionSymStdISO
  3
"Amdt_StdImp|Product Description: AutoCAD Mechanical 2004 DX|Company: Autodesk"
 90
        0
280
     1
281
     0
  0
CLASS
  1
ACMCENTERLINESTANDARDISO
  2
AmdtCenterLineStdISO
  3
"Amdt_StdImp|Product Description: AutoCAD Mechanical 2004 DX|Company: Autodesk"
 90
        0
280
     1
281
     0
  0
CLASS
  1
ACMTHREADLINESTANDARDISO
  2
AmdtThreadLineStdISO
  3
"Amdt_StdImp|Product Description: AutoCAD Mechanical 2004 DX|Company: Autodesk"
 90
        0
280
     1
281
     0
  0
CLASS
  1
ACMNOTESTANDARDISO
  2
AmdtNoteStdISO
  3
"Amdt_StdImp|Product Description: AutoCAD Mechanical 2004 DX|Company: Autodesk"
 90
        0
280
     1
281
     0
  0
CLASS
  1
ACAMGHOLECHARTSTDISO
  2
AcAmgHoleChartStdISO
  3
ACMSYMBB_MODULE_NAME
 90
        0
280
     1
281
     0
  0
CLASS
  1
AMDTFORMULAUPDATEDISPATCHER
  2
AmdtFormulaUpdateDispatcher
  3
AcMeServices
 90
        0
280
     1
281
     0
  0
ENDSEC
  0
SECTION
  2
TABLES
  0
TABLE
  2
VPORT
  5
8
330
0
100
AcDbSymbolTable
 70
    12
  0
VPORT
  5
18DA2
330
8
100
AcDbSymbolTableRecord
100
AcDbViewportTableRecord
  2
*Active
 70
     0
 10
0.0
 20
0.0
 11
1.0
 21
1.0
 12
39.57294920800836
 22
-57.43046052734781
 13
0.0
 23
0.0
 14
2.5
 24
2.5
 15
10.0
 25
10.0
 16
0.0
 26
0.0
 36
1.0
 17
0.0
 27
0.0
 37
0.0
 40
163.6648234719752
 41
1.697058823529412
 42
50.0
 43
0.0
 44
0.0
 50
0.0
 51
0.0
 71
    16
 72
 20000
 73
     1
 74
     3
 75
     0
 76
     0
 77
     0
 78
     0
281
     0
 65
     1
110
0.0
120
0.0
130
0.0
111
1.0
121
0.0
131
0.0
112
0.0
122
1.0
132
0.0
 79
     0
146
0.0
  0
ENDTAB
  0
TABLE
  2
LTYPE
  5
5
330
0
100
AcDbSymbolTable
 70
    16
  0
LTYPE
  5
14
330
5
100
AcDbSymbolTableRecord
100
AcDbLinetypeTableRecord
  2
ByBlock
 70
     0
  3

 72
    65
 73
     0
 40
0.0
  0
LTYPE
  5
15
330
5
100
AcDbSymbolTableRecord
100
AcDbLinetypeTableRecord
  2
ByLayer
 70
     0
  3

 72
    65
 73
     0
 40
0.0
  0
LTYPE
  5
16
330
5
100
AcDbSymbolTableRecord
100
AcDbLinetypeTableRecord
  2
Continuous
 70
     0
  3
Solid line
 72
    65
 73
     0
 40
0.0
  0
LTYPE
  5
43
330
5
100
AcDbSymbolTableRecord
100
AcDbLinetypeTableRecord
  2
AM_ISO02W050
 70
     0
  3
__ __ __ __ __ __ __ __ __ __ __ __ __ __ __
 72
    65
 73
     2
 40
7.5
 49
6.0
 74
     0
 49
-1.5
 74
     0
  0
LTYPE
  5
44
330
5
100
AcDbSymbolTableRecord
100
AcDbLinetypeTableRecord
  2
AM_ISO08W050
 70
     0
  3
____ . ____ . ____ . ____ . ____ . ____ . ____
 72
    65
 73
     4
 40
18.0
 49
12.0
 74
     0
 49
-1.5
 74
     0
 49
3.0
 74
     0
 49
-1.5
 74
     0
  0
LTYPE
  5
45
330
5
100
AcDbSymbolTableRecord
100
AcDbLinetypeTableRecord
  2
AM_ISO09W050
 70
     0
  3
_____ . . _____ . . _____ . . ____ .. ____
 72
    65
 73
     6
 40
22.5
 49
12.0
 74
     0
 49
-1.5
 74
     0
 49
3.0
 74
     0
 49
-1.5
 74
     0
 49
3.0
 74
     0
 49
-1.5
 74
     0
  0
LTYPE
  5
46
330
5
100
AcDbSymbolTableRecord
100
AcDbLinetypeTableRecord
  2
Amconstr
 70
     0
  3
_______________________
 72
    65
 73
     2
 40
9999.0
 49
9999.0
 74
     0
 49
0.0
 74
     0
  0
LTYPE
  5
47
330
5
100
AcDbSymbolTableRecord
100
AcDbLinetypeTableRecord
  2
AM_ISO02W050x2
 70
     0
  3
 _ _ _ _ _ _ _ _ _ _ _ _
 72
    65
 73
     2
 40
3.75
 49
3.0
 74
     0
 49
-0.75
 74
     0
  0
LTYPE
  5
48
330
5
100
AcDbSymbolTableRecord
100
AcDbLinetypeTableRecord
  2
AM_ISO08W050x2
 70
     0
  3
__ . __ . __ . __ . __ . __
 72
    65
 73
     4
 40
9.0
 49
6.0
 74
     0
 49
-0.75
 74
     0
 49
1.5
 74
     0
 49
-0.75
 74
     0
  0
LTYPE
  5
4B
330
5
100
AcDbSymbolTableRecord
100
AcDbLinetypeTableRecord
  2
Amzigzag
 70
     0
  3
/\/-/\/-/\/-/\/-/\/-/\/
 72
    65
 73
     2
 40
11.0001
 49
0.0001
 74
     4
 75
   135
340
4A
 46
0.04
 50
0.0
 44
0.0
 45
0.0
 49
-11.0
 74
     0
  0
LTYPE
  5
188
330
5
100
AcDbSymbolTableRecord
100
AcDbLinetypeTableRecord
  2
ACJISTGB
 70
     0
  3
__ . . __ . .
 72
    65
 73
     6
 40
9.0
 49
4.0
 74
     0
 49
-1.0
 74
     0
 49
1.0
 74
     0
 49
-1.0
 74
     0
 49
1.0
 74
     0
 49
-1.0
 74
     0
  0
LTYPE
  5
189
330
5
100
AcDbSymbolTableRecord
100
AcDbLinetypeTableRecord
  2
ACJISTGL
 70
     0
  3
_ _ _ _ _
 72
    65
 73
     2
 40
3.0
 49
2.0
 74
     0
 49
-1.0
 74
     0
  0
LTYPE
  5
652
330
5
100
AcDbSymbolTableRecord
100
AcDbLinetypeTableRecord
  2
CENTER
 70
     0
  3
____ _ ____ _ ____ _ ____ _ ____ _ ____ _ ____
 72
    65
 73
     4
 40
17.5
 49
13.0
 74
     0
 49
-1.5
 74
     0
 49
1.5
 74
     0
 49
-1.5
 74
     0
  0
LTYPE
  5
12AB
330
5
100
AcDbSymbolTableRecord
100
AcDbLinetypeTableRecord
  2
HIDDEN
 70
     0
  3
Hidden __ __ __ __ __ __ __ __ __ __ __ __ __ _
 72
    65
 73
     2
 40
0.375
 49
0.25
 74
     0
 49
-0.125
 74
     0
  0
LTYPE
  5
12AC
330
5
100
AcDbSymbolTableRecord
100
AcDbLinetypeTableRecord
  2
PHANTOM2
 70
     0
  3
Phantom (.5x) ___ _ _ ___ _ _ ___ _ _ ___ _ _
 72
    65
 73
     6
 40
1.25
 49
0.625
 74
     0
 49
-0.125
 74
     0
 49
0.125
 74
     0
 49
-0.125
 74
     0
 49
0.125
 74
     0
 49
-0.125
 74
     0
  0
LTYPE
  5
F5A5
330
5
100
AcDbSymbolTableRecord
100
AcDbLinetypeTableRecord
  2
ACISOWELD
 70
     0
  3
_ _ _ _ _
 72
    65
 73
     2
 40
2.0
 49
2.0
 74
     0
 49
-1.0
 74
     0
  0
LTYPE
  5
F5A6
330
5
100
AcDbSymbolTableRecord
100
AcDbLinetypeTableRecord
  2
ACISOTGB
 70
     0
  3
__ . . __ . .
 72
    65
 73
     6
 40
9.0
 49
4.0
 74
     0
 49
-1.0
 74
     0
 49
1.0
 74
     0
 49
-1.0
 74
     0
 49
1.0
 74
     0
 49
-1.0
 74
     0
  0
LTYPE
  5
F5A7
330
5
100
AcDbSymbolTableRecord
100
AcDbLinetypeTableRecord
  2
ACISOTGL
 70
     0
  3
_ _ _ _ _
 72
    65
 73
     2
 40
3.0
 49
2.0
 74
     0
 49
-1.0
 74
     0
  0
ENDTAB
  0
TABLE
  2
LAYER
  5
2
102
{ACAD_XDICTIONARY
360
EDC8
102
}
330
0
100
AcDbSymbolTable
 70
     5
  0
LAYER
  5
10
330
2
100
AcDbSymbolTableRecord
100
AcDbLayerTableRecord
  2
0
 70
     0
 62
     7
  6
Continuous
370
    -3
390
F
  0
LAYER
  5
7D
330
2
100
AcDbSymbolTableRecord
100
AcDbLayerTableRecord
  2
AM_5
 70
     0
 62
     3
  6
Continuous
370
    13
390
F
  0
LAYER
  5
7F
330
2
100
AcDbSymbolTableRecord
100
AcDbLayerTableRecord
  2
Defpoints
 70
     0
 62
     7
  6
Continuous
290
     0
370
    -3
390
F
  0
LAYER
  5
12B1
330
2
100
AcDbSymbolTableRecord
100
AcDbLayerTableRecord
  2
AM_0
 70
     0
 62
     7
  6
Continuous
370
    30
390
F
  0
LAYER
  5
18A5
330
2
100
AcDbSymbolTableRecord
100
AcDbLayerTableRecord
  2
AM_6
 70
     0
 62
     2
  6
Continuous
370
    30
390
F
  0
ENDTAB
  0
TABLE
  2
STYLE
  5
3
330
0
100
AcDbSymbolTable
 70
     6
  0
STYLE
  5
11
330
3
100
AcDbSymbolTableRecord
100
AcDbTextStyleTableRecord
  2
STANDARD
 70
     0
 40
0.0
 41
1.0
 50
0.0
 71
     0
 42
4.0
  3
ISOCP.SHX
  4
EXTFONT.SHX
  0
STYLE
  5
4A
330
3
100
AcDbSymbolTableRecord
100
AcDbTextStyleTableRecord
  2

 70
     1
 40
0.0
 41
1.0
 50
0.0
 71
     0
 42
2.5
  3
ltypeshp.shx
  4

  0
STYLE
  5
180
330
3
100
AcDbSymbolTableRecord
100
AcDbTextStyleTableRecord
  2
ACJISTS
 70
     0
 40
1.0
 41
1.0
 50
0.0
 71
     0
 42
2.5
  3
isocp.shx
  4
bigfont.shx
  0
STYLE
  5
187
330
3
100
AcDbSymbolTableRecord
100
AcDbTextStyleTableRecord
  2
ACJISGDT
 70
     0
 40
0.0
 41
1.0
 50
0.0
 71
     0
 42
2.5
  3
amgdt.shx
  4

  0
STYLE
  5
F5A9
330
3
100
AcDbSymbolTableRecord
100
AcDbTextStyleTableRecord
  2
ACISOTS
 70
     0
 40
1.0
 41
1.0
 50
0.0
 71
     0
 42
1.0
  3
isocp.shx
  4
extfont.shx
  0
STYLE
  5
F5AA
330
3
100
AcDbSymbolTableRecord
100
AcDbTextStyleTableRecord
  2
ACISOGDT
 70
     0
 40
0.0
 41
1.0
 50
0.0
 71
     0
 42
1.0
  3
amgdt.shx
  4

  0
ENDTAB
  0
TABLE
  2
VIEW
  5
6
330
0
100
AcDbSymbolTable
 70
     6
  0
VIEW
  5
A30
330
6
100
AcDbSymbolTableRecord
100
AcDbViewTableRecord
  2
AM_VIEW1
 70
     0
 40
148.5
 10
109.5616966580977
 20
222.75
 41
219.1233933161954
 11
0.0
 21
0.0
 31
1.0
 12
0.0
 22
0.0
 32
0.0
 42
50.0
 43
0.0
 44
0.0
 50
0.0
 71
    16
281
     0
 72
     0
  0
VIEW
  5
A31
330
6
100
AcDbSymbolTableRecord
100
AcDbViewTableRecord
  2
AM_VIEW2
 70
     0
 40
148.5
 10
310.4383033419023
 20
222.75
 41
219.1233933161954
 11
0.0
 21
0.0
 31
1.0
 12
0.0
 22
0.0
 32
0.0
 42
50.0
 43
0.0
 44
0.0
 50
0.0
 71
    16
281
     0
 72
     0
  0
VIEW
  5
A32
330
6
100
AcDbSymbolTableRecord
100
AcDbViewTableRecord
  2
AM_VIEW3
 70
     0
 40
148.5
 10
109.5616966580977
 20
74.25
 41
219.1233933161954
 11
0.0
 21
0.0
 31
1.0
 12
0.0
 22
0.0
 32
0.0
 42
50.0
 43
0.0
 44
0.0
 50
0.0
 71
    16
281
     0
 72
     0
  0
VIEW
  5
A33
330
6
100
AcDbSymbolTableRecord
100
AcDbViewTableRecord
  2
AM_VIEW4
 70
     0
 40
148.5
 10
310.4383033419023
 20
74.25
 41
219.1233933161954
 11
0.0
 21
0.0
 31
1.0
 12
0.0
 22
0.0
 32
0.0
 42
50.0
 43
0.0
 44
0.0
 50
0.0
 71
    16
281
     0
 72
     0
  0
VIEW
  5
A34
330
6
100
AcDbSymbolTableRecord
100
AcDbViewTableRecord
  2
AM_VIEW5
 70
     0
 40
148.5
 10
210.0
 20
148.5
 41
219.1233933161954
 11
0.0
 21
0.0
 31
1.0
 12
0.0
 22
0.0
 32
0.0
 42
50.0
 43
0.0
 44
0.0
 50
0.0
 71
    16
281
     0
 72
     0
  0
VIEW
  5
A35
330
6
100
AcDbSymbolTableRecord
100
AcDbViewTableRecord
  2
AM_VIEW6
 70
     0
 40
296.99703
 10
210.0
 20
148.5
 41
438.2424041645245
 11
0.0
 21
0.0
 31
1.0
 12
0.0
 22
0.0
 32
0.0
 42
50.0
 43
0.0
 44
0.0
 50
0.0
 71
    16
281
     0
 72
     0
  0
ENDTAB
  0
TABLE
  2
UCS
  5
7
330
0
100
AcDbSymbolTable
 70
     0
  0
ENDTAB
  0
TABLE
  2
APPID
  5
9
330
0
100
AcDbSymbolTable
 70
    45
  0
APPID
  5
12
330
9
100
AcDbSymbolTableRecord
100
AcDbRegAppTableRecord
  2
ACAD
 70
     0
  0
APPID
  5
2C
330
9
100
AcDbSymbolTableRecord
100
AcDbRegAppTableRecord
  2
MCAD_NO_VIS
 70
     0
  0
APPID
  5
2D
330
9
100
AcDbSymbolTableRecord
100
AcDbRegAppTableRecord
  2
ACAD_TEMP_GRAPHIC
 70
     0
  0
APPID
  5
B9
330
9
100
AcDbSymbolTableRecord
100
AcDbRegAppTableRecord
  2
GENIUS_GENDTOL_13
 70
     0
  0
APPID
  5
359
330
9
100
AcDbSymbolTableRecord
100
AcDbRegAppTableRecord
  2
GENIUS_GENREC_14
 70
     0
  0
APPID
  5
35A
330
9
100
AcDbSymbolTableRecord
100
AcDbRegAppTableRecord
  2
GENIUS_GENODEF_13
 70
     0
  0
APPID
  5
35B
330
9
100
AcDbSymbolTableRecord
100
AcDbRegAppTableRecord
  2
GENIUS_GENOBJ-N-REC_13
 70
     0
  0
APPID
  5
667
330
9
100
AcDbSymbolTableRecord
100
AcDbRegAppTableRecord
  2
GENIUS_GENCFG_13
 70
     0
  0
APPID
  5
668
330
9
100
AcDbSymbolTableRecord
100
AcDbRegAppTableRecord
  2
GENIUS_GENCFG0_13
 70
     0
  0
APPID
  5
669
330
9
100
AcDbSymbolTableRecord
100
AcDbRegAppTableRecord
  2
GENIUS_GENCFG1_13
 70
     0
  0
APPID
  5
66A
330
9
100
AcDbSymbolTableRecord
100
AcDbRegAppTableRecord
  2
GENIUS_GENCFG2_13
 70
     0
  0
APPID
  5
66B
330
9
100
AcDbSymbolTableRecord
100
AcDbRegAppTableRecord
  2
GENIUS_GENCFG3_13
 70
     0
  0
APPID
  5
66C
330
9
100
AcDbSymbolTableRecord
100
AcDbRegAppTableRecord
  2
GENIUS_GENCFG4_13
 70
     0
  0
APPID
  5
A76
330
9
100
AcDbSymbolTableRecord
100
AcDbRegAppTableRecord
  2
GENIUS_GENBLLY_14
 70
     0
  0
APPID
  5
A77
330
9
100
AcDbSymbolTableRecord
100
AcDbRegAppTableRecord
  2
GENIUS_GENOBJ-N-CEN_13
 70
     0
  0
APPID
  5
A83
330
9
100
AcDbSymbolTableRecord
100
AcDbRegAppTableRecord
  2
GENIUS_GENTRA_14
 70
     0
  0
APPID
  5
A8D
330
9
100
AcDbSymbolTableRecord
100
AcDbRegAppTableRecord
  2
GENIUS_GENOBJ-N-TIT_13
 70
     0
  0
APPID
  5
A8E
330
9
100
AcDbSymbolTableRecord
100
AcDbRegAppTableRecord
  2
GENIUS_GENTITLE_13
 70
     0
  0
APPID
  5
A8F
330
9
100
AcDbSymbolTableRecord
100
AcDbRegAppTableRecord
  2
GENIUS_GENOENT_13
 70
     0
  0
APPID
  5
A90
330
9
100
AcDbSymbolTableRecord
100
AcDbRegAppTableRecord
  2
GENIUS_GENOREF_13
 70
     0
  0
APPID
  5
A91
330
9
100
AcDbSymbolTableRecord
100
AcDbRegAppTableRecord
  2
GENIUS_GENOLIS_13
 70
     0
  0
APPID
  5
A92
330
9
100
AcDbSymbolTableRecord
100
AcDbRegAppTableRecord
  2
GENIUS_GENZVEED_13
 70
     0
  0
APPID
  5
A93
330
9
100
AcDbSymbolTableRecord
100
AcDbRegAppTableRecord
  2
GENIUS_GENSCREG_15
 70
     0
  0
APPID
  5
A94
330
9
100
AcDbSymbolTableRecord
100
AcDbRegAppTableRecord
  2
GENIUS_GENOBJ-N-SDF_13
 70
     0
  0
APPID
  5
12B5
330
9
100
AcDbSymbolTableRecord
100
AcDbRegAppTableRecord
  2
GENIUS_GENOBJ-N-RSBK_13
 70
     0
  0
APPID
  5
12B6
330
9
100
AcDbSymbolTableRecord
100
AcDbRegAppTableRecord
  2
GENIUS_GENOBJ-N-LIB_13
 70
     0
  0
APPID
  5
12B7
330
9
100
AcDbSymbolTableRecord
100
AcDbRegAppTableRecord
  2
GENIUS_GENSCALE_13
 70
     0
  0
APPID
  5
12B8
330
9
100
AcDbSymbolTableRecord
100
AcDbRegAppTableRecord
  2
GENIUS_GENOBJ-N-HTC_13
 70
     0
  0
APPID
  5
12B9
330
9
100
AcDbSymbolTableRecord
100
AcDbRegAppTableRecord
  2
GENIUS_GENHATCH_13
 70
     0
  0
APPID
  5
18AA
330
9
100
AcDbSymbolTableRecord
100
AcDbRegAppTableRecord
  2
BASE_TYPE
 70
     0
  0
APPID
  5
18AB
330
9
100
AcDbSymbolTableRecord
100
AcDbRegAppTableRecord
  2
GENIUS_GENOBJ-N-FIL_13
 70
     0
  0
APPID
  5
1E91
330
9
100
AcDbSymbolTableRecord
100
AcDbRegAppTableRecord
  2
GENIUS_GENOBJ-N-CRS_13
 70
     0
  0
APPID
  5
3B24
330
9
100
AcDbSymbolTableRecord
100
AcDbRegAppTableRecord
  2
GENIUS_GENDIMSH_14
 70
     0
  0
APPID
  5
4D78
330
9
100
AcDbSymbolTableRecord
100
AcDbRegAppTableRecord
  2
GENIUS_GENOBJ-N-DIM_13
 70
     0
  0
APPID
  5
4D79
330
9
100
AcDbSymbolTableRecord
100
AcDbRegAppTableRecord
  2
GENIUS_GENDIM_13
 70
     0
  0
APPID
  5
517C
330
9
100
AcDbSymbolTableRecord
100
AcDbRegAppTableRecord
  2
GENIUS_GENFIL_13
 70
     0
  0
APPID
  5
517D
330
9
100
AcDbSymbolTableRecord
100
AcDbRegAppTableRecord
  2
GENIUS_GENOBJ-N-CHA_13
 70
     0
  0
APPID
  5
ED83
330
9
100
AcDbSymbolTableRecord
100
AcDbRegAppTableRecord
  2
AD_DRAW
 70
     0
  0
APPID
  5
ED86
330
9
100
AcDbSymbolTableRecord
100
AcDbRegAppTableRecord
  2
ACATTRIBSERVICES
 70
     0
  0
APPID
  5
EDA4
330
9
100
AcDbSymbolTableRecord
100
AcDbRegAppTableRecord
  2
DESIGNERASSEMBLIES
 70
     0
  0
APPID
  5
EDB7
330
9
100
AcDbSymbolTableRecord
100
AcDbRegAppTableRecord
  2
ACADM_DIM_EDIT
 70
     0
  0
APPID
  5
EDB8
330
9
100
AcDbSymbolTableRecord
100
AcDbRegAppTableRecord
  2
AMDT_DM_ADJ
 70
     0
  0
APPID
  5
F08C
330
9
100
AcDbSymbolTableRecord
100
AcDbRegAppTableRecord
  2
ACAD_PSEXT
 70
     0
  0
APPID
  5
F2B1
330
9
100
AcDbSymbolTableRecord
100
AcDbRegAppTableRecord
  2
GENIUS_GENCEN_19
 70
     0
  0
APPID
  5
10513
330
9
100
AcDbSymbolTableRecord
100
AcDbRegAppTableRecord
  2
ACAD_DSTYLE_DIMTEXT_FILL
 70
     0
  0
ENDTAB
  0
TABLE
  2
DIMSTYLE
  5
A
330
0
100
AcDbSymbolTable
 70
    17
100
AcDbDimStyleTable
  0
DIMSTYLE
105
58
330
A
100
AcDbSymbolTableRecord
100
AcDbDimStyleTableRecord
  2
AM_JIS
 70
     0
  4
"
 41
2.5
 42
0.0
 43
10.0
 44
1.0
 47
0.1
 48
0.1000000001
 73
     0
 74
     0
 77
     3
 78
     1
 79
     2
140
3.8
141
0.0
143
0.0393701
146
0.71
147
1.5
172
     1
176
   256
177
   256
178
     2
179
     1
271
     2
272
     2
275
     1
283
     0
284
     8
340
11
341
59
342
59
371
    -1
372
    -1
  0
DIMSTYLE
105
5F
330
A
100
AcDbSymbolTableRecord
100
AcDbDimStyleTableRecord
  2
AM_JIS$3
 70
     0
  4
"
 41
2.5
 42
0.0
 43
10.0
 44
1.0
 47
0.1
 48
0.1000000001
 73
     0
 77
     3
 78
     1
 79
     2
140
3.8
141
0.0
143
0.0393701
146
0.71
147
1.5
172
     1
176
   256
177
   256
178
     2
179
     1
271
     2
272
     2
275
     1
283
     0
284
     8
288
     1
289
     0
340
11
341
59
342
59
371
    -1
372
    -1
  0
DIMSTYLE
105
60
330
A
100
AcDbSymbolTableRecord
100
AcDbDimStyleTableRecord
  2
AM_JIS$4
 70
     0
  4
"
 41
2.5
 42
0.0
 43
10.0
 44
1.0
 47
0.1
 48
0.1000000001
 73
     0
 77
     3
 78
     1
 79
     2
140
3.8
141
0.0
143
0.0393701
146
0.71
147
1.5
172
     1
176
   256
177
   256
178
     2
179
     1
271
     2
272
     2
275
     1
283
     0
284
     8
288
     1
289
     0
340
11
341
59
342
59
371
    -1
372
    -1
  0
DIMSTYLE
105
61
330
A
100
AcDbSymbolTableRecord
100
AcDbDimStyleTableRecord
  2
AM_JIS$6
 70
     0
  4
"
 41
2.5
 42
0.0
 43
10.0
 44
1.0
 47
0.1
 48
0.1000000001
 73
     0
 74
     0
 78
     1
 79
     2
140
3.8
141
0.0
143
0.0393701
146
0.71
147
1.5
172
     1
176
   256
177
   256
178
     2
179
     1
271
     2
272
     2
275
     1
283
     0
284
     8
340
11
341
59
342
59
371
    -1
372
    -1
  0
DIMSTYLE
105
62
330
A
100
AcDbSymbolTableRecord
100
AcDbDimStyleTableRecord
  2
AM_JIS$7
 70
     0
  4
"
 41
2.5
 42
0.0
 43
10.0
 44
1.0
 47
0.1
 48
0.1000000001
 73
     0
 74
     0
 77
     3
 78
     1
 79
     2
140
5.0
141
0.0
143
0.0393701
146
0.71
147
1.5
172
     1
176
   256
177
   256
178
     2
179
     1
271
     2
272
     2
275
     1
283
     0
284
     8
340
11
341
59
342
59
371
    -1
372
    -1
  0
DIMSTYLE
105
63
330
A
100
AcDbSymbolTableRecord
100
AcDbDimStyleTableRecord
  2
AM_JIS$SF
 70
     0
  4
"
 41
2.5
 42
1.0
 43
10.0
 44
1.0
 47
0.1
 48
0.1
 73
     0
 74
     0
 75
     1
 76
     1
 77
     3
 78
     8
 79
     2
140
3.5
141
0.0
143
0.0393701
146
0.71
147
1.5
176
   256
177
   256
178
     2
271
     2
272
     3
274
     4
340
11
341
59
342
59
343
59
344
59
371
    -1
372
    -1
  0
DIMSTYLE
105
68
330
A
100
AcDbSymbolTableRecord
100
AcDbDimStyleTableRecord
  2
AM_JIS$SH
 70
     0
  4
"
 41
2.5
 42
1.0
 43
10.0
 44
1.0
 47
0.1
 48
0.1
 73
     0
 74
     0
 75
     1
 76
     1
 77
     3
 78
     8
 79
     2
140
3.5
141
0.0
143
0.0393701
144
2.0
146
0.71
147
1.5
173
     1
176
   256
177
   256
178
     2
271
     2
272
     3
274
     4
340
11
341
59
342
59
343
64
344
59
371
    -1
372
    -1
  0
DIMSTYLE
105
65F
330
A
100
AcDbSymbolTableRecord
100
AcDbDimStyleTableRecord
  2
STANDARD
 70
     0
340
11
  0
DIMSTYLE
105
18A8
102
{ACAD_REACTORS
330
16AEF
330
16B57
330
16B79
330
16BC3
330
16D0E
330
16E7F
330
16EB1
102
}
330
A
100
AcDbSymbolTableRecord
100
AcDbDimStyleTableRecord
  2
AM_JIS$0
 70
     0
  4
"
 41
2.5
 42
0.0
 43
10.0
 44
1.0
 47
0.1
 48
0.1000000001
 73
     0
 74
     0
 77
     3
 78
     1
 79
     2
140
3.8
141
0.0
143
0.0393701
146
0.71
147
1.5
172
     1
176
     3
177
     3
178
     2
271
     2
272
     2
275
     1
283
     0
284
     8
289
     0
340
11
341
59
342
59
371
    13
372
    13
  0
DIMSTYLE
105
18A9
102
{ACAD_REACTORS
330
18351
102
}
330
A
100
AcDbSymbolTableRecord
100
AcDbDimStyleTableRecord
  2
AM_JIS$2
 70
     0
  4
"
 41
2.5
 42
0.0
 43
10.0
 44
1.0
 47
0.1
 48
0.1000000001
 73
     0
 74
     0
 77
     3
 78
     1
 79
     2
140
3.8
141
0.0
143
0.0393701
146
0.71
147
1.5
172
     1
176
     3
177
     3
178
     2
271
     2
272
     2
275
     1
283
     0
284
     8
289
     0
340
11
341
59
342
59
371
    13
372
    13
  0
DIMSTYLE
105
F5AE
330
A
100
AcDbSymbolTableRecord
100
AcDbDimStyleTableRecord
  2
AM_ISO
 70
     0
  4
"
 41
2.5
 42
1.0
 43
10.0
 44
1.0
 47
0.1
 48
0.1
 73
     0
 74
     0
 77
     1
 78
     8
 79
     2
140
3.5
141
0.0
143
0.0393701
146
0.71
147
1.5
172
     1
176
   256
177
   256
178
     2
271
     2
272
     3
274
     4
283
     0
284
     8
340
11
371
    -1
372
    -1
  0
DIMSTYLE
105
F5AF
330
A
100
AcDbSymbolTableRecord
100
AcDbDimStyleTableRecord
  2
AM_ISO$3
 70
     0
  4
"
 41
2.5
 42
1.0
 43
10.0
 44
1.0
 47
0.1
 48
0.1
 73
     0
 77
     1
 78
     8
 79
     2
140
3.5
141
0.0
143
0.0393701
146
0.71
147
1.5
176
   256
177
   256
178
     2
271
     2
272
     3
274
     4
283
     0
284
     8
288
     1
289
     0
340
11
371
    -1
372
    -1
  0
DIMSTYLE
105
F5B0
330
A
100
AcDbSymbolTableRecord
100
AcDbDimStyleTableRecord
  2
AM_ISO$4
 70
     0
  4
"
 41
2.5
 42
1.0
 43
10.0
 44
1.0
 47
0.1
 48
0.1
 73
     0
 77
     1
 78
     8
 79
     2
140
3.5
141
0.0
143
0.0393701
146
0.71
147
1.5
176
   256
177
   256
178
     2
271
     2
272
     3
274
     4
283
     0
284
     8
288
     1
289
     0
340
11
371
    -1
372
    -1
  0
DIMSTYLE
105
F5B1
330
A
100
AcDbSymbolTableRecord
100
AcDbDimStyleTableRecord
  2
AM_ISO$6
 70
     0
  4
"
 41
2.5
 42
1.0
 43
10.0
 44
1.0
 47
0.1
 48
0.1
 73
     0
 74
     0
 78
     8
 79
     2
140
3.5
141
0.0
143
0.0393701
146
0.71
147
1.5
172
     1
176
   256
177
   256
178
     2
271
     2
272
     3
274
     4
283
     0
284
     8
340
11
371
    -1
372
    -1
  0
DIMSTYLE
105
F5B2
330
A
100
AcDbSymbolTableRecord
100
AcDbDimStyleTableRecord
  2
AM_ISO$7
 70
     0
  4
"
 41
2.5
 42
1.0
 43
10.0
 44
1.0
 47
0.1
 48
0.1
 73
     0
 74
     0
 77
     1
 78
     8
 79
     2
140
5.0
141
0.0
143
0.0393701
146
0.71
147
1.5
172
     1
176
   256
177
   256
178
     2
271
     2
272
     3
274
     4
283
     0
284
     8
340
11
371
    -1
372
    -1
  0
DIMSTYLE
105
F5B3
330
A
100
AcDbSymbolTableRecord
100
AcDbDimStyleTableRecord
  2
AM_ISO$SF
 70
     0
  4
"
 41
2.5
 42
1.0
 43
10.0
 44
1.0
 47
0.1
 48
0.1
 73
     0
 74
     0
 75
     1
 76
     1
 77
     1
 78
     8
 79
     2
140
3.5
141
0.0
143
0.0393701
146
0.71
147
1.5
172
     1
176
   256
177
   256
178
     2
271
     2
272
     3
274
     4
283
     0
284
     8
340
11
371
    -1
372
    -1
  0
DIMSTYLE
105
F5B4
330
A
100
AcDbSymbolTableRecord
100
AcDbDimStyleTableRecord
  2
AM_ISO$SH
 70
     0
  4
"
 41
2.5
 42
1.0
 43
10.0
 44
1.0
 47
0.1
 48
0.1
 73
     0
 74
     0
 75
     1
 76
     1
 77
     1
 78
     8
 79
     2
140
3.5
141
0.0
143
0.0393701
144
2.0
146
0.71
147
1.5
172
     1
173
     1
176
   256
177
   256
178
     2
271
     2
272
     3
274
     4
283
     0
284
     8
340
11
343
64
371
    -1
372
    -1
  0
ENDTAB
  0
TABLE
  2
BLOCK_RECORD
  5
1
330
0
100
AcDbSymbolTable
 70
    12
  0
BLOCK_RECORD
  5
1F
102
{ACAD_XDICTIONARY
360
165
102
}
330
1
100
AcDbSymbolTableRecord
100
AcDbBlockTableRecord
  2
*Model_Space
340
22
  0
BLOCK_RECORD
  5
1B
330
1
100
AcDbSymbolTableRecord
100
AcDbBlockTableRecord
  2
*Paper_Space
340
1E
  0
BLOCK_RECORD
  5
23
330
1
100
AcDbSymbolTableRecord
100
AcDbBlockTableRecord
  2
*Paper_Space0
340
26
  0
BLOCK_RECORD
  5
59
330
1
100
AcDbSymbolTableRecord
100
AcDbBlockTableRecord
  2
_Open30
340
0
102
{BLKREFS
331
18CF1
331
18CF2
331
18CFA
331
18CFB
331
18D03
331
18D04
331
18D0C
331
18D0D
331
18D99
331
18D9A
331
18D1E
331
18D1F
331
18D27
331
18D28
331
18D30
331
18D31
102
}
  0
BLOCK_RECORD
  5
64
330
1
100
AcDbSymbolTableRecord
100
AcDbBlockTableRecord
  2
GENAXEH
340
0
  0
BLOCK_RECORD
  5
ED9B
330
1
100
AcDbSymbolTableRecord
100
AcDbBlockTableRecord
  2
*U3
340
0
  0
BLOCK_RECORD
  5
16AF0
330
1
100
AcDbSymbolTableRecord
100
AcDbBlockTableRecord
  2
*D4
340
0
  0
BLOCK_RECORD
  5
16B58
330
1
100
AcDbSymbolTableRecord
100
AcDbBlockTableRecord
  2
*D5
340
0
  0
BLOCK_RECORD
  5
16B7A
330
1
100
AcDbSymbolTableRecord
100
AcDbBlockTableRecord
  2
*D6
340
0
  0
BLOCK_RECORD
  5
16BC4
330
1
100
AcDbSymbolTableRecord
100
AcDbBlockTableRecord
  2
*D7
340
0
  0
BLOCK_RECORD
  5
16D0F
330
1
100
AcDbSymbolTableRecord
100
AcDbBlockTableRecord
  2
*D8
340
0
  0
BLOCK_RECORD
  5
16E80
330
1
100
AcDbSymbolTableRecord
100
AcDbBlockTableRecord
  2
*D9
340
0
  0
BLOCK_RECORD
  5
16EB2
330
1
100
AcDbSymbolTableRecord
100
AcDbBlockTableRecord
  2
*D10
340
0
  0
BLOCK_RECORD
  5
18352
330
1
100
AcDbSymbolTableRecord
100
AcDbBlockTableRecord
  2
*D11
340
0
  0
ENDTAB
  0
ENDSEC
  0
SECTION
  2
BLOCKS
  0
BLOCK
  5
20
330
1F
100
AcDbEntity
  8
0
100
AcDbBlockBegin
  2
*Model_Space
 70
     0
 71
     0
 10
0.0
 20
0.0
 30
0.0
  3
*Model_Space
  1

  0
ENDBLK
  5
21
330
1F
100
AcDbEntity
  8
0
100
AcDbBlockEnd
  0
BLOCK
  5
1C
330
1B
100
AcDbEntity
 67
     1
  8
0
100
AcDbBlockBegin
  2
*Paper_Space
 70
     0
 71
     0
 10
0.0
 20
0.0
 30
0.0
  3
*Paper_Space
  1

  0
ENDBLK
  5
1D
330
1B
100
AcDbEntity
 67
     1
  8
0
100
AcDbBlockEnd
  0
BLOCK
  5
24
330
23
100
AcDbEntity
  8
0
100
AcDbBlockBegin
  2
*Paper_Space0
 70
     0
 71
     0
 10
0.0
 20
0.0
 30
0.0
  3
*Paper_Space0
  1

  0
ENDBLK
  5
25
330
23
100
AcDbEntity
  8
0
100
AcDbBlockEnd
  0
BLOCK
  5
5D
330
59
100
AcDbEntity
  8
0
100
AcDbBlockBegin
  2
_Open30
 70
     0
 71
     0
 10
0.0
 20
0.0
 30
0.0
  3
_Open30
  1

  0
LINE
  5
5A
330
59
100
AcDbEntity
  8
0
 62
     0
370
    -2
100
AcDbLine
 10
-1.0
 20
0.26794919
 30
0.0
 11
0.0
 21
0.0
 31
0.0
  0
LINE
  5
5B
330
59
100
AcDbEntity
  8
0
 62
     0
370
    -2
100
AcDbLine
 10
0.0
 20
0.0
 30
0.0
 11
-1.0
 21
-0.26794919
 31
0.0
  0
LINE
  5
5C
330
59
100
AcDbEntity
  8
0
 62
     0
370
    -2
100
AcDbLine
 10
0.0
 20
0.0
 30
0.0
 11
-1.0
 21
0.0
 31
0.0
  0
ENDBLK
  5
5E
330
59
100
AcDbEntity
  8
0
100
AcDbBlockEnd
  0
BLOCK
  5
66
330
64
100
AcDbEntity
  8
0
100
AcDbBlockBegin
  2
GENAXEH
 70
     0
 71
     0
 10
0.0
 20
0.0
 30
0.0
  3
GENAXEH
  1

  0
LINE
  5
65
330
64
100
AcDbEntity
  8
0
100
AcDbLine
 10
-1.0
 20
0.0
 30
0.0
 11
1.0
 21
0.0
 31
0.0
  0
ENDBLK
  5
67
330
64
100
AcDbEntity
  8
0
100
AcDbBlockEnd
  0
BLOCK
  5
ED9C
330
ED9B
100
AcDbEntity
  8
0
100
AcDbBlockBegin
  2
*U3
 70
     1
 71
     0
 10
0.0
 20
0.0
 30
0.0
  3
*U3
  1

  0
ENDBLK
  5
ED9D
330
ED9B
100
AcDbEntity
  8
0
100
AcDbBlockEnd
  0
BLOCK
  5
16B28
330
16AF0
100
AcDbEntity
  8
0
100
AcDbBlockBegin
  2
*D4
 70
     1
 71
     0
 10
0.0
 20
0.0
 30
0.0
  3
*D4
  1

  0
LINE
  5
18CEE
330
16AF0
100
AcDbEntity
  8
AM_5
 62
     3
370
    13
100
AcDbLine
 10
8.320758334210183
 20
-11.12590015018725
 30
0.0
 11
8.320758334210181
 21
-47.2037502367466
 31
0.0
  0
LINE
  5
18CEF
330
16AF0
100
AcDbEntity
  8
AM_5
 62
     3
370
    13
100
AcDbLine
 10
158.3207583342102
 20
-1.320758334210382
 30
0.0
 11
158.3207583342102
 21
-47.2037502367466
 31
0.0
  0
LINE
  5
18CF0
330
16AF0
100
AcDbEntity
  8
AM_5
 62
     3
370
    13
100
AcDbLine
 10
10.82075833421018
 20
-46.2037502367466
 30
0.0
 11
155.8207583342102
 21
-46.2037502367466
 31
0.0
  0
INSERT
  5
18CF1
330
16AF0
100
AcDbEntity
  8
AM_5
 62
     3
370
    13
100
AcDbBlockReference
  2
_Open30
 10
8.320758334210181
 20
-46.2037502367466
 30
0.0
 41
2.5
 42
2.5
 43
2.5
 50
180.0
  0
INSERT
  5
18CF2
330
16AF0
100
AcDbEntity
  8
AM_5
 62
     3
370
    13
100
AcDbBlockReference
  2
_Open30
 10
158.3207583342102
 20
-46.2037502367466
 30
0.0
 41
2.5
 42
2.5
 43
2.5
  0
MTEXT
  5
18CF3
330
16AF0
100
AcDbEntity
  8
AM_5
 62
     2
370
    13
100
AcDbMText
 10
80.25004772165624
 20
-42.8037502367466
 30
0.0
 40
3.8
 41
0.0
 71
     5
 72
     1
  1
150
 73
     1
 44
1.0
  0
POINT
  5
18CF4
330
16AF0
100
AcDbEntity
  8
Defpoints
 62
     0
100
AcDbPoint
 10
8.320758334210183
 20
-11.12590015018725
 30
0.0
  0
POINT
  5
18CF5
330
16AF0
100
AcDbEntity
  8
Defpoints
 62
     0
100
AcDbPoint
 10
158.3207583342102
 20
-1.320758334210382
 30
0.0
  0
POINT
  5
18CF6
330
16AF0
100
AcDbEntity
  8
Defpoints
 62
     0
100
AcDbPoint
 10
158.3207583342102
 20
-46.2037502367466
 30
0.0
  0
ENDBLK
  5
16B29
330
16AF0
100
AcDbEntity
  8
0
100
AcDbBlockEnd
  0
BLOCK
  5
16B90
330
16B58
100
AcDbEntity
  8
0
100
AcDbBlockBegin
  2
*D5
 70
     1
 71
     0
 10
0.0
 20
0.0
 30
0.0
  3
*D5
  1

  0
LINE
  5
18CF7
330
16B58
100
AcDbEntity
  8
AM_5
 62
     3
370
    13
100
AcDbLine
 10
158.3207583342102
 20
23.67924166578962
 30
0.0
 11
174.5356000223305
 21
23.67924166578962
 31
0.0
  0
LINE
  5
18CF8
330
16B58
100
AcDbEntity
  8
AM_5
 62
     3
370
    13
100
AcDbLine
 10
158.3207583342102
 20
-1.320758334210382
 30
0.0
 11
174.5356000223305
 21
-1.320758334210386
 31
0.0
  0
LINE
  5
18CF9
330
16B58
100
AcDbEntity
  8
AM_5
 62
     3
370
    13
100
AcDbLine
 10
173.5356000223305
 20
21.17924166578962
 30
0.0
 11
173.5356000223305
 21
1.179241665789614
 31
0.0
  0
INSERT
  5
18CFA
330
16B58
100
AcDbEntity
  8
AM_5
 62
     3
370
    13
100
AcDbBlockReference
  2
_Open30
 10
173.5356000223305
 20
23.67924166578962
 30
0.0
 41
2.5
 42
2.5
 43
2.5
 50
90.0
  0
INSERT
  5
18CFB
330
16B58
100
AcDbEntity
  8
AM_5
 62
     3
370
    13
100
AcDbBlockReference
  2
_Open30
 10
173.5356000223305
 20
-1.320758334210386
 30
0.0
 41
2.5
 42
2.5
 43
2.5
 50
270.0
  0
MTEXT
  5
18CFC
330
16B58
100
AcDbEntity
  8
AM_5
 62
     2
370
    13
100
AcDbMText
 10
170.1352260065824
 20
10.74211507342295
 30
0.0
 40
3.8
 41
0.0
 71
     5
 72
     1
  1
25
 11
6.123031769111886E-17
 21
1.0
 31
0.0
 73
     1
 44
1.0
  0
POINT
  5
18CFD
330
16B58
100
AcDbEntity
  8
Defpoints
 62
     0
100
AcDbPoint
 10
158.3207583342102
 20
23.67924166578962
 30
0.0
  0
POINT
  5
18CFE
330
16B58
100
AcDbEntity
  8
Defpoints
 62
     0
100
AcDbPoint
 10
158.3207583342102
 20
-1.320758334210382
 30
0.0
  0
POINT
  5
18CFF
330
16B58
100
AcDbEntity
  8
Defpoints
 62
     0
100
AcDbPoint
 10
173.5356000223305
 20
-1.320758334210386
 30
0.0
  0
ENDBLK
  5
16B91
330
16B58
100
AcDbEntity
  8
0
100
AcDbBlockEnd
  0
BLOCK
  5
16B92
330
16B7A
100
AcDbEntity
  8
0
100
AcDbBlockBegin
  2
*D6
 70
     1
 71
     0
 10
0.0
 20
0.0
 30
0.0
  3
*D6
  1

  0
LINE
  5
18D00
330
16B7A
100
AcDbEntity
  8
AM_5
 62
     3
370
    13
100
AcDbLine
 10
158.3207583342102
 20
-94.56506978755357
 30
0.0
 11
175.0436369065214
 21
-94.56506978755358
 31
0.0
  0
LINE
  5
18D01
330
16B7A
100
AcDbEntity
  8
AM_5
 62
     3
370
    13
100
AcDbLine
 10
158.3207583342102
 20
-119.5650697875536
 30
0.0
 11
175.0436369065214
 21
-119.5650697875536
 31
0.0
  0
LINE
  5
18D02
330
16B7A
100
AcDbEntity
  8
AM_5
 62
     3
370
    13
100
AcDbLine
 10
174.0436369065214
 20
-97.06506978755358
 30
0.0
 11
174.0436369065214
 21
-117.0650697875536
 31
0.0
  0
INSERT
  5
18D03
330
16B7A
100
AcDbEntity
  8
AM_5
 62
     3
370
    13
100
AcDbBlockReference
  2
_Open30
 10
174.0436369065214
 20
-94.56506978755358
 30
0.0
 41
2.5
 42
2.5
 43
2.5
 50
90.0
  0
INSERT
  5
18D04
330
16B7A
100
AcDbEntity
  8
AM_5
 62
     3
370
    13
100
AcDbBlockReference
  2
_Open30
 10
174.0436369065214
 20
-119.5650697875536
 30
0.0
 41
2.5
 42
2.5
 43
2.5
 50
270.0
  0
MTEXT
  5
18D05
330
16B7A
100
AcDbEntity
  8
AM_5
 62
     2
370
    13
100
AcDbMText
 10
170.6432628907733
 20
-107.1684399631586
 30
0.0
 40
3.8
 41
0.0
 71
     5
 72
     1
  1
25
 11
6.123031769111886E-17
 21
1.0
 31
0.0
 73
     1
 44
1.0
  0
POINT
  5
18D06
330
16B7A
100
AcDbEntity
  8
Defpoints
 62
     0
100
AcDbPoint
 10
158.3207583342102
 20
-94.56506978755357
 30
0.0
  0
POINT
  5
18D07
330
16B7A
100
AcDbEntity
  8
Defpoints
 62
     0
100
AcDbPoint
 10
158.3207583342102
 20
-119.5650697875536
 30
0.0
  0
POINT
  5
18D08
330
16B7A
100
AcDbEntity
  8
Defpoints
 62
     0
100
AcDbPoint
 10
174.0436369065214
 20
-119.5650697875536
 30
0.0
  0
ENDBLK
  5
16B93
330
16B7A
100
AcDbEntity
  8
0
100
AcDbBlockEnd
  0
BLOCK
  5
16BEC
330
16BC4
100
AcDbEntity
  8
0
100
AcDbBlockBegin
  2
*D7
 70
     1
 71
     0
 10
0.0
 20
0.0
 30
0.0
  3
*D7
  1

  0
LINE
  5
18D09
330
16BC4
100
AcDbEntity
  8
AM_5
 62
     3
370
    13
100
AcDbLine
 10
0.0
 20
-3.265822543979454
 30
0.0
 11
-0.0000000000000034
 21
-58.11883450668699
 31
0.0
  0
LINE
  5
18D0A
330
16BC4
100
AcDbEntity
  8
AM_5
 62
     3
370
    13
100
AcDbLine
 10
158.3207583342102
 20
-1.320758334210382
 30
0.0
 11
158.3207583342102
 21
-58.11883450668699
 31
0.0
  0
LINE
  5
18D0B
330
16BC4
100
AcDbEntity
  8
AM_5
 62
     3
370
    13
100
AcDbLine
 10
2.499999999999997
 20
-57.11883450668699
 30
0.0
 11
155.8207583342102
 21
-57.11883450668699
 31
0.0
  0
INSERT
  5
18D0C
330
16BC4
100
AcDbEntity
  8
AM_5
 62
     3
370
    13
100
AcDbBlockReference
  2
_Open30
 10
-0.0000000000000033
 20
-57.11883450668699
 30
0.0
 41
2.5
 42
2.5
 43
2.5
 50
180.0
  0
INSERT
  5
18D0D
330
16BC4
100
AcDbEntity
  8
AM_5
 62
     3
370
    13
100
AcDbBlockReference
  2
_Open30
 10
158.3207583342102
 20
-57.11883450668699
 30
0.0
 41
2.5
 42
2.5
 43
2.5
  0
MTEXT
  5
18D0E
330
16BC4
100
AcDbEntity
  8
AM_5
 62
     2
370
    13
100
AcDbMText
 10
80.65449442204789
 20
-53.718834506687
 30
0.0
 40
3.8
 41
0.0
 71
     5
 72
     1
  1
158.3
 73
     1
 44
1.0
  0
POINT
  5
18D0F
330
16BC4
100
AcDbEntity
  8
Defpoints
 62
     0
100
AcDbPoint
 10
0.0
 20
-3.265822543979454
 30
0.0
  0
POINT
  5
18D10
330
16BC4
100
AcDbEntity
  8
Defpoints
 62
     0
100
AcDbPoint
 10
158.3207583342102
 20
-1.320758334210382
 30
0.0
  0
POINT
  5
18D11
330
16BC4
100
AcDbEntity
  8
Defpoints
 62
     0
100
AcDbPoint
 10
158.3207583342102
 20
-57.11883450668699
 30
0.0
  0
ENDBLK
  5
16BED
330
16BC4
100
AcDbEntity
  8
0
100
AcDbBlockEnd
  0
BLOCK
  5
16D30
330
16D0F
100
AcDbEntity
  8
0
100
AcDbBlockBegin
  2
*D8
 70
     1
 71
     0
 10
0.0
 20
0.0
 30
0.0
  3
*D8
  1

  0
LINE
  5
18D96
330
16D0F
100
AcDbEntity
  8
AM_5
 62
     3
370
    13
100
AcDbLine
 10
23.64451047296205
 20
23.67924166578962
 30
0.0
 11
-15.64595516490073
 21
23.67924166578963
 31
0.0
  0
LINE
  5
18D97
330
16D0F
100
AcDbEntity
  8
AM_5
 62
     3
370
    13
100
AcDbLine
 10
6.049734622136839
 20
-8.320758334210296
 30
0.0
 11
-15.64595516490073
 21
-8.320758334210289
 31
0.0
  0
LINE
  5
18D98
330
16D0F
100
AcDbEntity
  8
AM_5
 62
     3
370
    13
100
AcDbLine
 10
-14.64595516490072
 20
21.17924166578963
 30
0.0
 11
-14.64595516490073
 21
-5.820758334210289
 31
0.0
  0
INSERT
  5
18D99
330
16D0F
100
AcDbEntity
  8
AM_5
 62
     3
370
    13
100
AcDbBlockReference
  2
_Open30
 10
-14.64595516490072
 20
23.67924166578963
 30
0.0
 41
2.5
 42
2.5
 43
2.5
 50
90.0
  0
INSERT
  5
18D9A
330
16D0F
100
AcDbEntity
  8
AM_5
 62
     3
370
    13
100
AcDbBlockReference
  2
_Open30
 10
-14.64595516490073
 20
-8.320758334210289
 30
0.0
 41
2.5
 42
2.5
 43
2.5
 50
270.0
  0
MTEXT
  5
18D9B
330
16D0F
100
AcDbEntity
  8
AM_5
 62
     2
370
    13
100
AcDbMText
 10
-18.04632918064876
 20
8.80031024433481
 30
0.0
 40
3.8
 41
0.0
 71
     5
 72
     1
  1
{32
 11
6.123031769111886E-17
 21
1.0
 31
0.0
 73
     1
 44
1.0
  0
POINT
  5
18D9C
330
16D0F
100
AcDbEntity
  8
Defpoints
 62
     0
100
AcDbPoint
 10
23.64451047296205
 20
23.67924166578962
 30
0.0
  0
POINT
  5
18D9D
330
16D0F
100
AcDbEntity
  8
Defpoints
 62
     0
100
AcDbPoint
 10
6.049734622136839
 20
-8.320758334210296
 30
0.0
  0
POINT
  5
18D9E
330
16D0F
100
AcDbEntity
  8
Defpoints
 62
     0
100
AcDbPoint
 10
-14.64595516490073
 20
-8.320758334210289
 30
0.0
  0
ENDBLK
  5
16D31
330
16D0F
100
AcDbEntity
  8
0
100
AcDbBlockEnd
  0
BLOCK
  5
16E96
330
16E80
100
AcDbEntity
  8
0
100
AcDbBlockBegin
  2
*D9
 70
     1
 71
     0
 10
0.0
 20
0.0
 30
0.0
  3
*D9
  1

  0
LINE
  5
18D1B
330
16E80
100
AcDbEntity
  8
AM_5
 62
     3
370
    13
100
AcDbLine
 10
8.320758334210154
 20
-94.56506978755354
 30
0.0
 11
8.320758334210156
 21
-73.3066132390361
 31
0.0
  0
LINE
  5
18D1C
330
16E80
100
AcDbEntity
  8
AM_5
 62
     3
370
    13
100
AcDbLine
 10
38.32075833421024
 20
-94.56506978755357
 30
0.0
 11
38.32075833421024
 21
-73.3066132390361
 31
0.0
  0
LINE
  5
18D1D
330
16E80
100
AcDbEntity
  8
AM_5
 62
     3
370
    13
100
AcDbLine
 10
10.82075833421016
 20
-74.3066132390361
 30
0.0
 11
35.82075833421024
 21
-74.3066132390361
 31
0.0
  0
INSERT
  5
18D1E
330
16E80
100
AcDbEntity
  8
AM_5
 62
     3
370
    13
100
AcDbBlockReference
  2
_Open30
 10
8.320758334210156
 20
-74.3066132390361
 30
0.0
 41
2.5
 42
2.5
 43
2.5
 50
180.0
  0
INSERT
  5
18D1F
330
16E80
100
AcDbEntity
  8
AM_5
 62
     3
370
    13
100
AcDbBlockReference
  2
_Open30
 10
38.32075833421024
 20
-74.3066132390361
 30
0.0
 41
2.5
 42
2.5
 43
2.5
  0
MTEXT
  5
18D20
330
16E80
100
AcDbEntity
  8
AM_5
 62
     2
370
    13
100
AcDbMText
 10
23.21341983346423
 20
-70.90661323903609
 30
0.0
 40
3.8
 41
0.0
 71
     5
 72
     1
  1
30
 73
     1
 44
1.0
  0
POINT
  5
18D21
330
16E80
100
AcDbEntity
  8
Defpoints
 62
     0
100
AcDbPoint
 10
8.320758334210154
 20
-94.56506978755354
 30
0.0
  0
POINT
  5
18D22
330
16E80
100
AcDbEntity
  8
Defpoints
 62
     0
100
AcDbPoint
 10
38.32075833421024
 20
-94.56506978755357
 30
0.0
  0
POINT
  5
18D23
330
16E80
100
AcDbEntity
  8
Defpoints
 62
     0
100
AcDbPoint
 10
38.32075833421024
 20
-74.3066132390361
 30
0.0
  0
ENDBLK
  5
16E97
330
16E80
100
AcDbEntity
  8
0
100
AcDbBlockEnd
  0
BLOCK
  5
16EC8
330
16EB2
100
AcDbEntity
  8
0
100
AcDbBlockBegin
  2
*D10
 70
     1
 71
     0
 10
0.0
 20
0.0
 30
0.0
  3
*D10
  1

  0
LINE
  5
18D24
330
16EB2
100
AcDbEntity
  8
AM_5
 62
     3
370
    13
100
AcDbLine
 10
0.2359365315198261
 20
-94.56506978755357
 30
0.0
 11
-14.89519632307209
 21
-94.56506978755357
 31
0.0
  0
LINE
  5
18D25
330
16EB2
100
AcDbEntity
  8
AM_5
 62
     3
370
    13
100
AcDbLine
 10
1.312806769670544
 20
-119.5650697875536
 30
0.0
 11
-14.89519632307209
 21
-119.5650697875536
 31
0.0
  0
LINE
  5
18D26
330
16EB2
100
AcDbEntity
  8
AM_5
 62
     3
370
    13
100
AcDbLine
 10
-13.89519632307209
 20
-97.06506978755357
 30
0.0
 11
-13.89519632307209
 21
-117.0650697875536
 31
0.0
  0
INSERT
  5
18D27
330
16EB2
100
AcDbEntity
  8
AM_5
 62
     3
370
    13
100
AcDbBlockReference
  2
_Open30
 10
-13.89519632307209
 20
-94.56506978755357
 30
0.0
 41
2.5
 42
2.5
 43
2.5
 50
90.0
  0
INSERT
  5
18D28
330
16EB2
100
AcDbEntity
  8
AM_5
 62
     3
370
    13
100
AcDbBlockReference
  2
_Open30
 10
-13.89519632307209
 20
-119.5650697875536
 30
0.0
 41
2.5
 42
2.5
 43
2.5
 50
270.0
  0
MTEXT
  5
18D29
330
16EB2
100
AcDbEntity
  8
AM_5
 62
     2
370
    13
100
AcDbMText
 10
-17.2955703388201
 20
-106.9148081368757
 30
0.0
 40
3.8
 41
0.0
 71
     5
 72
     1
  1
25
 11
6.123031769111886E-17
 21
1.0
 31
0.0
 73
     1
 44
1.0
  0
POINT
  5
18D2A
330
16EB2
100
AcDbEntity
  8
Defpoints
 62
     0
100
AcDbPoint
 10
0.2359365315198261
 20
-94.56506978755357
 30
0.0
  0
POINT
  5
18D2B
330
16EB2
100
AcDbEntity
  8
Defpoints
 62
     0
100
AcDbPoint
 10
1.312806769670544
 20
-119.5650697875536
 30
0.0
  0
POINT
  5
18D2C
330
16EB2
100
AcDbEntity
  8
Defpoints
 62
     0
100
AcDbPoint
 10
-13.89519632307209
 20
-119.5650697875536
 30
0.0
  0
ENDBLK
  5
16EC9
330
16EB2
100
AcDbEntity
  8
0
100
AcDbBlockEnd
  0
BLOCK
  5
1837F
330
18352
100
AcDbEntity
  8
0
100
AcDbBlockBegin
  2
*D11
 70
     1
 71
     0
 10
0.0
 20
0.0
 30
0.0
  3
*D11
  1

  0
LINE
  5
18D2D
330
18352
100
AcDbEntity
  8
AM_5
 62
     3
370
    13
100
AcDbLine
 10
8.320758334210185
 20
-10.87590015018725
 30
0.0
 11
8.320758334210177
 21
-36.5808115789512
 31
0.0
  0
LINE
  5
18D2E
330
18352
100
AcDbEntity
  8
AM_5
 62
     3
370
    13
100
AcDbLine
 10
8.320758334210183
 20
-8.320758334210241
 30
0.0
 11
28.30363362025934
 21
-28.30363362025955
 31
0.0
  0
ARC
  5
18D2F
330
18352
100
AcDbEntity
  8
AM_5
 62
     3
370
    13
100
AcDbCircle
 10
8.320758334210183
 20
-8.320758334210241
 30
0.0
 40
27.26005324474096
100
AcDbArc
 50
275.25639814718
 51
309.7436018528198
  0
INSERT
  5
18D30
330
18352
100
AcDbEntity
  8
AM_5
 62
     3
370
    13
100
AcDbBlockReference
  2
_Open30
 10
8.320758334210176
 20
-35.5808115789512
 30
0.0
 41
2.5
 42
2.5
 43
2.5
 50
182.62819907359
  0
INSERT
  5
18D31
330
18352
100
AcDbEntity
  8
AM_5
 62
     3
370
    13
100
AcDbBlockReference
  2
_Open30
 10
27.59652683907279
 20
-27.596526839073
 30
0.0
 41
2.5
 42
2.5
 43
2.5
 50
42.3718009264098
  0
MTEXT
  5
18D32
330
18352
100
AcDbEntity
  8
AM_5
 62
     2
370
    13
100
AcDbMText
 10
18.74437965839089
 20
-29.78352281905606
 30
0.0
 40
3.8
 41
0.0
 71
     5
 72
     1
  1
45°
 11
0.8995270993192973
 21
0.4368649649379212
 31
0.0
 73
     1
 44
1.0
  0
POINT
  5
18D33
330
18352
100
AcDbEntity
  8
Defpoints
 62
     0
100
AcDbPoint
 10
15.37617928445787
 20
-34.65194778932066
 30
0.0
  0
POINT
  5
18D34
330
18352
100
AcDbEntity
  8
Defpoints
 62
     0
100
AcDbPoint
 10
8.320758334210183
 20
-8.320758334210296
 30
0.0
  0
POINT
  5
18D35
330
18352
100
AcDbEntity
  8
Defpoints
 62
     0
100
AcDbPoint
 10
8.084821802690444
 20
-8.084821802690499
 30
0.0
  0
POINT
  5
18D36
330
18352
100
AcDbEntity
  8
Defpoints
 62
     0
100
AcDbPoint
 10
0.2359365315198261
 20
-0.2359365315198261
 30
0.0
  0
POINT
  5
18D37
330
18352
100
AcDbEntity
  8
Defpoints
 62
     0
100
AcDbPoint
 10
8.320758334210185
 20
-10.87590015018725
 30
0.0
  0
ENDBLK
  5
18380
330
18352
100
AcDbEntity
  8
0
100
AcDbBlockEnd
  0
ENDSEC
  0
SECTION
  2
ENTITIES
  0
ACAD_PROXY_ENTITY
  5
166D0
330
1F
100
AcDbEntity
  8
AM_5
100
AcDbProxyEntity
 90
      498
 91
      533
 95
       25
 70
     0
 92
      668
310
9C020000270000000C00000016000000000000C00C00000013000000010000000C00000016000000000000C00C00000017000000FFFFFFFF3C0000000600000002000000D87E4D0611CD48C0805113734C2741C00000000000000000292353E5869C44C0AEEB31A484ED39C000000000000000000C00000016000000000000
310
C00C00000010000000FFFFFFFF0C00000012000000FFFFFFFF0C00000017000000000000000C00000014000000010000000C00000013000000020000000C00000016000000000000C00C00000017000000FFFFFFFF3C0000000600000002000000292353E5869C44C0AEEB31A484ED39C00000000000000000D0AC47E66B7F
310
43C000FF1AA64EB337C000000000000000000C00000016000000000000C00C00000010000000FFFFFFFF0C00000012000000FFFFFFFF0C00000017000000000000000C00000014000000010000000C00000013000000030000000C00000016000000000000C00C00000017000000FFFFFFFF3C0000000600000002000000D8
310
E0B9F9FD7644C05170647B96383AC00000000000000000D0AC47E66B7F43C000FF1AA64EB337C000000000000000000C00000016000000000000C00C00000010000000FFFFFFFF0C00000012000000FFFFFFFF0C00000017000000000000000C00000014000000010000000C00000013000000040000000C00000016000000
310
000000C00C00000017000000FFFFFFFF3C0000000600000002000000D0AC47E66B7F43C000FF1AA64EB337C000000000000000007A65ECD00FC244C00C67FFCC72A239C000000000000000000C00000016000000000000C00C00000010000000FFFFFFFF0C00000012000000FFFFFFFF0C00000017000000000000000C0000
310
0014000000010000000C00000013000000050000000C00000016000000000000C0
 93
     1601
310
5DC80C85A0554E344C0100D9079079ECEB02318EDFD9A7A8398FCD33B7F669EA0E6BF8D33B7F669EA0E63F318EDFD9A7A8398FEA54051F8000000C800AA361F9341847352300805113734C2741C09018FFFFFFFF342B11F99ADFD0F0000FF1AA64EB337C0A8FFFFFFFF1FFFFFFFF1B0FC9A0C239A9180402889B9A613A0E04
310
5409C87078084207F6AF47C0201444DCD309D0702A4C63B7F669EA0E63F34CEDFD9A7A839AFE8333333333333094041D050000000000003C2FC000000000000F0BF40401015213500500
340
17F
340
EDAB
330
0
330
0
340
0
340
0
340
180
330
0
330
0
 94
        0
  0
ACAD_PROXY_ENTITY
  5
166D1
330
1F
100
AcDbEntity
  8
AM_5
100
AcDbProxyEntity
 90
      498
 91
      533
 95
       25
 70
     0
 92
      668
310
9C020000270000000C00000016000000000000C00C00000013000000010000000C00000016000000000000C00C00000017000000FFFFFFFF3C0000000600000002000000D87E4D0611CD48C0805113734C2741C00000000000000000292353E5869C44C029AD0D94D65745C000000000000000000C00000016000000000000
310
C00C00000010000000FFFFFFFF0C00000012000000FFFFFFFF0C00000017000000000000000C00000014000000010000000C00000013000000020000000C00000016000000000000C00C00000017000000FFFFFFFF3C0000000600000002000000292353E5869C44C029AD0D94D65745C00000000000000000D0AC47E66B7F
310
43C080231993F17446C000000000000000000C00000016000000000000C00C00000010000000FFFFFFFF0C00000012000000FFFFFFFF0C00000017000000000000000C00000014000000010000000C00000013000000030000000C00000016000000000000C00C00000017000000FFFFFFFF3C00000006000000020000007A
310
65ECD00FC244C07AEFA67F5F7D45C00000000000000000D0AC47E66B7F43C080231993F17446C000000000000000000C00000016000000000000C00C00000010000000FFFFFFFF0C00000012000000FFFFFFFF0C00000017000000000000000C00000014000000010000000C00000013000000040000000C00000016000000
310
000000C00C00000017000000FFFFFFFF3C0000000600000002000000D0AC47E66B7F43C080231993F17446C00000000000000000D8E0B9F9FD7644C0D86A74A84D3245C000000000000000000C00000016000000000000C00C00000010000000FFFFFFFF0C00000012000000FFFFFFFF0C00000017000000000000000C0000
310
0014000000010000000C00000013000000050000000C00000016000000000000C0
 93
     1601
310
5DC88C85A0554E344C03401C19D024451702350EDFD9A7A839AFCC53B7F669EA0E6BF8C53B7F669EA0E63F350EDFD9A7A839AFEA54051F8000000C800AA361F9341847352300805113734C2741C09018FFFFFFFF342B11F99ADFD0F0080231993F17446C0A8FFFFFFFF1FFFFFFFF1B0FC9A0C239A9180402889B9A613A0E04
310
5409C870D07E4D0611CD48C03431C79C99D110B02A4D43B7F669EA0E6BF314EDFD9A7A839AFE8333333333333094041D050000000000003C2FC000000000000F0BF40401015213500500
340
17F
340
EDAB
330
0
330
0
340
0
340
0
340
180
330
0
330
0
 94
        0
  0
TEXT
  5
166D2
330
1F
100
AcDbEntity
  8
AM_6
 62
     0
100
AcDbText
 10
-38.37822920950447
 20
-48.65006085671143
 30
0.0
 40
4.0
  1
0%%D
100
AcDbText
  0
TEXT
  5
166D3
330
1F
100
AcDbEntity
  8
AM_6
 62
     0
100
AcDbText
 10
-38.43121165543693
 20
-23.06232205919798
 30
0.0
 40
4.0
  1
-8%%D
100
AcDbText
  0
DIMENSION
  5
16AEF
330
1F
100
AcDbEntity
  8
AM_5
370
    13
100
AcDbDimension
  2
*D4
 10
158.3207583342102
 20
-46.2037502367466
 30
0.0
 11
80.25004772165624
 21
-46.2037502367466
 31
0.0
 70
   160
 71
     5
 42
150.0
  3
AM_JIS$0
100
AcDbAlignedDimension
 13
8.320758334210183
 23
-11.12590015018725
 33
0.0
 14
158.3207583342102
 24
-1.320758334210382
 34
0.0
100
AcDbRotatedDimension
1001
ACAD
1000
DSTYLE
1002
{
1070
   179
1070
     0
1070
   271
1070
     0
1002
}
  0
DIMENSION
  5
16B57
330
1F
100
AcDbEntity
  8
AM_5
370
    13
100
AcDbDimension
  2
*D5
 10
173.5356000223305
 20
-1.320758334210386
 30
0.0
 11
173.5356000223305
 21
10.74211507342295
 31
0.0
 70
   160
 71
     5
 42
25.0
  3
AM_JIS$0
100
AcDbAlignedDimension
 13
158.3207583342102
 23
23.67924166578962
 33
0.0
 14
158.3207583342102
 24
-1.320758334210382
 34
0.0
 50
90.0
100
AcDbRotatedDimension
1001
ACAD
1000
DSTYLE
1002
{
1070
   179
1070
     0
1070
   271
1070
     0
1002
}
  0
DIMENSION
  5
16B79
330
1F
100
AcDbEntity
  8
AM_5
370
    13
100
AcDbDimension
  2
*D6
 10
174.0436369065214
 20
-119.5650697875536
 30
0.0
 11
174.0436369065214
 21
-107.1684399631586
 31
0.0
 70
   160
 71
     5
 42
25.0
  3
AM_JIS$0
100
AcDbAlignedDimension
 13
158.3207583342102
 23
-94.56506978755357
 33
0.0
 14
158.3207583342102
 24
-119.5650697875536
 34
0.0
 50
90.0
100
AcDbRotatedDimension
1001
ACAD
1000
DSTYLE
1002
{
1070
   179
1070
     0
1070
   271
1070
     0
1002
}
  0
DIMENSION
  5
16BC3
330
1F
100
AcDbEntity
  8
AM_5
370
    13
100
AcDbDimension
  2
*D7
 10
158.3207583342102
 20
-57.11883450668699
 30
0.0
 11
80.65449442204789
 21
-57.11883450668699
 31
0.0
 70
   160
  1
<>
 71
     5
 42
158.3207583342102
  3
AM_JIS$0
100
AcDbAlignedDimension
 13
0.0
 23
-3.265822543979454
 33
0.0
 14
158.3207583342102
 24
-1.320758334210382
 34
0.0
100
AcDbRotatedDimension
1001
ACAD
1000
DSTYLE
1002
{
1070
   271
1070
     1
1002
}
  0
DIMENSION
  5
16D0E
330
1F
100
AcDbEntity
  8
AM_5
370
    13
100
AcDbDimension
  2
*D8
 10
-14.64595516490073
 20
-8.320758334210289
 30
0.0
 11
-14.64595516490073
 21
8.80031024433481
 31
0.0
 70
   160
  1
{<>
 71
     5
 42
31.99999999999992
  3
AM_JIS$0
100
AcDbAlignedDimension
 13
23.64451047296205
 23
23.67924166578962
 33
0.0
 14
6.049734622136839
 24
-8.320758334210296
 34
0.0
 50
90.0
100
AcDbRotatedDimension
1001
ACAD
1000
DSTYLE
1002
{
1070
   271
1070
     0
1002
}
  0
DIMENSION
  5
16E7F
330
1F
100
AcDbEntity
  8
AM_5
370
    13
100
AcDbDimension
  2
*D9
 10
38.32075833421024
 20
-74.3066132390361
 30
0.0
 11
23.21341983346423
 21
-74.3066132390361
 31
0.0
 70
   160
 71
     5
 42
30.00000000000009
  3
AM_JIS$0
100
AcDbAlignedDimension
 13
8.320758334210154
 23
-94.56506978755354
 33
0.0
 14
38.32075833421024
 24
-94.56506978755357
 34
0.0
100
AcDbRotatedDimension
1001
ACAD
1000
DSTYLE
1002
{
1070
   179
1070
     0
1070
   271
1070
     0
1002
}
  0
DIMENSION
  5
16EB1
330
1F
100
AcDbEntity
  8
AM_5
370
    13
100
AcDbDimension
  2
*D10
 10
-13.89519632307209
 20
-119.5650697875536
 30
0.0
 11
-13.89519632307207
 21
-106.9148081368757
 31
0.0
 70
   160
 71
     5
 42
25.0
  3
AM_JIS$0
100
AcDbAlignedDimension
 13
0.2359365315198261
 23
-94.56506978755357
 33
0.0
 14
1.312806769670544
 24
-119.5650697875536
 34
0.0
 50
90.0
100
AcDbRotatedDimension
1001
ACAD
1000
DSTYLE
1002
{
1070
   179
1070
     0
1070
   271
1070
     0
1002
}
  0
LINE
  5
17F77
330
1F
100
AcDbEntity
  8
AM_0
100
AcDbLine
 10
12.49168360241544
 20
-2.609360906451371
 30
0.0
 11
19.2155769646368
 21
-4.823446820237564
 31
0.0
  0
LINE
  5
17F78
330
1F
100
AcDbEntity
  8
AM_0
100
AcDbLine
 10
12.05809190939789
 20
-2.702745093014528
 30
0.0
 11
12.49168360241544
 21
-2.609360906451371
 31
0.0
  0
LINE
  5
17F79
330
1F
100
AcDbEntity
  8
AM_0
100
AcDbLine
 10
8.559216533045742
 20
-1.55061339378193
 30
0.0
 11
12.05809190939789
 21
-2.702745093014499
 31
0.0
  0
LINE
  5
17F7B
330
1F
100
AcDbEntity
  8
AM_0
100
AcDbLine
 10
25.89304343023485
 20
-2.505567376206329
 30
0.0
 11
26.16912739214723
 21
-2.472998958564176
 31
0.0
  0
LINE
  5
17F7C
330
1F
100
AcDbEntity
  8
AM_0
100
AcDbLine
 10
29.02568560396321
 20
9.159422465818295
 30
0.0
 11
18.6388792518473
 21
7.934136343073135
 31
0.0
  0
LINE
  5
17F7D
330
1F
100
AcDbEntity
  8
AM_0
100
AcDbLine
 10
30.68802181865124
 20
9.515743468152039
 30
0.0
 11
29.04903855370384
 21
9.18277541555895
 31
0.0
  0
ELLIPSE
  5
17F7F
330
1F
100
AcDbEntity
  8
AM_0
100
AcDbEllipse
 10
30.8771808588935
 20
8.033279265824604
 30
0.0
 11
1.517309742111095
 21
0.7412326704856649
 31
0.0
210
0.0
220
0.0
230
1.0
 40
0.8741303474232237
 41
0.863310703999061
 42
1.282113127067672
  0
LINE
  5
17F83
330
1F
100
AcDbEntity
  8
AM_0
100
AcDbLine
 10
33.05277071940276
 20
3.330776438747193
 30
0.0
 11
32.42224058526182
 21
8.272323779838644
 31
0.0
  0
LINE
  5
17F84
330
1F
100
AcDbEntity
  8
AM_0
100
AcDbLine
 10
33.68330085354359
 20
-1.610770902344257
 30
0.0
 11
33.05277071940276
 21
3.330776438747193
 31
0.0
  0
LINE
  5
17F85
330
1F
100
AcDbEntity
  8
AM_0
100
AcDbLine
 10
29.04903855370384
 20
9.18277541555895
 30
0.0
 11
29.02568560396315
 21
9.159422465818295
 31
0.0
  0
LINE
  5
17F86
330
1F
100
AcDbEntity
  8
AM_0
100
AcDbLine
 10
11.20750045734928
 20
3.963451652606381
 30
0.0
 11
8.102053036619111
 21
2.032236874411183
 31
0.0
  0
LINE
  5
17F87
330
1F
100
AcDbEntity
  8
AM_0
100
AcDbLine
 10
11.66262196502981
 20
3.88810385850519
 30
0.0
 11
11.20750045734928
 21
3.963451652606381
 31
0.0
  0
LINE
  5
17F88
330
1F
100
AcDbEntity
  8
AM_0
100
AcDbLine
 10
17.63045306873238
 20
7.599377005269162
 30
0.0
 11
11.66262196502981
 21
3.88810385850519
 31
0.0
  0
ELLIPSE
  5
17F8A
330
1F
100
AcDbEntity
  8
AM_0
100
AcDbEllipse
 10
20.15215157378572
 20
-3.925577275546345
 30
0.0
 11
-1.672244026526974
 21
-0.1885905791662349
 31
0.0
210
0.0
220
0.0
230
1.0
 40
0.592005494921003
 41
0.911160719783721
 42
1.463281783809205
  0
ARC
  5
17F90
330
1F
100
AcDbEntity
  8
AM_0
100
AcDbCircle
 10
8.926504574908279
 20
0.1190144655060408
 30
0.0
 40
1.684658531157179
100
AcDbArc
 50
207.4025744508602
 51
240.2775906800497
  0
ELLIPSE
  5
17F91
330
1F
100
AcDbEntity
  8
AM_0
100
AcDbEllipse
 10
8.824084489736208
 20
-0.0016663932510994
 30
0.0
 11
1.752515703943529
 21
-1.021759755341373
 31
0.0
210
0.0
220
0.0
230
1.0
 40
0.7537586934881054
 41
4.733592272275394
 42
4.987633437221134
  0
ELLIPSE
  5
17F92
330
1F
100
AcDbEntity
  8
AM_0
100
AcDbEllipse
 10
8.824084489736208
 20
-0.0016663932510994
 30
0.0
 11
-0.3450717228823267
 21
-2.270927288143043
 31
0.0
210
0.0
220
0.0
230
1.0
 40
0.7918551534348836
 41
3.736515246456327
 42
3.990556411401986
  0
ELLIPSE
  5
17F94
330
1F
100
AcDbEntity
  8
AM_0
100
AcDbEllipse
 10
8.999835575047257
 20
0.1740846920599779
 30
0.0
 11
-0.8966627649212398
 21
1.814765714831076
 31
0.0
210
0.0
220
0.0
230
1.0
 40
0.8768963366260743
 41
0.7971532771665857
 42
1.595249133012556
  0
LINE
  5
17F9A
330
1F
100
AcDbEntity
  8
AM_0
100
AcDbLine
 10
25.84437358877011
 20
-2.797752761941325
 30
0.0
 11
24.85725014462435
 21
-2.914199397850922
 31
0.0
  0
LINE
  5
17F9B
330
1F
100
AcDbEntity
  8
AM_0
100
AcDbLine
 10
23.72229590317073
 20
5.980585816113717
 30
0.0
 11
24.70941934731656
 21
6.097032452023314
 31
0.0
  0
ARC
  5
17F9F
330
1F
100
AcDbEntity
  8
AM_0
100
AcDbCircle
 10
24.35931910762383
 20
1.637502508010925
 30
0.0
 40
4.582281295723272
100
AcDbArc
 50
233.3095330732044
 51
270.2384558789637
  0
ELLIPSE
  5
17FA4
330
1F
100
AcDbEntity
  8
AM_0
100
AcDbEllipse
 10
18.76498527867545
 20
6.945826874854816
 30
0.0
 11
-1.67224402652697
 21
-0.1885905791662348
 31
0.0
210
0.0
220
0.0
230
1.0
 40
0.5920054949210046
 41
4.721038270745507
 42
5.389323168117501
  0
ARC
  5
17FA9
330
1F
100
AcDbEntity
  8
AM_0
100
AcDbCircle
 10
9.049220981218184
 20
0.3954755640817496
 30
0.0
 40
1.87783295465653
100
AcDbArc
 50
135.8281975624779
 51
165.0578217340511
  0
ARC
  5
17FAD
330
1F
100
AcDbEntity
  8
AM_0
100
AcDbCircle
 10
24.22501746130405
 20
1.602767364345283
 30
0.0
 40
4.405410277003822
100
AcDbArc
 50
102.7872758369097
 51
140.9660099002878
  0
LINE
  5
17FB0
330
1F
100
AcDbEntity
  8
AM_0
100
AcDbLine
 10
32.54488108193715
 20
-3.564495805156071
 30
0.0
 11
33.2632758591048
 21
-2.846101027988425
 31
0.0
  0
LINE
  5
17FB1
330
1F
100
AcDbEntity
  8
AM_0
100
AcDbLine
 10
31.65995085574087
 20
-3.993506397748433
 30
0.0
 11
26.31961690613429
 21
-4.623482239932571
 31
0.0
  0
LINE
  5
17FB2
330
1F
100
AcDbEntity
  8
AM_0
100
AcDbLine
 10
20.08370919676395
 20
-4.930075864283452
 30
0.0
 11
26.20123031896333
 21
-4.633182504261242
 31
0.0
  0
LINE
  5
17FB3
330
1F
100
AcDbEntity
  8
AM_0
100
AcDbLine
 10
26.20128512259987
 20
-4.633852776693431
 30
0.0
 11
26.31967338250252
 21
-4.624172970604974
 31
0.0
  0
ELLIPSE
  5
17FB5
330
1F
100
AcDbEntity
  8
AM_0
100
AcDbEllipse
 10
25.60165027142045
 20
1.974393648418129
 30
0.0
 11
3.181980515339462
 21
-3.181980515339467
 31
0.0
210
0.0
220
0.0
230
1.0
 40
0.9902680687415706
 41
5.619960191421741
 42
6.231630833362114
  0
ELLIPSE
  5
17FB6
330
1F
100
AcDbEntity
  8
AM_0
100
AcDbEllipse
 10
32.20261568732497
 20
-1.785440856208624
 30
0.0
 11
1.06066017177982
 21
-1.060660171779822
 31
0.0
210
0.0
220
0.0
230
1.0
 40
0.9902680687415705
 41
0.0000000000000049
 42
0.9075712110370494
  0
ELLIPSE
  5
17FB7
330
1F
100
AcDbEntity
  8
AM_0
100
AcDbEllipse
 10
30.94155541904314
 20
8.097653825974277
 30
0.0
 11
1.06066017177982
 21
-1.060660171779822
 31
0.0
210
0.0
220
0.0
230
1.0
 40
0.9902680687415705
 41
0.9075712110370505
 42
2.059565114763328
  0
ELLIPSE
  5
17FC3
330
1F
100
AcDbEntity
  8
AM_0
100
AcDbEllipse
 10
25.27689646804328
 20
1.64963984504098
 30
0.0
 11
-3.181980515339462
 21
3.181980515339467
 31
0.0
210
0.0
220
0.0
230
1.0
 40
0.9902680687415706
 41
2.478367537831939
 42
5.619960191421739
  0
ELLIPSE
  5
17FC4
330
1F
100
AcDbEntity
  8
AM_0
100
AcDbEllipse
 10
24.28977302389757
 20
1.533193209131412
 30
0.0
 11
-3.181980515339462
 21
3.181980515339467
 31
0.0
210
0.0
220
0.0
230
1.0
 40
0.9902680687415706
 41
5.619960191421739
 42
5.72723300044407
  0
ELLIPSE
  5
17FC5
330
1F
100
AcDbEntity
  8
AM_0
100
AcDbEllipse
 10
24.61452682727469
 20
1.857947012508561
 30
0.0
 11
3.181980515339462
 21
-3.181980515339467
 31
0.0
210
0.0
220
0.0
230
1.0
 40
0.9902680687415706
 41
3.192913386912549
 42
5.373252748565058
  0
ELLIPSE
  5
17FC6
330
1F
100
AcDbEntity
  8
AM_0
100
AcDbEllipse
 10
24.28977302389757
 20
1.533193209131412
 30
0.0
 11
-3.181980515339462
 21
3.181980515339467
 31
0.0
210
0.0
220
0.0
230
1.0
 40
0.9902680687415706
 41
2.371094728809764
 42
2.478367537831952
  0
ELLIPSE
  5
17FC7
330
1F
100
AcDbEntity
  8
AM_0
100
AcDbEllipse
 10
24.28977302389757
 20
1.533193209131412
 30
0.0
 11
-3.181980515339462
 21
3.181980515339467
 31
0.0
210
0.0
220
0.0
230
1.0
 40
0.9902680687415706
 41
0.1021667012169939
 42
1.712975720856968
  0
ARC
  5
17FCD
330
1F
100
AcDbEntity
  8
AM_0
100
AcDbCircle
 10
31.48422091015732
 20
-2.503835633376269
 30
0.0
 40
1.5
100
AcDbArc
 50
276.7278395652024
 51
315.0
  0
LINE
  5
17FCE
330
1F
100
AcDbEntity
  8
AM_0
100
AcDbLine
 10
8.738507900672119
 20
9.30608180597676
 30
0.0
 11
8.940244595176125
 21
9.50781850048071
 31
0.0
  0
ELLIPSE
  5
17FCF
330
1F
100
AcDbEntity
  8
AM_0
100
AcDbEllipse
 10
9.505930020125334
 20
8.942133075531473
 30
0.0
 11
0.5656854249492376
 21
-0.5656854249492389
 31
0.0
210
0.0
220
0.0
230
1.0
 40
0.99026806874157
 41
2.128252401219143
 42
3.141592653589789
  0
LINE
  5
17FD2
330
1F
100
AcDbEntity
  8
AM_0
100
AcDbLine
 10
10.23025612106909
 20
-7.070758334210353
 30
0.0
 11
9.210687440919458
 21
-8.090327014360014
 31
0.0
  0
LINE
  5
17FD3
330
1F
100
AcDbEntity
  8
AM_0
100
AcDbLine
 10
8.084821802690442
 20
-8.084821802690499
 30
0.0
 11
0.2359365315198261
 21
-0.2359365315198261
 31
0.0
  0
LINE
  5
17FD4
330
1F
100
AcDbEntity
  8
AM_0
100
AcDbLine
 10
0.230431319850311
 20
0.8899291067091326
 30
0.0
 11
8.002931779106632
 21
8.66242956596551
 31
0.0
  0
LINE
  5
17FD5
330
1F
100
AcDbEntity
  8
AM_0
100
AcDbLine
 10
8.002931779106632
 20
8.66242956596551
 30
0.0
 11
8.471364537917282
 21
9.130862324776189
 31
0.0
  0
ELLIPSE
  5
17FD6
330
1F
100
AcDbEntity
  8
AM_0
100
AcDbEllipse
 10
8.645002015970192
 20
-7.524641589410805
 30
0.0
 11
-0.5656854249492376
 21
0.5656854249492389
 31
0.0
210
0.0
220
0.0
230
1.0
 40
0.99026806874157
 41
1.570796326794898
 42
3.141592653589833
  0
ELLIPSE
  5
17FD7
330
1F
100
AcDbEntity
  8
AM_0
100
AcDbEllipse
 10
0.7961167447994626
 20
0.3242436817598957
 30
0.0
 11
-0.5656854249492376
 21
0.5656854249492389
 31
0.0
210
0.0
220
0.0
230
1.0
 40
0.99026806874157
 41
0.0000000000000022
 42
1.570796326794924
  0
ELLIPSE
  5
17FD8
330
1F
100
AcDbEntity
  8
AM_0
100
AcDbEllipse
 10
8.568617204055897
 20
8.096744141016274
 30
0.0
 11
-0.5656854249492376
 21
0.5656854249492389
 31
0.0
210
0.0
220
0.0
230
1.0
 40
0.99026806874157
 41
4.880240861211352
 42
6.283185307179563
  0
ELLIPSE
  5
17FD9
330
1F
100
AcDbEntity
  8
AM_0
100
AcDbEllipse
 10
9.037049962866547
 20
8.565176899826952
 30
0.0
 11
0.5656854249492376
 21
-0.5656854249492389
 31
0.0
210
0.0
220
0.0
230
1.0
 40
0.99026806874157
 41
2.035076319704903
 42
3.141592653589776
  0
ELLIPSE
  5
17FDA
330
1F
100
AcDbEntity
  8
AM_0
100
AcDbEllipse
 10
8.606809610013045
 20
0.2860512758027198
 30
0.0
 11
-1.824335495461291
 21
1.824335495461295
 31
0.0
210
0.0
220
0.0
230
1.0
 40
0.9902680687415704
 41
5.231077900245158
 42
9.13829853756997
  0
LINE
  5
17FDC
330
1F
100
AcDbEntity
  8
AM_0
100
AcDbLine
 10
26.00808135816766
 20
-0.4180388300340781
 30
0.0
 11
23.72841741336396
 21
-0.6869608163885914
 31
0.0
  0
LINE
  5
17FDD
330
1F
100
AcDbEntity
  8
AM_0
100
AcDbLine
 10
24.02364814370679
 20
-0.391730086045726
 30
0.0
 11
26.12328409745425
 21
-0.1440452145145059
 31
0.0
  0
LINE
  5
17FDE
330
1F
100
AcDbEntity
  8
AM_0
100
AcDbLine
 10
23.72841741336396
 20
-0.6869608163885914
 30
0.0
 11
24.02364814370679
 21
-0.391730086045726
 31
0.0
  0
LINE
  5
17FDF
330
1F
100
AcDbEntity
  8
AM_0
100
AcDbLine
 10
23.72841741336396
 20
-0.6869608163885914
 30
0.0
 11
22.33637338730568
 21
1.155197126870746
 31
0.0
  0
LINE
  5
17FE0
330
1F
100
AcDbEntity
  8
AM_0
100
AcDbLine
 10
22.63160411764858
 20
1.450427857213612
 30
0.0
 11
24.02364814370679
 21
-0.3917300860456976
 31
0.0
  0
LINE
  5
17FE1
330
1F
100
AcDbEntity
  8
AM_0
100
AcDbLine
 10
22.33637338730568
 20
1.155197126870746
 30
0.0
 11
22.63160411764858
 21
1.450427857213612
 31
0.0
  0
LINE
  5
17FE2
330
1F
100
AcDbEntity
  8
AM_0
100
AcDbLine
 10
22.33637338730568
 20
1.155197126870746
 30
0.0
 11
23.22399330605123
 21
3.266277056484569
 31
0.0
  0
LINE
  5
17FE3
330
1F
100
AcDbEntity
  8
AM_0
100
AcDbLine
 10
23.40402129710759
 20
3.287514171307862
 30
0.0
 11
22.63160411764858
 21
1.45042785721364
 31
0.0
  0
LINE
  5
17FE4
330
1F
100
AcDbEntity
  8
AM_0
100
AcDbLine
 10
23.22399330605123
 20
3.266277056484569
 30
0.0
 11
25.50365725085499
 21
3.535199042839082
 31
0.0
  0
LINE
  5
17FE5
330
1F
100
AcDbEntity
  8
AM_0
100
AcDbLine
 10
25.50365725085499
 20
3.535199042839082
 30
0.0
 11
26.89570127691326
 21
1.693041099579745
 31
0.0
  0
LINE
  5
17FE6
330
1F
100
AcDbEntity
  8
AM_0
100
AcDbLine
 10
26.89570127691326
 20
1.693041099579745
 30
0.0
 11
26.00808135816766
 21
-0.4180388300341065
 31
0.0
  0
LINE
  5
17FE7
330
1F
100
AcDbEntity
  8
AM_0
100
AcDbLine
 10
27.78501681397421
 20
-1.417309044995591
 30
0.0
 11
28.11329236939042
 21
-1.089033489579435
 31
0.0
  0
LINE
  5
17FE8
330
1F
100
AcDbEntity
  8
AM_0
100
AcDbLine
 10
21.77460917388862
 20
4.593098595090055
 30
0.0
 11
22.10288472930478
 21
4.92137415050621
 31
0.0
  0
ARC
  5
17FE9
330
1F
100
AcDbEntity
  8
AM_0
100
AcDbCircle
 10
24.80226176249011
 20
1.610343543605922
 30
0.0
 40
4.25011857415997
100
AcDbArc
 50
135.427989530044
 51
314.572010469956
  0
ELLIPSE
  5
17FEA
330
1F
100
AcDbEntity
  8
AM_0
100
AcDbEllipse
 10
24.61603733210944
 20
1.424119113225231
 30
0.0
 11
-1.828427124746188
 21
1.828427124746191
 31
0.0
210
0.0
220
0.0
230
1.0
 40
0.9902680687415705
 41
-0.0000000000000006
 42
6.283185307179585
  0
ELLIPSE
  5
17FEB
330
1F
100
AcDbEntity
  8
AM_0
100
AcDbEllipse
 10
25.10808854934754
 20
1.916170330463359
 30
0.0
 11
3.005203820042824
 21
-3.00520382004283
 31
0.0
210
0.0
220
0.0
230
1.0
 40
0.9902680687415704
 41
2.607771664168276
 42
3.141592653589792
  0
ELLIPSE
  5
17FEC
330
1F
100
AcDbEntity
  8
AM_0
100
AcDbEllipse
 10
25.10808854934754
 20
1.916170330463359
 30
0.0
 11
3.005203820042824
 21
-3.00520382004283
 31
0.0
210
0.0
220
0.0
230
1.0
 40
0.9902680687415704
 41
-0.0000000000000003
 42
2.239679300633452
  0
ELLIPSE
  5
17FED
330
1F
100
AcDbEntity
  8
AM_0
100
AcDbEllipse
 10
24.64486102507709
 20
1.452942806192823
 30
0.0
 11
2.328427124746187
 21
-2.328427124746191
 31
0.0
210
0.0
220
0.0
230
1.0
 40
0.9902680687415703
 41
-0.0000000000000009
 42
6.283185307179585
  0
ELLIPSE
  5
17FEE
330
1F
100
AcDbEntity
  8
AM_0
100
AcDbEllipse
 10
24.7102264434514
 20
1.518308224567193
 30
0.0
 11
-2.798097038856277
 21
2.798097038856282
 31
0.0
210
0.0
220
0.0
230
1.0
 40
0.9902680687415704
 41
0.0000000000000002
 42
6.283185307179586
  0
ELLIPSE
  5
17FEF
330
1F
100
AcDbEntity
  8
AM_0
100
AcDbEllipse
 10
24.77981299393144
 20
1.587894775047204
 30
0.0
 11
3.005203820042824
 21
-3.00520382004283
 31
0.0
210
0.0
220
0.0
230
1.0
 40
0.9902680687415704
 41
-0.0000000000000007
 42
3.141592653589791
  0
LINE
  5
17FF8
330
1F
100
AcDbEntity
  8
AM_0
100
AcDbLine
 10
158.3207583342102
 20
23.67924166578962
 30
0.0
 11
158.3207583342102
 21
-1.320758334210382
 31
0.0
  0
LINE
  5
17FF9
330
1F
100
AcDbEntity
  8
AM_0
100
AcDbLine
 10
158.3207583342102
 20
-1.320758334210353
 30
0.0
 11
38.32075833421021
 21
-1.320758334210353
 31
0.0
  0
LINE
  5
17FFA
330
1F
100
AcDbEntity
  8
AM_0
100
AcDbLine
 10
38.32075833421021
 20
23.67924166578962
 30
0.0
 11
158.3207583342102
 21
23.67924166578962
 31
0.0
  0
LINE
  5
17FFB
330
1F
100
AcDbEntity
  8
AM_0
100
AcDbLine
 10
25.57109664300214
 20
23.67924166578962
 30
0.0
 11
36.98101237205464
 21
23.67924166578962
 31
0.0
  0
LINE
  5
17FFC
330
1F
100
AcDbEntity
  8
AM_0
100
AcDbLine
 10
37.42063581511656
 20
-4.680061308504634
 30
0.0
 11
36.78005047773112
 21
-7.070758334210353
 31
0.0
  0
LINE
  5
17FFD
330
1F
100
AcDbEntity
  8
AM_0
100
AcDbLine
 10
36.78005047773115
 20
-7.070758334210325
 30
0.0
 11
10.23025612106912
 21
-7.07075833421041
 31
0.0
  0
LINE
  5
17FFE
330
1F
100
AcDbEntity
  8
AM_0
100
AcDbLine
 10
14.14668445473086
 20
-3.154330000548555
 30
0.0
 11
10.23025612106909
 21
-7.070758334210382
 31
0.0
  0
LINE
  5
17FFF
330
1F
100
AcDbEntity
  8
AM_0
100
AcDbLine
 10
8.867622471948295
 20
8.902353660731734
 30
0.0
 11
13.03094187140738
 21
4.739034261272593
 31
0.0
  0
LINE
  5
18000
330
1F
100
AcDbEntity
  8
AM_0
100
AcDbLine
 10
8.816196967677826
 20
8.850928156447196
 30
0.0
 11
23.64451047296205
 21
23.67924166578962
 31
0.0
  0
LINE
  5
18001
330
1F
100
AcDbEntity
  8
AM_0
100
AcDbLine
 10
23.64451047296205
 20
23.67924166578962
 30
0.0
 11
25.57109664300214
 21
23.67924166578962
 31
0.0
  0
LINE
  5
18004
330
1F
100
AcDbEntity
  8
AM_0
100
AcDbLine
 10
29.29944214683383
 20
9.233646219764182
 30
0.0
 11
29.29853869853167
 21
9.240726662574758
 31
0.0
  0
LINE
  5
18005
330
1F
100
AcDbEntity
  8
AM_0
100
AcDbLine
 10
37.42063581511656
 20
-4.680061308504662
 30
0.0
 11
36.98101237205464
 21
12.2693259367374
 31
0.0
  0
LINE
  5
18006
330
1F
100
AcDbEntity
  8
AM_0
100
AcDbLine
 10
36.98101237205464
 20
12.26932593673743
 30
0.0
 11
36.98101237205464
 21
23.67924166578965
 31
0.0
  0
LINE
  5
18007
330
1F
100
AcDbEntity
  8
AM_0
100
AcDbLine
 10
36.98101237205464
 20
23.67924166578962
 30
0.0
 11
38.32075833421021
 21
23.67924166578962
 31
0.0
  0
LINE
  5
18008
330
1F
100
AcDbEntity
  8
AM_0
100
AcDbLine
 10
38.32075833421021
 20
23.67924166578962
 30
0.0
 11
38.32075833421021
 21
-1.320758334210382
 31
0.0
  0
LINE
  5
18009
330
1F
100
AcDbEntity
  8
AM_0
100
AcDbLine
 10
38.32075833421021
 20
-1.320758334210353
 30
0.0
 11
37.42063581511656
 21
-4.680061308504634
 31
0.0
  0
LINE
  5
18013
330
1F
100
AcDbEntity
  8
AM_0
100
AcDbLine
 10
30.68841690247024
 20
-91.46700995441813
 30
0.0
 11
31.0746213082395
 21
-91.80359180006829
 31
0.0
  0
LINE
  5
18014
330
1F
100
AcDbEntity
  8
AM_0
100
AcDbLine
 10
20.27825760061387
 20
-92.38599663408996
 30
0.0
 11
30.66506395272955
 21
-91.23201733953434
 31
0.0
  0
LINE
  5
18015
330
1F
100
AcDbEntity
  8
AM_0
100
AcDbLine
 10
12.49168360241544
 20
-92.93078820228612
 30
0.0
 11
19.2155769646368
 21
-92.48261536615055
 31
0.0
  0
LINE
  5
18016
330
1F
100
AcDbEntity
  8
AM_0
100
AcDbLine
 10
12.05809190939789
 20
-93.48807146933305
 30
0.0
 11
12.49168360241544
 21
-92.93078820228612
 31
0.0
  0
LINE
  5
18017
330
1F
100
AcDbEntity
  8
AM_0
100
AcDbLine
 10
8.559216533045742
 20
-93.72128470104715
 30
0.0
 11
12.05809190939789
 21
-93.48807146933305
 31
0.0
  0
LINE
  5
1801D
330
1F
100
AcDbEntity
  8
AM_0
100
AcDbLine
 10
30.66506395272955
 20
-91.23201733953434
 30
0.0
 11
30.68841690247024
 21
-91.46700995441813
 31
0.0
  0
LINE
  5
1801E
330
1F
100
AcDbEntity
  8
AM_0
100
AcDbLine
 10
30.38788544945459
 20
-91.26281200758069
 30
0.0
 11
30.68841690247024
 21
-91.4670099544181
 31
0.0
  0
ELLIPSE
  5
18023
330
1F
100
AcDbEntity
  8
AM_0
100
AcDbEllipse
 10
20.15215157378572
 20
-92.30031311742724
 30
0.0
 11
-1.675933907904768
 21
-0.1793196780346073
 31
0.0
210
0.0
220
0.0
230
1.0
 40
0.0586467434754674
 41
0.9715514210332071
 42
1.639836318405198
  0
ARC
  5
18029
330
1F
100
AcDbEntity
  8
AM_0
100
AcDbCircle
 10
7.73662672451826
 20
-94.30733207159298
 30
0.0
 40
0.7601399329664504
100
AcDbArc
 50
62.19081456052867
 51
113.7178246123121
  0
ELLIPSE
  5
1802A
330
1F
100
AcDbEntity
  8
AM_0
100
AcDbEllipse
 10
8.824084489736208
 20
-90.04288720280638
 30
0.0
 11
-0.4446412216419966
 21
-3.673661751469218
 31
0.0
210
0.0
220
0.0
230
1.0
 40
0.506829918239179
 41
6.124751653753802
 42
6.378792818699542
  0
ELLIPSE
  5
1802C
330
1F
100
AcDbEntity
  8
AM_0
100
AcDbEllipse
 10
8.999835575047257
 20
-91.81140927665788
 30
0.0
 11
-1.813759370014358
 21
-1.877420634653967
 31
0.0
210
0.0
220
0.0
230
1.0
 40
0.1151207279345137
 41
5.904055834711044
 42
6.702151690557015
  0
LINE
  5
18032
330
1F
100
AcDbEntity
  8
AM_0
100
AcDbLine
 10
25.84437358877011
 20
-85.26064107381433
 30
0.0
 11
24.85725014462435
 21
-85.37031097398366
 31
0.0
  0
ARC
  5
18035
330
1F
100
AcDbEntity
  8
AM_0
100
AcDbCircle
 10
21.83913043457824
 20
-68.09764901607991
 30
0.0
 40
17.50839896465967
100
AcDbArc
 50
269.2876081290587
 51
278.3390701343744
  0
ARC
  5
18038
330
1F
100
AcDbEntity
  8
AM_0
100
AcDbCircle
 10
7.474707748538947
 20
-93.60400801634683
 30
0.0
 40
0.2708056895467689
100
AcDbArc
 50
135.9384174201606
 51
152.3246071103107
  0
LINE
  5
1803B
330
1F
100
AcDbEntity
  8
AM_0
100
AcDbLine
 10
32.97686842731156
 20
-86.03736508891072
 30
0.0
 11
33.53418641027281
 21
-91.64546220692762
 31
0.0
  0
LINE
  5
1803C
330
1F
100
AcDbEntity
  8
AM_0
100
AcDbLine
 10
31.06616422003566
 20
-84.08816190140328
 30
0.0
 11
32.32722448831743
 21
-84.94499706803049
 31
0.0
  0
LINE
  5
1803E
330
1F
100
AcDbEntity
  8
AM_0
100
AcDbLine
 10
7.173656320737109
 20
-93.65964023600802
 30
0.0
 11
7.210742358940934
 21
-94.03282414596268
 31
0.0
  0
LINE
  5
1803F
330
1F
100
AcDbEntity
  8
AM_0
100
AcDbLine
 10
28.82138519387297
 20
-83.9753741620585
 30
0.0
 11
30.05752899117823
 21
-83.83803797817046
 31
0.0
  0
LINE
  5
18040
330
1F
100
AcDbEntity
  8
AM_0
100
AcDbLine
 10
7.280108742527943
 20
-93.41568130992843
 30
0.0
 11
11.94005140681759
 21
-88.6454805632909
 31
0.0
  0
LINE
  5
18041
330
1F
100
AcDbEntity
  8
AM_0
100
AcDbLine
 10
17.82859998793572
 20
-85.52124335512377
 30
0.0
 11
20.5539002334437
 21
-85.08198449525258
 31
0.0
  0
ARC
  5
18042
330
1F
100
AcDbEntity
  8
AM_0
100
AcDbCircle
 10
19.64748248460279
 20
-96.06093897152351
 30
0.0
 40
10.69549050876289
100
AcDbArc
 50
99.79134772370313
 51
136.1060534191284
  0
ELLIPSE
  5
1804B
330
1F
100
AcDbEntity
  8
AM_0
100
AcDbEllipse
 10
25.27689646804328
 20
-84.87506524883207
 30
0.0
 11
4.47794255146278
 21
0.4450061862480155
 31
0.0
210
0.0
220
0.0
230
1.0
 40
0.0984102434476222
 41
4.829672307966167
 42
6.876793656032712
  0
ELLIPSE
  5
1804C
330
1F
100
AcDbEntity
  8
AM_0
100
AcDbEllipse
 10
24.28977302389757
 20
-84.98473514900141
 30
0.0
 11
4.47794255146278
 21
0.4450061862480155
 31
0.0
210
0.0
220
0.0
230
1.0
 40
0.0984102434476222
 41
4.722399498943979
 42
4.829672307966167
  0
ELLIPSE
  5
1804D
330
1F
100
AcDbEntity
  8
AM_0
100
AcDbEllipse
 10
24.28977302389757
 20
-84.98473514900141
 30
0.0
 11
4.47794255146278
 21
0.4450061862480155
 31
0.0
210
0.0
220
0.0
230
1.0
 40
0.0984102434476222
 41
2.548975097530494
 42
4.064280490991182
  0
ELLIPSE
  5
1804F
330
1F
100
AcDbEntity
  8
AM_0
100
AcDbEllipse
 10
12.65537685129749
 20
-89.3442720260891
 30
0.0
 11
-0.7153254444798984
 21
0.6987914627981882
 31
0.0
210
0.0
220
0.0
230
1.0
 40
0.0256736852174742
 41
0.0000000000000004
 42
0.1508581718762061
  0
ARC
  5
18051
330
1F
100
AcDbEntity
  8
AM_0
100
AcDbCircle
 10
30.2231606418755
 20
-85.32886531769952
 30
0.0
 40
1.5
100
AcDbArc
 50
55.80561054041112
 51
96.33959072681471
  0
ARC
  5
18052
330
1F
100
AcDbEntity
  8
AM_0
100
AcDbCircle
 10
31.48422091015732
 20
-86.18570048432673
 30
0.0
 40
1.5
100
AcDbArc
 50
5.675270513285128
 51
55.80561054041112
  0
LINE
  5
18053
330
1F
100
AcDbEntity
  8
AM_0
100
AcDbLine
 10
10.14710566009268
 20
-103.8720370696429
 30
0.0
 11
10.23025612106909
 21
-103.8555105201847
 31
0.0
  0
LINE
  5
18056
330
1F
100
AcDbEntity
  8
AM_0
100
AcDbLine
 10
1.264278632247226
 20
-103.9833755504109
 30
0.0
 11
9.021240021863719
 21
-103.9833755504109
 31
0.0
  0
LINE
  5
18058
330
1F
100
AcDbEntity
  8
AM_0
100
AcDbLine
 10
0.5635664444145618
 20
-99.27389034946066
 30
0.0
 11
1.028380169711397
 21
-103.9511492805314
 31
0.0
  0
ELLIPSE
  5
18059
330
1F
100
AcDbEntity
  8
AM_0
100
AcDbEllipse
 10
9.581420235143412
 20
-103.8720370696429
 30
0.0
 11
0.7960786758156049
 21
0.07911221088854423
 31
0.0
210
0.0
220
0.0
230
1.0
 40
0.0984102434476222
 41
3.922101096929039
 42
5.49289742372396
  0
ELLIPSE
  5
1805A
330
1F
100
AcDbEntity
  8
AM_0
100
AcDbEllipse
 10
1.824458845526976
 20
-103.8720370696429
 30
0.0
 11
0.7960786758156049
 21
0.07911221088854423
 31
0.0
210
0.0
220
0.0
230
1.0
 40
0.0984102434476222
 41
3.141592653589803
 42
3.922101096929068
  0
LINE
  5
1805B
330
1F
100
AcDbEntity
  8
AM_0
100
AcDbLine
 10
16.98318790017578
 20
-92.90890988612878
 30
0.0
 11
15.68107277073005
 21
-93.16771145901689
 31
0.0
  0
LINE
  5
1805C
330
1F
100
AcDbEntity
  8
AM_0
100
AcDbLine
 10
10.23025612106909
 20
-94.25108718406307
 30
0.0
 11
9.210687440919458
 21
-94.45373130678553
 31
0.0
  0
LINE
  5
1805D
330
1F
100
AcDbEntity
  8
AM_0
100
AcDbLine
 10
9.679120199730107
 20
-99.1674073139954
 30
0.0
 11
10.23025612106909
 21
-99.0578664292517
 31
0.0
  0
LINE
  5
1805F
330
1F
100
AcDbEntity
  8
AM_0
100
AcDbLine
 10
8.084821802690442
 20
-94.56506978755357
 30
0.0
 11
0.2359365315198261
 21
-94.56506978755357
 31
0.0
  0
LINE
  5
18061
330
1F
100
AcDbEntity
  8
AM_0
100
AcDbLine
 10
0.7043692903304759
 20
-99.27874579476344
 30
0.0
 11
8.553254561501092
 21
-99.27874579476344
 31
0.0
  0
LINE
  5
18063
330
1F
100
AcDbEntity
  8
AM_0
100
AcDbLine
 10
0.230431319850311
 20
-94.45373130678553
 30
0.0
 11
7.720288445557515
 21
-92.96508659250037
 31
0.0
  0
LINE
  5
18064
330
1F
100
AcDbEntity
  8
AM_0
100
AcDbLine
 10
14.49032221761257
 20
-92.79757140536074
 30
0.0
 11
16.97768268850626
 21
-92.79757140536074
 31
0.0
  0
LINE
  5
18065
330
1F
100
AcDbEntity
  8
AM_0
100
AcDbLine
 10
16.98318790017578
 20
-92.90890988612878
 30
0.0
 11
16.98923828880135
 21
-92.96979284352753
 31
0.0
  0
LINE
  5
18066
330
1F
100
AcDbEntity
  8
AM_0
100
AcDbLine
 10
0.0000380689838835
 20
-94.53284351767405
 30
0.0
 11
0.4684708277945333
 21
-99.24651952488392
 31
0.0
  0
LINE
  5
18067
330
1F
100
AcDbEntity
  8
AM_0
100
AcDbLine
 10
17.21358115104209
 20
-92.82979767524023
 30
0.0
 11
17.22270814288544
 21
-92.92163942127655
 31
0.0
  0
ELLIPSE
  5
18068
330
1F
100
AcDbEntity
  8
AM_0
100
AcDbEllipse
 10
8.645002015970192
 20
-94.45373130678553
 30
0.0
 11
0.7960786758156057
 21
0.07911221088853614
 31
0.0
210
0.0
220
0.0
230
1.0
 40
0.0984102434476221
 41
3.922101096929112
 42
5.492897423724047
  0
ELLIPSE
  5
18069
330
1F
100
AcDbEntity
  8
AM_0
100
AcDbEllipse
 10
9.113434774780842
 20
-99.1674073139954
 30
0.0
 11
0.7960786758156049
 21
0.07911221088854423
 31
0.0
210
0.0
220
0.0
230
1.0
 40
0.0984102434476222
 41
3.922101096929062
 42
5.492897423723997
  0
ELLIPSE
  5
1806A
330
1F
100
AcDbEntity
  8
AM_0
100
AcDbEllipse
 10
0.7961167447994626
 20
-94.45373130678553
 30
0.0
 11
0.7960786758156057
 21
0.07911221088853614
 31
0.0
210
0.0
220
0.0
230
1.0
 40
0.0984102434476221
 41
2.351304770134215
 42
3.922101096929136
  0
ELLIPSE
  5
1806B
330
1F
100
AcDbEntity
  8
AM_0
100
AcDbEllipse
 10
1.264549503610169
 20
-99.1674073139954
 30
0.0
 11
0.7960786758156049
 21
0.07911221088854423
 31
0.0
210
0.0
220
0.0
230
1.0
 40
0.0984102434476222
 41
3.141592653589794
 42
3.922101096929076
  0
ELLIPSE
  5
1806C
330
1F
100
AcDbEntity
  8
AM_0
100
AcDbEllipse
 10
16.41750247522651
 20
-92.90890988612878
 30
0.0
 11
0.7960786758156057
 21
0.07911221088853614
 31
0.0
210
0.0
220
0.0
230
1.0
 40
0.0984102434476221
 41
5.492897423724008
 42
7.063693750518905
  0
ELLIPSE
  5
1806D
330
1F
100
AcDbEntity
  8
AM_0
100
AcDbEllipse
 10
8.606809610013045
 20
-93.68132059645714
 30
0.0
 11
2.567353729505328
 21
0.255136880115529
 31
0.0
210
0.0
220
0.0
230
1.0
 40
0.0984102434476222
 41
2.150558349726257
 42
5.826337905209081
  0
LINE
  5
1806E
330
1F
100
AcDbEntity
  8
AM_0
100
AcDbLine
 10
26.00808135816766
 20
-83.291175622612
 30
0.0
 11
23.72841741336396
 21
-83.54444740815103
 31
0.0
  0
LINE
  5
1806F
330
1F
100
AcDbEntity
  8
AM_0
100
AcDbLine
 10
23.72841741336396
 20
-83.54444740815103
 30
0.0
 11
22.33637338730568
 21
-83.49971626759512
 31
0.0
  0
LINE
  5
18070
330
1F
100
AcDbEntity
  8
AM_0
100
AcDbLine
 10
22.33637338730568
 20
-83.49971626759509
 30
0.0
 11
23.08316306645884
 21
-83.24899464129396
 31
0.0
  0
LINE
  5
18072
330
1F
100
AcDbEntity
  8
AM_0
100
AcDbLine
 10
23.33803275845887
 20
-83.18904350224642
 30
0.0
 11
25.50365725085499
 21
-82.94844155596113
 31
0.0
  0
LINE
  5
18074
330
1F
100
AcDbEntity
  8
AM_0
100
AcDbLine
 10
25.50365725085499
 20
-82.9484415559611
 30
0.0
 11
26.66003172374658
 21
-82.98559982690219
 31
0.0
  0
LINE
  5
18075
330
1F
100
AcDbEntity
  8
AM_0
100
AcDbLine
 10
26.85627106726344
 20
-83.00641070256447
 30
0.0
 11
26.00808135816766
 21
-83.291175622612
 31
0.0
  0
LINE
  5
18076
330
1F
100
AcDbEntity
  8
AM_0
100
AcDbLine
 10
27.98019866234887
 20
-91.81828300597761
 30
0.0
 11
27.95189290180741
 21
-91.53345197778717
 31
0.0
  0
LINE
  5
18077
330
1F
100
AcDbEntity
  8
AM_0
100
AcDbLine
 10
23.00470693850133
 20
-92.31273432403097
 30
0.0
 11
22.98213438777299
 21
-92.08559459311269
 31
0.0
  0
ARC
  5
18078
330
1F
100
AcDbEntity
  8
AM_0
100
AcDbCircle
 10
25.6394644287646
 20
-93.54483557425832
 30
0.0
 40
10.60844084546972
100
AcDbArc
 50
77.68342474400012
 51
113.6671162825737
  0
LINE
  5
18079
330
1F
100
AcDbEntity
  8
AM_0
100
AcDbLine
 10
20.55064502866105
 20
-85.3147456527862
 30
0.0
 11
20.57889327694926
 21
-85.59899795516523
 31
0.0
  0
LINE
  5
1807A
330
1F
100
AcDbEntity
  8
AM_0
100
AcDbLine
 10
29.00898095920184
 20
-84.4741784120954
 30
0.0
 11
29.03609044273901
 21
-84.74697172066223
 31
0.0
  0
LINE
  5
1807B
330
1F
100
AcDbEntity
  8
AM_0
100
AcDbLine
 10
21.38100092469864
 20
-83.82863746201457
 30
0.0
 11
20.78800908691483
 21
-84.54531691722835
 31
0.0
  0
LINE
  5
1807C
330
1F
100
AcDbEntity
  8
AM_0
100
AcDbLine
 10
27.90238308482782
 20
-83.18055960688506
 30
0.0
 11
28.62482730534924
 21
-83.76651447668218
 31
0.0
  0
ARC
  5
1807D
330
1F
100
AcDbEntity
  8
AM_0
100
AcDbCircle
 10
21.59003570222626
 20
-85.2140642697577
 30
0.0
 40
1.044255578478228
100
AcDbArc
 50
140.1779126869411
 51
185.5327386458675
  0
ARC
  5
1807E
330
1F
100
AcDbEntity
  8
AM_0
100
AcDbCircle
 10
27.97010406804361
 20
-84.58002980887642
 30
0.0
 40
1.044255578478315
100
AcDbArc
 50
5.817802380707124
 51
51.17262833963292
  0
ELLIPSE
  5
18080
330
1F
100
AcDbEntity
  8
AM_0
100
AcDbEllipse
 10
24.64486102507709
 20
-83.53648728419796
 30
0.0
 11
3.276752591543996
 21
0.3256350784502836
 31
0.0
210
0.0
220
0.0
230
1.0
 40
0.0984102434476222
 41
3.042540497191595
 42
6.382237463577794
  0
ELLIPSE
  5
18081
330
1F
100
AcDbEntity
  8
AM_0
100
AcDbEllipse
 10
24.7102264434514
 20
-84.19423676584114
 30
0.0
 11
3.937710408034925
 21
0.3913193327271081
 31
0.0
210
0.0
220
0.0
230
1.0
 40
0.0984102434476222
 41
3.042540497191649
 42
6.382237463577829
  0
ELLIPSE
  5
18082
330
1F
100
AcDbEntity
  8
AM_0
100
AcDbEllipse
 10
24.77981299393144
 20
-84.8944620324408
 30
0.0
 11
4.229167965270399
 21
0.4202836203453912
 31
0.0
210
0.0
220
0.0
230
0.9999999999999999
 40
0.0984102434476222
 41
3.141592653589783
 42
6.283185307179584
  0
LINE
  5
18086
330
1F
100
AcDbEntity
  8
AM_0
100
AcDbLine
 10
158.3207583342102
 20
-94.56506978755357
 30
0.0
 11
38.32075833421021
 21
-94.56506978755357
 31
0.0
  0
LINE
  5
18087
330
1F
100
AcDbEntity
  8
AM_0
100
AcDbLine
 10
158.3207583342102
 20
-94.56506978755357
 30
0.0
 11
158.3207583342102
 21
-119.5650697875536
 31
0.0
  0
LINE
  5
18088
330
1F
100
AcDbEntity
  8
AM_0
100
AcDbLine
 10
38.32075833421021
 20
-119.5650697875536
 30
0.0
 11
158.3207583342102
 21
-119.5650697875536
 31
0.0
  0
LINE
  5
18089
330
1F
100
AcDbEntity
  8
AM_0
100
AcDbLine
 10
38.32075833421021
 20
-94.56506978755357
 30
0.0
 11
38.32075833421021
 21
-119.5650697875536
 31
0.0
  0
LINE
  5
1808A
330
1F
100
AcDbEntity
  8
AM_0
100
AcDbLine
 10
36.71306317962336
 20
-119.5650697875536
 30
0.0
 11
38.32075833421021
 21
-119.5650697875536
 31
0.0
  0
LINE
  5
1808B
330
1F
100
AcDbEntity
  8
AM_0
100
AcDbLine
 10
36.78005047773112
 20
-91.53185204852514
 30
0.0
 11
36.78005047773112
 21
-119.5584127655584
 31
0.0
  0
LINE
  5
1808C
330
1F
100
AcDbEntity
  8
AM_0
100
AcDbLine
 10
9.318361364185989
 20
-119.5650697875536
 30
0.0
 11
36.71306317962336
 21
-119.5650697875536
 31
0.0
  0
LINE
  5
1808D
330
1F
100
AcDbEntity
  8
AM_0
100
AcDbLine
 10
9.318361364185989
 20
-119.5650697875536
 30
0.0
 11
9.318361364185989
 21
-103.9725921059853
 31
0.0
  0
LINE
  5
1808E
330
1F
100
AcDbEntity
  8
AM_0
100
AcDbLine
 10
1.547121344721347
 20
-119.5650697875536
 30
0.0
 11
9.318361364185932
 21
-119.5650697875536
 31
0.0
  0
LINE
  5
1808F
330
1F
100
AcDbEntity
  8
AM_0
100
AcDbLine
 10
1.547121344721347
 20
-103.9833755504109
 30
0.0
 11
1.547121344721347
 21
-119.5650697875536
 31
0.0
  0
LINE
  5
18090
330
1F
100
AcDbEntity
  8
AM_0
100
AcDbLine
 10
10.23025612106909
 20
-103.8646456744403
 30
0.0
 11
10.1381912338797
 21
-103.8737948414662
 31
0.0
  0
LINE
  5
18091
330
1F
100
AcDbEntity
  8
AM_0
100
AcDbLine
 10
10.23025612106909
 20
-94.17030097826154
 30
0.0
 11
10.23025612106909
 21
-103.8646456744403
 31
0.0
  0
LINE
  5
18092
330
1F
100
AcDbEntity
  8
AM_0
100
AcDbLine
 10
14.80819428240153
 20
-92.79757140536074
 30
0.0
 11
14.80610259211608
 21
-92.77652345316798
 31
0.0
  0
LINE
  5
18093
330
1F
100
AcDbEntity
  8
AM_0
100
AcDbLine
 10
37.42654788410794
 20
-91.22783095511265
 30
0.0
 11
36.78005047773112
 21
-91.53185204852514
 31
0.0
  0
LINE
  5
18094
330
1F
100
AcDbEntity
  8
AM_0
100
AcDbLine
 10
36.78005047773112
 20
-91.53185204852514
 30
0.0
 11
10.23025612106909
 21
-94.17030097826154
 31
0.0
  0
LINE
  5
18095
330
1F
100
AcDbEntity
  8
AM_0
100
AcDbLine
 10
14.8269399866295
 20
-93.25668820503256
 30
0.0
 11
10.23025612106909
 21
-94.17030097826157
 31
0.0
  0
LINE
  5
18096
330
1F
100
AcDbEntity
  8
AM_0
100
AcDbLine
 10
33.32744246798114
 20
-89.56506978755357
 30
0.0
 11
36.98101237205464
 21
-89.56506978755357
 31
0.0
  0
LINE
  5
1809A
330
1F
100
AcDbEntity
  8
AM_0
100
AcDbLine
 10
37.42063581511656
 20
-91.20576681325889
 30
0.0
 11
36.98101237205464
 21
-89.56506978755351
 31
0.0
  0
LINE
  5
1809B
330
1F
100
AcDbEntity
  8
AM_0
100
AcDbLine
 10
38.32075833421021
 20
-94.56506978755357
 30
0.0
 11
37.42063581511656
 21
-91.20576681325895
 31
0.0
  0
LINE
  5
1809C
330
1F
100
AcDbEntity
  8
AM_0
100
AcDbLine
 10
1.312806769670544
 20
-103.9833755504109
 30
0.0
 11
1.312806769670544
 21
-119.5650697875536
 31
0.0
  0
LINE
  5
1809D
330
1F
100
AcDbEntity
  8
AM_0
100
AcDbLine
 10
1.547121344721347
 20
-119.5650697875536
 30
0.0
 11
1.312806769670544
 21
-119.5650697875536
 31
0.0
  0
ELLIPSE
  5
1809E
330
1F
100
AcDbEntity
  8
AM_0
100
AcDbEllipse
 10
15.0974169097712
 20
-92.95945505630809
 30
0.0
 11
2.736520448116145
 21
0.271948224929343
 31
0.0
210
0.0
220
0.0
230
1.0
 40
0.0984102434476222
 41
4.603612922889141
 42
6.751888626781996
  0
ELLIPSE
  5
1809F
330
1F
100
AcDbEntity
  8
AM_0
100
AcDbEllipse
 10
32.69499677787752
 20
-91.57302576327282
 30
0.0
 11
1.771275053689699
 21
0.1760246692269864
 31
0.0
210
0.0
220
0.0
230
1.0
 40
0.0984102434476222
 41
3.547687113783766
 42
5.196158732820802
  0
ELLIPSE
  5
180A0
330
1F
100
AcDbEntity
  8
AM_0
100
AcDbEllipse
 10
25.45900521654681
 20
-91.72893725606576
 30
0.0
 11
4.229167965270404
 21
0.4202836203453382
 31
0.0
210
0.0
220
0.0
230
0.9999999999999999
 40
0.0984102434476222
 41
3.452377462832965
 42
5.341263905879766
  0
LINE
  5
180A1
330
1F
100
AcDbEntity
  8
AM_0
100
AcDbLine
 10
-69.27693030249253
 20
-2.6093609064514
 30
0.0
 11
-68.82875746635693
 21
-4.823446820237592
 31
0.0
  0
LINE
  5
180A2
330
1F
100
AcDbEntity
  8
AM_0
100
AcDbLine
 10
-69.83421356953943
 20
-2.702745093014556
 30
0.0
 11
-69.27693030249247
 21
-2.6093609064514
 31
0.0
  0
LINE
  5
180A3
330
1F
100
AcDbEntity
  8
AM_0
100
AcDbLine
 10
-70.06742680125353
 20
-1.550613393781958
 30
0.0
 11
-69.83421356953943
 21
-2.702745093014528
 31
0.0
  0
LINE
  5
180A5
330
1F
100
AcDbEntity
  8
AM_0
100
AcDbLine
 10
-66.46427372312536
 20
9.159422465818267
 30
0.0
 11
-67.61825301768101
 21
7.934136343073106
 31
0.0
  0
LINE
  5
180A6
330
1F
100
AcDbEntity
  8
AM_0
100
AcDbLine
 10
-66.99944806591731
 20
9.25274975966687
 30
0.0
 11
-66.69926633800912
 21
9.182775415558922
 31
0.0
  0
LINE
  5
180A8
330
1F
100
AcDbEntity
  8
AM_0
100
AcDbLine
 10
-66.69926633800912
 20
9.182775415558922
 30
0.0
 11
-66.46427372312536
 21
9.159422465818267
 31
0.0
  0
LINE
  5
180AA
330
1F
100
AcDbEntity
  8
AM_0
100
AcDbLine
 10
-69.25627396833323
 20
3.963451652606352
 30
0.0
 11
-69.7568042477651
 21
2.032236874411154
 31
0.0
  0
LINE
  5
180AB
330
1F
100
AcDbEntity
  8
AM_0
100
AcDbLine
 10
-68.71361926646927
 20
3.888103858505161
 30
0.0
 11
-69.25627396833323
 21
3.963451652606352
 31
0.0
  0
LINE
  5
180AC
330
1F
100
AcDbEntity
  8
AM_0
100
AcDbLine
 10
-67.75173527191237
 20
7.599377005269133
 30
0.0
 11
-68.71361926646927
 21
3.888103858505161
 31
0.0
  0
ELLIPSE
  5
180AE
330
1F
100
AcDbEntity
  8
AM_0
100
AcDbEllipse
 10
-68.64645521763362
 20
-3.925577275546374
 30
0.0
 11
-0.1236047850024565
 21
-1.007582645783417
 31
0.0
210
0.0
220
0.0
230
0.9999999999999999
 40
0.1616787676971412
 41
5.831625297699724
 42
6.311802073438712
  0
SPLINE
  5
180B4
330
1F
100
AcDbEntity
  8
AM_0
100
AcDbSpline
210
0.0
220
0.0
230
1.0
 70
     8
 71
     3
 72
    14
 73
    10
 74
     0
 42
0.0000000001
 43
0.0000000001
 40
1.717671851546749
 40
1.717671851546749
 40
1.717671851546749
 40
1.717671851546749
 40
1.765885894744827
 40
1.765885894744827
 40
2.201983172992251
 40
2.201983172992251
 40
2.638080451239675
 40
2.638080451239675
 40
2.664546665281525
 40
2.664546665281525
 40
2.664546665281525
 40
2.664546665281525
 10
-69.95753755502278
 20
-0.6563322314013647
 30
0.0
 10
-69.95308929436698
 20
-0.6702664241370826
 30
0.0
 10
-69.94890612234411
 20
-0.6840562548246396
 30
0.0
 10
-69.90948286270242
 20
-0.8208506110670726
 30
0.0
 10
-69.89061961702493
 20
-0.9477749914737217
 30
0.0
 10
-69.89716694463641
 20
-1.168657409218355
 30
0.0
 10
-69.9216864156698
 20
-1.262735727267369
 30
0.0
 10
-69.97462623020152
 20
-1.335732164708219
 30
0.0
 10
-69.97780099950541
 20
-1.339888496567284
 30
0.0
 10
-69.98112569237958
 20
-1.344006457275782
 30
0.0
  0
ELLIPSE
  5
180B5
330
1F
100
AcDbEntity
  8
AM_0
100
AcDbEllipse
 10
-66.38902930301276
 20
-0.0016663932511278
 30
0.0
 11
-3.672397522613192
 21
-1.568300807869311
 31
0.0
210
0.0
220
0.0
230
1.0
 40
0.1562825986161633
 41
5.996842528548861
 42
6.2508836934946
  0
ELLIPSE
  5
180B6
330
1F
100
AcDbEntity
  8
AM_0
100
AcDbEllipse
 10
-66.38902930301259
 20
-0.0016663932511278
 30
0.0
 11
-3.333090329321279
 21
2.11461531588005
 31
0.0
210
0.0
220
0.0
230
1.0
 40
0.2615833975272155
 41
0.0840995451574248
 42
0.3381407101030834
  0
ELLIPSE
  5
180B8
330
1F
100
AcDbEntity
  8
AM_0
100
AcDbEllipse
 10
-68.15755137686426
 20
0.1740846920599495
 30
0.0
 11
1.17744457397246
 21
1.688296415422163
 31
0.0
210
0.0
220
0.0
230
1.0
 40
0.874926876982209
 41
1.753883162421358
 42
2.551979018267329
  0
LINE
  5
180BF
330
1F
100
AcDbEntity
  8
AM_0
100
AcDbLine
 10
-61.60678317402068
 20
-2.797752761941354
 30
0.0
 11
-61.71645307419004
 21
-2.91419939785095
 31
0.0
  0
LINE
  5
180C0
330
1F
100
AcDbEntity
  8
AM_0
100
AcDbLine
 10
-60.94530142422553
 20
5.980585816113688
 30
0.0
 11
-60.83563152405617
 21
6.097032452023285
 31
0.0
  0
SPLINE
  5
180C4
330
1F
100
AcDbEntity
  8
AM_0
100
AcDbSpline
210
0.0
220
0.0
230
1.0
 70
     8
 71
     3
 72
    18
 73
    14
 74
     0
 42
0.0000000001
 43
0.0000000001
 40
1.725867467603311
 40
1.725867467603311
 40
1.725867467603311
 40
1.725867467603311
 40
1.762895702346222
 40
1.762895702346222
 40
2.458497849458611
 40
2.458497849458611
 40
3.154099996571
 40
3.154099996571
 40
3.849702143683388
 40
3.849702143683388
 40
4.545304290795777
 40
4.545304290795777
 40
4.582332525538685
 40
4.582332525538685
 40
4.582332525538685
 40
4.582332525538685
 10
-61.76707591759333
 20
-2.94473910311973
 30
0.0
 10
-61.76836073390967
 20
-2.944867265692182
 30
0.0
 10
-61.76966666881873
 20
-2.944938051241849
 30
0.0
 10
-61.79588463457179
 20
-2.94520294734437
 30
0.0
 10
-61.82711361039628
 20
-2.924931033827591
 30
0.0
 10
-61.88104693533273
 20
-2.8465428788993
 30
0.0
 10
-61.90354206217972
 20
-2.788433436546711
 30
0.0
 10
-61.93284233901392
 20
-2.643682739989487
 30
0.0
 10
-61.94064627820677
 20
-2.552107217277722
 30
0.0
 10
-61.94711993940223
 20
-2.332069750871852
 30
0.0
 10
-61.94599992300545
 20
-2.203595873540451
 30
0.0
 10
-61.95034722812289
 20
-2.052330893923369
 30
0.0
 10
-61.95058303269093
 20
-2.044643529715415
 30
0.0
 10
-61.95083675163158
 20
-2.036914618133295
 30
0.0
  0
ELLIPSE
  5
180C9
330
1F
100
AcDbEntity
  8
AM_0
100
AcDbEllipse
 10
-67.70393653434371
 20
6.945826874854788
 30
0.0
 11
-0.1236047850024565
 21
-1.007582645783417
 31
0.0
210
0.0
220
0.0
230
1.0
 40
0.1616787676971408
 41
3.358317541481922
 42
4.026602438853915
  0
ARC
  5
180CE
330
1F
100
AcDbEntity
  8
AM_0
100
AcDbCircle
 10
-70.81879731262569
 20
1.428508258359244
 30
0.0
 40
1.135831643222831
100
AcDbArc
 50
331.1047775002248
 51
14.03544150307065
  0
ARC
  5
180D2
330
1F
100
AcDbEntity
  8
AM_0
100
AcDbCircle
 10
-57.39209662906666
 20
4.151770168610909
 30
0.0
 40
4.008998007417112
100
AcDbArc
 50
154.1633850900121
 51
176.7763246804676
  0
LINE
  5
180D5
330
1F
100
AcDbEntity
  8
AM_0
100
AcDbLine
 10
-61.43988461089231
 20
-3.532245952170428
 30
0.0
 11
-62.02540933011125
 21
-4.153951485682171
 31
0.0
  0
LINE
  5
180D6
330
1F
100
AcDbEntity
  8
AM_0
100
AcDbLine
 10
-61.52667202248989
 20
8.87190656596087
 30
0.0
 11
-66.98459135901572
 21
9.414300274876013
 31
0.0
  0
LINE
  5
180D7
330
1F
100
AcDbEntity
  8
AM_0
100
AcDbLine
 10
-60.18061312071427
 20
7.249699469766114
 30
0.0
 11
-60.32110774921074
 21
5.6291757449589
 31
0.0
  0
LINE
  5
180D8
330
1F
100
AcDbEntity
  8
AM_0
100
AcDbLine
 10
-61.02577606389303
 20
-2.498762912080281
 30
0.0
 11
-61.03744828734148
 21
-2.633395212416787
 31
0.0
  0
LINE
  5
180D9
330
1F
100
AcDbEntity
  8
AM_0
100
AcDbLine
 10
-68.76534822485525
 20
-4.933319192153221
 30
0.0
 11
-63.12087753044347
 21
-4.632945137011205
 31
0.0
  0
ARC
  5
180DA
330
1F
100
AcDbEntity
  8
AM_0
100
AcDbCircle
 10
-63.17550365888752
 20
-3.015838245417029
 30
0.0
 40
1.618029268199528
100
AcDbArc
 50
271.9347248801006
 51
315.2999988033004
  0
LINE
  5
180DB
330
1F
100
AcDbEntity
  8
AM_0
100
AcDbLine
 10
-69.67831729813076
 20
2.335066020334864
 30
0.0
 11
-69.97275806541421
 21
2.36432677154346
 31
0.0
  0
LINE
  5
180DC
330
1F
100
AcDbEntity
  8
AM_0
100
AcDbLine
 10
-70.04772888560865
 20
-1.64792602418666
 30
0.0
 11
-70.38602874697926
 21
-1.614306671239035
 31
0.0
  0
ELLIPSE
  5
180E5
330
1F
100
AcDbEntity
  8
AM_0
100
AcDbEllipse
 10
-61.22120734903848
 20
1.649639845040952
 30
0.0
 11
0.4450061862480603
 21
4.477942551462776
 31
0.0
210
0.0
220
0.0
230
1.0
 40
0.0984102434476224
 41
5.898376843249592
 42
6.410248074877365
  0
ELLIPSE
  5
180E6
330
1F
100
AcDbEntity
  8
AM_0
100
AcDbEllipse
 10
-61.22120734903848
 20
1.649639845040952
 30
0.0
 11
0.4450061862480603
 21
4.477942551462776
 31
0.0
210
0.0
220
0.0
230
1.0
 40
0.0984102434476224
 41
3.268655421287581
 42
3.438238149193775
  0
ELLIPSE
  5
180E7
330
1F
100
AcDbEntity
  8
AM_0
100
AcDbEllipse
 10
-61.33087724920779
 20
1.533193209131383
 30
0.0
 11
0.4450061862480603
 21
4.477942551462776
 31
0.0
210
0.0
220
0.0
230
1.0
 40
0.0984102434476224
 41
0.1270627676977788
 42
0.2343355767201092
  0
ELLIPSE
  5
180E8
330
1F
100
AcDbEntity
  8
AM_0
100
AcDbEllipse
 10
-61.33087724920779
 20
1.533193209131383
 30
0.0
 11
0.4450061862480603
 21
4.477942551462776
 31
0.0
210
0.0
220
0.0
230
1.0
 40
0.0984102434476224
 41
3.161382612265389
 42
3.268655421287581
  0
ELLIPSE
  5
180E9
330
1F
100
AcDbEntity
  8
AM_0
100
AcDbEllipse
 10
-61.33087724920779
 20
1.533193209131383
 30
0.0
 11
0.4450061862480603
 21
4.477942551462776
 31
0.0
210
0.0
220
0.0
230
1.0
 40
0.0984102434476224
 41
0.8924545846726208
 42
2.503263604312594
  0
ARC
  5
180EF
330
1F
100
AcDbEntity
  8
AM_0
100
AcDbCircle
 10
-61.67500741790587
 20
7.379259048806631
 30
0.0
 40
1.5
100
AcDbArc
 50
355.0450145943277
 51
84.32472948671472
  0
ARC
  5
180F0
330
1F
100
AcDbEntity
  8
AM_0
100
AcDbCircle
 10
-62.53184258453308
 20
-2.503835633376298
 30
0.0
 40
1.5
100
AcDbArc
 50
316.7166465340554
 51
355.0450145943277
  0
LINE
  5
180F2
330
1F
100
AcDbEntity
  8
AM_0
100
AcDbLine
 10
-80.32951765061728
 20
0.7004816876533653
 30
0.0
 11
-80.32951765061728
 21
-7.056479701963042
 31
0.0
  0
LINE
  5
180F5
330
1F
100
AcDbEntity
  8
AM_0
100
AcDbLine
 10
-78.69145025231734
 20
9.507818500480681
 30
0.0
 11
-80.21817916984924
 21
1.826347325882352
 31
0.0
  0
LINE
  5
180F7
330
1F
100
AcDbEntity
  8
AM_0
100
AcDbLine
 10
-75.62003244966701
 20
-7.757191889795735
 30
0.0
 11
-80.29729138073776
 21
-7.292378164498928
 31
0.0
  0
LINE
  5
180F8
330
1F
100
AcDbEntity
  8
AM_0
100
AcDbLine
 10
-73.93516714364654
 20
9.273406774567576
 30
0.0
 11
-78.61233804142881
 21
9.738211751347052
 31
0.0
  0
ELLIPSE
  5
18160
330
1F
100
AcDbEntity
  8
AM_0
100
AcDbEllipse
 10
-80.21817916984924
 20
-6.49629948868332
 30
0.0
 11
0.07911221088853597
 21
0.7960786758156057
 31
0.0
210
0.0
220
0.0
230
1.0
 40
0.0984102434476224
 41
2.36108421025045
 42
3.141592653589733
  0
ELLIPSE
  5
18161
330
1F
100
AcDbEntity
  8
AM_0
100
AcDbEllipse
 10
-80.21817916984924
 20
1.260661900933116
 30
0.0
 11
0.07911221088853597
 21
0.7960786758156057
 31
0.0
210
0.0
220
0.0
230
1.0
 40
0.0984102434476224
 41
0.7902878834555525
 42
2.361084210250473
  0
ELLIPSE
  5
18162
330
1F
100
AcDbEntity
  8
AM_0
100
AcDbEllipse
 10
-78.69145025231734
 20
8.942133075531444
 30
0.0
 11
0.07911221088853597
 21
0.7960786758156057
 31
0.0
210
0.0
220
0.0
230
1.0
 40
0.0984102434476224
 41
-0.0000000000000426
 42
0.7902878834555711
  0
LINE
  5
18163
330
1F
100
AcDbEntity
  8
AM_0
100
AcDbLine
 10
-69.72544324389713
 20
-2.68451840475214
 30
0.0
 11
-70.79987340699188
 21
-8.090327014360042
 31
0.0
  0
LINE
  5
18164
330
1F
100
AcDbEntity
  8
AM_0
100
AcDbLine
 10
-70.91121188775998
 20
-8.084821802690527
 30
0.0
 11
-70.91121188775998
 21
-0.2359365315198545
 31
0.0
  0
LINE
  5
18166
330
1F
100
AcDbEntity
  8
AM_0
100
AcDbLine
 10
-75.62488789496985
 20
0.2324962272908238
 30
0.0
 11
-75.62488789496985
 21
-7.616389043879849
 31
0.0
  0
LINE
  5
18168
330
1F
100
AcDbEntity
  8
AM_0
100
AcDbLine
 10
-70.79987340699188
 20
0.8899291067091042
 30
0.0
 11
-69.25505198633516
 21
8.662429565965482
 31
0.0
  0
LINE
  5
1816A
330
1F
100
AcDbEntity
  8
AM_0
100
AcDbLine
 10
-73.96872799354503
 20
9.13086232477616
 30
0.0
 11
-75.51354941420181
 21
1.358361865519782
 31
0.0
  0
LINE
  5
1816C
330
1F
100
AcDbEntity
  8
AM_0
100
AcDbLine
 10
-69.14371350556712
 20
8.656924354295967
 30
0.0
 11
-69.14371350556712
 21
3.947822593200243
 31
0.0
  0
LINE
  5
1816D
330
1F
100
AcDbEntity
  8
AM_0
100
AcDbLine
 10
-70.87898561788046
 20
-8.320720265226441
 30
0.0
 11
-75.59266162509033
 21
-7.852287506415763
 31
0.0
  0
LINE
  5
1816E
330
1F
100
AcDbEntity
  8
AM_0
100
AcDbLine
 10
-69.17593977544664
 20
8.892822816831853
 30
0.0
 11
-73.88961578265651
 21
9.361255575642531
 31
0.0
  0
ELLIPSE
  5
1816F
330
1F
100
AcDbEntity
  8
AM_0
100
AcDbEllipse
 10
-70.79987340699188
 20
-7.524641589410834
 30
0.0
 11
0.07911221088854406
 21
0.7960786758156049
 31
0.0
210
0.0
220
0.0
230
1.0
 40
0.0984102434476224
 41
2.361084210250524
 42
3.931880537045457
  0
ELLIPSE
  5
18170
330
1F
100
AcDbEntity
  8
AM_0
100
AcDbEllipse
 10
-75.51354941420181
 20
-7.056208830600156
 30
0.0
 11
0.07911221088853597
 21
0.7960786758156057
 31
0.0
210
0.0
220
0.0
230
1.0
 40
0.0984102434476224
 41
2.361084210250475
 42
3.141592653589742
  0
ELLIPSE
  5
18171
330
1F
100
AcDbEntity
  8
AM_0
100
AcDbEllipse
 10
-70.79987340699188
 20
0.3242436817598673
 30
0.0
 11
0.07911221088854406
 21
0.7960786758156049
 31
0.0
210
0.0
220
0.0
230
1.0
 40
0.0984102434476224
 41
0.7902878834556264
 42
2.361084210250549
  0
ELLIPSE
  5
18172
330
1F
100
AcDbEntity
  8
AM_0
100
AcDbEllipse
 10
-75.51354941420181
 20
0.7926764405705455
 30
0.0
 11
0.07911221088853597
 21
0.7960786758156057
 31
0.0
210
0.0
220
0.0
230
1.0
 40
0.0984102434476224
 41
0.7902878834555775
 42
2.361084210250498
  0
ELLIPSE
  5
18173
330
1F
100
AcDbEntity
  8
AM_0
100
AcDbEllipse
 10
-69.25505198633516
 20
8.096744141016245
 30
0.0
 11
0.07911221088854406
 21
0.7960786758156049
 31
0.0
210
0.0
220
0.0
230
1.0
 40
0.0984102434476224
 41
5.502676863840279
 42
7.0734731906352
  0
ELLIPSE
  5
18174
330
1F
100
AcDbEntity
  8
AM_0
100
AcDbEllipse
 10
-73.96872799354503
 20
8.565176899826923
 30
0.0
 11
0.07911221088853597
 21
0.7960786758156057
 31
0.0
210
0.0
220
0.0
230
1.0
 40
0.0984102434476224
 41
-0.0000000000000426
 42
0.7902878834555587
  0
ELLIPSE
  5
18175
330
1F
100
AcDbEntity
  8
AM_0
100
AcDbEllipse
 10
-70.02746269666352
 20
0.2860512758026914
 30
0.0
 11
0.2551368801155545
 21
2.567353729505325
 31
0.0
210
0.0
220
0.0
230
1.0
 40
0.0984102434476224
 41
5.660049945154033
 42
10.15247815599382
  0
LINE
  5
18176
330
1F
100
AcDbEntity
  8
AM_0
100
AcDbLine
 10
-59.69396231910881
 20
-0.4781836160719877
 30
0.0
 11
-59.89058950835744
 21
-0.6869608163886198
 31
0.0
  0
LINE
  5
18177
330
1F
100
AcDbEntity
  8
AM_0
100
AcDbLine
 10
-59.89058950835744
 20
-0.6869608163886198
 30
0.0
 11
-59.8458583678015
 21
1.155197126870718
 31
0.0
  0
LINE
  5
18178
330
1F
100
AcDbEntity
  8
AM_0
100
AcDbLine
 10
-59.84585836780144
 20
1.155197126870718
 30
0.0
 11
-59.54785544170653
 21
3.26627705648454
 31
0.0
  0
LINE
  5
18179
330
1F
100
AcDbEntity
  8
AM_0
100
AcDbLine
 10
-59.54785544170653
 20
3.26627705648454
 30
0.0
 11
-59.33419113014313
 21
3.493144139039373
 31
0.0
  0
LINE
  5
1817A
330
1F
100
AcDbEntity
  8
AM_0
100
AcDbLine
 10
-59.30444688426904
 20
3.129002738259118
 30
0.0
 11
-59.33931479672339
 21
1.693041099579716
 31
0.0
  0
LINE
  5
1817C
330
1F
100
AcDbEntity
  8
AM_0
100
AcDbLine
 10
-59.33931479672339
 20
1.693041099579716
 30
0.0
 11
-59.59169818735609
 21
-0.0948658767520385
 31
0.0
  0
ARC
  5
1817E
330
1F
100
AcDbEntity
  8
AM_0
100
AcDbCircle
 10
-69.89097767446447
 20
2.447546209880301
 30
0.0
 40
10.60844084546951
100
AcDbArc
 50
336.3328837174256
 51
12.31657525599988
  0
LINE
  5
1817F
330
1F
100
AcDbEntity
  8
AM_0
100
AcDbLine
 10
-60.82032051230175
 20
5.817062740317596
 30
0.0
 11
-61.03257497261797
 21
5.838156031893789
 31
0.0
  0
LINE
  5
18180
330
1F
100
AcDbEntity
  8
AM_0
100
AcDbLine
 10
-61.66088775299255
 20
-2.641273190223217
 30
0.0
 11
-61.93338856645045
 21
-2.614192774082824
 31
0.0
  0
LINE
  5
18181
330
1F
100
AcDbEntity
  8
AM_0
100
AcDbLine
 10
-59.52670170709138
 20
4.710464865943635
 30
0.0
 11
-60.11265657688853
 21
5.432909086465031
 31
0.0
  0
LINE
  5
18182
330
1F
100
AcDbEntity
  8
AM_0
100
AcDbLine
 10
-60.17477956222098
 20
-1.8109172941856
 30
0.0
 11
-60.89145901743467
 21
-2.403909131969385
 31
0.0
  0
ARC
  5
18183
330
1F
100
AcDbEntity
  8
AM_0
100
AcDbCircle
 10
-61.56020636996408
 20
-1.601882516658037
 30
0.0
 40
1.0442555784782
100
AcDbArc
 50
264.4672613541292
 51
309.8220873130589
  0
ARC
  5
18184
330
1F
100
AcDbEntity
  8
AM_0
100
AcDbCircle
 10
-60.92617190908271
 20
4.778185849159428
 30
0.0
 40
1.044255578478243
100
AcDbArc
 50
38.82737166037064
 51
84.18219761929612
  0
ELLIPSE
  5
18186
330
1F
100
AcDbEntity
  8
AM_0
100
AcDbEllipse
 10
-59.88262938440431
 20
1.452942806192795
 30
0.0
 11
0.3256350784502498
 21
3.276752591543999
 31
0.0
210
0.0
220
0.0
230
1.0
 40
0.0984102434476224
 41
6.184133150781333
 42
9.523830117167531
  0
ELLIPSE
  5
18187
330
1F
100
AcDbEntity
  8
AM_0
100
AcDbEllipse
 10
-60.54037886604755
 20
1.518308224567164
 30
0.0
 11
0.3913193327271475
 21
3.937710408034921
 31
0.0
210
0.0
220
0.0
230
1.0
 40
0.0984102434476224
 41
6.184133150781386
 42
9.523830117167574
  0
ELLIPSE
  5
18188
330
1F
100
AcDbEntity
  8
AM_0
100
AcDbEllipse
 10
-61.24060413264721
 20
1.587894775047175
 30
0.0
 11
0.4202836203453473
 21
4.229167965270404
 31
0.0
210
0.0
220
0.0
230
1.0
 40
0.0984102434476224
 41
-0.000000000000052
 42
3.141592653589742
  0
LINE
  5
1818D
330
1F
100
AcDbEntity
  8
AM_0
100
AcDbLine
 10
-95.91121188775998
 20
-7.070758334210382
 30
0.0
 11
-80.32948126110995
 21
-7.070758334210382
 31
0.0
  0
LINE
  5
1818E
330
1F
100
AcDbEntity
  8
AM_0
100
AcDbLine
 10
-95.91121188775998
 20
0.4504816816028381
 30
0.0
 11
-95.91121188775998
 21
-7.070758334210382
 31
0.0
  0
LINE
  5
1818F
330
1F
100
AcDbEntity
  8
AM_0
100
AcDbLine
 10
-80.32951765061728
 20
0.7004816816028381
 30
0.0
 11
-95.91121188775998
 21
0.7004816816028381
 31
0.0
  0
LINE
  5
18190
330
1F
100
AcDbEntity
  8
AM_0
100
AcDbLine
 10
-80.21708498405798
 20
1.831852531501369
 30
0.0
 11
-95.91121188775998
 21
1.831852531501369
 31
0.0
  0
LINE
  5
18191
330
1F
100
AcDbEntity
  8
AM_0
100
AcDbLine
 10
-95.91121188775998
 20
23.67924166578959
 30
0.0
 11
-95.91121188775998
 21
1.581852531501312
 31
0.0
  0
LINE
  5
18192
330
1F
100
AcDbEntity
  8
AM_0
100
AcDbLine
 10
-66.10267096838788
 20
23.67924166578959
 30
0.0
 11
-95.91121188775998
 21
23.67924166578959
 31
0.0
  0
LINE
  5
18193
330
1F
100
AcDbEntity
  8
AM_0
100
AcDbLine
 10
-78.61780676901765
 20
9.736921527911449
 30
0.0
 11
-78.57106551998692
 21
9.972091997941021
 31
0.0
  0
LINE
  5
18194
330
1F
100
AcDbEntity
  8
AM_0
100
AcDbLine
 10
-70.51644307846794
 20
-7.070758334210382
 30
0.0
 11
-70.59722928426942
 21
-7.070758334210382
 31
0.0
  0
LINE
  5
18195
330
1F
100
AcDbEntity
  8
AM_0
100
AcDbLine
 10
-78.57106551998692
 20
9.734110196413582
 30
0.0
 11
-78.57106551998692
 21
9.972091997940993
 31
0.0
  0
LINE
  5
18196
330
1F
100
AcDbEntity
  8
AM_0
100
AcDbLine
 10
-78.57106551998692
 20
9.972091997940993
 30
0.0
 11
-69.06449206006784
 21
9.027353660714539
 31
0.0
  0
LINE
  5
18197
330
1F
100
AcDbEntity
  8
AM_0
100
AcDbLine
 10
-67.60755864549304
 20
-4.871706692101014
 30
0.0
 11
-67.88465117072661
 21
-7.070758334210382
 31
0.0
  0
LINE
  5
18198
330
1F
100
AcDbEntity
  8
AM_0
100
AcDbLine
 10
-67.88465117072661
 20
-7.070758334210382
 30
0.0
 11
-70.51644307846794
 21
-7.070758334210382
 31
0.0
  0
LINE
  5
18199
330
1F
100
AcDbEntity
  8
AM_0
100
AcDbLine
 10
-69.64187372034337
 20
-2.67051462527408
 30
0.0
 11
-70.51644307846794
 21
-7.070758334210382
 31
0.0
  0
LINE
  5
1819A
330
1F
100
AcDbEntity
  8
AM_0
100
AcDbLine
 10
-69.06449206006778
 20
9.027353660714567
 30
0.0
 11
-69.06449206006778
 21
3.93682266793769
 31
0.0
  0
LINE
  5
1819B
330
1F
100
AcDbEntity
  8
AM_0
100
AcDbLine
 10
-69.06449206006772
 20
9.027353660714539
 30
0.0
 11
-66.15235965700693
 21
23.67924166578965
 31
0.0
  0
LINE
  5
1819C
330
1F
100
AcDbEntity
  8
AM_0
100
AcDbLine
 10
-66.10267096838788
 20
23.67924166578959
 30
0.0
 11
-65.91121188775998
 21
23.67924166578959
 31
0.0
  0
LINE
  5
1819D
330
1F
100
AcDbEntity
  8
AM_0
100
AcDbLine
 10
-65.91121188775998
 20
23.67924166578959
 30
0.0
 11
-65.91121188775998
 21
12.2693259367374
 31
0.0
  0
LINE
  5
181A0
330
1F
100
AcDbEntity
  8
AM_0
100
AcDbLine
 10
-66.21914110979702
 20
9.338231836692017
 30
0.0
 11
-65.91121188775992
 21
12.51932593673737
 31
0.0
  0
LINE
  5
181A1
330
1F
100
AcDbEntity
  8
AM_0
100
AcDbLine
 10
-95.91121188775998
 20
0.4504816816028381
 30
0.0
 11
-95.91121188775998
 21
1.581852531501369
 31
0.0
  0
ELLIPSE
  5
181A2
330
1F
100
AcDbEntity
  8
AM_0
100
AcDbEllipse
 10
-67.91916786347923
 20
-3.400021412343989
 30
0.0
 11
0.1760246692270082
 21
1.771275053689697
 31
0.0
210
0.0
220
0.0
230
1.0
 40
0.09841024344762
 41
2.591699679052082
 42
3.721676438490206
  0
ELLIPSE
  5
181A3
330
1F
100
AcDbEntity
  8
AM_0
100
AcDbEllipse
 10
-66.80528214686382
 20
9.448001674493781
 30
0.0
 11
0.1760246692270079
 21
1.771275053689694
 31
0.0
210
0.0
220
0.0
230
1.0
 40
0.0984102434476201
 41
7.882787944836526
 42
7.974212650858449
  0
LINE
  5
182B5
330
1F
100
AcDbEntity
  8
AM_5
100
AcDbLine
 10
8.652787467903409
 20
-8.320758334210296
 30
0.0
 11
6.049734622136839
 21
-8.320758334210296
 31
0.0
  0
LINE
  5
182B6
330
1F
100
AcDbEntity
  8
AM_5
100
AcDbLine
 10
0.0
 20
-3.265822543979454
 30
0.0
 11
0.0
 21
0.332029133693112
 31
0.0
  0
LINE
  5
182C0
330
1F
100
AcDbEntity
  8
AM_5
370
    13
100
AcDbLine
 10
0.2359365315198261
 20
-0.2359365315198261
 30
0.0
 11
0.0
 21
0.0
 31
0.0
  0
LINE
  5
182EC
330
1F
100
AcDbEntity
  8
AM_5
100
AcDbLine
 10
8.084821802690442
 20
-8.084821802690499
 30
0.0
 11
8.320758334210183
 21
-8.320758334210296
 31
0.0
  0
LINE
  5
182ED
330
1F
100
AcDbEntity
  8
AM_5
100
AcDbLine
 10
8.320758334210183
 20
-8.320758334210296
 30
0.0
 11
8.320758334210183
 21
-10.87590015018725
 31
0.0
  0
DIMENSION
  5
18351
330
1F
100
AcDbEntity
  8
AM_5
370
    13
100
AcDbDimension
  2
*D11
 10
8.320758334210183
 20
-10.87590015018725
 30
0.0
 11
20.22972053917982
 21
-32.84191495674168
 31
0.0
 70
   162
 71
     5
 42
0.7853981633974447
  3
AM_JIS$2
100
AcDb2LineAngularDimension
 13
8.084821802690442
 23
-8.084821802690499
 33
0.0
 14
0.2359365315198261
 24
-0.2359365315198261
 34
0.0
 15
8.320758334210183
 25
-8.320758334210296
 35
0.0
 16
15.37617928445787
 26
-34.65194778932066
 36
0.0
1001
ACAD
1000
DSTYLE
1002
{
1070
   271
1070
     1
1002
}
  0
TEXT
  5
18BD8
330
1F
100
AcDbEntity
  8
AM_6
  6
Continuous
 62
     0
370
    30
100
AcDbText
 10
53.86448050432659
 20
-138.4924187761867
 30
0.0
 40
3.8
  1
DSSNR2525M12
  7
ACISOTS
100
AcDbText
  0
ENDSEC
  0
SECTION
  2
OBJECTS
  0
DICTIONARY
  5
C
330
0
100
AcDbDictionary
281
     1
  3
ACAD_COLOR
350
ED4C
  3
ACAD_GROUP
350
D
  3
ACAD_LAYOUT
350
1A
  3
ACAD_MATERIAL
350
ED4B
  3
ACAD_MLINESTYLE
350
17
  3
ACAD_PLOTSETTINGS
350
19
  3
ACAD_PLOTSTYLENAME
350
E
  3
ACAD_TABLESTYLE
350
ED4D
  3
AcAmCatalogState
350
EDB4
  3
ACDBHEADERROUNDTRIPXREC
350
18DA5
  3
AcDbVariableDictionary
350
30
  3
ACDMSYSVARMGR
350
ED67
  3
ACGREF_MASTER
350
ED5F
  3
ACGREFACAD_MASTER
350
ED87
  3
AcmDictionary
350
4D
  3
ACME_BOM_MANAGER_NAME
350
36
  3
ACME_COMMAND_HISTORY
350
2F
  3
ACME_SCOPE_NAME
350
2E
  3
ACMESTATEMGR
350
3B
  3
AcmeSysVarManager
350
32
  3
AcmSystemVariableManager
350
6A
  3
AD_APPL
350
ED92
  3
ADSYSVARMGR
350
ED91
  3
AmdtNamedDwgMgr
350
ED82
  3
AMG
350
3F
  3
AMGSNAPSETTINGS
350
73
  3
AMI_MASTER
350
ED8A
  3
AUTOCAD_ASSEMBLIES_PROJECT
350
ED9A
  3
Designer_Assemblies_SysVars
350
ED95
  3
DWGPROPS
350
18DA8
  3
FILENAME
350
217A
  3
GREFAM_MODULE
350
ED8B
  3
ZWKSIZE
350
217C
  0
DICTIONARY
  5
EDC8
330
2
100
AcDbDictionary
280
     1
281
     1
  3
ACAD_LAYERSTATES
360
F5B5
  3
AMLAYER_GROUPCOLORS
360
EDC9
  0
DICTIONARY
  5
165
330
1F
100
AcDbDictionary
280
     1
281
     1
  3
ACAD_SORTENTS
360
F11C
  0
DICTIONARY
  5
ED4C
102
{ACAD_REACTORS
330
C
102
}
330
C
100
AcDbDictionary
281
     1
  0
DICTIONARY
  5
D
102
{ACAD_REACTORS
330
C
102
}
330
C
100
AcDbDictionary
281
     1
  0
DICTIONARY
  5
1A
102
{ACAD_REACTORS
330
C
102
}
330
C
100
AcDbDictionary
281
     1
  3
Model
350
22
  3
ﾚｲｱｳﾄ1
350
1E
  3
ﾚｲｱｳﾄ2
350
26
  0
DICTIONARY
  5
ED4B
102
{ACAD_REACTORS
330
C
102
}
330
C
100
AcDbDictionary
281
     1
  0
DICTIONARY
  5
17
102
{ACAD_REACTORS
330
C
102
}
330
C
100
AcDbDictionary
281
     1
  3
Standard
350
18
  0
DICTIONARY
  5
19
102
{ACAD_REACTORS
330
C
102
}
330
C
100
AcDbDictionary
281
     1
  0
ACDBDICTIONARYWDFLT
  5
E
102
{ACAD_REACTORS
330
C
102
}
330
C
100
AcDbDictionary
281
     1
  3
Normal
350
F
100
AcDbDictionaryWithDefault
340
F
  0
DICTIONARY
  5
ED4D
102
{ACAD_REACTORS
330
C
102
}
330
C
100
AcDbDictionary
281
     1
  3
Standard
350
ED4E
  0
ACAD_PROXY_OBJECT
  5
EDB4
102
{ACAD_REACTORS
330
C
102
}
330
C
100
AcDbProxyObject
 90
      499
 91
      571
 95
       25
 70
     0
 93
      184
310
3FFFFFFFE00A028140285221D2E31B0B2483ECB65400AA
  0
DICTIONARY
  5
18DA5
102
{ACAD_REACTORS
330
C
102
}
330
C
100
AcDbDictionary
281
     1
  3
COLORDICT
350
18DA6
  3
MATERIALDICT
350
18DA7
  0
DICTIONARY
  5
30
102
{ACAD_REACTORS
330
C
102
}
330
C
100
AcDbDictionary
281
     1
  3
CTABLESTYLE
350
EE09
  3
HIDETEXT
350
18DA4
  3
INDEXCTL
350
18DA3
  0
ACAD_PROXY_OBJECT
  5
ED67
102
{ACAD_REACTORS
330
C
102
}
330
C
100
AcDbProxyObject
 90
      499
 91
      507
 95
       25
 70
     0
 93
      240
310
4C51A47A0000000000000000000000000000000000000000000000000000
330
ED68
330
ED69
330
ED6A
330
ED6B
330
ED6C
330
ED6D
330
ED6E
330
ED6F
330
ED70
330
ED71
330
ED72
330
ED73
330
ED74
330
ED75
330
ED76
330
ED77
330
ED78
330
ED79
330
ED7A
330
ED7B
330
ED7C
330
ED7D
330
ED7E
330
ED7F
330
ED80
330
ED81
 94
        0
  0
ACAD_PROXY_OBJECT
  5
ED5F
102
{ACAD_REACTORS
330
C
102
}
330
C
100
AcDbProxyObject
 90
      499
 91
      535
 95
       25
 70
     0
 93
       34
310
0400004280
  0
ACAD_PROXY_OBJECT
  5
ED87
102
{ACAD_REACTORS
330
C
102
}
330
C
100
AcDbProxyObject
 90
      499
 91
      541
 95
       25
 70
     0
 93
      114
310
04000041C080000000000000000000
  0
DICTIONARY
  5
4D
102
{ACAD_REACTORS
330
C
102
}
330
C
100
AcDbDictionary
281
     1
  3
AcmBOMDATA
350
4E
  3
AcmStdDictionary
350
17E
  3
AMDTSECTSYM_ARROWCOLOR
350
EDA8
  0
ACAD_PROXY_OBJECT
  5
36
102
{ACAD_REACTORS
330
C
102
}
330
C
100
AcDbProxyObject
 90
      499
 91
      510
 95
       25
 70
     0
 93
       50
310
00010040400000
330
0
330
0
330
37
 94
        0
  0
ACAD_PROXY_OBJECT
  5
2F
102
{ACAD_REACTORS
330
C
102
}
330
C
100
AcDbProxyObject
 90
      499
 91
      505
 95
       25
 70
     0
 93
     2148
310
47805054552415345805054552415345805054552415345805045452494D805054552415345805054552415345805045452494D805054552415345805054552415345805054552415345805054552415345805054552415345805054552415345805054552415345805045452494D805054552415345805054552415345805
310
054552415345805045452494D805045452494D805054552415345805054552415345805054552415345805054552415345805054552415345805054552415345805054552415345805045A4F4F4D805055055524745805055153415645404052D4D5347202D205050413A2020206465736B746F702E6172782046696C65566
310
57273696F6E3A20392E322E302E340
  0
ACAD_PROXY_OBJECT
  5
2E
102
{ACAD_REACTORS
330
C
102
}
330
C
100
AcDbProxyObject
 90
      499
 91
      504
 95
       25
 70
     0
 93
      594
310
09000046408000000000000000001354E60000000000000000000000000000000000000000000000000000000000000000000000000000000000000000000000000000000000AAA406AA80
360
33
360
34
360
35
360
37
360
6B
360
6C
360
ED60
360
ED61
360
ED62
360
ED63
360
ED64
360
ED65
360
ED68
360
ED69
360
ED6A
360
ED6B
360
ED6C
360
ED6D
360
ED6E
360
ED6F
360
ED70
360
ED71
360
ED72
360
ED73
360
ED74
360
ED75
360
ED76
360
ED77
360
ED78
360
ED79
360
ED7A
360
ED7B
360
ED7C
360
ED7D
360
ED7E
360
ED7F
360
ED80
360
ED81
360
ED8D
360
ED8E
360
ED8F
360
ED90
360
ED96
360
ED97
360
ED98
360
ED99
360
ED9E
360
ED9F
360
EDA0
360
EDA1
360
EDA2
360
EDA3
360
EDCB
 94
        0
  0
ACAD_PROXY_OBJECT
  5
3B
102
{ACAD_REACTORS
330
C
102
}
330
C
100
AcDbProxyObject
 90
      499
 91
      515
 95
       25
 70
     0
 93
       50
310
09000042641280
  0
ACAD_PROXY_OBJECT
  5
32
102
{ACAD_REACTORS
330
C
102
}
330
C
100
AcDbProxyObject
 90
      499
 91
      507
 95
       25
 70
     0
 93
       48
310
903412000000
330
33
330
34
330
35
 94
        0
  0
ACAD_PROXY_OBJECT
  5
6A
102
{ACAD_REACTORS
330
C
102
}
330
C
100
AcDbProxyObject
 90
      499
 91
      507
 95
       25
 70
     0
 93
       48
310
903412000000
330
6B
330
6C
330
EDCB
 94
        0
  0
ACAD_PROXY_OBJECT
  5
ED92
102
{ACAD_REACTORS
330
C
102
}
330
C
100
AcDbProxyObject
 90
      499
 91
      551
 95
       25
 70
     0
 93
       42
310
000900004040
330
ED8D
 94
        0
  0
ACAD_PROXY_OBJECT
  5
ED91
102
{ACAD_REACTORS
330
C
102
}
330
C
100
AcDbProxyObject
 90
      499
 91
      507
 95
       25
 70
     0
 93
        8
310
AA
  0
ACAD_PROXY_OBJECT
  5
ED82
102
{ACAD_REACTORS
330
C
102
}
330
C
100
AcDbProxyObject
 90
      499
 91
      540
 95
       25
 70
     0
 93
       42
310
000100005E80
330
ED60
 94
        0
  0
DICTIONARY
  5
3F
102
{ACAD_REACTORS
330
C
102
}
330
C
100
AcDbDictionary
281
     1
  3
AcMgSettings
350
40
  3
AMGLAYCFG
350
42
  0
DICTIONARY
  5
73
102
{ACAD_REACTORS
330
C
102
}
330
C
100
AcDbDictionary
281
     1
  3
DIMENSION
350
62F
  3
FEA
350
630
  3
HATCH (1)
350
631
  3
HATCH (2)
350
632
  3
SYMBOLS
350
633
  0
ACAD_PROXY_OBJECT
  5
ED8A
102
{ACAD_REACTORS
330
C
102
}
330
C
100
AcDbProxyObject
 90
      499
 91
      544
 95
       25
 70
     0
 93
       34
310
0500004280
  0
ACAD_PROXY_OBJECT
  5
ED9A
102
{ACAD_REACTORS
330
C
102
}
330
C
100
AcDbProxyObject
 90
      499
 91
      554
 95
       25
 70
     0
 93
       98
310
0900004E400000000000000000
330
EDA1
330
0
330
EDA2
330
0
330
0
330
0
330
0
330
0
 94
        0
  0
ACAD_PROXY_OBJECT
  5
ED95
102
{ACAD_REACTORS
330
C
102
}
330
C
100
AcDbProxyObject
 90
      499
 91
      507
 95
       25
 70
     0
 93
       56
310
90441600000000
330
ED96
330
ED97
330
ED98
330
ED99
 94
        0
  0
XRECORD
  5
18DA8
102
{ACAD_REACTORS
330
C
102
}
330
C
100
AcDbXrecord
280
     1
  1
DWGPROPS COOKIE
  2

  3

  4

  6

  7

  8

  9

300
AmdtFileType=84
301
=
302
=
303
=
304
=
305
=
306
=
307
=
308
=
309
=
 40
0.0
 41
2451943.235431667
 42
2455441.010801863
  1

 90
        1
  0
DICTIONARY
  5
217A
102
{ACAD_REACTORS
330
C
102
}
330
C
100
AcDbDictionary
281
     1
  3
FILENAME
350
217B
  0
ACAD_PROXY_OBJECT
  5
ED8B
102
{ACAD_REACTORS
330
C
102
}
330
C
100
AcDbProxyObject
 90
      499
 91
      545
 95
       25
 70
     0
 93
        8
310
05
  0
DICTIONARY
  5
217C
102
{ACAD_REACTORS
330
C
102
}
330
C
100
AcDbDictionary
281
     1
  3
ZWKSIZE
350
217D
  0
DICTIONARY
  5
F5B5
102
{ACAD_REACTORS
330
EDC8
102
}
330
EDC8
100
AcDbDictionary
281
     1
  0
DICTIONARY
  5
EDC9
102
{ACAD_REACTORS
330
EDC8
102
}
330
EDC8
100
AcDbDictionary
280
     1
281
     1
  3
基本画層グループ
360
EDCA
  0
SORTENTSTABLE
  5
F11C
102
{ACAD_REACTORS
330
165
102
}
330
165
100
AcDbSortentsTable
330
1F
331
0
  5
17FF4
331
166D0
  5
16917
331
166D1
  5
16918
331
166D2
  5
16ACF
331
166D3
  5
16AD0
331
16AEF
  5
16BC3
331
16B57
  5
16D0E
331
16B79
  5
16D8A
331
16BC3
  5
16DD6
331
16D0E
  5
16EB1
331
16E7F
  5
1706E
331
16EB1
  5
170C3
331
17F77
  5
17F78
331
17F78
  5
17F79
331
17F79
  5
17F7A
331
17F7B
  5
17F7C
331
17F7C
  5
17F7D
331
17F7D
  5
17F7E
331
17F7F
  5
17F80
331
17F83
  5
17F84
331
17F84
  5
17F85
331
17F85
  5
17F86
331
17F86
  5
17F87
331
17F87
  5
17F88
331
17F88
  5
17F89
331
17F8A
  5
17F8B
331
17F90
  5
17F91
331
17F91
  5
17F92
331
17F92
  5
17F93
331
17F94
  5
17F95
331
17F9A
  5
17F9B
331
17F9B
  5
17F9C
331
17F9F
  5
17FA0
331
17FA4
  5
17FA5
331
17FA9
  5
17FAA
331
17FAD
  5
17FAE
331
17FB0
  5
17FB1
331
17FB1
  5
17FB2
331
17FB2
  5
17FB3
331
17FB3
  5
17FB4
331
17FB5
  5
17FB6
331
17FB6
  5
17FB7
331
17FB7
  5
17FB8
331
17FC3
  5
17FC4
331
17FC4
  5
17FC5
331
17FC5
  5
17FC6
331
17FC6
  5
17FC7
331
17FC7
  5
17FC8
331
17FCD
  5
17FCE
331
17FCE
  5
17FCF
331
17FCF
  5
17FD0
331
17FD2
  5
17FD3
331
17FD3
  5
17FD4
331
17FD4
  5
17FD5
331
17FD5
  5
17FD6
331
17FD6
  5
17FD7
331
17FD7
  5
17FD8
331
17FD8
  5
17FD9
331
17FD9
  5
17FDA
331
17FDA
  5
17FDB
331
17FDC
  5
17FDD
331
17FDD
  5
17FDE
331
17FDE
  5
17FDF
331
17FDF
  5
17FE0
331
17FE0
  5
17FE1
331
17FE1
  5
17FE2
331
17FE2
  5
17FE3
331
17FE3
  5
17FE4
331
17FE4
  5
17FE5
331
17FE5
  5
17FE6
331
17FE6
  5
17FE7
331
17FE7
  5
17FE8
331
17FE8
  5
17FE9
331
17FE9
  5
17FEA
331
17FEA
  5
17FEB
331
17FEB
  5
17FEC
331
17FEC
  5
17FED
331
17FED
  5
17FEE
331
17FEE
  5
17FEF
331
17FEF
  5
17FF0
331
17FF8
  5
17FF9
331
17FF9
  5
17FFA
331
17FFA
  5
17FFB
331
17FFB
  5
17FFC
331
17FFC
  5
17FFD
331
17FFD
  5
17FFE
331
17FFE
  5
17FFF
331
17FFF
  5
18000
331
18000
  5
18001
331
18001
  5
18002
331
18004
  5
18005
331
18005
  5
18006
331
18006
  5
18007
331
18007
  5
18008
331
18008
  5
18009
331
18009
  5
1800A
331
18013
  5
18014
331
18014
  5
18015
331
18015
  5
18016
331
18016
  5
18017
331
18017
  5
18018
331
1801D
  5
1801E
331
1801E
  5
1801F
331
18023
  5
18024
331
18029
  5
1802A
331
1802A
  5
1802B
331
1802C
  5
1802D
331
18032
  5
18033
331
18035
  5
18036
331
18038
  5
18039
331
1803B
  5
1803C
331
1803C
  5
1803D
331
1803E
  5
1803F
331
1803F
  5
18040
331
18040
  5
18041
331
18041
  5
18042
331
18042
  5
18043
331
1804B
  5
1804C
331
1804C
  5
1804D
331
1804D
  5
1804E
331
1804F
  5
18050
331
18051
  5
18052
331
18052
  5
18053
331
18053
  5
18054
331
18056
  5
18057
331
18058
  5
18059
331
18059
  5
1805A
331
1805A
  5
1805B
331
1805B
  5
1805C
331
1805C
  5
1805D
331
1805D
  5
1805E
331
1805F
  5
18060
331
18061
  5
18062
331
18063
  5
18064
331
18064
  5
18065
331
18065
  5
18066
331
18066
  5
18067
331
18067
  5
18068
331
18068
  5
18069
331
18069
  5
1806A
331
1806A
  5
1806B
331
1806B
  5
1806C
331
1806C
  5
1806D
331
1806D
  5
1806E
331
1806E
  5
1806F
331
1806F
  5
18070
331
18070
  5
18071
331
18072
  5
18073
331
18074
  5
18075
331
18075
  5
18076
331
18076
  5
18077
331
18077
  5
18078
331
18078
  5
18079
331
18079
  5
1807A
331
1807A
  5
1807B
331
1807B
  5
1807C
331
1807C
  5
1807D
331
1807D
  5
1807E
331
1807E
  5
1807F
331
18080
  5
18081
331
18081
  5
18082
331
18082
  5
18083
331
18086
  5
18087
331
18087
  5
18088
331
18088
  5
18089
331
18089
  5
1808A
331
1808A
  5
1808B
331
1808B
  5
1808C
331
1808C
  5
1808D
331
1808D
  5
1808E
331
1808E
  5
1808F
331
1808F
  5
18090
331
18090
  5
18091
331
18091
  5
18092
331
18092
  5
18093
331
18093
  5
18094
331
18094
  5
18095
331
18095
  5
18096
331
18096
  5
18097
331
1809A
  5
1809B
331
1809B
  5
1809C
331
1809C
  5
1809D
331
1809D
  5
1809E
331
1809E
  5
1809F
331
1809F
  5
180A0
331
180A0
  5
180A1
331
180A1
  5
180A2
331
180A2
  5
180A3
331
180A3
  5
180A4
331
180A5
  5
180A6
331
180A6
  5
180A7
331
180A8
  5
180A9
331
180AA
  5
180AB
331
180AB
  5
180AC
331
180AC
  5
180AD
331
180AE
  5
180AF
331
180B4
  5
180B5
331
180B5
  5
180B6
331
180B6
  5
180B7
331
180B8
  5
180B9
331
180BF
  5
180C0
331
180C0
  5
180C1
331
180C4
  5
180C5
331
180C9
  5
180CA
331
180CE
  5
180CF
331
180D2
  5
180D3
331
180D5
  5
180D6
331
180D6
  5
180D7
331
180D7
  5
180D8
331
180D8
  5
180D9
331
180D9
  5
180DA
331
180DA
  5
180DB
331
180DB
  5
180DC
331
180DC
  5
180DD
331
180E5
  5
180E6
331
180E6
  5
180E7
331
180E7
  5
180E8
331
180E8
  5
180E9
331
180E9
  5
180EA
331
180EF
  5
180F0
331
180F0
  5
180F1
331
180F2
  5
180F3
331
180F5
  5
180F6
331
180F7
  5
180F8
331
180F8
  5
180F9
331
18160
  5
18162
331
18161
  5
18163
331
18162
  5
18164
331
18163
  5
18165
331
18164
  5
18166
331
18166
  5
18168
331
18168
  5
1816A
331
1816A
  5
1816C
331
1816C
  5
1816E
331
1816D
  5
1816F
331
1816E
  5
18170
331
1816F
  5
18171
331
18170
  5
18172
331
18171
  5
18173
331
18172
  5
18174
331
18173
  5
18175
331
18174
  5
18176
331
18175
  5
18177
331
18176
  5
18178
331
18177
  5
18179
331
18178
  5
1817A
331
18179
  5
1817B
331
1817A
  5
1817C
331
1817C
  5
1817E
331
1817E
  5
18180
331
1817F
  5
18181
331
18180
  5
18182
331
18181
  5
18183
331
18182
  5
18184
331
18183
  5
18185
331
18184
  5
18186
331
18186
  5
18188
331
18187
  5
18189
331
18188
  5
1818A
331
1818D
  5
1818F
331
1818E
  5
18190
331
1818F
  5
18191
331
18190
  5
18192
331
18191
  5
18193
331
18192
  5
18194
331
18193
  5
18195
331
18194
  5
18196
331
18195
  5
18197
331
18196
  5
18198
331
18197
  5
18199
331
18198
  5
1819A
331
18199
  5
1819B
331
1819A
  5
1819C
331
1819B
  5
1819D
331
1819C
  5
1819E
331
1819D
  5
1819F
331
181A0
  5
181A2
331
181A1
  5
181A3
331
181A2
  5
181A4
331
181A3
  5
181A5
331
182B5
  5
182C0
331
182B6
  5
182C1
331
182C0
  5
182EC
331
182EC
  5
18351
331
182ED
  5
184A9
331
18351
  5
184F9
  0
LAYOUT
  5
22
102
{ACAD_REACTORS
330
1A
102
}
330
1A
100
AcDbPlotSettings
  1

  2
SII LP-2150 (D-SCAN C2)
  4
User120
  6
AM_VIEW1
 40
3.174999952316284
 41
3.174999952316284
 42
3.17498779296875
 43
3.17498779296875
 44
296.9259948730469
 45
419.9889831542969
 46
0.0
 47
0.0
 48
0.0
 49
0.0
140
420.0
141
297.0
142
1.0
143
1.022107788374329
 70
 11952
 72
     1
 73
     1
 74
     4
  7
sei_cad.ctb
 75
     0
147
0.9783703943695685
148
0.0
149
0.0
100
AcDbLayout
  1
Model
 70
     1
 71
     0
 10
0.0
 20
0.0
 11
12.0
 21
9.0
 12
0.0
 22
0.0
 32
0.0
 14
0.0
 24
0.0
 34
0.0
 15
0.0
 25
0.0
 35
0.0
146
0.0
 13
0.0
 23
0.0
 33
0.0
 16
1.0
 26
0.0
 36
0.0
 17
0.0
 27
1.0
 37
0.0
 76
     0
330
1F
1001
ACAD_PSEXT
1000
SII LP-2150 (D-SCAN C2)
1000
SII LP-2150 (D-SCAN C2)
1000
133.153.16.130#3000
1000

1070
     0
  0
LAYOUT
  5
1E
102
{ACAD_REACTORS
330
1A
102
}
330
1A
100
AcDbPlotSettings
  1

  2
Canon LASER SHOT LBP-2030
  4

  6

 40
0.0
 41
0.0
 42
0.0
 43
0.0
 44
0.0
 45
0.0
 46
0.0
 47
0.0
 48
0.0
 49
0.0
140
0.0
141
0.0
142
1.0
143
1.0
 70
   688
 72
     0
 73
     0
 74
     5
  7
sei_cad.ctb
 75
    16
147
1.0
148
0.0
149
0.0
100
AcDbLayout
  1
ﾚｲｱｳﾄ1
 70
     1
 71
     1
 10
0.0
 20
0.0
 11
420.0
 21
297.0
 12
0.0
 22
0.0
 32
0.0
 14
1.000000000000000E+20
 24
1.000000000000000E+20
 34
1.000000000000000E+20
 15
-1.000000000000000E+20
 25
-1.000000000000000E+20
 35
-1.000000000000000E+20
146
0.0
 13
0.0
 23
0.0
 33
0.0
 16
1.0
 26
0.0
 36
0.0
 17
0.0
 27
1.0
 37
0.0
 76
     0
330
1B
  0
LAYOUT
  5
26
102
{ACAD_REACTORS
330
1A
102
}
330
1A
100
AcDbPlotSettings
  1

  2
Canon LASER SHOT LBP-2030
  4

  6

 40
0.0
 41
0.0
 42
0.0
 43
0.0
 44
0.0
 45
0.0
 46
0.0
 47
0.0
 48
0.0
 49
0.0
140
0.0
141
0.0
142
1.0
143
1.0
 70
   688
 72
     0
 73
     0
 74
     5
  7
sei_cad.ctb
 75
    16
147
1.0
148
0.0
149
0.0
100
AcDbLayout
  1
ﾚｲｱｳﾄ2
 70
     1
 71
     2
 10
0.0
 20
0.0
 11
12.0
 21
9.0
 12
0.0
 22
0.0
 32
0.0
 14
0.0
 24
0.0
 34
0.0
 15
0.0
 25
0.0
 35
0.0
146
0.0
 13
0.0
 23
0.0
 33
0.0
 16
1.0
 26
0.0
 36
0.0
 17
0.0
 27
1.0
 37
0.0
 76
     0
330
23
  0
MLINESTYLE
  5
18
102
{ACAD_REACTORS
330
17
102
}
330
17
100
AcDbMlineStyle
  2
STANDARD
 70
     0
  3

 62
   256
 51
90.0
 52
90.0
 71
     2
 49
0.5
 62
   256
  6
BYLAYER
 49
-0.5
 62
   256
  6
BYLAYER
  0
ACDBPLACEHOLDER
  5
F
102
{ACAD_REACTORS
330
E
102
}
330
E
  0
TABLESTYLE
  5
ED4E
102
{ACAD_REACTORS
330
ED4D
102
}
330
ED4D
100
AcDbTableStyle
  3
Standard
 70
     0
 71
     8
 40
1.5
 41
1.5
280
     0
281
     0
  7
STANDARD
140
4.5
170
     2
 62
     0
 63
     7
283
     0
274
    -2
284
     1
 64
     0
275
    -2
285
     1
 65
     0
276
    -2
286
     1
 66
     0
277
    -2
287
     1
 67
     0
278
    -2
288
     1
 68
     0
279
    -2
289
     1
 69
     0
  7
STANDARD
140
6.0
170
     5
 62
     0
 63
     7
283
     0
274
    -2
284
     1
 64
     0
275
    -2
285
     1
 65
     0
276
    -2
286
     1
 66
     0
277
    -2
287
     1
 67
     0
278
    -2
288
     1
 68
     0
279
    -2
289
     1
 69
     0
  7
STANDARD
140
4.5
170
     5
 62
     0
 63
     7
283
     0
274
    -2
284
     1
 64
     0
275
    -2
285
     1
 65
     0
276
    -2
286
     1
 66
     0
277
    -2
287
     1
 67
     0
278
    -2
288
     1
 68
     0
279
    -2
289
     1
 69
     0
  0
XRECORD
  5
18DA6
102
{ACAD_REACTORS
330
18DA5
102
}
330
18DA5
100
AcDbXrecord
280
     1
340
ED4C
  0
XRECORD
  5
18DA7
102
{ACAD_REACTORS
330
18DA5
102
}
330
18DA5
100
AcDbXrecord
280
     1
340
ED4B
  0
DICTIONARYVAR
  5
EE09
102
{ACAD_REACTORS
330
30
102
}
330
30
100
DictionaryVariables
280
     0
  1
STANDARD
  0
DICTIONARYVAR
  5
18DA4
102
{ACAD_REACTORS
330
30
102
}
330
30
100
DictionaryVariables
280
     0
  1
0
  0
DICTIONARYVAR
  5
18DA3
102
{ACAD_REACTORS
330
30
102
}
330
30
100
DictionaryVariables
280
     0
  1
1
  0
ACAD_PROXY_OBJECT
  5
4E
102
{ACAD_REACTORS
330
4D
102
}
330
4D
100
AcDbProxyObject
 90
      499
 91
      520
 95
       25
 70
     0
 93
      118
310
405010040CA904C415CD5B075DD258
350
4F
 94
        0
  0
DICTIONARY
  5
17E
102
{ACAD_REACTORS
330
4D
102
}
330
4D
100
AcDbDictionary
281
     1
  3
ISO
350
F94D
  3
JIS
350
17F
  0
XRECORD
  5
EDA8
102
{ACAD_REACTORS
330
4D
102
}
330
4D
100
AcDbXrecord
280
     1
 90
-1023410169
  0
ACAD_PROXY_OBJECT
  5
33
330
2E
100
AcDbProxyObject
 90
      499
 91
      508
 95
       25
 70
     0
 93
      156
310
00010143D050D351505391D5531054925390D490
330
2E
 94
        0
  0
ACAD_PROXY_OBJECT
  5
34
330
2E
100
AcDbProxyObject
 90
      499
 91
      508
 95
       25
 70
     0
 93
      148
310
000101439050D351531253915054925390D490
330
2E
 94
        0
  0
ACAD_PROXY_OBJECT
  5
35
330
2E
100
AcDbProxyObject
 90
      499
 91
      509
 95
       25
 70
     0
 93
      156
310
000101439050D35154D6535093D314D256915080
330
2E
 94
        0
  0
ACAD_PROXY_OBJECT
  5
37
330
2E
100
AcDbProxyObject
 90
      499
 91
      511
 95
       25
 70
     0
 93
       88
310
000101411093D34C402B00
330
2E
330
0
330
0
 94
        0
  0
ACAD_PROXY_OBJECT
  5
6B
330
2E
100
AcDbProxyObject
 90
      499
 91
      509
 95
       25
 70
     0
 93
      108
310
00010142505351D153D35054D4E0
330
2E
 94
        0
  0
ACAD_PROXY_OBJECT
  5
6C
330
2E
100
AcDbProxyObject
 90
      499
 91
      522
 95
       25
 70
     0
 93
      140
310
00010142105350D55494D511005034A49530
330
2E
 94
        0
  0
ACAD_PROXY_OBJECT
  5
ED60
330
2E
100
AcDbProxyObject
 90
      499
 91
      536
 95
       25
 70
     0
 93
      486
310
0001014124FEA55D00507392E312E302E34014124FEA55D00507392E322E302E324050100004157D554D1548182D4454FB21E93F0CCCCCCCCCCCF4CFD8
330
2E
330
ED61
330
ED67
 94
        0
  0
ACAD_PROXY_OBJECT
  5
ED61
330
2E
100
AcDbProxyObject
 90
      499
 91
      537
 95
       25
 70
     0
 93
       56
310
000190240E0000
330
2E
330
ED62
330
ED64
 94
        0
  0
ACAD_PROXY_OBJECT
  5
ED62
330
2E
100
AcDbProxyObject
 90
      499
 91
      538
 95
       25
 70
     0
 93
       48
310
0001AA000000
330
2E
330
1E
330
ED63
330
0
 94
        0
  0
ACAD_PROXY_OBJECT
  5
ED63
330
2E
100
AcDbProxyObject
 90
      499
 91
      539
 95
       25
 70
     0
 93
       28
310
0001AAA0
330
2E
 94
        0
  0
ACAD_PROXY_OBJECT
  5
ED64
330
2E
100
AcDbProxyObject
 90
      499
 91
      538
 95
       25
 70
     0
 93
       48
310
0001AA000000
330
2E
330
26
330
ED65
330
0
 94
        0
  0
ACAD_PROXY_OBJECT
  5
ED65
330
2E
100
AcDbProxyObject
 90
      499
 91
      539
 95
       25
 70
     0
 93
       28
310
0001AAA0
330
2E
 94
        0
  0
ACAD_PROXY_OBJECT
  5
ED68
330
2E
100
AcDbProxyObject
 90
      499
 91
      509
 95
       25
 70
     0
 93
      108
310
000101421053521310D05310D010
330
2E
 94
        0
  0
ACAD_PROXY_OBJECT
  5
ED69
330
2E
100
AcDbProxyObject
 90
      499
 91
      509
 95
       25
 70
     0
 93
      124
310
00010142905354915554D15112535010
330
2E
 94
        0
  0
ACAD_PROXY_OBJECT
  5
ED6A
330
2E
100
AcDbProxyObject
 90
      499
 91
      509
 95
       25
 70
     0
 93
      132
310
00010143105354D150D51253D391125360
330
2E
 94
        0
  0
ACAD_PROXY_OBJECT
  5
ED6B
330
2E
100
AcDbProxyObject
 90
      499
 91
      509
 95
       25
 70
     0
 93
      124
310
00010142905355941093D49111549010
330
2E
 94
        0
  0
ACAD_PROXY_OBJECT
  5
ED6C
330
2E
100
AcDbProxyObject
 90
      499
 91
      509
 95
       25
 70
     0
 93
      116
310
0001014290535115D1D0D3D313D4A0
330
2E
 94
        0
  0
ACAD_PROXY_OBJECT
  5
ED6D
330
2E
100
AcDbProxyObject
 90
      499
 91
      509
 95
       25
 70
     0
 93
      148
310
00010143505355925155D49151949154D21010
330
2E
 94
        0
  0
ACAD_PROXY_OBJECT
  5
ED6E
330
2E
100
AcDbProxyObject
 90
      499
 91
      509
 95
       25
 70
     0
 93
      172
310
00010144105350539393D51154149154D15495915010
330
2E
 94
        0
  0
ACAD_PROXY_OBJECT
  5
ED6F
330
2E
100
AcDbProxyObject
 90
      499
 91
      509
 95
       25
 70
     0
 93
      172
310
00010144105350555513D11253505494905391D15010
330
2E
 94
        0
  0
ACAD_PROXY_OBJECT
  5
ED70
330
2E
100
AcDbProxyObject
 90
      499
 91
      509
 95
       25
 70
     0
 93
      124
310
00010142D05351561514915191125360
330
2E
 94
        0
  0
ACAD_PROXY_OBJECT
  5
ED71
330
2E
100
AcDbProxyObject
 90
      499
 91
      509
 95
       25
 70
     0
 93
      132
310
00010142D05355105410539393D5115010
330
2E
 94
        0
  0
ACAD_PROXY_OBJECT
  5
ED72
330
2E
100
AcDbProxyObject
 90
      499
 91
      509
 95
       25
 70
     0
 93
      108
310
00010142105350555513D0D31010
330
2E
 94
        0
  0
ACAD_PROXY_OBJECT
  5
ED73
330
2E
100
AcDbProxyObject
 90
      499
 91
      509
 95
       25
 70
     0
 93
      108
310
00010142105350D3119150551050
330
2E
 94
        0
  0
ACAD_PROXY_OBJECT
  5
ED74
330
2E
100
AcDbProxyObject
 90
      499
 91
      509
 95
       25
 70
     0
 93
      108
310
00010142105350D315925155D3F0
330
2E
 94
        0
  0
ACAD_PROXY_OBJECT
  5
ED75
330
2E
100
AcDbProxyObject
 90
      499
 91
      509
 95
       25
 70
     0
 93
      148
310
0001014350535212511156915493D112535010
330
2E
 94
        0
  0
ACAD_PROXY_OBJECT
  5
ED76
330
2E
100
AcDbProxyObject
 90
      499
 91
      509
 95
       25
 70
     0
 93
      124
310
00010142905352105510D21254D3D010
330
2E
 94
        0
  0
ACAD_PROXY_OBJECT
  5
ED77
330
2E
100
AcDbProxyObject
 90
      499
 91
      509
 95
       25
 70
     0
 93
      148
310
00010143905354D25391D31152105513105660
330
2E
 94
        0
  0
ACAD_PROXY_OBJECT
  5
ED78
330
2E
100
AcDbProxyObject
 90
      499
 91
      509
 95
       25
 70
     0
 93
      124
310
00010142D0535115D1D193111254D420
330
2E
 94
        0
  0
ACAD_PROXY_OBJECT
  5
ED79
330
2E
100
AcDbProxyObject
 90
      499
 91
      509
 95
       25
 70
     0
 93
      100
310
00010142105350555513D213A0
330
2E
 94
        0
  0
ACAD_PROXY_OBJECT
  5
ED7A
330
2E
100
AcDbProxyObject
 90
      499
 91
      509
 95
       25
 70
     0
 93
      116
310
000101425053521390D3D553951010
330
2E
 94
        0
  0
ACAD_PROXY_OBJECT
  5
ED7B
330
2E
100
AcDbProxyObject
 90
      499
 91
      509
 95
       25
 70
     0
 93
      108
310
0001014210535213941493D29010
330
2E
 94
        0
  0
ACAD_PROXY_OBJECT
  5
ED7C
330
2E
100
AcDbProxyObject
 90
      499
 91
      509
 95
       25
 70
     0
 93
      108
310
0001014210535213951654115070
330
2E
 94
        0
  0
ACAD_PROXY_OBJECT
  5
ED7D
330
2E
100
AcDbProxyObject
 90
      499
 91
      509
 95
       25
 70
     0
 93
      108
310
000101421053521395925155D0F0
330
2E
 94
        0
  0
ACAD_PROXY_OBJECT
  5
ED7E
330
2E
100
AcDbProxyObject
 90
      499
 91
      509
 95
       25
 70
     0
 93
      140
310
00010143505354D150D51253D390D3D41660
330
2E
 94
        0
  0
ACAD_PROXY_OBJECT
  5
ED7F
330
2E
100
AcDbProxyObject
 90
      499
 91
      509
 95
       25
 70
     0
 93
      108
310
00010142105350D3141493D29030
330
2E
 94
        0
  0
ACAD_PROXY_OBJECT
  5
ED80
330
2E
100
AcDbProxyObject
 90
      499
 91
      508
 95
       25
 70
     0
 93
      212
310
00010143905350555513D2105510D21493D500000000000002E400
330
2E
 94
        0
  0
ACAD_PROXY_OBJECT
  5
ED81
330
2E
100
AcDbProxyObject
 90
      499
 91
      509
 95
       25
 70
     0
 93
      156
310
00010143905350555513D2105510D21111551010
330
2E
 94
        0
  0
ACAD_PROXY_OBJECT
  5
ED8D
330
2E
100
AcDbProxyObject
 90
      499
 91
      547
 95
       25
 70
     0
 93
      698
310
0001000000009AA6A9AA4051E546875204170722032312030303A33303A353620323030352028555443290141CE4B8C4B8C0B8D00518576564205365702030312030393A31353A333320323031300141CE4B8C8B8C0B8C80
330
2E
330
ED8E
330
ED8F
330
ED91
330
0
 94
        0
  0
ACAD_PROXY_OBJECT
  5
ED8E
330
2E
100
AcDbProxyObject
 90
      499
 91
      548
 95
       25
 70
     0
 93
       70
310
0001AAA80820000000
330
2E
330
ED8E
330
ED8E
 94
        0
  0
ACAD_PROXY_OBJECT
  5
ED8F
330
2E
100
AcDbProxyObject
 90
      499
 91
      549
 95
       25
 70
     0
 93
       48
310
000100000000
330
2E
330
0
330
ED90
330
0
330
0
 94
        0
  0
ACAD_PROXY_OBJECT
  5
ED90
330
2E
100
AcDbProxyObject
 90
      499
 91
      550
 95
       25
 70
     0
 93
       40
310
000100AAAA
330
2E
330
0
 94
        0
  0
ACAD_PROXY_OBJECT
  5
ED96
330
2E
100
AcDbProxyObject
 90
      499
 91
      522
 95
       25
 70
     0
 93
      180
310
00010143105050D3D35411119390535140504434F4D500
330
2E
 94
        0
  0
ACAD_PROXY_OBJECT
  5
ED97
330
2E
100
AcDbProxyObject
 90
      499
 91
      522
 95
       25
 70
     0
 93
      212
310
0001014390505193D311115491119390535140506466F6C6465720
330
2E
 94
        0
  0
ACAD_PROXY_OBJECT
  5
ED98
330
2E
100
AcDbProxyObject
 90
      499
 91
      522
 95
       25
 70
     0
 93
      180
310
00010143105050539393D1119390535140504284156290
330
2E
 94
        0
  0
ACAD_PROXY_OBJECT
  5
ED99
330
2E
100
AcDbProxyObject
 90
      499
 91
      522
 95
       25
 70
     0
 93
      436
310
00010143905050D3D35415925155D31254D50052295BD96CA0A90B396CA0A894591A496CA0A8DB691A496CA0A89BA96CA0A95E28F95310
330
2E
 94
        0
  0
ACAD_PROXY_OBJECT
  5
ED9E
330
2E
100
AcDbProxyObject
 90
      499
 91
      555
 95
       25
 70
     0
 93
       32
310
00010000
330
2E
340
ED9B
330
EDA0
330
ED9B
 94
        0
  0
ACAD_PROXY_OBJECT
  5
ED9F
330
2E
100
AcDbProxyObject
 90
      499
 91
      556
 95
       25
 70
     0
 93
       18
310
000180
330
2E
 94
        0
  0
ACAD_PROXY_OBJECT
  5
EDA0
330
2E
100
AcDbProxyObject
 90
      499
 91
      557
 95
       25
 70
     0
 93
      186
310
000101431114D4D3948C8D4C8D534C4C9050055401550000
330
2E
330
ED9E
330
ED9F
 94
        0
  0
ACAD_PROXY_OBJECT
  5
EDA1
330
2E
100
AcDbProxyObject
 90
      499
 91
      558
 95
       25
 70
     0
 93
      178
310
000100AAAAAABAC03B2E67439410EA36E89D743EA29000
330
2E
330
EDA0
 94
        0
  0
ACAD_PROXY_OBJECT
  5
EDA2
330
2E
100
AcDbProxyObject
 90
      499
 91
      559
 95
       25
 70
     0
 93
      108
310
000190140A000000000000AAAAA0
330
2E
330
EDA3
330
EDA3
330
EDA3
330
EDA3
330
EDA3
330
0
 94
        0
  0
ACAD_PROXY_OBJECT
  5
EDA3
330
2E
100
AcDbProxyObject
 90
      499
 91
      560
 95
       25
 70
     0
 93
       51
310
00010000AAAA80
330
2E
330
EDA2
330
EDA0
 94
        0
  0
ACAD_PROXY_OBJECT
  5
EDCB
330
2E
100
AcDbProxyObject
 90
      499
 91
      509
 95
       25
 70
     0
 93
      140
310
0001014350535311D0D3D313D49353D11160
330
2E
 94
        0
  0
DICTIONARY
  5
40
102
{ACAD_REACTORS
330
3F
102
}
330
3F
100
AcDbDictionary
281
     1
  3
DWGSETTINGS
350
41
  3
FEM
350
69
  3
Shaft
350
56
  3
TRANSSETTINGS
350
4C
  0
ACAD_PROXY_OBJECT
  5
42
102
{ACAD_REACTORS
330
3F
102
}
330
3F
100
AcDbProxyObject
 90
      499
 91
      519
 95
       25
 70
     0
 93
    23232
310
41502491013041105357CC201C00030C011E441013141105357CC603800030C011E441013241105357CCA01400030C011E441013341105357CCE01800030C010D9013441105357CD200C00030C010D9013541105357CD600C00030C010D9013641105357CDA00800030C011E9013741105357CDE01000030C010D901384110
310
5357CE200400030C011E9013941105357CE63F400030C0241102324141505357CC4C201C00030C011E902344141505357CC4C600C00030C010D902495041505357CC4CA01C00030C011E40902304E41505357CC13A01C00030C011E902314E41505357CC53A03800030C011E902324E41505357CC93A01400030C011E90233
310
4E41505357CCD3A01800030C010D902344E41505357CD13A00C00030C010D902354E41505357CD53A00C00030C010D902364E41505357CD93A00800030C011E902374E41505357CDD3A01000030C010D902384E41505357CE13A00400030C011E902394E41505357CE53A3F400030C024110332414E41905357CC4C13A01C0
310
0030C011E90334414E41905357CC4C53A00C00030C010D90349504E41905357CC4C93A01C00030C011E409044B4C494E41505357D0D3200400030C011E42504494E464F42105357D410549151A01000030C010D42D055241484D3541905357D093D4A01C00030C011E425045649455742105357D5925155D4E00400030C011
310
E42D06424548494E4441905357D25395A3F400030C0243505545241494C41505357D514A00C00030C010D4250348494441905357D21251201C00030C011E4250356495341905357D59254E01C00030C011E4250650415244494D42505357D41054911253600C00030C010D4250652454644494D42505357D49151911253601
310
000030C010D425774110531514901348070000C300479034110915312501348000000C0003FFFFFFFD034110921395901398000000C0003FFFFFFFE415092139594D06424548494E448000000C0003FFFFFFFE411093125110234418000000C0003FFFFFFFD03411093D05410234418000000C0003FFFFFFFD03411093D48C
310
9055241484D358010000C30047A411093D48CD055241484D358020000C30047A411093D48D5055241484D358000000C0003FFFFFFFE411093D48DD055241484D3581E0000C30047903411094105410234418000000C0003FFFFFFFD03411094115610234418000000C0003FFFFFFFD034110951112501358000000C0003FFF
310
FFFFD034110D0530C901348000000C0003FFFFFFFE4110D0530CD01348020000C30047A4110D0530D501348070000C30047A4110D0530DD013481E0000C30047A4110D15393901378000000C0003FFFFFFFE4110D15395D01378000000C0003FFFFFFFE4110D312539044B4C494E8000000C0003FFFFFFFE4110D3D38C5013
310
08000000C0003FFFFFFFD034110D3D38C901318000000C0003FFFFFFFD034110D3D38CD01328000000C0003FFFFFFFD034110D3D38D101328000000C0003FFFFFFFD034111115494101348000000C0003FFFFFFFD034111115510501348000000C0003FFFFFFFE4111125051D01358000000C0003FFFFFFFE4111125312501
310
358000000C0003FFFFFFFE411112535410650415244494D8000000C0003FFFFFFFE411112535490652454644494D8000000C0003FFFFFFFE411156135410234418000000C0003FFFFFFFD034111915353901388000000C0003FFFFFFFE415191535413901388030000C3004364151915354D410234418000000C0003FFFFFF
310
FE4151915354D510234418030000C300436415191535593901328000000C0003FFFFFFFE415191535595101328030000C3004364111931055101308000000C0003FFFFFFFD03411194905490234418000000C0003FFFFFFFD034111D49312501358000000C0003FFFFFFFD034111D5931250234418000000C0003FFFFFFFD0
310
34112105510D01388000000C0003FFFFFFFD014112125113901338000000C0003FFFFFFFD034112125115D01338000000C0003FFFFFFFD034112131253901348000000C0003FFFFFFFD01411213D0D3901378000000C0003FFFFFFFE411213D0D5D01378000000C0003FFFFFFFE4112539193D04494E464F8000000C0003FF
310
FFFFFE4113105112501348000000C0003FFFFFFFD034113115051101358000000C0003FFFFFFFE419397D0921395902394E8000000C0003FFFFFFFE419397D0D3D38C502304E8000000C0003FFFFFFFD03419397D0D3D38C902314E8000000C0003FFFFFFFD03419397D0D3D38CD02324E8000000C0003FFFFFFFD03419397
310
D0D3D38D102324E8000000C0003FFFFFFFD03419397D0D15393902374E8000000C0003FFFFFFFE419397D0D15395D02374E8000000C0003FFFFFFFE419397D1125312502354E8000000C0003FFFFFFFE419397D2105510D02384E8000000C0003FFFFFFFD01419397D2125113902334E8000000C0003FFFFFFFD03419397D2
310
125115D02334E8000000C0003FFFFFFFD03419397D3115051102354E8000000C0003FFFFFFFE419397D391D25410349504E8000000C0003FFFFFFFE419397D412105390334414E8000000C0003FFFFFFFE419397D510D3D3902304E8000000C0003FFFFFFFD03419397D5121312502344E8000000C0003FFFFFFFD01419397
310
D5131153902304E8000000C0003FFFFFFFD03419397D516150CD02364E8000000C0003FFFFFFFD03419397D594131250332414E8000000C0003FFFFFFFE411391D25410249508000000C0003FFFFFFFE411410530C9055241484D358010000C30047A411410530CD055241484D358020000C30047A411410530D5055241484
310
D358000000C0003FFFFFFFE411410530DD055241484D3581E0000C30047903411412105390234418000000C0003FFFFFFFE411413D4D3901368070000C30047A419413D4D49151901368050000C30047903411413D4D6101368000000C0003FFFFFFFD03411414D150D0234418000000C0003FFFFFFFD03411490D1D390137
310
8000000C0003FFFFFFFE411490D1D5D01378000000C0003FFFFFFFE4114919112501348000000C0003FFFFFFFD034114945514901348070000C30047903411494D093D01348000000C0003FFFFFFFD034114D09492D01348000000C0003FFFFFFFD014114D0D153901378000000C0003FFFFFFFD034114D150D51013480000
310
00C0003FFFFFFFD014114D15313901378000000C0003FFFFFFFD034114D15315D01378000000C0003FFFFFFFD034114D4D654D01308000000C0003FFFFFFFD034114D51312501348070000C300479034114D6508C501358000000C0003FFFFFFFD034114D6508C901358000000C0003FFFFFFFD034114D6508CD0135802000
310
0C30047A4114D6508D501358070000C300479034114D65353901378000000C0003FFFFFFFD034114D65355D01378000000C0003FFFFFFFD03411510D3D3901308000000C0003FFFFFFFD034115121312501348000000C0003FFFFFFFD01411512550C9055241484D358010000C30047A411512550CD055241484D358020000
310
C30047A411512550D5055241484D358000000C0003FFFFFFFE411512550DD055241484D3581E0000C300479034115131153901308000000C0003FFFFFFFD03415514905253105545241494C8000000C0003FFFFFFFE41151492D3901378000000C0003FFFFFFFD0341151492D5D01378000000C0003FFFFFFFD03411514931
310
2501348000000C0003FFFFFFFD01411516150C501368030000C300436411516150C901368030000C300436411516150CD01368000000C0003FFFFFFFE411516150D501368070000C30047A411516150DD013681E0000C30047A4115925155D04564945578000000C0003FFFFFFFE41159151121034849448000000C0003FFF
310
FFFFD0241159151159035649538000000C0003FFFFFFFD02411594131250232418000000C0003FFFFFFFE4116925690501348000000C0003FFFFFFFD01411354D653501358020000C30047AAAA3F400030C01013F90A4051E4091E40D0D4110D4151E4190D41D1E4391E4791E7F6
340
16
340
16
340
16
340
43
340
16
340
16
340
16
340
44
340
16
340
16
340
44
340
45
340
16
340
16
340
16
340
16
340
43
340
16
340
16
340
16
340
44
340
16
340
16
340
44
340
45
340
16
340
46
340
16
340
16
340
16
340
16
340
16
340
43
340
16
340
16
340
16
340
47
340
15
340
15
340
15
340
15
340
15
340
15
340
15
340
15
340
15
340
15
340
15
340
15
340
15
340
15
340
15
340
15
340
48
340
15
340
15
340
15
340
15
340
15
340
15
340
15
340
15
340
15
340
15
340
15
340
15
340
15
340
15
340
15
340
16
340
15
340
15
340
15
340
15
340
15
340
15
340
15
340
15
340
47
340
15
340
15
340
48
340
15
340
15
340
15
340
15
340
15
340
15
340
15
340
15
340
15
340
48
340
15
340
15
340
15
340
47
340
15
340
15
340
15
340
15
340
15
340
15
340
15
340
15
340
15
340
15
340
15
340
15
340
15
340
15
340
15
340
15
340
15
340
15
340
15
340
48
340
15
340
15
340
48
340
15
340
15
340
16
340
15
340
48
340
15
340
15
340
47
340
15
340
15
340
16
340
15
340
48
340
15
340
15
340
15
340
15
340
15
340
15
340
15
340
15
340
15
340
48
340
15
340
15
340
15
340
15
340
15
340
15
340
15
340
15
340
15
340
15
340
15
340
4B
340
16
 94
        0
  0
ACAD_PROXY_OBJECT
  5
62F
102
{ACAD_REACTORS
330
73
102
}
330
73
100
AcDbProxyObject
 90
      499
 91
      523
 95
       25
 70
     0
 93
      253
310
43D1444494D454E53494F4E2C414D44545F2A5F44494D404A9012A404A9012A0
  0
ACAD_PROXY_OBJECT
  5
630
102
{ACAD_REACTORS
330
73
102
}
330
73
100
AcDbProxyObject
 90
      499
 91
      523
 95
       25
 70
     0
 93
      181
310
43D012A42D05357D191504B505357CA9012A404A9012A8
  0
ACAD_PROXY_OBJECT
  5
631
102
{ACAD_REACTORS
330
73
102
}
330
73
100
AcDbProxyObject
 90
      499
 91
      523
 95
       25
 70
     0
 93
      133
310
43D054841544348404A9012A404A9012A8
  0
ACAD_PROXY_OBJECT
  5
632
102
{ACAD_REACTORS
330
73
102
}
330
73
100
AcDbProxyObject
 90
      499
 91
      523
 95
       25
 70
     0
 93
      549
310
43D044C494E4549CE0B0E138B0A8B4E0B0A8B4E138B105357CE0B105357CE138B0A8B505357CE0B0A8B505357CE139012A404A910494E534552542C5354445041525432448
  0
ACAD_PROXY_OBJECT
  5
633
102
{ACAD_REACTORS
330
73
102
}
330
73
100
AcDbProxyObject
 90
      499
 91
      523
 95
       25
 70
     0
 93
      909
310
43D6641434D46434652414D452C41434D444154554D5441524745542C41434D444154554D49442C41434D57454C4453594D2C41434D5355524653594D2C41434D4645415449442C41434D504152545245462C41434D42414C4C4F4F4E2C414D44544544474553594D404A9012A404A9012A8
  0
XRECORD
  5
217B
102
{ACAD_REACTORS
330
217A
102
}
330
217A
100
AcDbXrecord
280
     1
  1
21000753__00___
  0

  0
XRECORD
  5
217D
102
{ACAD_REACTORS
330
217C
102
}
330
217C
100
AcDbXrecord
280
     1
  1
3
  0

  0
XRECORD
  5
EDCA
102
{ACAD_REACTORS
330
EDC9
102
}
330
EDC9
100
AcDbXrecord
280
     1
 90
-1073741824
  0
ACAD_PROXY_OBJECT
  5
4F
102
{ACAD_REACTORS
330
4E
102
}
330
4E
100
AcDbProxyObject
 90
      499
 91
      521
 95
       25
 70
     0
 93
      157
310
057356C1D77406406AA8FFFFFFFF05DD01009010
330
1F
330
0
330
EDA0
 94
        0
  0
ACAD_PROXY_OBJECT
  5
F94D
102
{ACAD_REACTORS
330
17E
102
}
330
17E
100
AcDbProxyObject
 90
      499
 91
      577
 95
       25
 70
     0
 93
     2497
310
5DC0000000000000C408030000C30040D254D3D01640600800030C0200800030C000000000000000C40C88A2085A0B6B23A22B233B2A9BA3220480A1C82C6DAA6EAE4CCA8CAF0E8A6E8C88120284A0B1B6A321A329BA3220480A1A82C6DAAECAD8C8D2DCCEA6E8C8812028420B1B6A4B229BA3220480A1682C6DA88C2E8EAD
310
AA6E8C88120284A0B1B6A127A6A9BA3220480A2082DAC8E888CAE8C2D2D8A6F2DAA6E8C88120288A0B6B23A29B2B1BA34B7B729BCB6A9BA3220480A2282DAC8E886CADCE8CAE498D2DCCAA6E8C88120288A0B6B23A2A343932B0B22634B732A9BA3220480A1682DAC8E89CDEE8CAA6E8C88120285A0B1A0B6B3A630BCA9BA3
310
220480A1682C682DACE88D2DAA6E8C88120288A0B1A0B6B3A437B632A1B430B93A29BA3220480A1A82C682DACEA8D2E8D8CAA6E8C8812032048080
340
F5A9
360
F94E
360
F94F
360
F950
360
F951
360
F952
360
F953
360
F954
360
F955
360
F956
360
F957
360
F958
360
F959
360
F95F
360
F960
360
F961
360
F962
340
0
340
0
 94
        0
  0
ACAD_PROXY_OBJECT
  5
17F
102
{ACAD_REACTORS
330
17E
102
}
330
17E
100
AcDbProxyObject
 90
      499
 91
      526
 95
       25
 70
     0
 93
     2379
310
5DC33333333333309408000000C00040D29254D01640600800030C0200800030C003333333333330940C8121E8720B1B6A9BAB9332A32BC3A29BA3220480A1282C6DA8C868CA6E8C88120286A0B1B6ABB2B63234B733A9BA3220480A1082C6DA92C8A6E8C88120285A0B1B6A230BA3AB6A9BA3220480A1282C6DA849E9AA6E
310
8C88120286A0B1A0B6B3AA34BA3632A9BA3220480A2082DAC8E888CAE8C2D2D8A6F2DAA6E8C88120288A0B6B23A29B2B1BA34B7B729BCB6A9BA3220480A2282DAC8E886CADCE8CAE498D2DCCAA6E8C88120288A0B6B23A2A343932B0B22634B732A9BA3220480A1682DAC8E89CDEE8CAA6E8C88120285A0B1A0B6B3A630BCA
310
9BA3220480A1682C682DACE88D2DAA6E8C88120288A0B1A0B6B3A437B632A1B430B93A29BA3220480C812020
340
180
360
181
360
182
360
183
360
184
360
185
360
186
360
EDA5
360
EDA6
360
EDA7
360
EDA9
360
EDAA
360
EDAB
360
EDB1
360
EDB2
360
EDB3
340
0
340
0
 94
        0
  0
ACAD_PROXY_OBJECT
  5
41
102
{ACAD_REACTORS
330
40
102
}
330
40
100
AcDbProxyObject
 90
      499
 91
      518
 95
       25
 70
     0
 93
     2946
310
4050B44574753455454494E4753A0E8482A68AA6A88882A069492A684A1A0A723A0A92920ACA0A809820C868A9C829C8E82A12686AF87260F862666A8321A2A72224A0A50602A2140ECC009A020E868A9C889282A682A106260F86460F8666083A1A2A72224A9AA250000000000000042020C868A9C988A9C9400000000000
310
0048808321A2A727A323250000000000000122020E868A9C9E8C8C62940000000000000488083A1A2A727A32319250000000000000122021CC6D0C2DACCCAE4C8D2DADADEC8CA9FC84A1A624A720A92920ACA0A8198171AA108698929C8AA8B2A082A0AB098929C8A84A22BA3AAA9A1A0A622A50A0E9882A6A89E849482A02
310
608426A0A5A2AB24A2ABA7E8120CA0A68682988A0C00800010652455649534941501304154D0D0531150540CC4E8C5085354414E44415244415034A4953425512535154D51053541282A841D945C8ADCD050756455253494F4E4150531352E3030441ED115D1D4D15515125391D4D153911F40
  0
ACAD_PROXY_OBJECT
  5
69
102
{ACAD_REACTORS
330
40
102
}
330
40
100
AcDbProxyObject
 90
      499
 91
      518
 95
       25
 70
     0
 93
      411
310
4050346454D21092DCC6E486DECACC942842630BCA3B937BAB820A8320A6AFA322A0A20F688AE8EA68AA8A8929C8EA68A9C88FA0
  0
ACAD_PROXY_OBJECT
  5
56
102
{ACAD_REACTORS
330
40
102
}
330
40
100
AcDbProxyObject
 90
      499
 91
      518
 95
       25
 70
     0
 93
      583
310
40505536861667421292DCE8CAE4E4EAE0E89FA0484A634B3B43A2634B732A7F21A98D2CED0E898D2DCCAACD2CAEE9FC8229B4B232A7E80A20F688AE8EA68AA8A8929C8EA68A9C88FA
  0
ACAD_PROXY_OBJECT
  5
4C
102
{ACAD_REACTORS
330
40
102
}
330
40
100
AcDbProxyObject
 90
      499
 91
      518
 95
       25
 70
     0
 93
      852
310
4050D5452414E5353455454494E4753A2488A482AE929C8EA8A4829CA69882A8929E9C0C00800050D4F524947494E414C4C595F4F4E0600400028529A7AAA921A2A620A723A0A81A52827212AAA0A48AA68AA4AC8A0C0080001107B44574753455454494E4753454E447D0
  0
ACAD_PROXY_OBJECT
  5
F94E
330
F94D
100
AcDbProxyObject
 90
      499
 91
      578
 95
       25
 70
     0
 93
       13
310
5DD8
  0
ACAD_PROXY_OBJECT
  5
F94F
330
F94D
100
AcDbProxyObject
 90
      499
 91
      579
 95
       25
 70
     0
 93
       96
310
5DEA0E80A0280A0280A0280F
  0
ACAD_PROXY_OBJECT
  5
F950
330
F94D
100
AcDbProxyObject
 90
      499
 91
      580
 95
       25
 70
     0
 93
      272
310
5DD0E4050140501405014050140501405014050140D01405012C0000000000000040
340
F5AA
 94
        0
  0
ACAD_PROXY_OBJECT
  5
F951
330
F94D
100
AcDbProxyObject
 90
      499
 91
      581
 95
       25
 70
     0
 93
      497
310
5DE8666666666667A67E199999999999E99FD22405014050140501405014050140501405014050140501405014050140501405014050140501405014050100
340
F5A5
 94
        0
  0
ACAD_PROXY_OBJECT
  5
F952
330
F94D
100
AcDbProxyObject
 90
      499
 91
      582
 95
       25
 70
     0
 93
       10
310
5DC0
  0
ACAD_PROXY_OBJECT
  5
F953
330
F94D
100
AcDbProxyObject
 90
      499
 91
      583
 95
       25
 70
     0
 93
      257
310
5DE290EA22A7D90F49F80000000000001081400000000000004204010000618000
340
F5A6
340
F5A7
 94
        0
  0
ACAD_PROXY_OBJECT
  5
F954
330
F94D
100
AcDbProxyObject
 90
      499
 91
      584
 95
       25
 70
     0
 93
    13013
310
5DD0E411255115350141236025B690140501406901000000000000091013347454E545241434F2C4A504E2C302C8D8096DA2C47454E54524154582C25732C2847454E4D53472067656E647767203232322940690120281A8AA2CA0282484A4BE52028120280A0320200000000000012202668E8A9CA8A482869E5894A09C58
310
605921292F94588E8A9CA8A482A8B0584AE658508E8A9C9AA68E40CECADCC8EECE406464665280D202405044E414D454050496BC914F4051C40640A80000000000004E404CD1D15395149050D3CB1294138B0C0B25AF2453CB11D15395149055160B095CCB0A11D1539354D1C819D95B991DD9C80C8C8D8A50192C3D494628
310
4953424C414E4B28504152543A4E414D45292C424C4F434B3A4E414D452C504152543A4E414D452940480A0A888AA686A480A09251B1DBE80A3A80C81D0000000000100A28099A3A2A72A2920A1A7962528271618164946C76F9623A2A72A2920AA2C1612B9961423A2A726A9A39033B2B7323BB39019189B94A0348090142
310
14D51053911054911014122D2E29A50147501904A000000000000125013347454E545241434F2C4A504E2C302C8B4B8A692C47454E54524154582C25732C2847454E4D53472067656E64776720323138294069012028426A0AA22A924A0A62028246EF4BDFA028EA0320B40000000000001CA02668E8A9CA8A482869E5894A
310
09C5860591BBD2F7E588E8A9CA8A482A8B0584AE658508E8A9C9AA68E40CECADCC8EECE406464625280D202405044E4F544540504928D8B4C4051D40641A80000000000003E404CD1D15395149050D3CB1294138B0C0B24A362D30B11D15395149055160B095CCB0A11D1539354D1C819D95B991DD9C80C8C8D4A501240480
310
A0CAC8A9C889EA480A1106F1072706BF02B680A3A80C83D00000000000007C809BA3A2A72A2920A1A79625282716181641BC41C9C1AFC0AD9623A2A72A2920AA2C1612B9961423A2A726A9A39033B2B7323BB39019191A14A0248090141911154D0D48C90141A43825AF880C90147501908A000000000020145013447454E5
310
45241434F2C4A504E2C302C90E096BE20322C47454E54524154582C25732C2847454E4D53472067656E6477672033362940490120284A9AA20A72220A922192028345A5C53490192028EA03213400000000000024A026A8E8A9CA8A482869E5894A09C586059169714D24064588E8A9CA8A482A8B0584AE658508E8A9C9AA6
310
8E40CECADCC8EECE4064646052809202405094D4154455249414C32405068DDE97BF20324051D40642A8713D0AD7A37045404D11D15395149050D3CB1294138B0C0B2377A5EFC80C8B11D15395149055160B095CCB0A11D1539354D1C819D95B991DD9C80D0C0A501240480A089A82A6A680A091D7F2F9480A3A80A0485A06
310
8100000000000007C809923A2A72A2920A1A796252827161816475FCBE51623A2A72A2920AA2C1612B9961423A2A726A9A39033B2B7323BB3901A1914A024809014154149250D150141226FE29A501475014090C409020000000000000F9013247454E545241434F2C4A504E2C302C89BF8A692C47454E54524154582C2573
310
2C2847454E4D53472067656E6477672034332940490120281A224A6A02824850CB202028EA028121A81A040000000000001F202648E8A9CA8A482869E5894A09C58605921432C80588E8A9CA8A482A8B0584AE658508E8A9C9AA68E40CECADCC8EECE406868528092024050E445020000000000000510201C00030C0001018
310
0000000000003E400000000000000F901073D3C4954454D3E4050180000000000003E400000000000000F901073D3C4954454D3E40501800000000000034400000000000000D101073D3C4954454D3E40501800000000000034400000000000000D101073D3C4954454D3E405029010000000000000F9000000000000003E4
310
041CF4F125511534F901418F4F1455164F9014060000000000000F9000000000000003E4041CF4F125511534F9014060000000000000D100000000000000344041CF4F125511534F901901000000000000000F9000000000000003E40A2200000000000008204018000618048220681A048120280C88214844882034852034
310
8452028521485214814000000000000F0BF0000000000003C2FD018020000C3008070000C3003373333333333B0FCCDCCCCCCCCCCEC3F000000000000031012034164050341105901A000000000000062040100006180401000061804008000618008098A02808
340
0
340
0
 94
        0
  0
ACAD_PROXY_OBJECT
  5
F955
330
F94D
100
AcDbProxyObject
 90
      499
 91
      585
 95
       25
 70
     0
 93
      898
310
5DC4000000000000144048CF4F11115510525317D3105091530F880A0F11115510525317D05094D4D0D053114F8A51141C9A9999999999B93F26A666666666724FC000000000000E03F400000000000000400000000000000510000000000000024408070000C300000000000000051000
340
16
340
F5A9
 94
        0
  0
ACAD_PROXY_OBJECT
  5
F956
330
F94D
100
AcDbProxyObject
 90
      499
 91
      586
 95
       25
 70
     0
 93
      823
310
5DC0B00000000000002880959E9E29A2A1AA24A7A72FA620A122A62FA324A929AA1F169E29A2A1AA24A7A72FA620A122A62FA620A9AA1F000000000000048803FFFE01C00030C0088C0380006180000000000000048800000000000000A2000000000000002880
340
652
340
F5A9
 94
        0
  0
ACAD_PROXY_OBJECT
  5
F957
330
F94D
100
AcDbProxyObject
 90
      499
 91
      587
 95
       25
 70
     0
 93
      152
310
5DE80000000000000840A3D0A5723F0BD1F200
  0
ACAD_PROXY_OBJECT
  5
F958
330
F94D
100
AcDbProxyObject
 90
      499
 91
      588
 95
       25
 70
     0
 93
       14
310
5DE0
340
0
 94
        0
  0
ACAD_PROXY_OBJECT
  5
F959
330
F94D
100
AcDbProxyObject
 90
      499
 91
      589
 95
       25
 70
     0
 93
     8619
310
5DD084050BA4050AA405024050E836583938376838C815B836720314043A013D2525633C486F6C653A63746469613E2078203C486F6C653A637464657074683E20555C503C696628657175616C28486F6C653A7461707065642C223022292C22252563222C486F6C653A6E6F6D696E616C202220782022293E3C6966286571
310
75616C28486F6C653A7461707065642C223022292C486F6C653A6469612C486F6C653A706974636864657363293E3C696628657175616C28486F6C653A7461707065642C223122292C22207820222C2222293E3C696628657175616C28486F6C653A7461707065642C223122292C486F6C653A74617064657074682C222229
310
3E203C696628657175616C28486F6C653A7465726D696E6174696F6E2C223022292C22202F20222C2222293E3C696628657175616C28486F6C653A7465726D696E6174696F6E2C223022292C486F6C653A64657074682C2222293E406901405034050E836583938376838C815B836720314043B013D2525633C486F6C653A6
310
3746469613E2078203C486F6C653A6374616E676C653E2525645C503C696628657175616C28486F6C653A7461707065642C223022292C22252563222C486F6C653A6E6F6D696E616C202220782022293E3C696628657175616C28486F6C653A7461707065642C223022292C486F6C653A6469612C486F6C653A70697463686
310
4657363293E3C696628657175616C28486F6C653A7461707065642C223122292C22207820222C2222293E3C696628657175616C28486F6C653A7461707065642C223122292C486F6C653A74617064657074682C2222293E203C696628657175616C28486F6C653A7465726D696E6174696F6E2C223022292C22202F20222C2
310
222293E3C696628657175616C28486F6C653A7465726D696E6174696F6E2C223022292C486F6C653A64657074682C2222293E406901405014050E836583938376838C815B8367203140416013D3C696628657175616C28486F6C653A7461707065642C223022292C22252563222C486F6C653A6E6F6D696E616C2022207820
310
22293E3C696628657175616C28486F6C653A7461707065642C223022292C486F6C653A6469612C486F6C653A706974636864657363293E3C696628657175616C28486F6C653A7461707065642C223122292C22207820222C2222293E3C696628657175616C28486F6C653A7461707065642C223122292C486F6C653A746170
310
64657074682C2222293E203C696628657175616C28486F6C653A7465726D696E6174696F6E2C223022292C22202F20222C2222293E3C696628657175616C28486F6C653A7465726D696E6174696F6E2C223022292C486F6C653A64657074682C2222293E4069014051E4090E836583938376838C815B83672032405173D3C5
310
35444503A444553433E203C535444503A5354443E40690E836583938376838C815B836720314050C3D3C535444503A444553433E40690240515AAABBA120
360
F95A
330
F95A
360
F95B
330
F95B
360
F95C
330
F95C
360
F95D
360
F95E
330
F95D
330
F95E
 94
        0
  0
ACAD_PROXY_OBJECT
  5
F95F
330
F94D
100
AcDbProxyObject
 90
      499
 91
      568
 95
       25
 70
     0
 93
       26
310
5DD02A80
340
0
 94
        0
  0
ACAD_PROXY_OBJECT
  5
F960
330
F94D
100
AcDbProxyObject
 90
      499
 91
      569
 95
       25
 70
     0
 93
      250
310
5DD020000000000000A1000000000000002440408F0F9023C3E409A0DCFFFF80
340
F5AE
340
0
340
0
340
F5AF
340
F5B0
340
F5B1
340
F5B2
340
F5B3
340
F5B4
340
0
 94
        0
  0
ACAD_PROXY_OBJECT
  5
F961
330
F94D
100
AcDbProxyObject
 90
      499
 91
      590
 95
       25
 70
     0
 93
    13889
310
5DD1D003FFFFFFFD030300030000000000000310200800030C01030300030000000000000310200800030C00050C8DC0955782CC838A83588367014ED1D15395149050D3CB1294138B0C0B23702555E0B320E2A0D620D9CB11D15395149055160B095CCB0A11D1539354D1C819D95B991A5B5E880CCC0A78000C0000000000
310
00000000000000000000010000000000000310200800030C010000000000000310200800030C020143CF4F111959985D5B1D151A5D1B194F8050A8C8A8365815B8375838B014E51D15395149050D3CB1294138B0C0B2322A0D96056E0DD60E2CB11D15395149055160B095CCB0A11D1539354D1C819D95B991A5B5E880CCC4
310
A78000C000000000000000000000000000000010000000000000310200800030C010000000000000310200800030C020143CF4F111959985D5B1D151A5D1B194F90D44111409034110541D0C4350F4050E44D03449074510F000141232D24D7C053247454E545241434F2C4A504E2C302C8CB4935F2C47454E54524154582C
310
25732C2847454E4D53472067656E64696D7A20312900010104002214000281464500A608E8A9CA8A482869E5894A09C5860591914588E8A9CA8A482A8B0584AE658508E8A9C9AA68E40CECADCC8D2DAF4406452029E9E9E27B934B3B4B71F1E24A31427A91424A9A12620A7259427B934B3B4B7149624A9A12620A7259424B
310
A32B6949496111116111711149F1E24BA32B69F00808200111A000140560052F47454E545241434F2C4A504E2C302C582C47454E54524154582C25732C2847454E4D53472067656E64696D7A20332900010100002054000280AC80A5E8E8A9CA8A482869E5894A09C586058B2588E8A9CA8A482A8B0584AE658508E8A9C9AA
310
68E40CECADCC8D2DAF4406852000202000040E800050152014BD1D15395149050D3CB1294138B0C0B148B11D15395149055160B095CCB0A11D1539354D1C819D95B991A5B5E880D8A400040400008250000A0507A6029823A2A72A2920A1A79625282716181641E99623A2A72A2920AA2C1612B9961423A2A726A9A39033B2
310
B73234B6BD101B948000808180105A000140A0F4C053047454E545241434F2C4A504E2C302C83D32C47454E54524154582C25732C2847454E4D53472067656E64696D7A203829000101010020F400028248704B5F00A668E8A9CA8A482869E5894A09C58605921C12D7C588E8A9CA8A482A8B0584AE658508E8A9C9AA68E40
310
CECADCC8D2DAF440646052000200080043280005048B4B8A69014CD1D15395149050D3CB1294138B0C0B22D2E29A4B11D15395149055160B095CCB0A11D1539354D1C819D95B991A5B5E880C8C4A4000400100086D0000A09196926BE029923A2A72A2920A1A796252827161816465A49AF9623A2A72A2920AA2C1612B9961
310
423A2A726A9A39033B2B73234B6BD10189480A02620202080043E80005048D8096DA014CD1D15395149050D3CB1294138B0C0B236025B68B11D15395149055160B095CCB0A11D1539354D1C819D95B991A5B5E880C4D0A4000404140280D0000A190687072706CD06C5069D06B0029DA3A2A72A2920A1A7962528271618164
310
1A1C1C9C1B341B141A741AC1623A2A72A2920AA2C1612B9961423A2A726A9A39033B2B73234B6BD10189A94800080828050EA000143A322A0D0E0E4E0D9A0D8A0D3A0D60053D47454E545241434F2C4A504E2C302C8C8A8343839383668362834E83582C47454E54524154582C25732C2847454E4D53472067656E64696D7A
310
2031372900010105002274000281464500A628E8A9CA8A482869E5894A09C5860591914588E8A9CA8A482A8B0584AE658508E8A9C9AA68E40CECADCC8D2DAF440626C52000202080044A8000504909497CA014CD1D15395149050D3CB1294138B0C0B242525F28B11D15395149055160B095CCB0A11D1539354D1C819D95B9
310
91A5B5E880C4E4A400040418008A521E000000000000001CA040C00000000000034408080000000000006881010000000000000D102040000000000001A204080000000000003440818000000000000728103000000000000125020600000000004028A040000000000000034408000000000000004881000000000000000D
310
102000000000000001A204000000000000003440818000000000000508143C0000000000000039408180000000000006881030000000000000D102060000000000001A2040C00000000000034408180000000000006881030000000000000E5020600000000000024A040C0000000000805140800000000000000688100000
310
00000000009102000000000000001A2040000000000000034408180000000000006881030000000000000A10284220000000878000002020000008380000020400000081800000208000000828000002028900000000
340
0
340
0
340
0
340
0
340
F5A9
340
F5A9
 94
        0
  0
ACAD_PROXY_OBJECT
  5
F962
330
F94D
100
AcDbProxyObject
 90
      499
 91
      561
 95
       25
 70
     0
 93
     7018
310
5DD9740D254D3D0649534F5F4133429254D3D7D5125513115051349534F5F42525F5265766973696F6E6C69737446111413478342028323937783834316D6D2920421254D3D7D04D1E0D11141327835202835393478323130326D6D29421254D3D7D04C9E0D51141347839202832393778313839326D6D29421254D3D7D04D
310
1E0E51141337837202834323078323038306D6D29421254D3D7D04CDE0DD1141347838202832393778313638326D6D29421254D3D7D04D1E0E11141327834202835393478313638326D6D29421254D3D7D04C9E0D10E41312028353934783834316D6D29419254D3D7D04C51141347837202832393778313437316D6D29421
310
254D3D7D04D1E0DD1141347836202832393778313236316D6D29421254D3D7D04D1E0D91141347835202832393778313035316D6D29421254D3D7D04D1E0D5104130202838343078313138396D6D2920419254D3D7D04C10E41332028323937783432306D6D29419254D3D7D04CD1141327833202835393478313236316D6D
310
29421254D3D7D04C9E0CD10413478332028323937783633306D6D29421254D3D7D04D1E0CD1141337834202834323078313138396D6D29421254D3D7D04CDE0D11141337836202834323078313738336D6D29421254D3D7D04CDE0D91141337835202834323078313438366D6D29421254D3D7D04CDE0D50E4132202834323
310
0783539346D6D29419254D3D7D04C910413378332028343230783839316D6D29421254D3D7D04CDE0CD0E41342028323937783231306D6D29419254D3D7D04D1124130783220283131383978313638326D6D29421254D3D7D04C1E0C9124130783320283131383978323532336D6D29421254D3D7D04C1E0CD114131783420
310
2838343178323337386D6D29421254D3D7D04C5E0D11141317833202838343178313738336D6D29421254D3D7D04C5E0CD02431254D3C82557247A25E4C81050A49534F5F5449544C4541431254D3C82557247A25E4C81090A49534F5F5449544C45424110E979A97F0838A835883675F42525F44D254D3D7D09497D4995D9
310
A5CDA5BDB9B1A5CDD10E979A97F0838A835883675F54525F44D254D3D7D51497D4995D9A5CDA5BDB9B1A5CDD10E979A97F0838A835883675F424C5F44D254D3D7D09317D4995D9A5CDA5BDB9B1A5CDD10E979A97F0838A835883675F544C5F44D254D3D7D51317D4995D9A5CDA5BDB9B1A5CDD00
  0
ACAD_PROXY_OBJECT
  5
181
330
17F
100
AcDbProxyObject
 90
      499
 91
      527
 95
       25
 70
     0
 93
       86
310
5DEA0C80A0280A0280A034
  0
ACAD_PROXY_OBJECT
  5
182
330
17F
100
AcDbProxyObject
 90
      499
 91
      528
 95
       25
 70
     0
 93
      282
310
5DD0E4050140501405014050140501405014050141101405014041000000000000001000
340
187
 94
        0
  0
ACAD_PROXY_OBJECT
  5
183
330
17F
100
AcDbProxyObject
 90
      499
 91
      529
 95
       25
 70
     0
 93
      323
310
5DCC199999999999E99F91740501405014050140501405014050140501405014050140501405014040
340
0
 94
        0
  0
ACAD_PROXY_OBJECT
  5
184
330
17F
100
AcDbProxyObject
 90
      499
 91
      530
 95
       25
 70
     0
 93
       10
310
5DC0
  0
ACAD_PROXY_OBJECT
  5
185
330
17F
100
AcDbProxyObject
 90
      499
 91
      531
 95
       25
 70
     0
 93
      257
310
5DE0C16A22A7D90F49F80000000000001081400000000000004204010000618000
340
188
340
189
 94
        0
  0
ACAD_PROXY_OBJECT
  5
186
330
17F
100
AcDbProxyObject
 90
      499
 91
      532
 95
       25
 70
     0
 93
     5277
310
5DD06411255115350141236025B6901405014069010000000000000910240690120281A8AA2CA0282484A4BE52028120280A032020000000000001220480D202405044E414D454050496BC914F4051C40640A80000000000004E4090193C3D3C4946284953424C414E4B28504152543A4E414D45292C424C4F434B3A4E414D
310
452C504152543A4E414D45293E3C41435F44455343524950544E3E40480A109A82A88AA492829880A091BBD2F7E80A3A80C81D0E27A15AF46E08A81203480901411393D5115014124A363B7D0147501904A0000000000000F902406428F4F1050D7D393D5114F901202832B22A72227A92028366EF6EE06F582028EA0320B4
310
0000000000001F20480C879E9E20A1AFAB27222FA620A122A61F20240506445020000000000000490201C00030C00010180000000000003E400000000000000F901073D3C4954454D3E4050180000000000003E400000000000000F901073D3C4954454D3E40501800000000000034400000000000000D101073D3C4954454
310
D3E40501800000000000034400000000000000D101073D3C4954454D3E405029010000000000000F9000000000000003E4041CF4F125511534F901418F4F1455164F9014060000000000000F9000000000000003E4041CF4F125511534F901800000000000034400000000000000D101073D3C4954454D3E40640400000000
310
0000003E400000000000000F90288800000000000020810000001800120881A068120480A032208521122080D21480D211480A1485214852050000000000003C2FC000000000000F0BF40600800030C0200400030C00CDCCCCCCCCCCEC3F3373333333333B0FC3333333333330940C80D069014090341504901A1999999999
310
9984A040100006180400800061804010000618008098A02808
340
0
340
0
 94
        0
  0
ACAD_PROXY_OBJECT
  5
EDA5
330
17F
100
AcDbProxyObject
 90
      499
 91
      561
 95
       25
 70
     0
 93
     3042
310
5DD9740D29254D064A49535F413342929254D7D512551311505134A49535F42525F5265766973696F6E6C6973744190F4134522028323937783231306D6D2941D29254D7D04D1490E41312028353934783834316D6D2941929254D7D04C50E41332028323937783432306D6D2941929254D7D04CD0F41344C2028323130783
310
239376D6D2941D29254D7D04D1310E41322028343230783539346D6D2941929254D7D04C90F4130202838343178313138396D6D2941929254D7D04C10243129254C82557247A25E4C81050A4A49535F5449544C454143129254C82557247A25E4C81090A4A49535F5449544C45424110E979A97F0838A835883675F42525F4
310
4D29254D7D09497D4995D9A5CDA5BDB9B1A5CDD10E979A97F0838A835883675F54525F44D29254D7D51497D4995D9A5CDA5BDB9B1A5CDD10E979A97F0838A835883675F424C5F44D29254D7D09317D4995D9A5CDA5BDB9B1A5CDD10E979A97F0838A835883675F544C5F44D29254D7D51317D4995D9A5CDA5BDB9B1A5CDD00
  0
ACAD_PROXY_OBJECT
  5
EDA6
330
17F
100
AcDbProxyObject
 90
      499
 91
      562
 95
       25
 70
     0
 93
      898
310
5DC4000000000000124048CF4F11115510525317D3105091530F880A0F11115510525317D05094D4D0D053114F8A50241C9A9999999999B93F26A666666666724FC000000000000E03F400000000000000400000000000000510000000000000024408070000C300000000000000049000
340
16
340
180
 94
        0
  0
ACAD_PROXY_OBJECT
  5
EDA7
330
17F
100
AcDbProxyObject
 90
      499
 91
      563
 95
       25
 70
     0
 93
      823
310
5DC0B00000000000002480959E9E29A2A1AA24A7A72FA620A122A62FA324A929AA1F169E29A2A1AA24A7A72FA620A122A62FA620A9AA1F000000000000048803FFFE01C00030C008140380006180000000000000048800000000000000A2000000000000002480
340
652
340
180
 94
        0
  0
ACAD_PROXY_OBJECT
  5
EDA9
330
17F
100
AcDbProxyObject
 90
      499
 91
      564
 95
       25
 70
     0
 93
      152
310
5DE8273108AC1C5A0640A3D0A5723F0BD1F200
  0
ACAD_PROXY_OBJECT
  5
EDAA
330
17F
100
AcDbProxyObject
 90
      499
 91
      565
 95
       25
 70
     0
 93
       14
310
5DE0
340
0
 94
        0
  0
ACAD_PROXY_OBJECT
  5
EDAB
330
17F
100
AcDbProxyObject
 90
      499
 91
      566
 95
       25
 70
     0
 93
     6059
310
5DD084050BA4050AA405024050E836583938376838C815B83672031405983D3C486F6C653A6469613E3C696628657175616C28486F6C653A7465726D696E6174696F6E2C223022292C2220905B82B320222C22208368838A838B22293E3C696628657175616C28486F6C653A7465726D696E6174696F6E2C223022292C486F
310
6C653A64657074682C2222293E2C203C486F6C653A63746469613E2082B482AE82E882CC905B82B3203C486F6C653A637464657074683E406901405034050E836583938376838C815B83672031405EF3D3C486F6C653A6374616E676C653E252564202525633C486F6C653A63746469613E208E4D8C8A2C203C69662865717
310
5616C28486F6C653A7461707065642C223022292C22252563222C486F6C653A6E6F6D696E616C202220782022293E3C696628657175616C28486F6C653A7461707065642C223022292C486F6C653A6469612C486F6C653A706974636864657363293E203C696628657175616C28486F6C653A7465726D696E6174696F6E2C2
310
23022292C22905B82B320222C222022293E3C696628657175616C28486F6C653A7465726D696E6174696F6E2C223022292C486F6C653A64657074682C2222293E406901405014050E836583938376838C815B83672031405C73D3C696628657175616C28486F6C653A7461707065642C223022292C22252563222C486F6C65
310
3A6E6F6D696E616C202220782022293E3C696628657175616C28486F6C653A7461707065642C223022292C486F6C653A6469612C486F6C653A706974636864657363293E203C696628657175616C28486F6C653A7465726D696E6174696F6E2C223022292C22905B82B320222C222022293E3C696628657175616C28486F6C
310
653A7465726D696E6174696F6E2C223022292C486F6C653A64657074682C2222293E4069014051E4090E836583938376838C815B83672032405173D3C535444503A444553433E203C535444503A5354443E40690E836583938376838C815B836720314050C3D3C535444503A444553433E40690240515AAABBA120
360
EDAF
330
EDAF
360
EDB0
330
EDB0
360
EDAE
330
EDAE
360
EDAD
360
EDAC
330
EDAD
330
EDAC
 94
        0
  0
ACAD_PROXY_OBJECT
  5
EDB1
330
17F
100
AcDbProxyObject
 90
      499
 91
      568
 95
       25
 70
     0
 93
       26
310
5DD02A80
340
42
 94
        0
  0
ACAD_PROXY_OBJECT
  5
EDB2
330
17F
100
AcDbProxyObject
 90
      499
 91
      569
 95
       25
 70
     0
 93
      250
310
5DD020000000000000A1000000000000002440408F0F9023C3E409A0DCFFFF80
340
58
340
18A8
340
18A9
340
5F
340
60
340
61
340
62
340
63
340
68
340
0
 94
        0
  0
ACAD_PROXY_OBJECT
  5
EDB3
330
17F
100
AcDbProxyObject
 90
      499
 91
      570
 95
       25
 70
     0
 93
    13889
310
5DD1D003FFFFFFFD030300030CCCCCCCCCCCC250200800030C01030300030CCCCCCCCCCCC250200800030C00050C8DC0955782CC838A83588367014ED1D15395149050D3CB1294138B0C0B23702555E0B320E2A0D620D9CB11D15395149055160B095CCB0A11D1539354D1C819D95B991A5B5E880CCC0A78000C0000000000
310
00000000000000000000010CCCCCCCCCCCC250200800030C010CCCCCCCCCCCC250200800030C020143CF4F111959985D5B1D151A5D1B194F8050A8C8A8365815B8375838B014E51D15395149050D3CB1294138B0C0B2322A0D96056E0DD60E2CB11D15395149055160B095CCB0A11D1539354D1C819D95B991A5B5E880CCC4
310
A78000C000000000000000000000000000000010CCCCCCCCCCCC250200800030C010CCCCCCCCCCCC250200800030C020143CF4F111959985D5B1D151A5D1B194F90D44111409034110541D0C4350F4050E44D03449074510F000141232D24D7C053247454E545241434F2C4A504E2C302C8CB4935F2C47454E54524154582C
310
25732C2847454E4D53472067656E64696D7A20312900010104002214000281464500A608E8A9CA8A482869E5894A09C5860591914588E8A9CA8A482A8B0584AE658508E8A9C9AA68E40CECADCC8D2DAF4406452029E9E9E27B934B3B4B71F1E24A31427A91424A9A12620A7259427B934B3B4B7149624A9A12620A7259424B
310
A32B6949496111116111711149F1E24BA32B69F00808200111A000140560052F47454E545241434F2C4A504E2C302C582C47454E54524154582C25732C2847454E4D53472067656E64696D7A20332900010100002054000280AC80A5E8E8A9CA8A482869E5894A09C586058B2588E8A9CA8A482A8B0584AE658508E8A9C9AA
310
68E40CECADCC8D2DAF4406852000202000040E800050152014BD1D15395149050D3CB1294138B0C0B148B11D15395149055160B095CCB0A11D1539354D1C819D95B991A5B5E880D8A400040400008250000A0507A6029823A2A72A2920A1A79625282716181641E99623A2A72A2920AA2C1612B9961423A2A726A9A39033B2
310
B73234B6BD101B948000808180105A000140A0F4C053047454E545241434F2C4A504E2C302C83D32C47454E54524154582C25732C2847454E4D53472067656E64696D7A203829000101010020F400028248704B5F00A668E8A9CA8A482869E5894A09C58605921C12D7C588E8A9CA8A482A8B0584AE658508E8A9C9AA68E40
310
CECADCC8D2DAF440646052000200080043280005048B4B8A69014CD1D15395149050D3CB1294138B0C0B22D2E29A4B11D15395149055160B095CCB0A11D1539354D1C819D95B991A5B5E880C8C4A4000400100086D0000A09196926BE029923A2A72A2920A1A796252827161816465A49AF9623A2A72A2920AA2C1612B9961
310
423A2A726A9A39033B2B73234B6BD10189480A02620202080043E80005048D8096DA014CD1D15395149050D3CB1294138B0C0B236025B68B11D15395149055160B095CCB0A11D1539354D1C819D95B991A5B5E880C4D0A4000404140280D0000A190687072706CD06C5069D06B0029DA3A2A72A2920A1A7962528271618164
310
1A1C1C9C1B341B141A741AC1623A2A72A2920AA2C1612B9961423A2A726A9A39033B2B73234B6BD10189A94800080820050EA000143A322A0D0E0E4E0D9A0D8A0D3A0D60053D47454E545241434F2C4A504E2C302C8C8A8343839383668362834E83582C47454E54524154582C25732C2847454E4D53472067656E64696D7A
310
2031372900010105002274000281464500A628E8A9CA8A482869E5894A09C5860591914588E8A9CA8A482A8B0584AE658508E8A9C9AA68E40CECADCC8D2DAF440626C52000202080044A8000504909497CA014CD1D15395149050D3CB1294138B0C0B242525F28B11D15395149055160B095CCB0A11D1539354D1C819D95B9
310
91A5B5E880C4E4A400040418008A521E000000000000001CA040C00000000000034408080000000000006881010000000000000D102040000000000001A204080000000000003440818000000000000728103000000000000125020600000000004028A040000000000000034408000000000000004881000000000000000D
310
102000000000000001A204000000000000003440818000000000000508143C0000000000000039408180000000000006881030000000000000D102060000000000001A2040C00000000000034408180000000000006881030000000000000E5020600000000000024A040C0000000000805140800000000000000688100000
310
00000000009102000000000000001A2040000000000000034408180000000000006881030000000000000A10284220000000878000002020000008380000020400000081800000208000000828000002028900000000
340
0
340
0
340
0
340
0
340
180
340
180
 94
        0
  0
ACAD_PROXY_OBJECT
  5
F95A
330
F959
100
AcDbProxyObject
 90
      499
 91
      567
 95
       25
 70
     0
 93
     2680
310
5DE0143A0D960E4E0DDA0E32056E0D9C80C4043A013D2525633C486F6C653A63746469613E2078203C486F6C653A637464657074683E20555C503C696628657175616C28486F6C653A7461707065642C223022292C22252563222C486F6C653A6E6F6D696E616C202220782022293E3C696628657175616C28486F6C653A74
310
61707065642C223022292C486F6C653A6469612C486F6C653A706974636864657363293E3C696628657175616C28486F6C653A7461707065642C223122292C22207820222C2222293E3C696628657175616C28486F6C653A7461707065642C223122292C486F6C653A74617064657074682C2222293E203C69662865717561
310
6C28486F6C653A7465726D696E6174696F6E2C223022292C22202F20222C2222293E3C696628657175616C28486F6C653A7465726D696E6174696F6E2C223022292C486F6C653A64657074682C2222293E
  0
ACAD_PROXY_OBJECT
  5
F95B
330
F959
100
AcDbProxyObject
 90
      499
 91
      567
 95
       25
 70
     0
 93
     2688
310
5DE0143A0D960E4E0DDA0E32056E0D9C80C4043B013D2525633C486F6C653A63746469613E2078203C486F6C653A6374616E676C653E2525645C503C696628657175616C28486F6C653A7461707065642C223022292C22252563222C486F6C653A6E6F6D696E616C202220782022293E3C696628657175616C28486F6C653A
310
7461707065642C223022292C486F6C653A6469612C486F6C653A706974636864657363293E3C696628657175616C28486F6C653A7461707065642C223122292C22207820222C2222293E3C696628657175616C28486F6C653A7461707065642C223122292C486F6C653A74617064657074682C2222293E203C696628657175
310
616C28486F6C653A7465726D696E6174696F6E2C223022292C22202F20222C2222293E3C696628657175616C28486F6C653A7465726D696E6174696F6E2C223022292C486F6C653A64657074682C2222293E
  0
ACAD_PROXY_OBJECT
  5
F95C
330
F959
100
AcDbProxyObject
 90
      499
 91
      567
 95
       25
 70
     0
 93
     2392
310
5DE0143A0D960E4E0DDA0E32056E0D9C80C40416013D3C696628657175616C28486F6C653A7461707065642C223022292C22252563222C486F6C653A6E6F6D696E616C202220782022293E3C696628657175616C28486F6C653A7461707065642C223022292C486F6C653A6469612C486F6C653A706974636864657363293E
310
3C696628657175616C28486F6C653A7461707065642C223122292C22207820222C2222293E3C696628657175616C28486F6C653A7461707065642C223122292C486F6C653A74617064657074682C2222293E203C696628657175616C28486F6C653A7465726D696E6174696F6E2C223022292C22202F20222C2222293E3C69
310
6628657175616C28486F6C653A7465726D696E6174696F6E2C223022292C486F6C653A64657074682C2222293E
  0
ACAD_PROXY_OBJECT
  5
F95D
330
F959
100
AcDbProxyObject
 90
      499
 91
      567
 95
       25
 70
     0
 93
      344
310
5DE0143A0D960E4E0DDA0E32056E0D9C80C805173D3C535444503A444553433E203C535444503A5354443E
  0
ACAD_PROXY_OBJECT
  5
F95E
330
F959
100
AcDbProxyObject
 90
      499
 91
      567
 95
       25
 70
     0
 93
      256
310
5DE0143A0D960E4E0DDA0E32056E0D9C80C4050C3D3C535444503A444553433E
  0
ACAD_PROXY_OBJECT
  5
EDAF
330
EDAB
100
AcDbProxyObject
 90
      499
 91
      567
 95
       25
 70
     0
 93
     1376
310
5DE0143A0D960E4E0DDA0E32056E0D9C80C405983D3C486F6C653A6469613E3C696628657175616C28486F6C653A7465726D696E6174696F6E2C223022292C2220905B82B320222C22208368838A838B22293E3C696628657175616C28486F6C653A7465726D696E6174696F6E2C223022292C486F6C653A64657074682C22
310
22293E2C203C486F6C653A63746469613E2082B482AE82E882CC905B82B3203C486F6C653A637464657074683E
  0
ACAD_PROXY_OBJECT
  5
EDB0
330
EDAB
100
AcDbProxyObject
 90
      499
 91
      567
 95
       25
 70
     0
 93
     2072
310
5DE0143A0D960E4E0DDA0E32056E0D9C80C405EF3D3C486F6C653A6374616E676C653E252564202525633C486F6C653A63746469613E208E4D8C8A2C203C696628657175616C28486F6C653A7461707065642C223022292C22252563222C486F6C653A6E6F6D696E616C202220782022293E3C696628657175616C28486F6C
310
653A7461707065642C223022292C486F6C653A6469612C486F6C653A706974636864657363293E203C696628657175616C28486F6C653A7465726D696E6174696F6E2C223022292C22905B82B320222C222022293E3C696628657175616C28486F6C653A7465726D696E6174696F6E2C223022292C486F6C653A6465707468
310
2C2222293E
  0
ACAD_PROXY_OBJECT
  5
EDAE
330
EDAB
100
AcDbProxyObject
 90
      499
 91
      567
 95
       25
 70
     0
 93
     1752
310
5DE0143A0D960E4E0DDA0E32056E0D9C80C405C73D3C696628657175616C28486F6C653A7461707065642C223022292C22252563222C486F6C653A6E6F6D696E616C202220782022293E3C696628657175616C28486F6C653A7461707065642C223022292C486F6C653A6469612C486F6C653A706974636864657363293E20
310
3C696628657175616C28486F6C653A7465726D696E6174696F6E2C223022292C22905B82B320222C222022293E3C696628657175616C28486F6C653A7465726D696E6174696F6E2C223022292C486F6C653A64657074682C2222293E
  0
ACAD_PROXY_OBJECT
  5
EDAD
330
EDAB
100
AcDbProxyObject
 90
      499
 91
      567
 95
       25
 70
     0
 93
      344
310
5DE0143A0D960E4E0DDA0E32056E0D9C80C805173D3C535444503A444553433E203C535444503A5354443E
  0
ACAD_PROXY_OBJECT
  5
EDAC
330
EDAB
100
AcDbProxyObject
 90
      499
 91
      567
 95
       25
 70
     0
 93
      256
310
5DE0143A0D960E4E0DDA0E32056E0D9C80C4050C3D3C535444503A444553433E
  0
ENDSEC
  0
EOF
