  0
SECTION
  2
HEADER
  9
$ACADVER
  1
AC1015
  9
$ACADMAINTVER
 70
     6
  9
$DWGCODEPAGE
  3
ANSI_932
  9
$INSBASE
 10
0.0
 20
0.0
 30
0.0
  9
$EXTMIN
 10
-95.49629607362681
 20
-150.0057286710286
 30
-0.000000000000015
  9
$EXTMAX
 10
198.716816664705
 20
27.52033863500856
 30
0.0000000000000155
  9
$LIMMIN
 10
0.0
 20
0.0
  9
$LIMMAX
 10
420.0
 20
297.0
  9
$ORTHOMODE
 70
     0
  9
$REGENMODE
 70
     1
  9
$FILLMODE
 70
     1
  9
$QTEXTMODE
 70
     0
  9
$MIRRTEXT
 70
     1
  9
$LTSCALE
 40
1.0
  9
$ATTMODE
 70
     1
  9
$TEXTSIZE
 40
5.0
  9
$TRACEWID
 40
1.0
  9
$TEXTSTYLE
  7
STANDARD
  9
$CLAYER
  8
AM_0
  9
$CELTYPE
  6
ByLayer
  9
$CECOLOR
 62
   256
  9
$CELTSCALE
 40
1.0
  9
$DISPSILH
 70
     0
  9
$DIMSCALE
 40
1.0
  9
$DIMASZ
 40
2.5
  9
$DIMEXO
 40
0.0
  9
$DIMDLI
 40
10.0
  9
$DIMRND
 40
0.0
  9
$DIMDLE
 40
0.0
  9
$DIMEXE
 40
1.0
  9
$DIMTP
 40
0.1
  9
$DIMTM
 40
0.1000000001
  9
$DIMTXT
 40
3.8
  9
$DIMCEN
 40
0.0
  9
$DIMTSZ
 40
0.0
  9
$DIMTOL
 70
     0
  9
$DIMLIM
 70
     0
  9
$DIMTIH
 70
     0
  9
$DIMTOH
 70
     0
  9
$DIMSE1
 70
     0
  9
$DIMSE2
 70
     0
  9
$DIMTAD
 70
     3
  9
$DIMZIN
 70
     1
  9
$DIMBLK
  1
Open30
  9
$DIMASO
 70
     1
  9
$DIMSHO
 70
     1
  9
$DIMPOST
  1

  9
$DIMAPOST
  1
"
  9
$DIMALT
 70
     0
  9
$DIMALTD
 70
     2
  9
$DIMALTF
 40
0.0393701
  9
$DIMLFAC
 40
1.0
  9
$DIMTOFL
 70
     1
  9
$DIMTVP
 40
0.0
  9
$DIMTIX
 70
     0
  9
$DIMSOXD
 70
     0
  9
$DIMSAH
 70
     0
  9
$DIMBLK1
  1

  9
$DIMBLK2
  1

  9
$DIMSTYLE
  2
AM_JIS
  9
$DIMCLRD
 70
   256
  9
$DIMCLRE
 70
   256
  9
$DIMCLRT
 70
     2
  9
$DIMTFAC
 40
0.71
  9
$DIMGAP
 40
1.5
  9
$DIMJUST
 70
     0
  9
$DIMSD1
 70
     0
  9
$DIMSD2
 70
     0
  9
$DIMTOLJ
 70
     0
  9
$DIMTZIN
 70
     8
  9
$DIMALTZ
 70
     0
  9
$DIMALTTZ
 70
     0
  9
$DIMUPT
 70
     0
  9
$DIMDEC
 70
     0
  9
$DIMTDEC
 70
     2
  9
$DIMALTU
 70
     2
  9
$DIMALTTD
 70
     2
  9
$DIMTXSTY
  7
STANDARD
  9
$DIMAUNIT
 70
     1
  9
$DIMADEC
 70
     0
  9
$DIMALTRND
 40
0.0
  9
$DIMAZIN
 70
     2
  9
$DIMDSEP
 70
    46
  9
$DIMATFIT
 70
     3
  9
$DIMFRAC
 70
     0
  9
$DIMLDRBLK
  1
Open30
  9
$DIMLUNIT
 70
     2
  9
$DIMLWD
 70
    -1
  9
$DIMLWE
 70
    -1
  9
$DIMTMOVE
 70
     0
  9
$LUNITS
 70
     2
  9
$LUPREC
 70
     2
  9
$SKETCHINC
 40
1.0
  9
$FILLETRAD
 40
1.2
  9
$AUNITS
 70
     1
  9
$AUPREC
 70
     5
  9
$MENU
  1
.
  9
$ELEVATION
 40
0.0
  9
$PELEVATION
 40
0.0
  9
$THICKNESS
 40
0.0
  9
$LIMCHECK
 70
     0
  9
$CHAMFERA
 40
0.5
  9
$CHAMFERB
 40
0.5
  9
$CHAMFERC
 40
20.0
  9
$CHAMFERD
 40
0.0
  9
$SKPOLY
 70
     0
  9
$TDCREATE
 40
2451943.610431667
  9
$TDUCREATE
 40
2451943.235431667
  9
$TDUPDATE
 40
2455441.400451748
  9
$TDUUPDATE
 40
2455441.025451748
  9
$TDINDWG
 40
1.895609375
  9
$TDUSRTIMER
 40
1.8956092014
  9
$USRTIMER
 70
     1
  9
$ANGBASE
 50
0.0
  9
$ANGDIR
 70
     0
  9
$PDMODE
 70
     0
  9
$PDSIZE
 40
0.0
  9
$PLINEWID
 40
0.0
  9
$SPLFRAME
 70
     0
  9
$SPLINETYPE
 70
     6
  9
$SPLINESEGS
 70
     8
  9
$HANDSEED
  5
19D10
  9
$SURFTAB1
 70
     6
  9
$SURFTAB2
 70
     6
  9
$SURFTYPE
 70
     6
  9
$SURFU
 70
     6
  9
$SURFV
 70
     6
  9
$UCSBASE
  2

  9
$UCSNAME
  2

  9
$UCSORG
 10
0.0
 20
0.0
 30
0.0
  9
$UCSXDIR
 10
1.0
 20
0.0
 30
0.0
  9
$UCSYDIR
 10
0.0
 20
1.0
 30
0.0
  9
$UCSORTHOREF
  2

  9
$UCSORTHOVIEW
 70
     0
  9
$UCSORGTOP
 10
0.0
 20
0.0
 30
0.0
  9
$UCSORGBOTTOM
 10
0.0
 20
0.0
 30
0.0
  9
$UCSORGLEFT
 10
0.0
 20
0.0
 30
0.0
  9
$UCSORGRIGHT
 10
0.0
 20
0.0
 30
0.0
  9
$UCSORGFRONT
 10
0.0
 20
0.0
 30
0.0
  9
$UCSORGBACK
 10
0.0
 20
0.0
 30
0.0
  9
$PUCSBASE
  2

  9
$PUCSNAME
  2

  9
$PUCSORG
 10
0.0
 20
0.0
 30
0.0
  9
$PUCSXDIR
 10
1.0
 20
0.0
 30
0.0
  9
$PUCSYDIR
 10
0.0
 20
1.0
 30
0.0
  9
$PUCSORTHOREF
  2

  9
$PUCSORTHOVIEW
 70
     0
  9
$PUCSORGTOP
 10
0.0
 20
0.0
 30
0.0
  9
$PUCSORGBOTTOM
 10
0.0
 20
0.0
 30
0.0
  9
$PUCSORGLEFT
 10
0.0
 20
0.0
 30
0.0
  9
$PUCSORGRIGHT
 10
0.0
 20
0.0
 30
0.0
  9
$PUCSORGFRONT
 10
0.0
 20
0.0
 30
0.0
  9
$PUCSORGBACK
 10
0.0
 20
0.0
 30
0.0
  9
$USERI1
 70
     0
  9
$USERI2
 70
     0
  9
$USERI3
 70
     0
  9
$USERI4
 70
     0
  9
$USERI5
 70
     0
  9
$USERR1
 40
0.0
  9
$USERR2
 40
0.0
  9
$USERR3
 40
0.0
  9
$USERR4
 40
0.0
  9
$USERR5
 40
0.0
  9
$WORLDVIEW
 70
     1
  9
$SHADEDGE
 70
     3
  9
$SHADEDIF
 70
    70
  9
$TILEMODE
 70
     1
  9
$MAXACTVP
 70
    64
  9
$PINSBASE
 10
0.0
 20
0.0
 30
0.0
  9
$PLIMCHECK
 70
     0
  9
$PEXTMIN
 10
1.000000000000000E+20
 20
1.000000000000000E+20
 30
1.000000000000000E+20
  9
$PEXTMAX
 10
-1.000000000000000E+20
 20
-1.000000000000000E+20
 30
-1.000000000000000E+20
  9
$PLIMMIN
 10
0.0
 20
0.0
  9
$PLIMMAX
 10
420.0
 20
297.0
  9
$UNITMODE
 70
     0
  9
$VISRETAIN
 70
     1
  9
$PLINEGEN
 70
     0
  9
$PSLTSCALE
 70
     1
  9
$TREEDEPTH
 70
  3020
  9
$CMLSTYLE
  2
Standard
  9
$CMLJUST
 70
     0
  9
$CMLSCALE
 40
20.0
  9
$PROXYGRAPHICS
 70
     1
  9
$MEASUREMENT
 70
     1
  9
$CELWEIGHT
370
    -1
  9
$ENDCAPS
280
     0
  9
$JOINSTYLE
280
     0
  9
$LWDISPLAY
290
     0
  9
$INSUNITS
 70
     4
  9
$HYPERLINKBASE
  1

  9
$STYLESHEET
  1
sei_cad.ctb
  9
$XEDIT
290
     1
  9
$CEPSNTYPE
380
     0
  9
$PSTYLEMODE
290
     1
  9
$FINGERPRINTGUID
  2
{C77AB3BE-9CA2-11D3-BAF3-006094EB760E}
  9
$VERSIONGUID
  2
{B6ACB7D5-2F74-4C6C-8AA6-3515B25713CE}
  9
$EXTNAMES
290
     1
  9
$PSVPSCALE
 40
0.0
  9
$OLESTARTUP
290
     0
  0
ENDSEC
  0
SECTION
  2
CLASSES
  0
CLASS
  1
ACDBDICTIONARYWDFLT
  2
AcDbDictionaryWithDefault
  3
ObjectDBX Classes
 90
        0
280
     0
281
     0
  0
CLASS
  1
ACDBPLACEHOLDER
  2
AcDbPlaceHolder
  3
ObjectDBX Classes
 90
        0
280
     0
281
     0
  0
CLASS
  1
LAYOUT
  2
AcDbLayout
  3
ObjectDBX Classes
 90
        0
280
     0
281
     0
  0
CLASS
  1
ACME_DOCUMENT
  2
AcMeDbDoc
  3
AcMeServices
 90
        0
280
     1
281
     0
  0
CLASS
  1
ACMESCOPE
  2
AcMeScope
  3
AcMeServices
 90
        0
280
     1
281
     0
  0
CLASS
  1
ACMECOMMANDHISTORY
  2
AcMeCommandHistory
  3
AcMeServices
 90
        0
280
     1
281
     0
  0
CLASS
  1
DICTIONARYVAR
  2
AcDbDictionaryVar
  3
ObjectDBX Classes
 90
        0
280
     0
281
     0
  0
CLASS
  1
ACIMSYSVARMAN
  2
AcImSysVarManager
  3
AcMeServices
 90
        0
280
     1
281
     0
  0
CLASS
  1
ACIMREALSYSVAR
  2
AcImRealSysVar
  3
AcMeServices
 90
        0
280
     1
281
     0
  0
CLASS
  1
ACIMINTSYSVAR
  2
AcImIntSysVar
  3
AcMeServices
 90
        0
280
     1
281
     0
  0
CLASS
  1
ACMEDRAWINGMAN
  2
AcMeDrawingMan
  3
AcMeServices
 90
        0
280
     1
281
     0
  0
CLASS
  1
ACMEVIEW
  2
AcMeView
  3
AcMeServices
 90
        0
280
     1
281
     0
  0
CLASS
  1
ACDBENTITYCACHE
  2
AcMeEntityCache
  3
AcMeServices
 90
        0
280
     1
281
     0
  0
CLASS
  1
GSMANAGER
  2
AcMeGSManager
  3
AcMeServices
 90
        0
280
     1
281
     0
  0
CLASS
  1
AMDTINTERNALREACTOR
  2
AmdtInternalReactor
  3
AcMeServices
 90
        0
280
     1
281
     0
  0
CLASS
  1
ACMESTATEMGR
  2
AcMeStateMgr
  3
AcMeServices
 90
        0
280
     1
281
     0
  0
CLASS
  1
ACME_DATABASE
  2
AcMeDbDatabase
  3
AcMeServices
 90
        0
280
     1
281
     0
  0
CLASS
  1
ACRFINSADJUSTERMGR
  2
AcRfInsAdjusterMgr
  3
AcMeServices
 90
        0
280
     1
281
     0
  0
CLASS
  1
AMGSETTINGSOBJ
  2
AmgSettingsObj
  3
"AcadM|Product Description: AutoCAD Mechanical 2000|Company: Autodesk"
 90
        0
280
     1
281
     0
  0
CLASS
  1
AMGOBJPROPCFG
  2
AmgObjPropCfg
  3
"AmgLay|Product Description: AutoCAD Mechanical 2000|Company: Autodesk"
 90
        1
280
     1
281
     0
  0
CLASS
  1
ACMDATADICTIONARY
  2
AcmDataDictionary
  3
"AcmSymBB|Product Description: AutoCAD Mechanical 2004 DX|Company: Autodesk"
 90
        0
280
     1
281
     0
  0
CLASS
  1
ACMDATAENTRYBLOCK
  2
AcmDataEntryBlock
  3
"AcmSymBB|Product Description: AutoCAD Mechanical 2004 DX|Company: Autodesk"
 90
        0
280
     1
281
     0
  0
CLASS
  1
ACIMSTRSYSVAR
  2
AcImStrSysVar
  3
AcMeServices
 90
        0
280
     1
281
     0
  0
CLASS
  1
ACAMGFILTERDAT
  2
AcAmgFilterDat
  3
"AcadM|Product Description: AutoCAD Mechanical 2000|Company: Autodesk"
 90
        0
280
     1
281
     0
  0
CLASS
  1
LAYER_INDEX
  2
AcDbLayerIndex
  3
ObjectDBX Classes
 90
        0
280
     0
281
     0
  0
CLASS
  1
IDBUFFER
  2
AcDbIdBuffer
  3
ObjectDBX Classes
 90
        0
280
     0
281
     0
  0
CLASS
  1
ACMSTANDARDJIS
  2
AcmStandardJIS
  3
"Amdt_StdImp|Product Description: AutoCAD Mechanical 2004 DX|Company: Autodesk"
 90
        0
280
     1
281
     0
  0
CLASS
  1
ACMSURFSTANDARDJIS
  2
AcmSurfTextStdJIS
  3
"Amdt_StdImp|Product Description: AutoCAD Mechanical 2004 DX|Company: Autodesk"
 90
        0
280
     1
281
     0
  0
CLASS
  1
ACMFCFSTANDARDJIS
  2
AcmFCFStdJIS
  3
"Amdt_StdImp|Product Description: AutoCAD Mechanical 2004 DX|Company: Autodesk"
 90
        0
280
     1
281
     0
  0
CLASS
  1
ACMWELDSTANDARDJIS
  2
AcmWeldingStdJIS
  3
"Amdt_StdImp|Product Description: AutoCAD Mechanical 2004 DX|Company: Autodesk"
 90
        0
280
     1
281
     0
  0
CLASS
  1
ACMIDSTANDARDJIS
  2
AcmIdStdJIS
  3
"Amdt_StdImp|Product Description: AutoCAD Mechanical 2004 DX|Company: Autodesk"
 90
        0
280
     1
281
     0
  0
CLASS
  1
ACMDATUMSTANDARDJIS
  2
AcmDatumStdJIS
  3
"Amdt_StdImp|Product Description: AutoCAD Mechanical 2004 DX|Company: Autodesk"
 90
        0
280
     1
281
     0
  0
CLASS
  1
ACMBOMSTANDARDJIS
  2
AcmBOMStdJIS
  3
"Amdt_StdImp|Product Description: AutoCAD Mechanical 2004 DX|Company: Autodesk"
 90
        0
280
     1
281
     0
  0
CLASS
  1
AMDTNOTE
  2
AmdtNote
  3
"AcmSymBB|Product Description: AutoCAD Mechanical 2004 DX|Company: Autodesk"
 90
     1023
280
     1
281
     1
  0
CLASS
  1
TABLESTYLE
  2
AcDbTableStyle
  3
ObjectDBX Classes
 90
     2047
280
     0
281
     0
  0
CLASS
  1
ACGREFMASTER
  2
AcGrefMaster
  3
AcAttribServices
 90
        0
280
     1
281
     0
  0
CLASS
  1
AM_DRAWING_MGR
  2
AcDmDwgMgr
  3
AcMechDwgViewMgmt
 90
        0
280
     1
281
     0
  0
CLASS
  1
AM_DWG_DOCUMENT
  2
AcDmDwgDocument
  3
AcMechDwgViewMgmt
 90
        0
280
     1
281
     0
  0
CLASS
  1
AM_DWG_SHEET
  2
AcDmSheet
  3
AcMechDwgViewMgmt
 90
        0
280
     1
281
     0
  0
CLASS
  1
AM_VIEWDIMPARMAP
  2
AcDmViewDimParMap
  3
AcMechDwgViewMgmt
 90
        0
280
     1
281
     0
  0
CLASS
  1
AM_DWGMGR_NAME
  2
AcDmDwgMgrName
  3
AcMechDwgViewMgmt
 90
        0
280
     1
281
     0
  0
CLASS
  1
ACGREFACADMASTER
  2
AcGrefacadMaster
  3
AcGrefServices
 90
        0
280
     1
281
     0
  0
CLASS
  1
AMDTMENUSTATEMGR
  2
AmdtMenuStateMgr
  3
McadcomServices
 90
        0
280
     1
281
     0
  0
CLASS
  1
AMDTMCOMMENUSTATE
  2
AmdtMcomMenuState
  3
McadcomServices
 90
        0
280
     1
281
     0
  0
CLASS
  1
AMIMASTER
  2
AmiMaster
  3
AmiServices
 90
        0
280
     1
281
     0
  0
CLASS
  1
MAPIAMMOUDLE
  2
MApiAmModule
  3
MApiAmServices
 90
        0
280
     1
281
     0
  0
CLASS
  1
AMDTADMENUSTATE
  2
AmdtAdMenuState
  3
DesignerServices
 90
        0
280
     1
281
     0
  0
CLASS
  1
ADAPPL
  2
AcAdAppl
  3
DesignerServices
 90
        0
280
     1
281
     0
  0
CLASS
  1
DEPMGR
  2
AcAdDepMgr
  3
DesignerServices
 90
        0
280
     1
281
     0
  0
CLASS
  1
PARAMMGR
  2
AcAdParamMgr
  3
DesignerServices
 90
        0
280
     1
281
     0
  0
CLASS
  1
PARAMSCOPE
  2
AcAdParamScope
  3
DesignerServices
 90
        0
280
     1
281
     0
  0
CLASS
  1
NAMEDAPPL
  2
AcAdNamedAppl
  3
DesignerServices
 90
        0
280
     1
281
     0
  0
CLASS
  1
AMDTDMMENUSTATE
  2
AmdtDmMenuState
  3
AcMechDwgViewMgmt
 90
        0
280
     1
281
     0
  0
CLASS
  1
AMDTAMMENUSTATE
  2
AmdtAmMenuState
  3
DesignerAssemblies
 90
        0
280
     1
281
     0
  0
CLASS
  1
ACAMPROJECT
  2
AcAmProject
  3
DesignerAssemblies
 90
        0
280
     1
281
     0
  0
CLASS
  1
ACAMGRCOMPDEF
  2
AcAmGrCompDef
  3
DesignerAssemblies
 90
        0
280
     1
281
     0
  0
CLASS
  1
ACCMCONTEXT
  2
AcCmContext
  3
DesignerAssemblies
 90
        0
280
     1
281
     0
  0
CLASS
  1
ACAMCOMPDEF
  2
AcAmCompDef
  3
DesignerAssemblies
 90
        0
280
     1
281
     0
  0
CLASS
  1
ACAMCOMPDEFMGR
  2
AcAmCompDefMgr
  3
DesignerAssemblies
 90
        0
280
     1
281
     0
  0
CLASS
  1
AMCONTEXTMGR
  2
AcAmContextMgr
  3
DesignerAssemblies
 90
        0
280
     1
281
     0
  0
CLASS
  1
ACAMCONTEXTMODELER
  2
AcAmContextModeler
  3
DesignerAssemblies
 90
        0
280
     1
281
     0
  0
CLASS
  1
ACAMGTITLESTD
  2
AcAmgTitleStd
  3
"TITLEAPP"
 90
        0
280
     1
281
     0
  0
CLASS
  1
ACMDETAILSTANDARDJIS
  2
AmdtDetailSymStdJIS
  3
"Amdt_StdImp|Product Description: AutoCAD Mechanical 2004 DX|Company: Autodesk"
 90
        0
280
     1
281
     0
  0
CLASS
  1
ACMSECTIONSTANDARDJIS
  2
AmdtSectionSymStdJIS
  3
"Amdt_StdImp|Product Description: AutoCAD Mechanical 2004 DX|Company: Autodesk"
 90
        0
280
     1
281
     0
  0
CLASS
  1
ACMCENTERLINESTANDARDJIS
  2
AmdtCenterLineStdJIS
  3
"Amdt_StdImp|Product Description: AutoCAD Mechanical 2004 DX|Company: Autodesk"
 90
        0
280
     1
281
     0
  0
CLASS
  1
ACMTHREADLINESTANDARDJIS
  2
AmdtThreadLineStdJIS
  3
"Amdt_StdImp|Product Description: AutoCAD Mechanical 2004 DX|Company: Autodesk"
 90
        0
280
     1
281
     0
  0
CLASS
  1
ACMNOTESTANDARDJIS
  2
AmdtNoteStdJIS
  3
"Amdt_StdImp|Product Description: AutoCAD Mechanical 2004 DX|Company: Autodesk"
 90
        0
280
     1
281
     0
  0
CLASS
  1
AMDTNOTETEMPLATEDB
  2
AmdtNoteTemplateDB
  3
AMDT_STDIMP_MODULE_NAME
 90
        0
280
     1
281
     0
  0
CLASS
  1
ACAMGLAYSTD
  2
AcAmgLayStd
  3
"AcAmgLayStd|Product Description: AutoCAD Mechanical 2000|Company: Autodesk"
 90
        0
280
     1
281
     0
  0
CLASS
  1
ACAMGDIMSTD
  2
AcAmgDimStd
  3
"AcAmgDimStd|Product Description: AutoCAD Mechanical 2000|Company: Autodesk"
 90
        0
280
     1
281
     0
  0
CLASS
  1
ACAMGHOLECHARTSTDJIS
  2
AcAmgHoleChartStdJIS
  3
ACMSYMBB_MODULE_NAME
 90
        0
280
     1
281
     0
  0
CLASS
  1
CATALOGSTATE
  2
AcAmCatalogState
  3
DesignerAssemblies
 90
        0
280
     1
281
     0
  0
CLASS
  1
ACAMGRCOMPDEFSET
  2
AcAmGrCompDefSet
  3
DesignerAssemblies
 90
        0
280
     1
281
     0
  0
CLASS
  1
AMDTBROWSERDBTAB
  2
AmdtBrowserDbTab
  3
McadcomServices
 90
        0
280
     1
281
     0
  0
CLASS
  1
CBROWSERAPPOBJECT
  2
CBrowserAppObject
  3
McadcomServices
 90
        0
280
     1
281
     0
  0
CLASS
  1
DM_PLACEHOLDER
  2
AcDmSelsetPlaceholder
  3
AcMechDwgViewMgmt
 90
        0
280
     1
281
     0
  0
CLASS
  1
SORTENTSTABLE
  2
AcDbSortentsTable
  3
ObjectDBX Classes
 90
        0
280
     0
281
     0
  0
CLASS
  1
ACMSTANDARDISO
  2
AcmStandardISO
  3
"Amdt_StdImp|Product Description: AutoCAD Mechanical 2004 DX|Company: Autodesk"
 90
        0
280
     1
281
     0
  0
CLASS
  1
AMDTEDGESTANDARDISO13715
  2
AmdtEdgeStdISO13715
  3
"Amdt_StdImp|Product Description: AutoCAD Mechanical 2004 DX|Company: Autodesk"
 90
        0
280
     1
281
     0
  0
CLASS
  1
ACMSURFSTANDARDISO
  2
AcmSurfTextStdISO
  3
"Amdt_StdImp|Product Description: AutoCAD Mechanical 2004 DX|Company: Autodesk"
 90
        0
280
     1
281
     0
  0
CLASS
  1
ACMFCFSTANDARDISO
  2
AcmFCFStdISO
  3
"Amdt_StdImp|Product Description: AutoCAD Mechanical 2004 DX|Company: Autodesk"
 90
        0
280
     1
281
     0
  0
CLASS
  1
ACMWELDSTANDARDISO
  2
AcmWeldingStdISO
  3
"Amdt_StdImp|Product Description: AutoCAD Mechanical 2004 DX|Company: Autodesk"
 90
        0
280
     1
281
     0
  0
CLASS
  1
ACMIDSTANDARDISO
  2
AcmIdStdISO
  3
"Amdt_StdImp|Product Description: AutoCAD Mechanical 2004 DX|Company: Autodesk"
 90
        0
280
     1
281
     0
  0
CLASS
  1
ACMDATUMSTANDARDISO
  2
AcmDatumStdISO
  3
"Amdt_StdImp|Product Description: AutoCAD Mechanical 2004 DX|Company: Autodesk"
 90
        0
280
     1
281
     0
  0
CLASS
  1
ACMBOMSTANDARDISO
  2
AcmBOMStdISO
  3
"Amdt_StdImp|Product Description: AutoCAD Mechanical 2004 DX|Company: Autodesk"
 90
        0
280
     1
281
     0
  0
CLASS
  1
ACMDETAILSTANDARDISO
  2
AmdtDetailSymStdISO
  3
"Amdt_StdImp|Product Description: AutoCAD Mechanical 2004 DX|Company: Autodesk"
 90
        0
280
     1
281
     0
  0
CLASS
  1
ACMSECTIONSTANDARDISO
  2
AmdtSectionSymStdISO
  3
"Amdt_StdImp|Product Description: AutoCAD Mechanical 2004 DX|Company: Autodesk"
 90
        0
280
     1
281
     0
  0
CLASS
  1
ACMCENTERLINESTANDARDISO
  2
AmdtCenterLineStdISO
  3
"Amdt_StdImp|Product Description: AutoCAD Mechanical 2004 DX|Company: Autodesk"
 90
        0
280
     1
281
     0
  0
CLASS
  1
ACMTHREADLINESTANDARDISO
  2
AmdtThreadLineStdISO
  3
"Amdt_StdImp|Product Description: AutoCAD Mechanical 2004 DX|Company: Autodesk"
 90
        0
280
     1
281
     0
  0
CLASS
  1
ACMNOTESTANDARDISO
  2
AmdtNoteStdISO
  3
"Amdt_StdImp|Product Description: AutoCAD Mechanical 2004 DX|Company: Autodesk"
 90
        0
280
     1
281
     0
  0
CLASS
  1
ACAMGHOLECHARTSTDISO
  2
AcAmgHoleChartStdISO
  3
ACMSYMBB_MODULE_NAME
 90
        0
280
     1
281
     0
  0
CLASS
  1
AMDTFORMULAUPDATEDISPATCHER
  2
AmdtFormulaUpdateDispatcher
  3
AcMeServices
 90
        0
280
     1
281
     0
  0
ENDSEC
  0
SECTION
  2
TABLES
  0
TABLE
  2
VPORT
  5
8
330
0
100
AcDbSymbolTable
 70
    11
  0
VPORT
  5
19D09
330
8
100
AcDbSymbolTableRecord
100
AcDbViewportTableRecord
  2
*Active
 70
     0
 10
0.0
 20
0.0
 11
1.0
 21
1.0
 12
51.6102602955391
 22
-61.24269501801001
 13
0.0
 23
0.0
 14
2.5
 24
2.5
 15
10.0
 25
10.0
 16
0.0
 26
0.0
 36
1.0
 17
0.0
 27
0.0
 37
0.0
 40
179.0901736259141
 41
1.697058823529412
 42
50.0
 43
0.0
 44
0.0
 50
0.0
 51
0.0
 71
    16
 72
 20000
 73
     1
 74
     3
 75
     0
 76
     0
 77
     0
 78
     0
281
     0
 65
     1
110
0.0
120
0.0
130
0.0
111
1.0
121
0.0
131
0.0
112
0.0
122
1.0
132
0.0
 79
     0
146
0.0
  0
ENDTAB
  0
TABLE
  2
LTYPE
  5
5
330
0
100
AcDbSymbolTable
 70
    16
  0
LTYPE
  5
14
330
5
100
AcDbSymbolTableRecord
100
AcDbLinetypeTableRecord
  2
ByBlock
 70
     0
  3

 72
    65
 73
     0
 40
0.0
  0
LTYPE
  5
15
330
5
100
AcDbSymbolTableRecord
100
AcDbLinetypeTableRecord
  2
ByLayer
 70
     0
  3

 72
    65
 73
     0
 40
0.0
  0
LTYPE
  5
16
330
5
100
AcDbSymbolTableRecord
100
AcDbLinetypeTableRecord
  2
Continuous
 70
     0
  3
Solid line
 72
    65
 73
     0
 40
0.0
  0
LTYPE
  5
43
330
5
100
AcDbSymbolTableRecord
100
AcDbLinetypeTableRecord
  2
AM_ISO02W050
 70
     0
  3
__ __ __ __ __ __ __ __ __ __ __ __ __ __ __
 72
    65
 73
     2
 40
7.5
 49
6.0
 74
     0
 49
-1.5
 74
     0
  0
LTYPE
  5
44
330
5
100
AcDbSymbolTableRecord
100
AcDbLinetypeTableRecord
  2
AM_ISO08W050
 70
     0
  3
____ . ____ . ____ . ____ . ____ . ____ . ____
 72
    65
 73
     4
 40
18.0
 49
12.0
 74
     0
 49
-1.5
 74
     0
 49
3.0
 74
     0
 49
-1.5
 74
     0
  0
LTYPE
  5
45
330
5
100
AcDbSymbolTableRecord
100
AcDbLinetypeTableRecord
  2
AM_ISO09W050
 70
     0
  3
_____ . . _____ . . _____ . . ____ .. ____
 72
    65
 73
     6
 40
22.5
 49
12.0
 74
     0
 49
-1.5
 74
     0
 49
3.0
 74
     0
 49
-1.5
 74
     0
 49
3.0
 74
     0
 49
-1.5
 74
     0
  0
LTYPE
  5
46
330
5
100
AcDbSymbolTableRecord
100
AcDbLinetypeTableRecord
  2
Amconstr
 70
     0
  3
_______________________
 72
    65
 73
     2
 40
9999.0
 49
9999.0
 74
     0
 49
0.0
 74
     0
  0
LTYPE
  5
47
330
5
100
AcDbSymbolTableRecord
100
AcDbLinetypeTableRecord
  2
AM_ISO02W050x2
 70
     0
  3
 _ _ _ _ _ _ _ _ _ _ _ _
 72
    65
 73
     2
 40
3.75
 49
3.0
 74
     0
 49
-0.75
 74
     0
  0
LTYPE
  5
48
330
5
100
AcDbSymbolTableRecord
100
AcDbLinetypeTableRecord
  2
AM_ISO08W050x2
 70
     0
  3
__ . __ . __ . __ . __ . __
 72
    65
 73
     4
 40
9.0
 49
6.0
 74
     0
 49
-0.75
 74
     0
 49
1.5
 74
     0
 49
-0.75
 74
     0
  0
LTYPE
  5
4B
330
5
100
AcDbSymbolTableRecord
100
AcDbLinetypeTableRecord
  2
Amzigzag
 70
     0
  3
/\/-/\/-/\/-/\/-/\/-/\/
 72
    65
 73
     2
 40
11.0001
 49
0.0001
 74
     4
 75
   135
340
4A
 46
0.04
 50
0.0
 44
0.0
 45
0.0
 49
-11.0
 74
     0
  0
LTYPE
  5
188
330
5
100
AcDbSymbolTableRecord
100
AcDbLinetypeTableRecord
  2
ACJISTGB
 70
     0
  3
__ . . __ . .
 72
    65
 73
     6
 40
9.0
 49
4.0
 74
     0
 49
-1.0
 74
     0
 49
1.0
 74
     0
 49
-1.0
 74
     0
 49
1.0
 74
     0
 49
-1.0
 74
     0
  0
LTYPE
  5
189
330
5
100
AcDbSymbolTableRecord
100
AcDbLinetypeTableRecord
  2
ACJISTGL
 70
     0
  3
_ _ _ _ _
 72
    65
 73
     2
 40
3.0
 49
2.0
 74
     0
 49
-1.0
 74
     0
  0
LTYPE
  5
652
330
5
100
AcDbSymbolTableRecord
100
AcDbLinetypeTableRecord
  2
CENTER
 70
     0
  3
____ _ ____ _ ____ _ ____ _ ____ _ ____ _ ____
 72
    65
 73
     4
 40
17.5
 49
13.0
 74
     0
 49
-1.5
 74
     0
 49
1.5
 74
     0
 49
-1.5
 74
     0
  0
LTYPE
  5
12AB
330
5
100
AcDbSymbolTableRecord
100
AcDbLinetypeTableRecord
  2
HIDDEN
 70
     0
  3
Hidden __ __ __ __ __ __ __ __ __ __ __ __ __ _
 72
    65
 73
     2
 40
0.375
 49
0.25
 74
     0
 49
-0.125
 74
     0
  0
LTYPE
  5
12AC
330
5
100
AcDbSymbolTableRecord
100
AcDbLinetypeTableRecord
  2
PHANTOM2
 70
     0
  3
Phantom (.5x) ___ _ _ ___ _ _ ___ _ _ ___ _ _
 72
    65
 73
     6
 40
1.25
 49
0.625
 74
     0
 49
-0.125
 74
     0
 49
0.125
 74
     0
 49
-0.125
 74
     0
 49
0.125
 74
     0
 49
-0.125
 74
     0
  0
LTYPE
  5
F5A5
330
5
100
AcDbSymbolTableRecord
100
AcDbLinetypeTableRecord
  2
ACISOWELD
 70
     0
  3
_ _ _ _ _
 72
    65
 73
     2
 40
2.0
 49
2.0
 74
     0
 49
-1.0
 74
     0
  0
LTYPE
  5
F5A6
330
5
100
AcDbSymbolTableRecord
100
AcDbLinetypeTableRecord
  2
ACISOTGB
 70
     0
  3
__ . . __ . .
 72
    65
 73
     6
 40
9.0
 49
4.0
 74
     0
 49
-1.0
 74
     0
 49
1.0
 74
     0
 49
-1.0
 74
     0
 49
1.0
 74
     0
 49
-1.0
 74
     0
  0
LTYPE
  5
F5A7
330
5
100
AcDbSymbolTableRecord
100
AcDbLinetypeTableRecord
  2
ACISOTGL
 70
     0
  3
_ _ _ _ _
 72
    65
 73
     2
 40
3.0
 49
2.0
 74
     0
 49
-1.0
 74
     0
  0
ENDTAB
  0
TABLE
  2
LAYER
  5
2
102
{ACAD_XDICTIONARY
360
EDC8
102
}
330
0
100
AcDbSymbolTable
 70
     5
  0
LAYER
  5
10
330
2
100
AcDbSymbolTableRecord
100
AcDbLayerTableRecord
  2
0
 70
     0
 62
     7
  6
Continuous
370
    -3
390
F
  0
LAYER
  5
7D
330
2
100
AcDbSymbolTableRecord
100
AcDbLayerTableRecord
  2
AM_5
 70
     0
 62
     3
  6
Continuous
370
    13
390
F
  0
LAYER
  5
7F
330
2
100
AcDbSymbolTableRecord
100
AcDbLayerTableRecord
  2
Defpoints
 70
     0
 62
     7
  6
Continuous
290
     0
370
    -3
390
F
  0
LAYER
  5
12B1
330
2
100
AcDbSymbolTableRecord
100
AcDbLayerTableRecord
  2
AM_0
 70
     0
 62
     7
  6
Continuous
370
    30
390
F
  0
LAYER
  5
18A5
330
2
100
AcDbSymbolTableRecord
100
AcDbLayerTableRecord
  2
AM_6
 70
     0
 62
     2
  6
Continuous
370
    30
390
F
  0
ENDTAB
  0
TABLE
  2
STYLE
  5
3
330
0
100
AcDbSymbolTable
 70
     6
  0
STYLE
  5
11
330
3
100
AcDbSymbolTableRecord
100
AcDbTextStyleTableRecord
  2
STANDARD
 70
     0
 40
0.0
 41
1.0
 50
0.0
 71
     0
 42
5.0
  3
ISOCP.SHX
  4
EXTFONT.SHX
  0
STYLE
  5
4A
330
3
100
AcDbSymbolTableRecord
100
AcDbTextStyleTableRecord
  2

 70
     1
 40
0.0
 41
1.0
 50
0.0
 71
     0
 42
2.5
  3
ltypeshp.shx
  4

  0
STYLE
  5
180
330
3
100
AcDbSymbolTableRecord
100
AcDbTextStyleTableRecord
  2
ACJISTS
 70
     0
 40
1.0
 41
1.0
 50
0.0
 71
     0
 42
2.5
  3
isocp.shx
  4
bigfont.shx
  0
STYLE
  5
187
330
3
100
AcDbSymbolTableRecord
100
AcDbTextStyleTableRecord
  2
ACJISGDT
 70
     0
 40
0.0
 41
1.0
 50
0.0
 71
     0
 42
2.5
  3
amgdt.shx
  4

  0
STYLE
  5
F5A9
330
3
100
AcDbSymbolTableRecord
100
AcDbTextStyleTableRecord
  2
ACISOTS
 70
     0
 40
1.0
 41
1.0
 50
0.0
 71
     0
 42
1.0
  3
isocp.shx
  4
extfont.shx
  0
STYLE
  5
F5AA
330
3
100
AcDbSymbolTableRecord
100
AcDbTextStyleTableRecord
  2
ACISOGDT
 70
     0
 40
0.0
 41
1.0
 50
0.0
 71
     0
 42
1.0
  3
amgdt.shx
  4

  0
ENDTAB
  0
TABLE
  2
VIEW
  5
6
330
0
100
AcDbSymbolTable
 70
     6
  0
VIEW
  5
A30
330
6
100
AcDbSymbolTableRecord
100
AcDbViewTableRecord
  2
AM_VIEW1
 70
     0
 40
148.5
 10
109.5616966580977
 20
222.75
 41
219.1233933161954
 11
0.0
 21
0.0
 31
1.0
 12
0.0
 22
0.0
 32
0.0
 42
50.0
 43
0.0
 44
0.0
 50
0.0
 71
    16
281
     0
 72
     0
  0
VIEW
  5
A31
330
6
100
AcDbSymbolTableRecord
100
AcDbViewTableRecord
  2
AM_VIEW2
 70
     0
 40
148.5
 10
310.4383033419023
 20
222.75
 41
219.1233933161954
 11
0.0
 21
0.0
 31
1.0
 12
0.0
 22
0.0
 32
0.0
 42
50.0
 43
0.0
 44
0.0
 50
0.0
 71
    16
281
     0
 72
     0
  0
VIEW
  5
A32
330
6
100
AcDbSymbolTableRecord
100
AcDbViewTableRecord
  2
AM_VIEW3
 70
     0
 40
148.5
 10
109.5616966580977
 20
74.25
 41
219.1233933161954
 11
0.0
 21
0.0
 31
1.0
 12
0.0
 22
0.0
 32
0.0
 42
50.0
 43
0.0
 44
0.0
 50
0.0
 71
    16
281
     0
 72
     0
  0
VIEW
  5
A33
330
6
100
AcDbSymbolTableRecord
100
AcDbViewTableRecord
  2
AM_VIEW4
 70
     0
 40
148.5
 10
310.4383033419023
 20
74.25
 41
219.1233933161954
 11
0.0
 21
0.0
 31
1.0
 12
0.0
 22
0.0
 32
0.0
 42
50.0
 43
0.0
 44
0.0
 50
0.0
 71
    16
281
     0
 72
     0
  0
VIEW
  5
A34
330
6
100
AcDbSymbolTableRecord
100
AcDbViewTableRecord
  2
AM_VIEW5
 70
     0
 40
148.5
 10
210.0
 20
148.5
 41
219.1233933161954
 11
0.0
 21
0.0
 31
1.0
 12
0.0
 22
0.0
 32
0.0
 42
50.0
 43
0.0
 44
0.0
 50
0.0
 71
    16
281
     0
 72
     0
  0
VIEW
  5
A35
330
6
100
AcDbSymbolTableRecord
100
AcDbViewTableRecord
  2
AM_VIEW6
 70
     0
 40
296.99703
 10
210.0
 20
148.5
 41
438.2424041645245
 11
0.0
 21
0.0
 31
1.0
 12
0.0
 22
0.0
 32
0.0
 42
50.0
 43
0.0
 44
0.0
 50
0.0
 71
    16
281
     0
 72
     0
  0
ENDTAB
  0
TABLE
  2
UCS
  5
7
330
0
100
AcDbSymbolTable
 70
     0
  0
ENDTAB
  0
TABLE
  2
APPID
  5
9
330
0
100
AcDbSymbolTable
 70
    45
  0
APPID
  5
12
330
9
100
AcDbSymbolTableRecord
100
AcDbRegAppTableRecord
  2
ACAD
 70
     0
  0
APPID
  5
2C
330
9
100
AcDbSymbolTableRecord
100
AcDbRegAppTableRecord
  2
MCAD_NO_VIS
 70
     0
  0
APPID
  5
2D
330
9
100
AcDbSymbolTableRecord
100
AcDbRegAppTableRecord
  2
ACAD_TEMP_GRAPHIC
 70
     0
  0
APPID
  5
B9
330
9
100
AcDbSymbolTableRecord
100
AcDbRegAppTableRecord
  2
GENIUS_GENDTOL_13
 70
     0
  0
APPID
  5
359
330
9
100
AcDbSymbolTableRecord
100
AcDbRegAppTableRecord
  2
GENIUS_GENREC_14
 70
     0
  0
APPID
  5
35A
330
9
100
AcDbSymbolTableRecord
100
AcDbRegAppTableRecord
  2
GENIUS_GENODEF_13
 70
     0
  0
APPID
  5
35B
330
9
100
AcDbSymbolTableRecord
100
AcDbRegAppTableRecord
  2
GENIUS_GENOBJ-N-REC_13
 70
     0
  0
APPID
  5
667
330
9
100
AcDbSymbolTableRecord
100
AcDbRegAppTableRecord
  2
GENIUS_GENCFG_13
 70
     0
  0
APPID
  5
668
330
9
100
AcDbSymbolTableRecord
100
AcDbRegAppTableRecord
  2
GENIUS_GENCFG0_13
 70
     0
  0
APPID
  5
669
330
9
100
AcDbSymbolTableRecord
100
AcDbRegAppTableRecord
  2
GENIUS_GENCFG1_13
 70
     0
  0
APPID
  5
66A
330
9
100
AcDbSymbolTableRecord
100
AcDbRegAppTableRecord
  2
GENIUS_GENCFG2_13
 70
     0
  0
APPID
  5
66B
330
9
100
AcDbSymbolTableRecord
100
AcDbRegAppTableRecord
  2
GENIUS_GENCFG3_13
 70
     0
  0
APPID
  5
66C
330
9
100
AcDbSymbolTableRecord
100
AcDbRegAppTableRecord
  2
GENIUS_GENCFG4_13
 70
     0
  0
APPID
  5
A76
330
9
100
AcDbSymbolTableRecord
100
AcDbRegAppTableRecord
  2
GENIUS_GENBLLY_14
 70
     0
  0
APPID
  5
A77
330
9
100
AcDbSymbolTableRecord
100
AcDbRegAppTableRecord
  2
GENIUS_GENOBJ-N-CEN_13
 70
     0
  0
APPID
  5
A83
330
9
100
AcDbSymbolTableRecord
100
AcDbRegAppTableRecord
  2
GENIUS_GENTRA_14
 70
     0
  0
APPID
  5
A8D
330
9
100
AcDbSymbolTableRecord
100
AcDbRegAppTableRecord
  2
GENIUS_GENOBJ-N-TIT_13
 70
     0
  0
APPID
  5
A8E
330
9
100
AcDbSymbolTableRecord
100
AcDbRegAppTableRecord
  2
GENIUS_GENTITLE_13
 70
     0
  0
APPID
  5
A8F
330
9
100
AcDbSymbolTableRecord
100
AcDbRegAppTableRecord
  2
GENIUS_GENOENT_13
 70
     0
  0
APPID
  5
A90
330
9
100
AcDbSymbolTableRecord
100
AcDbRegAppTableRecord
  2
GENIUS_GENOREF_13
 70
     0
  0
APPID
  5
A91
330
9
100
AcDbSymbolTableRecord
100
AcDbRegAppTableRecord
  2
GENIUS_GENOLIS_13
 70
     0
  0
APPID
  5
A92
330
9
100
AcDbSymbolTableRecord
100
AcDbRegAppTableRecord
  2
GENIUS_GENZVEED_13
 70
     0
  0
APPID
  5
A93
330
9
100
AcDbSymbolTableRecord
100
AcDbRegAppTableRecord
  2
GENIUS_GENSCREG_15
 70
     0
  0
APPID
  5
A94
330
9
100
AcDbSymbolTableRecord
100
AcDbRegAppTableRecord
  2
GENIUS_GENOBJ-N-SDF_13
 70
     0
  0
APPID
  5
12B5
330
9
100
AcDbSymbolTableRecord
100
AcDbRegAppTableRecord
  2
GENIUS_GENOBJ-N-RSBK_13
 70
     0
  0
APPID
  5
12B6
330
9
100
AcDbSymbolTableRecord
100
AcDbRegAppTableRecord
  2
GENIUS_GENOBJ-N-LIB_13
 70
     0
  0
APPID
  5
12B7
330
9
100
AcDbSymbolTableRecord
100
AcDbRegAppTableRecord
  2
GENIUS_GENSCALE_13
 70
     0
  0
APPID
  5
12B8
330
9
100
AcDbSymbolTableRecord
100
AcDbRegAppTableRecord
  2
GENIUS_GENOBJ-N-HTC_13
 70
     0
  0
APPID
  5
12B9
330
9
100
AcDbSymbolTableRecord
100
AcDbRegAppTableRecord
  2
GENIUS_GENHATCH_13
 70
     0
  0
APPID
  5
18AA
330
9
100
AcDbSymbolTableRecord
100
AcDbRegAppTableRecord
  2
BASE_TYPE
 70
     0
  0
APPID
  5
18AB
330
9
100
AcDbSymbolTableRecord
100
AcDbRegAppTableRecord
  2
GENIUS_GENOBJ-N-FIL_13
 70
     0
  0
APPID
  5
1E91
330
9
100
AcDbSymbolTableRecord
100
AcDbRegAppTableRecord
  2
GENIUS_GENOBJ-N-CRS_13
 70
     0
  0
APPID
  5
3B24
330
9
100
AcDbSymbolTableRecord
100
AcDbRegAppTableRecord
  2
GENIUS_GENDIMSH_14
 70
     0
  0
APPID
  5
4D78
330
9
100
AcDbSymbolTableRecord
100
AcDbRegAppTableRecord
  2
GENIUS_GENOBJ-N-DIM_13
 70
     0
  0
APPID
  5
4D79
330
9
100
AcDbSymbolTableRecord
100
AcDbRegAppTableRecord
  2
GENIUS_GENDIM_13
 70
     0
  0
APPID
  5
517C
330
9
100
AcDbSymbolTableRecord
100
AcDbRegAppTableRecord
  2
GENIUS_GENFIL_13
 70
     0
  0
APPID
  5
517D
330
9
100
AcDbSymbolTableRecord
100
AcDbRegAppTableRecord
  2
GENIUS_GENOBJ-N-CHA_13
 70
     0
  0
APPID
  5
ED83
330
9
100
AcDbSymbolTableRecord
100
AcDbRegAppTableRecord
  2
AD_DRAW
 70
     0
  0
APPID
  5
ED86
330
9
100
AcDbSymbolTableRecord
100
AcDbRegAppTableRecord
  2
ACATTRIBSERVICES
 70
     0
  0
APPID
  5
EDA4
330
9
100
AcDbSymbolTableRecord
100
AcDbRegAppTableRecord
  2
DESIGNERASSEMBLIES
 70
     0
  0
APPID
  5
EDB7
330
9
100
AcDbSymbolTableRecord
100
AcDbRegAppTableRecord
  2
ACADM_DIM_EDIT
 70
     0
  0
APPID
  5
EDB8
330
9
100
AcDbSymbolTableRecord
100
AcDbRegAppTableRecord
  2
AMDT_DM_ADJ
 70
     0
  0
APPID
  5
F08C
330
9
100
AcDbSymbolTableRecord
100
AcDbRegAppTableRecord
  2
ACAD_PSEXT
 70
     0
  0
APPID
  5
F2B1
330
9
100
AcDbSymbolTableRecord
100
AcDbRegAppTableRecord
  2
GENIUS_GENCEN_19
 70
     0
  0
APPID
  5
10513
330
9
100
AcDbSymbolTableRecord
100
AcDbRegAppTableRecord
  2
ACAD_DSTYLE_DIMTEXT_FILL
 70
     0
  0
ENDTAB
  0
TABLE
  2
DIMSTYLE
  5
A
330
0
100
AcDbSymbolTable
 70
    17
100
AcDbDimStyleTable
  0
DIMSTYLE
105
58
330
A
100
AcDbSymbolTableRecord
100
AcDbDimStyleTableRecord
  2
AM_JIS
 70
     0
  4
"
 41
2.5
 42
0.0
 43
10.0
 44
1.0
 47
0.1
 48
0.1000000001
 73
     0
 74
     0
 77
     3
 78
     1
 79
     2
140
3.8
141
0.0
143
0.0393701
146
0.71
147
1.5
172
     1
176
   256
177
   256
178
     2
179
     1
271
     2
272
     2
275
     1
283
     0
284
     8
340
11
341
59
342
59
371
    -1
372
    -1
  0
DIMSTYLE
105
5F
330
A
100
AcDbSymbolTableRecord
100
AcDbDimStyleTableRecord
  2
AM_JIS$3
 70
     0
  4
"
 41
2.5
 42
0.0
 43
10.0
 44
1.0
 47
0.1
 48
0.1000000001
 73
     0
 77
     3
 78
     1
 79
     2
140
3.8
141
0.0
143
0.0393701
146
0.71
147
1.5
172
     1
176
   256
177
   256
178
     2
179
     1
271
     2
272
     2
275
     1
283
     0
284
     8
288
     1
289
     0
340
11
341
59
342
59
371
    -1
372
    -1
  0
DIMSTYLE
105
60
330
A
100
AcDbSymbolTableRecord
100
AcDbDimStyleTableRecord
  2
AM_JIS$4
 70
     0
  4
"
 41
2.5
 42
0.0
 43
10.0
 44
1.0
 47
0.1
 48
0.1000000001
 73
     0
 77
     3
 78
     1
 79
     2
140
3.8
141
0.0
143
0.0393701
146
0.71
147
1.5
172
     1
176
   256
177
   256
178
     2
179
     1
271
     2
272
     2
275
     1
283
     0
284
     8
288
     1
289
     0
340
11
341
59
342
59
371
    -1
372
    -1
  0
DIMSTYLE
105
61
330
A
100
AcDbSymbolTableRecord
100
AcDbDimStyleTableRecord
  2
AM_JIS$6
 70
     0
  4
"
 41
2.5
 42
0.0
 43
10.0
 44
1.0
 47
0.1
 48
0.1000000001
 73
     0
 74
     0
 78
     1
 79
     2
140
3.8
141
0.0
143
0.0393701
146
0.71
147
1.5
172
     1
176
   256
177
   256
178
     2
179
     1
271
     2
272
     2
275
     1
283
     0
284
     8
340
11
341
59
342
59
371
    -1
372
    -1
  0
DIMSTYLE
105
62
330
A
100
AcDbSymbolTableRecord
100
AcDbDimStyleTableRecord
  2
AM_JIS$7
 70
     0
  4
"
 41
2.5
 42
0.0
 43
10.0
 44
1.0
 47
0.1
 48
0.1000000001
 73
     0
 74
     0
 77
     3
 78
     1
 79
     2
140
5.0
141
0.0
143
0.0393701
146
0.71
147
1.5
172
     1
176
   256
177
   256
178
     2
179
     1
271
     2
272
     2
275
     1
283
     0
284
     8
340
11
341
59
342
59
371
    -1
372
    -1
  0
DIMSTYLE
105
63
330
A
100
AcDbSymbolTableRecord
100
AcDbDimStyleTableRecord
  2
AM_JIS$SF
 70
     0
  4
"
 41
2.5
 42
1.0
 43
10.0
 44
1.0
 47
0.1
 48
0.1
 73
     0
 74
     0
 75
     1
 76
     1
 77
     3
 78
     8
 79
     2
140
3.5
141
0.0
143
0.0393701
146
0.71
147
1.5
176
   256
177
   256
178
     2
271
     2
272
     3
274
     4
340
11
341
59
342
59
343
59
344
59
371
    -1
372
    -1
  0
DIMSTYLE
105
68
330
A
100
AcDbSymbolTableRecord
100
AcDbDimStyleTableRecord
  2
AM_JIS$SH
 70
     0
  4
"
 41
2.5
 42
1.0
 43
10.0
 44
1.0
 47
0.1
 48
0.1
 73
     0
 74
     0
 75
     1
 76
     1
 77
     3
 78
     8
 79
     2
140
3.5
141
0.0
143
0.0393701
144
2.0
146
0.71
147
1.5
173
     1
176
   256
177
   256
178
     2
271
     2
272
     3
274
     4
340
11
341
59
342
59
343
64
344
59
371
    -1
372
    -1
  0
DIMSTYLE
105
65F
330
A
100
AcDbSymbolTableRecord
100
AcDbDimStyleTableRecord
  2
STANDARD
 70
     0
340
11
  0
DIMSTYLE
105
18A8
102
{ACAD_REACTORS
330
139C8
330
13B18
330
13B3A
330
15EB1
330
1604C
330
170A2
330
1921A
102
}
330
A
100
AcDbSymbolTableRecord
100
AcDbDimStyleTableRecord
  2
AM_JIS$0
 70
     0
  4
"
 41
2.5
 42
0.0
 43
10.0
 44
1.0
 47
0.1
 48
0.1000000001
 73
     0
 74
     0
 77
     3
 78
     1
 79
     2
140
3.8
141
0.0
143
0.0393701
146
0.71
147
1.5
172
     1
176
     3
177
     3
178
     2
271
     2
272
     2
275
     1
283
     0
284
     8
289
     0
340
11
341
59
342
59
371
    13
372
    13
  0
DIMSTYLE
105
18A9
102
{ACAD_REACTORS
330
19B91
102
}
330
A
100
AcDbSymbolTableRecord
100
AcDbDimStyleTableRecord
  2
AM_JIS$2
 70
     0
  4
"
 41
2.5
 42
0.0
 43
10.0
 44
1.0
 47
0.1
 48
0.1000000001
 73
     0
 74
     0
 77
     3
 78
     1
 79
     2
140
3.8
141
0.0
143
0.0393701
146
0.71
147
1.5
172
     1
176
     3
177
     3
178
     2
271
     2
272
     2
275
     1
283
     0
284
     8
289
     0
340
11
341
59
342
59
371
    13
372
    13
  0
DIMSTYLE
105
F5AE
330
A
100
AcDbSymbolTableRecord
100
AcDbDimStyleTableRecord
  2
AM_ISO
 70
     0
  4
"
 41
2.5
 42
1.0
 43
10.0
 44
1.0
 47
0.1
 48
0.1
 73
     0
 74
     0
 77
     1
 78
     8
 79
     2
140
3.5
141
0.0
143
0.0393701
146
0.71
147
1.5
172
     1
176
   256
177
   256
178
     2
271
     2
272
     3
274
     4
283
     0
284
     8
340
11
371
    -1
372
    -1
  0
DIMSTYLE
105
F5AF
330
A
100
AcDbSymbolTableRecord
100
AcDbDimStyleTableRecord
  2
AM_ISO$3
 70
     0
  4
"
 41
2.5
 42
1.0
 43
10.0
 44
1.0
 47
0.1
 48
0.1
 73
     0
 77
     1
 78
     8
 79
     2
140
3.5
141
0.0
143
0.0393701
146
0.71
147
1.5
176
   256
177
   256
178
     2
271
     2
272
     3
274
     4
283
     0
284
     8
288
     1
289
     0
340
11
371
    -1
372
    -1
  0
DIMSTYLE
105
F5B0
330
A
100
AcDbSymbolTableRecord
100
AcDbDimStyleTableRecord
  2
AM_ISO$4
 70
     0
  4
"
 41
2.5
 42
1.0
 43
10.0
 44
1.0
 47
0.1
 48
0.1
 73
     0
 77
     1
 78
     8
 79
     2
140
3.5
141
0.0
143
0.0393701
146
0.71
147
1.5
176
   256
177
   256
178
     2
271
     2
272
     3
274
     4
283
     0
284
     8
288
     1
289
     0
340
11
371
    -1
372
    -1
  0
DIMSTYLE
105
F5B1
330
A
100
AcDbSymbolTableRecord
100
AcDbDimStyleTableRecord
  2
AM_ISO$6
 70
     0
  4
"
 41
2.5
 42
1.0
 43
10.0
 44
1.0
 47
0.1
 48
0.1
 73
     0
 74
     0
 78
     8
 79
     2
140
3.5
141
0.0
143
0.0393701
146
0.71
147
1.5
172
     1
176
   256
177
   256
178
     2
271
     2
272
     3
274
     4
283
     0
284
     8
340
11
371
    -1
372
    -1
  0
DIMSTYLE
105
F5B2
330
A
100
AcDbSymbolTableRecord
100
AcDbDimStyleTableRecord
  2
AM_ISO$7
 70
     0
  4
"
 41
2.5
 42
1.0
 43
10.0
 44
1.0
 47
0.1
 48
0.1
 73
     0
 74
     0
 77
     1
 78
     8
 79
     2
140
5.0
141
0.0
143
0.0393701
146
0.71
147
1.5
172
     1
176
   256
177
   256
178
     2
271
     2
272
     3
274
     4
283
     0
284
     8
340
11
371
    -1
372
    -1
  0
DIMSTYLE
105
F5B3
330
A
100
AcDbSymbolTableRecord
100
AcDbDimStyleTableRecord
  2
AM_ISO$SF
 70
     0
  4
"
 41
2.5
 42
1.0
 43
10.0
 44
1.0
 47
0.1
 48
0.1
 73
     0
 74
     0
 75
     1
 76
     1
 77
     1
 78
     8
 79
     2
140
3.5
141
0.0
143
0.0393701
146
0.71
147
1.5
172
     1
176
   256
177
   256
178
     2
271
     2
272
     3
274
     4
283
     0
284
     8
340
11
371
    -1
372
    -1
  0
DIMSTYLE
105
F5B4
330
A
100
AcDbSymbolTableRecord
100
AcDbDimStyleTableRecord
  2
AM_ISO$SH
 70
     0
  4
"
 41
2.5
 42
1.0
 43
10.0
 44
1.0
 47
0.1
 48
0.1
 73
     0
 74
     0
 75
     1
 76
     1
 77
     1
 78
     8
 79
     2
140
3.5
141
0.0
143
0.0393701
144
2.0
146
0.71
147
1.5
172
     1
173
     1
176
   256
177
   256
178
     2
271
     2
272
     3
274
     4
283
     0
284
     8
340
11
343
64
371
    -1
372
    -1
  0
ENDTAB
  0
TABLE
  2
BLOCK_RECORD
  5
1
330
0
100
AcDbSymbolTable
 70
    12
  0
BLOCK_RECORD
  5
1F
102
{ACAD_XDICTIONARY
360
165
102
}
330
1
100
AcDbSymbolTableRecord
100
AcDbBlockTableRecord
  2
*Model_Space
340
22
  0
BLOCK_RECORD
  5
1B
330
1
100
AcDbSymbolTableRecord
100
AcDbBlockTableRecord
  2
*Paper_Space
340
1E
  0
BLOCK_RECORD
  5
23
330
1
100
AcDbSymbolTableRecord
100
AcDbBlockTableRecord
  2
*Paper_Space0
340
26
  0
BLOCK_RECORD
  5
59
330
1
100
AcDbSymbolTableRecord
100
AcDbBlockTableRecord
  2
_Open30
340
0
102
{BLKREFS
331
19C6A
331
19C6B
331
19C73
331
19C74
331
19C7C
331
19C7D
331
19CFF
331
19D00
331
19C8E
331
19C8F
331
19C97
331
19C98
331
19CA0
331
19CA1
331
19CA9
331
19CAA
102
}
  0
BLOCK_RECORD
  5
64
330
1
100
AcDbSymbolTableRecord
100
AcDbBlockTableRecord
  2
GENAXEH
340
0
  0
BLOCK_RECORD
  5
ED9B
330
1
100
AcDbSymbolTableRecord
100
AcDbBlockTableRecord
  2
*U3
340
0
  0
BLOCK_RECORD
  5
139C9
330
1
100
AcDbSymbolTableRecord
100
AcDbBlockTableRecord
  2
*D4
340
0
  0
BLOCK_RECORD
  5
13B19
330
1
100
AcDbSymbolTableRecord
100
AcDbBlockTableRecord
  2
*D5
340
0
  0
BLOCK_RECORD
  5
13B3B
330
1
100
AcDbSymbolTableRecord
100
AcDbBlockTableRecord
  2
*D6
340
0
  0
BLOCK_RECORD
  5
15EB2
330
1
100
AcDbSymbolTableRecord
100
AcDbBlockTableRecord
  2
*D7
340
0
  0
BLOCK_RECORD
  5
1604D
330
1
100
AcDbSymbolTableRecord
100
AcDbBlockTableRecord
  2
*D8
340
0
  0
BLOCK_RECORD
  5
170A3
330
1
100
AcDbSymbolTableRecord
100
AcDbBlockTableRecord
  2
*D9
340
0
  0
BLOCK_RECORD
  5
1921B
330
1
100
AcDbSymbolTableRecord
100
AcDbBlockTableRecord
  2
*D10
340
0
  0
BLOCK_RECORD
  5
19B92
330
1
100
AcDbSymbolTableRecord
100
AcDbBlockTableRecord
  2
*D11
340
0
  0
ENDTAB
  0
ENDSEC
  0
SECTION
  2
BLOCKS
  0
BLOCK
  5
20
330
1F
100
AcDbEntity
  8
0
100
AcDbBlockBegin
  2
*Model_Space
 70
     0
 71
     0
 10
0.0
 20
0.0
 30
0.0
  3
*Model_Space
  1

  0
ENDBLK
  5
21
330
1F
100
AcDbEntity
  8
0
100
AcDbBlockEnd
  0
BLOCK
  5
1C
330
1B
100
AcDbEntity
 67
     1
  8
0
100
AcDbBlockBegin
  2
*Paper_Space
 70
     0
 71
     0
 10
0.0
 20
0.0
 30
0.0
  3
*Paper_Space
  1

  0
ENDBLK
  5
1D
330
1B
100
AcDbEntity
 67
     1
  8
0
100
AcDbBlockEnd
  0
BLOCK
  5
24
330
23
100
AcDbEntity
  8
0
100
AcDbBlockBegin
  2
*Paper_Space0
 70
     0
 71
     0
 10
0.0
 20
0.0
 30
0.0
  3
*Paper_Space0
  1

  0
ENDBLK
  5
25
330
23
100
AcDbEntity
  8
0
100
AcDbBlockEnd
  0
BLOCK
  5
5D
330
59
100
AcDbEntity
  8
0
100
AcDbBlockBegin
  2
_Open30
 70
     0
 71
     0
 10
0.0
 20
0.0
 30
0.0
  3
_Open30
  1

  0
LINE
  5
5A
330
59
100
AcDbEntity
  8
0
 62
     0
370
    -2
100
AcDbLine
 10
-1.0
 20
0.26794919
 30
0.0
 11
0.0
 21
0.0
 31
0.0
  0
LINE
  5
5B
330
59
100
AcDbEntity
  8
0
 62
     0
370
    -2
100
AcDbLine
 10
0.0
 20
0.0
 30
0.0
 11
-1.0
 21
-0.26794919
 31
0.0
  0
LINE
  5
5C
330
59
100
AcDbEntity
  8
0
 62
     0
370
    -2
100
AcDbLine
 10
0.0
 20
0.0
 30
0.0
 11
-1.0
 21
0.0
 31
0.0
  0
ENDBLK
  5
5E
330
59
100
AcDbEntity
  8
0
100
AcDbBlockEnd
  0
BLOCK
  5
66
330
64
100
AcDbEntity
  8
0
100
AcDbBlockBegin
  2
GENAXEH
 70
     0
 71
     0
 10
0.0
 20
0.0
 30
0.0
  3
GENAXEH
  1

  0
LINE
  5
65
330
64
100
AcDbEntity
  8
0
100
AcDbLine
 10
-1.0
 20
0.0
 30
0.0
 11
1.0
 21
0.0
 31
0.0
  0
ENDBLK
  5
67
330
64
100
AcDbEntity
  8
0
100
AcDbBlockEnd
  0
BLOCK
  5
ED9C
330
ED9B
100
AcDbEntity
  8
0
100
AcDbBlockBegin
  2
*U3
 70
     1
 71
     0
 10
0.0
 20
0.0
 30
0.0
  3
*U3
  1

  0
ENDBLK
  5
ED9D
330
ED9B
100
AcDbEntity
  8
0
100
AcDbBlockEnd
  0
BLOCK
  5
139DF
330
139C9
100
AcDbEntity
  8
0
100
AcDbBlockBegin
  2
*D4
 70
     1
 71
     0
 10
0.0
 20
0.0
 30
0.0
  3
*D4
  1

  0
LINE
  5
19C67
330
139C9
100
AcDbEntity
  8
AM_5
 62
     3
370
    13
100
AcDbLine
 10
9.98113750131526
 20
-15.20899779201739
 30
0.0
 11
9.981137501315258
 21
-45.68877880675518
 31
0.0
  0
LINE
  5
19C68
330
139C9
100
AcDbEntity
  8
AM_5
 62
     3
370
    13
100
AcDbLine
 10
179.9811375013153
 20
-4.481137501315288
 30
0.0
 11
179.9811375013153
 21
-45.68877880675518
 31
0.0
  0
LINE
  5
19C69
330
139C9
100
AcDbEntity
  8
AM_5
 62
     3
370
    13
100
AcDbLine
 10
12.48113750131526
 20
-44.68877880675518
 30
0.0
 11
177.4811375013153
 21
-44.68877880675518
 31
0.0
  0
INSERT
  5
19C6A
330
139C9
100
AcDbEntity
  8
AM_5
 62
     3
370
    13
100
AcDbBlockReference
  2
_Open30
 10
9.981137501315258
 20
-44.68877880675518
 30
0.0
 41
2.5
 42
2.5
 43
2.5
 50
180.0
  0
INSERT
  5
19C6B
330
139C9
100
AcDbEntity
  8
AM_5
 62
     3
370
    13
100
AcDbBlockReference
  2
_Open30
 10
179.9811375013153
 20
-44.68877880675518
 30
0.0
 41
2.5
 42
2.5
 43
2.5
  0
MTEXT
  5
19C6C
330
139C9
100
AcDbEntity
  8
AM_5
 62
     2
370
    13
100
AcDbMText
 10
91.43559304432961
 20
-41.28877880675518
 30
0.0
 40
3.8
 41
0.0
 71
     5
 72
     1
  1
170
 73
     1
 44
1.0
  0
POINT
  5
19C6D
330
139C9
100
AcDbEntity
  8
Defpoints
 62
     0
100
AcDbPoint
 10
9.98113750131526
 20
-15.20899779201739
 30
0.0
  0
POINT
  5
19C6E
330
139C9
100
AcDbEntity
  8
Defpoints
 62
     0
100
AcDbPoint
 10
179.9811375013153
 20
-4.481137501315288
 30
0.0
  0
POINT
  5
19C6F
330
139C9
100
AcDbEntity
  8
Defpoints
 62
     0
100
AcDbPoint
 10
179.9811375013153
 20
-44.68877880675518
 30
0.0
  0
ENDBLK
  5
139E0
330
139C9
100
AcDbEntity
  8
0
100
AcDbBlockEnd
  0
BLOCK
  5
13B51
330
13B19
100
AcDbEntity
  8
0
100
AcDbBlockBegin
  2
*D5
 70
     1
 71
     0
 10
0.0
 20
0.0
 30
0.0
  3
*D5
  1

  0
LINE
  5
19C70
330
13B19
100
AcDbEntity
  8
AM_5
 62
     3
370
    13
100
AcDbLine
 10
179.9811375013153
 20
27.51886249868471
 30
0.0
 11
198.3325214095632
 21
27.51886249868471
 31
0.0
  0
LINE
  5
19C71
330
13B19
100
AcDbEntity
  8
AM_5
 62
     3
370
    13
100
AcDbLine
 10
179.9811375013153
 20
-4.481137501315288
 30
0.0
 11
198.3325214095632
 21
-4.481137501315294
 31
0.0
  0
LINE
  5
19C72
330
13B19
100
AcDbEntity
  8
AM_5
 62
     3
370
    13
100
AcDbLine
 10
197.3325214095632
 20
25.01886249868471
 30
0.0
 11
197.3325214095632
 21
-1.981137501315293
 31
0.0
  0
INSERT
  5
19C73
330
13B19
100
AcDbEntity
  8
AM_5
 62
     3
370
    13
100
AcDbBlockReference
  2
_Open30
 10
197.3325214095632
 20
27.51886249868471
 30
0.0
 41
2.5
 42
2.5
 43
2.5
 50
90.0
  0
INSERT
  5
19C74
330
13B19
100
AcDbEntity
  8
AM_5
 62
     3
370
    13
100
AcDbBlockReference
  2
_Open30
 10
197.3325214095632
 20
-4.481137501315293
 30
0.0
 41
2.5
 42
2.5
 43
2.5
 50
270.0
  0
MTEXT
  5
19C75
330
13B19
100
AcDbEntity
  8
AM_5
 62
     2
370
    13
100
AcDbMText
 10
193.9321473938152
 20
10.57360715918526
 30
0.0
 40
3.8
 41
0.0
 71
     5
 72
     1
  1
32
 11
6.123031769111886E-17
 21
1.0
 31
0.0
 73
     1
 44
1.0
  0
POINT
  5
19C76
330
13B19
100
AcDbEntity
  8
Defpoints
 62
     0
100
AcDbPoint
 10
179.9811375013153
 20
27.51886249868471
 30
0.0
  0
POINT
  5
19C77
330
13B19
100
AcDbEntity
  8
Defpoints
 62
     0
100
AcDbPoint
 10
179.9811375013153
 20
-4.481137501315288
 30
0.0
  0
POINT
  5
19C78
330
13B19
100
AcDbEntity
  8
Defpoints
 62
     0
100
AcDbPoint
 10
197.3325214095632
 20
-4.481137501315293
 30
0.0
  0
ENDBLK
  5
13B52
330
13B19
100
AcDbEntity
  8
0
100
AcDbBlockEnd
  0
BLOCK
  5
13B53
330
13B3B
100
AcDbEntity
  8
0
100
AcDbBlockBegin
  2
*D6
 70
     1
 71
     0
 10
0.0
 20
0.0
 30
0.0
  3
*D6
  1

  0
LINE
  5
19C79
330
13B3B
100
AcDbEntity
  8
AM_5
 62
     3
370
    13
100
AcDbLine
 10
179.9811375013153
 20
-97.72544895465848
 30
0.0
 11
198.7085583650112
 21
-97.72544895465848
 31
0.0
  0
LINE
  5
19C7A
330
13B3B
100
AcDbEntity
  8
AM_5
 62
     3
370
    13
100
AcDbLine
 10
179.9811375013153
 20
-129.7254489546585
 30
0.0
 11
198.7085583650112
 21
-129.7254489546585
 31
0.0
  0
LINE
  5
19C7B
330
13B3B
100
AcDbEntity
  8
AM_5
 62
     3
370
    13
100
AcDbLine
 10
197.7085583650112
 20
-100.2254489546585
 30
0.0
 11
197.7085583650112
 21
-127.2254489546585
 31
0.0
  0
INSERT
  5
19C7C
330
13B3B
100
AcDbEntity
  8
AM_5
 62
     3
370
    13
100
AcDbBlockReference
  2
_Open30
 10
197.7085583650112
 20
-97.72544895465848
 30
0.0
 41
2.5
 42
2.5
 43
2.5
 50
90.0
  0
INSERT
  5
19C7D
330
13B3B
100
AcDbEntity
  8
AM_5
 62
     3
370
    13
100
AcDbBlockReference
  2
_Open30
 10
197.7085583650112
 20
-129.7254489546585
 30
0.0
 41
2.5
 42
2.5
 43
2.5
 50
270.0
  0
MTEXT
  5
19C7E
330
13B3B
100
AcDbEntity
  8
AM_5
 62
     2
370
    13
100
AcDbMText
 10
194.3081843492631
 20
-114.2137270107971
 30
0.0
 40
3.8
 41
0.0
 71
     5
 72
     1
  1
32
 11
6.123031769111886E-17
 21
1.0
 31
0.0
 73
     1
 44
1.0
  0
POINT
  5
19C7F
330
13B3B
100
AcDbEntity
  8
Defpoints
 62
     0
100
AcDbPoint
 10
179.9811375013153
 20
-97.72544895465848
 30
0.0
  0
POINT
  5
19C80
330
13B3B
100
AcDbEntity
  8
Defpoints
 62
     0
100
AcDbPoint
 10
179.9811375013153
 20
-129.7254489546585
 30
0.0
  0
POINT
  5
19C81
330
13B3B
100
AcDbEntity
  8
Defpoints
 62
     0
100
AcDbPoint
 10
197.7085583650112
 20
-129.7254489546585
 30
0.0
  0
ENDBLK
  5
13B54
330
13B3B
100
AcDbEntity
  8
0
100
AcDbBlockEnd
  0
BLOCK
  5
15EE3
330
15EB2
100
AcDbEntity
  8
0
100
AcDbBlockBegin
  2
*D7
 70
     1
 71
     0
 10
0.0
 20
0.0
 30
0.0
  3
*D7
  1

  0
LINE
  5
19CFC
330
15EB2
100
AcDbEntity
  8
AM_5
 62
     3
370
    13
100
AcDbLine
 10
24.65438241242512
 20
27.51886249868471
 30
0.0
 11
-18.34191438468996
 21
27.51886249868473
 31
0.0
  0
LINE
  5
19CFD
330
15EB2
100
AcDbEntity
  8
AM_5
 62
     3
370
    13
100
AcDbLine
 10
6.491459632321693
 20
-12.4811375013154
 30
0.0
 11
-18.34191438468998
 21
-12.4811375013154
 31
0.0
  0
LINE
  5
19CFE
330
15EB2
100
AcDbEntity
  8
AM_5
 62
     3
370
    13
100
AcDbLine
 10
-17.34191438468996
 20
25.01886249868473
 30
0.0
 11
-17.34191438468998
 21
-9.981137501315395
 31
0.0
  0
INSERT
  5
19CFF
330
15EB2
100
AcDbEntity
  8
AM_5
 62
     3
370
    13
100
AcDbBlockReference
  2
_Open30
 10
-17.34191438468996
 20
27.51886249868473
 30
0.0
 41
2.5
 42
2.5
 43
2.5
 50
90.0
  0
INSERT
  5
19D00
330
15EB2
100
AcDbEntity
  8
AM_5
 62
     3
370
    13
100
AcDbBlockReference
  2
_Open30
 10
-17.34191438468998
 20
-12.4811375013154
 30
0.0
 41
2.5
 42
2.5
 43
2.5
 50
270.0
  0
MTEXT
  5
19D01
330
15EB2
100
AcDbEntity
  8
AM_5
 62
     2
370
    13
100
AcDbMText
 10
-20.74191438468997
 20
7.360788884243448
 30
0.0
 40
3.8
 41
0.0
 71
     5
 72
     1
  1
40
 11
6.123031769111886E-17
 21
1.0
 31
0.0
 73
     1
 44
1.0
  0
POINT
  5
19D02
330
15EB2
100
AcDbEntity
  8
Defpoints
 62
     0
100
AcDbPoint
 10
24.65438241242512
 20
27.51886249868471
 30
0.0
  0
POINT
  5
19D03
330
15EB2
100
AcDbEntity
  8
Defpoints
 62
     0
100
AcDbPoint
 10
6.491459632321693
 20
-12.4811375013154
 30
0.0
  0
POINT
  5
19D04
330
15EB2
100
AcDbEntity
  8
Defpoints
 62
     0
100
AcDbPoint
 10
-17.34191438468998
 20
-12.4811375013154
 30
0.0
  0
ENDBLK
  5
15EE4
330
15EB2
100
AcDbEntity
  8
0
100
AcDbBlockEnd
  0
BLOCK
  5
16063
330
1604D
100
AcDbEntity
  8
0
100
AcDbBlockBegin
  2
*D8
 70
     1
 71
     0
 10
0.0
 20
0.0
 30
0.0
  3
*D8
  1

  0
LINE
  5
19C8B
330
1604D
100
AcDbEntity
  8
AM_5
 62
     3
370
    13
100
AcDbLine
 10
-2.145934479105648
 20
-97.72544895465848
 30
0.0
 11
-14.8310889498264
 21
-97.72544895465848
 31
0.0
  0
LINE
  5
19C8C
330
1604D
100
AcDbEntity
  8
AM_5
 62
     3
370
    13
100
AcDbLine
 10
-0.956280390405567
 20
-129.7254489546585
 30
0.0
 11
-14.8310889498264
 21
-129.7254489546585
 31
0.0
  0
LINE
  5
19C8D
330
1604D
100
AcDbEntity
  8
AM_5
 62
     3
370
    13
100
AcDbLine
 10
-13.8310889498264
 20
-100.2254489546585
 30
0.0
 11
-13.8310889498264
 21
-127.2254489546585
 31
0.0
  0
INSERT
  5
19C8E
330
1604D
100
AcDbEntity
  8
AM_5
 62
     3
370
    13
100
AcDbBlockReference
  2
_Open30
 10
-13.8310889498264
 20
-97.72544895465848
 30
0.0
 41
2.5
 42
2.5
 43
2.5
 50
90.0
  0
INSERT
  5
19C8F
330
1604D
100
AcDbEntity
  8
AM_5
 62
     3
370
    13
100
AcDbBlockReference
  2
_Open30
 10
-13.8310889498264
 20
-129.7254489546585
 30
0.0
 41
2.5
 42
2.5
 43
2.5
 50
270.0
  0
MTEXT
  5
19C90
330
1604D
100
AcDbEntity
  8
AM_5
 62
     2
370
    13
100
AcDbMText
 10
-17.23146296557441
 20
-114.1589310508699
 30
0.0
 40
3.8
 41
0.0
 71
     5
 72
     1
  1
32
 11
6.123031769111886E-17
 21
1.0
 31
0.0
 73
     1
 44
1.0
  0
POINT
  5
19C91
330
1604D
100
AcDbEntity
  8
Defpoints
 62
     0
100
AcDbPoint
 10
-2.145934479105648
 20
-97.72544895465848
 30
0.0
  0
POINT
  5
19C92
330
1604D
100
AcDbEntity
  8
Defpoints
 62
     0
100
AcDbPoint
 10
-0.956280390405567
 20
-129.7254489546585
 30
0.0
  0
POINT
  5
19C93
330
1604D
100
AcDbEntity
  8
Defpoints
 62
     0
100
AcDbPoint
 10
-13.8310889498264
 20
-129.7254489546585
 30
0.0
  0
ENDBLK
  5
16064
330
1604D
100
AcDbEntity
  8
0
100
AcDbBlockEnd
  0
BLOCK
  5
170B9
330
170A3
100
AcDbEntity
  8
0
100
AcDbBlockBegin
  2
*D9
 70
     1
 71
     0
 10
0.0
 20
0.0
 30
0.0
  3
*D9
  1

  0
LINE
  5
19C94
330
170A3
100
AcDbEntity
  8
AM_5
 62
     3
370
    13
100
AcDbLine
 10
45.98113750131526
 20
-97.72544895465848
 30
0.0
 11
45.98113750131526
 21
-72.45607904679935
 31
0.0
  0
LINE
  5
19C95
330
170A3
100
AcDbEntity
  8
AM_5
 62
     3
370
    13
100
AcDbLine
 10
9.98113750131526
 20
-97.72544895465848
 30
0.0
 11
9.981137501315262
 21
-72.45607904679935
 31
0.0
  0
LINE
  5
19C96
330
170A3
100
AcDbEntity
  8
AM_5
 62
     3
370
    13
100
AcDbLine
 10
43.48113750131526
 20
-73.45607904679935
 30
0.0
 11
12.48113750131526
 21
-73.45607904679935
 31
0.0
  0
INSERT
  5
19C97
330
170A3
100
AcDbEntity
  8
AM_5
 62
     3
370
    13
100
AcDbBlockReference
  2
_Open30
 10
45.98113750131526
 20
-73.45607904679935
 30
0.0
 41
2.5
 42
2.5
 43
2.5
  0
INSERT
  5
19C98
330
170A3
100
AcDbEntity
  8
AM_5
 62
     3
370
    13
100
AcDbBlockReference
  2
_Open30
 10
9.981137501315262
 20
-73.45607904679935
 30
0.0
 41
2.5
 42
2.5
 43
2.5
 50
180.0
  0
MTEXT
  5
19C99
330
170A3
100
AcDbEntity
  8
AM_5
 62
     2
370
    13
100
AcDbMText
 10
27.98113750131526
 20
-70.05607904679934
 30
0.0
 40
3.8
 41
0.0
 71
     5
 72
     1
  1
36
 73
     1
 44
1.0
  0
POINT
  5
19C9A
330
170A3
100
AcDbEntity
  8
Defpoints
 62
     0
100
AcDbPoint
 10
45.98113750131526
 20
-97.72544895465848
 30
0.0
  0
POINT
  5
19C9B
330
170A3
100
AcDbEntity
  8
Defpoints
 62
     0
100
AcDbPoint
 10
9.98113750131526
 20
-97.72544895465848
 30
0.0
  0
POINT
  5
19C9C
330
170A3
100
AcDbEntity
  8
Defpoints
 62
     0
100
AcDbPoint
 10
9.981137501315262
 20
-73.45607904679935
 30
0.0
  0
ENDBLK
  5
170BA
330
170A3
100
AcDbEntity
  8
0
100
AcDbBlockEnd
  0
BLOCK
  5
1923A
330
1921B
100
AcDbEntity
  8
0
100
AcDbBlockBegin
  2
*D10
 70
     1
 71
     0
 10
0.0
 20
0.0
 30
0.0
  3
*D10
  1

  0
LINE
  5
19C9D
330
1921B
100
AcDbEntity
  8
AM_5
 62
     3
370
    13
100
AcDbLine
 10
179.9811375013153
 20
-4.481137501315288
 30
0.0
 11
179.9811375013153
 21
-58.14202030790898
 31
0.0
  0
LINE
  5
19C9E
330
1921B
100
AcDbEntity
  8
AM_5
 62
     3
370
    13
100
AcDbLine
 10
-2.5
 20
-4.117373048225204
 30
0.0
 11
-2.500000000000003
 21
-58.14202030790898
 31
0.0
  0
LINE
  5
19C9F
330
1921B
100
AcDbEntity
  8
AM_5
 62
     3
370
    13
100
AcDbLine
 10
177.4811375013153
 20
-57.14202030790898
 30
0.0
 11
-0.0000000000000031
 21
-57.14202030790898
 31
0.0
  0
INSERT
  5
19CA0
330
1921B
100
AcDbEntity
  8
AM_5
 62
     3
370
    13
100
AcDbBlockReference
  2
_Open30
 10
179.9811375013153
 20
-57.14202030790898
 30
0.0
 41
2.5
 42
2.5
 43
2.5
  0
INSERT
  5
19CA1
330
1921B
100
AcDbEntity
  8
AM_5
 62
     3
370
    13
100
AcDbBlockReference
  2
_Open30
 10
-2.500000000000003
 20
-57.14202030790898
 30
0.0
 41
2.5
 42
2.5
 43
2.5
 50
180.0
  0
MTEXT
  5
19CA2
330
1921B
100
AcDbEntity
  8
AM_5
 62
     2
370
    13
100
AcDbMText
 10
88.84978072598779
 20
-53.74164629216095
 30
0.0
 40
3.8
 41
0.0
 71
     5
 72
     1
  1
182.5
 73
     1
 44
1.0
  0
POINT
  5
19CA3
330
1921B
100
AcDbEntity
  8
Defpoints
 62
     0
100
AcDbPoint
 10
179.9811375013153
 20
-4.481137501315288
 30
0.0
  0
POINT
  5
19CA4
330
1921B
100
AcDbEntity
  8
Defpoints
 62
     0
100
AcDbPoint
 10
-2.5
 20
-4.117373048225204
 30
0.0
  0
POINT
  5
19CA5
330
1921B
100
AcDbEntity
  8
Defpoints
 62
     0
100
AcDbPoint
 10
-2.500000000000003
 20
-57.14202030790898
 30
0.0
  0
ENDBLK
  5
1923B
330
1921B
100
AcDbEntity
  8
0
100
AcDbBlockEnd
  0
BLOCK
  5
19BA2
330
19B92
100
AcDbEntity
  8
0
100
AcDbBlockBegin
  2
*D11
 70
     1
 71
     0
 10
0.0
 20
0.0
 30
0.0
  3
*D11
  1

  0
LINE
  5
19CA6
330
19B92
100
AcDbEntity
  8
AM_5
 62
     3
370
    13
100
AcDbLine
 10
9.98113750131526
 20
-15.20899779201739
 30
0.0
 11
9.981137501315256
 21
-36.96046754062892
 31
0.0
  0
LINE
  5
19CA7
330
19B92
100
AcDbEntity
  8
AM_5
 62
     3
370
    13
100
AcDbLine
 10
9.981137501315262
 20
-12.48113750131532
 30
0.0
 11
27.29063777101741
 21
-29.79063777101757
 31
0.0
  0
ARC
  5
19CA8
330
19B92
100
AcDbEntity
  8
AM_5
 62
     3
370
    13
100
AcDbCircle
 10
9.981137501315262
 20
-12.48113750131532
 30
0.0
 40
23.4793300393136
100
AcDbArc
 50
276.1035472203203
 51
308.8964527796795
  0
INSERT
  5
19CA9
330
19B92
100
AcDbEntity
  8
AM_5
 62
     3
370
    13
100
AcDbBlockReference
  2
_Open30
 10
9.981137501315256
 20
-35.96046754062892
 30
0.0
 41
2.5
 42
2.5
 43
2.5
 50
183.0517736101601
  0
INSERT
  5
19CAA
330
19B92
100
AcDbEntity
  8
AM_5
 62
     3
370
    13
100
AcDbBlockReference
  2
_Open30
 10
26.58353098983086
 20
-29.08353098983102
 30
0.0
 41
2.5
 42
2.5
 43
2.5
 50
41.94822638983974
  0
MTEXT
  5
19CAB
330
19B92
100
AcDbEntity
  8
AM_5
 62
     2
370
    13
100
AcDbMText
 10
19.22947375837217
 20
-30.30381326294236
 30
0.0
 40
3.8
 41
0.0
 71
     5
 72
     1
  1
45°
 11
0.8876130690980121
 21
0.460589882179806
 31
0.0
 73
     1
 44
1.0
  0
POINT
  5
19CAC
330
19B92
100
AcDbEntity
  8
Defpoints
 62
     0
100
AcDbPoint
 10
16.0580352817373
 20
-35.16042877025306
 30
0.0
  0
POINT
  5
19CAD
330
19B92
100
AcDbEntity
  8
Defpoints
 62
     0
100
AcDbPoint
 10
9.98113750131526
 20
-12.4811375013154
 30
0.0
  0
POINT
  5
19CAE
330
19B92
100
AcDbEntity
  8
Defpoints
 62
     0
100
AcDbPoint
 10
-2.146095202720403
 20
-0.353904797279597
 30
0.0
  0
POINT
  5
19CAF
330
19B92
100
AcDbEntity
  8
Defpoints
 62
     0
100
AcDbPoint
 10
9.627232704035635
 20
-12.12723270403569
 30
0.0
  0
POINT
  5
19CB0
330
19B92
100
AcDbEntity
  8
Defpoints
 62
     0
100
AcDbPoint
 10
9.98113750131526
 20
-15.20899779201739
 30
0.0
  0
ENDBLK
  5
19BA3
330
19B92
100
AcDbEntity
  8
0
100
AcDbBlockEnd
  0
ENDSEC
  0
SECTION
  2
ENTITIES
  0
TEXT
  5
1007D
330
1F
100
AcDbEntity
  8
AM_6
100
AcDbText
 10
240.7482142500569
 20
60.90553526523019
 30
0.0
 40
4.524
  1

 41
0.8697395845703333
100
AcDbText
  0
TEXT
  5
10096
330
1F
100
AcDbEntity
  8
AM_6
100
AcDbText
 10
243.8988877456677
 20
70.00553526523018
 30
0.0
 40
4.524
  1

100
AcDbText
  0
DIMENSION
  5
139C8
330
1F
100
AcDbEntity
  8
AM_5
370
    13
100
AcDbDimension
  2
*D4
 10
179.9811375013153
 20
-44.68877880675518
 30
0.0
 11
91.43559304432961
 21
-44.68877880675518
 31
0.0
 70
   160
 71
     5
 42
170.0
  3
AM_JIS$0
100
AcDbAlignedDimension
 13
9.98113750131526
 23
-15.20899779201739
 33
0.0
 14
179.9811375013153
 24
-4.481137501315288
 34
0.0
100
AcDbRotatedDimension
1001
ACAD
1000
DSTYLE
1002
{
1070
   179
1070
     0
1070
   271
1070
     0
1002
}
  0
DIMENSION
  5
13B18
330
1F
100
AcDbEntity
  8
AM_5
370
    13
100
AcDbDimension
  2
*D5
 10
197.3325214095632
 20
-4.481137501315293
 30
0.0
 11
197.3325214095632
 21
10.57360715918526
 31
0.0
 70
   160
 71
     5
 42
32.0
  3
AM_JIS$0
100
AcDbAlignedDimension
 13
179.9811375013153
 23
27.51886249868471
 33
0.0
 14
179.9811375013153
 24
-4.481137501315288
 34
0.0
 50
90.0
100
AcDbRotatedDimension
1001
ACAD
1000
DSTYLE
1002
{
1070
   179
1070
     0
1070
   271
1070
     0
1002
}
  0
DIMENSION
  5
13B3A
330
1F
100
AcDbEntity
  8
AM_5
370
    13
100
AcDbDimension
  2
*D6
 10
197.7085583650112
 20
-129.7254489546585
 30
0.0
 11
197.7085583650112
 21
-114.2137270107971
 31
0.0
 70
   160
 71
     5
 42
32.00000000000001
  3
AM_JIS$0
100
AcDbAlignedDimension
 13
179.9811375013153
 23
-97.72544895465848
 33
0.0
 14
179.9811375013153
 24
-129.7254489546585
 34
0.0
 50
90.0
100
AcDbRotatedDimension
1001
ACAD
1000
DSTYLE
1002
{
1070
   179
1070
     0
1070
   271
1070
     0
1002
}
  0
DIMENSION
  5
15EB1
330
1F
100
AcDbEntity
  8
AM_5
370
    13
100
AcDbDimension
  2
*D7
 10
-17.34191438468998
 20
-12.4811375013154
 30
0.0
 11
-17.34191438468997
 21
7.360788884243448
 31
0.0
 70
   160
  1
<>
 71
     5
 42
40.00000000000012
  3
AM_JIS$0
100
AcDbAlignedDimension
 13
24.65438241242512
 23
27.51886249868471
 33
0.0
 14
6.491459632321693
 24
-12.4811375013154
 34
0.0
 50
90.0
100
AcDbRotatedDimension
1001
ACAD
1000
DSTYLE
1002
{
1070
   271
1070
     0
1002
}
  0
DIMENSION
  5
1604C
330
1F
100
AcDbEntity
  8
AM_5
370
    13
100
AcDbDimension
  2
*D8
 10
-13.8310889498264
 20
-129.7254489546585
 30
0.0
 11
-13.83108894982638
 21
-114.1589310508699
 31
0.0
 70
   160
 71
     5
 42
32.0
  3
AM_JIS$0
100
AcDbAlignedDimension
 13
-2.145934479105648
 23
-97.72544895465848
 33
0.0
 14
-0.956280390405567
 24
-129.7254489546585
 34
0.0
 50
90.0
100
AcDbRotatedDimension
1001
ACAD
1000
DSTYLE
1002
{
1070
   179
1070
     0
1070
   271
1070
     0
1002
}
  0
ACAD_PROXY_ENTITY
  5
165BF
330
1F
100
AcDbEntity
  8
AM_5
100
AcDbProxyEntity
 90
      498
 91
      533
 95
       25
 70
     0
 92
      668
310
9C020000270000000C00000016000000000000C00C00000013000000010000000C00000016000000000000C00C00000017000000FFFFFFFF3C0000000600000002000000B2E68E8553E640C020B9F6BB0CCA43C00000000000000000041629C9926B39C0E7BAF83505333FC000000000000000000C00000016000000000000
310
C00C00000010000000FFFFFFFF0C00000012000000FFFFFFFF0C00000017000000000000000C00000014000000010000000C00000013000000020000000C00000016000000000000C00C00000017000000FFFFFFFF3C0000000600000002000000041629C9926B39C0E7BAF83505333FC00000000000000000542912CB5C31
310
37C038CEE137CFF83CC000000000000000000C00000016000000000000C00C00000010000000FFFFFFFF0C00000012000000FFFFFFFF0C00000017000000000000000C00000014000000010000000C00000013000000030000000C00000016000000000000C00C00000017000000FFFFFFFF3C000000060000000200000062
310
91F6F1802039C0893F2B0D177E3FC00000000000000000542912CB5C3137C038CEE137CFF83CC000000000000000000C00000016000000000000C00C00000010000000FFFFFFFF0C00000012000000FFFFFFFF0C00000017000000000000000C00000014000000010000000C00000013000000040000000C00000016000000
310
000000C00C00000017000000FFFFFFFF3C0000000600000002000000542912CB5C3137C038CEE137CFF83CC00000000000000000A79A5BA0A4B639C04436C65EF3E73EC000000000000000000C00000016000000000000C00C00000010000000FFFFFFFF0C00000012000000FFFFFFFF0C00000017000000000000000C0000
310
0014000000010000000C00000013000000050000000C00000016000000000000C0
 93
     1601
310
5DCB46038092DF939C02201421DA7F00FF02318EDFD9A7A8398FCD33B7F669EA0E6BF8D33B7F669EA0E63F318EDFD9A7A8398FEA54051F8000000C800AA2CB9A3A154F99030020B9F6BB0CCA43C09018FFFFFFFF150A44B2D70C4DF0038CEE137CFF83CC0A8FFFFFFFF1FFFFFFFF165CD1D0AA7CC8180105CFB5D866521E04
310
5409C870A4E0060D71923FC0072E7DAEC33290F02A4C63B7F669EA0E63F34CEDFD9A7A839AFE8333333333333094041D050000000000003C2FC000000000000F0BF40401015213500500
340
17F
340
EDAB
330
0
330
0
340
0
340
0
340
180
330
0
330
0
 94
        0
  0
ACAD_PROXY_ENTITY
  5
165C0
330
1F
100
AcDbEntity
  8
AM_5
100
AcDbProxyEntity
 90
      498
 91
      533
 95
       25
 70
     0
 92
      668
310
9C020000270000000C00000016000000000000C00C00000013000000010000000C00000016000000000000C00C00000017000000FFFFFFFF3C0000000600000002000000B2E68E8553E640C020B9F6BB0CCA43C00000000000000000041629C9926B39C0CC14F1DC96FA47C000000000000000000C00000016000000000000
310
C00C00000010000000FFFFFFFF0C00000012000000FFFFFFFF0C00000017000000000000000C00000014000000010000000C00000013000000020000000C00000016000000000000C00C00000017000000FFFFFFFF3C0000000600000002000000041629C9926B39C0CD14F1DC96FA47C00000000000000000542912CB5C31
310
37C0248BFCDBB11749C000000000000000000C00000016000000000000C00C00000010000000FFFFFFFF0C00000012000000FFFFFFFF0C00000017000000000000000C00000014000000010000000C00000013000000030000000C00000016000000000000C00C00000017000000FFFFFFFF3C0000000600000002000000A7
310
9A5BA0A4B639C01E578AC81F2048C00000000000000000542912CB5C3137C0248BFCDBB11749C000000000000000000C00000016000000000000C00C00000010000000FFFFFFFF0C00000012000000FFFFFFFF0C00000017000000000000000C00000014000000010000000C00000013000000040000000C00000016000000
310
000000C00C00000017000000FFFFFFFF3C0000000600000002000000542912CB5C3137C0248BFCDBB11749C000000000000000006291F6F1802039C07BD257F10DD547C000000000000000000C00000016000000000000C00C00000010000000FFFFFFFF0C00000012000000FFFFFFFF0C00000017000000000000000C0000
310
0014000000010000000C00000013000000050000000C00000016000000000000C0
 93
     1601
310
5DCC46038092DF939C01B1BFA6F326CD1F02350EDFD9A7A839AFCC53B7F669EA0E6BF8C53B7F669EA0E63F350EDFD9A7A839AFEA54051F8000000C800AA2CB9A3A154F99030020B9F6BB0CCA43C09018FFFFFFFF150A44B2D70C4DF00248BFCDBB11749C0A8FFFFFFFF1FFFFFFFF165CD1D0AA7CC8180105CFB5D866521E04
310
5409C870AAE68E8553E640C01C0BC0AEC9F9D1302A4D43B7F669EA0E6BF314EDFD9A7A839AFE8333333333333094041D050000000000003C2FC000000000000F0BF40401015213500500
340
17F
340
EDAB
330
0
330
0
340
0
340
0
340
180
330
0
330
0
 94
        0
  0
TEXT
  5
165C1
330
1F
100
AcDbEntity
  8
AM_6
 62
     0
100
AcDbText
 10
-22.57557103969737
 20
-53.92155392067389
 30
0.0
 40
4.0
  1
0%%D
100
AcDbText
  0
TEXT
  5
165C2
330
1F
100
AcDbEntity
  8
AM_6
 62
     0
100
AcDbText
 10
-22.62855348562982
 20
-28.33381512316043
 30
0.0
 40
4.0
  1
-8%%D
100
AcDbText
  0
DIMENSION
  5
170A2
330
1F
100
AcDbEntity
  8
AM_5
370
    13
100
AcDbDimension
  2
*D9
 10
9.981137501315262
 20
-73.45607904679935
 30
0.0
 11
27.98113750131526
 21
-70.05607904679934
 31
0.0
 70
    32
 71
     5
 42
36.0
  3
AM_JIS$0
100
AcDbAlignedDimension
 13
45.98113750131526
 23
-97.72544895465848
 33
0.0
 14
9.98113750131526
 24
-97.72544895465848
 34
0.0
100
AcDbRotatedDimension
1001
ACAD
1000
DSTYLE
1002
{
1070
   179
1070
     0
1070
   271
1070
     0
1002
}
  0
LINE
  5
18E5F
330
1F
100
AcDbEntity
  8
AM_0
100
AcDbLine
 10
30.58984689495065
 20
-2.12166281658142
 30
0.0
 11
30.71144281610421
 21
-2.107318677514854
 31
0.0
  0
LINE
  5
18E61
330
1F
100
AcDbEntity
  8
AM_0
100
AcDbLine
 10
30.39653003707178
 20
-2.422231456547252
 30
0.0
 11
29.40940659292602
 21
-2.538678092456848
 31
0.0
  0
LINE
  5
18E62
330
1F
100
AcDbEntity
  8
AM_0
100
AcDbLine
 10
28.27445235147246
 20
6.356107121507762
 30
0.0
 11
29.26157579561823
 21
6.472553757417359
 31
0.0
  0
LINE
  5
18E6B
330
1F
100
AcDbEntity
  8
AM_0
100
AcDbLine
 10
40.68438979227867
 20
4.173729944007391
 30
0.0
 11
39.92775363130954
 21
10.1035867533169
 31
0.0
  0
LINE
  5
18E6F
330
1F
100
AcDbEntity
  8
AM_0
100
AcDbLine
 10
8.851405534512367
 20
3.082536692883878
 30
0.0
 11
9.759788921778068
 21
3.754956540804074
 31
0.0
  0
ELLIPSE
  5
18E7C
330
1F
100
AcDbEntity
  8
AM_0
100
AcDbEllipse
 10
20.89131695308419
 20
12.93114481566204
 30
0.0
 11
15.47189748070038
 21
12.13945343335796
 31
0.0
210
0.0
220
0.0
230
1.0
 40
0.0260235610770446
 41
3.889153877762551
 42
4.261508660312407
  0
ELLIPSE
  5
18E81
330
1F
100
AcDbEntity
  8
AM_0
100
AcDbEllipse
 10
10.12602982635181
 20
-0.2643257748345604
 30
0.0
 11
0.2043223241844457
 21
3.821632452887898
 31
0.0
210
0.0
220
0.0
230
0.9999999999999999
 40
0.7324324631118491
 41
0.5442992661361281
 42
1.086264667664541
  0
ELLIPSE
  5
18E82
330
1F
100
AcDbEntity
  8
AM_0
100
AcDbEllipse
 10
10.59726579809998
 20
0.2069101969136682
 30
0.0
 11
-1.499085303536897
 21
2.976306719941504
 31
0.0
210
0.0
220
0.0
230
1.0
 40
0.8957377728454857
 41
0.6898112342392954
 42
1.700275533575655
  0
LINE
  5
18E83
330
1F
100
AcDbEntity
  8
AM_0
100
AcDbLine
 10
14.4336539179051
 20
7.278884106205823
 30
0.0
 11
14.99130696667282
 21
7.280315324705271
 31
0.0
  0
ELLIPSE
  5
18E85
330
1F
100
AcDbEntity
  8
AM_0
100
AcDbEllipse
 10
9.926915503330122
 20
-0.4634400978561644
 30
0.0
 11
2.412561225348298
 21
9.210595010455506
 31
0.0
210
0.0
220
0.0
230
1.0
 40
0.7932363300899572
 41
5.866003021516294
 42
5.869603236580177
  0
LINE
  5
18E86
330
1F
100
AcDbEntity
  8
AM_0
100
AcDbLine
 10
14.99140839617095
 20
7.277700663962833
 30
0.0
 11
15.07245515156643
 21
7.201569860112159
 31
0.0
  0
LINE
  5
18E87
330
1F
100
AcDbEntity
  8
AM_0
100
AcDbLine
 10
31.22062543922698
 20
11.84295844320047
 30
0.0
 11
26.84005128493968
 21
11.32620126693803
 31
0.0
  0
LINE
  5
18E88
330
1F
100
AcDbEntity
  8
AM_0
100
AcDbLine
 10
15.09292302336695
 20
7.181784354026831
 30
0.0
 11
26.84005128493971
 21
11.32620126693803
 31
0.0
  0
ELLIPSE
  5
18E8C
330
1F
100
AcDbEntity
  8
AM_0
100
AcDbEllipse
 10
37.92714012242362
 20
-2.65798227141795
 30
0.0
 11
0.6659543665631541
 21
2.995362936215466
 31
0.0
210
0.0
220
0.0
230
1.0
 40
0.9684938521977452
 41
3.467940452153818
 42
4.131165567911531
  0
ELLIPSE
  5
18E8D
330
1F
100
AcDbEntity
  8
AM_0
100
AcDbEllipse
 10
38.81681282781767
 20
-5.111556051163234
 30
0.0
 11
3.018658754757691
 21
0.471067470208412
 31
0.0
210
0.0
220
0.0
230
1.0
 40
0.1652313464737089
 41
4.297816858315371
 42
4.489803076034864
  0
LINE
  5
18E8E
330
1F
100
AcDbEntity
  8
AM_0
100
AcDbLine
 10
16.03863296461253
 20
-5.330326552235761
 30
0.0
 11
16.59075250158261
 21
-5.257313415827753
 31
0.0
  0
ELLIPSE
  5
18E8F
330
1F
100
AcDbEntity
  8
AM_0
100
AcDbEllipse
 10
23.01611269416554
 20
-3.721158026311628
 30
0.0
 11
-17.595904575505
 21
4.973877011910071
 31
0.0
210
0.0
220
0.0
230
1.0
 40
0.2005371420576388
 41
0.848248450958588
 42
1.220347980855369
  0
LINE
  5
18E92
330
1F
100
AcDbEntity
  8
AM_0
100
AcDbLine
 10
16.59049943690269
 20
-5.254761613150322
 30
0.0
 11
16.65347660670642
 21
-5.189275473658654
 31
0.0
  0
ELLIPSE
  5
18E93
330
1F
100
AcDbEntity
  8
AM_0
100
AcDbEllipse
 10
10.12602982635181
 20
-0.2643257748345604
 30
0.0
 11
-2.630509099264077
 21
2.017641472137119
 31
0.0
210
0.0
220
0.0
230
1.0
 40
0.6819854811103315
 41
1.323123450721841
 42
1.86508885225027
  0
LINE
  5
18E96
330
1F
100
AcDbEntity
  8
AM_0
100
AcDbLine
 10
10.63176727746134
 20
-3.078852173015775
 30
0.0
 11
9.572198285015645
 21
-2.566410608549177
 31
0.0
  0
LINE
  5
18E97
330
1F
100
AcDbEntity
  8
AM_0
100
AcDbLine
 10
29.10995976784722
 20
-6.463369160991078
 30
0.0
 11
16.66927374110355
 21
-5.172282923776152
 31
0.0
  0
ELLIPSE
  5
18E98
330
1F
100
AcDbEntity
  8
AM_0
100
AcDbEllipse
 10
9.92691550333015
 20
-0.4634400978561644
 30
0.0
 11
-7.651732673746921
 21
3.332087501274402
 31
0.0
210
0.0
220
0.0
230
1.0
 40
0.7528463886721741
 41
2.876332173201769
 42
2.879932388265712
  0
LINE
  5
18E9D
330
1F
100
AcDbEntity
  8
AM_0
100
AcDbLine
 10
37.67214370916014
 20
-5.75782626858927
 30
0.0
 11
29.10995976784722
 21
-6.463369160991078
 31
0.0
  0
LINE
  5
18E9E
330
1F
100
AcDbEntity
  8
AM_0
100
AcDbLine
 10
41.44102595324785
 20
-1.756126865302576
 30
0.0
 11
40.68438979227869
 21
4.173729944007391
 31
0.0
  0
ELLIPSE
  5
18E9F
330
1F
100
AcDbEntity
  8
AM_0
100
AcDbEllipse
 10
36.8039579322641
 20
9.591821478979909
 30
0.0
 11
-2.917670536572032
 21
-1.334848987177044
 31
0.0
210
0.0
220
0.0
230
1.0
 40
0.9256460084440873
 41
3.354681063928611
 42
4.431484560660509
  0
LINE
  5
18EA0
330
1F
100
AcDbEntity
  8
AM_0
100
AcDbLine
 10
36.42563985177958
 20
12.55674988363478
 30
0.0
 11
34.42252741973653
 21
12.21684103960195
 31
0.0
  0
ELLIPSE
  5
18EA1
330
1F
100
AcDbEntity
  8
AM_0
100
AcDbEllipse
 10
38.3172302542024
 20
-2.267892139639571
 30
0.0
 11
-2.917670536572032
 21
-1.334848987177044
 31
0.0
210
0.0
220
0.0
230
1.0
 40
0.9256460084440873
 41
1.953117022828566
 42
2.36669540380248
  0
LINE
  5
18EA2
330
1F
100
AcDbEntity
  8
AM_0
100
AcDbLine
 10
39.98612342870823
 20
-4.841639652252979
 30
0.0
 11
40.55212821775709
 21
-4.275634863204118
 31
0.0
  0
ELLIPSE
  5
18EA5
330
1F
100
AcDbEntity
  8
AM_0
100
AcDbEllipse
 10
30.1439656953774
 20
2.340073929467508
 30
0.0
 11
3.181980515339466
 21
-3.181980515339462
 31
0.0
210
0.0
220
0.0
230
1.0
 40
0.9902680687415703
 41
5.619960191421736
 42
6.233194413267602
  0
ELLIPSE
  5
18EA6
330
1F
100
AcDbEntity
  8
AM_0
100
AcDbEllipse
 10
29.15684225123164
 20
2.223627293557911
 30
0.0
 11
3.181980515339466
 21
-3.181980515339462
 31
0.0
210
0.0
220
0.0
230
1.0
 40
0.9902680687415703
 41
3.191583547501799
 42
5.170979909441304
  0
ELLIPSE
  5
18EA9
330
1F
100
AcDbEntity
  8
AM_0
100
AcDbEllipse
 10
29.82905291634501
 20
2.02516115043511
 30
0.0
 11
-3.181980515339466
 21
3.181980515339462
 31
0.0
210
0.0
220
0.0
230
1.0
 40
0.9902680687415703
 41
2.478367537831943
 42
5.619960191421736
  0
ELLIPSE
  5
18EAA
330
1F
100
AcDbEntity
  8
AM_0
100
AcDbEllipse
 10
28.84192947219924
 20
1.908714514525514
 30
0.0
 11
-3.181980515339466
 21
3.181980515339462
 31
0.0
210
0.0
220
0.0
230
1.0
 40
0.9902680687415703
 41
5.619960191421736
 42
8.761552845011529
  0
ELLIPSE
  5
18EAB
330
1F
100
AcDbEntity
  8
AM_0
100
AcDbEllipse
 10
36.96638329887227
 20
9.754246845588114
 30
0.0
 11
2.121320343559644
 21
-2.121320343559641
 31
0.0
210
0.0
220
0.0
230
1.0
 40
0.9902680687415703
 41
0.9075712110370661
 42
1.401564041100048
  0
ELLIPSE
  5
18EAC
330
1F
100
AcDbEntity
  8
AM_0
100
AcDbEllipse
 10
33.10361009084346
 20
12.28208895152511
 30
0.0
 11
2.975872457927554
 21
0.3797145166414129
 31
0.0
210
0.0
220
0.0
230
1.0
 40
0.0856835166627214
 41
4.016405220126721
 42
5.160596124222051
  0
ELLIPSE
  5
18EAE
330
1F
100
AcDbEntity
  8
AM_0
100
AcDbEllipse
 10
10.81481983494217
 20
0.4244642337557707
 30
0.0
 11
-5.727564927611039
 21
5.727564927611031
 31
0.0
210
0.0
220
0.0
230
1.0
 40
0.9902680687415701
 41
4.928663639145404
 42
4.948232413938014
  0
ELLIPSE
  5
18EAF
330
1F
100
AcDbEntity
  8
AM_0
100
AcDbEllipse
 10
10.81481983494217
 20
0.4244642337557707
 30
0.0
 11
-5.727564927611039
 21
5.727564927611031
 31
0.0
210
0.0
220
0.0
230
1.0
 40
0.9902680687415701
 41
3.150095315315698
 42
3.16438110050744
  0
ELLIPSE
  5
18EB0
330
1F
100
AcDbEntity
  8
AM_0
100
AcDbEllipse
 10
38.47965562081058
 20
-2.105466773031367
 30
0.0
 11
2.121320343559644
 21
-2.121320343559641
 31
0.0
210
0.0
220
0.0
230
1.0
 40
0.9902680687415703
 41
0.4135783809739106
 42
0.9075712110370762
  0
LINE
  5
18EB2
330
1F
100
AcDbEntity
  8
AM_0
100
AcDbLine
 10
30.55039678212461
 20
-0.0523585489847846
 30
0.0
 11
28.27073283732082
 21
-0.3212805353391559
 31
0.0
  0
LINE
  5
18EB3
330
1F
100
AcDbEntity
  8
AM_0
100
AcDbLine
 10
28.5167584459399
 20
-0.075254926720163
 30
0.0
 11
30.64639906486337
 21
0.1759694639482632
 31
0.0
  0
LINE
  5
18EB4
330
1F
100
AcDbEntity
  8
AM_0
100
AcDbLine
 10
28.27073283732085
 20
-0.3212805353391559
 30
0.0
 11
28.5167584459399
 21
-0.075254926720163
 31
0.0
  0
LINE
  5
18EB5
330
1F
100
AcDbEntity
  8
AM_0
100
AcDbLine
 10
28.27073283732085
 20
-0.3212805353391559
 30
0.0
 11
26.87868881126261
 21
1.520877407920125
 31
0.0
  0
LINE
  5
18EB6
330
1F
100
AcDbEntity
  8
AM_0
100
AcDbLine
 10
27.12471441988166
 20
1.766903016539118
 30
0.0
 11
28.5167584459399
 21
-0.075254926720163
 31
0.0
  0
LINE
  5
18EB7
330
1F
100
AcDbEntity
  8
AM_0
100
AcDbLine
 10
26.87868881126261
 20
1.520877407920125
 30
0.0
 11
27.12471441988166
 21
1.766903016539118
 31
0.0
  0
LINE
  5
18EB8
330
1F
100
AcDbEntity
  8
AM_0
100
AcDbLine
 10
26.87868881126261
 20
1.520877407920125
 30
0.0
 11
27.76630873000815
 21
3.631957337534004
 31
0.0
  0
LINE
  5
18EB9
330
1F
100
AcDbEntity
  8
AM_0
100
AcDbLine
 10
27.91633205588843
 20
3.649654933220063
 30
0.0
 11
27.12471441988166
 21
1.766903016539118
 31
0.0
  0
LINE
  5
18EBA
330
1F
100
AcDbEntity
  8
AM_0
100
AcDbLine
 10
27.76630873000812
 20
3.631957337534004
 30
0.0
 11
30.04597267481191
 21
3.900879323888375
 31
0.0
  0
LINE
  5
18EBB
330
1F
100
AcDbEntity
  8
AM_0
100
AcDbLine
 10
30.04597267481194
 20
3.900879323888375
 30
0.0
 11
31.43801670087018
 21
2.058721380629095
 31
0.0
  0
LINE
  5
18EBC
330
1F
100
AcDbEntity
  8
AM_0
100
AcDbLine
 10
31.43801670087018
 20
2.058721380629095
 30
0.0
 11
30.55039678212464
 21
-0.0523585489847846
 31
0.0
  0
LINE
  5
18EBD
330
1F
100
AcDbEntity
  8
AM_0
100
AcDbLine
 10
32.28656938041877
 20
-1.09239162145866
 30
0.0
 11
32.65560779334734
 21
-0.7233532085301704
 31
0.0
  0
LINE
  5
18EBE
330
1F
100
AcDbEntity
  8
AM_0
100
AcDbLine
 10
26.27616174033309
 20
4.918016018626986
 30
0.0
 11
26.64520015326167
 21
5.287054431555589
 31
0.0
  0
ELLIPSE
  5
18EBF
330
1F
100
AcDbEntity
  8
AM_0
100
AcDbEllipse
 10
29.65040397330449
 20
2.281850611512709
 30
0.0
 11
-3.005203820042829
 21
3.005203820042824
 31
0.0
210
0.0
220
0.0
230
1.0
 40
0.9902680687415701
 41
5.732493030889244
 42
6.283185307179581
  0
ELLIPSE
  5
18EC0
330
1F
100
AcDbEntity
  8
AM_0
100
AcDbEllipse
 10
29.65040397330449
 20
2.281850611512709
 30
0.0
 11
-3.005203820042829
 21
3.005203820042824
 31
0.0
210
0.0
220
0.0
230
1.0
 40
0.9902680687415701
 41
3.141592653589795
 42
5.43736613510547
  0
ELLIPSE
  5
18EC1
330
1F
100
AcDbEntity
  8
AM_0
100
AcDbEllipse
 10
29.15835275606639
 20
1.78979939427461
 30
0.0
 11
-2.121320343559644
 21
2.121320343559641
 31
0.0
210
0.0
220
0.0
230
1.0
 40
0.9902680687415706
 41
0.0000000000000011
 42
6.283185307179587
  0
ELLIPSE
  5
18EC2
330
1F
100
AcDbEntity
  8
AM_0
100
AcDbEllipse
 10
29.28136556037592
 20
1.912812198584106
 30
0.0
 11
-3.005203820042829
 21
3.005203820042824
 31
0.0
210
0.0
220
0.0
230
1.0
 40
0.9902680687415704
 41
-0.0000000000000006
 42
6.283185307179585
  0
LINE
  5
18EC3
330
1F
100
AcDbEntity
  8
AM_0
100
AcDbLine
 10
10.44806059275393
 20
13.8453833914881
 30
0.0
 11
10.75465505889287
 21
14.151977857627
 31
0.0
  0
ELLIPSE
  5
18EC4
330
1F
100
AcDbEntity
  8
AM_0
100
AcDbEllipse
 10
11.60318319631674
 20
13.30344972020316
 30
0.0
 11
0.8485281374238674
 21
-0.8485281374238665
 31
0.0
210
0.0
220
0.0
230
1.0
 40
0.9902680687415703
 41
2.326800212432275
 42
3.141592653589804
  0
LINE
  5
18EC7
330
1F
100
AcDbEntity
  8
AM_0
100
AcDbLine
 10
11.3160311613791
 20
-12.13549052153985
 30
0.0
 11
12.52038418160379
 21
-10.93113750131522
 31
0.0
  0
LINE
  5
18EC8
330
1F
100
AcDbEntity
  8
AM_0
100
AcDbLine
 10
-2.146095202720403
 20
-0.353904797279597
 30
0.0
 11
9.627232704035635
 21
-12.12723270403569
 31
0.0
  0
LINE
  5
18EC9
330
1F
100
AcDbEntity
  8
AM_0
100
AcDbLine
 10
9.504397668659919
 20
12.99364434894835
 30
0.0
 11
10.12930271455232
 21
13.61854939484078
 31
0.0
  0
LINE
  5
18ECA
330
1F
100
AcDbEntity
  8
AM_0
100
AcDbLine
 10
9.504397668659919
 20
12.99364434894835
 30
0.0
 11
-2.154353020224647
 21
1.334893660063926
 31
0.0
  0
ELLIPSE
  5
18ECB
330
1F
100
AcDbEntity
  8
AM_0
100
AcDbEllipse
 10
10.35292580608379
 20
12.14511621152451
 30
0.0
 11
0.8485281374238552
 21
-0.8485281374238544
 31
0.0
210
0.0
220
0.0
230
1.0
 40
0.9902680687415703
 41
1.738648207621265
 42
3.141592653589799
  0
ELLIPSE
  5
18ECC
330
1F
100
AcDbEntity
  8
AM_0
100
AcDbEllipse
 10
10.97783085197619
 20
12.77002125741683
 30
0.0
 11
0.8485281374238552
 21
-0.8485281374238544
 31
0.0
210
0.0
220
0.0
230
1.0
 40
0.9902680687415703
 41
2.254737598930852
 42
3.141592653589799
  0
ELLIPSE
  5
18ECD
330
1F
100
AcDbEntity
  8
AM_0
100
AcDbEllipse
 10
10.46750302395526
 20
-11.28696238411612
 30
0.0
 11
0.8485281374238552
 21
-0.8485281374238544
 31
0.0
210
0.0
220
0.0
230
1.0
 40
0.9902680687415703
 41
4.7123889803847
 42
6.283185307179593
  0
ELLIPSE
  5
18ECE
330
1F
100
AcDbEntity
  8
AM_0
100
AcDbEllipse
 10
-1.305824882800778
 20
0.4863655226399715
 30
0.0
 11
0.8485281374238485
 21
-0.8485281374238473
 31
0.0
210
0.0
220
0.0
230
1.0
 40
0.99026806874157
 41
3.141592653589787
 42
4.712388980384684
  0
ELLIPSE
  5
18ECF
330
1F
100
AcDbEntity
  8
AM_0
100
AcDbEllipse
 10
10.41021441501954
 20
0.4290769137041934
 30
0.0
 11
-2.807213921310595
 21
2.807213921310592
 31
0.0
210
0.0
220
0.0
230
1.0
 40
0.9902680687415703
 41
5.45095816762541
 42
8.874428161570448
  0
LINE
  5
18EDC
330
1F
100
AcDbEntity
  8
AM_0
100
AcDbLine
 10
28.88766645060275
 20
27.51886249868471
 30
0.0
 11
44.37344234672855
 21
27.51886249868471
 31
0.0
  0
LINE
  5
18EDE
330
1F
100
AcDbEntity
  8
AM_0
100
AcDbLine
 10
35.52360854709662
 20
12.40368387837634
 30
0.0
 11
35.52283357550425
 21
12.40975743236595
 31
0.0
  0
LINE
  5
18EDF
330
1F
100
AcDbEntity
  8
AM_0
100
AcDbLine
 10
44.25286521013433
 20
-10.93113750131533
 30
0.0
 11
12.52038418160385
 21
-10.93113750131533
 31
0.0
  0
LINE
  5
18EE0
330
1F
100
AcDbEntity
  8
AM_0
100
AcDbLine
 10
18.12786691600198
 20
-5.32365476691723
 30
0.0
 11
12.52038418160385
 21
-10.93113750131533
 31
0.0
  0
LINE
  5
18EE1
330
1F
100
AcDbEntity
  8
AM_0
100
AcDbLine
 10
10.64524205274839
 20
13.50972214627171
 30
0.0
 11
16.48282046919911
 21
7.672143729820959
 31
0.0
  0
LINE
  5
18EE2
330
1F
100
AcDbEntity
  8
AM_0
100
AcDbLine
 10
10.46806477456096
 20
13.33254486817609
 30
0.0
 11
24.65438241242512
 21
27.51886249868471
 31
0.0
  0
LINE
  5
18EE3
330
1F
100
AcDbEntity
  8
AM_0
100
AcDbLine
 10
24.65438241242512
 20
27.51886249868471
 30
0.0
 11
28.88766645060275
 21
27.51886249868471
 31
0.0
  0
LINE
  5
18EE5
330
1F
100
AcDbEntity
  8
AM_0
100
AcDbLine
 10
44.9058649314868
 20
-8.494109363899838
 30
0.0
 11
44.25286521013436
 21
-10.93113750131531
 31
0.0
  0
LINE
  5
18EE6
330
1F
100
AcDbEntity
  8
AM_0
100
AcDbLine
 10
45.98113750131523
 20
27.51886249868471
 30
0.0
 11
179.9811375013153
 21
27.51886249868471
 31
0.0
  0
LINE
  5
18EE7
330
1F
100
AcDbEntity
  8
AM_0
100
AcDbLine
 10
179.9811375013153
 20
27.51886249868471
 30
0.0
 11
179.9811375013153
 21
-4.481137501315288
 31
0.0
  0
LINE
  5
18EE8
330
1F
100
AcDbEntity
  8
AM_0
100
AcDbLine
 10
179.9811375013153
 20
-4.481137501315288
 30
0.0
 11
45.98113750131526
 21
-4.481137501315288
 31
0.0
  0
LINE
  5
18EE9
330
1F
100
AcDbEntity
  8
AM_0
100
AcDbLine
 10
45.98113750131523
 20
27.51886249868471
 30
0.0
 11
45.98113750131523
 21
-4.481137501315288
 31
0.0
  0
LINE
  5
18EEA
330
1F
100
AcDbEntity
  8
AM_0
100
AcDbLine
 10
45.98113750131523
 20
-4.481137501315288
 30
0.0
 11
44.9058649314868
 21
-8.494109363899838
 31
0.0
  0
LINE
  5
18EEB
330
1F
100
AcDbEntity
  8
AM_0
100
AcDbLine
 10
44.90586493148683
 20
-8.494109363899838
 30
0.0
 11
44.37344234672855
 21
12.0330866025588
 31
0.0
  0
LINE
  5
18EEC
330
1F
100
AcDbEntity
  8
AM_0
100
AcDbLine
 10
44.37344234672855
 20
12.0330866025588
 30
0.0
 11
44.37344234672855
 21
27.51886249868471
 31
0.0
  0
LINE
  5
18EED
330
1F
100
AcDbEntity
  8
AM_0
100
AcDbLine
 10
44.37344234672855
 20
27.51886249868471
 30
0.0
 11
45.98113750131523
 21
27.51886249868471
 31
0.0
  0
LINE
  5
18EF5
330
1F
100
AcDbEntity
  8
AM_0
100
AcDbLine
 10
30.39653003707178
 20
-86.61533048855489
 30
0.0
 11
29.40940659292602
 21
-86.7250003887242
 31
0.0
  0
ELLIPSE
  5
18EF9
330
1F
100
AcDbEntity
  8
AM_0
100
AcDbEllipse
 10
36.37839269663454
 20
-87.98731275468327
 30
0.0
 11
-1.531431306299319
 21
2.799276480399654
 31
0.0
210
0.0
220
0.0
230
1.0
 40
0.9238706157762096
 41
5.218642838991181
 42
5.920291282088342
  0
ELLIPSE
  5
18EFA
330
1F
100
AcDbEntity
  8
AM_0
100
AcDbEllipse
 10
36.30158401189871
 20
-85.16491675268952
 30
0.0
 11
-2.993242644726342
 21
-0.2858454577631631
 31
0.0
210
0.0
220
0.0
230
1.0
 40
0.1131164241619166
 41
4.848045067695401
 42
5.040031285414754
  0
LINE
  5
18EFB
330
1F
100
AcDbEntity
  8
AM_0
100
AcDbLine
 10
35.30770987896426
 20
-84.936331708073
 30
0.0
 11
33.38070785076371
 21
-85.19539394943894
 31
0.0
  0
LINE
  5
18EFC
330
1F
100
AcDbEntity
  8
AM_0
100
AcDbLine
 10
25.06738194302065
 20
-86.31302061061905
 30
0.0
 11
23.12065562619387
 21
-86.57473454531277
 31
0.0
  0
ELLIPSE
  5
18EFD
330
1F
100
AcDbEntity
  8
AM_0
100
AcDbEllipse
 10
23.63271352443272
 20
-105.3907078919375
 30
0.0
 11
-14.85387902828355
 21
-13.55261959880238
 31
0.0
210
0.0
220
0.0
230
1.0
 40
0.895701799080722
 41
4.053923243730175
 42
4.497713698420731
  0
ARC
  5
18EFE
330
1F
100
AcDbEntity
  8
AM_0
100
AcDbCircle
 10
24.54664311282161
 20
-105.2838190234275
 30
0.0
 40
18.47552879611482
100
AcDbArc
 50
121.3423825436842
 51
131.6881757146767
  0
LINE
  5
18EFF
330
1F
100
AcDbEntity
  8
AM_0
100
AcDbLine
 10
9.718104353163284
 20
-93.83753980135964
 30
0.0
 11
7.74430829859611
 21
-95.74411829312822
 31
0.0
  0
ELLIPSE
  5
18F00
330
1F
100
AcDbEntity
  8
AM_0
100
AcDbEllipse
 10
19.84593371790058
 20
-88.44197826335113
 30
0.0
 11
-14.61890390848698
 21
-11.45126594330865
 31
0.0
210
0.0
220
0.0
230
1.0
 40
0.1355732961389833
 41
5.148854729613915
 42
5.36658097421306
  0
ELLIPSE
  5
18F02
330
1F
100
AcDbEntity
  8
AM_0
100
AcDbEllipse
 10
10.59726579809998
 20
-93.56196573280283
 30
0.0
 11
-3.041885523136064
 21
-2.639693247973281
 31
0.0
210
0.0
220
0.0
230
1.0
 40
0.1208074496293162
 41
5.809984448267603
 42
6.820448747603963
  0
LINE
  5
18F03
330
1F
100
AcDbEntity
  8
AM_0
100
AcDbLine
 10
15.7877316364856
 20
-96.41999664901761
 30
0.0
 11
12.5017804836678
 21
-96.606627606117
 31
0.0
  0
LINE
  5
18F04
330
1F
100
AcDbEntity
  8
AM_0
100
AcDbLine
 10
11.92881658859452
 20
-96.25523859922532
 30
0.0
 11
12.50317072070305
 21
-96.60434034056885
 31
0.0
  0
SPLINE
  5
18F05
330
1F
100
AcDbEntity
  8
AM_0
100
AcDbSpline
210
0.0
220
0.0
230
1.0
 70
     8
 71
     3
 72
    22
 73
    18
 74
     0
 42
0.0000000001
 43
0.0000000001
 40
1.8157715324447
 40
1.8157715324447
 40
1.8157715324447
 40
1.8157715324447
 40
1.86358798767409
 40
1.86358798767409
 40
1.923529592220885
 40
1.923529592220885
 40
2.131087135611633
 40
2.131087135611633
 40
2.815380913904787
 40
2.815380913904787
 40
2.972364248637084
 40
2.972364248637084
 40
3.129347583369381
 40
3.129347583369381
 40
3.238290830965092
 40
3.238290830965092
 40
3.295769964795542
 40
3.295769964795542
 40
3.295769964795542
 40
3.295769964795542
 10
10.66614527657805
 20
-96.61129975882727
 30
0.0
 10
10.66457673357809
 20
-96.59551605590258
 30
0.0
 10
10.66610908209088
 20
-96.57673785748125
 30
0.0
 10
10.67431292280784
 20
-96.54275416574973
 30
0.0
 10
10.68375556457076
 20
-96.52183103766669
 30
0.0
 10
10.72752189323694
 20
-96.4496001523018
 30
0.0
 10
10.78699642956059
 20
-96.40120643327538
 30
0.0
 10
11.01475537073432
 20
-96.25022087856473
 30
0.0
 10
11.25480173517718
 20
-96.17952307917221
 30
0.0
 10
11.5122120586438
 20
-96.16490303985887
 30
0.0
 10
11.56522560422422
 20
-96.16494250169768
 30
0.0
 10
11.67092219724395
 20
-96.17383868140354
 30
0.0
 10
11.7236033225347
 20
-96.1827797693764
 30
0.0
 10
11.8039383550358
 20
-96.20417363062228
 30
0.0
 10
11.83960862375278
 20
-96.21610621288966
 30
0.0
 10
11.89226040686856
 20
-96.23939047370089
 30
0.0
 10
11.91012102594806
 20
-96.2483353000423
 30
0.0
 10
11.92713275602796
 20
-96.25800889818936
 30
0.0
  0
LINE
  5
18F06
330
1F
100
AcDbEntity
  8
AM_0
100
AcDbLine
 10
10.68140045527204
 20
-96.76480731875614
 30
0.0
 11
10.66614527657799
 21
-96.61129975882727
 31
0.0
  0
LINE
  5
18F07
330
1F
100
AcDbEntity
  8
AM_0
100
AcDbLine
 10
9.614605925800504
 20
-96.86266857729396
 30
0.0
 11
9.572198285015617
 21
-96.43593523055364
 31
0.0
  0
LINE
  5
18F08
330
1F
100
AcDbEntity
  8
AM_0
100
AcDbLine
 10
15.78783638485248
 20
-96.4200885441723
 30
0.0
 11
16.03838300355827
 21
-96.13449841473658
 31
0.0
  0
LINE
  5
18F09
330
1F
100
AcDbEntity
  8
AM_0
100
AcDbLine
 10
29.10995976784722
 20
-94.41554265587496
 30
0.0
 11
33.49053392213415
 21
-93.9288587127125
 31
0.0
  0
ELLIPSE
  5
18F0B
330
1F
100
AcDbEntity
  8
AM_0
100
AcDbEllipse
 10
37.68990281478119
 20
-88.87842638254091
 30
0.0
 11
-2.56417644284049
 21
-1.638497668085623
 31
0.0
210
0.0
220
0.0
230
1.0
 40
0.9053698096526268
 41
2.770994882294009
 42
3.512190424885587
  0
LINE
  5
18F0E
330
1F
100
AcDbEntity
  8
AM_0
100
AcDbLine
 10
16.03873234387635
 20
-96.13504150209724
 30
0.0
 11
16.59085437214509
 21
-95.74218613408544
 31
0.0
  0
ELLIPSE
  5
18F0F
330
1F
100
AcDbEntity
  8
AM_0
100
AcDbEllipse
 10
23.01611269416554
 20
-128.2991194028933
 30
0.0
 11
-12.05561839699143
 21
32.47180021110366
 31
0.0
210
0.0
220
0.0
230
1.0
 40
0.3959080726094458
 41
5.936973103191208
 42
6.309072633087989
  0
LINE
  5
18F12
330
1F
100
AcDbEntity
  8
AM_0
100
AcDbLine
 10
16.59050971315514
 20
-95.74159024507577
 30
0.0
 11
16.65348690915101
 21
-95.56807855630115
 31
0.0
  0
ELLIPSE
  5
18F13
330
1F
100
AcDbEntity
  8
AM_0
100
AcDbEllipse
 10
10.12602982635181
 20
-88.82008196830435
 30
0.0
 11
-1.187764982802074
 21
-7.715534497692359
 31
0.0
210
0.0
220
0.0
230
1.0
 40
0.3526254406820215
 41
5.965188196022996
 42
6.507153597551424
  0
LINE
  5
18F16
330
1F
100
AcDbEntity
  8
AM_0
100
AcDbLine
 10
10.63176727746134
 20
-95.96174338043602
 30
0.0
 11
9.572198285015645
 21
-96.43593523055364
 31
0.0
  0
LINE
  5
18F17
330
1F
100
AcDbEntity
  8
AM_0
100
AcDbLine
 10
29.10995976784722
 20
-94.41554265587496
 30
0.0
 11
16.66927374110355
 21
-95.52356064036422
 31
0.0
  0
ELLIPSE
  5
18F18
330
1F
100
AcDbEntity
  8
AM_0
100
AcDbEllipse
 10
9.92691550333015
 20
-86.81646375530414
 30
0.0
 11
0.3913315250347476
 21
-15.12592937606149
 31
0.0
210
0.0
220
0.0
230
1.0
 40
0.5317311825196189
 41
0.9401196904912006
 42
0.9437199055551429
  0
LINE
  5
18F1E
330
1F
100
AcDbEntity
  8
AM_0
100
AcDbLine
 10
36.6924359026437
 20
-93.52892850017656
 30
0.0
 11
38.06209041394243
 21
-94.1939149892583
 31
0.0
  0
LINE
  5
18F21
330
1F
100
AcDbEntity
  8
AM_0
100
AcDbLine
 10
40.90317849937543
 20
-89.92925844865744
 30
0.0
 11
41.30724769644607
 21
-93.99526630925237
 31
0.0
  0
LINE
  5
18F22
330
1F
100
AcDbEntity
  8
AM_0
100
AcDbLine
 10
39.54273618469534
 20
-86.51037064831979
 30
0.0
 11
37.89757363936127
 21
-85.39255482371942
 31
0.0
  0
LINE
  5
18F23
330
1F
100
AcDbEntity
  8
AM_0
100
AcDbLine
 10
7.539274160839284
 20
-96.16078157229407
 30
0.0
 11
7.61793686145478
 21
-96.95233698249854
 31
0.0
  0
LINE
  5
18F24
330
1F
100
AcDbEntity
  8
AM_0
100
AcDbLine
 10
18.30773921230212
 20
-95.67988653150843
 30
0.0
 11
18.57772522652914
 21
-95.35358620617052
 31
0.0
  0
LINE
  5
18F25
330
1F
100
AcDbEntity
  8
AM_0
100
AcDbLine
 10
40.61726366210516
 20
-88.19195866545687
 30
0.0
 11
40.90248242570709
 21
-89.9239806631511
 31
0.0
  0
ELLIPSE
  5
18F27
330
1F
100
AcDbEntity
  8
AM_0
100
AcDbEllipse
 10
35.37351857375063
 20
-96.22266192973774
 30
0.0
 11
1.686007156320583
 21
2.481406832592306
 31
0.0
210
0.0
220
0.0
230
1.0
 40
0.9883094682182908
 41
0.1431430824590816
 42
1.287333986554412
  0
ELLIPSE
  5
18F29
330
1F
100
AcDbEntity
  8
AM_0
100
AcDbEllipse
 10
29.82905291634501
 20
-86.22975466357264
 30
0.0
 11
4.47794255146278
 21
0.4450061862480164
 31
0.0
210
0.0
220
0.0
230
0.9999999999999999
 40
0.0984102434476227
 41
4.829672307966163
 42
6.867488526233537
  0
ELLIPSE
  5
18F2A
330
1F
100
AcDbEntity
  8
AM_0
100
AcDbEllipse
 10
28.84192947219924
 20
-86.33942456374194
 30
0.0
 11
4.47794255146278
 21
0.4450061862480164
 31
0.0
210
0.0
220
0.0
230
0.9999999999999999
 40
0.0984102434476227
 41
2.557289434535969
 42
4.82967230796616
  0
ELLIPSE
  5
18F2B
330
1F
100
AcDbEntity
  8
AM_0
100
AcDbEllipse
 10
10.87386598101077
 20
-96.34529721689165
 30
0.0
 11
7.463237585771293
 21
0.7416769770801033
 31
0.0
210
0.0
220
0.0
230
1.0
 40
0.0984102434476227
 41
5.421271185766894
 42
6.184133150781392
  0
ELLIPSE
  5
18F2C
330
1F
100
AcDbEntity
  8
AM_0
100
AcDbEllipse
 10
10.81481983494217
 20
-95.75113637564675
 30
0.0
 11
8.060296592633005
 21
0.8010111352464295
 31
0.0
210
0.0
220
0.0
230
1.0
 40
0.0984102434476227
 41
5.501400085449914
 42
5.805793412269242
  0
LINE
  5
18F2D
330
1F
100
AcDbEntity
  8
AM_0
100
AcDbLine
 10
30.55039678212461
 20
-84.54683823047839
 30
0.0
 11
28.27073283732082
 21
-84.80011001601741
 31
0.0
  0
LINE
  5
18F2E
330
1F
100
AcDbEntity
  8
AM_0
100
AcDbLine
 10
28.27073283732085
 20
-84.80011001601741
 30
0.0
 11
26.87868881126261
 21
-84.75537887546153
 31
0.0
  0
LINE
  5
18F2F
330
1F
100
AcDbEntity
  8
AM_0
100
AcDbLine
 10
26.87868881126261
 20
-84.75537887546153
 30
0.0
 11
27.76630873000815
 21
-84.45737594936651
 31
0.0
  0
LINE
  5
18F31
330
1F
100
AcDbEntity
  8
AM_0
100
AcDbLine
 10
27.76630873000812
 20
-84.45737594936651
 30
0.0
 11
30.04597267481191
 21
-84.20410416382748
 31
0.0
  0
LINE
  5
18F33
330
1F
100
AcDbEntity
  8
AM_0
100
AcDbLine
 10
30.04597267481194
 20
-84.20410416382748
 30
0.0
 11
31.43801670087018
 21
-84.24883530438342
 31
0.0
  0
LINE
  5
18F34
330
1F
100
AcDbEntity
  8
AM_0
100
AcDbLine
 10
31.43801670087018
 20
-84.24883530438342
 30
0.0
 11
30.55039678212464
 21
-84.54683823047839
 31
0.0
  0
LINE
  5
18F35
330
1F
100
AcDbEntity
  8
AM_0
100
AcDbLine
 10
27.64418300319505
 20
-94.54609068296844
 30
0.0
 11
27.65696208735108
 21
-94.67468216434412
 31
0.0
  0
LINE
  5
18F36
330
1F
100
AcDbEntity
  8
AM_0
100
AcDbLine
 10
32.61711640194261
 20
-94.0258958288033
 30
0.0
 11
32.63245381119862
 21
-94.18023084629073
 31
0.0
  0
LINE
  5
18F37
330
1F
100
AcDbEntity
  8
AM_0
100
AcDbLine
 10
25.05219759510553
 20
-86.16022579619482
 30
0.0
 11
25.1310497252509
 21
-86.95368736990577
 31
0.0
  0
LINE
  5
18F38
330
1F
100
AcDbEntity
  8
AM_0
100
AcDbLine
 10
33.51053352564634
 20
-85.31965855550408
 30
0.0
 11
33.58824689104074
 21
-86.10166113540282
 31
0.0
  0
LINE
  5
18F39
330
1F
100
AcDbEntity
  8
AM_0
100
AcDbLine
 10
26.18480346354983
 20
-84.76827136407582
 30
0.0
 11
25.06883739597745
 21
-86.11700823089996
 31
0.0
  0
LINE
  5
18F3A
330
1F
100
AcDbEntity
  8
AM_0
100
AcDbLine
 10
32.12612775812789
 20
-84.1778381382789
 30
0.0
 11
33.48571347996307
 21
-85.28056116102107
 31
0.0
  0
ELLIPSE
  5
18F3B
330
1F
100
AcDbEntity
  8
AM_0
100
AcDbEllipse
 10
29.15835275606639
 20
-84.5021070899225
 30
0.0
 11
2.98529503430852
 21
0.2966707908320109
 31
0.0
210
0.0
220
0.0
230
0.9999999999999999
 40
0.0984102434476227
 41
2.351304770134216
 42
8.634490077313801
  0
ELLIPSE
  5
18F3C
330
1F
100
AcDbEntity
  8
AM_0
100
AcDbEllipse
 10
29.28136556037592
 20
-85.73994217584942
 30
0.0
 11
4.229167965270404
 21
0.4202836203453488
 31
0.0
210
0.0
220
0.0
230
1.0
 40
0.0984102434476227
 41
3.042540497191645
 42
6.382237463577838
  0
LINE
  5
18F3F
330
1F
100
AcDbEntity
  8
AM_0
100
AcDbLine
 10
-0.8048085278294082
 20
-110.2928071791094
 30
0.0
 11
10.87659549737239
 21
-110.2928071791094
 31
0.0
  0
LINE
  5
18F41
330
1F
100
AcDbEntity
  8
AM_0
100
AcDbLine
 10
-1.77908303556714
 20
-104.0013284291792
 30
0.0
 11
-1.158656221633237
 21
-110.2444677742902
 31
0.0
  0
ELLIPSE
  5
18F42
330
1F
100
AcDbEntity
  8
AM_0
100
AcDbEllipse
 10
11.71686581729199
 20
-110.1257994579574
 30
0.0
 11
1.194118013723394
 21
0.1186683163328151
 31
0.0
210
0.0
220
0.0
230
1.0
 40
0.0984102434476226
 41
3.922101096929057
 42
5.440684077609809
  0
ELLIPSE
  5
18F43
330
1F
100
AcDbEntity
  8
AM_0
100
AcDbEllipse
 10
0.0354617920901887
 20
-110.1257994579573
 30
0.0
 11
1.194118013723414
 21
0.1186683163328171
 31
0.0
210
0.0
220
0.0
230
0.9999999999999999
 40
0.0984102434476226
 41
3.141592653589792
 42
3.922101096929079
  0
LINE
  5
18F44
330
1F
100
AcDbEntity
  8
AM_0
100
AcDbLine
 10
22.96652403275942
 20
-95.07420138436459
 30
0.0
 11
21.71462272944029
 21
-95.07420138436459
 31
0.0
  0
LINE
  5
18F45
330
1F
100
AcDbEntity
  8
AM_0
100
AcDbLine
 10
11.3160311613791
 20
-97.55844123650178
 30
0.0
 11
12.52038418160379
 21
-97.31907034763168
 31
0.0
  0
LINE
  5
18F46
330
1F
100
AcDbEntity
  8
AM_0
100
AcDbLine
 10
22.27181699123995
 20
-95.38092671349642
 30
0.0
 11
22.97478185026367
 21
-95.2412091055167
 31
0.0
  0
LINE
  5
18F47
330
1F
100
AcDbEntity
  8
AM_0
100
AcDbLine
 10
22.97478185026367
 20
-95.2412091055167
 30
0.0
 11
22.97763081697295
 21
-95.26987726710513
 31
0.0
  0
LINE
  5
18F48
330
1F
100
AcDbEntity
  8
AM_0
100
AcDbLine
 10
11.94093620727153
 20
-103.8466434730108
 30
0.0
 11
12.52038418160379
 21
-103.7314754331249
 31
0.0
  0
LINE
  5
18F4A
330
1F
100
AcDbEntity
  8
AM_0
100
AcDbLine
 10
-2.146095202720403
 20
-97.7254489576539
 30
0.0
 11
9.627232704035635
 21
-97.7254489576539
 31
0.0
  0
LINE
  5
18F4C
330
1F
100
AcDbEntity
  8
AM_0
100
AcDbLine
 10
-1.52119015682797
 20
-104.0136511941628
 30
0.0
 11
10.25213774992807
 21
-104.0136511941628
 31
0.0
  0
LINE
  5
18F4E
330
1F
100
AcDbEntity
  8
AM_0
100
AcDbLine
 10
7.943845573225929
 20
-95.55137625413437
 30
0.0
 11
-2.154353020224647
 21
-97.55844123650178
 31
0.0
  0
LINE
  5
18F4F
330
1F
100
AcDbEntity
  8
AM_0
100
AcDbLine
 10
23.32037172656322
 20
-95.12254078918392
 30
0.0
 11
23.32833303808718
 21
-95.20265269940074
 31
0.0
  0
LINE
  5
18F50
330
1F
100
AcDbEntity
  8
AM_0
100
AcDbLine
 10
-2.499942896524175
 20
-97.67710955283462
 30
0.0
 11
-1.87503785063177
 21
-103.9653117893436
 31
0.0
  0
ELLIPSE
  5
18F51
330
1F
100
AcDbEntity
  8
AM_0
100
AcDbEllipse
 10
22.12625371283983
 20
-95.2412091055167
 30
0.0
 11
1.194118013723394
 21
0.1186683163328151
 31
0.0
210
0.0
220
0.0
230
1.0
 40
0.0984102434476226
 41
5.492897423723953
 42
7.063693750518853
  0
ELLIPSE
  5
18F52
330
1F
100
AcDbEntity
  8
AM_0
100
AcDbEllipse
 10
10.46750302395526
 20
-97.55844123650178
 30
0.0
 11
1.194118013723404
 21
0.1186683163328161
 31
0.0
210
0.0
220
0.0
230
1.0
 40
0.0984102434476226
 41
3.922101096929073
 42
5.492897423723965
  0
ELLIPSE
  5
18F53
330
1F
100
AcDbEntity
  8
AM_0
100
AcDbEllipse
 10
11.09240806984766
 20
-103.8466434730108
 30
0.0
 11
1.194118013723404
 21
0.1186683163328161
 31
0.0
210
0.0
220
0.0
230
1.0
 40
0.0984102434476226
 41
3.922101096929073
 42
5.492897423723965
  0
ELLIPSE
  5
18F54
330
1F
100
AcDbEntity
  8
AM_0
100
AcDbEllipse
 10
-1.305824882800778
 20
-97.55844123650178
 30
0.0
 11
1.194118013723394
 21
0.1186683163328151
 31
0.0
210
0.0
220
0.0
230
1.0
 40
0.0984102434476226
 41
2.351304770134159
 42
3.922101096929054
  0
ELLIPSE
  5
18F55
330
1F
100
AcDbEntity
  8
AM_0
100
AcDbEllipse
 10
-0.6809198369083731
 20
-103.8466434730108
 30
0.0
 11
1.194118013723394
 21
0.1186683163328151
 31
0.0
210
0.0
220
0.0
230
1.0
 40
0.0984102434476226
 41
3.141592653589792
 42
3.922101096929047
  0
ELLIPSE
  5
18F56
330
1F
100
AcDbEntity
  8
AM_0
100
AcDbEllipse
 10
10.41021441501954
 20
-96.39982517100924
 30
0.0
 11
3.950540428734942
 21
0.3925943465343608
 31
0.0
210
0.0
220
0.0
230
1.0
 40
0.0984102434476226
 41
2.36550512425602
 42
5.230893059826625
  0
LINE
  5
18F5D
330
1F
100
AcDbEntity
  8
AM_0
100
AcDbLine
 10
45.98113750131523
 20
-129.7254489546585
 30
0.0
 11
179.9811375013153
 21
-129.7254489546585
 31
0.0
  0
LINE
  5
18F5E
330
1F
100
AcDbEntity
  8
AM_0
100
AcDbLine
 10
11.30462968201752
 20
-129.7254489546585
 30
0.0
 11
44.1858779120266
 21
-129.7254489546585
 31
0.0
  0
LINE
  5
18F5F
330
1F
100
AcDbEntity
  8
AM_0
100
AcDbLine
 10
11.30462968201752
 20
-110.2777391985553
 30
0.0
 11
11.30462968201752
 21
-129.7254489546585
 31
0.0
  0
LINE
  5
18F60
330
1F
100
AcDbEntity
  8
AM_0
100
AcDbLine
 10
-0.6633871715921202
 20
-129.7254489546585
 30
0.0
 11
11.30462968201752
 21
-129.7254489546585
 31
0.0
  0
LINE
  5
18F61
330
1F
100
AcDbEntity
  8
AM_0
100
AcDbLine
 10
179.9811375013153
 20
-97.72544895465848
 30
0.0
 11
179.9811375013153
 21
-129.7254489546585
 31
0.0
  0
LINE
  5
18F62
330
1F
100
AcDbEntity
  8
AM_0
100
AcDbLine
 10
-0.6633871715921202
 20
-110.2928071791094
 30
0.0
 11
-0.6633871715921202
 21
-129.7254489546585
 31
0.0
  0
LINE
  5
18F63
330
1F
100
AcDbEntity
  8
AM_0
100
AcDbLine
 10
12.52038418160385
 20
-110.1438805186181
 30
0.0
 11
12.40094770801517
 21
-110.1557498021116
 31
0.0
  0
LINE
  5
18F64
330
1F
100
AcDbEntity
  8
AM_0
100
AcDbLine
 10
12.52038418160385
 20
-97.19789103892947
 30
0.0
 11
12.52038418160385
 21
-110.1438805186182
 31
0.0
  0
LINE
  5
18F69
330
1F
100
AcDbEntity
  8
AM_0
100
AcDbLine
 10
44.25286521013436
 20
-94.04440030062546
 30
0.0
 11
12.52038418160385
 21
-97.19789103892947
 31
0.0
  0
LINE
  5
18F6A
330
1F
100
AcDbEntity
  8
AM_0
100
AcDbLine
 10
20.84599865643594
 20
-95.54313557789459
 30
0.0
 11
12.52038418160385
 21
-97.19789103892941
 31
0.0
  0
LINE
  5
18F6B
330
1F
100
AcDbEntity
  8
AM_0
100
AcDbLine
 10
41.08167920090619
 20
-91.72544895465848
 30
0.0
 11
44.37344234672855
 21
-91.72544895465848
 31
0.0
  0
LINE
  5
18F6C
330
1F
100
AcDbEntity
  8
AM_0
100
AcDbLine
 10
45.98113750131523
 20
-97.72544895465848
 30
0.0
 11
45.98113750131523
 21
-129.7254489546585
 31
0.0
  0
LINE
  5
18F6D
330
1F
100
AcDbEntity
  8
AM_0
100
AcDbLine
 10
44.1858779120266
 20
-129.7254489546585
 30
0.0
 11
45.98113750131523
 21
-129.7254489546585
 31
0.0
  0
LINE
  5
18F6E
330
1F
100
AcDbEntity
  8
AM_0
100
AcDbLine
 10
44.25286521013439
 20
-94.04440030062546
 30
0.0
 11
44.25286521013439
 21
-129.7187919326634
 31
0.0
  0
LINE
  5
18F6F
330
1F
100
AcDbEntity
  8
AM_0
100
AcDbLine
 10
44.91177700047822
 20
-93.73454123392722
 30
0.0
 11
44.25286521013436
 21
-94.04440030062546
 31
0.0
  0
LINE
  5
18F70
330
1F
100
AcDbEntity
  8
AM_0
100
AcDbLine
 10
179.9811375013153
 20
-97.72544895465848
 30
0.0
 11
45.98113750131526
 21
-97.72544895465848
 31
0.0
  0
LINE
  5
18F71
330
1F
100
AcDbEntity
  8
AM_0
100
AcDbLine
 10
45.98113750131523
 20
-97.72544895465848
 30
0.0
 11
44.9058649314868
 21
-93.71247709207347
 31
0.0
  0
LINE
  5
18F72
330
1F
100
AcDbEntity
  8
AM_0
100
AcDbLine
 10
44.90586493148683
 20
-93.71247709207353
 30
0.0
 11
44.37344234672855
 21
-91.72544895465848
 31
0.0
  0
LINE
  5
18F73
330
1F
100
AcDbEntity
  8
AM_0
100
AcDbLine
 10
-0.956280390405567
 20
-110.2894958436904
 30
0.0
 11
-0.956280390405567
 21
-129.7254489546585
 31
0.0
  0
LINE
  5
18F74
330
1F
100
AcDbEntity
  8
AM_0
100
AcDbLine
 10
-0.6633871715921202
 20
-129.7254489546585
 30
0.0
 11
-0.956280390405567
 21
-129.7254489546585
 31
0.0
  0
ELLIPSE
  5
18F75
330
1F
100
AcDbEntity
  8
AM_0
100
AcDbEllipse
 10
30.11126036539667
 20
-94.09088509637883
 30
0.0
 11
4.229167965270404
 21
0.420283620345353
 31
0.0
210
0.0
220
0.0
230
1.0
 40
0.0984102434476227
 41
3.629845133991416
 42
5.341263905879728
  0
ELLIPSE
  5
18F77
330
1F
100
AcDbEntity
  8
AM_0
100
AcDbEllipse
 10
21.11638104816916
 20
-95.22107687342412
 30
0.0
 11
2.985295034308519
 21
0.2966707908320106
 31
0.0
210
0.0
220
0.0
230
0.9999999999999999
 40
0.0984102434476226
 41
4.611918187060857
 42
6.499180118926461
  0
LINE
  5
18F7A
330
1F
100
AcDbEntity
  8
AM_0
100
AcDbLine
 10
-52.37044758925498
 20
-2.422231456547252
 30
0.0
 11
-52.48011748942432
 21
-2.538678092456848
 31
0.0
  0
LINE
  5
18F7B
330
1F
100
AcDbEntity
  8
AM_0
100
AcDbLine
 10
-51.70896583945984
 20
6.356107121507762
 30
0.0
 11
-51.5992959392905
 21
6.472553757417359
 31
0.0
  0
LINE
  5
18F7C
330
1F
100
AcDbEntity
  8
AM_0
100
AcDbLine
 10
-61.77674649279675
 20
3.799889891027874
 30
0.0
 11
-62.02159478563644
 21
3.824222272194902
 31
0.0
  0
SPLINE
  5
18F7D
330
1F
100
AcDbEntity
  8
AM_0
100
AcDbSpline
210
0.0
220
0.0
230
1.0
 70
     8
 71
     3
 72
    22
 73
    18
 74
     0
 42
0.0000000001
 43
0.0000000001
 40
0.335773100093858
 40
0.335773100093858
 40
0.335773100093858
 40
0.335773100093858
 40
0.3932522339243063
 40
0.3932522339243063
 40
0.5021954815200161
 40
0.5021954815200161
 40
0.659178816252316
 40
0.659178816252316
 40
0.816162150984616
 40
0.816162150984616
 40
1.500455929277784
 40
1.500455929277784
 40
1.708013472668533
 40
1.708013472668533
 40
1.767955077215329
 40
1.767955077215329
 40
1.815771532444718
 40
1.815771532444718
 40
1.815771532444718
 40
1.815771532444718
 10
-61.30315106466458
 20
4.607470039884106
 30
0.0
 10
-61.29496727493324
 20
4.596073142814589
 30
0.0
 10
-61.28759777385369
 20
4.584149655106671
 30
0.0
 10
-61.26898590690743
 20
4.54910732501412
 30
0.0
 10
-61.26025419380554
 20
4.525500584508563
 30
0.0
 10
-61.24611974202114
 20
4.472525024171773
 30
0.0
 10
-61.24198607685486
 20
4.437962252881675
 30
0.0
 10
-61.24281866596144
 20
4.368931724909317
 30
0.0
 10
-61.24769959346037
 20
4.334462284856613
 30
0.0
 10
-61.28634749328433
 20
4.167608856451579
 30
0.0
 10
-61.37997869542605
 20
4.013994563030906
 30
0.0
 10
-61.55349772229616
 20
3.871160422915068
 30
0.0
 10
-61.60785830522826
 20
3.834173975712702
 30
0.0
 10
-61.68481788857895
 20
3.808229300667563
 30
0.0
 10
-61.70681048979287
 20
3.80281732014646
 30
0.0
 10
-61.74186914254011
 20
3.798664823570448
 30
0.0
 10
-61.76096278987205
 20
3.798321348027912
 30
0.0
 10
-61.77674649279675
 20
3.799889891027988
 30
0.0
  0
SPLINE
  5
18F7E
330
1F
100
AcDbEntity
  8
AM_0
100
AcDbSpline
210
0.0
220
0.0
230
1.0
 70
    12
 71
     2
 72
     6
 73
     3
 74
     0
 42
0.0000000001
 43
0.0000000001
 40
3.041021120119777
 40
3.041021120119777
 40
3.041021120119777
 40
3.917547899175777
 40
3.917547899175777
 40
3.917547899175777
 10
-61.60164633489518
 20
4.993211107038576
 30
0.0000000000000142
 41
1.015478131126195
 10
-61.43479517370773
 20
4.790800062994038
 30
0.0
 41
1.009969730179678
 10
-61.30315106466458
 20
4.607470039884106
 30
0.0
 41
1.0
  0
LINE
  5
18F7F
330
1F
100
AcDbEntity
  8
AM_0
100
AcDbLine
 10
-61.60164633489501
 20
4.993211107038633
 30
0.0
 11
-61.10828962227285
 21
7.123165368528589
 31
0.0
  0
LINE
  5
18F80
330
1F
100
AcDbEntity
  8
AM_0
100
AcDbLine
 10
-52.32985164601291
 20
5.262145818511385
 30
0.0
 11
-53.01798502253203
 21
-2.675071955683393
 31
0.0
  0
LINE
  5
18F84
330
1F
100
AcDbEntity
  8
AM_0
100
AcDbLine
 10
-61.70130525729147
 20
3.082536692883878
 30
0.0
 11
-61.12438941652493
 21
3.754956540804074
 31
0.0
  0
ELLIPSE
  5
18F86
330
1F
100
AcDbEntity
  8
AM_0
100
AcDbEllipse
 10
-53.74242985538342
 20
8.274756717613968
 30
0.0
 11
3.135601090416347
 21
1.449781503134558
 31
0.0
210
0.0
220
0.0
230
1.0
 40
0.0522546422471293
 41
6.153939597255565
 42
6.313065385399305
  0
ELLIPSE
  5
18F87
330
1F
100
AcDbEntity
  8
AM_0
100
AcDbEllipse
 10
-50.92003385338967
 20
6.267723774715705
 30
0.0
 11
0.3311170087595965
 21
3.441264718392045
 31
0.0
210
0.0
220
0.0
230
1.0
 40
0.0855684629891834
 41
0.109919863310332
 42
0.3019060810296849
  0
LINE
  5
18F8B
330
1F
100
AcDbEntity
  8
AM_0
100
AcDbLine
 10
-50.69144880877312
 20
9.561769746937557
 30
0.0
 11
-52.32985164601291
 21
5.262145818511499
 31
0.0
  0
ELLIPSE
  5
18F90
330
1F
100
AcDbEntity
  8
AM_0
100
AcDbEllipse
 10
-92.61053094990143
 20
12.93114481566204
 30
0.0
 11
32.1377096594038
 21
-7.948688329326721
 31
0.0
210
0.0
220
0.0
230
1.0
 40
0.2857718038028834
 41
6.140212323060609
 42
6.512311852957377
  0
LINE
  5
18F94
330
1F
100
AcDbEntity
  8
AM_0
100
AcDbLine
 10
-61.70130525729147
 20
3.082536692883878
 30
0.0
 11
-62.1757355706512
 21
3.129684333114255
 31
0.0
  0
ELLIPSE
  5
18F95
330
1F
100
AcDbEntity
  8
AM_0
100
AcDbEllipse
 10
-54.57519906900444
 20
-0.2643257748345604
 30
0.0
 11
-7.240370064901932
 21
3.166099958369653
 31
0.0
210
0.0
220
0.0
230
0.9999999999999999
 40
0.2963217751234897
 41
6.192783487210719
 42
6.734748888739132
  0
ELLIPSE
  5
18F96
330
1F
100
AcDbEntity
  8
AM_0
100
AcDbEllipse
 10
-59.31708283350295
 20
0.2069101969136682
 30
0.0
 11
1.055957700542858
 21
3.161225656545938
 31
0.0
210
0.0
220
0.0
230
1.0
 40
0.7740777208159745
 41
1.366655222803102
 42
2.377119522139462
  0
LINE
  5
18F97
330
1F
100
AcDbEntity
  8
AM_0
100
AcDbLine
 10
-62.1751137497177
 20
-5.182029692824017
 30
0.0
 11
-62.36174470681715
 21
-3.774080981414954
 31
0.0
  0
SPLINE
  5
18F98
330
1F
100
AcDbEntity
  8
AM_0
100
AcDbSpline
210
0.0
220
0.0
230
1.0
 70
    12
 71
     2
 72
     6
 73
     3
 74
     0
 42
0.0000000001
 43
0.0000000001
 40
0.0
 40
0.0
 40
0.0
 40
0.876526779055988
 40
0.876526779055988
 40
0.876526779055988
 10
-62.01312599888948
 20
-3.581677383349643
 30
0.0
 41
1.0
 10
-62.16873510556454
 20
-3.674769652273596
 30
0.0
 41
1.009969730179672
 10
-62.36174470681715
 20
-3.774080981414954
 30
0.0
 41
1.015478131126185
  0
SPLINE
  5
18F99
330
1F
100
AcDbEntity
  8
AM_0
100
AcDbSpline
210
0.0
220
0.0
230
1.0
 70
     8
 71
     3
 72
    22
 73
    18
 74
     0
 42
0.0000000001
 43
0.0000000001
 40
1.8157715324447
 40
1.8157715324447
 40
1.8157715324447
 40
1.8157715324447
 40
1.86358798767409
 40
1.86358798767409
 40
1.923529592220885
 40
1.923529592220885
 40
2.131087135611633
 40
2.131087135611633
 40
2.815380913904787
 40
2.815380913904787
 40
2.972364248637084
 40
2.972364248637084
 40
3.129347583369381
 40
3.129347583369381
 40
3.238290830965092
 40
3.238290830965092
 40
3.295769964795542
 40
3.295769964795542
 40
3.295769964795542
 40
3.295769964795542
 10
-62.36641685952739
 20
-3.00161440368538
 30
0.0
 10
-62.3506331566027
 20
-3.003182946685342
 30
0.0
 10
-62.33185495818137
 20
-3.006477990629946
 30
0.0
 10
-62.29787126644985
 20
-3.014724543383409
 30
0.0
 10
-62.27694813836683
 20
-3.021648312635762
 30
0.0
 10
-62.20471725300189
 20
-3.050246415171273
 30
0.0
 10
-62.15632353397552
 20
-3.082084268409631
 30
0.0
 10
-62.00533797926485
 20
-3.199160607629665
 30
0.0
 10
-61.93464017987233
 20
-3.310069760004694
 30
0.0
 10
-61.92002014055902
 20
-3.420363710332367
 30
0.0
 10
-61.92005960239777
 20
-3.442648095976551
 30
0.0
 10
-61.92895578210369
 20
-3.485833250856558
 30
0.0
 10
-61.93789687007651
 20
-3.506721302110805
 30
0.0
 10
-61.9592907313224
 20
-3.537478802505916
 30
0.0
 10
-61.9712233135898
 20
-3.550792223847566
 30
0.0
 10
-61.99450757440101
 20
-3.569643236089632
 30
0.0
 10
-62.00345240074242
 20
-3.575890207911016
 30
0.0
 10
-62.01312599888948
 20
-3.581677383349643
 30
0.0
  0
LINE
  5
18F9A
330
1F
100
AcDbEntity
  8
AM_0
100
AcDbLine
 10
-62.689560395645
 20
-2.969501246590198
 30
0.0
 11
-62.36641685952736
 21
-3.00161440368538
 31
0.0
  0
LINE
  5
18F9B
330
1F
100
AcDbEntity
  8
AM_0
100
AcDbLine
 10
-62.70645207099415
 20
-2.515191534177575
 30
0.0
 11
-62.19105233125376
 21
-2.566410608549177
 31
0.0
  0
LINE
  5
18F9C
330
1F
100
AcDbEntity
  8
AM_0
100
AcDbLine
 10
-60.79682420906363
 20
7.278874946323754
 30
0.0
 11
-60.41016789207518
 21
7.280315271609425
 31
0.0
  0
LINE
  5
18F9D
330
1F
100
AcDbEntity
  8
AM_0
100
AcDbLine
 10
-61.10833401256559
 20
7.123255756651702
 30
0.0
 11
-60.79685575545511
 21
7.276225091001834
 31
0.0
  0
LINE
  5
18F9E
330
1F
100
AcDbEntity
  8
AM_0
100
AcDbLine
 10
-62.17514535112554
 20
-5.182091653256975
 30
0.0
 11
-61.88955859660959
 21
-5.327748212856136
 31
0.0
  0
ELLIPSE
  5
18F9F
330
1F
100
AcDbEntity
  8
AM_0
100
AcDbEllipse
 10
-52.57158085600406
 20
-0.4634400978561644
 30
0.0
 11
-13.70681624692142
 21
9.115432446236831
 31
0.0
210
0.0
220
0.0
230
1.0
 40
0.1696345222043046
 41
5.411390296360334
 42
5.414990511424217
  0
LINE
  5
18FA0
330
1F
100
AcDbEntity
  8
AM_0
100
AcDbLine
 10
-60.4101184624603
 20
7.277683367077771
 30
0.0
 11
-60.24888492754803
 21
7.201552091285066
 31
0.0
  0
LINE
  5
18FA1
330
1F
100
AcDbEntity
  8
AM_0
100
AcDbLine
 10
-58.1416725134836
 20
11.84295844320047
 30
0.0
 11
-58.62835645664612
 21
11.32620126693803
 31
0.0
  0
LINE
  5
18FA2
330
1F
100
AcDbEntity
  8
AM_0
100
AcDbLine
 10
-60.20761653656291
 20
7.181784354026831
 30
0.0
 11
-58.62835645664612
 21
11.32620126693803
 31
0.0
  0
ELLIPSE
  5
18FA3
330
1F
100
AcDbEntity
  8
AM_0
100
AcDbEllipse
 10
-51.51433107278533
 20
-0.5871485711112428
 30
0.0
 11
0.3311170087595965
 21
3.441264718392045
 31
0.0
210
0.0
220
0.0
230
1.0
 40
0.0855684629891834
 41
3.059526299180762
 42
3.251512516900186
  0
ELLIPSE
  5
18FA4
330
1F
100
AcDbEntity
  8
AM_0
100
AcDbEllipse
 10
-54.63354348324106
 20
-2.003720053323832
 30
0.0
 11
-2.828226947605098
 21
1.999907283629075
 31
0.0
210
0.0
220
0.0
230
1.0
 40
0.1372095932011781
 41
3.12226680697616
 42
3.221632438680474
  0
ELLIPSE
  5
18FA5
330
1F
100
AcDbEntity
  8
AM_0
100
AcDbEllipse
 10
-61.47682723972361
 20
-5.111556051163234
 30
0.0
 11
-5.950599578490773
 21
0.5725641280153065
 31
0.0
210
0.0
220
0.0
230
0.9999999999999999
 40
0.0635162141849887
 41
2.900400511037011
 42
3.031672790279454
  0
LINE
  5
18FA6
330
1F
100
AcDbEntity
  8
AM_0
100
AcDbLine
 10
-61.8890684780786
 20
-5.330163944187689
 30
0.0
 11
-61.49622600353499
 21
-5.257046173523804
 31
0.0
  0
ELLIPSE
  5
18FA7
330
1F
100
AcDbEntity
  8
AM_0
100
AcDbEllipse
 10
-94.05423650359344
 20
-3.721158026311628
 30
0.0
 11
32.8206112787005
 21
-0.4184691914659455
 31
0.0
210
0.0
220
0.0
230
1.0
 40
0.185372637979484
 41
6.085278111997775
 42
6.457377641894556
  0
LINE
  5
18FAA
330
1F
100
AcDbEntity
  8
AM_0
100
AcDbLine
 10
-61.49664604471019
 20
-5.254728190150104
 30
0.0
 11
-61.32313464182923
 21
-5.189241332930692
 31
0.0
  0
ELLIPSE
  5
18FAB
330
1F
100
AcDbEntity
  8
AM_0
100
AcDbEllipse
 10
-54.57519906900444
 20
-0.2643257748345604
 30
0.0
 11
-7.713322617169908
 21
-2.132565935016845
 31
0.0
210
0.0
220
0.0
230
1.0
 40
0.214655436865873
 41
5.851678607645344
 42
6.393644009173773
  0
LINE
  5
18FAE
330
1F
100
AcDbEntity
  8
AM_0
100
AcDbLine
 10
-61.71686048113614
 20
-3.078852173015775
 30
0.0
 11
-62.19105233125376
 21
-2.566410608549177
 31
0.0
  0
LINE
  5
18FAF
330
1F
100
AcDbEntity
  8
AM_0
100
AcDbLine
 10
-60.17065975657508
 20
-6.463369160991078
 30
0.0
 11
-61.27867774106431
 21
-5.172282923776152
 31
0.0
  0
ELLIPSE
  5
18FB0
330
1F
100
AcDbEntity
  8
AM_0
100
AcDbEllipse
 10
-52.57158085600423
 20
-0.4634400978561644
 30
0.0
 11
-15.12155979725899
 21
-6.584966305752791
 31
0.0
210
0.0
220
0.0
230
1.0
 40
0.0636128212731495
 41
0.9261812312711
 42
0.9297814463350423
  0
LINE
  5
18FB3
330
1F
100
AcDbEntity
  8
AM_0
100
AcDbLine
 10
-53.01798502253203
 20
-2.675071955683393
 30
0.0
 11
-51.868472138248
 21
-4.014508937010533
 31
0.0
  0
LINE
  5
18FB5
330
1F
100
AcDbEntity
  8
AM_0
100
AcDbLine
 10
-55.70716091908503
 20
-5.75782626858927
 30
0.0
 11
-60.17065975657508
 21
-6.463369160991078
 31
0.0
  0
LINE
  5
18FB6
330
1F
100
AcDbEntity
  8
AM_0
100
AcDbLine
 10
-58.34593899901287
 20
12.42801175754926
 30
0.0
 11
-57.74174230094769
 21
12.21684103960195
 31
0.0
  0
LINE
  5
18FB8
330
1F
100
AcDbEntity
  8
AM_0
100
AcDbLine
 10
-62.68916114086269
 20
-2.97522180432361
 30
0.0
 11
-62.34750343335506
 21
-3.009174851213629
 31
0.0
  0
LINE
  5
18FB9
330
1F
100
AcDbEntity
  8
AM_0
100
AcDbLine
 10
-61.97509029770461
 20
3.9882963067314
 30
0.0
 11
-61.65527158808027
 21
3.956513562172972
 31
0.0
  0
ARC
  5
18FBA
330
1F
100
AcDbEntity
  8
AM_0
100
AcDbCircle
 10
-61.61067652747511
 20
4.275503795448799
 30
0.0
 40
0.3220923599773786
100
AcDbArc
 50
262.041588974268
 51
321.3425688628895
  0
ARC
  5
18FBB
330
1F
100
AcDbEntity
  8
AM_0
100
AcDbCircle
 10
-62.38292248048765
 20
-3.3673953623736
 30
0.0
 40
0.359967281173545
100
AcDbArc
 50
63.74709362329366
 51
84.35323443775592
  0
LINE
  5
18FBC
330
1F
100
AcDbEntity
  8
AM_0
100
AcDbLine
 10
-51.79243103937907
 20
-3.966197610718837
 30
0.0
 11
-51.63062832740798
 21
-2.099897551468303
 31
0.0
  0
LINE
  5
18FBD
330
1F
100
AcDbEntity
  8
AM_0
100
AcDbLine
 10
-50.92957520605879
 20
5.986341955725493
 30
0.0
 11
-50.60596511047888
 21
9.718995958847017
 31
0.0
  0
LINE
  5
18FBE
330
1F
100
AcDbEntity
  8
AM_0
100
AcDbLine
 10
-53.95971253305038
 20
12.10855727486512
 30
0.0
 11
-58.33559130984261
 21
12.54342063087393
 31
0.0
  0
LINE
  5
18FBF
330
1F
100
AcDbEntity
  8
AM_0
100
AcDbLine
 10
-50.61049173563566
 20
9.728786186372304
 30
0.0
 11
-53.95408661988083
 21
12.10644866734447
 31
0.0
  0
LINE
  5
18FC0
330
1F
100
AcDbEntity
  8
AM_0
100
AcDbLine
 10
-51.83056379434379
 20
-4.0256416927798
 30
0.0
 11
-55.5661295944885
 21
-5.72212634534003
 31
0.0
  0
ELLIPSE
  5
18FC1
330
1F
100
AcDbEntity
  8
AM_0
100
AcDbEllipse
 10
-62.1004143175918
 20
0.4835103798243381
 30
0.0
 11
0.4515018352366183
 21
4.543306009105168
 31
0.0
210
0.0
220
0.0
230
1.0
 40
0.0984102434476226
 41
3.508031968227929
 42
3.822363920984654
  0
ELLIPSE
  5
18FC2
330
1F
100
AcDbEntity
  8
AM_0
100
AcDbEllipse
 10
-62.1004143175918
 20
0.4835103798243381
 30
0.0
 11
0.4515018352366183
 21
4.543306009105168
 31
0.0
210
0.0
220
0.0
230
1.0
 40
0.0984102434476226
 41
5.603175328348491
 42
6.17087152793691
  0
ELLIPSE
  5
18FC4
330
1F
100
AcDbEntity
  8
AM_0
100
AcDbEllipse
 10
-62.00138751071765
 20
0.4736693554796148
 30
0.0
 11
0.346115922637385
 21
3.482844206693299
 31
0.0
210
0.0
220
0.0
230
1.0
 40
0.0984102434476225
 41
3.084749221856653
 42
3.141592653589792
  0
ELLIPSE
  5
18FC5
330
1F
100
AcDbEntity
  8
AM_0
100
AcDbEllipse
 10
-61.72129740407783
 20
0.4458347352876899
 30
0.0
 11
0.4136424184786257
 21
4.162339859614646
 31
0.0
210
0.0
220
0.0
230
1.0
 40
0.0984102434476226
 41
3.406775595202018
 42
3.565338608177792
  0
ELLIPSE
  5
18FC6
330
1F
100
AcDbEntity
  8
AM_0
100
AcDbEllipse
 10
-51.98487176427275
 20
2.02516115043511
 30
0.0
 11
0.4450061862480626
 21
4.477942551462775
 31
0.0
210
0.0
220
0.0
230
1.0
 40
0.0984102434476226
 41
5.907794251404347
 42
6.410248074877361
  0
ELLIPSE
  5
18FC7
330
1F
100
AcDbEntity
  8
AM_0
100
AcDbEllipse
 10
-51.98487176427275
 20
2.02516115043511
 30
0.0
 11
0.4450061862480626
 21
4.477942551462775
 31
0.0
210
0.0
220
0.0
230
1.0
 40
0.0984102434476226
 41
3.268655421287571
 42
3.430609416492837
  0
ELLIPSE
  5
18FC8
330
1F
100
AcDbEntity
  8
AM_0
100
AcDbEllipse
 10
-52.09454166444206
 20
1.908714514525514
 30
0.0
 11
0.4450061862480626
 21
4.477942551462775
 31
0.0
210
0.0
220
0.0
230
1.0
 40
0.0984102434476226
 41
0.1270627676977753
 42
3.268655421287565
  0
ELLIPSE
  5
18FC9
330
1F
100
AcDbEntity
  8
AM_0
100
AcDbEllipse
 10
-60.43547573050884
 20
12.28208895152511
 30
0.0
 11
2.98878859438325
 21
-0.2591191580809845
 31
0.0
210
0.0
220
0.0
230
1.0
 40
0.1261060268281755
 41
5.598134132018126
 42
6.742325036113457
  0
LINE
  5
18FCA
330
1F
100
AcDbEntity
  8
AM_0
100
AcDbLine
 10
-50.30195533117851
 20
-0.0523585489847846
 30
0.0
 11
-50.55522711671753
 21
-0.3212805353391559
 31
0.0
  0
LINE
  5
18FCB
330
1F
100
AcDbEntity
  8
AM_0
100
AcDbLine
 10
-50.55522711671756
 20
-0.3212805353391559
 30
0.0
 11
-50.51049597616165
 21
1.520877407920125
 31
0.0
  0
LINE
  5
18FCC
330
1F
100
AcDbEntity
  8
AM_0
100
AcDbLine
 10
-50.51049597616162
 20
1.520877407920125
 30
0.0
 11
-50.21249305006666
 21
3.631957337534004
 31
0.0
  0
LINE
  5
18FCD
330
1F
100
AcDbEntity
  8
AM_0
100
AcDbLine
 10
-50.21249305006666
 20
3.631957337534004
 30
0.0
 11
-49.95922126452763
 21
3.900879323888375
 31
0.0
  0
LINE
  5
18FCE
330
1F
100
AcDbEntity
  8
AM_0
100
AcDbLine
 10
-49.95922126452763
 20
3.900879323888375
 30
0.0
 11
-50.00395240508354
 21
2.058721380629095
 31
0.0
  0
LINE
  5
18FD0
330
1F
100
AcDbEntity
  8
AM_0
100
AcDbLine
 10
-50.00395240508354
 20
2.058721380629095
 30
0.0
 11
-50.30195533117851
 21
-0.0523585489847846
 31
0.0
  0
LINE
  5
18FD2
330
1F
100
AcDbEntity
  8
AM_0
100
AcDbLine
 10
-51.07477565620417
 20
6.141980163854555
 30
0.0
 11
-51.79358915974623
 21
6.213413964569554
 31
0.0
  0
LINE
  5
18FD3
330
1F
100
AcDbEntity
  8
AM_0
100
AcDbLine
 10
-51.91534289689494
 20
-2.316355766686229
 30
0.0
 11
-52.67012718146708
 21
-2.241347284094672
 31
0.0
  0
LINE
  5
18FD4
330
1F
100
AcDbEntity
  8
AM_0
100
AcDbLine
 10
-49.93295523897905
 20
4.757574396336167
 30
0.0
 11
-51.03567826172119
 21
6.117160118171341
 31
0.0
  0
LINE
  5
18FD5
330
1F
100
AcDbEntity
  8
AM_0
100
AcDbLine
 10
-50.52338846477591
 20
-1.183749898241899
 30
0.0
 11
-51.87212533160007
 21
-2.299715965814357
 31
0.0
  0
ELLIPSE
  5
18FD6
330
1F
100
AcDbEntity
  8
AM_0
100
AcDbEllipse
 10
-50.25722419062259
 20
1.78979939427461
 30
0.0
 11
0.2966707908320418
 21
2.985295034308517
 31
0.0
210
0.0
220
0.0
230
1.0
 40
0.0984102434476225
 41
0.79028788345563
 42
7.073473190635216
  0
ELLIPSE
  5
18FD7
330
1F
100
AcDbEntity
  8
AM_0
100
AcDbEllipse
 10
-51.49505927654957
 20
1.912812198584106
 30
0.0
 11
0.4202836203453927
 21
4.229167965270399
 31
0.0
210
0.0
220
0.0
230
1.0
 40
0.0984102434476226
 41
6.18413315078138
 42
9.523830117167579
  0
LINE
  5
18FD9
330
1F
100
AcDbEntity
  8
AM_0
100
AcDbLine
 10
-76.04792427980954
 20
0.8954579960569618
 30
0.0
 11
-76.04792427980954
 21
-10.78594602914484
 31
0.0
  0
LINE
  5
18FDD
330
1F
100
AcDbEntity
  8
AM_0
100
AcDbLine
 10
-73.58177693079716
 20
14.151977857627
 30
0.0
 11
-75.88091655865745
 21
2.584256453400485
 31
0.0
  0
LINE
  5
18FDE
330
1F
100
AcDbEntity
  8
AM_0
100
AcDbLine
 10
-67.22005730264195
 20
13.87714966851002
 30
0.0
 11
-73.46310861446438
 21
14.49756773392653
 31
0.0
  0
LINE
  5
18FDF
330
1F
100
AcDbEntity
  8
AM_0
100
AcDbLine
 10
-69.7564455298793
 20
-11.76022053688257
 30
0.0
 11
-75.99958487499029
 21
-11.13979372294864
 31
0.0
  0
ELLIPSE
  5
18FE0
330
1F
100
AcDbEntity
  8
AM_0
100
AcDbEllipse
 10
-73.58177693079719
 20
13.30344972020316
 30
0.0
 11
0.1186683163328059
 21
1.194118013723422
 31
0.0
210
0.0
220
0.0
230
1.0
 40
0.0984102434476225
 41
-0.0000000000000453
 42
0.7902878834555902
  0
ELLIPSE
  5
18FE1
330
1F
100
AcDbEntity
  8
AM_0
100
AcDbEllipse
 10
-75.88091655865748
 20
-9.94567570922527
 30
0.0
 11
0.1186683163328032
 21
1.194118013723395
 31
0.0
210
0.0
220
0.0
230
1.0
 40
0.0984102434476225
 41
2.361084210250471
 42
3.141592653589742
  0
ELLIPSE
  5
18FE2
330
1F
100
AcDbEntity
  8
AM_0
100
AcDbEllipse
 10
-75.88091655865745
 20
1.735728315976644
 30
0.0
 11
0.1186683163328051
 21
1.194118013723415
 31
0.0
210
0.0
220
0.0
230
1.0
 40
0.0984102434476225
 41
0.790287883455599
 42
2.361084210250499
  0
LINE
  5
18FE3
330
1F
100
AcDbEntity
  8
AM_0
100
AcDbLine
 10
-60.82931848506473
 20
7.260236252163054
 30
0.0
 11
-60.82931848506473
 21
12.98538653144408
 31
0.0
  0
LINE
  5
18FE4
330
1F
100
AcDbEntity
  8
AM_0
100
AcDbLine
 10
-63.31355833720193
 20
-12.13549052153985
 30
0.0
 11
-61.95395965424618
 21
-5.294906071859373
 31
0.0
  0
LINE
  5
18FE5
330
1F
100
AcDbEntity
  8
AM_0
100
AcDbLine
 10
-63.48056605835399
 20
-0.353904797279597
 30
0.0
 11
-63.48056605835399
 21
-12.12723270403569
 31
0.0
  0
LINE
  5
18FE7
330
1F
100
AcDbEntity
  8
AM_0
100
AcDbLine
 10
-69.76876829486295
 20
0.271000248612836
 30
0.0
 11
-69.76876829486295
 21
-11.50232765814326
 31
0.0
  0
LINE
  5
18FEA
330
1F
100
AcDbEntity
  8
AM_0
100
AcDbLine
 10
-60.99632620621682
 20
12.99364434894835
 30
0.0
 11
-63.31355833720193
 21
1.334893660063926
 31
0.0
  0
LINE
  5
18FEC
330
1F
100
AcDbEntity
  8
AM_0
100
AcDbLine
 10
-67.28452844272579
 20
13.61854939484078
 30
0.0
 11
-69.60176057371089
 21
1.959798705956246
 31
0.0
  0
LINE
  5
18FED
330
1F
100
AcDbEntity
  8
AM_0
100
AcDbLine
 10
-60.87765788988401
 20
13.33923422524788
 30
0.0
 11
-67.16586012639297
 21
13.96413927114031
 31
0.0
  0
LINE
  5
18FEE
330
1F
100
AcDbEntity
  8
AM_0
100
AcDbLine
 10
-63.43222665353474
 20
-12.48108039783949
 30
0.0
 11
-69.72042889004371
 21
-11.85617535194706
 31
0.0
  0
ELLIPSE
  5
18FEF
330
1F
100
AcDbEntity
  8
AM_0
100
AcDbEllipse
 10
-60.99632620621682
 20
12.14511621152451
 30
0.0
 11
0.1186683163328042
 21
1.194118013723405
 31
0.0
210
0.0
220
0.0
230
1.0
 40
0.0984102434476225
 41
5.50267686384028
 42
7.073473190635177
  0
ELLIPSE
  5
18FF0
330
1F
100
AcDbEntity
  8
AM_0
100
AcDbEllipse
 10
-67.28452844272579
 20
12.77002125741683
 30
0.0
 11
0.1186683163328042
 21
1.194118013723405
 31
0.0
210
0.0
220
0.0
230
1.0
 40
0.0984102434476225
 41
-0.0000000000000515
 42
0.7902878834555858
  0
ELLIPSE
  5
18FF1
330
1F
100
AcDbEntity
  8
AM_0
100
AcDbEllipse
 10
-63.31355833720193
 20
-11.28696238411612
 30
0.0
 11
0.1186683163328042
 21
1.194118013723405
 31
0.0
210
0.0
220
0.0
230
1.0
 40
0.0984102434476225
 41
2.361084210250487
 42
3.931880537045377
  0
ELLIPSE
  5
18FF2
330
1F
100
AcDbEntity
  8
AM_0
100
AcDbEllipse
 10
-69.60176057371089
 20
-10.66205733822369
 30
0.0
 11
0.1186683163328042
 21
1.194118013723405
 31
0.0
210
0.0
220
0.0
230
1.0
 40
0.0984102434476225
 41
2.361084210250487
 42
3.141592653589742
  0
ELLIPSE
  5
18FF3
330
1F
100
AcDbEntity
  8
AM_0
100
AcDbEllipse
 10
-63.31355833720193
 20
0.4863655226399715
 30
0.0
 11
0.1186683163328032
 21
1.194118013723395
 31
0.0
210
0.0
220
0.0
230
1.0
 40
0.0984102434476225
 41
0.7902878834555732
 42
2.361084210250469
  0
ELLIPSE
  5
18FF4
330
1F
100
AcDbEntity
  8
AM_0
100
AcDbEllipse
 10
-69.60176057371089
 20
1.111270568532405
 30
0.0
 11
0.1186683163328032
 21
1.194118013723395
 31
0.0
210
0.0
220
0.0
230
1.0
 40
0.0984102434476225
 41
0.7902878834555732
 42
2.361084210250469
  0
ELLIPSE
  5
18FF5
330
1F
100
AcDbEntity
  8
AM_0
100
AcDbEllipse
 10
-62.15494227170936
 20
0.4290769137041934
 30
0.0
 11
0.3925943465344016
 21
3.950540428734937
 31
0.0
210
0.0
220
0.0
230
1.0
 40
0.0984102434476225
 41
5.824922492544589
 42
9.945720314753498
  0
LINE
  5
18FFA
330
1F
100
AcDbEntity
  8
AM_0
100
AcDbLine
 10
-76.04491600943769
 20
-10.93113750131533
 30
0.0
 11
-95.48056605535855
 21
-10.93113750131533
 31
0.0
  0
LINE
  5
18FFB
330
1F
100
AcDbEntity
  8
AM_0
100
AcDbLine
 10
-95.48056605535857
 20
1.036879365421555
 30
0.0
 11
-95.48056605535857
 21
-10.93113750131533
 31
0.0
  0
LINE
  5
18FFC
330
1F
100
AcDbEntity
  8
AM_0
100
AcDbLine
 10
-95.48056605535857
 20
27.51886249868471
 30
0.0
 11
-95.48056605535857
 21
2.201092927794662
 31
0.0
  0
LINE
  5
18FFD
330
1F
100
AcDbEntity
  8
AM_0
100
AcDbLine
 10
-57.90125872023407
 20
27.51886249868471
 30
0.0
 11
-95.48056605535858
 21
27.51886249868471
 31
0.0
  0
LINE
  5
18FFE
330
1F
100
AcDbEntity
  8
AM_0
100
AcDbLine
 10
-76.04591272959979
 20
1.036879365421555
 30
0.0
 11
-95.48056605535855
 21
1.036879365421555
 31
0.0
  0
LINE
  5
18FFF
330
1F
100
AcDbEntity
  8
AM_0
100
AcDbLine
 10
-75.90554026465938
 20
2.451092927794662
 30
0.0
 11
-95.48056605535857
 21
2.451092927794662
 31
0.0
  0
LINE
  5
19000
330
1F
100
AcDbEntity
  8
AM_0
100
AcDbLine
 10
-73.40572295808272
 20
14.89634146697551
 30
0.0
 11
-60.71048631681578
 21
13.63472214630406
 31
0.0
  0
LINE
  5
19001
330
1F
100
AcDbEntity
  8
AM_0
100
AcDbLine
 10
-73.48945994046085
 20
14.47503339529851
 30
0.0
 11
-73.40572295808269
 21
14.89634146697551
 31
0.0
  0
LINE
  5
19002
330
1F
100
AcDbEntity
  8
AM_0
100
AcDbLine
 10
-73.40572295808272
 20
14.4918648979035
 30
0.0
 11
-73.40572295808272
 21
14.89634146697551
 31
0.0
  0
LINE
  5
19003
330
1F
100
AcDbEntity
  8
AM_0
100
AcDbLine
 10
-62.95300813962959
 20
-10.93113750131533
 30
0.0
 11
-63.0741874483318
 21
-10.93113750131533
 31
0.0
  0
LINE
  5
19006
330
1F
100
AcDbEntity
  8
AM_0
100
AcDbLine
 10
-59.80617442332067
 20
-10.93113750131533
 30
0.0
 11
-62.95300813962959
 21
-10.93113750131533
 31
0.0
  0
LINE
  5
19007
330
1F
100
AcDbEntity
  8
AM_0
100
AcDbLine
 10
-61.83772921348404
 20
-5.319805440694495
 30
0.0
 11
-62.95300813962956
 21
-10.93113750131533
 31
0.0
  0
LINE
  5
19008
330
1F
100
AcDbEntity
  8
AM_0
100
AcDbLine
 10
-60.71048631681575
 20
13.63472214630406
 30
0.0
 11
-60.71048631681575
 21
7.279313904624019
 31
0.0
  0
LINE
  5
19009
330
1F
100
AcDbEntity
  8
AM_0
100
AcDbLine
 10
-60.71048631681578
 20
13.63472214630406
 30
0.0
 11
-57.95094740887279
 21
27.51886249868477
 31
0.0
  0
LINE
  5
1900A
330
1F
100
AcDbEntity
  8
AM_0
100
AcDbLine
 10
-57.90125872023404
 20
27.51886249868471
 30
0.0
 11
-57.48056605535854
 21
27.51886249868471
 31
0.0
  0
LINE
  5
1900B
330
1F
100
AcDbEntity
  8
AM_0
100
AcDbLine
 10
-57.48056605535857
 20
27.51886249868471
 30
0.0
 11
-57.48056605535857
 21
12.45845046359932
 31
0.0
  0
LINE
  5
1900C
330
1F
100
AcDbEntity
  8
AM_0
100
AcDbLine
 10
-59.46759419277365
 20
-8.244109363899838
 30
0.0
 11
-59.80617442332067
 21
-10.93113750131533
 31
0.0
  0
LINE
  5
1900D
330
1F
100
AcDbEntity
  8
AM_0
100
AcDbLine
 10
-59.46759419277365
 20
-8.244109363899838
 30
0.0
 11
-59.28161558022291
 21
-6.322838419863047
 31
0.0
  0
LINE
  5
1900E
330
1F
100
AcDbEntity
  8
AM_0
100
AcDbLine
 10
-95.48056605535857
 20
1.036879365421555
 30
0.0
 11
-95.48056605535857
 21
2.451092927794662
 31
0.0
  0
ELLIPSE
  5
1900F
330
1F
100
AcDbEntity
  8
AM_0
100
AcDbEllipse
 10
-58.06259736855162
 20
12.71229466701482
 30
0.0
 11
0.2569244414213645
 21
2.585341337502682
 31
0.0
210
0.0
220
0.0
230
1.0
 40
0.0984102434476236
 41
7.929124305183034
 42
7.973938113460317
  0
ELLIPSE
  5
19010
330
1F
100
AcDbEntity
  8
AM_0
100
AcDbEllipse
 10
-59.60490066848061
 20
-5.077275760914404
 30
0.0
 11
0.2569244414213643
 21
2.58534133750268
 31
0.0
210
0.0
220
0.0
230
1.0
 40
0.0984102434476236
 41
2.13099479918037
 42
4.203658624157616
  0
LINE
  5
19130
330
1F
100
AcDbEntity
  8
AM_5
100
AcDbLine
 10
10.47918120185508
 20
-12.4811375013154
 30
0.0
 11
6.491459632321693
 21
-12.4811375013154
 31
0.0
  0
LINE
  5
19131
330
1F
100
AcDbEntity
  8
AM_5
100
AcDbLine
 10
-2.5
 20
-4.117373048225204
 30
0.0
 11
-2.5
 21
0.4980437005398244
 31
0.0
  0
LINE
  5
1913B
330
1F
100
AcDbEntity
  8
AM_5
370
    13
100
AcDbLine
 10
-2.146095202720403
 20
-0.353904797279597
 30
0.0
 11
-2.5
 21
0.0
 31
0.0
  0
LINE
  5
1913D
330
1F
100
AcDbEntity
  8
AM_5
100
AcDbLine
 10
9.627232704035635
 20
-12.12723270403569
 30
0.0
 11
9.98113750131526
 21
-12.4811375013154
 31
0.0
  0
LINE
  5
1913E
330
1F
100
AcDbEntity
  8
AM_5
100
AcDbLine
 10
9.98113750131526
 20
-12.4811375013154
 30
0.0
 11
9.98113750131526
 21
-15.20899779201739
 31
0.0
  0
DIMENSION
  5
1921A
330
1F
100
AcDbEntity
  8
AM_5
370
    13
100
AcDbDimension
  2
*D10
 10
-2.500000000000003
 20
-57.14202030790898
 30
0.0
 11
88.84978072598779
 21
-57.14202030790898
 31
0.0
 70
   160
  1
<>
 71
     5
 42
182.4811375013153
  3
AM_JIS$0
100
AcDbAlignedDimension
 13
179.9811375013153
 23
-4.481137501315288
 33
0.0
 14
-2.5
 24
-4.117373048225204
 34
0.0
100
AcDbRotatedDimension
1001
ACAD
1000
DSTYLE
1002
{
1070
   179
1070
     0
1070
   271
1070
     1
1002
}
  0
DIMENSION
  5
19B91
330
1F
100
AcDbEntity
  8
AM_5
370
    13
100
AcDbDimension
  2
*D11
 10
9.98113750131526
 20
-15.20899779201739
 30
0.0
 11
20.79547935778351
 21
-33.32169769787561
 31
0.0
 70
   162
 71
     5
 42
0.7853981633974456
  3
AM_JIS$2
100
AcDb2LineAngularDimension
 13
-2.146095202720403
 23
-0.353904797279597
 33
0.0
 14
9.627232704035635
 24
-12.12723270403569
 34
0.0
 15
9.98113750131526
 25
-12.4811375013154
 35
0.0
 16
16.0580352817373
 26
-35.16042877025306
 36
0.0
1001
ACAD
1000
DSTYLE
1002
{
1070
   271
1070
     0
1002
}
  0
TEXT
  5
19C3D
330
1F
100
AcDbEntity
  8
AM_6
  6
Continuous
 62
     0
370
    30
100
AcDbText
 10
71.90549094796262
 20
-149.9775717170305
 30
0.0
 40
3.8
  1
DSSNR3232P19
  7
ACISOTS
100
AcDbText
  0
ELLIPSE
  5
19D08
330
1F
100
AcDbEntity
  8
AM_0
100
AcDbEllipse
 10
40.35736399631563
 20
-93.84978356778049
 30
0.0
 11
2.585341337502682
 21
0.2569244414213403
 31
0.0
210
0.0
220
0.0
230
0.9999999999999999
 40
0.0984102434476227
 41
3.610152756044582
 42
5.078814794802247
  0
ENDSEC
  0
SECTION
  2
OBJECTS
  0
DICTIONARY
  5
C
330
0
100
AcDbDictionary
281
     1
  3
ACAD_COLOR
350
ED4C
  3
ACAD_GROUP
350
D
  3
ACAD_LAYOUT
350
1A
  3
ACAD_MATERIAL
350
ED4B
  3
ACAD_MLINESTYLE
350
17
  3
ACAD_PLOTSETTINGS
350
19
  3
ACAD_PLOTSTYLENAME
350
E
  3
ACAD_TABLESTYLE
350
ED4D
  3
AcAmCatalogState
350
EDB4
  3
ACDBHEADERROUNDTRIPXREC
350
19D0C
  3
AcDbVariableDictionary
350
30
  3
ACDMSYSVARMGR
350
ED67
  3
ACGREF_MASTER
350
ED5F
  3
ACGREFACAD_MASTER
350
ED87
  3
AcmDictionary
350
4D
  3
ACME_BOM_MANAGER_NAME
350
36
  3
ACME_COMMAND_HISTORY
350
2F
  3
ACME_SCOPE_NAME
350
2E
  3
ACMESTATEMGR
350
3B
  3
AcmeSysVarManager
350
32
  3
AcmSystemVariableManager
350
6A
  3
AD_APPL
350
ED92
  3
ADSYSVARMGR
350
ED91
  3
AmdtNamedDwgMgr
350
ED82
  3
AMG
350
3F
  3
AMGSNAPSETTINGS
350
73
  3
AMI_MASTER
350
ED8A
  3
AUTOCAD_ASSEMBLIES_PROJECT
350
ED9A
  3
Designer_Assemblies_SysVars
350
ED95
  3
DWGPROPS
350
19D0F
  3
FILENAME
350
217A
  3
GREFAM_MODULE
350
ED8B
  3
ZWKSIZE
350
217C
  0
DICTIONARY
  5
EDC8
330
2
100
AcDbDictionary
280
     1
281
     1
  3
ACAD_LAYERSTATES
360
F5B5
  3
AMLAYER_GROUPCOLORS
360
EDC9
  0
DICTIONARY
  5
165
330
1F
100
AcDbDictionary
280
     1
281
     1
  3
ACAD_SORTENTS
360
F11C
  0
DICTIONARY
  5
ED4C
102
{ACAD_REACTORS
330
C
102
}
330
C
100
AcDbDictionary
281
     1
  0
DICTIONARY
  5
D
102
{ACAD_REACTORS
330
C
102
}
330
C
100
AcDbDictionary
281
     1
  0
DICTIONARY
  5
1A
102
{ACAD_REACTORS
330
C
102
}
330
C
100
AcDbDictionary
281
     1
  3
Model
350
22
  3
ﾚｲｱｳﾄ1
350
1E
  3
ﾚｲｱｳﾄ2
350
26
  0
DICTIONARY
  5
ED4B
102
{ACAD_REACTORS
330
C
102
}
330
C
100
AcDbDictionary
281
     1
  0
DICTIONARY
  5
17
102
{ACAD_REACTORS
330
C
102
}
330
C
100
AcDbDictionary
281
     1
  3
Standard
350
18
  0
DICTIONARY
  5
19
102
{ACAD_REACTORS
330
C
102
}
330
C
100
AcDbDictionary
281
     1
  0
ACDBDICTIONARYWDFLT
  5
E
102
{ACAD_REACTORS
330
C
102
}
330
C
100
AcDbDictionary
281
     1
  3
Normal
350
F
100
AcDbDictionaryWithDefault
340
F
  0
DICTIONARY
  5
ED4D
102
{ACAD_REACTORS
330
C
102
}
330
C
100
AcDbDictionary
281
     1
  3
Standard
350
ED4E
  0
ACAD_PROXY_OBJECT
  5
EDB4
102
{ACAD_REACTORS
330
C
102
}
330
C
100
AcDbProxyObject
 90
      499
 91
      571
 95
       25
 70
     0
 93
      184
310
3FFFFFFFE00A028140285221D2E31B0B2483ECB65400AA
  0
DICTIONARY
  5
19D0C
102
{ACAD_REACTORS
330
C
102
}
330
C
100
AcDbDictionary
281
     1
  3
COLORDICT
350
19D0D
  3
MATERIALDICT
350
19D0E
  0
DICTIONARY
  5
30
102
{ACAD_REACTORS
330
C
102
}
330
C
100
AcDbDictionary
281
     1
  3
CTABLESTYLE
350
EE09
  3
HIDETEXT
350
19D0B
  3
INDEXCTL
350
19D0A
  0
ACAD_PROXY_OBJECT
  5
ED67
102
{ACAD_REACTORS
330
C
102
}
330
C
100
AcDbProxyObject
 90
      499
 91
      507
 95
       25
 70
     0
 93
      240
310
4C51A47A0000000000000000000000000000000000000000000000000000
330
ED68
330
ED69
330
ED6A
330
ED6B
330
ED6C
330
ED6D
330
ED6E
330
ED6F
330
ED70
330
ED71
330
ED72
330
ED73
330
ED74
330
ED75
330
ED76
330
ED77
330
ED78
330
ED79
330
ED7A
330
ED7B
330
ED7C
330
ED7D
330
ED7E
330
ED7F
330
ED80
330
ED81
 94
        0
  0
ACAD_PROXY_OBJECT
  5
ED5F
102
{ACAD_REACTORS
330
C
102
}
330
C
100
AcDbProxyObject
 90
      499
 91
      535
 95
       25
 70
     0
 93
       34
310
0400004280
  0
ACAD_PROXY_OBJECT
  5
ED87
102
{ACAD_REACTORS
330
C
102
}
330
C
100
AcDbProxyObject
 90
      499
 91
      541
 95
       25
 70
     0
 93
      114
310
04000041C080000000000000000000
  0
DICTIONARY
  5
4D
102
{ACAD_REACTORS
330
C
102
}
330
C
100
AcDbDictionary
281
     1
  3
AcmBOMDATA
350
4E
  3
AcmStdDictionary
350
17E
  3
AMDTSECTSYM_ARROWCOLOR
350
EDA8
  0
ACAD_PROXY_OBJECT
  5
36
102
{ACAD_REACTORS
330
C
102
}
330
C
100
AcDbProxyObject
 90
      499
 91
      510
 95
       25
 70
     0
 93
       50
310
00010040400000
330
0
330
0
330
37
 94
        0
  0
ACAD_PROXY_OBJECT
  5
2F
102
{ACAD_REACTORS
330
C
102
}
330
C
100
AcDbProxyObject
 90
      499
 91
      505
 95
       25
 70
     0
 93
     2350
310
47805045452494D805054552415345805045452494D8050545524153458050545524153458050545524153458050545524153458050545524153458050545524153458050545524153458050545524153458050545524153458050545524153458050545524153458050545524153458050545524153458050545524153458
310
0505455241534580505455241534580504554E444F805054552415345805045452494D805045452494D40405184D5347202D20436F6D6D616E642043414E43454C4C45442E014151549054D16014151549054D16014115149253601411693D3D3601411693D3D36014154155491D1601415454D05591501014B5354D1C80B4
310
81414104E88080819195CDADD1BDC0B985C9E08119A5B1955995C9CDA5BDB8E880E4B8C8B8C0B8D0
  0
ACAD_PROXY_OBJECT
  5
2E
102
{ACAD_REACTORS
330
C
102
}
330
C
100
AcDbProxyObject
 90
      499
 91
      504
 95
       25
 70
     0
 93
      594
310
09000046408000000000000000001354E60000000000000000000000000000000000000000000000000000000000000000000000000000000000000000000000000000000000AAA406AA80
360
33
360
34
360
35
360
37
360
6B
360
6C
360
ED60
360
ED61
360
ED62
360
ED63
360
ED64
360
ED65
360
ED68
360
ED69
360
ED6A
360
ED6B
360
ED6C
360
ED6D
360
ED6E
360
ED6F
360
ED70
360
ED71
360
ED72
360
ED73
360
ED74
360
ED75
360
ED76
360
ED77
360
ED78
360
ED79
360
ED7A
360
ED7B
360
ED7C
360
ED7D
360
ED7E
360
ED7F
360
ED80
360
ED81
360
ED8D
360
ED8E
360
ED8F
360
ED90
360
ED96
360
ED97
360
ED98
360
ED99
360
ED9E
360
ED9F
360
EDA0
360
EDA1
360
EDA2
360
EDA3
360
EDCB
 94
        0
  0
ACAD_PROXY_OBJECT
  5
3B
102
{ACAD_REACTORS
330
C
102
}
330
C
100
AcDbProxyObject
 90
      499
 91
      515
 95
       25
 70
     0
 93
       50
310
09000042641280
  0
ACAD_PROXY_OBJECT
  5
32
102
{ACAD_REACTORS
330
C
102
}
330
C
100
AcDbProxyObject
 90
      499
 91
      507
 95
       25
 70
     0
 93
       48
310
903412000000
330
33
330
34
330
35
 94
        0
  0
ACAD_PROXY_OBJECT
  5
6A
102
{ACAD_REACTORS
330
C
102
}
330
C
100
AcDbProxyObject
 90
      499
 91
      507
 95
       25
 70
     0
 93
       48
310
903412000000
330
6B
330
6C
330
EDCB
 94
        0
  0
ACAD_PROXY_OBJECT
  5
ED92
102
{ACAD_REACTORS
330
C
102
}
330
C
100
AcDbProxyObject
 90
      499
 91
      551
 95
       25
 70
     0
 93
       42
310
000900004040
330
ED8D
 94
        0
  0
ACAD_PROXY_OBJECT
  5
ED91
102
{ACAD_REACTORS
330
C
102
}
330
C
100
AcDbProxyObject
 90
      499
 91
      507
 95
       25
 70
     0
 93
        8
310
AA
  0
ACAD_PROXY_OBJECT
  5
ED82
102
{ACAD_REACTORS
330
C
102
}
330
C
100
AcDbProxyObject
 90
      499
 91
      540
 95
       25
 70
     0
 93
       42
310
000100005E80
330
ED60
 94
        0
  0
DICTIONARY
  5
3F
102
{ACAD_REACTORS
330
C
102
}
330
C
100
AcDbDictionary
281
     1
  3
AcMgSettings
350
40
  3
AMGLAYCFG
350
42
  0
DICTIONARY
  5
73
102
{ACAD_REACTORS
330
C
102
}
330
C
100
AcDbDictionary
281
     1
  3
DIMENSION
350
62F
  3
FEA
350
630
  3
HATCH (1)
350
631
  3
HATCH (2)
350
632
  3
SYMBOLS
350
633
  0
ACAD_PROXY_OBJECT
  5
ED8A
102
{ACAD_REACTORS
330
C
102
}
330
C
100
AcDbProxyObject
 90
      499
 91
      544
 95
       25
 70
     0
 93
       34
310
0500004280
  0
ACAD_PROXY_OBJECT
  5
ED9A
102
{ACAD_REACTORS
330
C
102
}
330
C
100
AcDbProxyObject
 90
      499
 91
      554
 95
       25
 70
     0
 93
       98
310
0900004E400000000000000000
330
EDA1
330
0
330
EDA2
330
0
330
0
330
0
330
0
330
0
 94
        0
  0
ACAD_PROXY_OBJECT
  5
ED95
102
{ACAD_REACTORS
330
C
102
}
330
C
100
AcDbProxyObject
 90
      499
 91
      507
 95
       25
 70
     0
 93
       56
310
90441600000000
330
ED96
330
ED97
330
ED98
330
ED99
 94
        0
  0
XRECORD
  5
19D0F
102
{ACAD_REACTORS
330
C
102
}
330
C
100
AcDbXrecord
280
     1
  1
DWGPROPS COOKIE
  2

  3

  4

  6

  7

  8

  9

300
AmdtFileType=84
301
=
302
=
303
=
304
=
305
=
306
=
307
=
308
=
309
=
 40
0.0
 41
2451943.235431667
 42
2455441.025451748
  1

 90
        1
  0
DICTIONARY
  5
217A
102
{ACAD_REACTORS
330
C
102
}
330
C
100
AcDbDictionary
281
     1
  3
FILENAME
350
217B
  0
ACAD_PROXY_OBJECT
  5
ED8B
102
{ACAD_REACTORS
330
C
102
}
330
C
100
AcDbProxyObject
 90
      499
 91
      545
 95
       25
 70
     0
 93
        8
310
05
  0
DICTIONARY
  5
217C
102
{ACAD_REACTORS
330
C
102
}
330
C
100
AcDbDictionary
281
     1
  3
ZWKSIZE
350
217D
  0
DICTIONARY
  5
F5B5
102
{ACAD_REACTORS
330
EDC8
102
}
330
EDC8
100
AcDbDictionary
281
     1
  0
DICTIONARY
  5
EDC9
102
{ACAD_REACTORS
330
EDC8
102
}
330
EDC8
100
AcDbDictionary
280
     1
281
     1
  3
基本画層グループ
360
EDCA
  0
SORTENTSTABLE
  5
F11C
102
{ACAD_REACTORS
330
165
102
}
330
165
100
AcDbSortentsTable
330
1F
331
0
  5
18EDD
331
1007D
  5
10089
331
10096
  5
1009C
331
139C8
  5
13BDE
331
13B18
  5
13C13
331
13B3A
  5
13C14
331
15EB1
  5
1604C
331
1604C
  5
160B7
331
165BF
  5
165C3
331
165C0
  5
165C4
331
165C1
  5
16FED
331
165C2
  5
17525
331
170A2
  5
18050
331
18E5F
  5
18E61
331
18E61
  5
18E63
331
18E62
  5
18E64
331
18E6B
  5
18E6D
331
18E6F
  5
18E71
331
18E7C
  5
18E7E
331
18E81
  5
18E83
331
18E82
  5
18E84
331
18E83
  5
18E85
331
18E85
  5
18E87
331
18E86
  5
18E88
331
18E87
  5
18E89
331
18E88
  5
18E8A
331
18E8C
  5
18E8E
331
18E8D
  5
18E8F
331
18E8E
  5
18E90
331
18E8F
  5
18E91
331
18E92
  5
18E94
331
18E93
  5
18E95
331
18E96
  5
18E98
331
18E97
  5
18E99
331
18E98
  5
18E9A
331
18E9D
  5
18E9F
331
18E9E
  5
18EA0
331
18E9F
  5
18EA1
331
18EA0
  5
18EA2
331
18EA1
  5
18EA3
331
18EA2
  5
18EA4
331
18EA5
  5
18EA7
331
18EA6
  5
18EA8
331
18EA9
  5
18EAB
331
18EAA
  5
18EAC
331
18EAB
  5
18EAD
331
18EAC
  5
18EAE
331
18EAE
  5
18EB0
331
18EAF
  5
18EB1
331
18EB0
  5
18EB2
331
18EB2
  5
18EB4
331
18EB3
  5
18EB5
331
18EB4
  5
18EB6
331
18EB5
  5
18EB7
331
18EB6
  5
18EB8
331
18EB7
  5
18EB9
331
18EB8
  5
18EBA
331
18EB9
  5
18EBB
331
18EBA
  5
18EBC
331
18EBB
  5
18EBD
331
18EBC
  5
18EBE
331
18EBD
  5
18EBF
331
18EBE
  5
18EC0
331
18EBF
  5
18EC1
331
18EC0
  5
18EC2
331
18EC1
  5
18EC3
331
18EC2
  5
18EC4
331
18EC3
  5
18EC5
331
18EC4
  5
18EC6
331
18EC7
  5
18EC9
331
18EC8
  5
18ECA
331
18EC9
  5
18ECB
331
18ECA
  5
18ECC
331
18ECB
  5
18ECD
331
18ECC
  5
18ECE
331
18ECD
  5
18ECF
331
18ECE
  5
18ED0
331
18ECF
  5
18ED1
331
18EDC
  5
18EDE
331
18EDE
  5
18EE0
331
18EDF
  5
18EE1
331
18EE0
  5
18EE2
331
18EE1
  5
18EE3
331
18EE2
  5
18EE4
331
18EE3
  5
18EE5
331
18EE5
  5
18EE7
331
18EE6
  5
18EE8
331
18EE7
  5
18EE9
331
18EE8
  5
18EEA
331
18EE9
  5
18EEB
331
18EEA
  5
18EEC
331
18EEB
  5
18EED
331
18EEC
  5
18EEE
331
18EED
  5
18EEF
331
18EF5
  5
18EF7
331
18EF9
  5
18EFB
331
18EFA
  5
18EFC
331
18EFB
  5
18EFD
331
18EFC
  5
18EFE
331
18EFD
  5
18EFF
331
18EFE
  5
18F00
331
18EFF
  5
18F01
331
18F00
  5
18F02
331
18F02
  5
18F04
331
18F03
  5
18F05
331
18F04
  5
18F06
331
18F05
  5
18F07
331
18F06
  5
18F08
331
18F07
  5
18F09
331
18F08
  5
18F0A
331
18F09
  5
18F0B
331
18F0B
  5
18F0D
331
18F0E
  5
18F10
331
18F0F
  5
18F11
331
18F12
  5
18F14
331
18F13
  5
18F15
331
18F16
  5
18F18
331
18F17
  5
18F19
331
18F18
  5
18F1A
331
18F1E
  5
18F20
331
18F21
  5
18F23
331
18F22
  5
18F24
331
18F23
  5
18F25
331
18F24
  5
18F26
331
18F25
  5
18F27
331
18F27
  5
18F29
331
18F29
  5
18F2B
331
18F2A
  5
18F2C
331
18F2B
  5
18F2D
331
18F2C
  5
18F2E
331
18F2D
  5
18F2F
331
18F2E
  5
18F30
331
18F2F
  5
18F31
331
18F31
  5
18F33
331
18F33
  5
18F35
331
18F34
  5
18F36
331
18F35
  5
18F37
331
18F36
  5
18F38
331
18F37
  5
18F39
331
18F38
  5
18F3A
331
18F39
  5
18F3B
331
18F3A
  5
18F3C
331
18F3B
  5
18F3D
331
18F3C
  5
18F3E
331
18F3F
  5
18F41
331
18F41
  5
18F43
331
18F42
  5
18F44
331
18F43
  5
18F45
331
18F44
  5
18F46
331
18F45
  5
18F47
331
18F46
  5
18F48
331
18F47
  5
18F49
331
18F48
  5
18F4A
331
18F4A
  5
18F4C
331
18F4C
  5
18F4E
331
18F4E
  5
18F50
331
18F4F
  5
18F51
331
18F50
  5
18F52
331
18F51
  5
18F53
331
18F52
  5
18F54
331
18F53
  5
18F55
331
18F54
  5
18F56
331
18F55
  5
18F57
331
18F56
  5
18F58
331
18F5D
  5
18F5F
331
18F5E
  5
18F60
331
18F5F
  5
18F61
331
18F60
  5
18F62
331
18F61
  5
18F63
331
18F62
  5
18F64
331
18F63
  5
18F65
331
18F64
  5
18F66
331
18F69
  5
18F6B
331
18F6A
  5
18F6C
331
18F6B
  5
18F6D
331
18F6C
  5
18F6E
331
18F6D
  5
18F6F
331
18F6E
  5
18F70
331
18F6F
  5
18F71
331
18F70
  5
18F72
331
18F71
  5
18F73
331
18F72
  5
18F74
331
18F73
  5
18F75
331
18F74
  5
18F76
331
18F75
  5
18F77
331
18F77
  5
18F7C
331
18F7A
  5
18F7D
331
18F7B
  5
18F7E
331
18F7C
  5
18F7F
331
18F7D
  5
18F80
331
18F7E
  5
18F81
331
18F7F
  5
18F82
331
18F80
  5
18F86
331
18F84
  5
18F88
331
18F86
  5
18F89
331
18F87
  5
18F8D
331
18F8B
  5
18F92
331
18F90
  5
18F96
331
18F94
  5
18F97
331
18F95
  5
18F98
331
18F96
  5
18F99
331
18F97
  5
18F9A
331
18F98
  5
18F9B
331
18F99
  5
18F9C
331
18F9A
  5
18F9D
331
18F9B
  5
18F9E
331
18F9C
  5
18F9F
331
18F9D
  5
18FA0
331
18F9E
  5
18FA1
331
18F9F
  5
18FA2
331
18FA0
  5
18FA3
331
18FA1
  5
18FA4
331
18FA2
  5
18FA5
331
18FA3
  5
18FA6
331
18FA4
  5
18FA7
331
18FA5
  5
18FA8
331
18FA6
  5
18FA9
331
18FA7
  5
18FAC
331
18FAA
  5
18FAD
331
18FAB
  5
18FB0
331
18FAE
  5
18FB1
331
18FAF
  5
18FB2
331
18FB0
  5
18FB5
331
18FB3
  5
18FB7
331
18FB5
  5
18FB8
331
18FB6
  5
18FBA
331
18FB8
  5
18FBB
331
18FB9
  5
18FBC
331
18FBA
  5
18FBD
331
18FBB
  5
18FBE
331
18FBC
  5
18FBF
331
18FBD
  5
18FC0
331
18FBE
  5
18FC1
331
18FBF
  5
18FC2
331
18FC0
  5
18FC3
331
18FC1
  5
18FC4
331
18FC2
  5
18FC6
331
18FC4
  5
18FC7
331
18FC5
  5
18FC8
331
18FC6
  5
18FC9
331
18FC7
  5
18FCA
331
18FC8
  5
18FCB
331
18FC9
  5
18FCC
331
18FCA
  5
18FCD
331
18FCB
  5
18FCE
331
18FCC
  5
18FCF
331
18FCD
  5
18FD0
331
18FCE
  5
18FD2
331
18FD0
  5
18FD4
331
18FD2
  5
18FD5
331
18FD3
  5
18FD6
331
18FD4
  5
18FD7
331
18FD5
  5
18FD8
331
18FD6
  5
18FD9
331
18FD7
  5
18FDA
331
18FD9
  5
18FDC
331
18FDD
  5
18FE0
331
18FDE
  5
18FE1
331
18FDF
  5
18FE2
331
18FE0
  5
18FE3
331
18FE1
  5
18FE4
331
18FE2
  5
18FE5
331
18FE3
  5
18FE6
331
18FE4
  5
18FE7
331
18FE5
  5
18FE8
331
18FE7
  5
18FEA
331
18FEA
  5
18FED
331
18FEC
  5
18FEF
331
18FED
  5
18FF0
331
18FEE
  5
18FF1
331
18FEF
  5
18FF2
331
18FF0
  5
18FF3
331
18FF1
  5
18FF4
331
18FF2
  5
18FF5
331
18FF3
  5
18FF6
331
18FF4
  5
18FF7
331
18FF5
  5
18FFC
331
18FFA
  5
18FFD
331
18FFB
  5
18FFE
331
18FFC
  5
18FFF
331
18FFD
  5
19000
331
18FFE
  5
19001
331
18FFF
  5
19002
331
19000
  5
19003
331
19001
  5
19004
331
19002
  5
19005
331
19003
  5
19006
331
19006
  5
19009
331
19007
  5
1900A
331
19008
  5
1900B
331
19009
  5
1900C
331
1900A
  5
1900D
331
1900B
  5
1900E
331
1900C
  5
1900F
331
1900D
  5
19010
331
1900E
  5
19011
331
1900F
  5
19012
331
19010
  5
1913C
331
19130
  5
1913D
331
19131
  5
1913E
331
1913B
  5
1921A
331
1913D
  5
1924E
331
1913E
  5
192F3
331
1921A
  5
19B91
331
19B91
  5
19C3D
331
19C3D
  5
19D08
331
19D08
  5
18F79
  0
LAYOUT
  5
22
102
{ACAD_REACTORS
330
1A
102
}
330
1A
100
AcDbPlotSettings
  1

  2
SII LP-2150 (D-SCAN C2)
  4
User120
  6
AM_VIEW1
 40
3.174999952316284
 41
3.174999952316284
 42
3.17498779296875
 43
3.17498779296875
 44
296.9259948730469
 45
419.9889831542969
 46
0.0
 47
0.0
 48
0.0
 49
0.0
140
420.0
141
297.0
142
1.0
143
1.022107788374329
 70
 11952
 72
     1
 73
     1
 74
     4
  7
sei_cad.ctb
 75
     0
147
0.9783703943695685
148
0.0
149
0.0
100
AcDbLayout
  1
Model
 70
     1
 71
     0
 10
0.0
 20
0.0
 11
12.0
 21
9.0
 12
0.0
 22
0.0
 32
0.0
 14
0.0
 24
0.0
 34
0.0
 15
0.0
 25
0.0
 35
0.0
146
0.0
 13
0.0
 23
0.0
 33
0.0
 16
1.0
 26
0.0
 36
0.0
 17
0.0
 27
1.0
 37
0.0
 76
     0
330
1F
1001
ACAD_PSEXT
1000
SII LP-2150 (D-SCAN C2)
1000
SII LP-2150 (D-SCAN C2)
1000
133.153.16.130#3000
1000

1070
     0
  0
LAYOUT
  5
1E
102
{ACAD_REACTORS
330
1A
102
}
330
1A
100
AcDbPlotSettings
  1

  2
Canon LASER SHOT LBP-2030
  4

  6

 40
0.0
 41
0.0
 42
0.0
 43
0.0
 44
0.0
 45
0.0
 46
0.0
 47
0.0
 48
0.0
 49
0.0
140
0.0
141
0.0
142
1.0
143
1.0
 70
   688
 72
     0
 73
     0
 74
     5
  7
sei_cad.ctb
 75
    16
147
1.0
148
0.0
149
0.0
100
AcDbLayout
  1
ﾚｲｱｳﾄ1
 70
     1
 71
     1
 10
0.0
 20
0.0
 11
420.0
 21
297.0
 12
0.0
 22
0.0
 32
0.0
 14
1.000000000000000E+20
 24
1.000000000000000E+20
 34
1.000000000000000E+20
 15
-1.000000000000000E+20
 25
-1.000000000000000E+20
 35
-1.000000000000000E+20
146
0.0
 13
0.0
 23
0.0
 33
0.0
 16
1.0
 26
0.0
 36
0.0
 17
0.0
 27
1.0
 37
0.0
 76
     0
330
1B
  0
LAYOUT
  5
26
102
{ACAD_REACTORS
330
1A
102
}
330
1A
100
AcDbPlotSettings
  1

  2
Canon LASER SHOT LBP-2030
  4

  6

 40
0.0
 41
0.0
 42
0.0
 43
0.0
 44
0.0
 45
0.0
 46
0.0
 47
0.0
 48
0.0
 49
0.0
140
0.0
141
0.0
142
1.0
143
1.0
 70
   688
 72
     0
 73
     0
 74
     5
  7
sei_cad.ctb
 75
    16
147
1.0
148
0.0
149
0.0
100
AcDbLayout
  1
ﾚｲｱｳﾄ2
 70
     1
 71
     2
 10
0.0
 20
0.0
 11
12.0
 21
9.0
 12
0.0
 22
0.0
 32
0.0
 14
0.0
 24
0.0
 34
0.0
 15
0.0
 25
0.0
 35
0.0
146
0.0
 13
0.0
 23
0.0
 33
0.0
 16
1.0
 26
0.0
 36
0.0
 17
0.0
 27
1.0
 37
0.0
 76
     0
330
23
  0
MLINESTYLE
  5
18
102
{ACAD_REACTORS
330
17
102
}
330
17
100
AcDbMlineStyle
  2
STANDARD
 70
     0
  3

 62
   256
 51
90.0
 52
90.0
 71
     2
 49
0.5
 62
   256
  6
BYLAYER
 49
-0.5
 62
   256
  6
BYLAYER
  0
ACDBPLACEHOLDER
  5
F
102
{ACAD_REACTORS
330
E
102
}
330
E
  0
TABLESTYLE
  5
ED4E
102
{ACAD_REACTORS
330
ED4D
102
}
330
ED4D
100
AcDbTableStyle
  3
Standard
 70
     0
 71
     8
 40
1.5
 41
1.5
280
     0
281
     0
  7
STANDARD
140
4.5
170
     2
 62
     0
 63
     7
283
     0
274
    -2
284
     1
 64
     0
275
    -2
285
     1
 65
     0
276
    -2
286
     1
 66
     0
277
    -2
287
     1
 67
     0
278
    -2
288
     1
 68
     0
279
    -2
289
     1
 69
     0
  7
STANDARD
140
6.0
170
     5
 62
     0
 63
     7
283
     0
274
    -2
284
     1
 64
     0
275
    -2
285
     1
 65
     0
276
    -2
286
     1
 66
     0
277
    -2
287
     1
 67
     0
278
    -2
288
     1
 68
     0
279
    -2
289
     1
 69
     0
  7
STANDARD
140
4.5
170
     5
 62
     0
 63
     7
283
     0
274
    -2
284
     1
 64
     0
275
    -2
285
     1
 65
     0
276
    -2
286
     1
 66
     0
277
    -2
287
     1
 67
     0
278
    -2
288
     1
 68
     0
279
    -2
289
     1
 69
     0
  0
XRECORD
  5
19D0D
102
{ACAD_REACTORS
330
19D0C
102
}
330
19D0C
100
AcDbXrecord
280
     1
340
ED4C
  0
XRECORD
  5
19D0E
102
{ACAD_REACTORS
330
19D0C
102
}
330
19D0C
100
AcDbXrecord
280
     1
340
ED4B
  0
DICTIONARYVAR
  5
EE09
102
{ACAD_REACTORS
330
30
102
}
330
30
100
DictionaryVariables
280
     0
  1
STANDARD
  0
DICTIONARYVAR
  5
19D0B
102
{ACAD_REACTORS
330
30
102
}
330
30
100
DictionaryVariables
280
     0
  1
0
  0
DICTIONARYVAR
  5
19D0A
102
{ACAD_REACTORS
330
30
102
}
330
30
100
DictionaryVariables
280
     0
  1
1
  0
ACAD_PROXY_OBJECT
  5
4E
102
{ACAD_REACTORS
330
4D
102
}
330
4D
100
AcDbProxyObject
 90
      499
 91
      520
 95
       25
 70
     0
 93
      118
310
405010040CA904C415CD5B075DD258
350
4F
 94
        0
  0
DICTIONARY
  5
17E
102
{ACAD_REACTORS
330
4D
102
}
330
4D
100
AcDbDictionary
281
     1
  3
ISO
350
F94D
  3
JIS
350
17F
  0
XRECORD
  5
EDA8
102
{ACAD_REACTORS
330
4D
102
}
330
4D
100
AcDbXrecord
280
     1
 90
-1023410169
  0
ACAD_PROXY_OBJECT
  5
33
330
2E
100
AcDbProxyObject
 90
      499
 91
      508
 95
       25
 70
     0
 93
      156
310
00010143D050D351505391D5531054925390D490
330
2E
 94
        0
  0
ACAD_PROXY_OBJECT
  5
34
330
2E
100
AcDbProxyObject
 90
      499
 91
      508
 95
       25
 70
     0
 93
      148
310
000101439050D351531253915054925390D490
330
2E
 94
        0
  0
ACAD_PROXY_OBJECT
  5
35
330
2E
100
AcDbProxyObject
 90
      499
 91
      509
 95
       25
 70
     0
 93
      156
310
000101439050D35154D6535093D314D256915080
330
2E
 94
        0
  0
ACAD_PROXY_OBJECT
  5
37
330
2E
100
AcDbProxyObject
 90
      499
 91
      511
 95
       25
 70
     0
 93
       88
310
000101411093D34C402B00
330
2E
330
0
330
0
 94
        0
  0
ACAD_PROXY_OBJECT
  5
6B
330
2E
100
AcDbProxyObject
 90
      499
 91
      509
 95
       25
 70
     0
 93
      108
310
00010142505351D153D35054D4E0
330
2E
 94
        0
  0
ACAD_PROXY_OBJECT
  5
6C
330
2E
100
AcDbProxyObject
 90
      499
 91
      522
 95
       25
 70
     0
 93
      140
310
00010142105350D55494D511005034A49530
330
2E
 94
        0
  0
ACAD_PROXY_OBJECT
  5
ED60
330
2E
100
AcDbProxyObject
 90
      499
 91
      536
 95
       25
 70
     0
 93
      566
310
0001014124FEA55D00507392E312E302E34014124FEA55D00507392E322E302E3240501000041D0548B54D053910182D4454FB21E93F2E07A17AD46E278FC000000000000F83F8
330
2E
330
ED61
330
ED67
 94
        0
  0
ACAD_PROXY_OBJECT
  5
ED61
330
2E
100
AcDbProxyObject
 90
      499
 91
      537
 95
       25
 70
     0
 93
       56
310
000190240E0000
330
2E
330
ED62
330
ED64
 94
        0
  0
ACAD_PROXY_OBJECT
  5
ED62
330
2E
100
AcDbProxyObject
 90
      499
 91
      538
 95
       25
 70
     0
 93
       48
310
0001AA000000
330
2E
330
1E
330
ED63
330
0
 94
        0
  0
ACAD_PROXY_OBJECT
  5
ED63
330
2E
100
AcDbProxyObject
 90
      499
 91
      539
 95
       25
 70
     0
 93
       28
310
0001AAA0
330
2E
 94
        0
  0
ACAD_PROXY_OBJECT
  5
ED64
330
2E
100
AcDbProxyObject
 90
      499
 91
      538
 95
       25
 70
     0
 93
       48
310
0001AA000000
330
2E
330
26
330
ED65
330
0
 94
        0
  0
ACAD_PROXY_OBJECT
  5
ED65
330
2E
100
AcDbProxyObject
 90
      499
 91
      539
 95
       25
 70
     0
 93
       28
310
0001AAA0
330
2E
 94
        0
  0
ACAD_PROXY_OBJECT
  5
ED68
330
2E
100
AcDbProxyObject
 90
      499
 91
      509
 95
       25
 70
     0
 93
      108
310
000101421053521310D05310D010
330
2E
 94
        0
  0
ACAD_PROXY_OBJECT
  5
ED69
330
2E
100
AcDbProxyObject
 90
      499
 91
      509
 95
       25
 70
     0
 93
      124
310
00010142905354915554D15112535010
330
2E
 94
        0
  0
ACAD_PROXY_OBJECT
  5
ED6A
330
2E
100
AcDbProxyObject
 90
      499
 91
      509
 95
       25
 70
     0
 93
      132
310
00010143105354D150D51253D391125360
330
2E
 94
        0
  0
ACAD_PROXY_OBJECT
  5
ED6B
330
2E
100
AcDbProxyObject
 90
      499
 91
      509
 95
       25
 70
     0
 93
      124
310
00010142905355941093D49111549010
330
2E
 94
        0
  0
ACAD_PROXY_OBJECT
  5
ED6C
330
2E
100
AcDbProxyObject
 90
      499
 91
      509
 95
       25
 70
     0
 93
      116
310
0001014290535115D1D0D3D313D4A0
330
2E
 94
        0
  0
ACAD_PROXY_OBJECT
  5
ED6D
330
2E
100
AcDbProxyObject
 90
      499
 91
      509
 95
       25
 70
     0
 93
      148
310
00010143505355925155D49151949154D21010
330
2E
 94
        0
  0
ACAD_PROXY_OBJECT
  5
ED6E
330
2E
100
AcDbProxyObject
 90
      499
 91
      509
 95
       25
 70
     0
 93
      172
310
00010144105350539393D51154149154D15495915010
330
2E
 94
        0
  0
ACAD_PROXY_OBJECT
  5
ED6F
330
2E
100
AcDbProxyObject
 90
      499
 91
      509
 95
       25
 70
     0
 93
      172
310
00010144105350555513D11253505494905391D15010
330
2E
 94
        0
  0
ACAD_PROXY_OBJECT
  5
ED70
330
2E
100
AcDbProxyObject
 90
      499
 91
      509
 95
       25
 70
     0
 93
      124
310
00010142D05351561514915191125360
330
2E
 94
        0
  0
ACAD_PROXY_OBJECT
  5
ED71
330
2E
100
AcDbProxyObject
 90
      499
 91
      509
 95
       25
 70
     0
 93
      132
310
00010142D05355105410539393D5115010
330
2E
 94
        0
  0
ACAD_PROXY_OBJECT
  5
ED72
330
2E
100
AcDbProxyObject
 90
      499
 91
      509
 95
       25
 70
     0
 93
      108
310
00010142105350555513D0D31010
330
2E
 94
        0
  0
ACAD_PROXY_OBJECT
  5
ED73
330
2E
100
AcDbProxyObject
 90
      499
 91
      509
 95
       25
 70
     0
 93
      108
310
00010142105350D3119150551050
330
2E
 94
        0
  0
ACAD_PROXY_OBJECT
  5
ED74
330
2E
100
AcDbProxyObject
 90
      499
 91
      509
 95
       25
 70
     0
 93
      108
310
00010142105350D315925155D3F0
330
2E
 94
        0
  0
ACAD_PROXY_OBJECT
  5
ED75
330
2E
100
AcDbProxyObject
 90
      499
 91
      509
 95
       25
 70
     0
 93
      148
310
0001014350535212511156915493D112535010
330
2E
 94
        0
  0
ACAD_PROXY_OBJECT
  5
ED76
330
2E
100
AcDbProxyObject
 90
      499
 91
      509
 95
       25
 70
     0
 93
      124
310
00010142905352105510D21254D3D010
330
2E
 94
        0
  0
ACAD_PROXY_OBJECT
  5
ED77
330
2E
100
AcDbProxyObject
 90
      499
 91
      509
 95
       25
 70
     0
 93
      148
310
00010143905354D25391D31152105513105660
330
2E
 94
        0
  0
ACAD_PROXY_OBJECT
  5
ED78
330
2E
100
AcDbProxyObject
 90
      499
 91
      509
 95
       25
 70
     0
 93
      124
310
00010142D0535115D1D193111254D420
330
2E
 94
        0
  0
ACAD_PROXY_OBJECT
  5
ED79
330
2E
100
AcDbProxyObject
 90
      499
 91
      509
 95
       25
 70
     0
 93
      100
310
00010142105350555513D213A0
330
2E
 94
        0
  0
ACAD_PROXY_OBJECT
  5
ED7A
330
2E
100
AcDbProxyObject
 90
      499
 91
      509
 95
       25
 70
     0
 93
      116
310
000101425053521390D3D553951010
330
2E
 94
        0
  0
ACAD_PROXY_OBJECT
  5
ED7B
330
2E
100
AcDbProxyObject
 90
      499
 91
      509
 95
       25
 70
     0
 93
      108
310
0001014210535213941493D29010
330
2E
 94
        0
  0
ACAD_PROXY_OBJECT
  5
ED7C
330
2E
100
AcDbProxyObject
 90
      499
 91
      509
 95
       25
 70
     0
 93
      108
310
0001014210535213951654115070
330
2E
 94
        0
  0
ACAD_PROXY_OBJECT
  5
ED7D
330
2E
100
AcDbProxyObject
 90
      499
 91
      509
 95
       25
 70
     0
 93
      108
310
000101421053521395925155D0F0
330
2E
 94
        0
  0
ACAD_PROXY_OBJECT
  5
ED7E
330
2E
100
AcDbProxyObject
 90
      499
 91
      509
 95
       25
 70
     0
 93
      140
310
00010143505354D150D51253D390D3D41660
330
2E
 94
        0
  0
ACAD_PROXY_OBJECT
  5
ED7F
330
2E
100
AcDbProxyObject
 90
      499
 91
      509
 95
       25
 70
     0
 93
      108
310
00010142105350D3141493D29030
330
2E
 94
        0
  0
ACAD_PROXY_OBJECT
  5
ED80
330
2E
100
AcDbProxyObject
 90
      499
 91
      508
 95
       25
 70
     0
 93
      212
310
00010143905350555513D2105510D21493D500000000000002E400
330
2E
 94
        0
  0
ACAD_PROXY_OBJECT
  5
ED81
330
2E
100
AcDbProxyObject
 90
      499
 91
      509
 95
       25
 70
     0
 93
      156
310
00010143905350555513D2105510D21111551010
330
2E
 94
        0
  0
ACAD_PROXY_OBJECT
  5
ED8D
330
2E
100
AcDbProxyObject
 90
      499
 91
      547
 95
       25
 70
     0
 93
      698
310
0001000000009AA6A9AA4051E546875204170722032312030303A33303A353620323030352028555443290141CE4B8C4B8C0B8D00518576564205365702030312030393A33363A333920323031300141CE4B8C8B8C0B8C80
330
2E
330
ED8E
330
ED8F
330
ED91
330
0
 94
        0
  0
ACAD_PROXY_OBJECT
  5
ED8E
330
2E
100
AcDbProxyObject
 90
      499
 91
      548
 95
       25
 70
     0
 93
       70
310
0001AAA80820000000
330
2E
330
ED8E
330
ED8E
 94
        0
  0
ACAD_PROXY_OBJECT
  5
ED8F
330
2E
100
AcDbProxyObject
 90
      499
 91
      549
 95
       25
 70
     0
 93
       48
310
000100000000
330
2E
330
0
330
ED90
330
0
330
0
 94
        0
  0
ACAD_PROXY_OBJECT
  5
ED90
330
2E
100
AcDbProxyObject
 90
      499
 91
      550
 95
       25
 70
     0
 93
       40
310
000100AAAA
330
2E
330
0
 94
        0
  0
ACAD_PROXY_OBJECT
  5
ED96
330
2E
100
AcDbProxyObject
 90
      499
 91
      522
 95
       25
 70
     0
 93
      180
310
00010143105050D3D35411119390535140504434F4D500
330
2E
 94
        0
  0
ACAD_PROXY_OBJECT
  5
ED97
330
2E
100
AcDbProxyObject
 90
      499
 91
      522
 95
       25
 70
     0
 93
      212
310
0001014390505193D311115491119390535140506466F6C6465720
330
2E
 94
        0
  0
ACAD_PROXY_OBJECT
  5
ED98
330
2E
100
AcDbProxyObject
 90
      499
 91
      522
 95
       25
 70
     0
 93
      180
310
00010143105050539393D1119390535140504284156290
330
2E
 94
        0
  0
ACAD_PROXY_OBJECT
  5
ED99
330
2E
100
AcDbProxyObject
 90
      499
 91
      522
 95
       25
 70
     0
 93
      436
310
00010143905050D3D35415925155D31254D50052295BD96CA0A90B396CA0A894591A496CA0A8DB691A496CA0A89BA96CA0A95E28F95310
330
2E
 94
        0
  0
ACAD_PROXY_OBJECT
  5
ED9E
330
2E
100
AcDbProxyObject
 90
      499
 91
      555
 95
       25
 70
     0
 93
       32
310
00010000
330
2E
340
ED9B
330
EDA0
330
ED9B
 94
        0
  0
ACAD_PROXY_OBJECT
  5
ED9F
330
2E
100
AcDbProxyObject
 90
      499
 91
      556
 95
       25
 70
     0
 93
       18
310
000180
330
2E
 94
        0
  0
ACAD_PROXY_OBJECT
  5
EDA0
330
2E
100
AcDbProxyObject
 90
      499
 91
      557
 95
       25
 70
     0
 93
      186
310
000101431114D4D3948CCC8CCC940C4E5050055401550000
330
2E
330
ED9E
330
ED9F
 94
        0
  0
ACAD_PROXY_OBJECT
  5
EDA1
330
2E
100
AcDbProxyObject
 90
      499
 91
      558
 95
       25
 70
     0
 93
      178
310
000100AAAAAABAC03B2E67439410EA36E89D743EA29000
330
2E
330
EDA0
 94
        0
  0
ACAD_PROXY_OBJECT
  5
EDA2
330
2E
100
AcDbProxyObject
 90
      499
 91
      559
 95
       25
 70
     0
 93
      108
310
000190140A000000000000AAAAA0
330
2E
330
EDA3
330
EDA3
330
EDA3
330
EDA3
330
EDA3
330
0
 94
        0
  0
ACAD_PROXY_OBJECT
  5
EDA3
330
2E
100
AcDbProxyObject
 90
      499
 91
      560
 95
       25
 70
     0
 93
       51
310
00010000AAAA80
330
2E
330
EDA2
330
EDA0
 94
        0
  0
ACAD_PROXY_OBJECT
  5
EDCB
330
2E
100
AcDbProxyObject
 90
      499
 91
      509
 95
       25
 70
     0
 93
      140
310
0001014350535311D0D3D313D49353D11160
330
2E
 94
        0
  0
DICTIONARY
  5
40
102
{ACAD_REACTORS
330
3F
102
}
330
3F
100
AcDbDictionary
281
     1
  3
DWGSETTINGS
350
41
  3
FEM
350
69
  3
Shaft
350
56
  3
TRANSSETTINGS
350
4C
  0
ACAD_PROXY_OBJECT
  5
42
102
{ACAD_REACTORS
330
3F
102
}
330
3F
100
AcDbProxyObject
 90
      499
 91
      519
 95
       25
 70
     0
 93
    23232
310
41502491013041105357CC201C00030C011E441013141105357CC603800030C011E441013241105357CCA01400030C011E441013341105357CCE01800030C010D9013441105357CD200C00030C010D9013541105357CD600C00030C010D9013641105357CDA00800030C011E9013741105357CDE01000030C010D901384110
310
5357CE200400030C011E9013941105357CE63F400030C0241102324141505357CC4C201C00030C011E902344141505357CC4C600C00030C010D902495041505357CC4CA01C00030C011E40902304E41505357CC13A01C00030C011E902314E41505357CC53A03800030C011E902324E41505357CC93A01400030C011E90233
310
4E41505357CCD3A01800030C010D902344E41505357CD13A00C00030C010D902354E41505357CD53A00C00030C010D902364E41505357CD93A00800030C011E902374E41505357CDD3A01000030C010D902384E41505357CE13A00400030C011E902394E41505357CE53A3F400030C024110332414E41905357CC4C13A01C0
310
0030C011E90334414E41905357CC4C53A00C00030C010D90349504E41905357CC4C93A01C00030C011E409044B4C494E41505357D0D3200400030C011E42504494E464F42105357D410549151A01000030C010D42D055241484D3541905357D093D4A01C00030C011E425045649455742105357D5925155D4E00400030C011
310
E42D06424548494E4441905357D25395A3F400030C0243505545241494C41505357D514A00C00030C010D4250348494441905357D21251201C00030C011E4250356495341905357D59254E01C00030C011E4250650415244494D42505357D41054911253600C00030C010D4250652454644494D42505357D49151911253601
310
000030C010D425774110531514901348070000C300479034110915312501348000000C0003FFFFFFFD034110921395901398000000C0003FFFFFFFE415092139594D06424548494E448000000C0003FFFFFFFE411093125110234418000000C0003FFFFFFFD03411093D05410234418000000C0003FFFFFFFD03411093D48C
310
9055241484D358010000C30047A411093D48CD055241484D358020000C30047A411093D48D5055241484D358000000C0003FFFFFFFE411093D48DD055241484D3581E0000C30047903411094105410234418000000C0003FFFFFFFD03411094115610234418000000C0003FFFFFFFD034110951112501358000000C0003FFF
310
FFFFD034110D0530C901348000000C0003FFFFFFFE4110D0530CD01348020000C30047A4110D0530D501348070000C30047A4110D0530DD013481E0000C30047A4110D15393901378000000C0003FFFFFFFE4110D15395D01378000000C0003FFFFFFFE4110D312539044B4C494E8000000C0003FFFFFFFE4110D3D38C5013
310
08000000C0003FFFFFFFD034110D3D38C901318000000C0003FFFFFFFD034110D3D38CD01328000000C0003FFFFFFFD034110D3D38D101328000000C0003FFFFFFFD034111115494101348000000C0003FFFFFFFD034111115510501348000000C0003FFFFFFFE4111125051D01358000000C0003FFFFFFFE4111125312501
310
358000000C0003FFFFFFFE411112535410650415244494D8000000C0003FFFFFFFE411112535490652454644494D8000000C0003FFFFFFFE411156135410234418000000C0003FFFFFFFD034111915353901388000000C0003FFFFFFFE415191535413901388030000C3004364151915354D410234418000000C0003FFFFFF
310
FE4151915354D510234418030000C300436415191535593901328000000C0003FFFFFFFE415191535595101328030000C3004364111931055101308000000C0003FFFFFFFD03411194905490234418000000C0003FFFFFFFD034111D49312501358000000C0003FFFFFFFD034111D5931250234418000000C0003FFFFFFFD0
310
34112105510D01388000000C0003FFFFFFFD014112125113901338000000C0003FFFFFFFD034112125115D01338000000C0003FFFFFFFD034112131253901348000000C0003FFFFFFFD01411213D0D3901378000000C0003FFFFFFFE411213D0D5D01378000000C0003FFFFFFFE4112539193D04494E464F8000000C0003FF
310
FFFFFE4113105112501348000000C0003FFFFFFFD034113115051101358000000C0003FFFFFFFE419397D0921395902394E8000000C0003FFFFFFFE419397D0D3D38C502304E8000000C0003FFFFFFFD03419397D0D3D38C902314E8000000C0003FFFFFFFD03419397D0D3D38CD02324E8000000C0003FFFFFFFD03419397
310
D0D3D38D102324E8000000C0003FFFFFFFD03419397D0D15393902374E8000000C0003FFFFFFFE419397D0D15395D02374E8000000C0003FFFFFFFE419397D1125312502354E8000000C0003FFFFFFFE419397D2105510D02384E8000000C0003FFFFFFFD01419397D2125113902334E8000000C0003FFFFFFFD03419397D2
310
125115D02334E8000000C0003FFFFFFFD03419397D3115051102354E8000000C0003FFFFFFFE419397D391D25410349504E8000000C0003FFFFFFFE419397D412105390334414E8000000C0003FFFFFFFE419397D510D3D3902304E8000000C0003FFFFFFFD03419397D5121312502344E8000000C0003FFFFFFFD01419397
310
D5131153902304E8000000C0003FFFFFFFD03419397D516150CD02364E8000000C0003FFFFFFFD03419397D594131250332414E8000000C0003FFFFFFFE411391D25410249508000000C0003FFFFFFFE411410530C9055241484D358010000C30047A411410530CD055241484D358020000C30047A411410530D5055241484
310
D358000000C0003FFFFFFFE411410530DD055241484D3581E0000C30047903411412105390234418000000C0003FFFFFFFE411413D4D3901368070000C30047A419413D4D49151901368050000C30047903411413D4D6101368000000C0003FFFFFFFD03411414D150D0234418000000C0003FFFFFFFD03411490D1D390137
310
8000000C0003FFFFFFFE411490D1D5D01378000000C0003FFFFFFFE4114919112501348000000C0003FFFFFFFD034114945514901348070000C30047903411494D093D01348000000C0003FFFFFFFD034114D09492D01348000000C0003FFFFFFFD014114D0D153901378000000C0003FFFFFFFD034114D150D51013480000
310
00C0003FFFFFFFD014114D15313901378000000C0003FFFFFFFD034114D15315D01378000000C0003FFFFFFFD034114D4D654D01308000000C0003FFFFFFFD034114D51312501348070000C300479034114D6508C501358000000C0003FFFFFFFD034114D6508C901358000000C0003FFFFFFFD034114D6508CD0135802000
310
0C30047A4114D6508D501358070000C300479034114D65353901378000000C0003FFFFFFFD034114D65355D01378000000C0003FFFFFFFD03411510D3D3901308000000C0003FFFFFFFD034115121312501348000000C0003FFFFFFFD01411512550C9055241484D358010000C30047A411512550CD055241484D358020000
310
C30047A411512550D5055241484D358000000C0003FFFFFFFE411512550DD055241484D3581E0000C300479034115131153901308000000C0003FFFFFFFD03415514905253105545241494C8000000C0003FFFFFFFE41151492D3901378000000C0003FFFFFFFD0341151492D5D01378000000C0003FFFFFFFD03411514931
310
2501348000000C0003FFFFFFFD01411516150C501368030000C300436411516150C901368030000C300436411516150CD01368000000C0003FFFFFFFE411516150D501368070000C30047A411516150DD013681E0000C30047A4115925155D04564945578000000C0003FFFFFFFE41159151121034849448000000C0003FFF
310
FFFFD0241159151159035649538000000C0003FFFFFFFD02411594131250232418000000C0003FFFFFFFE4116925690501348000000C0003FFFFFFFD01411354D653501358020000C30047AAAA3F400030C01013F90A4391E41D1E4190D4151E4110D40D0D4091E4051E4791E7F6
340
16
340
16
340
16
340
43
340
16
340
16
340
16
340
44
340
16
340
16
340
44
340
45
340
16
340
16
340
16
340
16
340
43
340
16
340
16
340
16
340
44
340
16
340
16
340
44
340
45
340
16
340
46
340
16
340
16
340
16
340
16
340
16
340
43
340
16
340
16
340
16
340
47
340
15
340
15
340
15
340
15
340
15
340
15
340
15
340
15
340
15
340
15
340
15
340
15
340
15
340
15
340
15
340
15
340
48
340
15
340
15
340
15
340
15
340
15
340
15
340
15
340
15
340
15
340
15
340
15
340
15
340
15
340
15
340
15
340
16
340
15
340
15
340
15
340
15
340
15
340
15
340
15
340
15
340
47
340
15
340
15
340
48
340
15
340
15
340
15
340
15
340
15
340
15
340
15
340
15
340
15
340
48
340
15
340
15
340
15
340
47
340
15
340
15
340
15
340
15
340
15
340
15
340
15
340
15
340
15
340
15
340
15
340
15
340
15
340
15
340
15
340
15
340
15
340
15
340
15
340
48
340
15
340
15
340
48
340
15
340
15
340
16
340
15
340
48
340
15
340
15
340
47
340
15
340
15
340
16
340
15
340
48
340
15
340
15
340
15
340
15
340
15
340
15
340
15
340
15
340
15
340
48
340
15
340
15
340
15
340
15
340
15
340
15
340
15
340
15
340
15
340
15
340
15
340
4B
340
16
 94
        0
  0
ACAD_PROXY_OBJECT
  5
62F
102
{ACAD_REACTORS
330
73
102
}
330
73
100
AcDbProxyObject
 90
      499
 91
      523
 95
       25
 70
     0
 93
      253
310
43D1444494D454E53494F4E2C414D44545F2A5F44494D404A9012A404A9012A0
  0
ACAD_PROXY_OBJECT
  5
630
102
{ACAD_REACTORS
330
73
102
}
330
73
100
AcDbProxyObject
 90
      499
 91
      523
 95
       25
 70
     0
 93
      181
310
43D012A42D05357D191504B505357CA9012A404A9012A8
  0
ACAD_PROXY_OBJECT
  5
631
102
{ACAD_REACTORS
330
73
102
}
330
73
100
AcDbProxyObject
 90
      499
 91
      523
 95
       25
 70
     0
 93
      133
310
43D054841544348404A9012A404A9012A8
  0
ACAD_PROXY_OBJECT
  5
632
102
{ACAD_REACTORS
330
73
102
}
330
73
100
AcDbProxyObject
 90
      499
 91
      523
 95
       25
 70
     0
 93
      549
310
43D044C494E4549CE0B0E138B0A8B4E0B0A8B4E138B105357CE0B105357CE138B0A8B505357CE0B0A8B505357CE139012A404A910494E534552542C5354445041525432448
  0
ACAD_PROXY_OBJECT
  5
633
102
{ACAD_REACTORS
330
73
102
}
330
73
100
AcDbProxyObject
 90
      499
 91
      523
 95
       25
 70
     0
 93
      909
310
43D6641434D46434652414D452C41434D444154554D5441524745542C41434D444154554D49442C41434D57454C4453594D2C41434D5355524653594D2C41434D4645415449442C41434D504152545245462C41434D42414C4C4F4F4E2C414D44544544474553594D404A9012A404A9012A8
  0
XRECORD
  5
217B
102
{ACAD_REACTORS
330
217A
102
}
330
217A
100
AcDbXrecord
280
     1
  1
21000753__00___
  0

  0
XRECORD
  5
217D
102
{ACAD_REACTORS
330
217C
102
}
330
217C
100
AcDbXrecord
280
     1
  1
3
  0

  0
XRECORD
  5
EDCA
102
{ACAD_REACTORS
330
EDC9
102
}
330
EDC9
100
AcDbXrecord
280
     1
 90
-1073741824
  0
ACAD_PROXY_OBJECT
  5
4F
102
{ACAD_REACTORS
330
4E
102
}
330
4E
100
AcDbProxyObject
 90
      499
 91
      521
 95
       25
 70
     0
 93
      157
310
057356C1D77406406AA8FFFFFFFF05DD01009010
330
1F
330
0
330
EDA0
 94
        0
  0
ACAD_PROXY_OBJECT
  5
F94D
102
{ACAD_REACTORS
330
17E
102
}
330
17E
100
AcDbProxyObject
 90
      499
 91
      577
 95
       25
 70
     0
 93
     2497
310
5DC0000000000000C408030000C30040D254D3D01640600800030C0200800030C000000000000000C40C88A2085A0B6B23A22B233B2A9BA3220480A1C82C6DAA6EAE4CCA8CAF0E8A6E8C88120284A0B1B6A321A329BA3220480A1A82C6DAAECAD8C8D2DCCEA6E8C8812028420B1B6A4B229BA3220480A1682C6DA88C2E8EAD
310
AA6E8C88120284A0B1B6A127A6A9BA3220480A2082DAC8E888CAE8C2D2D8A6F2DAA6E8C88120288A0B6B23A29B2B1BA34B7B729BCB6A9BA3220480A2282DAC8E886CADCE8CAE498D2DCCAA6E8C88120288A0B6B23A2A343932B0B22634B732A9BA3220480A1682DAC8E89CDEE8CAA6E8C88120285A0B1A0B6B3A630BCA9BA3
310
220480A1682C682DACE88D2DAA6E8C88120288A0B1A0B6B3A437B632A1B430B93A29BA3220480A1A82C682DACEA8D2E8D8CAA6E8C8812032048080
340
F5A9
360
F94E
360
F94F
360
F950
360
F951
360
F952
360
F953
360
F954
360
F955
360
F956
360
F957
360
F958
360
F959
360
F95F
360
F960
360
F961
360
F962
340
0
340
0
 94
        0
  0
ACAD_PROXY_OBJECT
  5
17F
102
{ACAD_REACTORS
330
17E
102
}
330
17E
100
AcDbProxyObject
 90
      499
 91
      526
 95
       25
 70
     0
 93
     2379
310
5DC33333333333309408000000C00040D29254D01640600800030C0200800030C003333333333330940C8121E8720B1B6A9BAB9332A32BC3A29BA3220480A1282C6DA8C868CA6E8C88120286A0B1B6ABB2B63234B733A9BA3220480A1082C6DA92C8A6E8C88120285A0B1B6A230BA3AB6A9BA3220480A1282C6DA849E9AA6E
310
8C88120286A0B1A0B6B3AA34BA3632A9BA3220480A2082DAC8E888CAE8C2D2D8A6F2DAA6E8C88120288A0B6B23A29B2B1BA34B7B729BCB6A9BA3220480A2282DAC8E886CADCE8CAE498D2DCCAA6E8C88120288A0B6B23A2A343932B0B22634B732A9BA3220480A1682DAC8E89CDEE8CAA6E8C88120285A0B1A0B6B3A630BCA
310
9BA3220480A1682C682DACE88D2DAA6E8C88120288A0B1A0B6B3A437B632A1B430B93A29BA3220480C812020
340
180
360
181
360
182
360
183
360
184
360
185
360
186
360
EDA5
360
EDA6
360
EDA7
360
EDA9
360
EDAA
360
EDAB
360
EDB1
360
EDB2
360
EDB3
340
0
340
0
 94
        0
  0
ACAD_PROXY_OBJECT
  5
41
102
{ACAD_REACTORS
330
40
102
}
330
40
100
AcDbProxyObject
 90
      499
 91
      518
 95
       25
 70
     0
 93
     2930
310
4050B44574753455454494E4753A0E8482A68AA6A88882A069492A684A1A0A723A0A92920ACA0A809AA0C868A9C829C8E82A12686AF87260F862666A8321A2A72224A0A50602A2140ECC009A020E868A9C889282A682A106260F86460F8666083A1A2A72224A9AA250000000000000042020C868A9C988A9C9400000000000
310
0048808321A2A727A323250000000000000122020E868A9C9E8C8C62940000000000000488083A1A2A727A32319250000000000000122021CC6D0C2DACCCAE4C8D2DADADEC8CA9FC84A1A624A720A92920ACA0A809C2108698929C8AA8B2A082A0AB098929C8A84A22BA3AAA9A1A0A622A50A0E9882A6A89E849482A026084
310
26A0A5A2AB24A2ABA7E8120CA0A68682988A0C00800010652455649534941501304154D0D0531150540CC4E8C5085354414E44415244415034A4953425512535154D510535412802A81F945C8ADCD050756455253494F4E4150531352E3030441ED115D1D4D15515125391D4D153911F40
  0
ACAD_PROXY_OBJECT
  5
69
102
{ACAD_REACTORS
330
40
102
}
330
40
100
AcDbProxyObject
 90
      499
 91
      518
 95
       25
 70
     0
 93
      411
310
4050346454D21092DCC6E486DECACC942842630BCA3B937BAB820A8320A6AFA322A0A20F688AE8EA68AA8A8929C8EA68A9C88FA0
  0
ACAD_PROXY_OBJECT
  5
56
102
{ACAD_REACTORS
330
40
102
}
330
40
100
AcDbProxyObject
 90
      499
 91
      518
 95
       25
 70
     0
 93
      583
310
40505536861667421292DCE8CAE4E4EAE0E89FA0484A634B3B43A2634B732A7F21A98D2CED0E898D2DCCAACD2CAEE9FC8229B4B232A7E80A20F688AE8EA68AA8A8929C8EA68A9C88FA
  0
ACAD_PROXY_OBJECT
  5
4C
102
{ACAD_REACTORS
330
40
102
}
330
40
100
AcDbProxyObject
 90
      499
 91
      518
 95
       25
 70
     0
 93
      852
310
4050D5452414E5353455454494E4753A2488A482AE929C8EA8A4829CA69882A8929E9C0C00800050D4F524947494E414C4C595F4F4E0600400028529A7AAA921A2A620A723A0A81A52827212AAA0A48AA68AA4AC8A0C0080001107B44574753455454494E4753454E447D0
  0
ACAD_PROXY_OBJECT
  5
F94E
330
F94D
100
AcDbProxyObject
 90
      499
 91
      578
 95
       25
 70
     0
 93
       13
310
5DD8
  0
ACAD_PROXY_OBJECT
  5
F94F
330
F94D
100
AcDbProxyObject
 90
      499
 91
      579
 95
       25
 70
     0
 93
       96
310
5DEA0E80A0280A0280A0280F
  0
ACAD_PROXY_OBJECT
  5
F950
330
F94D
100
AcDbProxyObject
 90
      499
 91
      580
 95
       25
 70
     0
 93
      272
310
5DD0E4050140501405014050140501405014050140D01405012C0000000000000040
340
F5AA
 94
        0
  0
ACAD_PROXY_OBJECT
  5
F951
330
F94D
100
AcDbProxyObject
 90
      499
 91
      581
 95
       25
 70
     0
 93
      497
310
5DE8666666666667A67E199999999999E99FD22405014050140501405014050140501405014050140501405014050140501405014050140501405014050100
340
F5A5
 94
        0
  0
ACAD_PROXY_OBJECT
  5
F952
330
F94D
100
AcDbProxyObject
 90
      499
 91
      582
 95
       25
 70
     0
 93
       10
310
5DC0
  0
ACAD_PROXY_OBJECT
  5
F953
330
F94D
100
AcDbProxyObject
 90
      499
 91
      583
 95
       25
 70
     0
 93
      257
310
5DE290EA22A7D90F49F80000000000001081400000000000004204010000618000
340
F5A6
340
F5A7
 94
        0
  0
ACAD_PROXY_OBJECT
  5
F954
330
F94D
100
AcDbProxyObject
 90
      499
 91
      584
 95
       25
 70
     0
 93
    13013
310
5DD0E411255115350141236025B690140501406901000000000000091013347454E545241434F2C4A504E2C302C8D8096DA2C47454E54524154582C25732C2847454E4D53472067656E647767203232322940690120281A8AA2CA0282484A4BE52028120280A0320200000000000012202668E8A9CA8A482869E5894A09C58
310
605921292F94588E8A9CA8A482A8B0584AE658508E8A9C9AA68E40CECADCC8EECE406464665280D202405044E414D454050496BC914F4051C40640A80000000000004E404CD1D15395149050D3CB1294138B0C0B25AF2453CB11D15395149055160B095CCB0A11D1539354D1C819D95B991DD9C80C8C8D8A50192C3D494628
310
4953424C414E4B28504152543A4E414D45292C424C4F434B3A4E414D452C504152543A4E414D452940480A0A888AA686A480A09251B1DBE80A3A80C81D0000000000100A28099A3A2A72A2920A1A7962528271618164946C76F9623A2A72A2920AA2C1612B9961423A2A726A9A39033B2B7323BB39019189B94A0348090142
310
14D51053911054911014122D2E29A50147501904A000000000000125013347454E545241434F2C4A504E2C302C8B4B8A692C47454E54524154582C25732C2847454E4D53472067656E64776720323138294069012028426A0AA22A924A0A62028246EF4BDFA028EA0320B40000000000001CA02668E8A9CA8A482869E5894A
310
09C5860591BBD2F7E588E8A9CA8A482A8B0584AE658508E8A9C9AA68E40CECADCC8EECE406464625280D202405044E4F544540504928D8B4C4051D40641A80000000000003E404CD1D15395149050D3CB1294138B0C0B24A362D30B11D15395149055160B095CCB0A11D1539354D1C819D95B991DD9C80C8C8D4A501240480
310
A0CAC8A9C889EA480A1106F1072706BF02B680A3A80C83D00000000000007C809BA3A2A72A2920A1A79625282716181641BC41C9C1AFC0AD9623A2A72A2920AA2C1612B9961423A2A726A9A39033B2B7323BB39019191A14A0248090141911154D0D48C90141A43825AF880C90147501908A000000000020145013447454E5
310
45241434F2C4A504E2C302C90E096BE20322C47454E54524154582C25732C2847454E4D53472067656E6477672033362940490120284A9AA20A72220A922192028345A5C53490192028EA03213400000000000024A026A8E8A9CA8A482869E5894A09C586059169714D24064588E8A9CA8A482A8B0584AE658508E8A9C9AA6
310
8E40CECADCC8EECE4064646052809202405094D4154455249414C32405068DDE97BF20324051D40642A8713D0AD7A37045404D11D15395149050D3CB1294138B0C0B2377A5EFC80C8B11D15395149055160B095CCB0A11D1539354D1C819D95B991DD9C80D0C0A501240480A089A82A6A680A091D7F2F9480A3A80A0485A06
310
8100000000000007C809923A2A72A2920A1A796252827161816475FCBE51623A2A72A2920AA2C1612B9961423A2A726A9A39033B2B7323BB3901A1914A024809014154149250D150141226FE29A501475014090C409020000000000000F9013247454E545241434F2C4A504E2C302C89BF8A692C47454E54524154582C2573
310
2C2847454E4D53472067656E6477672034332940490120281A224A6A02824850CB202028EA028121A81A040000000000001F202648E8A9CA8A482869E5894A09C58605921432C80588E8A9CA8A482A8B0584AE658508E8A9C9AA68E40CECADCC8EECE406868528092024050E445020000000000000510201C00030C0001018
310
0000000000003E400000000000000F901073D3C4954454D3E4050180000000000003E400000000000000F901073D3C4954454D3E40501800000000000034400000000000000D101073D3C4954454D3E40501800000000000034400000000000000D101073D3C4954454D3E405029010000000000000F9000000000000003E4
310
041CF4F125511534F901418F4F1455164F9014060000000000000F9000000000000003E4041CF4F125511534F9014060000000000000D100000000000000344041CF4F125511534F901901000000000000000F9000000000000003E40A2200000000000008204018000618048220681A048120280C88214844882034852034
310
8452028521485214814000000000000F0BF0000000000003C2FD018020000C3008070000C3003373333333333B0FCCDCCCCCCCCCCEC3F000000000000031012034164050341105901A000000000000062040100006180401000061804008000618008098A02808
340
0
340
0
 94
        0
  0
ACAD_PROXY_OBJECT
  5
F955
330
F94D
100
AcDbProxyObject
 90
      499
 91
      585
 95
       25
 70
     0
 93
      898
310
5DC4000000000000144048CF4F11115510525317D3105091530F880A0F11115510525317D05094D4D0D053114F8A51141C9A9999999999B93F26A666666666724FC000000000000E03F400000000000000400000000000000510000000000000024408070000C300000000000000051000
340
16
340
F5A9
 94
        0
  0
ACAD_PROXY_OBJECT
  5
F956
330
F94D
100
AcDbProxyObject
 90
      499
 91
      586
 95
       25
 70
     0
 93
      823
310
5DC0B00000000000002880959E9E29A2A1AA24A7A72FA620A122A62FA324A929AA1F169E29A2A1AA24A7A72FA620A122A62FA620A9AA1F000000000000048803FFFE01C00030C0088C0380006180000000000000048800000000000000A2000000000000002880
340
652
340
F5A9
 94
        0
  0
ACAD_PROXY_OBJECT
  5
F957
330
F94D
100
AcDbProxyObject
 90
      499
 91
      587
 95
       25
 70
     0
 93
      152
310
5DE80000000000000840A3D0A5723F0BD1F200
  0
ACAD_PROXY_OBJECT
  5
F958
330
F94D
100
AcDbProxyObject
 90
      499
 91
      588
 95
       25
 70
     0
 93
       14
310
5DE0
340
0
 94
        0
  0
ACAD_PROXY_OBJECT
  5
F959
330
F94D
100
AcDbProxyObject
 90
      499
 91
      589
 95
       25
 70
     0
 93
     8619
310
5DD084050BA4050AA405024050E836583938376838C815B836720314043A013D2525633C486F6C653A63746469613E2078203C486F6C653A637464657074683E20555C503C696628657175616C28486F6C653A7461707065642C223022292C22252563222C486F6C653A6E6F6D696E616C202220782022293E3C6966286571
310
75616C28486F6C653A7461707065642C223022292C486F6C653A6469612C486F6C653A706974636864657363293E3C696628657175616C28486F6C653A7461707065642C223122292C22207820222C2222293E3C696628657175616C28486F6C653A7461707065642C223122292C486F6C653A74617064657074682C222229
310
3E203C696628657175616C28486F6C653A7465726D696E6174696F6E2C223022292C22202F20222C2222293E3C696628657175616C28486F6C653A7465726D696E6174696F6E2C223022292C486F6C653A64657074682C2222293E406901405034050E836583938376838C815B836720314043B013D2525633C486F6C653A6
310
3746469613E2078203C486F6C653A6374616E676C653E2525645C503C696628657175616C28486F6C653A7461707065642C223022292C22252563222C486F6C653A6E6F6D696E616C202220782022293E3C696628657175616C28486F6C653A7461707065642C223022292C486F6C653A6469612C486F6C653A70697463686
310
4657363293E3C696628657175616C28486F6C653A7461707065642C223122292C22207820222C2222293E3C696628657175616C28486F6C653A7461707065642C223122292C486F6C653A74617064657074682C2222293E203C696628657175616C28486F6C653A7465726D696E6174696F6E2C223022292C22202F20222C2
310
222293E3C696628657175616C28486F6C653A7465726D696E6174696F6E2C223022292C486F6C653A64657074682C2222293E406901405014050E836583938376838C815B8367203140416013D3C696628657175616C28486F6C653A7461707065642C223022292C22252563222C486F6C653A6E6F6D696E616C2022207820
310
22293E3C696628657175616C28486F6C653A7461707065642C223022292C486F6C653A6469612C486F6C653A706974636864657363293E3C696628657175616C28486F6C653A7461707065642C223122292C22207820222C2222293E3C696628657175616C28486F6C653A7461707065642C223122292C486F6C653A746170
310
64657074682C2222293E203C696628657175616C28486F6C653A7465726D696E6174696F6E2C223022292C22202F20222C2222293E3C696628657175616C28486F6C653A7465726D696E6174696F6E2C223022292C486F6C653A64657074682C2222293E4069014051E4090E836583938376838C815B83672032405173D3C5
310
35444503A444553433E203C535444503A5354443E40690E836583938376838C815B836720314050C3D3C535444503A444553433E40690240515AAABBA120
360
F95A
330
F95A
360
F95B
330
F95B
360
F95C
330
F95C
360
F95D
360
F95E
330
F95D
330
F95E
 94
        0
  0
ACAD_PROXY_OBJECT
  5
F95F
330
F94D
100
AcDbProxyObject
 90
      499
 91
      568
 95
       25
 70
     0
 93
       26
310
5DD02A80
340
0
 94
        0
  0
ACAD_PROXY_OBJECT
  5
F960
330
F94D
100
AcDbProxyObject
 90
      499
 91
      569
 95
       25
 70
     0
 93
      250
310
5DD020000000000000A1000000000000002440408F0F9023C3E409A0DCFFFF80
340
F5AE
340
0
340
0
340
F5AF
340
F5B0
340
F5B1
340
F5B2
340
F5B3
340
F5B4
340
0
 94
        0
  0
ACAD_PROXY_OBJECT
  5
F961
330
F94D
100
AcDbProxyObject
 90
      499
 91
      590
 95
       25
 70
     0
 93
    13889
310
5DD1D003FFFFFFFD030300030000000000000310200800030C01030300030000000000000310200800030C00050C8DC0955782CC838A83588367014ED1D15395149050D3CB1294138B0C0B23702555E0B320E2A0D620D9CB11D15395149055160B095CCB0A11D1539354D1C819D95B991A5B5E880CCC0A78000C0000000000
310
00000000000000000000010000000000000310200800030C010000000000000310200800030C020143CF4F111959985D5B1D151A5D1B194F8050A8C8A8365815B8375838B014E51D15395149050D3CB1294138B0C0B2322A0D96056E0DD60E2CB11D15395149055160B095CCB0A11D1539354D1C819D95B991A5B5E880CCC4
310
A78000C000000000000000000000000000000010000000000000310200800030C010000000000000310200800030C020143CF4F111959985D5B1D151A5D1B194F90D44111409034110541D0C4350F4050E44D03449074510F000141232D24D7C053247454E545241434F2C4A504E2C302C8CB4935F2C47454E54524154582C
310
25732C2847454E4D53472067656E64696D7A20312900010104002214000281464500A608E8A9CA8A482869E5894A09C5860591914588E8A9CA8A482A8B0584AE658508E8A9C9AA68E40CECADCC8D2DAF4406452029E9E9E27B934B3B4B71F1E24A31427A91424A9A12620A7259427B934B3B4B7149624A9A12620A7259424B
310
A32B6949496111116111711149F1E24BA32B69F00808200111A000140560052F47454E545241434F2C4A504E2C302C582C47454E54524154582C25732C2847454E4D53472067656E64696D7A20332900010100002054000280AC80A5E8E8A9CA8A482869E5894A09C586058B2588E8A9CA8A482A8B0584AE658508E8A9C9AA
310
68E40CECADCC8D2DAF4406852000202000040E800050152014BD1D15395149050D3CB1294138B0C0B148B11D15395149055160B095CCB0A11D1539354D1C819D95B991A5B5E880D8A400040400008250000A0507A6029823A2A72A2920A1A79625282716181641E99623A2A72A2920AA2C1612B9961423A2A726A9A39033B2
310
B73234B6BD101B948000808180105A000140A0F4C053047454E545241434F2C4A504E2C302C83D32C47454E54524154582C25732C2847454E4D53472067656E64696D7A203829000101010020F400028248704B5F00A668E8A9CA8A482869E5894A09C58605921C12D7C588E8A9CA8A482A8B0584AE658508E8A9C9AA68E40
310
CECADCC8D2DAF440646052000200080043280005048B4B8A69014CD1D15395149050D3CB1294138B0C0B22D2E29A4B11D15395149055160B095CCB0A11D1539354D1C819D95B991A5B5E880C8C4A4000400100086D0000A09196926BE029923A2A72A2920A1A796252827161816465A49AF9623A2A72A2920AA2C1612B9961
310
423A2A726A9A39033B2B73234B6BD10189480A02620202080043E80005048D8096DA014CD1D15395149050D3CB1294138B0C0B236025B68B11D15395149055160B095CCB0A11D1539354D1C819D95B991A5B5E880C4D0A4000404140280D0000A190687072706CD06C5069D06B0029DA3A2A72A2920A1A7962528271618164
310
1A1C1C9C1B341B141A741AC1623A2A72A2920AA2C1612B9961423A2A726A9A39033B2B73234B6BD10189A94800080828050EA000143A322A0D0E0E4E0D9A0D8A0D3A0D60053D47454E545241434F2C4A504E2C302C8C8A8343839383668362834E83582C47454E54524154582C25732C2847454E4D53472067656E64696D7A
310
2031372900010105002274000281464500A628E8A9CA8A482869E5894A09C5860591914588E8A9CA8A482A8B0584AE658508E8A9C9AA68E40CECADCC8D2DAF440626C52000202080044A8000504909497CA014CD1D15395149050D3CB1294138B0C0B242525F28B11D15395149055160B095CCB0A11D1539354D1C819D95B9
310
91A5B5E880C4E4A400040418008A521E000000000000001CA040C00000000000034408080000000000006881010000000000000D102040000000000001A204080000000000003440818000000000000728103000000000000125020600000000004028A040000000000000034408000000000000004881000000000000000D
310
102000000000000001A204000000000000003440818000000000000508143C0000000000000039408180000000000006881030000000000000D102060000000000001A2040C00000000000034408180000000000006881030000000000000E5020600000000000024A040C0000000000805140800000000000000688100000
310
00000000009102000000000000001A2040000000000000034408180000000000006881030000000000000A10284220000000878000002020000008380000020400000081800000208000000828000002028900000000
340
0
340
0
340
0
340
0
340
F5A9
340
F5A9
 94
        0
  0
ACAD_PROXY_OBJECT
  5
F962
330
F94D
100
AcDbProxyObject
 90
      499
 91
      561
 95
       25
 70
     0
 93
     7018
310
5DD9740D254D3D0649534F5F4133429254D3D7D5125513115051349534F5F42525F5265766973696F6E6C69737446111413478342028323937783834316D6D2920421254D3D7D04D1E0D11141327835202835393478323130326D6D29421254D3D7D04C9E0D51141337837202834323078323038306D6D29421254D3D7D04C
310
DE0DD1141347839202832393778313839326D6D29421254D3D7D04D1E0E50E41312028353934783834316D6D29419254D3D7D04C51141327834202835393478313638326D6D29421254D3D7D04C9E0D11141347838202832393778313638326D6D29421254D3D7D04D1E0E10E41332028323937783432306D6D29419254D3D
310
7D04CD104130202838343078313138396D6D2920419254D3D7D04C11141347835202832393778313035316D6D29421254D3D7D04D1E0D51141347836202832393778313236316D6D29421254D3D7D04D1E0D91141347837202832393778313437316D6D29421254D3D7D04D1E0DD1141327833202835393478313236316D6D
310
29421254D3D7D04C9E0CD1141337834202834323078313138396D6D29421254D3D7D04CDE0D110413478332028323937783633306D6D29421254D3D7D04D1E0CD1141337835202834323078313438366D6D29421254D3D7D04CDE0D51141337836202834323078313738336D6D29421254D3D7D04CDE0D9104133783320283
310
43230783839316D6D29421254D3D7D04CDE0CD0E41322028343230783539346D6D29419254D3D7D04C9124130783220283131383978313638326D6D29421254D3D7D04C1E0C90E41342028323937783231306D6D29419254D3D7D04D1124130783320283131383978323532336D6D29421254D3D7D04C1E0CD114131783420
310
2838343178323337386D6D29421254D3D7D04C5E0D11141317833202838343178313738336D6D29421254D3D7D04C5E0CD02431254D3C82557247A25E4C81050A49534F5F5449544C4541431254D3C82557247A25E4C81090A49534F5F5449544C45424110E979A97F0838A835883675F42525F44D254D3D7D09497D4995D9
310
A5CDA5BDB9B1A5CDD10E979A97F0838A835883675F54525F44D254D3D7D51497D4995D9A5CDA5BDB9B1A5CDD10E979A97F0838A835883675F424C5F44D254D3D7D09317D4995D9A5CDA5BDB9B1A5CDD10E979A97F0838A835883675F544C5F44D254D3D7D51317D4995D9A5CDA5BDB9B1A5CDD00
  0
ACAD_PROXY_OBJECT
  5
181
330
17F
100
AcDbProxyObject
 90
      499
 91
      527
 95
       25
 70
     0
 93
       86
310
5DEA0C80A0280A0280A034
  0
ACAD_PROXY_OBJECT
  5
182
330
17F
100
AcDbProxyObject
 90
      499
 91
      528
 95
       25
 70
     0
 93
      282
310
5DD0E4050140501405014050140501405014050141101405014041000000000000001000
340
187
 94
        0
  0
ACAD_PROXY_OBJECT
  5
183
330
17F
100
AcDbProxyObject
 90
      499
 91
      529
 95
       25
 70
     0
 93
      323
310
5DCC199999999999E99F91740501405014050140501405014050140501405014050140501405014040
340
0
 94
        0
  0
ACAD_PROXY_OBJECT
  5
184
330
17F
100
AcDbProxyObject
 90
      499
 91
      530
 95
       25
 70
     0
 93
       10
310
5DC0
  0
ACAD_PROXY_OBJECT
  5
185
330
17F
100
AcDbProxyObject
 90
      499
 91
      531
 95
       25
 70
     0
 93
      257
310
5DE0C16A22A7D90F49F80000000000001081400000000000004204010000618000
340
188
340
189
 94
        0
  0
ACAD_PROXY_OBJECT
  5
186
330
17F
100
AcDbProxyObject
 90
      499
 91
      532
 95
       25
 70
     0
 93
     5277
310
5DD06411255115350141236025B6901405014069010000000000000910240690120281A8AA2CA0282484A4BE52028120280A032020000000000001220480D202405044E414D454050496BC914F4051C40640A80000000000004E4090193C3D3C4946284953424C414E4B28504152543A4E414D45292C424C4F434B3A4E414D
310
452C504152543A4E414D45293E3C41435F44455343524950544E3E40480A109A82A88AA492829880A091BBD2F7E80A3A80C81D0E27A15AF46E08A81203480901411393D5115014124A363B7D0147501904A0000000000000F902406428F4F1050D7D393D5114F901202832B22A72227A92028366EF6EE06F582028EA0320B4
310
0000000000001F20480C879E9E20A1AFAB27222FA620A122A61F20240506445020000000000000490201C00030C00010180000000000003E400000000000000F901073D3C4954454D3E4050180000000000003E400000000000000F901073D3C4954454D3E40501800000000000034400000000000000D101073D3C4954454
310
D3E40501800000000000034400000000000000D101073D3C4954454D3E405029010000000000000F9000000000000003E4041CF4F125511534F901418F4F1455164F9014060000000000000F9000000000000003E4041CF4F125511534F901800000000000034400000000000000D101073D3C4954454D3E40640400000000
310
0000003E400000000000000F90288800000000000020810000001800120881A068120480A032208521122080D21480D211480A1485214852050000000000003C2FC000000000000F0BF40600800030C0200400030C00CDCCCCCCCCCCEC3F3373333333333B0FC3333333333330940C80D069014090341504901A1999999999
310
9984A040100006180400800061804010000618008098A02808
340
0
340
0
 94
        0
  0
ACAD_PROXY_OBJECT
  5
EDA5
330
17F
100
AcDbProxyObject
 90
      499
 91
      561
 95
       25
 70
     0
 93
     3042
310
5DD9740D29254D064A49535F413342929254D7D512551311505134A49535F42525F5265766973696F6E6C6973744190F4134522028323937783231306D6D2941D29254D7D04D1490E41312028353934783834316D6D2941929254D7D04C50F41344C2028323130783239376D6D2941D29254D7D04D1310E413320283239377
310
83432306D6D2941929254D7D04CD0E41322028343230783539346D6D2941929254D7D04C90F4130202838343178313138396D6D2941929254D7D04C10243129254C82557247A25E4C81050A4A49535F5449544C454143129254C82557247A25E4C81090A4A49535F5449544C45424110E979A97F0838A835883675F42525F4
310
4D29254D7D09497D4995D9A5CDA5BDB9B1A5CDD10E979A97F0838A835883675F54525F44D29254D7D51497D4995D9A5CDA5BDB9B1A5CDD10E979A97F0838A835883675F424C5F44D29254D7D09317D4995D9A5CDA5BDB9B1A5CDD10E979A97F0838A835883675F544C5F44D29254D7D51317D4995D9A5CDA5BDB9B1A5CDD00
  0
ACAD_PROXY_OBJECT
  5
EDA6
330
17F
100
AcDbProxyObject
 90
      499
 91
      562
 95
       25
 70
     0
 93
      898
310
5DC4000000000000124048CF4F11115510525317D3105091530F880A0F11115510525317D05094D4D0D053114F8A50241C9A9999999999B93F26A666666666724FC000000000000E03F400000000000000400000000000000510000000000000024408070000C300000000000000049000
340
16
340
180
 94
        0
  0
ACAD_PROXY_OBJECT
  5
EDA7
330
17F
100
AcDbProxyObject
 90
      499
 91
      563
 95
       25
 70
     0
 93
      823
310
5DC0B00000000000002480959E9E29A2A1AA24A7A72FA620A122A62FA324A929AA1F169E29A2A1AA24A7A72FA620A122A62FA620A9AA1F000000000000048803FFFE01C00030C008140380006180000000000000048800000000000000A2000000000000002480
340
652
340
180
 94
        0
  0
ACAD_PROXY_OBJECT
  5
EDA9
330
17F
100
AcDbProxyObject
 90
      499
 91
      564
 95
       25
 70
     0
 93
      152
310
5DE8273108AC1C5A0640A3D0A5723F0BD1F200
  0
ACAD_PROXY_OBJECT
  5
EDAA
330
17F
100
AcDbProxyObject
 90
      499
 91
      565
 95
       25
 70
     0
 93
       14
310
5DE0
340
0
 94
        0
  0
ACAD_PROXY_OBJECT
  5
EDAB
330
17F
100
AcDbProxyObject
 90
      499
 91
      566
 95
       25
 70
     0
 93
     6059
310
5DD084050BA4050AA405024050E836583938376838C815B83672031405983D3C486F6C653A6469613E3C696628657175616C28486F6C653A7465726D696E6174696F6E2C223022292C2220905B82B320222C22208368838A838B22293E3C696628657175616C28486F6C653A7465726D696E6174696F6E2C223022292C486F
310
6C653A64657074682C2222293E2C203C486F6C653A63746469613E2082B482AE82E882CC905B82B3203C486F6C653A637464657074683E406901405034050E836583938376838C815B83672031405EF3D3C486F6C653A6374616E676C653E252564202525633C486F6C653A63746469613E208E4D8C8A2C203C69662865717
310
5616C28486F6C653A7461707065642C223022292C22252563222C486F6C653A6E6F6D696E616C202220782022293E3C696628657175616C28486F6C653A7461707065642C223022292C486F6C653A6469612C486F6C653A706974636864657363293E203C696628657175616C28486F6C653A7465726D696E6174696F6E2C2
310
23022292C22905B82B320222C222022293E3C696628657175616C28486F6C653A7465726D696E6174696F6E2C223022292C486F6C653A64657074682C2222293E406901405014050E836583938376838C815B83672031405C73D3C696628657175616C28486F6C653A7461707065642C223022292C22252563222C486F6C65
310
3A6E6F6D696E616C202220782022293E3C696628657175616C28486F6C653A7461707065642C223022292C486F6C653A6469612C486F6C653A706974636864657363293E203C696628657175616C28486F6C653A7465726D696E6174696F6E2C223022292C22905B82B320222C222022293E3C696628657175616C28486F6C
310
653A7465726D696E6174696F6E2C223022292C486F6C653A64657074682C2222293E4069014051E4090E836583938376838C815B83672032405173D3C535444503A444553433E203C535444503A5354443E40690E836583938376838C815B836720314050C3D3C535444503A444553433E40690240515AAABBA120
360
EDAF
330
EDAF
360
EDB0
330
EDB0
360
EDAE
330
EDAE
360
EDAD
360
EDAC
330
EDAD
330
EDAC
 94
        0
  0
ACAD_PROXY_OBJECT
  5
EDB1
330
17F
100
AcDbProxyObject
 90
      499
 91
      568
 95
       25
 70
     0
 93
       26
310
5DD02A80
340
42
 94
        0
  0
ACAD_PROXY_OBJECT
  5
EDB2
330
17F
100
AcDbProxyObject
 90
      499
 91
      569
 95
       25
 70
     0
 93
      250
310
5DD020000000000000A1000000000000002440408F0F9023C3E409A0DCFFFF80
340
58
340
18A8
340
18A9
340
5F
340
60
340
61
340
62
340
63
340
68
340
0
 94
        0
  0
ACAD_PROXY_OBJECT
  5
EDB3
330
17F
100
AcDbProxyObject
 90
      499
 91
      570
 95
       25
 70
     0
 93
    13889
310
5DD1D003FFFFFFFD030300030CCCCCCCCCCCC250200800030C01030300030CCCCCCCCCCCC250200800030C00050C8DC0955782CC838A83588367014ED1D15395149050D3CB1294138B0C0B23702555E0B320E2A0D620D9CB11D15395149055160B095CCB0A11D1539354D1C819D95B991A5B5E880CCC0A78000C0000000000
310
00000000000000000000010CCCCCCCCCCCC250200800030C010CCCCCCCCCCCC250200800030C020143CF4F111959985D5B1D151A5D1B194F8050A8C8A8365815B8375838B014E51D15395149050D3CB1294138B0C0B2322A0D96056E0DD60E2CB11D15395149055160B095CCB0A11D1539354D1C819D95B991A5B5E880CCC4
310
A78000C000000000000000000000000000000010CCCCCCCCCCCC250200800030C010CCCCCCCCCCCC250200800030C020143CF4F111959985D5B1D151A5D1B194F90D44111409034110541D0C4350F4050E44D03449074510F000141232D24D7C053247454E545241434F2C4A504E2C302C8CB4935F2C47454E54524154582C
310
25732C2847454E4D53472067656E64696D7A20312900010104002214000281464500A608E8A9CA8A482869E5894A09C5860591914588E8A9CA8A482A8B0584AE658508E8A9C9AA68E40CECADCC8D2DAF4406452029E9E9E27B934B3B4B71F1E24A31427A91424A9A12620A7259427B934B3B4B7149624A9A12620A7259424B
310
A32B6949496111116111711149F1E24BA32B69F00808200111A000140560052F47454E545241434F2C4A504E2C302C582C47454E54524154582C25732C2847454E4D53472067656E64696D7A20332900010100002054000280AC80A5E8E8A9CA8A482869E5894A09C586058B2588E8A9CA8A482A8B0584AE658508E8A9C9AA
310
68E40CECADCC8D2DAF4406852000202000040E800050152014BD1D15395149050D3CB1294138B0C0B148B11D15395149055160B095CCB0A11D1539354D1C819D95B991A5B5E880D8A400040400008250000A0507A6029823A2A72A2920A1A79625282716181641E99623A2A72A2920AA2C1612B9961423A2A726A9A39033B2
310
B73234B6BD101B948000808180105A000140A0F4C053047454E545241434F2C4A504E2C302C83D32C47454E54524154582C25732C2847454E4D53472067656E64696D7A203829000101010020F400028248704B5F00A668E8A9CA8A482869E5894A09C58605921C12D7C588E8A9CA8A482A8B0584AE658508E8A9C9AA68E40
310
CECADCC8D2DAF440646052000200080043280005048B4B8A69014CD1D15395149050D3CB1294138B0C0B22D2E29A4B11D15395149055160B095CCB0A11D1539354D1C819D95B991A5B5E880C8C4A4000400100086D0000A09196926BE029923A2A72A2920A1A796252827161816465A49AF9623A2A72A2920AA2C1612B9961
310
423A2A726A9A39033B2B73234B6BD10189480A02620202080043E80005048D8096DA014CD1D15395149050D3CB1294138B0C0B236025B68B11D15395149055160B095CCB0A11D1539354D1C819D95B991A5B5E880C4D0A4000404140280D0000A190687072706CD06C5069D06B0029DA3A2A72A2920A1A7962528271618164
310
1A1C1C9C1B341B141A741AC1623A2A72A2920AA2C1612B9961423A2A726A9A39033B2B73234B6BD10189A94800080820050EA000143A322A0D0E0E4E0D9A0D8A0D3A0D60053D47454E545241434F2C4A504E2C302C8C8A8343839383668362834E83582C47454E54524154582C25732C2847454E4D53472067656E64696D7A
310
2031372900010105002274000281464500A628E8A9CA8A482869E5894A09C5860591914588E8A9CA8A482A8B0584AE658508E8A9C9AA68E40CECADCC8D2DAF440626C52000202080044A8000504909497CA014CD1D15395149050D3CB1294138B0C0B242525F28B11D15395149055160B095CCB0A11D1539354D1C819D95B9
310
91A5B5E880C4E4A400040418008A521E000000000000001CA040C00000000000034408080000000000006881010000000000000D102040000000000001A204080000000000003440818000000000000728103000000000000125020600000000004028A040000000000000034408000000000000004881000000000000000D
310
102000000000000001A204000000000000003440818000000000000508143C0000000000000039408180000000000006881030000000000000D102060000000000001A2040C00000000000034408180000000000006881030000000000000E5020600000000000024A040C0000000000805140800000000000000688100000
310
00000000009102000000000000001A2040000000000000034408180000000000006881030000000000000A10284220000000878000002020000008380000020400000081800000208000000828000002028900000000
340
0
340
0
340
0
340
0
340
180
340
180
 94
        0
  0
ACAD_PROXY_OBJECT
  5
F95A
330
F959
100
AcDbProxyObject
 90
      499
 91
      567
 95
       25
 70
     0
 93
     2680
310
5DE0143A0D960E4E0DDA0E32056E0D9C80C4043A013D2525633C486F6C653A63746469613E2078203C486F6C653A637464657074683E20555C503C696628657175616C28486F6C653A7461707065642C223022292C22252563222C486F6C653A6E6F6D696E616C202220782022293E3C696628657175616C28486F6C653A74
310
61707065642C223022292C486F6C653A6469612C486F6C653A706974636864657363293E3C696628657175616C28486F6C653A7461707065642C223122292C22207820222C2222293E3C696628657175616C28486F6C653A7461707065642C223122292C486F6C653A74617064657074682C2222293E203C69662865717561
310
6C28486F6C653A7465726D696E6174696F6E2C223022292C22202F20222C2222293E3C696628657175616C28486F6C653A7465726D696E6174696F6E2C223022292C486F6C653A64657074682C2222293E
  0
ACAD_PROXY_OBJECT
  5
F95B
330
F959
100
AcDbProxyObject
 90
      499
 91
      567
 95
       25
 70
     0
 93
     2688
310
5DE0143A0D960E4E0DDA0E32056E0D9C80C4043B013D2525633C486F6C653A63746469613E2078203C486F6C653A6374616E676C653E2525645C503C696628657175616C28486F6C653A7461707065642C223022292C22252563222C486F6C653A6E6F6D696E616C202220782022293E3C696628657175616C28486F6C653A
310
7461707065642C223022292C486F6C653A6469612C486F6C653A706974636864657363293E3C696628657175616C28486F6C653A7461707065642C223122292C22207820222C2222293E3C696628657175616C28486F6C653A7461707065642C223122292C486F6C653A74617064657074682C2222293E203C696628657175
310
616C28486F6C653A7465726D696E6174696F6E2C223022292C22202F20222C2222293E3C696628657175616C28486F6C653A7465726D696E6174696F6E2C223022292C486F6C653A64657074682C2222293E
  0
ACAD_PROXY_OBJECT
  5
F95C
330
F959
100
AcDbProxyObject
 90
      499
 91
      567
 95
       25
 70
     0
 93
     2392
310
5DE0143A0D960E4E0DDA0E32056E0D9C80C40416013D3C696628657175616C28486F6C653A7461707065642C223022292C22252563222C486F6C653A6E6F6D696E616C202220782022293E3C696628657175616C28486F6C653A7461707065642C223022292C486F6C653A6469612C486F6C653A706974636864657363293E
310
3C696628657175616C28486F6C653A7461707065642C223122292C22207820222C2222293E3C696628657175616C28486F6C653A7461707065642C223122292C486F6C653A74617064657074682C2222293E203C696628657175616C28486F6C653A7465726D696E6174696F6E2C223022292C22202F20222C2222293E3C69
310
6628657175616C28486F6C653A7465726D696E6174696F6E2C223022292C486F6C653A64657074682C2222293E
  0
ACAD_PROXY_OBJECT
  5
F95D
330
F959
100
AcDbProxyObject
 90
      499
 91
      567
 95
       25
 70
     0
 93
      344
310
5DE0143A0D960E4E0DDA0E32056E0D9C80C805173D3C535444503A444553433E203C535444503A5354443E
  0
ACAD_PROXY_OBJECT
  5
F95E
330
F959
100
AcDbProxyObject
 90
      499
 91
      567
 95
       25
 70
     0
 93
      256
310
5DE0143A0D960E4E0DDA0E32056E0D9C80C4050C3D3C535444503A444553433E
  0
ACAD_PROXY_OBJECT
  5
EDAF
330
EDAB
100
AcDbProxyObject
 90
      499
 91
      567
 95
       25
 70
     0
 93
     1376
310
5DE0143A0D960E4E0DDA0E32056E0D9C80C405983D3C486F6C653A6469613E3C696628657175616C28486F6C653A7465726D696E6174696F6E2C223022292C2220905B82B320222C22208368838A838B22293E3C696628657175616C28486F6C653A7465726D696E6174696F6E2C223022292C486F6C653A64657074682C22
310
22293E2C203C486F6C653A63746469613E2082B482AE82E882CC905B82B3203C486F6C653A637464657074683E
  0
ACAD_PROXY_OBJECT
  5
EDB0
330
EDAB
100
AcDbProxyObject
 90
      499
 91
      567
 95
       25
 70
     0
 93
     2072
310
5DE0143A0D960E4E0DDA0E32056E0D9C80C405EF3D3C486F6C653A6374616E676C653E252564202525633C486F6C653A63746469613E208E4D8C8A2C203C696628657175616C28486F6C653A7461707065642C223022292C22252563222C486F6C653A6E6F6D696E616C202220782022293E3C696628657175616C28486F6C
310
653A7461707065642C223022292C486F6C653A6469612C486F6C653A706974636864657363293E203C696628657175616C28486F6C653A7465726D696E6174696F6E2C223022292C22905B82B320222C222022293E3C696628657175616C28486F6C653A7465726D696E6174696F6E2C223022292C486F6C653A6465707468
310
2C2222293E
  0
ACAD_PROXY_OBJECT
  5
EDAE
330
EDAB
100
AcDbProxyObject
 90
      499
 91
      567
 95
       25
 70
     0
 93
     1752
310
5DE0143A0D960E4E0DDA0E32056E0D9C80C405C73D3C696628657175616C28486F6C653A7461707065642C223022292C22252563222C486F6C653A6E6F6D696E616C202220782022293E3C696628657175616C28486F6C653A7461707065642C223022292C486F6C653A6469612C486F6C653A706974636864657363293E20
310
3C696628657175616C28486F6C653A7465726D696E6174696F6E2C223022292C22905B82B320222C222022293E3C696628657175616C28486F6C653A7465726D696E6174696F6E2C223022292C486F6C653A64657074682C2222293E
  0
ACAD_PROXY_OBJECT
  5
EDAD
330
EDAB
100
AcDbProxyObject
 90
      499
 91
      567
 95
       25
 70
     0
 93
      344
310
5DE0143A0D960E4E0DDA0E32056E0D9C80C805173D3C535444503A444553433E203C535444503A5354443E
  0
ACAD_PROXY_OBJECT
  5
EDAC
330
EDAB
100
AcDbProxyObject
 90
      499
 91
      567
 95
       25
 70
     0
 93
      256
310
5DE0143A0D960E4E0DDA0E32056E0D9C80C4050C3D3C535444503A444553433E
  0
ENDSEC
  0
EOF
