  0
SECTION
  2
HEADER
  9
$ACADVER
  1
AC1014
  9
$ACADMAINTVER
 70
     9
  9
$DWGCODEPAGE
  3
ANSI_932
  9
$INSBASE
 10
0.0
 20
0.0
 30
0.0
  9
$EXTMIN
 10
-147.6342580475429
 20
-49.24406582610372
 30
-0.00000001
  9
$EXTMAX
 10
91.08931445626216
 20
85.64094443245039
 30
0.00000001
  9
$LIMMIN
 10
-213.3024795535802
 20
-90.95588373145028
  9
$LIMMAX
 10
143.3961809310303
 20
133.343975728676
  9
$ORTHOMODE
 70
     0
  9
$REGENMODE
 70
     1
  9
$FILLMODE
 70
     1
  9
$QTEXTMODE
 70
     0
  9
$MIRRTEXT
 70
     1
  9
$DRAGMODE
 70
     2
  9
$LTSCALE
 40
1.0
  9
$OSMODE
 70
    55
  9
$ATTMODE
 70
     1
  9
$TEXTSIZE
 40
2.5
  9
$TRACEWID
 40
1.0
  9
$TEXTSTYLE
  7
STANDARD
  9
$CLAYER
  8
AM_5
  9
$CELTYPE
  6
BYLAYER
  9
$CECOLOR
 62
   256
  9
$CELTSCALE
 40
1.0
  9
$DELOBJ
 70
     1
  9
$DISPSILH
 70
     0
  9
$DIMSCALE
 40
1.0
  9
$DIMASZ
 40
2.5
  9
$DIMEXO
 40
0.0
  9
$DIMDLI
 40
10.0
  9
$DIMRND
 40
0.0
  9
$DIMDLE
 40
0.0
  9
$DIMEXE
 40
1.0
  9
$DIMTP
 40
0.1
  9
$DIMTM
 40
0.1000000001
  9
$DIMTXT
 40
3.799999999999999
  9
$DIMCEN
 40
0.0
  9
$DIMTSZ
 40
0.0
  9
$DIMTOL
 70
     0
  9
$DIMLIM
 70
     0
  9
$DIMTIH
 70
     0
  9
$DIMTOH
 70
     0
  9
$DIMSE1
 70
     0
  9
$DIMSE2
 70
     0
  9
$DIMTAD
 70
     3
  9
$DIMZIN
 70
     9
  9
$DIMBLK
  1
OPEN30
  9
$DIMASO
 70
     1
  9
$DIMSHO
 70
     1
  9
$DIMPOST
  1

  9
$DIMAPOST
  1
"
  9
$DIMALT
 70
     0
  9
$DIMALTD
 70
     2
  9
$DIMALTF
 40
0.0393701
  9
$DIMLFAC
 40
1.0
  9
$DIMTOFL
 70
     1
  9
$DIMTVP
 40
0.0
  9
$DIMTIX
 70
     0
  9
$DIMSOXD
 70
     0
  9
$DIMSAH
 70
     0
  9
$DIMBLK1
  1

  9
$DIMBLK2
  1

  9
$DIMSTYLE
  2
AM_JIS
  9
$DIMCLRD
 70
   256
  9
$DIMCLRE
 70
   256
  9
$DIMCLRT
 70
     2
  9
$DIMTFAC
 40
0.71
  9
$DIMGAP
 40
1.5
  9
$DIMJUST
 70
     0
  9
$DIMSD1
 70
     0
  9
$DIMSD2
 70
     0
  9
$DIMTOLJ
 70
     0
  9
$DIMTZIN
 70
     8
  9
$DIMALTZ
 70
     0
  9
$DIMALTTZ
 70
     0
  9
$DIMFIT
 70
     3
  9
$DIMUPT
 70
     0
  9
$DIMUNIT
 70
     2
  9
$DIMDEC
 70
     2
  9
$DIMTDEC
 70
     2
  9
$DIMALTU
 70
     2
  9
$DIMALTTD
 70
     2
  9
$DIMTXSTY
  7
STANDARD
  9
$DIMAUNIT
 70
     1
  9
$LUNITS
 70
     2
  9
$LUPREC
 70
     2
  9
$SKETCHINC
 40
1.0
  9
$FILLETRAD
 40
0.0
  9
$AUNITS
 70
     1
  9
$AUPREC
 70
     5
  9
$MENU
  1
.
  9
$ELEVATION
 40
0.0
  9
$PELEVATION
 40
0.0
  9
$THICKNESS
 40
0.0
  9
$LIMCHECK
 70
     0
  9
$BLIPMODE
 70
     0
  9
$CHAMFERA
 40
0.5
  9
$CHAMFERB
 40
0.5
  9
$CHAMFERC
 40
20.0
  9
$CHAMFERD
 40
0.0
  9
$SKPOLY
 70
     0
  9
$TDCREATE
 40
2451943.610431666
  9
$TDUPDATE
 40
2453151.555508518
  9
$TDINDWG
 40
0.4461513426
  9
$TDUSRTIMER
 40
0.4461511690
  9
$USRTIMER
 70
     1
  9
$ANGBASE
 50
0.0
  9
$ANGDIR
 70
     0
  9
$PDMODE
 70
     0
  9
$PDSIZE
 40
0.0
  9
$PLINEWID
 40
0.0
  9
$COORDS
 70
     1
  9
$SPLFRAME
 70
     0
  9
$SPLINETYPE
 70
     6
  9
$SPLINESEGS
 70
     8
  9
$ATTDIA
 70
     1
  9
$ATTREQ
 70
     1
  9
$HANDLING
 70
 12289
  9
$HANDSEED
  5
7F94
  9
$SURFTAB1
 70
     6
  9
$SURFTAB2
 70
     6
  9
$SURFTYPE
 70
     6
  9
$SURFU
 70
     6
  9
$SURFV
 70
     6
  9
$UCSNAME
  2

  9
$UCSORG
 10
0.0
 20
0.0
 30
0.0
  9
$UCSXDIR
 10
1.0
 20
0.0
 30
0.0
  9
$UCSYDIR
 10
0.0
 20
1.0
 30
0.0
  9
$PUCSNAME
  2

  9
$PUCSORG
 10
0.0
 20
0.0
 30
0.0
  9
$PUCSXDIR
 10
1.0
 20
0.0
 30
0.0
  9
$PUCSYDIR
 10
0.0
 20
1.0
 30
0.0
  9
$USERI1
 70
     0
  9
$USERI2
 70
     0
  9
$USERI3
 70
     0
  9
$USERI4
 70
     0
  9
$USERI5
 70
     0
  9
$USERR1
 40
0.0
  9
$USERR2
 40
0.0
  9
$USERR3
 40
0.0
  9
$USERR4
 40
0.0
  9
$USERR5
 40
0.0
  9
$WORLDVIEW
 70
     1
  9
$SHADEDGE
 70
     3
  9
$SHADEDIF
 70
    70
  9
$TILEMODE
 70
     1
  9
$MAXACTVP
 70
    64
  9
$PINSBASE
 10
0.0
 20
0.0
 30
0.0
  9
$PLIMCHECK
 70
     0
  9
$PEXTMIN
 10
1.000000000000000E+20
 20
1.000000000000000E+20
 30
1.000000000000000E+20
  9
$PEXTMAX
 10
-1.000000000000000E+20
 20
-1.000000000000000E+20
 30
-1.000000000000000E+20
  9
$PLIMMIN
 10
0.0
 20
0.0
  9
$PLIMMAX
 10
420.0
 20
297.0
  9
$UNITMODE
 70
     0
  9
$VISRETAIN
 70
     1
  9
$PLINEGEN
 70
     0
  9
$PSLTSCALE
 70
     1
  9
$TREEDEPTH
 70
  3020
  9
$PICKSTYLE
 70
     0
  9
$CMLSTYLE
  2
STANDARD
  9
$CMLJUST
 70
     0
  9
$CMLSCALE
 40
20.0
  9
$PROXYGRAPHICS
 70
     1
  9
$MEASUREMENT
 70
     1
  0
ENDSEC
  0
SECTION
  2
CLASSES
  0
CLASS
  1
ACDBDICTIONARYWDFLT
  2
AcDbDictionaryWithDefault
  3
AutoCAD 2000
 90
        0
280
     0
281
     0
  0
CLASS
  1
ACDBPLACEHOLDER
  2
AcDbPlaceHolder
  3
AutoCAD 2000
 90
        0
280
     0
281
     0
  0
CLASS
  1
LAYOUT
  2
AcDbLayout
  3
AutoCAD 2000
 90
        0
280
     0
281
     0
  0
CLASS
  1
ACME_DOCUMENT
  2
AcMeDbDoc
  3
AcMeServices
 90
        0
280
     0
281
     0
  0
CLASS
  1
ACMESCOPE
  2
AcMeScope
  3
AcMeServices
 90
        0
280
     0
281
     0
  0
CLASS
  1
ACMECOMMANDHISTORY
  2
AcMeCommandHistory
  3
AcMeServices
 90
        0
280
     0
281
     0
  0
CLASS
  1
DICTIONARYVAR
  2
AcDbDictionaryVar
  3
AutoCAD 2000
 90
        0
280
     0
281
     0
  0
CLASS
  1
ACIMSYSVARMAN
  2
AcImSysVarManager
  3
AcMeServices
 90
        0
280
     0
281
     0
  0
CLASS
  1
ACIMREALSYSVAR
  2
AcImRealSysVar
  3
AcMeServices
 90
        0
280
     0
281
     0
  0
CLASS
  1
ACIMINTSYSVAR
  2
AcImIntSysVar
  3
AcMeServices
 90
        0
280
     0
281
     0
  0
CLASS
  1
ACMEDRAWINGMAN
  2
AcMeDrawingMan
  3
AcMeServices
 90
        0
280
     0
281
     0
  0
CLASS
  1
ACMEVIEW
  2
AcMeView
  3
AcMeServices
 90
        0
280
     0
281
     0
  0
CLASS
  1
ACDBENTITYCACHE
  2
AcMeEntityCache
  3
AcMeServices
 90
        0
280
     0
281
     0
  0
CLASS
  1
GSMANAGER
  2
AcMeGSManager
  3
AcMeServices
 90
        0
280
     0
281
     0
  0
CLASS
  1
AmdtInternalReactor
  2
AmdtInternalReactor
  3
AcMeServices
 90
        0
280
     0
281
     0
  0
CLASS
  1
ACMESTATEMGR
  2
AcMeStateMgr
  3
AcMeServices
 90
        0
280
     0
281
     0
  0
CLASS
  1
ACME_DATABASE
  2
AcMeDbDatabase
  3
AcMeServices
 90
        0
280
     0
281
     0
  0
CLASS
  1
ACRFINSADJUSTERMGR
  2
AcRfInsAdjusterMgr
  3
AcMeServices
 90
        0
280
     0
281
     0
  0
CLASS
  1
AMGSETTINGSOBJ
  2
AmgSettingsObj
  3
"AcadM|Product Description: AutoCAD Mechanical 2000|Company: Autodesk"
 90
        0
280
     0
281
     0
  0
CLASS
  1
AMGOBJPROPCFG
  2
AmgObjPropCfg
  3
"AmgLay|Product Description: AutoCAD Mechanical 2000|Company: Autodesk"
 90
        1
280
     0
281
     0
  0
CLASS
  1
ACMDATADICTIONARY
  2
AcmDataDictionary
  3
"AcmSymBB|Product Description: AutoCAD Mechanical 2000|Company: Autodesk"
 90
        0
280
     0
281
     0
  0
CLASS
  1
ACMDATAENTRYBLOCK
  2
AcmDataEntryBlock
  3
"AcmSymBB|Product Description: AutoCAD Mechanical 2000|Company: Autodesk"
 90
        0
280
     0
281
     0
  0
CLASS
  1
ACIMSTRSYSVAR
  2
AcImStrSysVar
  3
AcMeServices
 90
        0
280
     0
281
     0
  0
CLASS
  1
ACAMGFILTERDAT
  2
AcAmgFilterDat
  3
"AcadM|Product Description: AutoCAD Mechanical 2000|Company: Autodesk"
 90
        0
280
     0
281
     0
  0
CLASS
  1
LAYER_INDEX
  2
AcDbLayerIndex
  3
AutoCAD 2000
 90
        0
280
     0
281
     0
  0
CLASS
  1
IDBUFFER
  2
AcDbIdBuffer
  3
AutoCAD 2000
 90
        0
280
     0
281
     0
  0
CLASS
  1
ACMSTANDARDJIS
  2
AcmStandardJIS
  3
"AcmSymBB|Product Description: AutoCAD Mechanical 2000|Company: Autodesk"
 90
        0
280
     0
281
     0
  0
CLASS
  1
ACMSURFSTANDARDJIS
  2
AcmSurfTextStdJIS
  3
"AcmSymBB|Product Description: AutoCAD Mechanical 2000|Company: Autodesk"
 90
        0
280
     0
281
     0
  0
CLASS
  1
ACMFCFSTANDARDJIS
  2
AcmFCFStdJIS
  3
"AcmSymBB|Product Description: AutoCAD Mechanical 2000|Company: Autodesk"
 90
        0
280
     0
281
     0
  0
CLASS
  1
ACMWELDSTANDARDJIS
  2
AcmWeldingStdJIS
  3
"AcmSymBB|Product Description: AutoCAD Mechanical 2000|Company: Autodesk"
 90
        0
280
     0
281
     0
  0
CLASS
  1
ACMIDSTANDARDJIS
  2
AcmIdStdJIS
  3
"AcmSymBB|Product Description: AutoCAD Mechanical 2000|Company: Autodesk"
 90
        0
280
     0
281
     0
  0
CLASS
  1
ACMDATUMSTANDARDJIS
  2
AcmDatumStdJIS
  3
"AcmSymBB|Product Description: AutoCAD Mechanical 2000|Company: Autodesk"
 90
        0
280
     0
281
     0
  0
CLASS
  1
ACMBOMSTANDARDJIS
  2
AcmBOMStdJIS
  3
"AcmSymBB|Product Description: AutoCAD Mechanical 2000|Company: Autodesk"
 90
        0
280
     0
281
     0
  0
CLASS
  1
AMDTNOTE
  2
AmdtNote
  3
"AcmSymBB|Product Description: AutoCAD Mechanical 2000|Company: Autodesk"
 90
     1023
280
     0
281
     1
  0
CLASS
  1
ACMDATAENTRYPART
  2
AcmDataEntryPart
  3
"AcmSymBB|Product Description: AutoCAD Mechanical 2000|Company: Autodesk"
 90
        0
280
     0
281
     0
  0
CLASS
  1
ACMPARTREF
  2
AcmPartRef
  3
"AcmSymBB|Product Description: AutoCAD Mechanical 2000|Company: Autodesk"
 90
     1023
280
     0
281
     1
  0
CLASS
  1
ACDB_PROXY_ENTITY_DATA
  2
AcDbProxyEntityData
  3
AutoCAD 2000
 90
        0
280
     0
281
     0
  0
CLASS
  1
LONG_TRANSACTION
  2
AcDbLongTransaction
  3
AutoCAD 2000
 90
        0
280
     0
281
     0
  0
CLASS
  1
LWPOLYLINE
  2
AcDbPolyline
  3
AutoCAD 2000
 90
        0
280
     0
281
     1
  0
CLASS
  1
HATCH
  2
AcDbHatch
  3
AutoCAD 2000
 90
        0
280
     0
281
     1
  0
CLASS
  1
XRECORD
  2
AcDbXrecord
  3
AutoCAD 2000
 90
        0
280
     0
281
     0
  0
ENDSEC
  0
SECTION
  2
TABLES
  0
TABLE
  2
VPORT
  5
8
330
0
100
AcDbSymbolTable
 70
     3
  0
VPORT
  5
7F63
330
8
100
AcDbSymbolTableRecord
100
AcDbViewportTableRecord
  2
*ACTIVE
 70
     0
 10
0.0
 20
0.0
 11
1.0
 21
1.0
 12
-54.136627774999
 22
41.9109989891617
 13
0.0
 23
0.0
 14
2.5
 24
2.5
 15
10.0
 25
10.0
 16
0.0
 26
0.0
 36
1.0
 17
0.0
 27
0.0
 37
0.0
 40
300.8698395510429
 41
1.56570841889117
 42
50.0
 43
0.0
 44
0.0
 50
0.0
 51
0.0
 71
     0
 72
  2000
 73
     1
 74
     3
 75
     0
 76
     0
 77
     0
 78
     0
  0
ENDTAB
  0
TABLE
  2
LTYPE
  5
5
330
0
100
AcDbSymbolTable
 70
    10
  0
LTYPE
  5
14
330
5
100
AcDbSymbolTableRecord
100
AcDbLinetypeTableRecord
  2
BYBLOCK
 70
     0
  3

 72
    65
 73
     0
 40
0.0
  0
LTYPE
  5
15
330
5
100
AcDbSymbolTableRecord
100
AcDbLinetypeTableRecord
  2
BYLAYER
 70
     0
  3

 72
    65
 73
     0
 40
0.0
  0
LTYPE
  5
16
330
5
100
AcDbSymbolTableRecord
100
AcDbLinetypeTableRecord
  2
CONTINUOUS
 70
     0
  3
Solid line
 72
    65
 73
     0
 40
0.0
  0
LTYPE
  5
43
330
5
100
AcDbSymbolTableRecord
100
AcDbLinetypeTableRecord
  2
AM_ISO02W050
 70
     0
  3
__ __ __ __ __ __ __ __ __ __ __ __ __ __ __
 72
    65
 73
     2
 40
7.5
 49
6.0
 74
     0
 49
-1.5
 74
     0
  0
LTYPE
  5
44
330
5
100
AcDbSymbolTableRecord
100
AcDbLinetypeTableRecord
  2
AM_ISO08W050
 70
     0
  3
____ . ____ . ____ . ____ . ____ . ____ . ____
 72
    65
 73
     4
 40
18.0
 49
12.0
 74
     0
 49
-1.5
 74
     0
 49
3.0
 74
     0
 49
-1.5
 74
     0
  0
LTYPE
  5
45
330
5
100
AcDbSymbolTableRecord
100
AcDbLinetypeTableRecord
  2
AM_ISO09W050
 70
     0
  3
_____ . . _____ . . _____ . . ____ .. ____
 72
    65
 73
     6
 40
22.5
 49
12.0
 74
     0
 49
-1.5
 74
     0
 49
3.0
 74
     0
 49
-1.5
 74
     0
 49
3.0
 74
     0
 49
-1.5
 74
     0
  0
LTYPE
  5
46
330
5
100
AcDbSymbolTableRecord
100
AcDbLinetypeTableRecord
  2
AMCONSTR
 70
     0
  3
_______________________
 72
    65
 73
     2
 40
9999.0
 49
9999.0
 74
     0
 49
0.0
 74
     0
  0
LTYPE
  5
47
330
5
100
AcDbSymbolTableRecord
100
AcDbLinetypeTableRecord
  2
AM_ISO02W050X2
 70
     0
  3
 _ _ _ _ _ _ _ _ _ _ _ _
 72
    65
 73
     2
 40
3.75
 49
3.0
 74
     0
 49
-0.75
 74
     0
  0
LTYPE
  5
48
330
5
100
AcDbSymbolTableRecord
100
AcDbLinetypeTableRecord
  2
AM_ISO08W050X2
 70
     0
  3
__ . __ . __ . __ . __ . __
 72
    65
 73
     4
 40
9.0
 49
6.0
 74
     0
 49
-0.75
 74
     0
 49
1.5
 74
     0
 49
-0.75
 74
     0
  0
LTYPE
  5
4B
330
5
100
AcDbSymbolTableRecord
100
AcDbLinetypeTableRecord
  2
AMZIGZAG
 70
     0
  3
/\/-/\/-/\/-/\/-/\/-/\/
 72
    65
 73
     2
 40
11.00009999999999
 49
0.0001
 74
     4
 75
   135
340
4A
 46
0.04
 50
0.0
 44
0.0
 45
0.0
 49
-11.0
 74
     0
  0
LTYPE
  5
188
330
5
100
AcDbSymbolTableRecord
100
AcDbLinetypeTableRecord
  2
ACJISTGB
 70
     0
  3
__ . . __ . .
 72
    65
 73
     6
 40
9.0
 49
4.0
 74
     0
 49
-1.0
 74
     0
 49
1.0
 74
     0
 49
-1.0
 74
     0
 49
1.0
 74
     0
 49
-1.0
 74
     0
  0
LTYPE
  5
189
330
5
100
AcDbSymbolTableRecord
100
AcDbLinetypeTableRecord
  2
ACJISTGL
 70
     0
  3
_ _ _ _ _
 72
    65
 73
     2
 40
3.0
 49
2.0
 74
     0
 49
-1.0
 74
     0
  0
ENDTAB
  0
TABLE
  2
LAYER
  5
2
330
0
100
AcDbSymbolTable
 70
     6
  0
LAYER
  5
10
330
2
100
AcDbSymbolTableRecord
100
AcDbLayerTableRecord
  2
0
 70
     0
 62
     7
  6
CONTINUOUS
  0
LAYER
  5
7D
330
2
100
AcDbSymbolTableRecord
100
AcDbLayerTableRecord
  2
AM_5
 70
     0
 62
     3
  6
CONTINUOUS
  0
LAYER
  5
7F
330
2
100
AcDbSymbolTableRecord
100
AcDbLayerTableRecord
  2
DEFPOINTS
 70
     0
 62
     7
  6
CONTINUOUS
  0
LAYER
  5
12B1
330
2
100
AcDbSymbolTableRecord
100
AcDbLayerTableRecord
  2
AM_0
 70
     0
 62
     7
  6
CONTINUOUS
  0
LAYER
  5
2222
330
2
100
AcDbSymbolTableRecord
100
AcDbLayerTableRecord
  2
AM_6
 70
     0
 62
     2
  6
CONTINUOUS
  0
LAYER
  5
4379
330
2
100
AcDbSymbolTableRecord
100
AcDbLayerTableRecord
  2
AM_1
 70
     0
 62
     3
  6
CONTINUOUS
  0
ENDTAB
  0
TABLE
  2
STYLE
  5
3
330
0
100
AcDbSymbolTable
 70
     4
  0
STYLE
  5
11
330
3
100
AcDbSymbolTableRecord
100
AcDbTextStyleTableRecord
  2
STANDARD
 70
     0
 40
0.0
 41
1.0
 50
0.0
 71
     0
 42
2.5
  3
ISOCP.SHX
  4
EXTFONT.SHX
  0
STYLE
  5
4A
330
3
100
AcDbSymbolTableRecord
100
AcDbTextStyleTableRecord
  2

 70
     1
 40
0.0
 41
1.0
 50
0.0
 71
     0
 42
2.5
  3
ltypeshp.shx
  4

  0
STYLE
  5
180
330
3
100
AcDbSymbolTableRecord
100
AcDbTextStyleTableRecord
  2
ACJISTS
 70
     0
 40
1.0
 41
1.0
 50
0.0
 71
     0
 42
2.5
  3
isocp.shx
  4
bigfont.shx
  0
STYLE
  5
187
330
3
100
AcDbSymbolTableRecord
100
AcDbTextStyleTableRecord
  2
ACJISGDT
 70
     0
 40
0.0
 41
1.0
 50
0.0
 71
     0
 42
2.5
  3
amgdt.shx
  4

  0
ENDTAB
  0
TABLE
  2
VIEW
  5
6
330
0
100
AcDbSymbolTable
 70
     6
  0
VIEW
  5
A30
330
6
100
AcDbSymbolTableRecord
100
AcDbViewTableRecord
  2
AM_VIEW1
 70
     0
 40
148.5
 10
112.0719649561952
 20
222.75
 41
224.1439299123904
 11
0.0
 21
0.0
 31
1.0
 12
0.0
 22
0.0
 32
0.0
 42
50.0
 43
0.0
 44
0.0
 50
0.0
 71
     0
  0
VIEW
  5
A31
330
6
100
AcDbSymbolTableRecord
100
AcDbViewTableRecord
  2
AM_VIEW2
 70
     0
 40
148.5
 10
307.9280350438047
 20
222.75
 41
224.1439299123904
 11
0.0
 21
0.0
 31
1.0
 12
0.0
 22
0.0
 32
0.0
 42
50.0
 43
0.0
 44
0.0
 50
0.0
 71
     0
  0
VIEW
  5
A32
330
6
100
AcDbSymbolTableRecord
100
AcDbViewTableRecord
  2
AM_VIEW3
 70
     0
 40
148.5
 10
112.0719649561952
 20
74.25
 41
224.1439299123904
 11
0.0
 21
0.0
 31
1.0
 12
0.0
 22
0.0
 32
0.0
 42
50.0
 43
0.0
 44
0.0
 50
0.0
 71
     0
  0
VIEW
  5
A33
330
6
100
AcDbSymbolTableRecord
100
AcDbViewTableRecord
  2
AM_VIEW4
 70
     0
 40
148.5
 10
307.9280350438047
 20
74.25
 41
224.1439299123904
 11
0.0
 21
0.0
 31
1.0
 12
0.0
 22
0.0
 32
0.0
 42
50.0
 43
0.0
 44
0.0
 50
0.0
 71
     0
  0
VIEW
  5
A34
330
6
100
AcDbSymbolTableRecord
100
AcDbViewTableRecord
  2
AM_VIEW5
 70
     0
 40
148.5
 10
210.0
 20
148.5
 41
224.1439299123904
 11
0.0
 21
0.0
 31
1.0
 12
0.0
 22
0.0
 32
0.0
 42
50.0
 43
0.0
 44
0.0
 50
0.0
 71
     0
  0
VIEW
  5
A35
330
6
100
AcDbSymbolTableRecord
100
AcDbViewTableRecord
  2
AM_VIEW6
 70
     0
 40
296.9970299999999
 10
210.0
 20
148.5
 41
448.2833769461827
 11
0.0
 21
0.0
 31
1.0
 12
0.0
 22
0.0
 32
0.0
 42
50.0
 43
0.0
 44
0.0
 50
0.0
 71
     0
  0
ENDTAB
  0
TABLE
  2
UCS
  5
7
330
0
100
AcDbSymbolTable
 70
     0
  0
ENDTAB
  0
TABLE
  2
APPID
  5
9
330
0
100
AcDbSymbolTable
 70
    37
  0
APPID
  5
12
330
9
100
AcDbSymbolTableRecord
100
AcDbRegAppTableRecord
  2
ACAD
 70
     0
  0
APPID
  5
2C
330
9
100
AcDbSymbolTableRecord
100
AcDbRegAppTableRecord
  2
MCAD_NO_VIS
 70
     0
  0
APPID
  5
2D
330
9
100
AcDbSymbolTableRecord
100
AcDbRegAppTableRecord
  2
ACAD_TEMP_GRAPHIC
 70
     0
  0
APPID
  5
B9
330
9
100
AcDbSymbolTableRecord
100
AcDbRegAppTableRecord
  2
GENIUS_GENDTOL_13
 70
     0
  0
APPID
  5
359
330
9
100
AcDbSymbolTableRecord
100
AcDbRegAppTableRecord
  2
GENIUS_GENREC_14
 70
     0
  0
APPID
  5
35A
330
9
100
AcDbSymbolTableRecord
100
AcDbRegAppTableRecord
  2
GENIUS_GENODEF_13
 70
     0
  0
APPID
  5
35B
330
9
100
AcDbSymbolTableRecord
100
AcDbRegAppTableRecord
  2
GENIUS_GENOBJ-N-REC_13
 70
     0
  0
APPID
  5
667
330
9
100
AcDbSymbolTableRecord
100
AcDbRegAppTableRecord
  2
GENIUS_GENCFG_13
 70
     0
  0
APPID
  5
668
330
9
100
AcDbSymbolTableRecord
100
AcDbRegAppTableRecord
  2
GENIUS_GENCFG0_13
 70
     0
  0
APPID
  5
669
330
9
100
AcDbSymbolTableRecord
100
AcDbRegAppTableRecord
  2
GENIUS_GENCFG1_13
 70
     0
  0
APPID
  5
66A
330
9
100
AcDbSymbolTableRecord
100
AcDbRegAppTableRecord
  2
GENIUS_GENCFG2_13
 70
     0
  0
APPID
  5
66B
330
9
100
AcDbSymbolTableRecord
100
AcDbRegAppTableRecord
  2
GENIUS_GENCFG3_13
 70
     0
  0
APPID
  5
66C
330
9
100
AcDbSymbolTableRecord
100
AcDbRegAppTableRecord
  2
GENIUS_GENCFG4_13
 70
     0
  0
APPID
  5
A76
330
9
100
AcDbSymbolTableRecord
100
AcDbRegAppTableRecord
  2
GENIUS_GENBLLY_14
 70
     0
  0
APPID
  5
A77
330
9
100
AcDbSymbolTableRecord
100
AcDbRegAppTableRecord
  2
GENIUS_GENOBJ-N-CEN_13
 70
     0
  0
APPID
  5
A83
330
9
100
AcDbSymbolTableRecord
100
AcDbRegAppTableRecord
  2
GENIUS_GENTRA_14
 70
     0
  0
APPID
  5
A8D
330
9
100
AcDbSymbolTableRecord
100
AcDbRegAppTableRecord
  2
GENIUS_GENOBJ-N-TIT_13
 70
     0
  0
APPID
  5
A8E
330
9
100
AcDbSymbolTableRecord
100
AcDbRegAppTableRecord
  2
GENIUS_GENTITLE_13
 70
     0
  0
APPID
  5
A8F
330
9
100
AcDbSymbolTableRecord
100
AcDbRegAppTableRecord
  2
GENIUS_GENOENT_13
 70
     0
  0
APPID
  5
A90
330
9
100
AcDbSymbolTableRecord
100
AcDbRegAppTableRecord
  2
GENIUS_GENOREF_13
 70
     0
  0
APPID
  5
A91
330
9
100
AcDbSymbolTableRecord
100
AcDbRegAppTableRecord
  2
GENIUS_GENOLIS_13
 70
     0
  0
APPID
  5
A92
330
9
100
AcDbSymbolTableRecord
100
AcDbRegAppTableRecord
  2
GENIUS_GENZVEED_13
 70
     0
  0
APPID
  5
A93
330
9
100
AcDbSymbolTableRecord
100
AcDbRegAppTableRecord
  2
GENIUS_GENSCREG_15
 70
     0
  0
APPID
  5
A94
330
9
100
AcDbSymbolTableRecord
100
AcDbRegAppTableRecord
  2
GENIUS_GENOBJ-N-SDF_13
 70
     0
  0
APPID
  5
12B5
330
9
100
AcDbSymbolTableRecord
100
AcDbRegAppTableRecord
  2
GENIUS_GENOBJ-N-RSBK_13
 70
     0
  0
APPID
  5
12B6
330
9
100
AcDbSymbolTableRecord
100
AcDbRegAppTableRecord
  2
GENIUS_GENOBJ-N-LIB_13
 70
     0
  0
APPID
  5
12B7
330
9
100
AcDbSymbolTableRecord
100
AcDbRegAppTableRecord
  2
GENIUS_GENSCALE_13
 70
     0
  0
APPID
  5
12B8
330
9
100
AcDbSymbolTableRecord
100
AcDbRegAppTableRecord
  2
GENIUS_GENOBJ-N-HTC_13
 70
     0
  0
APPID
  5
12B9
330
9
100
AcDbSymbolTableRecord
100
AcDbRegAppTableRecord
  2
GENIUS_GENHATCH_13
 70
     0
  0
APPID
  5
1C0A
330
9
100
AcDbSymbolTableRecord
100
AcDbRegAppTableRecord
  2
BASE_TYPE
 70
     0
  0
APPID
  5
276B
330
9
100
AcDbSymbolTableRecord
100
AcDbRegAppTableRecord
  2
GENIUS_GENOBJ-N-FIL_13
 70
     0
  0
APPID
  5
3640
330
9
100
AcDbSymbolTableRecord
100
AcDbRegAppTableRecord
  2
GENIUS_GENBH_13
 70
     0
  0
APPID
  5
36D1
330
9
100
AcDbSymbolTableRecord
100
AcDbRegAppTableRecord
  2
GENIUS_GENOBJ-F-SPR_13
 70
     0
  0
APPID
  5
36DA
330
9
100
AcDbSymbolTableRecord
100
AcDbRegAppTableRecord
  2
GENIUS_GEFSPRING_13
 70
     0
  0
APPID
  5
36DB
330
9
100
AcDbSymbolTableRecord
100
AcDbRegAppTableRecord
  2
GENIUS_GEFSPRINGP_13
 70
     0
  0
APPID
  5
4D67
330
9
100
AcDbSymbolTableRecord
100
AcDbRegAppTableRecord
  2
GENIUS_GENFIL_13
 70
     0
  0
APPID
  5
4D68
330
9
100
AcDbSymbolTableRecord
100
AcDbRegAppTableRecord
  2
GENIUS_GENOBJ-N-CHA_13
 70
     0
  0
ENDTAB
  0
TABLE
  2
DIMSTYLE
  5
A
330
0
100
AcDbSymbolTable
 70
    11
  0
DIMSTYLE
105
58
330
A
100
AcDbSymbolTableRecord
100
AcDbDimStyleTableRecord
  2
AM_JIS
 70
     0
  3

  4
"
  5
OPEN30
  6

  7

 40
1.0
 41
2.5
 42
0.0
 43
10.0
 44
1.0
 45
0.0
 46
0.0
 47
0.1
 48
0.1000000001
140
3.799999999999999
141
0.0
142
0.0
143
0.0393701
144
1.0
145
0.0
146
0.71
147
1.5
 71
     0
 72
     0
 73
     0
 74
     0
 75
     0
 76
     0
 77
     3
 78
     9
170
     0
171
     2
172
     1
173
     0
174
     0
175
     0
176
   256
177
   256
178
     2
270
     2
271
     2
272
     2
273
     2
274
     2
340
11
275
     1
280
     0
281
     0
282
     0
283
     0
284
     8
285
     0
286
     0
287
     3
288
     0
  0
DIMSTYLE
105
5F
330
A
100
AcDbSymbolTableRecord
100
AcDbDimStyleTableRecord
  2
AM_JIS$3
 70
     0
  3

  4
"
  5
OPEN30
  6

  7

 40
1.0
 41
2.5
 42
0.0
 43
10.0
 44
1.0
 45
0.0
 46
0.0
 47
0.1
 48
0.1000000001
140
3.799999999999999
141
0.0
142
0.0
143
0.0393701
144
1.0
145
0.0
146
0.71
147
1.5
 71
     0
 72
     0
 73
     0
 74
     1
 75
     0
 76
     0
 77
     3
 78
     9
170
     0
171
     2
172
     1
173
     0
174
     0
175
     0
176
   256
177
   256
178
     2
270
     2
271
     2
272
     2
273
     2
274
     2
340
11
275
     1
280
     0
281
     0
282
     0
283
     0
284
     8
285
     0
286
     0
287
     0
288
     1
  0
DIMSTYLE
105
60
330
A
100
AcDbSymbolTableRecord
100
AcDbDimStyleTableRecord
  2
AM_JIS$4
 70
     0
  3

  4
"
  5
OPEN30
  6

  7

 40
1.0
 41
2.5
 42
0.0
 43
10.0
 44
1.0
 45
0.0
 46
0.0
 47
0.1
 48
0.1000000001
140
3.799999999999999
141
0.0
142
0.0
143
0.0393701
144
1.0
145
0.0
146
0.71
147
1.5
 71
     0
 72
     0
 73
     0
 74
     1
 75
     0
 76
     0
 77
     3
 78
     9
170
     0
171
     2
172
     1
173
     0
174
     0
175
     0
176
   256
177
   256
178
     2
270
     2
271
     2
272
     2
273
     2
274
     2
340
11
275
     1
280
     0
281
     0
282
     0
283
     0
284
     8
285
     0
286
     0
287
     0
288
     1
  0
DIMSTYLE
105
61
330
A
100
AcDbSymbolTableRecord
100
AcDbDimStyleTableRecord
  2
AM_JIS$6
 70
     0
  3

  4
"
  5
OPEN30
  6

  7

 40
1.0
 41
2.5
 42
0.0
 43
10.0
 44
1.0
 45
0.0
 46
0.0
 47
0.1
 48
0.1000000001
140
3.799999999999999
141
0.0
142
0.0
143
0.0393701
144
1.0
145
0.0
146
0.71
147
1.5
 71
     0
 72
     0
 73
     0
 74
     0
 75
     0
 76
     0
 77
     0
 78
     9
170
     0
171
     2
172
     1
173
     0
174
     0
175
     0
176
   256
177
   256
178
     2
270
     2
271
     2
272
     2
273
     2
274
     2
340
11
275
     1
280
     0
281
     0
282
     0
283
     0
284
     8
285
     0
286
     0
287
     3
288
     0
  0
DIMSTYLE
105
62
330
A
100
AcDbSymbolTableRecord
100
AcDbDimStyleTableRecord
  2
AM_JIS$7
 70
     0
  3

  4
"
  5
OPEN30
  6

  7

 40
1.0
 41
2.5
 42
0.0
 43
10.0
 44
1.0
 45
0.0
 46
0.0
 47
0.1
 48
0.1000000001
140
5.0
141
0.0
142
0.0
143
0.0393701
144
1.0
145
0.0
146
0.71
147
1.5
 71
     0
 72
     0
 73
     0
 74
     0
 75
     0
 76
     0
 77
     3
 78
     9
170
     0
171
     2
172
     1
173
     0
174
     0
175
     0
176
   256
177
   256
178
     2
270
     2
271
     2
272
     2
273
     2
274
     2
340
11
275
     1
280
     0
281
     0
282
     0
283
     0
284
     8
285
     0
286
     0
287
     3
288
     0
  0
DIMSTYLE
105
63
330
A
100
AcDbSymbolTableRecord
100
AcDbDimStyleTableRecord
  2
AM_JIS$SF
 70
     0
  3

  4
"
  5
OPEN30
  6
OPEN30
  7
OPEN30
 40
1.0
 41
2.5
 42
1.0
 43
10.0
 44
1.0
 45
0.0
 46
0.0
 47
0.1
 48
0.1
140
3.5
141
0.0
142
0.0
143
0.0393701
144
1.0
145
0.0
146
0.71
147
1.5
 71
     0
 72
     0
 73
     0
 74
     0
 75
     1
 76
     1
 77
     3
 78
     8
170
     0
171
     2
172
     0
173
     0
174
     0
175
     0
176
   256
177
   256
178
     2
270
     2
271
     2
272
     3
273
     2
274
     4
340
11
275
     0
280
     0
281
     0
282
     0
283
     1
284
     0
285
     0
286
     0
287
     3
288
     0
  0
DIMSTYLE
105
68
330
A
100
AcDbSymbolTableRecord
100
AcDbDimStyleTableRecord
  2
AM_JIS$SH
 70
     0
  3

  4
"
  5
OPEN30
  6
GENAXEH
  7
OPEN30
 40
1.0
 41
2.5
 42
1.0
 43
10.0
 44
1.0
 45
0.0
 46
0.0
 47
0.1
 48
0.1
140
3.5
141
0.0
142
0.0
143
0.0393701
144
2.0
145
0.0
146
0.71
147
1.5
 71
     0
 72
     0
 73
     0
 74
     0
 75
     1
 76
     1
 77
     3
 78
     8
170
     0
171
     2
172
     0
173
     1
174
     0
175
     0
176
   256
177
   256
178
     2
270
     2
271
     2
272
     3
273
     2
274
     4
340
11
275
     0
280
     0
281
     0
282
     0
283
     1
284
     0
285
     0
286
     0
287
     3
288
     0
  0
DIMSTYLE
105
65F
330
A
100
AcDbSymbolTableRecord
100
AcDbDimStyleTableRecord
  2
STANDARD
 70
     0
  3

  4

  5

  6

  7

 40
1.0
 41
0.18
 42
0.0625
 43
0.38
 44
0.18
 45
0.0
 46
0.0
 47
0.0
 48
0.0
140
0.18
141
0.09
142
0.0
143
25.4
144
1.0
145
0.0
146
1.0
147
0.09
 71
     0
 72
     0
 73
     1
 74
     1
 75
     0
 76
     0
 77
     0
 78
     0
170
     0
171
     2
172
     0
173
     0
174
     0
175
     0
176
     0
177
     0
178
     0
270
     2
271
     4
272
     4
273
     2
274
     2
340
11
275
     0
280
     0
281
     0
282
     0
283
     1
284
     0
285
     0
286
     0
287
     3
288
     0
  0
DIMSTYLE
105
1761
102
{ACAD_REACTORS
330
7BEB
330
7C28
330
7C55
330
7C62
330
7C12
330
7C35
102
}
330
A
100
AcDbSymbolTableRecord
100
AcDbDimStyleTableRecord
  2
AM_JIS$0
 70
     0
  3

  4
"
  5
OPEN30
  6

  7

 40
1.0
 41
2.5
 42
0.0
 43
10.0
 44
1.0
 45
0.0
 46
0.0
 47
0.1
 48
0.1000000001
140
3.799999999999999
141
0.0
142
0.0
143
0.0393701
144
1.0
145
0.0
146
0.71
147
1.5
 71
     0
 72
     0
 73
     0
 74
     0
 75
     0
 76
     0
 77
     3
 78
     9
170
     0
171
     2
172
     1
173
     0
174
     0
175
     0
176
     3
177
     3
178
     2
270
     2
271
     2
272
     2
273
     2
274
     2
340
11
275
     1
280
     0
281
     0
282
     0
283
     0
284
     8
285
     0
286
     0
287
     0
288
     0
  0
DIMSTYLE
105
1762
102
{ACAD_REACTORS
330
7F3B
102
}
330
A
100
AcDbSymbolTableRecord
100
AcDbDimStyleTableRecord
  2
AM_JIS$2
 70
     0
  3

  4
"
  5
OPEN30
  6

  7

 40
1.0
 41
2.5
 42
0.0
 43
10.0
 44
1.0
 45
0.0
 46
0.0
 47
0.1
 48
0.1000000001
140
3.799999999999999
141
0.0
142
0.0
143
0.0393701
144
1.0
145
0.0
146
0.71
147
1.5
 71
     0
 72
     0
 73
     0
 74
     0
 75
     0
 76
     0
 77
     3
 78
     9
170
     0
171
     2
172
     1
173
     0
174
     0
175
     0
176
     3
177
     3
178
     2
270
     2
271
     2
272
     2
273
     2
274
     2
340
11
275
     1
280
     0
281
     0
282
     0
283
     0
284
     8
285
     0
286
     0
287
     0
288
     0
  0
DIMSTYLE
105
74EB
330
A
100
AcDbSymbolTableRecord
100
AcDbDimStyleTableRecord
  2
ISO-25
 70
     0
  3

  4

  5

  6

  7

 40
1.0
 41
2.5
 42
0.625
 43
3.75
 44
1.25
 45
0.0
 46
0.0
 47
0.0
 48
0.0
140
2.5
141
2.5
142
0.0
143
0.03937007874016
144
1.0
145
0.0
146
1.0
147
0.625
 71
     0
 72
     0
 73
     0
 74
     0
 75
     0
 76
     0
 77
     1
 78
     8
170
     0
171
     3
172
     1
173
     0
174
     0
175
     0
176
     0
177
     0
178
     0
270
     2
271
     2
272
     2
273
     2
274
     3
340
11
275
     0
280
     0
281
     0
282
     0
283
     0
284
     8
285
     0
286
     0
287
     3
288
     0
  0
ENDTAB
  0
TABLE
  2
BLOCK_RECORD
  5
1
330
0
100
AcDbSymbolTable
 70
    11
  0
BLOCK_RECORD
  5
1F
102
{ACAD_XDICTIONARY
360
165
102
}
330
1
100
AcDbSymbolTableRecord
100
AcDbBlockTableRecord
  2
*MODEL_SPACE
  0
BLOCK_RECORD
  5
1B
102
{ACAD_XDICTIONARY
360
7F85
102
}
330
1
100
AcDbSymbolTableRecord
100
AcDbBlockTableRecord
  2
*PAPER_SPACE
  0
BLOCK_RECORD
  5
59
330
1
100
AcDbSymbolTableRecord
100
AcDbBlockTableRecord
  2
_OPEN30
  0
BLOCK_RECORD
  5
64
330
1
100
AcDbSymbolTableRecord
100
AcDbBlockTableRecord
  2
GENAXEH
  0
BLOCK_RECORD
  5
7BEC
330
1
100
AcDbSymbolTableRecord
100
AcDbBlockTableRecord
  2
*D3
  0
BLOCK_RECORD
  5
7C13
330
1
100
AcDbSymbolTableRecord
100
AcDbBlockTableRecord
  2
*D5
  0
BLOCK_RECORD
  5
7C29
330
1
100
AcDbSymbolTableRecord
100
AcDbBlockTableRecord
  2
*D6
  0
BLOCK_RECORD
  5
7C36
330
1
100
AcDbSymbolTableRecord
100
AcDbBlockTableRecord
  2
*D7
  0
BLOCK_RECORD
  5
7C56
330
1
100
AcDbSymbolTableRecord
100
AcDbBlockTableRecord
  2
*D8
  0
BLOCK_RECORD
  5
7C63
330
1
100
AcDbSymbolTableRecord
100
AcDbBlockTableRecord
  2
*D9
  0
BLOCK_RECORD
  5
7F3C
330
1
100
AcDbSymbolTableRecord
100
AcDbBlockTableRecord
  2
*D10
  0
ENDTAB
  0
ENDSEC
  0
SECTION
  2
BLOCKS
  0
BLOCK
  5
20
330
1F
100
AcDbEntity
  8
0
100
AcDbBlockBegin
  2
*MODEL_SPACE
 70
     0
 10
0.0
 20
0.0
 30
0.0
  3
*MODEL_SPACE
  1

  0
ENDBLK
  5
21
330
1F
100
AcDbEntity
  8
0
100
AcDbBlockEnd
  0
BLOCK
  5
1C
330
1B
100
AcDbEntity
 67
     1
  8
0
100
AcDbBlockBegin
  2
*PAPER_SPACE
 70
     0
 10
0.0
 20
0.0
 30
0.0
  3
*PAPER_SPACE
  1

  0
ENDBLK
  5
1D
330
1B
100
AcDbEntity
 67
     1
  8
0
100
AcDbBlockEnd
  0
BLOCK
  5
5D
330
59
100
AcDbEntity
  8
0
100
AcDbBlockBegin
  2
_OPEN30
 70
     0
 10
0.0
 20
0.0
 30
0.0
  3
_OPEN30
  1

  0
LINE
  5
5A
330
59
100
AcDbEntity
  8
0
 62
     0
100
AcDbLine
 10
-1.0
 20
0.26794919
 30
0.0
 11
0.0
 21
0.0
 31
0.0
  0
LINE
  5
5B
330
59
100
AcDbEntity
  8
0
 62
     0
100
AcDbLine
 10
0.0
 20
0.0
 30
0.0
 11
-1.0
 21
-0.26794919
 31
0.0
  0
LINE
  5
5C
330
59
100
AcDbEntity
  8
0
 62
     0
100
AcDbLine
 10
0.0
 20
0.0
 30
0.0
 11
-1.0
 21
0.0
 31
0.0
  0
ENDBLK
  5
5E
330
59
100
AcDbEntity
  8
0
100
AcDbBlockEnd
  0
BLOCK
  5
66
330
64
100
AcDbEntity
  8
0
100
AcDbBlockBegin
  2
GENAXEH
 70
     0
 10
0.0
 20
0.0
 30
0.0
  3
GENAXEH
  1

  0
LINE
  5
65
330
64
100
AcDbEntity
  8
0
100
AcDbLine
 10
-1.0
 20
0.0
 30
0.0
 11
1.0
 21
0.0
 31
0.0
  0
ENDBLK
  5
67
330
64
100
AcDbEntity
  8
0
100
AcDbBlockEnd
  0
BLOCK
  5
7BF6
330
7BEC
100
AcDbEntity
  8
0
100
AcDbBlockBegin
  2
*D3
 70
     1
 10
0.0
 20
0.0
 30
0.0
  3
*D3
  1

  0
LINE
  5
7ED6
330
7BEC
100
AcDbEntity
  8
AM_5
 62
     3
100
AcDbLine
 10
-6.62202052431526
 20
-26.99209732216672
 30
0.0
 11
23.91153721623106
 21
-26.99209732216673
 31
0.0
  0
LINE
  5
7ED7
330
7BEC
100
AcDbEntity
  8
AM_5
 62
     3
100
AcDbLine
 10
-0.802931817000006
 20
-1.992097487605097
 30
0.0
 11
23.91153721623106
 21
-1.992097487605104
 31
0.0
  0
LINE
  5
7ED8
330
7BEC
100
AcDbEntity
  8
AM_5
 62
     3
100
AcDbLine
 10
22.91153721623106
 20
-24.49209732216673
 30
0.0
 11
22.91153721623107
 21
-4.492097487605104
 31
0.0
  0
INSERT
  5
7ED9
330
7BEC
100
AcDbEntity
  8
AM_5
 62
     3
100
AcDbBlockReference
  2
_OPEN30
 10
22.91153721623106
 20
-26.99209732216673
 30
0.0
 41
2.5
 42
2.5
 43
2.5
 50
270.0
  0
INSERT
  5
7EDA
330
7BEC
100
AcDbEntity
  8
AM_5
 62
     3
100
AcDbBlockReference
  2
_OPEN30
 10
22.91153721623107
 20
-1.992097487605104
 30
0.0
 41
2.5
 42
2.5
 43
2.5
 50
90.0
  0
MTEXT
  5
7EDB
330
7BEC
100
AcDbEntity
  8
AM_5
 62
     2
100
AcDbMText
 10
19.51116320048303
 20
-14.49209740488591
 30
0.0
 40
3.799999999999999
 41
0.0
 71
     5
 72
     1
  1
25
 11
0.0000000000000001
 21
1.0
 31
0.0
1001
ACAD
1000
MTEXTBEGIN
1070
    73
1070
     1
1070
    44
1040
1.0
1070
    74
1070
     0
1000
MTEXTEND
  0
POINT
  5
7EDC
330
7BEC
100
AcDbEntity
  8
DEFPOINTS
 62
     0
100
AcDbPoint
 10
-6.62202052431526
 20
-26.99209732216672
 30
0.0
  0
POINT
  5
7EDD
330
7BEC
100
AcDbEntity
  8
DEFPOINTS
 62
     0
100
AcDbPoint
 10
-0.802931817000006
 20
-1.992097487605097
 30
0.0
  0
POINT
  5
7EDE
330
7BEC
100
AcDbEntity
  8
DEFPOINTS
 62
     0
100
AcDbPoint
 10
22.91153721623107
 20
-1.992097487605104
 30
0.0
  0
ENDBLK
  5
7BF7
330
7BEC
100
AcDbEntity
  8
0
100
AcDbBlockEnd
  0
BLOCK
  5
7C1D
330
7C13
100
AcDbEntity
  8
0
100
AcDbBlockBegin
  2
*D5
 70
     1
 10
0.0
 20
0.0
 30
0.0
  3
*D5
  1

  0
LINE
  5
7DE8
330
7C13
100
AcDbEntity
  8
AM_5
 62
     3
100
AcDbLine
 10
-29.99999876440381
 20
-6.998196322166734
 30
0.0
 11
-29.99999876440381
 21
19.59117570144587
 31
0.0
  0
LINE
  5
7DE9
330
7C13
100
AcDbEntity
  8
AM_5
 62
     3
100
AcDbLine
 10
0.0
 20
-0.7970818683049288
 30
0.0
 11
0.0000000000000012
 21
19.59117570144587
 31
0.0
  0
LINE
  5
7DEA
330
7C13
100
AcDbEntity
  8
AM_5
 62
     3
100
AcDbLine
 10
-27.49999876440381
 20
18.59117570144587
 30
0.0
 11
-2.499999999999998
 21
18.59117570144587
 31
0.0
  0
INSERT
  5
7DEB
330
7C13
100
AcDbEntity
  8
AM_5
 62
     3
100
AcDbBlockReference
  2
_OPEN30
 10
-29.99999876440381
 20
18.59117570144587
 30
0.0
 41
2.5
 42
2.5
 43
2.5
 50
180.0
  0
INSERT
  5
7DEC
330
7C13
100
AcDbEntity
  8
AM_5
 62
     3
100
AcDbBlockReference
  2
_OPEN30
 10
0.0000000000000012
 20
18.59117570144587
 30
0.0
 41
2.5
 42
2.5
 43
2.5
  0
MTEXT
  5
7DED
330
7C13
100
AcDbEntity
  8
AM_5
 62
     2
100
AcDbMText
 10
-14.9999993822019
 20
21.99117570144587
 30
0.0
 40
3.799999999999999
 41
0.0
 71
     5
 72
     1
  1
30
1001
ACAD
1000
MTEXTBEGIN
1070
    73
1070
     1
1070
    44
1040
1.0
1070
    74
1070
     0
1000
MTEXTEND
  0
POINT
  5
7DEE
330
7C13
100
AcDbEntity
  8
DEFPOINTS
 62
     0
100
AcDbPoint
 10
-29.99999876440381
 20
-6.998196322166734
 30
0.0
  0
POINT
  5
7DEF
330
7C13
100
AcDbEntity
  8
DEFPOINTS
 62
     0
100
AcDbPoint
 10
0.0
 20
-0.7970818683049288
 30
0.0
  0
POINT
  5
7DF0
330
7C13
100
AcDbEntity
  8
DEFPOINTS
 62
     0
100
AcDbPoint
 10
0.0000000000000012
 20
18.59117570144587
 30
0.0
  0
ENDBLK
  5
7C1E
330
7C13
100
AcDbEntity
  8
0
100
AcDbBlockEnd
  0
BLOCK
  5
7C33
330
7C29
100
AcDbEntity
  8
0
100
AcDbBlockBegin
  2
*D6
 70
     1
 10
0.0
 20
0.0
 30
0.0
  3
*D6
  1

  0
LINE
  5
7F10
330
7C29
100
AcDbEntity
  8
AM_5
 62
     3
100
AcDbLine
 10
-124.9999987644039
 20
-6.992097322166721
 30
0.0
 11
-141.5433019421424
 21
-6.992097322166716
 31
0.0
  0
LINE
  5
7F11
330
7C29
100
AcDbEntity
  8
AM_5
 62
     3
100
AcDbLine
 10
-124.9935957644038
 20
-26.99209732216678
 30
0.0
 11
-141.5433019421424
 21
-26.99209732216677
 31
0.0
  0
LINE
  5
7F12
330
7C29
100
AcDbEntity
  8
AM_5
 62
     3
100
AcDbLine
 10
-140.5433019421424
 20
-9.492097322166715
 30
0.0
 11
-140.5433019421424
 21
-24.49209732216677
 31
0.0
  0
INSERT
  5
7F13
330
7C29
100
AcDbEntity
  8
AM_5
 62
     3
100
AcDbBlockReference
  2
_OPEN30
 10
-140.5433019421424
 20
-6.992097322166716
 30
0.0
 41
2.5
 42
2.5
 43
2.5
 50
90.0
  0
INSERT
  5
7F14
330
7C29
100
AcDbEntity
  8
AM_5
 62
     3
100
AcDbBlockReference
  2
_OPEN30
 10
-140.5433019421424
 20
-26.99209732216677
 30
0.0
 41
2.5
 42
2.5
 43
2.5
 50
270.0
  0
MTEXT
  5
7F15
330
7C29
100
AcDbEntity
  8
AM_5
 62
     2
100
AcDbMText
 10
-143.9436759578904
 20
-16.99209732216677
 30
0.0
 40
3.799999999999999
 41
0.0
 71
     5
 72
     1
  1
20
 11
0.0000000000000001
 21
1.0
 31
0.0
1001
ACAD
1000
MTEXTBEGIN
1070
    73
1070
     1
1070
    44
1040
1.0
1070
    74
1070
     0
1000
MTEXTEND
  0
POINT
  5
7F16
330
7C29
100
AcDbEntity
  8
DEFPOINTS
 62
     0
100
AcDbPoint
 10
-124.9999987644039
 20
-6.992097322166721
 30
0.0
  0
POINT
  5
7F17
330
7C29
100
AcDbEntity
  8
DEFPOINTS
 62
     0
100
AcDbPoint
 10
-124.9935957644038
 20
-26.99209732216678
 30
0.0
  0
POINT
  5
7F18
330
7C29
100
AcDbEntity
  8
DEFPOINTS
 62
     0
100
AcDbPoint
 10
-140.5433019421424
 20
-26.99209732216677
 30
0.0
  0
ENDBLK
  5
7C34
330
7C29
100
AcDbEntity
  8
0
100
AcDbBlockEnd
  0
BLOCK
  5
7C40
330
7C36
100
AcDbEntity
  8
0
100
AcDbBlockBegin
  2
*D7
 70
     1
 10
0.0
 20
0.0
 30
0.0
  3
*D7
  1

  0
LINE
  5
7F22
330
7C36
100
AcDbEntity
  8
AM_5
 62
     3
100
AcDbLine
 10
0.0000022780293994
 20
-2.795175382707151
 30
0.0
 11
0.0000022780294015
 21
32.27682814156577
 31
0.0
  0
LINE
  5
7F23
330
7C36
100
AcDbEntity
  8
AM_5
 62
     3
100
AcDbLine
 10
-124.9999997644039
 20
-6.99819632216672
 30
0.0
 11
-124.9999997644039
 21
32.27682814156577
 31
0.0
  0
LINE
  5
7F24
330
7C36
100
AcDbEntity
  8
AM_5
 62
     3
100
AcDbLine
 10
-2.499997721970598
 20
31.27682814156577
 30
0.0
 11
-122.4999997644039
 21
31.27682814156577
 31
0.0
  0
INSERT
  5
7F25
330
7C36
100
AcDbEntity
  8
AM_5
 62
     3
100
AcDbBlockReference
  2
_OPEN30
 10
0.0000022780294015
 20
31.27682814156577
 30
0.0
 41
2.5
 42
2.5
 43
2.5
  0
INSERT
  5
7F26
330
7C36
100
AcDbEntity
  8
AM_5
 62
     3
100
AcDbBlockReference
  2
_OPEN30
 10
-124.9999997644039
 20
31.27682814156577
 30
0.0
 41
2.5
 42
2.5
 43
2.5
 50
180.0
  0
MTEXT
  5
7F27
330
7C36
100
AcDbEntity
  8
AM_5
 62
     2
100
AcDbMText
 10
-62.49999874318727
 20
34.6772021573138
 30
0.0
 40
3.799999999999999
 41
0.0
 71
     5
 72
     1
  1
125
1001
ACAD
1000
MTEXTBEGIN
1070
    73
1070
     1
1070
    44
1040
1.0
1070
    74
1070
     0
1000
MTEXTEND
  0
POINT
  5
7F28
330
7C36
100
AcDbEntity
  8
DEFPOINTS
 62
     0
100
AcDbPoint
 10
0.0000022780293994
 20
-2.795175382707151
 30
0.0
  0
POINT
  5
7F29
330
7C36
100
AcDbEntity
  8
DEFPOINTS
 62
     0
100
AcDbPoint
 10
-124.9999997644039
 20
-6.99819632216672
 30
0.0
  0
POINT
  5
7F2A
330
7C36
100
AcDbEntity
  8
DEFPOINTS
 62
     0
100
AcDbPoint
 10
-124.9999997644039
 20
31.27682814156577
 30
0.0
  0
ENDBLK
  5
7C41
330
7C36
100
AcDbEntity
  8
0
100
AcDbBlockEnd
  0
BLOCK
  5
7C60
330
7C56
100
AcDbEntity
  8
0
100
AcDbBlockBegin
  2
*D8
 70
     1
 10
0.0
 20
0.0
 30
0.0
  3
*D8
  1

  0
LINE
  5
7F19
330
7C56
100
AcDbEntity
  8
AM_5
 62
     3
100
AcDbLine
 10
-124.9935957644038
 20
65.64094443245053
 30
0.0
 11
-143.5227619845508
 21
65.64094443245053
 31
0.0
  0
LINE
  5
7F1A
330
7C56
100
AcDbEntity
  8
AM_5
 62
     3
100
AcDbLine
 10
-125.0001187644038
 20
85.64094443245039
 30
0.0
 11
-143.5227619845508
 21
85.64094443245039
 31
0.0
  0
LINE
  5
7F1B
330
7C56
100
AcDbEntity
  8
AM_5
 62
     3
100
AcDbLine
 10
-142.5227619845508
 20
68.14094443245053
 30
0.0
 11
-142.5227619845508
 21
83.14094443245039
 31
0.0
  0
INSERT
  5
7F1C
330
7C56
100
AcDbEntity
  8
AM_5
 62
     3
100
AcDbBlockReference
  2
_OPEN30
 10
-142.5227619845508
 20
65.64094443245053
 30
0.0
 41
2.5
 42
2.5
 43
2.5
 50
270.0
  0
INSERT
  5
7F1D
330
7C56
100
AcDbEntity
  8
AM_5
 62
     3
100
AcDbBlockReference
  2
_OPEN30
 10
-142.5227619845508
 20
85.64094443245039
 30
0.0
 41
2.5
 42
2.5
 43
2.5
 50
90.0
  0
MTEXT
  5
7F1E
330
7C56
100
AcDbEntity
  8
AM_5
 62
     2
100
AcDbMText
 10
-145.9231360002988
 20
75.64094443245045
 30
0.0
 40
3.799999999999999
 41
0.0
 71
     5
 72
     1
  1
20
 11
0.0000000000000001
 21
1.0
 31
0.0
1001
ACAD
1000
MTEXTBEGIN
1070
    73
1070
     1
1070
    44
1040
1.0
1070
    74
1070
     0
1000
MTEXTEND
  0
POINT
  5
7F1F
330
7C56
100
AcDbEntity
  8
DEFPOINTS
 62
     0
100
AcDbPoint
 10
-124.9935957644038
 20
65.64094443245053
 30
0.0
  0
POINT
  5
7F20
330
7C56
100
AcDbEntity
  8
DEFPOINTS
 62
     0
100
AcDbPoint
 10
-125.0001187644038
 20
85.64094443245039
 30
0.0
  0
POINT
  5
7F21
330
7C56
100
AcDbEntity
  8
DEFPOINTS
 62
     0
100
AcDbPoint
 10
-142.5227619845508
 20
85.64094443245039
 30
0.0
  0
ENDBLK
  5
7C61
330
7C56
100
AcDbEntity
  8
0
100
AcDbBlockEnd
  0
BLOCK
  5
7C6D
330
7C63
100
AcDbEntity
  8
0
100
AcDbBlockBegin
  2
*D9
 70
     1
 10
0.0
 20
0.0
 30
0.0
  3
*D9
  1

  0
LINE
  5
7F07
330
7C63
100
AcDbEntity
  8
AM_5
 62
     3
100
AcDbLine
 10
-0.2095853781753476
 20
65.64094456263731
 30
0.0
 11
14.29766850437669
 21
65.64094456263731
 31
0.0
  0
LINE
  5
7F08
330
7C63
100
AcDbEntity
  8
AM_5
 62
     3
100
AcDbLine
 10
-1.083248310345084
 20
85.64094443245039
 30
0.0
 11
14.2976685043767
 21
85.64094443245039
 31
0.0
  0
LINE
  5
7F09
330
7C63
100
AcDbEntity
  8
AM_5
 62
     3
100
AcDbLine
 10
13.29766850437669
 20
68.14094456263731
 30
0.0
 11
13.2976685043767
 21
83.14094443245039
 31
0.0
  0
INSERT
  5
7F0A
330
7C63
100
AcDbEntity
  8
AM_5
 62
     3
100
AcDbBlockReference
  2
_OPEN30
 10
13.29766850437669
 20
65.64094456263731
 30
0.0
 41
2.5
 42
2.5
 43
2.5
 50
270.0
  0
INSERT
  5
7F0B
330
7C63
100
AcDbEntity
  8
AM_5
 62
     3
100
AcDbBlockReference
  2
_OPEN30
 10
13.2976685043767
 20
85.64094443245039
 30
0.0
 41
2.5
 42
2.5
 43
2.5
 50
90.0
  0
MTEXT
  5
7F0C
330
7C63
100
AcDbEntity
  8
AM_5
 62
     2
100
AcDbMText
 10
9.897294488628656
 20
75.64094449754385
 30
0.0
 40
3.799999999999999
 41
0.0
 71
     5
 72
     1
  1
20
 11
0.0000000000000001
 21
1.0
 31
0.0
1001
ACAD
1000
MTEXTBEGIN
1070
    73
1070
     1
1070
    44
1040
1.0
1070
    74
1070
     0
1000
MTEXTEND
  0
POINT
  5
7F0D
330
7C63
100
AcDbEntity
  8
DEFPOINTS
 62
     0
100
AcDbPoint
 10
-0.2095853781753476
 20
65.64094456263731
 30
0.0
  0
POINT
  5
7F0E
330
7C63
100
AcDbEntity
  8
DEFPOINTS
 62
     0
100
AcDbPoint
 10
-1.083248310345084
 20
85.64094443245039
 30
0.0
  0
POINT
  5
7F0F
330
7C63
100
AcDbEntity
  8
DEFPOINTS
 62
     0
100
AcDbPoint
 10
13.2976685043767
 20
85.64094443245039
 30
0.0
  0
ENDBLK
  5
7C6E
330
7C63
100
AcDbEntity
  8
0
100
AcDbBlockEnd
  0
BLOCK
  5
7F47
330
7F3C
100
AcDbEntity
  8
0
100
AcDbBlockBegin
  2
*D10
 70
     1
 10
0.0
 20
0.0
 30
0.0
  3
*D10
  1

  0
LINE
  5
7F8A
330
7F3C
100
AcDbEntity
  8
AM_5
 62
     3
100
AcDbLine
 10
23.91153721623106
 20
-1.992097487605105
 30
0.0
 11
11.72746417524868
 21
-1.992097487605057
 31
0.0
  0
ARC
  5
7F8B
330
7F3C
100
AcDbEntity
  8
AM_5
 62
     3
100
AcDbCircle
 10
0.0141414638780168
 20
-1.992097487604984
 30
0.0
 40
12.71332271137067
100
AcDbArc
 50
280.285110102855
 51
348.7148898939721
  0
INSERT
  5
7F8C
330
7F3C
100
AcDbEntity
  8
AM_5
 62
     3
100
AcDbBlockReference
  2
_OPEN30
 10
-0.2077366119530266
 20
-14.70348389833606
 30
0.0
 41
2.5
 42
2.5
 43
2.5
 50
184.6425550498412
  0
INSERT
  5
7F8D
330
7F3C
100
AcDbEntity
  8
AM_5
 62
     3
100
AcDbBlockReference
  2
_OPEN30
 10
12.72746417524868
 20
-1.992097487605061
 30
0.0
 41
2.5
 42
2.5
 43
2.5
 50
84.35744494698587
  0
MTEXT
  5
7F8E
330
7F3C
100
AcDbEntity
  8
AM_5
 62
     2
100
AcDbMText
 10
6.541935633507994
 20
-8.634829094788702
 30
0.0
 40
3.799999999999999
 41
0.0
 71
     5
 72
     1
  1
91°
 11
0.713250449173589
 21
0.7009092642801019
 31
0.0
  0
POINT
  5
7F8F
330
7F3C
100
AcDbEntity
  8
DEFPOINTS
 62
     0
100
AcDbPoint
 10
6.24226754441211
 20
-13.07537407390491
 30
0.0
  0
POINT
  5
7F90
330
7F3C
100
AcDbEntity
  8
DEFPOINTS
 62
     0
100
AcDbPoint
 10
23.91153721623106
 20
-1.992097487605105
 30
0.0
  0
POINT
  5
7F91
330
7F3C
100
AcDbEntity
  8
DEFPOINTS
 62
     0
100
AcDbPoint
 10
-0.0001190804727007
 20
-2.809083523699086
 30
0.0
  0
POINT
  5
7F92
330
7F3C
100
AcDbEntity
  8
DEFPOINTS
 62
     0
100
AcDbPoint
 10
-0.2387431649968885
 20
-16.4798481268843
 30
0.0
  0
POINT
  5
7F93
330
7F3C
100
AcDbEntity
  8
DEFPOINTS
 62
     0
100
AcDbPoint
 10
32.21980927343372
 20
-1.992097487605146
 30
0.0
  0
ENDBLK
  5
7F48
330
7F3C
100
AcDbEntity
  8
0
100
AcDbBlockEnd
  0
ENDSEC
  0
SECTION
  2
ENTITIES
  0
POINT
  5
1649
330
1F
100
AcDbEntity
  8
0
 60
     1
100
AcDbPoint
 10
0.0
 20
0.0
 30
0.0
1001
GENIUS_GENOBJ-N-TIT_13
1002
{
1000
OWNER
1000
GEN
1002
}
1001
GENIUS_GENOENT_13
1002
{
1000
MYREF
1005
1649
1002
}
1002
{
1000
GRP
1005
0
1002
}
1001
GENIUS_GENOLIS_13
1002
{
1000
ENT
1005
1641
1005
1630
1002
}
1001
GENIUS_GENTITLE_13
1002
{
1000
SCALE
1000
1:1
1002
}
1002
{
1000
BORDER
1000
IOS-A3
1002
}
1002
{
1000
TITLE
1000
XA3
1002
}
1002
{
1000
UNCHG
1002
{
1000
GEN-TITLE-SCA
1000
GEN-TITLE-SIZ
1002
}
1002
}
1002
{
1000
HRA
1005
1630
1002
}
1002
{
1000
HTIT
1005
1641
1002
}
1002
{
1000
GENIUSID
1005
1649
1002
}
1001
GENIUS_GENODEF_13
1002
{
1000
HIER
1070
     1
1002
}
1002
{
1000
MANEDIT
1070
     0
1002
}
1002
{
1000
NOSEL
1070
     0
1002
}
1002
{
1000
BEHIND
1070
     0
1002
}
1002
{
1000
REACTOR
1002
}
  0
TEXT
  5
7495
330
1F
100
AcDbEntity
  8
AM_6
100
AcDbText
 10
-87.68904200345337
 20
-49.49209732216674
 30
0.0
 40
5.0
  1
DTFNR2020K16
 72
     4
 11
-65.80252625542186
 21
-46.99209732216674
 31
0.0
100
AcDbText
  0
LINE
  5
786E
330
1F
100
AcDbEntity
  8
AM_0
100
AcDbLine
 10
-29.99999876440387
 20
-6.992097322166735
 30
0.0
 11
-124.9999987644039
 21
-6.992097322166723
 31
0.0
  0
LINE
  5
786F
330
1F
100
AcDbEntity
  8
AM_0
100
AcDbLine
 10
-6.611456746439906
 20
-26.99209732216672
 30
0.0
 11
-124.9935957644038
 21
-26.99209732216676
 31
0.0
  0
LINE
  5
7870
330
1F
100
AcDbEntity
  8
AM_0
100
AcDbLine
 10
-29.99999876440387
 20
65.64094443245039
 30
0.0
 11
-124.9935957644038
 21
65.64094443245046
 31
0.0
  0
LINE
  5
7871
330
1F
100
AcDbEntity
  8
AM_0
100
AcDbLine
 10
-124.9999997644039
 20
85.64094443245039
 30
0.0
 11
-29.99999876440387
 21
85.64094443245039
 31
0.0
  0
LINE
  5
7872
330
1F
100
AcDbEntity
  8
AM_0
100
AcDbLine
 10
-29.18040389605818
 20
62.6230247421619
 30
0.0
 11
-29.99999876440387
 21
65.6817944324504
 31
0.0
  0
LINE
  5
7873
330
1F
100
AcDbEntity
  8
AM_0
100
AcDbLine
 10
-26.74524349029564
 20
85.64094443245039
 30
0.0
 11
-26.74524349029565
 21
63.20529505609673
 31
0.0
  0
LINE
  5
7874
330
1F
100
AcDbEntity
  8
AM_0
100
AcDbLine
 10
-15.96292930863057
 20
63.40007136457623
 30
0.0
 11
-15.92206165731772
 21
62.93648619324838
 31
0.0
  0
LINE
  5
7875
330
1F
100
AcDbEntity
  8
AM_0
100
AcDbLine
 10
-4.904769504633463
 20
63.15698670626542
 30
0.0
 11
-1.425868101608671
 21
63.63872285927349
 31
0.0
  0
LINE
  5
7876
330
1F
100
AcDbEntity
  8
AM_0
100
AcDbLine
 10
-3.750582851826493
 20
64.65522218547366
 30
0.0
 11
-7.877702101698218
 21
59.63817900148242
 31
0.0
  0
LINE
  5
7877
330
1F
100
AcDbEntity
  8
AM_0
100
AcDbLine
 10
-9.3285825796371
 20
63.50332660521681
 30
0.0
 11
-17.52789381833497
 21
62.79843304210024
 31
0.0
  0
LINE
  5
7878
330
1F
100
AcDbEntity
  8
AM_0
100
AcDbLine
 10
-5.091473111934078
 20
64.68063657359002
 30
0.0
 11
-9.355587418552545
 21
60.16253642196094
 31
0.0
  0
LINE
  5
7879
330
1F
100
AcDbEntity
  8
AM_0
100
AcDbLine
 10
-8.749863189870666
 20
59.73260715684293
 30
0.0
 11
-4.071211185915331
 21
64.68993634843608
 31
0.0
  0
LINE
  5
787A
330
1F
100
AcDbEntity
  8
AM_0
100
AcDbLine
 10
-3.737938605519161
 20
64.57541943254378
 30
0.0
 11
-7.757409273798771
 21
59.68923691669542
 31
0.0
  0
ELLIPSE
  5
787B
330
1F
100
AcDbEntity
  8
AM_0
100
AcDbEllipse
 10
-18.42257629100129
 20
62.88453300495135
 30
0.0
 11
-4.233581371349204
 21
-0.3732141103508499
 31
0.0
210
0.0
220
0.0
230
1.0
 40
0.0864912970115022
 41
2.659016540582472
 42
6.333728366743895
  0
LINE
  5
787C
330
1F
100
AcDbEntity
  8
AM_0
100
AcDbLine
 10
-3.509344101963847
 20
65.25367083011784
 30
0.0
 11
-26.74524349029565
 21
63.20529505609673
 31
0.0
  0
ELLIPSE
  5
787D
330
1F
100
AcDbEntity
  8
AM_0
100
AcDbEllipse
 10
-11.85807361367403
 20
63.99054850930534
 30
0.0
 11
-2.739376181461261
 21
-0.2414914831681967
 31
0.0
210
0.0
220
0.0
230
0.9999999999999998
 40
0.0864912970115022
 41
4.133662072532343
 42
8.424510670646462
  0
ELLIPSE
  5
787E
330
1F
100
AcDbEntity
  8
AM_0
100
AcDbEllipse
 10
-12.75635938714458
 20
63.91847315340183
 30
0.0
 11
-0.7969094346069097
 21
-0.0702520678307482
 31
0.0
210
0.0
220
0.0
230
1.0
 40
0.0864912970115021
 41
5.210911222249627
 42
7.305306324642837
  0
ELLIPSE
  5
787F
330
1F
100
AcDbEntity
  8
AM_0
100
AcDbEllipse
 10
-4.862948037836645
 20
64.59706854769129
 30
0.0
 11
-1.897640591157703
 21
-0.1672877365219692
 31
0.0
210
0.0
220
0.0
230
1.0
 40
0.0864912970115022
 41
2.189695888870373
 42
3.133969413038998
  0
SPLINE
  5
7880
330
1F
100
AcDbEntity
  8
AM_0
100
AcDbSpline
210
0.0
220
0.0
230
1.0
 70
     8
 71
     3
 72
    10
 73
     6
 74
     0
 42
0.0000000001
 43
0.0000000001
 40
-2.172533024115881
 40
-2.172533024115881
 40
-2.172533024115881
 40
-2.172533024115881
 40
-1.95880263045856
 40
-1.95880263045856
 40
-1.795693929180012
 40
-1.795693929180012
 40
-1.795693929180012
 40
-1.795693929180012
 10
-3.737938605519389
 20
64.57541943254373
 30
0.0
 10
-3.730086395339526
 20
64.5850068491126
 30
0.0
 10
-3.728205858526848
 20
64.59757422336522
 30
0.0
 10
-3.735074835479167
 20
64.6254588830993
 30
0.0
 10
-3.741380638012856
 20
64.63941414785373
 30
0.0
 10
-3.750582851826607
 20
64.6552221854736
 30
0.0
  0
ELLIPSE
  5
7881
330
1F
100
AcDbEntity
  8
AM_0
100
AcDbEllipse
 10
-4.870966371011149
 20
60.46060890028499
 30
0.0
 11
-0.3304134167259884
 21
4.222742051874328
 31
0.0
210
0.0
220
0.0
230
1.0
 40
0.354017362528524
 41
6.210189183518119
 42
6.285901345218028
  0
SPLINE
  5
7882
330
1F
100
AcDbEntity
  8
AM_0
100
AcDbSpline
210
0.0
220
0.0
230
1.0
 70
     8
 71
     3
 72
    14
 73
    10
 74
     0
 42
0.0000000001
 43
0.0000000001
 40
1.795693929180001
 40
1.795693929180001
 40
1.795693929180001
 40
1.795693929180001
 40
1.95880263045855
 40
1.95880263045855
 40
2.212019067573022
 40
2.212019067573022
 40
2.718451941801968
 40
2.718451941801968
 40
2.93947770164182
 40
2.93947770164182
 40
2.93947770164182
 40
2.93947770164182
 10
-4.071211185915444
 20
64.68993634843608
 30
0.0
 10
-4.10428445138416
 20
64.67870544178405
 30
0.0
 10
-4.140678001433229
 20
64.66937320040702
 30
0.0
 10
-4.241203298319533
 20
64.65027213869908
 30
0.0
 10
-4.30961714517582
 20
64.64312287023895
 30
0.0
 10
-4.530099467225909
 20
64.63293410832628
 30
0.0
 10
-4.698547361318674
 20
64.64115359215142
 30
0.0
 10
-4.933316028947615
 20
64.66220256706098
 30
0.0
 10
-5.011968813345561
 20
64.67059728310406
 30
0.0
 10
-5.091473111934078
 20
64.68063657358996
 30
0.0
  0
ELLIPSE
  5
7883
330
1F
100
AcDbEntity
  8
AM_0
100
AcDbEllipse
 10
-5.121400900090748
 20
63.3014311726719
 30
0.0
 11
1.349583319587158
 21
1.381166701714224
 31
0.0
210
0.0
220
0.0
230
1.0
 40
0.253825660324781
 41
6.213108503577735
 42
6.746976998488765
  0
ELLIPSE
  5
7884
330
1F
100
AcDbEntity
  8
AM_0
100
AcDbEllipse
 10
-4.862948037836645
 20
64.59706854769129
 30
0.0
 11
-1.897640591157703
 21
-0.1672877365219692
 31
0.0
210
0.0
220
0.0
230
1.0
 40
0.0864912970115022
 41
3.133969413038983
 42
5.486131200188348
  0
ELLIPSE
  5
7885
330
1F
100
AcDbEntity
  8
AM_0
100
AcDbEllipse
 10
-1.035554405325797
 20
64.33012192369514
 30
0.0
 11
-0.7969094346069097
 21
-0.0702520678307482
 31
0.0
210
0.0
220
0.0
230
1.0
 40
0.0864912970115021
 41
1.022121017463311
 42
3.11651612051904
  0
ELLIPSE
  5
7886
330
1F
100
AcDbEntity
  8
AM_0
100
AcDbEllipse
 10
-1.213363714560159
 20
70.26645301935454
 30
0.0
 11
-0.796909434606909
 21
-0.0702520678307553
 31
0.0
210
0.0
220
0.0
230
1.0
 40
0.0864912970115022
 41
3.141592653589799
 42
5.210911222249606
  0
ELLIPSE
  5
7887
330
1F
100
AcDbEntity
  8
AM_0
100
AcDbEllipse
 10
-0.7969303208016072
 20
65.54261056718551
 30
0.0
 11
-0.7969094346069095
 21
-0.0702520678307482
 31
0.0
210
0.0
220
0.0
230
1.0
 40
0.0864912970115022
 41
3.11651612051904
 42
5.21091122224973
  0
ELLIPSE
  5
7888
330
1F
100
AcDbEntity
  8
AM_0
100
AcDbEllipse
 10
-2.078726509269586
 20
74.88589808758447
 30
0.0
 11
-1.195364151910363
 21
-0.105378101746133
 31
0.0
210
0.0
220
0.0
230
1.0
 40
0.0864912970115022
 41
3.141592653589804
 42
5.210911222912155
  0
LINE
  5
788F
330
1F
100
AcDbEntity
  8
AM_0
100
AcDbLine
 10
-29.99999876440386
 20
85.64094443245039
 30
0.0
 11
-29.99999876440387
 21
65.6817944324504
 31
0.0
  0
LINE
  5
7890
330
1F
100
AcDbEntity
  8
AM_0
100
AcDbLine
 10
-2.083248310345084
 20
85.64094443245039
 30
0.0
 11
-2.083248310345084
 21
74.98969076827373
 31
0.0
  0
LINE
  5
7891
330
1F
100
AcDbEntity
  8
AM_0
100
AcDbLine
 10
-1.083248310345084
 20
85.64094443245039
 30
0.0
 11
-1.083248310345084
 21
75.03067646254706
 31
0.0
  0
LINE
  5
7892
330
1F
100
AcDbEntity
  8
AM_0
100
AcDbLine
 10
-26.74524349029565
 20
85.64094443245039
 30
0.0
 11
-2.083248310345084
 21
85.64094443245039
 31
0.0
  0
LINE
  5
7893
330
1F
100
AcDbEntity
  8
AM_0
100
AcDbLine
 10
-2.083248310345084
 20
85.64094443245039
 30
0.0
 11
-1.083248310345084
 21
85.64094443245039
 31
0.0
  0
LINE
  5
7894
330
1F
100
AcDbEntity
  8
AM_0
100
AcDbLine
 10
-29.99999876440387
 20
85.64094443245039
 30
0.0
 11
-26.74524349029559
 21
85.64094443245039
 31
0.0
  0
LINE
  5
7895
330
1F
100
AcDbEntity
  8
AM_0
100
AcDbLine
 10
-2.836137575925363
 20
74.90588640250692
 30
0.0
 11
-3.509344101963847
 21
65.25367083011784
 31
0.0
  0
LINE
  5
7896
330
1F
100
AcDbEntity
  8
AM_0
100
AcDbLine
 10
-2.658268762770035
 20
74.92631902750978
 30
0.0
 11
-2.242159659971434
 21
70.20615519340052
 31
0.0
  0
LINE
  5
7897
330
1F
100
AcDbEntity
  8
AM_0
100
AcDbLine
 10
-0.474839619106092
 20
70.35716883252391
 30
0.0
 11
-0.8833623573592603
 21
74.99127618933059
 31
0.0
  0
LINE
  5
7898
330
1F
100
AcDbEntity
  8
AM_0
100
AcDbLine
 10
-2.836137575925363
 20
74.90588640250692
 30
0.0
 11
-2.75800971336082
 21
74.91277381488029
 31
0.0
  0
LINE
  5
7899
330
1F
100
AcDbEntity
  8
AM_0
100
AcDbLine
 10
-2.658268762770035
 20
74.92631902750978
 30
0.0
 11
-2.836399700426795
 21
74.90212814691202
 31
0.0
  0
LINE
  5
789A
330
1F
100
AcDbEntity
  8
AM_0
100
AcDbLine
 10
-5.20543883449784
 20
64.6830176766297
 30
0.0
 11
-8.649562079003203
 21
64.38692691547235
 31
0.0
  0
LINE
  5
789B
330
1F
100
AcDbEntity
  8
AM_0
100
AcDbLine
 10
-10.37723393523822
 20
64.32098443095211
 30
0.0
 11
-3.509344101963847
 21
65.25367083011784
 31
0.0
  0
LINE
  5
789C
330
1F
100
AcDbEntity
  8
AM_0
100
AcDbLine
 10
-13.14272088901645
 20
63.94542044674804
 30
0.0
 11
-1.183291822673481
 21
65.56955786053172
 31
0.0
  0
LINE
  5
789D
330
1F
100
AcDbEntity
  8
AM_0
100
AcDbLine
 10
-1.599725216432034
 20
70.29340031270081
 30
0.0
 11
-1.183291822673368
 21
65.56955786053172
 31
0.0
  0
LINE
  5
789E
330
1F
100
AcDbEntity
  8
AM_0
100
AcDbLine
 10
-0.0000208861946476
 20
65.61286263501625
 30
0.0
 11
-0.4164542799532001
 21
70.33670508718532
 31
0.0
  0
LINE
  5
789F
330
1F
100
AcDbEntity
  8
AM_0
100
AcDbLine
 10
-1.59972521643192
 20
70.29340031270081
 30
0.0
 11
-3.172740838944605
 21
70.07977861631238
 31
0.0
  0
LINE
  5
78A0
330
1F
100
AcDbEntity
  8
AM_0
100
AcDbLine
 10
-1.307625552282274
 20
64.2395329096137
 30
0.0
 11
-4.09477002342021
 21
64.14164504304202
 31
0.0
  0
LINE
  5
78A1
330
1F
100
AcDbEntity
  8
AM_0
100
AcDbLine
 10
-1.446004143773848
 20
64.23467288702048
 30
0.0
 11
-4.094770023420323
 21
64.14164504304202
 31
0.0
  0
LINE
  5
78A2
330
1F
100
AcDbEntity
  8
AM_0
100
AcDbLine
 10
-1.425868101608671
 20
63.63872285927349
 30
0.0
 11
-1.307625552282502
 21
64.2395329096137
 31
0.0
  0
LINE
  5
78A3
330
1F
100
AcDbEntity
  8
AM_0
100
AcDbLine
 10
-1.307629186238614
 20
64.24103175504538
 30
0.0
 11
-1.307625552282502
 21
64.2395329096137
 31
0.0
  0
LINE
  5
78A4
330
1F
100
AcDbEntity
  8
AM_0
100
AcDbLine
 10
-0.0001190804727003
 20
65.61111231056068
 30
0.0
 11
-0.2387431649968903
 21
64.39862366707032
 31
0.0
  0
LINE
  5
78A5
330
1F
100
AcDbEntity
  8
AM_0
100
AcDbLine
 10
-3.730328139518746
 20
64.60304400342605
 30
0.0
 11
-3.7501950465263
 21
64.82840570621354
 31
0.0
  0
LINE
  5
78A6
330
1F
100
AcDbEntity
  8
AM_0
100
AcDbLine
 10
-8.969624240348935
 20
63.97043429882515
 30
0.0
 11
-13.16680912559252
 21
63.82302411672722
 31
0.0
  0
LINE
  5
78A7
330
1F
100
AcDbEntity
  8
AM_0
100
AcDbLine
 10
-8.649562079003203
 20
64.3869269154724
 30
0.0
 11
-9.3285825796371
 21
63.50332660521681
 31
0.0
  0
LINE
  5
78A8
330
1F
100
AcDbEntity
  8
AM_0
100
AcDbLine
 10
-8.969624240348935
 20
63.97043429882515
 30
0.0
 11
-10.36101978512908
 21
63.92156681353814
 31
0.0
  0
LINE
  5
78A9
330
1F
100
AcDbEntity
  8
AM_0
100
AcDbLine
 10
-13.55326882175143
 20
63.84822108557106
 30
0.0
 11
-13.569057557262
 21
64.027321753743
 31
0.0
  0
LINE
  5
78AA
330
1F
100
AcDbEntity
  8
AM_0
100
AcDbLine
 10
-13.14272088901645
 20
63.94542044674804
 30
0.0
 11
-13.15523378164084
 21
64.08736135318028
 31
0.0
  0
SPLINE
  5
78AB
330
1F
100
AcDbEntity
  8
AM_0
100
AcDbSpline
210
0.0
220
0.0
230
1.0
 70
    24
 71
     1
 72
     4
 73
     2
 74
     0
 42
0.0000000001
 43
0.0000000001
 40
7.752822300889034
 40
7.752822300889034
 40
7.767055571287658
 40
7.767055571287658
 10
-20.9108484728182
 20
54.37735055197325
 30
0.0
 10
-20.97473536092059
 20
54.42648941828045
 30
0.0
  0
SPLINE
  5
78AC
330
1F
100
AcDbEntity
  8
AM_0
100
AcDbSpline
210
0.0
220
0.0
230
1.0
 70
    24
 71
     1
 72
     4
 73
     2
 74
     0
 42
0.0000000001
 43
0.0000000001
 40
7.738589030490411
 40
7.738589030490411
 40
7.752822300889034
 40
7.752822300889034
 10
-20.85275096300449
 20
54.33883990194343
 30
0.0
 10
-20.9108484728182
 20
54.37735055197325
 30
0.0
  0
SPLINE
  5
78AD
330
1F
100
AcDbEntity
  8
AM_0
100
AcDbSpline
210
0.0
220
0.0
230
1.0
 70
    24
 71
     1
 72
     4
 73
     2
 74
     0
 42
0.0000000001
 43
0.0000000001
 40
7.724355760091786
 40
7.724355760091786
 40
7.738589030490411
 40
7.738589030490411
 10
-20.8001904504423
 20
54.30836676979905
 30
0.0
 10
-20.85275096300449
 20
54.33883990194343
 30
0.0
  0
SPLINE
  5
78AE
330
1F
100
AcDbEntity
  8
AM_0
100
AcDbSpline
210
0.0
220
0.0
230
1.0
 70
    24
 71
     1
 72
     4
 73
     2
 74
     0
 42
0.0000000001
 43
0.0000000001
 40
7.710122489693162
 40
7.710122489693162
 40
7.724355760091786
 40
7.724355760091786
 10
-20.75262059830299
 20
54.2839625715541
 30
0.0
 10
-20.8001904504423
 20
54.30836676979905
 30
0.0
  0
SPLINE
  5
78AF
330
1F
100
AcDbEntity
  8
AM_0
100
AcDbSpline
210
0.0
220
0.0
230
1.0
 70
    24
 71
     1
 72
     4
 73
     2
 74
     0
 42
0.0000000001
 43
0.0000000001
 40
7.695889219294539
 40
7.695889219294539
 40
7.710122489693162
 40
7.710122489693162
 10
-20.70940352151058
 20
54.26416062639444
 30
0.0
 10
-20.75262059830299
 20
54.2839625715541
 30
0.0
  0
SPLINE
  5
78B0
330
1F
100
AcDbEntity
  8
AM_0
100
AcDbSpline
210
0.0
220
0.0
230
1.0
 70
    24
 71
     1
 72
     4
 73
     2
 74
     0
 42
0.0000000001
 43
0.0000000001
 40
7.681655948895914
 40
7.681655948895914
 40
7.695889219294539
 40
7.695889219294539
 10
-20.66991127546395
 20
54.24787570965614
 30
0.0
 10
-20.70940352151058
 20
54.26416062639444
 30
0.0
  0
SPLINE
  5
78B1
330
1F
100
AcDbEntity
  8
AM_0
100
AcDbSpline
210
0.0
220
0.0
230
1.0
 70
    24
 71
     1
 72
     4
 73
     2
 74
     0
 42
0.0000000001
 43
0.0000000001
 40
7.653189408098667
 40
7.653189408098667
 40
7.681655948895914
 40
7.681655948895914
 10
-20.59987764697541
 20
54.22284924979365
 30
0.0
 10
-20.66991127546395
 20
54.24787570965614
 30
0.0
  0
SPLINE
  5
78B2
330
1F
100
AcDbEntity
  8
AM_0
100
AcDbSpline
210
0.0
220
0.0
230
1.0
 70
    24
 71
     1
 72
     4
 73
     2
 74
     0
 42
0.0000000001
 43
0.0000000001
 40
7.624722867301419
 40
7.624722867301419
 40
7.653189408098667
 40
7.653189408098667
 10
-20.53876585473847
 20
54.20460573786343
 30
0.0
 10
-20.59987764697541
 20
54.22284924979365
 30
0.0
  0
SPLINE
  5
78B3
330
1F
100
AcDbEntity
  8
AM_0
100
AcDbSpline
210
0.0
220
0.0
230
1.0
 70
    24
 71
     1
 72
     4
 73
     2
 74
     0
 42
0.0000000001
 43
0.0000000001
 40
7.59625632650417
 40
7.59625632650417
 40
7.624722867301419
 40
7.624722867301419
 10
-20.48383340059547
 20
54.19071065200743
 30
0.0
 10
-20.53876585473847
 20
54.20460573786343
 30
0.0
  0
SPLINE
  5
78B4
330
1F
100
AcDbEntity
  8
AM_0
100
AcDbSpline
210
0.0
220
0.0
230
1.0
 70
    24
 71
     1
 72
     4
 73
     2
 74
     0
 42
0.0000000001
 43
0.0000000001
 40
7.551471008050473
 40
7.551471008050473
 40
7.59625632650417
 40
7.59625632650417
 10
-20.40537735728469
 20
54.17439080911188
 30
0.0
 10
-20.48383340059547
 20
54.19071065200743
 30
0.0
  0
SPLINE
  5
78B5
330
1F
100
AcDbEntity
  8
AM_0
100
AcDbSpline
210
0.0
220
0.0
230
1.0
 70
    24
 71
     1
 72
     4
 73
     2
 74
     0
 42
0.0000000001
 43
0.0000000001
 40
7.506685689596777
 40
7.506685689596777
 40
7.551471008050473
 40
7.551471008050473
 10
-20.33240669431256
 20
54.16231886724941
 30
0.0
 10
-20.40537735728469
 20
54.17439080911188
 30
0.0
  0
SPLINE
  5
78B6
330
1F
100
AcDbEntity
  8
AM_0
100
AcDbSpline
210
0.0
220
0.0
230
1.0
 70
    24
 71
     1
 72
     4
 73
     2
 74
     0
 42
0.0000000001
 43
0.0000000001
 40
7.461900371143078
 40
7.461900371143078
 40
7.506685689596777
 40
7.506685689596777
 10
-20.26180851690662
 20
54.15294677567519
 30
0.0
 10
-20.33240669431256
 20
54.16231886724941
 30
0.0
  0
SPLINE
  5
78B7
330
1F
100
AcDbEntity
  8
AM_0
100
AcDbSpline
210
0.0
220
0.0
230
1.0
 70
    24
 71
     1
 72
     4
 73
     2
 74
     0
 42
0.0000000001
 43
0.0000000001
 40
7.417115052689381
 40
7.417115052689381
 40
7.461900371143078
 40
7.461900371143078
 10
-20.19162979984389
 20
54.14545371704949
 30
0.0
 10
-20.26180851690662
 20
54.15294677567519
 30
0.0
  0
SPLINE
  5
78B8
330
1F
100
AcDbEntity
  8
AM_0
100
AcDbSpline
210
0.0
220
0.0
230
1.0
 70
    24
 71
     1
 72
     4
 73
     2
 74
     0
 42
0.0000000001
 43
0.0000000001
 40
7.372329734235684
 40
7.372329734235684
 40
7.417115052689381
 40
7.417115052689381
 10
-20.12061334462271
 20
54.13937913551993
 30
0.0
 10
-20.19162979984389
 20
54.14545371704949
 30
0.0
  0
SPLINE
  5
78B9
330
1F
100
AcDbEntity
  8
AM_0
100
AcDbSpline
210
0.0
220
0.0
230
1.0
 70
    24
 71
     1
 72
     4
 73
     2
 74
     0
 42
0.0000000001
 43
0.0000000001
 40
7.327544415781988
 40
7.327544415781988
 40
7.372329734235684
 40
7.372329734235684
 10
-20.04793602096708
 20
54.13445232576638
 30
0.0
 10
-20.12061334462271
 20
54.13937913551993
 30
0.0
  0
SPLINE
  5
78BA
330
1F
100
AcDbEntity
  8
AM_0
100
AcDbSpline
210
0.0
220
0.0
230
1.0
 70
    24
 71
     1
 72
     4
 73
     2
 74
     0
 42
0.0000000001
 43
0.0000000001
 40
7.282759097328289
 40
7.282759097328289
 40
7.327544415781988
 40
7.327544415781988
 10
-19.9730560524664
 20
54.13050789788783
 30
0.0
 10
-20.04793602096708
 20
54.13445232576638
 30
0.0
  0
SPLINE
  5
78BB
330
1F
100
AcDbEntity
  8
AM_0
100
AcDbSpline
210
0.0
220
0.0
230
1.0
 70
    24
 71
     1
 72
     4
 73
     2
 74
     0
 42
0.0000000001
 43
0.0000000001
 40
7.237973778874592
 40
7.237973778874592
 40
7.282759097328289
 40
7.282759097328289
 10
-19.8956206987417
 20
54.12744139504039
 30
0.0
 10
-19.9730560524664
 20
54.13050789788783
 30
0.0
  0
SPLINE
  5
78BC
330
1F
100
AcDbEntity
  8
AM_0
100
AcDbSpline
210
0.0
220
0.0
230
1.0
 70
    24
 71
     1
 72
     4
 73
     2
 74
     0
 42
0.0000000001
 43
0.0000000001
 40
7.193188460420896
 40
7.193188460420896
 40
7.237973778874592
 40
7.237973778874592
 10
-19.81540851905822
 20
54.12518482870908
 30
0.0
 10
-19.8956206987417
 20
54.12744139504039
 30
0.0
  0
SPLINE
  5
78BD
330
1F
100
AcDbEntity
  8
AM_0
100
AcDbSpline
210
0.0
220
0.0
230
1.0
 70
    24
 71
     1
 72
     4
 73
     2
 74
     0
 42
0.0000000001
 43
0.0000000001
 40
7.150310827182457
 40
7.150310827182457
 40
7.193188460420896
 40
7.193188460420896
 10
-19.73589274672804
 20
54.12374104764094
 30
0.0
 10
-19.81540851905822
 20
54.12518482870908
 30
0.0
  0
SPLINE
  5
78BE
330
1F
100
AcDbEntity
  8
AM_0
100
AcDbSpline
210
0.0
220
0.0
230
1.0
 70
    24
 71
     1
 72
     4
 73
     2
 74
     0
 42
0.0000000001
 43
0.0000000001
 40
7.107433193944019
 40
7.107433193944019
 40
7.150310827182457
 40
7.150310827182457
 10
-19.6536624718044
 20
54.1229699389024
 30
0.0
 10
-19.73589274672804
 20
54.12374104764094
 30
0.0
  0
SPLINE
  5
78BF
330
1F
100
AcDbEntity
  8
AM_0
100
AcDbSpline
210
0.0
220
0.0
230
1.0
 70
    24
 71
     1
 72
     4
 73
     2
 74
     0
 42
0.0000000001
 43
0.0000000001
 40
7.06455556070558
 40
7.06455556070558
 40
7.107433193944019
 40
7.107433193944019
 10
-19.56871016168486
 20
54.12285120728481
 30
0.0
 10
-19.6536624718044
 20
54.1229699389024
 30
0.0
  0
SPLINE
  5
78C0
330
1F
100
AcDbEntity
  8
AM_0
100
AcDbSpline
210
0.0
220
0.0
230
1.0
 70
    24
 71
     1
 72
     4
 73
     2
 74
     0
 42
0.0000000001
 43
0.0000000001
 40
7.021677927467142
 40
7.021677927467142
 40
7.06455556070558
 40
7.06455556070558
 10
-19.48106303219072
 20
54.12336943263588
 30
0.0
 10
-19.56871016168486
 20
54.12285120728481
 30
0.0
  0
SPLINE
  5
78C1
330
1F
100
AcDbEntity
  8
AM_0
100
AcDbSpline
210
0.0
220
0.0
230
1.0
 70
    24
 71
     1
 72
     4
 73
     2
 74
     0
 42
0.0000000001
 43
0.0000000001
 40
6.978800294228704
 40
6.978800294228704
 40
7.021677927467142
 40
7.021677927467142
 10
-19.39077600617895
 20
54.12451229505703
 30
0.0
 10
-19.48106303219072
 20
54.12336943263588
 30
0.0
  0
SPLINE
  5
78C2
330
1F
100
AcDbEntity
  8
AM_0
100
AcDbSpline
210
0.0
220
0.0
230
1.0
 70
    24
 71
     1
 72
     4
 73
     2
 74
     0
 42
0.0000000001
 43
0.0000000001
 40
6.935922660990265
 40
6.935922660990265
 40
6.978800294228704
 40
6.978800294228704
 10
-19.29792649482749
 20
54.12626938193742
 30
0.0
 10
-19.39077600617895
 20
54.12451229505703
 30
0.0
  0
SPLINE
  5
78C3
330
1F
100
AcDbEntity
  8
AM_0
100
AcDbSpline
210
0.0
220
0.0
230
1.0
 70
    24
 71
     1
 72
     4
 73
     2
 74
     0
 42
0.0000000001
 43
0.0000000001
 40
6.893045027751827
 40
6.893045027751827
 40
6.935922660990265
 40
6.935922660990265
 10
-19.20261044964388
 20
54.12863137269133
 30
0.0
 10
-19.29792649482749
 20
54.12626938193742
 30
0.0
  0
SPLINE
  5
78C4
330
1F
100
AcDbEntity
  8
AM_0
100
AcDbSpline
210
0.0
220
0.0
230
1.0
 70
    24
 71
     1
 72
     4
 73
     2
 74
     0
 42
0.0000000001
 43
0.0000000001
 40
6.850167394513388
 40
6.850167394513388
 40
6.893045027751827
 40
6.893045027751827
 10
-19.10493931459484
 20
54.13158947393711
 30
0.0
 10
-19.20261044964388
 20
54.12863137269133
 30
0.0
  0
SPLINE
  5
78C5
330
1F
100
AcDbEntity
  8
AM_0
100
AcDbSpline
210
0.0
220
0.0
230
1.0
 70
    24
 71
     1
 72
     4
 73
     2
 74
     0
 42
0.0000000001
 43
0.0000000001
 40
6.808646101316424
 40
6.808646101316424
 40
6.850167394513388
 40
6.850167394513388
 10
-19.00823062230199
 20
54.13501395870875
 30
0.0
 10
-19.10493931459484
 20
54.13158947393711
 30
0.0
  0
SPLINE
  5
78C6
330
1F
100
AcDbEntity
  8
AM_0
100
AcDbSpline
210
0.0
220
0.0
230
1.0
 70
    24
 71
     1
 72
     4
 73
     2
 74
     0
 42
0.0000000001
 43
0.0000000001
 40
6.76712480811946
 40
6.76712480811946
 40
6.808646101316424
 40
6.808646101316424
 10
-18.90955329171117
 20
54.13898132175077
 30
0.0
 10
-19.00823062230199
 20
54.13501395870875
 30
0.0
  0
SPLINE
  5
78C7
330
1F
100
AcDbEntity
  8
AM_0
100
AcDbSpline
210
0.0
220
0.0
230
1.0
 70
    24
 71
     1
 72
     4
 73
     2
 74
     0
 42
0.0000000001
 43
0.0000000001
 40
6.725603514922494
 40
6.725603514922494
 40
6.76712480811946
 40
6.76712480811946
 10
-18.80903886751309
 20
54.14348327083499
 30
0.0
 10
-18.90955329171117
 20
54.13898132175077
 30
0.0
  0
SPLINE
  5
78C8
330
1F
100
AcDbEntity
  8
AM_0
100
AcDbSpline
210
0.0
220
0.0
230
1.0
 70
    24
 71
     1
 72
     4
 73
     2
 74
     0
 42
0.0000000001
 43
0.0000000001
 40
6.68408222172553
 40
6.68408222172553
 40
6.725603514922494
 40
6.725603514922494
 10
-18.70682621686944
 20
54.14851109558154
 30
0.0
 10
-18.80903886751309
 20
54.14348327083499
 30
0.0
  0
SPLINE
  5
78C9
330
1F
100
AcDbEntity
  8
AM_0
100
AcDbSpline
210
0.0
220
0.0
230
1.0
 70
    24
 71
     1
 72
     4
 73
     2
 74
     0
 42
0.0000000001
 43
0.0000000001
 40
6.642560928528565
 40
6.642560928528565
 40
6.68408222172553
 40
6.68408222172553
 10
-18.60306055428043
 20
54.15405558333262
 30
0.0
 10
-18.70682621686944
 20
54.14851109558154
 30
0.0
  0
SPLINE
  5
78CA
330
1F
100
AcDbEntity
  8
AM_0
100
AcDbSpline
210
0.0
220
0.0
230
1.0
 70
    24
 71
     1
 72
     4
 73
     2
 74
     0
 42
0.0000000001
 43
0.0000000001
 40
6.601039635331599
 40
6.601039635331599
 40
6.642560928528565
 40
6.642560928528565
 10
-18.49789259008741
 20
54.16010696162905
 30
0.0
 10
-18.60306055428043
 20
54.15405558333262
 30
0.0
  0
SPLINE
  5
78CB
330
1F
100
AcDbEntity
  8
AM_0
100
AcDbSpline
210
0.0
220
0.0
230
1.0
 70
    24
 71
     1
 72
     4
 73
     2
 74
     0
 42
0.0000000001
 43
0.0000000001
 40
6.559518342134635
 40
6.559518342134635
 40
6.601039635331599
 40
6.601039635331599
 10
-18.39147777375262
 20
54.16665486091196
 30
0.0
 10
-18.49789259008741
 20
54.16010696162905
 30
0.0
  0
SPLINE
  5
78CC
330
1F
100
AcDbEntity
  8
AM_0
100
AcDbSpline
210
0.0
220
0.0
230
1.0
 70
    24
 71
     1
 72
     4
 73
     2
 74
     0
 42
0.0000000001
 43
0.0000000001
 40
6.517997048937671
 40
6.517997048937671
 40
6.559518342134635
 40
6.559518342134635
 10
-18.28397561006591
 20
54.17368829291061
 30
0.0
 10
-18.39147777375262
 20
54.16665486091196
 30
0.0
  0
SPLINE
  5
78CD
330
1F
100
AcDbEntity
  8
AM_0
100
AcDbSpline
210
0.0
220
0.0
230
1.0
 70
    24
 71
     1
 72
     4
 73
     2
 74
     0
 42
0.0000000001
 43
0.0000000001
 40
6.476638733150054
 40
6.476638733150054
 40
6.517997048937671
 40
6.517997048937671
 10
-18.17597621472748
 20
54.18116526326357
 30
0.0
 10
-18.28397561006591
 20
54.17368829291061
 30
0.0
  0
SPLINE
  5
78CE
330
1F
100
AcDbEntity
  8
AM_0
100
AcDbSpline
210
0.0
220
0.0
230
1.0
 70
    24
 71
     1
 72
     4
 73
     2
 74
     0
 42
0.0000000001
 43
0.0000000001
 40
6.435280417362438
 40
6.435280417362438
 40
6.476638733150054
 40
6.476638733150054
 10
-18.06722347248467
 20
54.18910033924496
 30
0.0
 10
-18.17597621472748
 20
54.18116526326357
 30
0.0
  0
SPLINE
  5
78CF
330
1F
100
AcDbEntity
  8
AM_0
100
AcDbSpline
210
0.0
220
0.0
230
1.0
 70
    24
 71
     1
 72
     4
 73
     2
 74
     0
 42
0.0000000001
 43
0.0000000001
 40
6.393922101574823
 40
6.393922101574823
 40
6.435280417362438
 40
6.435280417362438
 10
-17.95788346879158
 20
54.19748081471349
 30
0.0
 10
-18.06722347248467
 20
54.18910033924496
 30
0.0
  0
SPLINE
  5
78D0
330
1F
100
AcDbEntity
  8
AM_0
100
AcDbSpline
210
0.0
220
0.0
230
1.0
 70
    24
 71
     1
 72
     4
 73
     2
 74
     0
 42
0.0000000001
 43
0.0000000001
 40
6.352563785787205
 40
6.352563785787205
 40
6.393922101574823
 40
6.393922101574823
 10
-17.84812403127477
 20
54.20629339208407
 30
0.0
 10
-17.95788346879158
 20
54.19748081471349
 30
0.0
  0
SPLINE
  5
78D1
330
1F
100
AcDbEntity
  8
AM_0
100
AcDbSpline
210
0.0
220
0.0
230
1.0
 70
    24
 71
     1
 72
     4
 73
     2
 74
     0
 42
0.0000000001
 43
0.0000000001
 40
6.31120546999959
 40
6.31120546999959
 40
6.352563785787205
 40
6.352563785787205
 10
-17.73811423139397
 20
54.21552420522428
 30
0.0
 10
-17.84812403127477
 20
54.20629339208407
 30
0.0
  0
SPLINE
  5
78D2
330
1F
100
AcDbEntity
  8
AM_0
100
AcDbSpline
210
0.0
220
0.0
230
1.0
 70
    24
 71
     1
 72
     4
 73
     2
 74
     0
 42
0.0000000001
 43
0.0000000001
 40
6.269847154211973
 40
6.269847154211973
 40
6.31120546999959
 40
6.31120546999959
 10
-17.6280238985372
 20
54.22515884838472
 30
0.0
 10
-17.73811423139397
 20
54.21552420522428
 30
0.0
  0
SPLINE
  5
78D3
330
1F
100
AcDbEntity
  8
AM_0
100
AcDbSpline
210
0.0
220
0.0
230
1.0
 70
    24
 71
     1
 72
     4
 73
     2
 74
     0
 42
0.0000000001
 43
0.0000000001
 40
6.228488838424357
 40
6.228488838424357
 40
6.269847154211973
 40
6.269847154211973
 10
-17.51802314179815
 20
54.2351824110057
 30
0.0
 10
-17.6280238985372
 20
54.22515884838472
 30
0.0
  0
SPLINE
  5
78D4
330
1F
100
AcDbEntity
  8
AM_0
100
AcDbSpline
210
0.0
220
0.0
230
1.0
 70
    24
 71
     1
 72
     4
 73
     2
 74
     0
 42
0.0000000001
 43
0.0000000001
 40
6.187130522636741
 40
6.187130522636741
 40
6.228488838424357
 40
6.228488838424357
 10
-17.40828187511192
 20
54.24557951848115
 30
0.0
 10
-17.51802314179815
 20
54.2351824110057
 30
0.0
  0
SPLINE
  5
78D5
330
1F
100
AcDbEntity
  8
AM_0
100
AcDbSpline
210
0.0
220
0.0
230
1.0
 70
    24
 71
     1
 72
     4
 73
     2
 74
     0
 42
0.0000000001
 43
0.0000000001
 40
6.145037978754668
 40
6.145037978754668
 40
6.187130522636741
 40
6.187130522636741
 10
-17.2970336289602
 20
54.25652844293702
 30
0.0
 10
-17.40828187511192
 20
54.24557951848115
 30
0.0
  0
SPLINE
  5
78D6
330
1F
100
AcDbEntity
  8
AM_0
100
AcDbSpline
210
0.0
220
0.0
230
1.0
 70
    24
 71
     1
 72
     4
 73
     2
 74
     0
 42
0.0000000001
 43
0.0000000001
 40
6.102945434872596
 40
6.102945434872596
 40
6.145037978754668
 40
6.145037978754668
 10
-17.18640665849273
 20
54.26783090125835
 30
0.0
 10
-17.2970336289602
 20
54.25652844293702
 30
0.0
  0
SPLINE
  5
78D7
330
1F
100
AcDbEntity
  8
AM_0
100
AcDbSpline
210
0.0
220
0.0
230
1.0
 70
    24
 71
     1
 72
     4
 73
     2
 74
     0
 42
0.0000000001
 43
0.0000000001
 40
6.060852890990524
 40
6.060852890990524
 40
6.102945434872596
 40
6.102945434872596
 10
-17.07657638133753
 20
54.27946953800725
 30
0.0
 10
-17.18640665849273
 20
54.26783090125835
 30
0.0
  0
SPLINE
  5
78D8
330
1F
100
AcDbEntity
  8
AM_0
100
AcDbSpline
210
0.0
220
0.0
230
1.0
 70
    24
 71
     1
 72
     4
 73
     2
 74
     0
 42
0.0000000001
 43
0.0000000001
 40
6.018760347108451
 40
6.018760347108451
 40
6.060852890990524
 40
6.060852890990524
 10
-16.96771589268655
 20
54.29142675295785
 30
0.0
 10
-17.07657638133753
 20
54.27946953800725
 30
0.0
  0
SPLINE
  5
78D9
330
1F
100
AcDbEntity
  8
AM_0
100
AcDbSpline
210
0.0
220
0.0
230
1.0
 70
    24
 71
     1
 72
     4
 73
     2
 74
     0
 42
0.0000000001
 43
0.0000000001
 40
5.976667803226378
 40
5.976667803226378
 40
6.018760347108451
 40
6.018760347108451
 10
-16.85999539079023
 20
54.3036847903393
 30
0.0
 10
-16.96771589268655
 20
54.29142675295785
 30
0.0
  0
SPLINE
  5
78DA
330
1F
100
AcDbEntity
  8
AM_0
100
AcDbSpline
210
0.0
220
0.0
230
1.0
 70
    24
 71
     1
 72
     4
 73
     2
 74
     0
 42
0.0000000001
 43
0.0000000001
 40
5.934575259344306
 40
5.934575259344306
 40
5.976667803226378
 40
5.976667803226378
 10
-16.75358157145956
 20
54.31622584252043
 30
0.0
 10
-16.85999539079023
 20
54.3036847903393
 30
0.0
  0
SPLINE
  5
78DB
330
1F
100
AcDbEntity
  8
AM_0
100
AcDbSpline
210
0.0
220
0.0
230
1.0
 70
    24
 71
     1
 72
     4
 73
     2
 74
     0
 42
0.0000000001
 43
0.0000000001
 40
5.892482715462234
 40
5.892482715462234
 40
5.934575259344306
 40
5.934575259344306
 10
-16.64863698154056
 20
54.3290321715713
 30
0.0
 10
-16.75358157145956
 20
54.31622584252043
 30
0.0
  0
SPLINE
  5
78DC
330
1F
100
AcDbEntity
  8
AM_0
100
AcDbSpline
210
0.0
220
0.0
230
1.0
 70
    24
 71
     1
 72
     4
 73
     2
 74
     0
 42
0.0000000001
 43
0.0000000001
 40
5.850390171580161
 40
5.850390171580161
 40
5.892482715462234
 40
5.892482715462234
 10
-16.54531931865574
 20
54.34208625331464
 30
0.0
 10
-16.64863698154056
 20
54.3290321715713
 30
0.0
  0
SPLINE
  5
78DD
330
1F
100
AcDbEntity
  8
AM_0
100
AcDbSpline
210
0.0
220
0.0
230
1.0
 70
    24
 71
     1
 72
     4
 73
     2
 74
     0
 42
0.0000000001
 43
0.0000000001
 40
5.80403605694071
 40
5.80403605694071
 40
5.850390171580161
 40
5.850390171580161
 10
-16.4336055139812
 20
54.35672813475136
 30
0.0
 10
-16.54531931865574
 20
54.34208625331464
 30
0.0
  0
SPLINE
  5
78DE
330
1F
100
AcDbEntity
  8
AM_0
100
AcDbSpline
210
0.0
220
0.0
230
1.0
 70
    24
 71
     1
 72
     4
 73
     2
 74
     0
 42
0.0000000001
 43
0.0000000001
 40
5.757681942301259
 40
5.757681942301259
 40
5.80403605694071
 40
5.80403605694071
 10
-16.32424297400416
 20
54.37162767108273
 30
0.0
 10
-16.4336055139812
 20
54.35672813475136
 30
0.0
  0
SPLINE
  5
78DF
330
1F
100
AcDbEntity
  8
AM_0
100
AcDbSpline
210
0.0
220
0.0
230
1.0
 70
    24
 71
     1
 72
     4
 73
     2
 74
     0
 42
0.0000000001
 43
0.0000000001
 40
5.711327827661809
 40
5.711327827661809
 40
5.757681942301259
 40
5.757681942301259
 10
-16.21741449754324
 20
54.3867641337653
 30
0.0
 10
-16.32424297400416
 20
54.37162767108273
 30
0.0
  0
SPLINE
  5
78E0
330
1F
100
AcDbEntity
  8
AM_0
100
AcDbSpline
210
0.0
220
0.0
230
1.0
 70
    24
 71
     1
 72
     4
 73
     2
 74
     0
 42
0.0000000001
 43
0.0000000001
 40
5.664973713022357
 40
5.664973713022357
 40
5.711327827661809
 40
5.711327827661809
 10
-16.11328984925774
 20
54.40211864291987
 30
0.0
 10
-16.21741449754324
 20
54.3867641337653
 30
0.0
  0
SPLINE
  5
78E1
330
1F
100
AcDbEntity
  8
AM_0
100
AcDbSpline
210
0.0
220
0.0
230
1.0
 70
    24
 71
     1
 72
     4
 73
     2
 74
     0
 42
0.0000000001
 43
0.0000000001
 40
5.618619598382906
 40
5.618619598382906
 40
5.664973713022357
 40
5.664973713022357
 10
-16.01202347298601
 20
54.41767487788197
 30
0.0
 10
-16.11328984925774
 20
54.40211864291987
 30
0.0
  0
SPLINE
  5
78E2
330
1F
100
AcDbEntity
  8
AM_0
100
AcDbSpline
210
0.0
220
0.0
230
1.0
 70
    24
 71
     1
 72
     4
 73
     2
 74
     0
 42
0.0000000001
 43
0.0000000001
 40
5.572265483743456
 40
5.572265483743456
 40
5.618619598382906
 40
5.618619598382906
 10
-15.91375166275872
 20
54.43342002297194
 30
0.0
 10
-16.01202347298601
 20
54.41767487788197
 30
0.0
  0
SPLINE
  5
78E3
330
1F
100
AcDbEntity
  8
AM_0
100
AcDbSpline
210
0.0
220
0.0
230
1.0
 70
    24
 71
     1
 72
     4
 73
     2
 74
     0
 42
0.0000000001
 43
0.0000000001
 40
5.525911369104004
 40
5.525911369104004
 40
5.572265483743456
 40
5.572265483743456
 10
-15.81858897890469
 20
54.44934605186372
 30
0.0
 10
-15.91375166275872
 20
54.43342002297194
 30
0.0
  0
SPLINE
  5
78E4
330
1F
100
AcDbEntity
  8
AM_0
100
AcDbSpline
210
0.0
220
0.0
230
1.0
 70
    24
 71
     1
 72
     4
 73
     2
 74
     0
 42
0.0000000001
 43
0.0000000001
 40
5.479557254464554
 40
5.479557254464554
 40
5.525911369104004
 40
5.525911369104004
 10
-15.72662359928324
 20
54.46545150866578
 30
0.0
 10
-15.81858897890469
 20
54.44934605186372
 30
0.0
  0
SPLINE
  5
78E5
330
1F
100
AcDbEntity
  8
AM_0
100
AcDbSpline
210
0.0
220
0.0
230
1.0
 70
    24
 71
     1
 72
     4
 73
     2
 74
     0
 42
0.0000000001
 43
0.0000000001
 40
5.434345049944163
 40
5.434345049944163
 40
5.479557254464554
 40
5.479557254464554
 10
-15.64005724049684
 20
54.48134029743536
 30
0.0
 10
-15.72662359928324
 20
54.46545150866578
 30
0.0
  0
SPLINE
  5
78E6
330
1F
100
AcDbEntity
  8
AM_0
100
AcDbSpline
210
0.0
220
0.0
230
1.0
 70
    24
 71
     1
 72
     4
 73
     2
 74
     0
 42
0.0000000001
 43
0.0000000001
 40
5.389132845423771
 40
5.389132845423771
 40
5.434345049944163
 40
5.434345049944163
 10
-15.55659987518697
 20
54.49742572733348
 30
0.0
 10
-15.64005724049684
 20
54.48134029743536
 30
0.0
  0
SPLINE
  5
78E7
330
1F
100
AcDbEntity
  8
AM_0
100
AcDbSpline
210
0.0
220
0.0
230
1.0
 70
    24
 71
     1
 72
     4
 73
     2
 74
     0
 42
0.0000000001
 43
0.0000000001
 40
5.343920640903379
 40
5.343920640903379
 40
5.389132845423771
 40
5.389132845423771
 10
-15.47621841003626
 20
54.51374283790338
 30
0.0
 10
-15.55659987518697
 20
54.49742572733348
 30
0.0
  0
SPLINE
  5
78E8
330
1F
100
AcDbEntity
  8
AM_0
100
AcDbSpline
210
0.0
220
0.0
230
1.0
 70
    24
 71
     1
 72
     4
 73
     2
 74
     0
 42
0.0000000001
 43
0.0000000001
 40
5.298708436382987
 40
5.298708436382987
 40
5.343920640903379
 40
5.343920640903379
 10
-15.39881794932728
 20
54.53035020955647
 30
0.0
 10
-15.47621841003626
 20
54.51374283790338
 30
0.0
  0
SPLINE
  5
78E9
330
1F
100
AcDbEntity
  8
AM_0
100
AcDbSpline
210
0.0
220
0.0
230
1.0
 70
    24
 71
     1
 72
     4
 73
     2
 74
     0
 42
0.0000000001
 43
0.0000000001
 40
5.253496231862596
 40
5.253496231862596
 40
5.298708436382987
 40
5.298708436382987
 10
-15.32422078726699
 20
54.5473412088709
 30
0.0
 10
-15.39881794932728
 20
54.53035020955647
 30
0.0
  0
SPLINE
  5
78EA
330
1F
100
AcDbEntity
  8
AM_0
100
AcDbSpline
210
0.0
220
0.0
230
1.0
 70
    24
 71
     1
 72
     4
 73
     2
 74
     0
 42
0.0000000001
 43
0.0000000001
 40
5.208284027342205
 40
5.208284027342205
 40
5.253496231862596
 40
5.253496231862596
 10
-15.25213518833072
 20
54.56486205439879
 30
0.0
 10
-15.32422078726699
 20
54.5473412088709
 30
0.0
  0
SPLINE
  5
78EB
330
1F
100
AcDbEntity
  8
AM_0
100
AcDbSpline
210
0.0
220
0.0
230
1.0
 70
    24
 71
     1
 72
     4
 73
     2
 74
     0
 42
0.0000000001
 43
0.0000000001
 40
5.163071822821813
 40
5.163071822821813
 40
5.208284027342205
 40
5.208284027342205
 10
-15.1821077015619
 20
54.58314190244138
 30
0.0
 10
-15.25213518833072
 20
54.56486205439879
 30
0.0
  0
SPLINE
  5
78EC
330
1F
100
AcDbEntity
  8
AM_0
100
AcDbSpline
210
0.0
220
0.0
230
1.0
 70
    24
 71
     1
 72
     4
 73
     2
 74
     0
 42
0.0000000001
 43
0.0000000001
 40
5.117859618301422
 40
5.117859618301422
 40
5.163071822821813
 40
5.163071822821813
 10
-15.11344815647214
 20
54.60254504389187
 30
0.0
 10
-15.1821077015619
 20
54.58314190244138
 30
0.0
  0
SPLINE
  5
78ED
330
1F
100
AcDbEntity
  8
AM_0
100
AcDbSpline
210
0.0
220
0.0
230
1.0
 70
    24
 71
     1
 72
     4
 73
     2
 74
     0
 42
0.0000000001
 43
0.0000000001
 40
5.072647413781031
 40
5.072647413781031
 40
5.117859618301422
 40
5.117859618301422
 10
-15.04510797577665
 20
54.62366582277187
 30
0.0
 10
-15.11344815647214
 20
54.60254504389187
 30
0.0
  0
SPLINE
  5
78EE
330
1F
100
AcDbEntity
  8
AM_0
100
AcDbSpline
210
0.0
220
0.0
230
1.0
 70
    24
 71
     1
 72
     4
 73
     2
 74
     0
 42
0.0000000001
 43
0.0000000001
 40
5.027435209260639
 40
5.027435209260639
 40
5.072647413781031
 40
5.072647413781031
 10
-14.97547645112001
 20
54.64751089019237
 30
0.0
 10
-15.04510797577665
 20
54.62366582277187
 30
0.0
  0
SPLINE
  5
78EF
330
1F
100
AcDbEntity
  8
AM_0
100
AcDbSpline
210
0.0
220
0.0
230
1.0
 70
    24
 71
     1
 72
     4
 73
     2
 74
     0
 42
0.0000000001
 43
0.0000000001
 40
5.004868161620594
 40
5.004868161620594
 40
5.027435209260639
 40
5.027435209260639
 10
-14.93950104435055
 20
54.66094253220219
 30
0.0
 10
-14.97547645112001
 20
54.64751089019237
 30
0.0
  0
SPLINE
  5
78F0
330
1F
100
AcDbEntity
  8
AM_0
100
AcDbSpline
210
0.0
220
0.0
230
1.0
 70
    24
 71
     1
 72
     4
 73
     2
 74
     0
 42
0.0000000001
 43
0.0000000001
 40
4.982301113980548
 40
4.982301113980548
 40
5.004868161620594
 40
5.004868161620594
 10
-14.90216227739404
 20
54.67581741210884
 30
0.0
 10
-14.93950104435055
 20
54.66094253220219
 30
0.0
  0
SPLINE
  5
78F1
330
1F
100
AcDbEntity
  8
AM_0
100
AcDbSpline
210
0.0
220
0.0
230
1.0
 70
    24
 71
     1
 72
     4
 73
     2
 74
     0
 42
0.0000000001
 43
0.0000000001
 40
4.959734066340502
 40
4.959734066340502
 40
4.982301113980548
 40
4.982301113980548
 10
-14.86290562877104
 20
54.69261112898895
 30
0.0
 10
-14.90216227739404
 20
54.67581741210884
 30
0.0
  0
SPLINE
  5
78F2
330
1F
100
AcDbEntity
  8
AM_0
100
AcDbSpline
210
0.0
220
0.0
230
1.0
 70
    24
 71
     1
 72
     4
 73
     2
 74
     0
 42
0.0000000001
 43
0.0000000001
 40
4.937167018700456
 40
4.937167018700456
 40
4.959734066340502
 40
4.959734066340502
 10
-14.82102270662539
 20
54.71199942954448
 30
0.0
 10
-14.86290562877104
 20
54.69261112898895
 30
0.0
  0
SPLINE
  5
78F3
330
1F
100
AcDbEntity
  8
AM_0
100
AcDbSpline
210
0.0
220
0.0
230
1.0
 70
    24
 71
     1
 72
     4
 73
     2
 74
     0
 42
0.0000000001
 43
0.0000000001
 40
4.91459997106041
 40
4.91459997106041
 40
4.937167018700456
 40
4.937167018700456
 10
-14.77560820450878
 20
54.73496260501557
 30
0.0
 10
-14.82102270662539
 20
54.71199942954448
 30
0.0
  0
SPLINE
  5
78F4
330
1F
100
AcDbEntity
  8
AM_0
100
AcDbSpline
210
0.0
220
0.0
230
1.0
 70
    24
 71
     1
 72
     4
 73
     2
 74
     0
 42
0.0000000001
 43
0.0000000001
 40
4.901363415368925
 40
4.901363415368925
 40
4.91459997106041
 40
4.91459997106041
 10
-14.74687803334666
 20
54.75065107358776
 30
0.0
 10
-14.77560820450878
 20
54.73496260501557
 30
0.0
  0
SPLINE
  5
78F5
330
1F
100
AcDbEntity
  8
AM_0
100
AcDbSpline
210
0.0
220
0.0
230
1.0
 70
    24
 71
     1
 72
     4
 73
     2
 74
     0
 42
0.0000000001
 43
0.0000000001
 40
4.888126859677441
 40
4.888126859677441
 40
4.901363415368925
 40
4.901363415368925
 10
-14.71626767325449
 20
54.76845611130463
 30
0.0
 10
-14.74687803334666
 20
54.75065107358776
 30
0.0
  0
SPLINE
  5
78F6
330
1F
100
AcDbEntity
  8
AM_0
100
AcDbSpline
210
0.0
220
0.0
230
1.0
 70
    24
 71
     1
 72
     4
 73
     2
 74
     0
 42
0.0000000001
 43
0.0000000001
 40
4.874890303985957
 40
4.874890303985957
 40
4.888126859677441
 40
4.888126859677441
 10
-14.68346895237107
 20
54.78889159850919
 30
0.0
 10
-14.71626767325449
 20
54.76845611130463
 30
0.0
  0
SPLINE
  5
78F7
330
1F
100
AcDbEntity
  8
AM_0
100
AcDbSpline
210
0.0
220
0.0
230
1.0
 70
    24
 71
     1
 72
     4
 73
     2
 74
     0
 42
0.0000000001
 43
0.0000000001
 40
4.861653748294472
 40
4.861653748294472
 40
4.874890303985957
 40
4.874890303985957
 10
-14.64814635778782
 20
54.81262084666141
 30
0.0
 10
-14.68346895237107
 20
54.78889159850919
 30
0.0
  0
SPLINE
  5
78F8
330
1F
100
AcDbEntity
  8
AM_0
100
AcDbSpline
210
0.0
220
0.0
230
1.0
 70
    24
 71
     1
 72
     4
 73
     2
 74
     0
 42
0.0000000001
 43
0.0000000001
 40
4.848417192602987
 40
4.848417192602987
 40
4.861653748294472
 40
4.861653748294472
 10
-14.60995208265308
 20
54.8405033386916
 30
0.0
 10
-14.64814635778782
 20
54.81262084666141
 30
0.0
  0
SPLINE
  5
78F9
330
1F
100
AcDbEntity
  8
AM_0
100
AcDbSpline
210
0.0
220
0.0
230
1.0
 70
    24
 71
     1
 72
     4
 73
     2
 74
     0
 42
0.0000000001
 43
0.0000000001
 40
4.838596762696692
 40
4.838596762696692
 40
4.848417192602987
 40
4.848417192602987
 10
-14.57956376493814
 20
54.86452006427729
 30
0.0
 10
-14.60995208265308
 20
54.8405033386916
 30
0.0
  0
SPLINE
  5
78FA
330
1F
100
AcDbEntity
  8
AM_0
100
AcDbSpline
210
0.0
220
0.0
230
1.0
 70
    24
 71
     1
 72
     4
 73
     2
 74
     0
 42
0.0000000001
 43
0.0000000001
 40
4.828776332790397
 40
4.828776332790397
 40
4.838596762696692
 40
4.838596762696692
 10
-14.54730458380675
 20
54.89199645866634
 30
0.0
 10
-14.57956376493814
 20
54.86452006427729
 30
0.0
  0
SPLINE
  5
78FB
330
1F
100
AcDbEntity
  8
AM_0
100
AcDbSpline
210
0.0
220
0.0
230
1.0
 70
    24
 71
     1
 72
     4
 73
     2
 74
     0
 42
0.0000000001
 43
0.0000000001
 40
4.818955902884102
 40
4.818955902884102
 40
4.828776332790397
 40
4.828776332790397
 10
-14.51311390091439
 20
54.92361346986545
 30
0.0
 10
-14.54730458380675
 20
54.89199645866634
 30
0.0
  0
SPLINE
  5
78FC
330
1F
100
AcDbEntity
  8
AM_0
100
AcDbSpline
210
0.0
220
0.0
230
1.0
 70
    24
 71
     1
 72
     4
 73
     2
 74
     0
 42
0.0000000001
 43
0.0000000001
 40
4.809135472977807
 40
4.809135472977807
 40
4.818955902884102
 40
4.818955902884102
 10
-14.47701399741925
 20
54.96017974715195
 30
0.0
 10
-14.51311390091439
 20
54.92361346986545
 30
0.0
  0
SPLINE
  5
78FD
330
1F
100
AcDbEntity
  8
AM_0
100
AcDbSpline
210
0.0
220
0.0
230
1.0
 70
    24
 71
     1
 72
     4
 73
     2
 74
     0
 42
0.0000000001
 43
0.0000000001
 40
4.799315043071511
 40
4.799315043071511
 40
4.809135472977807
 40
4.809135472977807
 10
-14.43916101570641
 20
55.00263721158572
 30
0.0
 10
-14.47701399741925
 20
54.96017974715195
 30
0.0
  0
SPLINE
  5
78FE
330
1F
100
AcDbEntity
  8
AM_0
100
AcDbSpline
210
0.0
220
0.0
230
1.0
 70
    24
 71
     1
 72
     4
 73
     2
 74
     0
 42
0.0000000001
 43
0.0000000001
 40
6.900703118947402
 40
6.900703118947402
 40
7.124249207031462
 40
7.124249207031462
 10
-12.51493044015455
 20
56.53824169282202
 30
0.0
 10
-12.67521481829123
 20
56.50593713004039
 30
0.0
  0
SPLINE
  5
78FF
330
1F
100
AcDbEntity
  8
AM_0
100
AcDbSpline
210
0.0
220
0.0
230
1.0
 70
    24
 71
     1
 72
     4
 73
     2
 74
     0
 42
0.0000000001
 43
0.0000000001
 40
6.677157030863341
 40
6.677157030863341
 40
6.900703118947402
 40
6.900703118947402
 10
-12.35431325111733
 20
56.57503398690576
 30
0.0
 10
-12.51493044015455
 20
56.53824169282202
 30
0.0
  0
SPLINE
  5
7900
330
1F
100
AcDbEntity
  8
AM_0
100
AcDbSpline
210
0.0
220
0.0
230
1.0
 70
    24
 71
     1
 72
     4
 73
     2
 74
     0
 42
0.0000000001
 43
0.0000000001
 40
6.45361094277928
 40
6.45361094277928
 40
6.677157030863341
 40
6.677157030863341
 10
-12.19346369121058
 20
56.61630220812444
 30
0.0
 10
-12.35431325111733
 20
56.57503398690576
 30
0.0
  0
SPLINE
  5
7901
330
1F
100
AcDbEntity
  8
AM_0
100
AcDbSpline
210
0.0
220
0.0
230
1.0
 70
    24
 71
     1
 72
     4
 73
     2
 74
     0
 42
0.0000000001
 43
0.0000000001
 40
6.230064854695219
 40
6.230064854695219
 40
6.45361094277928
 40
6.45361094277928
 10
-12.03248220046464
 20
56.66203455231093
 30
0.0
 10
-12.19346369121058
 20
56.61630220812444
 30
0.0
  0
SPLINE
  5
7902
330
1F
100
AcDbEntity
  8
AM_0
100
AcDbSpline
210
0.0
220
0.0
230
1.0
 70
    24
 71
     1
 72
     4
 73
     2
 74
     0
 42
0.0000000001
 43
0.0000000001
 40
6.006518766611159
 40
6.006518766611159
 40
6.230064854695219
 40
6.230064854695219
 10
-11.87146921891041
 20
56.712219215298
 30
0.0
 10
-12.03248220046464
 20
56.66203455231093
 30
0.0
  0
SPLINE
  5
7903
330
1F
100
AcDbEntity
  8
AM_0
100
AcDbSpline
210
0.0
220
0.0
230
1.0
 70
    24
 71
     1
 72
     4
 73
     2
 74
     0
 42
0.0000000001
 43
0.0000000001
 40
5.782972678527098
 40
5.782972678527098
 40
6.006518766611159
 40
6.006518766611159
 10
-11.71052518657836
 20
56.76684439291867
 30
0.0
 10
-11.87146921891041
 20
56.712219215298
 30
0.0
  0
SPLINE
  5
7904
330
1F
100
AcDbEntity
  8
AM_0
100
AcDbSpline
210
0.0
220
0.0
230
1.0
 70
    24
 71
     1
 72
     4
 73
     2
 74
     0
 42
0.0000000001
 43
0.0000000001
 40
5.574500477840508
 40
5.574500477840508
 40
5.782972678527098
 40
5.782972678527098
 10
-11.56042114192075
 20
56.82186266773877
 30
0.0
 10
-11.71052518657836
 20
56.76684439291867
 30
0.0
  0
SPLINE
  5
7905
330
1F
100
AcDbEntity
  8
AM_0
100
AcDbSpline
210
0.0
220
0.0
230
1.0
 70
    24
 71
     1
 72
     4
 73
     2
 74
     0
 42
0.0000000001
 43
0.0000000001
 40
5.366028277153917
 40
5.366028277153917
 40
5.574500477840508
 40
5.574500477840508
 10
-11.4102241839281
 20
56.88087941019822
 30
0.0
 10
-11.56042114192075
 20
56.82186266773877
 30
0.0
  0
SPLINE
  5
7906
330
1F
100
AcDbEntity
  8
AM_0
100
AcDbSpline
210
0.0
220
0.0
230
1.0
 70
    24
 71
     1
 72
     4
 73
     2
 74
     0
 42
0.0000000001
 43
0.0000000001
 40
5.157556076467327
 40
5.157556076467327
 40
5.366028277153917
 40
5.366028277153917
 10
-11.26002284232242
 20
56.94386339761493
 30
0.0
 10
-11.4102241839281
 20
56.88087941019822
 30
0.0
  0
SPLINE
  5
7907
330
1F
100
AcDbEntity
  8
AM_0
100
AcDbSpline
210
0.0
220
0.0
230
1.0
 70
    24
 71
     1
 72
     4
 73
     2
 74
     0
 42
0.0000000001
 43
0.0000000001
 40
4.949083875780735
 40
4.949083875780735
 40
5.157556076467327
 40
5.157556076467327
 10
-11.10990564682595
 20
57.01078340730678
 30
0.0
 10
-11.26002284232242
 20
56.94386339761493
 30
0.0
  0
SPLINE
  5
7908
330
1F
100
AcDbEntity
  8
AM_0
100
AcDbSpline
210
0.0
220
0.0
230
1.0
 70
    24
 71
     1
 72
     4
 73
     2
 74
     0
 42
0.0000000001
 43
0.0000000001
 40
4.740611675094145
 40
4.740611675094145
 40
4.949083875780735
 40
4.949083875780735
 10
-10.95996112716034
 20
57.08160821659172
 30
0.0
 10
-11.10990564682595
 20
57.01078340730678
 30
0.0
  0
SPLINE
  5
7909
330
1F
100
AcDbEntity
  8
AM_0
100
AcDbSpline
210
0.0
220
0.0
230
1.0
 70
    24
 71
     1
 72
     4
 73
     2
 74
     0
 42
0.0000000001
 43
0.0000000001
 40
4.532139474407554
 40
4.532139474407554
 40
4.740611675094145
 40
4.740611675094145
 10
-10.81027781304817
 20
57.15630660278751
 30
0.0
 10
-10.95996112716034
 20
57.08160821659172
 30
0.0
  0
SPLINE
  5
790A
330
1F
100
AcDbEntity
  8
AM_0
100
AcDbSpline
210
0.0
220
0.0
230
1.0
 70
    24
 71
     1
 72
     4
 73
     2
 74
     0
 42
0.0000000001
 43
0.0000000001
 40
4.323667273720964
 40
4.323667273720964
 40
4.532139474407554
 40
4.532139474407554
 10
-10.66094423421111
 20
57.23484734321224
 30
0.0
 10
-10.81027781304817
 20
57.15630660278751
 30
0.0
  0
SPLINE
  5
790B
330
1F
100
AcDbEntity
  8
AM_0
100
AcDbSpline
210
0.0
220
0.0
230
1.0
 70
    24
 71
     1
 72
     4
 73
     2
 74
     0
 42
0.0000000001
 43
0.0000000001
 40
4.115195073034374
 40
4.115195073034374
 40
4.323667273720964
 40
4.323667273720964
 10
-10.51204892037151
 20
57.31719921518359
 30
0.0
 10
-10.66094423421111
 20
57.23484734321224
 30
0.0
  0
SPLINE
  5
790C
330
1F
100
AcDbEntity
  8
AM_0
100
AcDbSpline
210
0.0
220
0.0
230
1.0
 70
    24
 71
     1
 72
     4
 73
     2
 74
     0
 42
0.0000000001
 43
0.0000000001
 40
3.906722872347783
 40
3.906722872347783
 40
4.115195073034374
 40
4.115195073034374
 10
-10.36368040125137
 20
57.40333099601966
 30
0.0
 10
-10.51204892037151
 20
57.31719921518359
 30
0.0
  0
SPLINE
  5
790D
330
1F
100
AcDbEntity
  8
AM_0
100
AcDbSpline
210
0.0
220
0.0
230
1.0
 70
    24
 71
     1
 72
     4
 73
     2
 74
     0
 42
0.0000000001
 43
0.0000000001
 40
3.698250671661193
 40
3.698250671661193
 40
3.906722872347783
 40
3.906722872347783
 10
-10.2159272065727
 20
57.49321146303819
 30
0.0
 10
-10.36368040125137
 20
57.40333099601966
 30
0.0
  0
SPLINE
  5
790E
330
1F
100
AcDbEntity
  8
AM_0
100
AcDbSpline
210
0.0
220
0.0
230
1.0
 70
    24
 71
     1
 72
     4
 73
     2
 74
     0
 42
0.0000000001
 43
0.0000000001
 40
3.489778470974602
 40
3.489778470974602
 40
3.698250671661193
 40
3.698250671661193
 10
-10.06887786605761
 20
57.58680939355722
 30
0.0
 10
-10.2159272065727
 20
57.49321146303819
 30
0.0
  0
SPLINE
  5
790F
330
1F
100
AcDbEntity
  8
AM_0
100
AcDbSpline
210
0.0
220
0.0
230
1.0
 70
    24
 71
     1
 72
     4
 73
     2
 74
     0
 42
0.0000000001
 43
0.0000000001
 40
3.281306270288012
 40
3.281306270288012
 40
3.489778470974602
 40
3.489778470974602
 10
-9.922620909428246
 20
57.68409356489454
 30
0.0
 10
-10.06887786605761
 20
57.58680939355722
 30
0.0
  0
SPLINE
  5
7910
330
1F
100
AcDbEntity
  8
AM_0
100
AcDbSpline
210
0.0
220
0.0
230
1.0
 70
    24
 71
     1
 72
     4
 73
     2
 74
     0
 42
0.0000000001
 43
0.0000000001
 40
3.072834069601421
 40
3.072834069601421
 40
3.281306270288012
 40
3.281306270288012
 10
-9.77724486640659
 20
57.78503275436801
 30
0.0
 10
-9.922620909428246
 20
57.68409356489454
 30
0.0
  0
SPLINE
  5
7911
330
1F
100
AcDbEntity
  8
AM_0
100
AcDbSpline
210
0.0
220
0.0
230
1.0
 70
    24
 71
     1
 72
     4
 73
     2
 74
     0
 42
0.0000000001
 43
0.0000000001
 40
2.86436186891483
 40
2.86436186891483
 40
3.072834069601421
 40
3.072834069601421
 10
-9.632838266714657
 20
57.88959573929563
 30
0.0
 10
-9.77724486640659
 20
57.78503275436801
 30
0.0
  0
SPLINE
  5
7912
330
1F
100
AcDbEntity
  8
AM_0
100
AcDbSpline
210
0.0
220
0.0
230
1.0
 70
    24
 71
     1
 72
     4
 73
     2
 74
     0
 42
0.0000000001
 43
0.0000000001
 40
2.659764592563771
 40
2.659764592563771
 40
2.86436186891483
 40
2.86436186891483
 10
-9.491923270825395
 20
57.99588361831289
 30
0.0
 10
-9.632838266714657
 20
57.88959573929563
 30
0.0
  0
SPLINE
  5
7913
330
1F
100
AcDbEntity
  8
AM_0
100
AcDbSpline
210
0.0
220
0.0
230
1.0
 70
    24
 71
     1
 72
     4
 73
     2
 74
     0
 42
0.0000000001
 43
0.0000000001
 40
2.455167316212711
 40
2.455167316212711
 40
2.659764592563771
 40
2.659764592563771
 10
-9.351680250769391
 20
58.10591855674627
 30
0.0
 10
-9.491923270825395
 20
57.99588361831289
 30
0.0
  0
SPLINE
  5
7914
330
1F
100
AcDbEntity
  8
AM_0
100
AcDbSpline
210
0.0
220
0.0
230
1.0
 70
    24
 71
     1
 72
     4
 73
     2
 74
     0
 42
0.0000000001
 43
0.0000000001
 40
2.250570039861652
 40
2.250570039861652
 40
2.455167316212711
 40
2.455167316212711
 10
-9.212208742669531
 20
58.21961986356362
 30
0.0
 10
-9.351680250769391
 20
58.10591855674627
 30
0.0
  0
SPLINE
  5
7915
330
1F
100
AcDbEntity
  8
AM_0
100
AcDbSpline
210
0.0
220
0.0
230
1.0
 70
    24
 71
     1
 72
     4
 73
     2
 74
     0
 42
0.0000000001
 43
0.0000000001
 40
2.045972763510593
 40
2.045972763510593
 40
2.250570039861652
 40
2.250570039861652
 10
-9.073608282648478
 20
58.33690684773265
 30
0.0
 10
-9.212208742669531
 20
58.21961986356362
 30
0.0
  0
SPLINE
  5
7916
330
1F
100
AcDbEntity
  8
AM_0
100
AcDbSpline
210
0.0
220
0.0
230
1.0
 70
    24
 71
     1
 72
     4
 73
     2
 74
     0
 42
0.0000000001
 43
0.0000000001
 40
1.841375487159534
 40
1.841375487159534
 40
2.045972763510593
 40
2.045972763510593
 10
-8.935978406829349
 20
58.4576988182213
 30
0.0
 10
-9.073608282648478
 20
58.33690684773265
 30
0.0
  0
SPLINE
  5
7917
330
1F
100
AcDbEntity
  8
AM_0
100
AcDbSpline
210
0.0
220
0.0
230
1.0
 70
    24
 71
     1
 72
     4
 73
     2
 74
     0
 42
0.0000000001
 43
0.0000000001
 40
1.636778210808474
 40
1.636778210808474
 40
1.841375487159534
 40
1.841375487159534
 10
-8.79941865133469
 20
58.58191508399741
 30
0.0
 10
-8.935978406829349
 20
58.4576988182213
 30
0.0
  0
SPLINE
  5
7918
330
1F
100
AcDbEntity
  8
AM_0
100
AcDbSpline
210
0.0
220
0.0
230
1.0
 70
    24
 71
     1
 72
     4
 73
     2
 74
     0
 42
0.0000000001
 43
0.0000000001
 40
1.432180934457415
 40
1.432180934457415
 40
1.636778210808474
 40
1.636778210808474
 10
-8.664028552287504
 20
58.70947495402882
 30
0.0
 10
-8.79941865133469
 20
58.58191508399741
 30
0.0
  0
SPLINE
  5
7919
330
1F
100
AcDbEntity
  8
AM_0
100
AcDbSpline
210
0.0
220
0.0
230
1.0
 70
    24
 71
     1
 72
     4
 73
     2
 74
     0
 42
0.0000000001
 43
0.0000000001
 40
1.227583658106355
 40
1.227583658106355
 40
1.432180934457415
 40
1.432180934457415
 10
-8.52990764581034
 20
58.84029773728335
 30
0.0
 10
-8.664028552287504
 20
58.70947495402882
 30
0.0
  0
SPLINE
  5
791A
330
1F
100
AcDbEntity
  8
AM_0
100
AcDbSpline
210
0.0
220
0.0
230
1.0
 70
    24
 71
     1
 72
     4
 73
     2
 74
     0
 42
0.0000000001
 43
0.0000000001
 40
1.022986381755296
 40
1.022986381755296
 40
1.227583658106355
 40
1.227583658106355
 10
-8.397155468026198
 20
58.97430274272889
 30
0.0
 10
-8.52990764581034
 20
58.84029773728335
 30
0.0
  0
SPLINE
  5
791B
330
1F
100
AcDbEntity
  8
AM_0
100
AcDbSpline
210
0.0
220
0.0
230
1.0
 70
    24
 71
     1
 72
     4
 73
     2
 74
     0
 42
0.0000000001
 43
0.0000000001
 40
0.8183891054042373
 40
0.8183891054042373
 40
1.022986381755296
 40
1.022986381755296
 10
-8.265871555057742
 20
59.11140927933323
 30
0.0
 10
-8.397155468026198
 20
58.97430274272889
 30
0.0
  0
SPLINE
  5
791C
330
1F
100
AcDbEntity
  8
AM_0
100
AcDbSpline
210
0.0
220
0.0
230
1.0
 70
    24
 71
     1
 72
     4
 73
     2
 74
     0
 42
0.0000000001
 43
0.0000000001
 40
0.613791829053178
 40
0.613791829053178
 40
0.8183891054042373
 40
0.8183891054042373
 10
-8.136155443028087
 20
59.25153665606419
 30
0.0
 10
-8.265871555057742
 20
59.11140927933323
 30
0.0
  0
SPLINE
  5
791D
330
1F
100
AcDbEntity
  8
AM_0
100
AcDbSpline
210
0.0
220
0.0
230
1.0
 70
    24
 71
     1
 72
     4
 73
     2
 74
     0
 42
0.0000000001
 43
0.0000000001
 40
0.4091945527021187
 40
0.4091945527021187
 40
0.613791829053178
 40
0.613791829053178
 10
-8.008106668059895
 20
59.39460418188961
 30
0.0
 10
-8.136155443028087
 20
59.25153665606419
 30
0.0
  0
SPLINE
  5
791E
330
1F
100
AcDbEntity
  8
AM_0
100
AcDbSpline
210
0.0
220
0.0
230
1.0
 70
    24
 71
     1
 72
     4
 73
     2
 74
     0
 42
0.0000000001
 43
0.0000000001
 40
0.2045972763510593
 40
0.2045972763510593
 40
0.4091945527021187
 40
0.4091945527021187
 10
-7.881824766275599
 20
59.54053116577743
 30
0.0
 10
-8.008106668059895
 20
59.39460418188961
 30
0.0
  0
SPLINE
  5
791F
330
1F
100
AcDbEntity
  8
AM_0
100
AcDbSpline
210
0.0
220
0.0
230
1.0
 70
    24
 71
     1
 72
     4
 73
     2
 74
     0
 42
0.0000000001
 43
0.0000000001
 40
0.0
 40
0.0
 40
0.2045972763510593
 40
0.2045972763510593
 10
-7.757409273798771
 20
59.68923691669536
 30
0.0
 10
-7.881824766275599
 20
59.54053116577743
 30
0.0
  0
SPLINE
  5
7920
330
1F
100
AcDbEntity
  8
AM_0
100
AcDbSpline
210
0.0
220
0.0
230
1.0
 70
    24
 71
     1
 72
     4
 73
     2
 74
     0
 42
0.0000000001
 43
0.0000000001
 40
1.565001255949107
 40
1.565001255949107
 40
1.570796326794896
 40
1.570796326794896
 10
-13.59177861048817
 20
56.40489318881478
 30
0.0
 10
-13.59550946971251
 20
56.47331147927676
 30
0.0
  0
SPLINE
  5
7921
330
1F
100
AcDbEntity
  8
AM_0
100
AcDbSpline
210
0.0
220
0.0
230
1.0
 70
    24
 71
     1
 72
     4
 73
     2
 74
     0
 42
0.0000000001
 43
0.0000000001
 40
1.559206185103319
 40
1.559206185103319
 40
1.565001255949107
 40
1.565001255949107
 10
-13.59260292058888
 20
56.33695986646106
 30
0.0
 10
-13.59177861048817
 20
56.40489318881478
 30
0.0
  0
SPLINE
  5
7922
330
1F
100
AcDbEntity
  8
AM_0
100
AcDbSpline
210
0.0
220
0.0
230
1.0
 70
    24
 71
     1
 72
     4
 73
     2
 74
     0
 42
0.0000000001
 43
0.0000000001
 40
1.55341111425753
 40
1.55341111425753
 40
1.559206185103319
 40
1.559206185103319
 10
-13.59780013047031
 20
56.27035674302797
 30
0.0
 10
-13.59260292058888
 20
56.33695986646106
 30
0.0
  0
SPLINE
  5
7923
330
1F
100
AcDbEntity
  8
AM_0
100
AcDbSpline
210
0.0
220
0.0
230
1.0
 70
    24
 71
     1
 72
     4
 73
     2
 74
     0
 42
0.0000000001
 43
0.0000000001
 40
1.547616043411742
 40
1.547616043411742
 40
1.55341111425753
 40
1.55341111425753
 10
-13.60703849400317
 20
56.20583590906218
 30
0.0
 10
-13.59780013047031
 20
56.27035674302797
 30
0.0
  0
SPLINE
  5
7924
330
1F
100
AcDbEntity
  8
AM_0
100
AcDbSpline
210
0.0
220
0.0
230
1.0
 70
    24
 71
     1
 72
     4
 73
     2
 74
     0
 42
0.0000000001
 43
0.0000000001
 40
1.541820972565953
 40
1.541820972565953
 40
1.547616043411742
 40
1.547616043411742
 10
-13.61987214580597
 20
56.14401894484544
 30
0.0
 10
-13.60703849400317
 20
56.20583590906218
 30
0.0
  0
SPLINE
  5
7925
330
1F
100
AcDbEntity
  8
AM_0
100
AcDbSpline
210
0.0
220
0.0
230
1.0
 70
    24
 71
     1
 72
     4
 73
     2
 74
     0
 42
0.0000000001
 43
0.0000000001
 40
1.536025901720164
 40
1.536025901720164
 40
1.541820972565953
 40
1.541820972565953
 10
-13.63578296354751
 20
56.08537647663459
 30
0.0
 10
-13.61987214580597
 20
56.14401894484544
 30
0.0
  0
SPLINE
  5
7926
330
1F
100
AcDbEntity
  8
AM_0
100
AcDbSpline
210
0.0
220
0.0
230
1.0
 70
    24
 71
     1
 72
     4
 73
     2
 74
     0
 42
0.0000000001
 43
0.0000000001
 40
1.530230830874375
 40
1.530230830874375
 40
1.536025901720164
 40
1.536025901720164
 10
-13.65422225297209
 20
56.0302244741836
 30
0.0
 10
-13.63578296354751
 20
56.08537647663459
 30
0.0
  0
SPLINE
  5
7927
330
1F
100
AcDbEntity
  8
AM_0
100
AcDbSpline
210
0.0
220
0.0
230
1.0
 70
    24
 71
     1
 72
     4
 73
     2
 74
     0
 42
0.0000000001
 43
0.0000000001
 40
1.524435760028587
 40
1.524435760028587
 40
1.530230830874375
 40
1.530230830874375
 10
-13.67464701638334
 20
55.97873431752063
 30
0.0
 10
-13.65422225297209
 20
56.0302244741836
 30
0.0
  0
SPLINE
  5
7928
330
1F
100
AcDbEntity
  8
AM_0
100
AcDbSpline
210
0.0
220
0.0
230
1.0
 70
    24
 71
     1
 72
     4
 73
     2
 74
     0
 42
0.0000000001
 43
0.0000000001
 40
1.518640689182798
 40
1.518640689182798
 40
1.524435760028587
 40
1.524435760028587
 10
-13.69654775503511
 20
55.93095220212219
 30
0.0
 10
-13.67464701638334
 20
55.97873431752063
 30
0.0
  0
SPLINE
  5
7929
330
1F
100
AcDbEntity
  8
AM_0
100
AcDbSpline
210
0.0
220
0.0
230
1.0
 70
    24
 71
     1
 72
     4
 73
     2
 74
     0
 42
0.0000000001
 43
0.0000000001
 40
1.509948082914115
 40
1.509948082914115
 40
1.518640689182798
 40
1.518640689182798
 10
-13.73118219083949
 20
55.8660902230612
 30
0.0
 10
-13.69654775503511
 20
55.93095220212219
 30
0.0
  0
SPLINE
  5
792A
330
1F
100
AcDbEntity
  8
AM_0
100
AcDbSpline
210
0.0
220
0.0
230
1.0
 70
    24
 71
     1
 72
     4
 73
     2
 74
     0
 42
0.0000000001
 43
0.0000000001
 40
1.501255476645432
 40
1.501255476645432
 40
1.509948082914115
 40
1.509948082914115
 10
-13.76684199371436
 20
55.80894913771911
 30
0.0
 10
-13.73118219083949
 20
55.8660902230612
 30
0.0
  0
SPLINE
  5
792B
330
1F
100
AcDbEntity
  8
AM_0
100
AcDbSpline
210
0.0
220
0.0
230
1.0
 70
    24
 71
     1
 72
     4
 73
     2
 74
     0
 42
0.0000000001
 43
0.0000000001
 40
1.492562870376749
 40
1.492562870376749
 40
1.501255476645432
 40
1.501255476645432
 10
-13.80256655890741
 20
55.75882997138402
 30
0.0
 10
-13.76684199371436
 20
55.80894913771911
 30
0.0
  0
SPLINE
  5
792C
330
1F
100
AcDbEntity
  8
AM_0
100
AcDbSpline
210
0.0
220
0.0
230
1.0
 70
    24
 71
     1
 72
     4
 73
     2
 74
     0
 42
0.0000000001
 43
0.0000000001
 40
1.483870264108066
 40
1.483870264108066
 40
1.492562870376749
 40
1.492562870376749
 10
-13.83768303946612
 20
55.71494483326157
 30
0.0
 10
-13.80256655890741
 20
55.75882997138402
 30
0.0
  0
SPLINE
  5
792D
330
1F
100
AcDbEntity
  8
AM_0
100
AcDbSpline
210
0.0
220
0.0
230
1.0
 70
    24
 71
     1
 72
     4
 73
     2
 74
     0
 42
0.0000000001
 43
0.0000000001
 40
4.790622436802837
 40
4.790622436802837
 40
4.799315043071519
 40
4.799315043071519
 10
-21.73380882440358
 20
55.05964616777825
 30
0.0
 10
-21.69155616618536
 20
55.02258155624182
 30
0.0
  0
SPLINE
  5
792E
330
1F
100
AcDbEntity
  8
AM_0
100
AcDbSpline
210
0.0
220
0.0
230
1.0
 70
    24
 71
     1
 72
     4
 73
     2
 74
     0
 42
0.0000000001
 43
0.0000000001
 40
4.781929830534155
 40
4.781929830534155
 40
4.790622436802837
 40
4.790622436802837
 10
-21.77775084245115
 20
55.10274227482128
 30
0.0
 10
-21.73380882440358
 20
55.05964616777825
 30
0.0
  0
SPLINE
  5
792F
330
1F
100
AcDbEntity
  8
AM_0
100
AcDbSpline
210
0.0
220
0.0
230
1.0
 70
    24
 71
     1
 72
     4
 73
     2
 74
     0
 42
0.0000000001
 43
0.0000000001
 40
4.776134759688366
 40
4.776134759688366
 40
4.781929830534155
 40
4.781929830534155
 10
-21.80773657925817
 20
55.13526546533714
 30
0.0
 10
-21.77775084245115
 20
55.10274227482128
 30
0.0
  0
SPLINE
  5
7930
330
1F
100
AcDbEntity
  8
AM_0
100
AcDbSpline
210
0.0
220
0.0
230
1.0
 70
    24
 71
     1
 72
     4
 73
     2
 74
     0
 42
0.0000000001
 43
0.0000000001
 40
4.770339688842577
 40
4.770339688842577
 40
4.776134759688366
 40
4.776134759688366
 10
-21.83801946985784
 20
55.17112702904396
 30
0.0
 10
-21.80773657925817
 20
55.13526546533714
 30
0.0
  0
SPLINE
  5
7931
330
1F
100
AcDbEntity
  8
AM_0
100
AcDbSpline
210
0.0
220
0.0
230
1.0
 70
    24
 71
     1
 72
     4
 73
     2
 74
     0
 42
0.0000000001
 43
0.0000000001
 40
4.764544617996788
 40
4.764544617996788
 40
4.770339688842577
 40
4.770339688842577
 10
-21.86830557495829
 20
55.21056559389373
 30
0.0
 10
-21.83801946985784
 20
55.17112702904396
 30
0.0
  0
SPLINE
  5
7932
330
1F
100
AcDbEntity
  8
AM_0
100
AcDbSpline
210
0.0
220
0.0
230
1.0
 70
    24
 71
     1
 72
     4
 73
     2
 74
     0
 42
0.0000000001
 43
0.0000000001
 40
4.758749547150999
 40
4.758749547150999
 40
4.764544617996788
 40
4.764544617996788
 10
-21.89822810006706
 20
55.25377919587916
 30
0.0
 10
-21.86830557495829
 20
55.21056559389373
 30
0.0
  0
SPLINE
  5
7933
330
1F
100
AcDbEntity
  8
AM_0
100
AcDbSpline
210
0.0
220
0.0
230
1.0
 70
    24
 71
     1
 72
     4
 73
     2
 74
     0
 42
0.0000000001
 43
0.0000000001
 40
4.752954476305211
 40
4.752954476305211
 40
4.758749547150999
 40
4.758749547150999
 10
-21.92734614189532
 20
55.30090187442849
 30
0.0
 10
-21.89822810006706
 20
55.25377919587916
 30
0.0
  0
SPLINE
  5
7934
330
1F
100
AcDbEntity
  8
AM_0
100
AcDbSpline
210
0.0
220
0.0
230
1.0
 70
    24
 71
     1
 72
     4
 73
     2
 74
     0
 42
0.0000000001
 43
0.0000000001
 40
4.747159405459422
 40
4.747159405459422
 40
4.752954476305211
 40
4.752954476305211
 10
-21.95514997770954
 20
55.35197728419544
 30
0.0
 10
-21.92734614189532
 20
55.30090187442849
 30
0.0
  0
SPLINE
  5
7935
330
1F
100
AcDbEntity
  8
AM_0
100
AcDbSpline
210
0.0
220
0.0
230
1.0
 70
    24
 71
     1
 72
     4
 73
     2
 74
     0
 42
0.0000000001
 43
0.0000000001
 40
4.741364334613633
 40
4.741364334613633
 40
4.747159405459422
 40
4.747159405459422
 10
-21.98107500123194
 20
55.40693168669818
 30
0.0
 10
-21.95514997770954
 20
55.35197728419544
 30
0.0
  0
SPLINE
  5
7936
330
1F
100
AcDbEntity
  8
AM_0
100
AcDbSpline
210
0.0
220
0.0
230
1.0
 70
    24
 71
     1
 72
     4
 73
     2
 74
     0
 42
0.0000000001
 43
0.0000000001
 40
4.735569263767844
 40
4.735569263767844
 40
4.741364334613633
 40
4.741364334613633
 10
-22.00452570126867
 20
55.46554998035597
 30
0.0
 10
-21.98107500123194
 20
55.40693168669818
 30
0.0
  0
SPLINE
  5
7937
330
1F
100
AcDbEntity
  8
AM_0
100
AcDbSpline
210
0.0
220
0.0
230
1.0
 70
    24
 71
     1
 72
     4
 73
     2
 74
     0
 42
0.0000000001
 43
0.0000000001
 40
4.729774192922056
 40
4.729774192922056
 40
4.735569263767844
 40
4.735569263767844
 10
-22.02490960962711
 20
55.52745944373956
 30
0.0
 10
-22.00452570126867
 20
55.46554998035597
 30
0.0
  0
SPLINE
  5
7938
330
1F
100
AcDbEntity
  8
AM_0
100
AcDbSpline
210
0.0
220
0.0
230
1.0
 70
    24
 71
     1
 72
     4
 73
     2
 74
     0
 42
0.0000000001
 43
0.0000000001
 40
4.723979122076267
 40
4.723979122076267
 40
4.729774192922056
 40
4.729774192922056
 10
-22.04167899098661
 20
55.59212608808119
 30
0.0
 10
-22.02490960962711
 20
55.52745944373956
 30
0.0
  0
SPLINE
  5
7939
330
1F
100
AcDbEntity
  8
AM_0
100
AcDbSpline
210
0.0
220
0.0
230
1.0
 70
    24
 71
     1
 72
     4
 73
     2
 74
     0
 42
0.0000000001
 43
0.0000000001
 40
4.718184051230478
 40
4.718184051230478
 40
4.723979122076267
 40
4.723979122076267
 10
-22.05437563623138
 20
55.65886746185109
 30
0.0
 10
-22.04167899098661
 20
55.59212608808119
 30
0.0
  0
SPLINE
  5
793A
330
1F
100
AcDbEntity
  8
AM_0
100
AcDbSpline
210
0.0
220
0.0
230
1.0
 70
    24
 71
     1
 72
     4
 73
     2
 74
     0
 42
0.0000000001
 43
0.0000000001
 40
4.712388980384689
 40
4.712388980384689
 40
4.718184051230478
 40
4.718184051230478
 10
-22.06267221241091
 20
55.72688325857498
 30
0.0
 10
-22.05437563623138
 20
55.65886746185109
 30
0.0
  0
SPLINE
  5
793B
330
1F
100
AcDbEntity
  8
AM_0
100
AcDbSpline
210
0.0
220
0.0
230
1.0
 70
    24
 71
     1
 72
     4
 73
     2
 74
     0
 42
0.0000000001
 43
0.0000000001
 40
3.884849348348688
 40
3.884849348348688
 40
3.917461300809783
 40
3.917461300809783
 10
-20.71731746712043
 20
-11.75260824078333
 30
0.0
 10
-20.81706366009768
 20
-11.84803109232348
 30
0.0
  0
SPLINE
  5
793C
330
1F
100
AcDbEntity
  8
AM_0
100
AcDbSpline
210
0.0
220
0.0
230
1.0
 70
    24
 71
     1
 72
     4
 73
     2
 74
     0
 42
0.0000000001
 43
0.0000000001
 40
3.852237395887592
 40
3.852237395887592
 40
3.884849348348688
 40
3.884849348348688
 10
-20.61448952202636
 20
-11.66051364109842
 30
0.0
 10
-20.71731746712043
 20
-11.75260824078333
 30
0.0
  0
SPLINE
  5
793D
330
1F
100
AcDbEntity
  8
AM_0
100
AcDbSpline
210
0.0
220
0.0
230
1.0
 70
    24
 71
     1
 72
     4
 73
     2
 74
     0
 42
0.0000000001
 43
0.0000000001
 40
3.819625443426497
 40
3.819625443426497
 40
3.852237395887592
 40
3.852237395887592
 10
-20.50869047504363
 20
-11.57184618106384
 30
0.0
 10
-20.61448952202636
 20
-11.66051364109842
 30
0.0
  0
SPLINE
  5
793E
330
1F
100
AcDbEntity
  8
AM_0
100
AcDbSpline
210
0.0
220
0.0
230
1.0
 70
    24
 71
     1
 72
     4
 73
     2
 74
     0
 42
0.0000000001
 43
0.0000000001
 40
3.787013490965401
 40
3.787013490965401
 40
3.819625443426497
 40
3.819625443426497
 10
-20.40003422296274
 20
-11.48670097133145
 30
0.0
 10
-20.50869047504363
 20
-11.57184618106384
 30
0.0
  0
SPLINE
  5
793F
330
1F
100
AcDbEntity
  8
AM_0
100
AcDbSpline
210
0.0
220
0.0
230
1.0
 70
    24
 71
     1
 72
     4
 73
     2
 74
     0
 42
0.0000000001
 43
0.0000000001
 40
3.754401538504305
 40
3.754401538504305
 40
3.787013490965401
 40
3.787013490965401
 10
-20.28863777439869
 20
-11.40516923630332
 30
0.0
 10
-20.40003422296274
 20
-11.48670097133145
 30
0.0
  0
SPLINE
  5
7940
330
1F
100
AcDbEntity
  8
AM_0
100
AcDbSpline
210
0.0
220
0.0
230
1.0
 70
    24
 71
     1
 72
     4
 73
     2
 74
     0
 42
0.0000000001
 43
0.0000000001
 40
3.721789586043209
 40
3.721789586043209
 40
3.754401538504305
 40
3.754401538504305
 10
-20.17462111102395
 20
-11.32733821056348
 30
0.0
 10
-20.28863777439869
 20
-11.40516923630332
 30
0.0
  0
SPLINE
  5
7941
330
1F
100
AcDbEntity
  8
AM_0
100
AcDbSpline
210
0.0
220
0.0
230
1.0
 70
    24
 71
     1
 72
     4
 73
     2
 74
     0
 42
0.0000000001
 43
0.0000000001
 40
3.689177633582114
 40
3.689177633582114
 40
3.721789586043209
 40
3.721789586043209
 10
-20.05810704506746
 20
-11.25329104102377
 30
0.0
 10
-20.17462111102395
 20
-11.32733821056348
 30
0.0
  0
SPLINE
  5
7942
330
1F
100
AcDbEntity
  8
AM_0
100
AcDbSpline
210
0.0
220
0.0
230
1.0
 70
    24
 71
     1
 72
     4
 73
     2
 74
     0
 42
0.0000000001
 43
0.0000000001
 40
3.656565681121018
 40
3.656565681121018
 40
3.689177633582114
 40
3.689177633582114
 10
-19.93922107338528
 20
-11.18310669493564
 30
0.0
 10
-20.05810704506746
 20
-11.25329104102377
 30
0.0
  0
SPLINE
  5
7943
330
1F
100
AcDbEntity
  8
AM_0
100
AcDbSpline
210
0.0
220
0.0
230
1.0
 70
    24
 71
     1
 72
     4
 73
     2
 74
     0
 42
0.0000000001
 43
0.0000000001
 40
3.624605284810641
 40
3.624605284810641
 40
3.656565681121018
 40
3.656565681121018
 10
-19.82053241734467
 20
-11.11814441310082
 30
0.0
 10
-19.93922107338528
 20
-11.18310669493564
 30
0.0
  0
SPLINE
  5
7944
330
1F
100
AcDbEntity
  8
AM_0
100
AcDbSpline
210
0.0
220
0.0
230
1.0
 70
    24
 71
     1
 72
     4
 73
     2
 74
     0
 42
0.0000000001
 43
0.0000000001
 40
3.592644888500263
 40
3.592644888500263
 40
3.624605284810641
 40
3.624605284810641
 10
-19.69981137930028
 20
-11.05703017006067
 30
0.0
 10
-19.82053241734467
 20
-11.11814441310082
 30
0.0
  0
SPLINE
  5
7945
330
1F
100
AcDbEntity
  8
AM_0
100
AcDbSpline
210
0.0
220
0.0
230
1.0
 70
    24
 71
     1
 72
     4
 73
     2
 74
     0
 42
0.0000000001
 43
0.0000000001
 40
3.560684492189886
 40
3.560684492189886
 40
3.592644888500263
 40
3.592644888500263
 10
-19.57718275219065
 20
-10.99982615493661
 30
0.0
 10
-19.69981137930028
 20
-11.05703017006067
 30
0.0
  0
SPLINE
  5
7946
330
1F
100
AcDbEntity
  8
AM_0
100
AcDbSpline
210
0.0
220
0.0
230
1.0
 70
    24
 71
     1
 72
     4
 73
     2
 74
     0
 42
0.0000000001
 43
0.0000000001
 40
3.528724095879508
 40
3.528724095879508
 40
3.560684492189886
 40
3.560684492189886
 10
-19.4527732469387
 20
-10.94659042046316
 30
0.0
 10
-19.57718275219065
 20
-10.99982615493661
 30
0.0
  0
SPLINE
  5
7947
330
1F
100
AcDbEntity
  8
AM_0
100
AcDbSpline
210
0.0
220
0.0
230
1.0
 70
    24
 71
     1
 72
     4
 73
     2
 74
     0
 42
0.0000000001
 43
0.0000000001
 40
3.496763699569131
 40
3.496763699569131
 40
3.528724095879508
 40
3.528724095879508
 10
-19.32671134940653
 20
-10.89737682741747
 30
0.0
 10
-19.4527732469387
 20
-10.94659042046316
 30
0.0
  0
SPLINE
  5
7948
330
1F
100
AcDbEntity
  8
AM_0
100
AcDbSpline
210
0.0
220
0.0
230
1.0
 70
    24
 71
     1
 72
     4
 73
     2
 74
     0
 42
0.0000000001
 43
0.0000000001
 40
3.464803303258753
 40
3.464803303258753
 40
3.496763699569131
 40
3.496763699569131
 10
-19.19912717599084
 20
-10.8522349946341
 30
0.0
 10
-19.32671134940653
 20
-10.89737682741747
 30
0.0
  0
SPLINE
  5
7949
330
1F
100
AcDbEntity
  8
AM_0
100
AcDbSpline
210
0.0
220
0.0
230
1.0
 70
    24
 71
     1
 72
     4
 73
     2
 74
     0
 42
0.0000000001
 43
0.0000000001
 40
3.432842906948375
 40
3.432842906948375
 40
3.464803303258753
 40
3.464803303258753
 10
-19.07015232813012
 20
-10.81121025460413
 30
0.0
 10
-19.19912717599084
 20
-10.8522349946341
 30
0.0
  0
SPLINE
  5
794A
330
1F
100
AcDbEntity
  8
AM_0
100
AcDbSpline
210
0.0
220
0.0
230
1.0
 70
    24
 71
     1
 72
     4
 73
     2
 74
     0
 42
0.0000000001
 43
0.0000000001
 40
3.400882510637998
 40
3.400882510637998
 40
3.432842906948375
 40
3.432842906948375
 10
-18.93991974599214
 20
-10.77434361463531
 30
0.0
 10
-19.07015232813012
 20
-10.81121025460413
 30
0.0
  0
SPLINE
  5
794B
330
1F
100
AcDbEntity
  8
AM_0
100
AcDbSpline
210
0.0
220
0.0
230
1.0
 70
    24
 71
     1
 72
     4
 73
     2
 74
     0
 42
0.0000000001
 43
0.0000000001
 40
3.368922114327621
 40
3.368922114327621
 40
3.400882510637998
 40
3.400882510637998
 10
-18.80856356159893
 20
-10.74167172353691
 30
0.0
 10
-18.93991974599214
 20
-10.77434361463531
 30
0.0
  0
SPLINE
  5
794C
330
1F
100
AcDbEntity
  8
AM_0
100
AcDbSpline
210
0.0
220
0.0
230
1.0
 70
    24
 71
     1
 72
     4
 73
     2
 74
     0
 42
0.0000000001
 43
0.0000000001
 40
3.336961718017243
 40
3.336961718017243
 40
3.368922114327621
 40
3.368922114327621
 10
-18.67621895164506
 20
-10.71322684377491
 30
0.0
 10
-18.80856356159893
 20
-10.74167172353691
 30
0.0
  0
SPLINE
  5
794D
330
1F
100
AcDbEntity
  8
AM_0
100
AcDbSpline
210
0.0
220
0.0
230
1.0
 70
    24
 71
     1
 72
     4
 73
     2
 74
     0
 42
0.0000000001
 43
0.0000000001
 40
3.304937754148533
 40
3.304937754148533
 40
3.336961718017243
 40
3.336961718017243
 10
-18.5427563099962
 20
-10.68899297243603
 30
0.0
 10
-18.67621895164506
 20
-10.71322684377491
 30
0.0
  0
SPLINE
  5
794E
330
1F
100
AcDbEntity
  8
AM_0
100
AcDbSpline
210
0.0
220
0.0
230
1.0
 70
    24
 71
     1
 72
     4
 73
     2
 74
     0
 42
0.0000000001
 43
0.0000000001
 40
3.272913790279821
 40
3.272913790279821
 40
3.304937754148533
 40
3.304937754148533
 10
-18.40857556630806
 20
-10.66905447027693
 30
0.0
 10
-18.5427563099962
 20
-10.68899297243603
 30
0.0
  0
SPLINE
  5
794F
330
1F
100
AcDbEntity
  8
AM_0
100
AcDbSpline
210
0.0
220
0.0
230
1.0
 70
    24
 71
     1
 72
     4
 73
     2
 74
     0
 42
0.0000000001
 43
0.0000000001
 40
3.24088982641111
 40
3.24088982641111
 40
3.272913790279821
 40
3.272913790279821
 10
-18.27381497183341
 20
-10.65343042746201
 30
0.0
 10
-18.40857556630806
 20
-10.66905447027693
 30
0.0
  0
SPLINE
  5
7950
330
1F
100
AcDbEntity
  8
AM_0
100
AcDbSpline
210
0.0
220
0.0
230
1.0
 70
    24
 71
     1
 72
     4
 73
     2
 74
     0
 42
0.0000000001
 43
0.0000000001
 40
3.2088658625424
 40
3.2088658625424
 40
3.24088982641111
 40
3.24088982641111
 10
-18.13861323842149
 20
-10.64213545409109
 30
0.0
 10
-18.27381497183341
 20
-10.65343042746201
 30
0.0
  0
SPLINE
  5
7951
330
1F
100
AcDbEntity
  8
AM_0
100
AcDbSpline
210
0.0
220
0.0
230
1.0
 70
    24
 71
     1
 72
     4
 73
     2
 74
     0
 42
0.0000000001
 43
0.0000000001
 40
3.176841898673688
 40
3.176841898673688
 40
3.2088658625424
 40
3.2088658625424
 10
-18.00310939175358
 20
-10.63517967843466
 30
0.0
 10
-18.13861323842149
 20
-10.64213545409109
 30
0.0
  0
SPLINE
  5
7952
330
1F
100
AcDbEntity
  8
AM_0
100
AcDbSpline
210
0.0
220
0.0
230
1.0
 70
    24
 71
     1
 72
     4
 73
     2
 74
     0
 42
0.0000000001
 43
0.0000000001
 40
3.144817934804977
 40
3.144817934804977
 40
3.176841898673688
 40
3.176841898673688
 10
-17.86744262556169
 20
-10.63256875010733
 30
0.0
 10
-18.00310939175358
 20
-10.63517967843466
 30
0.0
  0
SPLINE
  5
7953
330
1F
100
AcDbEntity
  8
AM_0
100
AcDbSpline
210
0.0
220
0.0
230
1.0
 70
    24
 71
     1
 72
     4
 73
     2
 74
     0
 42
0.0000000001
 43
0.0000000001
 40
3.112793970936266
 40
3.112793970936266
 40
3.144817934804977
 40
3.144817934804977
 10
-17.73175215699995
 20
-10.63430384804917
 30
0.0
 10
-17.86744262556169
 20
-10.63256875010733
 30
0.0
  0
SPLINE
  5
7954
330
1F
100
AcDbEntity
  8
AM_0
100
AcDbSpline
210
0.0
220
0.0
230
1.0
 70
    24
 71
     1
 72
     4
 73
     2
 74
     0
 42
0.0000000001
 43
0.0000000001
 40
3.080770007067556
 40
3.080770007067556
 40
3.112793970936266
 40
3.112793970936266
 10
-17.59617708332928
 20
-10.64038169317734
 30
0.0
 10
-17.73175215699995
 20
-10.63430384804917
 30
0.0
  0
SPLINE
  5
7955
330
1F
100
AcDbEntity
  8
AM_0
100
AcDbSpline
210
0.0
220
0.0
230
1.0
 70
    24
 71
     1
 72
     4
 73
     2
 74
     0
 42
0.0000000001
 43
0.0000000001
 40
3.048746043198844
 40
3.048746043198844
 40
3.080770007067556
 40
3.080770007067556
 10
-17.46085624005502
 20
-10.65079456556588
 30
0.0
 10
-17.59617708332928
 20
-10.64038169317734
 30
0.0
  0
SPLINE
  5
7956
330
1F
100
AcDbEntity
  8
AM_0
100
AcDbSpline
210
0.0
220
0.0
230
1.0
 70
    24
 71
     1
 72
     4
 73
     2
 74
     0
 42
0.0000000001
 43
0.0000000001
 40
3.016722079330133
 40
3.016722079330133
 40
3.048746043198844
 40
3.048746043198844
 10
-17.3259280606486
 20
-10.66553032600944
 30
0.0
 10
-17.46085624005502
 20
-10.65079456556588
 30
0.0
  0
SPLINE
  5
7957
330
1F
100
AcDbEntity
  8
AM_0
100
AcDbSpline
210
0.0
220
0.0
230
1.0
 70
    24
 71
     1
 72
     4
 73
     2
 74
     0
 42
0.0000000001
 43
0.0000000001
 40
2.984644621465788
 40
2.984644621465788
 40
3.016722079330133
 40
3.016722079330133
 10
-17.19130645585585
 20
-10.68460784216392
 30
0.0
 10
-17.3259280606486
 20
-10.66553032600944
 30
0.0
  0
SPLINE
  5
7958
330
1F
100
AcDbEntity
  8
AM_0
100
AcDbSpline
210
0.0
220
0.0
230
1.0
 70
    24
 71
     1
 72
     4
 73
     2
 74
     0
 42
0.0000000001
 43
0.0000000001
 40
2.952567163601443
 40
2.952567163601443
 40
2.984644621465788
 40
2.984644621465788
 10
-17.05735508516897
 20
-10.7079851066768
 30
0.0
 10
-17.19130645585585
 20
-10.68460784216392
 30
0.0
  0
SPLINE
  5
7959
330
1F
100
AcDbEntity
  8
AM_0
100
AcDbSpline
210
0.0
220
0.0
230
1.0
 70
    24
 71
     1
 72
     4
 73
     2
 74
     0
 42
0.0000000001
 43
0.0000000001
 40
2.920489705737098
 40
2.920489705737098
 40
2.952567163601443
 40
2.952567163601443
 10
-16.92421103421565
 20
-10.73563675606726
 30
0.0
 10
-17.05735508516897
 20
-10.7079851066768
 30
0.0
  0
SPLINE
  5
795A
330
1F
100
AcDbEntity
  8
AM_0
100
AcDbSpline
210
0.0
220
0.0
230
1.0
 70
    24
 71
     1
 72
     4
 73
     2
 74
     0
 42
0.0000000001
 43
0.0000000001
 40
2.888412247872753
 40
2.888412247872753
 40
2.920489705737098
 40
2.920489705737098
 10
-16.79201043666251
 20
-10.76753310613594
 30
0.0
 10
-16.92421103421565
 20
-10.73563675606726
 30
0.0
  0
SPLINE
  5
795B
330
1F
100
AcDbEntity
  8
AM_0
100
AcDbSpline
210
0.0
220
0.0
230
1.0
 70
    24
 71
     1
 72
     4
 73
     2
 74
     0
 42
0.0000000001
 43
0.0000000001
 40
2.856334790008408
 40
2.856334790008408
 40
2.888412247872753
 40
2.888412247872753
 10
-16.66088834224945
 20
-10.80364019363105
 30
0.0
 10
-16.79201043666251
 20
-10.76753310613594
 30
0.0
  0
SPLINE
  5
795C
330
1F
100
AcDbEntity
  8
AM_0
100
AcDbSpline
210
0.0
220
0.0
230
1.0
 70
    24
 71
     1
 72
     4
 73
     2
 74
     0
 42
0.0000000001
 43
0.0000000001
 40
2.824257332144063
 40
2.824257332144063
 40
2.856334790008408
 40
2.856334790008408
 10
-16.5309785869382
 20
-10.84391982147428
 30
0.0
 10
-16.66088834224945
 20
-10.80364019363105
 30
0.0
  0
SPLINE
  5
795D
330
1F
100
AcDbEntity
  8
AM_0
100
AcDbSpline
210
0.0
220
0.0
230
1.0
 70
    24
 71
     1
 72
     4
 73
     2
 74
     0
 42
0.0000000001
 43
0.0000000001
 40
2.792179874279718
 40
2.792179874279718
 40
2.824257332144063
 40
2.824257332144063
 10
-16.40241366521911
 20
-10.88832960741495
 30
0.0
 10
-16.5309785869382
 20
-10.84391982147428
 30
0.0
  0
SPLINE
  5
795E
330
1F
100
AcDbEntity
  8
AM_0
100
AcDbSpline
210
0.0
220
0.0
230
1.0
 70
    24
 71
     1
 72
     4
 73
     2
 74
     0
 42
0.0000000001
 43
0.0000000001
 40
2.760102416415373
 40
2.760102416415373
 40
2.792179874279718
 40
2.792179874279718
 10
-16.27532460461497
 20
-10.93682303598188
 30
0.0
 10
-16.40241366521911
 20
-10.88832960741495
 30
0.0
  0
SPLINE
  5
795F
330
1F
100
AcDbEntity
  8
AM_0
100
AcDbSpline
210
0.0
220
0.0
230
1.0
 70
    24
 71
     1
 72
     4
 73
     2
 74
     0
 42
0.0000000001
 43
0.0000000001
 40
2.728024958551028
 40
2.728024958551028
 40
2.760102416415373
 40
2.760102416415373
 10
-16.1498408424087
 20
-10.98934951361388
 30
0.0
 10
-16.27532460461497
 20
-10.93682303598188
 30
0.0
  0
SPLINE
  5
7960
330
1F
100
AcDbEntity
  8
AM_0
100
AcDbSpline
210
0.0
220
0.0
230
1.0
 70
    24
 71
     1
 72
     4
 73
     2
 74
     0
 42
0.0000000001
 43
0.0000000001
 40
2.695947500686683
 40
2.695947500686683
 40
2.728024958551028
 40
2.728024958551028
 10
-16.02609010461788
 20
-11.04585442685083
 30
0.0
 10
-16.1498408424087
 20
-10.98934951361388
 30
0.0
  0
SPLINE
  5
7961
330
1F
100
AcDbEntity
  8
AM_0
100
AcDbSpline
210
0.0
220
0.0
230
1.0
 70
    24
 71
     1
 72
     4
 73
     2
 74
     0
 42
0.0000000001
 43
0.0000000001
 40
2.663847145614317
 40
2.663847145614317
 40
2.695947500686683
 40
2.695947500686683
 10
-15.90411197321225
 20
-11.10632372065379
 30
0.0
 10
-16.02609010461788
 20
-11.04585442685083
 30
0.0
  0
SPLINE
  5
7962
330
1F
100
AcDbEntity
  8
AM_0
100
AcDbSpline
210
0.0
220
0.0
230
1.0
 70
    24
 71
     1
 72
     4
 73
     2
 74
     0
 42
0.0000000001
 43
0.0000000001
 40
2.63174679054195
 40
2.63174679054195
 40
2.663847145614317
 40
2.663847145614317
 10
-15.78411963108862
 20
-11.1706558732576
 30
0.0
 10
-15.90411197321225
 20
-11.10632372065379
 30
0.0
  0
SPLINE
  5
7963
330
1F
100
AcDbEntity
  8
AM_0
100
AcDbSpline
210
0.0
220
0.0
230
1.0
 70
    24
 71
     1
 72
     4
 73
     2
 74
     0
 42
0.0000000001
 43
0.0000000001
 40
2.599646435469583
 40
2.599646435469583
 40
2.63174679054195
 40
2.63174679054195
 10
-15.66623522585393
 20
-11.2387844435765
 30
0.0
 10
-15.78411963108862
 20
-11.1706558732576
 30
0.0
  0
SPLINE
  5
7964
330
1F
100
AcDbEntity
  8
AM_0
100
AcDbSpline
210
0.0
220
0.0
230
1.0
 70
    24
 71
     1
 72
     4
 73
     2
 74
     0
 42
0.0000000001
 43
0.0000000001
 40
2.567546080397216
 40
2.567546080397216
 40
2.599646435469583
 40
2.599646435469583
 10
-15.55057872603595
 20
-11.31063922132354
 30
0.0
 10
-15.66623522585393
 20
-11.2387844435765
 30
0.0
  0
SPLINE
  5
7965
330
1F
100
AcDbEntity
  8
AM_0
100
AcDbSpline
210
0.0
220
0.0
230
1.0
 70
    24
 71
     1
 72
     4
 73
     2
 74
     0
 42
0.0000000001
 43
0.0000000001
 40
2.53544572532485
 40
2.53544572532485
 40
2.567546080397216
 40
2.567546080397216
 10
-15.43726781101224
 20
-11.38614629930533
 30
0.0
 10
-15.55057872603595
 20
-11.31063922132354
 30
0.0
  0
SPLINE
  5
7966
330
1F
100
AcDbEntity
  8
AM_0
100
AcDbSpline
210
0.0
220
0.0
230
1.0
 70
    24
 71
     1
 72
     4
 73
     2
 74
     0
 42
0.0000000001
 43
0.0000000001
 40
2.503345370252483
 40
2.503345370252483
 40
2.53544572532485
 40
2.53544572532485
 10
-15.32641776321258
 20
-11.46522814825551
 30
0.0
 10
-15.43726781101224
 20
-11.38614629930533
 30
0.0
  0
SPLINE
  5
7967
330
1F
100
AcDbEntity
  8
AM_0
100
AcDbSpline
210
0.0
220
0.0
230
1.0
 70
    24
 71
     1
 72
     4
 73
     2
 74
     0
 42
0.0000000001
 43
0.0000000001
 40
2.471245015180116
 40
2.471245015180116
 40
2.503345370252483
 40
2.503345370252483
 10
-15.21814136259297
 20
-11.54780369414631
 30
0.0
 10
-15.32641776321258
 20
-11.46522814825551
 30
0.0
  0
SPLINE
  5
7968
330
1F
100
AcDbEntity
  8
AM_0
100
AcDbSpline
210
0.0
220
0.0
230
1.0
 70
    24
 71
     1
 72
     4
 73
     2
 74
     0
 42
0.0000000001
 43
0.0000000001
 40
2.43914466010775
 40
2.43914466010775
 40
2.471245015180116
 40
2.471245015180116
 10
-15.1125487833732
 20
-11.63378839792404
 30
0.0
 10
-15.21814136259297
 20
-11.54780369414631
 30
0.0
  0
SPLINE
  5
7969
330
1F
100
AcDbEntity
  8
AM_0
100
AcDbSpline
210
0.0
220
0.0
230
1.0
 70
    24
 71
     1
 72
     4
 73
     2
 74
     0
 42
0.0000000001
 43
0.0000000001
 40
2.407044305035383
 40
2.407044305035383
 40
2.43914466010775
 40
2.43914466010775
 10
-15.00974749303407
 20
-11.72309433762053
 30
0.0
 10
-15.1125487833732
 20
-11.63378839792404
 30
0.0
  0
SPLINE
  5
796A
330
1F
100
AcDbEntity
  8
AM_0
100
AcDbSpline
210
0.0
220
0.0
230
1.0
 70
    24
 71
     1
 72
     4
 73
     2
 74
     0
 42
0.0000000001
 43
0.0000000001
 40
2.374943949963017
 40
2.374943949963017
 40
2.407044305035383
 40
2.407044305035383
 10
-14.90984215357025
 20
-11.81563029280467
 30
0.0
 10
-15.00974749303407
 20
-11.72309433762053
 30
0.0
  0
SPLINE
  5
796B
330
1F
100
AcDbEntity
  8
AM_0
100
AcDbSpline
210
0.0
220
0.0
230
1.0
 70
    24
 71
     1
 72
     4
 73
     2
 74
     0
 42
0.0000000001
 43
0.0000000001
 40
2.342859794352104
 40
2.342859794352104
 40
2.374943949963017
 40
2.374943949963017
 10
-14.81298265674047
 20
-11.9112527761256
 30
0.0
 10
-14.90984215357025
 20
-11.81563029280467
 30
0.0
  0
SPLINE
  5
796C
330
1F
100
AcDbEntity
  8
AM_0
100
AcDbSpline
210
0.0
220
0.0
230
1.0
 70
    24
 71
     1
 72
     4
 73
     2
 74
     0
 42
0.0000000001
 43
0.0000000001
 40
2.310775638741191
 40
2.310775638741191
 40
2.342859794352104
 40
2.342859794352104
 10
-14.71921646136331
 20
-12.00991027268129
 30
0.0
 10
-14.81298265674047
 20
-11.9112527761256
 30
0.0
  0
SPLINE
  5
796D
330
1F
100
AcDbEntity
  8
AM_0
100
AcDbSpline
210
0.0
220
0.0
230
1.0
 70
    24
 71
     1
 72
     4
 73
     2
 74
     0
 42
0.0000000001
 43
0.0000000001
 40
2.278691483130279
 40
2.278691483130279
 40
2.310775638741191
 40
2.310775638741191
 10
-14.62863910066937
 20
-12.1115023507365
 30
0.0
 10
-14.71921646136331
 20
-12.00991027268129
 30
0.0
  0
SPLINE
  5
796E
330
1F
100
AcDbEntity
  8
AM_0
100
AcDbSpline
210
0.0
220
0.0
230
1.0
 70
    24
 71
     1
 72
     4
 73
     2
 74
     0
 42
0.0000000001
 43
0.0000000001
 40
2.246607327519367
 40
2.246607327519367
 40
2.278691483130279
 40
2.278691483130279
 10
-14.54134293651225
 20
-12.21592564655192
 30
0.0
 10
-14.62863910066937
 20
-12.1115023507365
 30
0.0
  0
SPLINE
  5
796F
330
1F
100
AcDbEntity
  8
AM_0
100
AcDbSpline
210
0.0
220
0.0
230
1.0
 70
    24
 71
     1
 72
     4
 73
     2
 74
     0
 42
0.0000000001
 43
0.0000000001
 40
2.214523171908454
 40
2.214523171908454
 40
2.246607327519367
 40
2.246607327519367
 10
-14.45741707218019
 20
-12.32307395991712
 30
0.0
 10
-14.54134293651225
 20
-12.21592564655192
 30
0.0
  0
SPLINE
  5
7970
330
1F
100
AcDbEntity
  8
AM_0
100
AcDbSpline
210
0.0
220
0.0
230
1.0
 70
    24
 71
     1
 72
     4
 73
     2
 74
     0
 42
0.0000000001
 43
0.0000000001
 40
2.182439016297542
 40
2.182439016297542
 40
2.214523171908454
 40
2.214523171908454
 10
-14.37694726751135
 20
-12.43283835190779
 30
0.0
 10
-14.45741707218019
 20
-12.32307395991712
 30
0.0
  0
SPLINE
  5
7971
330
1F
100
AcDbEntity
  8
AM_0
100
AcDbSpline
210
0.0
220
0.0
230
1.0
 70
    24
 71
     1
 72
     4
 73
     2
 74
     0
 42
0.0000000001
 43
0.0000000001
 40
2.150354860686629
 40
2.150354860686629
 40
2.182439016297542
 40
2.182439016297542
 10
-14.3000158563409
 20
-12.5451072448637
 30
0.0
 10
-14.37694726751135
 20
-12.43283835190779
 30
0.0
  0
SPLINE
  5
7972
330
1F
100
AcDbEntity
  8
AM_0
100
AcDbSpline
210
0.0
220
0.0
230
1.0
 70
    24
 71
     1
 72
     4
 73
     2
 74
     0
 42
0.0000000001
 43
0.0000000001
 40
2.118270705075716
 40
2.118270705075716
 40
2.150354860686629
 40
2.150354860686629
 10
-14.22670166631371
 20
-12.65976652459143
 30
0.0
 10
-14.3000158563409
 20
-12.5451072448637
 30
0.0
  0
SPLINE
  5
7973
330
1F
100
AcDbEntity
  8
AM_0
100
AcDbSpline
210
0.0
220
0.0
230
1.0
 70
    24
 71
     1
 72
     4
 73
     2
 74
     0
 42
0.0000000001
 43
0.0000000001
 40
2.086186549464803
 40
2.086186549464803
 40
2.118270705075716
 40
2.118270705075716
 10
-14.15707994110198
 20
-12.7766996447922
 30
0.0
 10
-14.22670166631371
 20
-12.65976652459143
 30
0.0
  0
SPLINE
  5
7974
330
1F
100
AcDbEntity
  8
AM_0
100
AcDbSpline
210
0.0
220
0.0
230
1.0
 70
    24
 71
     1
 72
     4
 73
     2
 74
     0
 42
0.0000000001
 43
0.0000000001
 40
2.054102393853891
 40
2.054102393853891
 40
2.086186549464803
 40
2.086186549464803
 10
-14.09122226507759
 20
-12.89578773372046
 30
0.0
 10
-14.15707994110198
 20
-12.7766996447922
 30
0.0
  0
SPLINE
  5
7975
330
1F
100
AcDbEntity
  8
AM_0
100
AcDbSpline
210
0.0
220
0.0
230
1.0
 70
    24
 71
     1
 72
     4
 73
     2
 74
     0
 42
0.0000000001
 43
0.0000000001
 40
2.022067450310094
 40
2.022067450310094
 40
2.054102393853891
 40
2.054102393853891
 10
-14.02928866088871
 20
-13.01672242610528
 30
0.0
 10
-14.09122226507759
 20
-12.89578773372046
 30
0.0
  0
SPLINE
  5
7976
330
1F
100
AcDbEntity
  8
AM_0
100
AcDbSpline
210
0.0
220
0.0
230
1.0
 70
    24
 71
     1
 72
     4
 73
     2
 74
     0
 42
0.0000000001
 43
0.0000000001
 40
1.990032506766297
 40
1.990032506766297
 40
2.022067450310094
 40
2.022067450310094
 10
-13.97123897161907
 20
-13.13956213875145
 30
0.0
 10
-14.02928866088871
 20
-13.01672242610528
 30
0.0
  0
SPLINE
  5
7977
330
1F
100
AcDbEntity
  8
AM_0
100
AcDbSpline
210
0.0
220
0.0
230
1.0
 70
    24
 71
     1
 72
     4
 73
     2
 74
     0
 42
0.0000000001
 43
0.0000000001
 40
1.9579975632225
 40
1.9579975632225
 40
1.990032506766297
 40
1.990032506766297
 10
-13.91713310966008
 20
-13.26418226545583
 30
0.0
 10
-13.97123897161907
 20
-13.13956213875145
 30
0.0
  0
SPLINE
  5
7978
330
1F
100
AcDbEntity
  8
AM_0
100
AcDbSpline
210
0.0
220
0.0
230
1.0
 70
    24
 71
     1
 72
     4
 73
     2
 74
     0
 42
0.0000000001
 43
0.0000000001
 40
1.925962619678703
 40
1.925962619678703
 40
1.9579975632225
 40
1.9579975632225
 10
-13.86702707683855
 20
-13.39045633472859
 30
0.0
 10
-13.91713310966008
 20
-13.26418226545583
 30
0.0
  0
SPLINE
  5
7979
330
1F
100
AcDbEntity
  8
AM_0
100
AcDbSpline
210
0.0
220
0.0
230
1.0
 70
    24
 71
     1
 72
     4
 73
     2
 74
     0
 42
0.0000000001
 43
0.0000000001
 40
1.893927676134906
 40
1.893927676134906
 40
1.925962619678703
 40
1.925962619678703
 10
-13.82097290281296
 20
-13.51825612674862
 30
0.0
 10
-13.86702707683855
 20
-13.39045633472859
 30
0.0
  0
SPLINE
  5
797A
330
1F
100
AcDbEntity
  8
AM_0
100
AcDbSpline
210
0.0
220
0.0
230
1.0
 70
    24
 71
     1
 72
     4
 73
     2
 74
     0
 42
0.0000000001
 43
0.0000000001
 40
1.861892732591108
 40
1.861892732591108
 40
1.893927676134906
 40
1.893927676134906
 10
-13.77901858634811
 20
-13.64745179253601
 30
0.0
 10
-13.82097290281296
 20
-13.51825612674862
 30
0.0
  0
SPLINE
  5
797B
330
1F
100
AcDbEntity
  8
AM_0
100
AcDbSpline
210
0.0
220
0.0
230
1.0
 70
    24
 71
     1
 72
     4
 73
     2
 74
     0
 42
0.0000000001
 43
0.0000000001
 40
1.829857789047311
 40
1.829857789047311
 40
1.861892732591108
 40
1.861892732591108
 10
-13.74120803956918
 20
-13.7779119753285
 30
0.0
 10
-13.77901858634811
 20
-13.64745179253601
 30
0.0
  0
SPLINE
  5
797C
330
1F
100
AcDbEntity
  8
AM_0
100
AcDbSpline
210
0.0
220
0.0
230
1.0
 70
    24
 71
     1
 72
     4
 73
     2
 74
     0
 42
0.0000000001
 43
0.0000000001
 40
1.797822845503515
 40
1.797822845503515
 40
1.829857789047311
 40
1.829857789047311
 10
-13.70758103530386
 20
-13.90950393414768
 30
0.0
 10
-13.74120803956918
 20
-13.7779119753285
 30
0.0
  0
SPLINE
  5
797D
330
1F
100
AcDbEntity
  8
AM_0
100
AcDbSpline
210
0.0
220
0.0
230
1.0
 70
    24
 71
     1
 72
     4
 73
     2
 74
     0
 42
0.0000000001
 43
0.0000000001
 40
1.765787901959718
 40
1.765787901959718
 40
1.797822845503515
 40
1.797822845503515
 10
-13.67817315762875
 20
-14.04209366952854
 30
0.0
 10
-13.70758103530386
 20
-13.90950393414768
 30
0.0
  0
SPLINE
  5
797E
330
1F
100
AcDbEntity
  8
AM_0
100
AcDbSpline
210
0.0
220
0.0
230
1.0
 70
    24
 71
     1
 72
     4
 73
     2
 74
     0
 42
0.0000000001
 43
0.0000000001
 40
1.73375295841592
 40
1.73375295841592
 40
1.765787901959718
 40
1.765787901959718
 10
-13.65301575574005
 20
-14.17554605138379
 30
0.0
 10
-13.67817315762875
 20
-14.04209366952854
 30
0.0
  0
SPLINE
  5
797F
330
1F
100
AcDbEntity
  8
AM_0
100
AcDbSpline
210
0.0
220
0.0
230
1.0
 70
    24
 71
     1
 72
     4
 73
     2
 74
     0
 42
0.0000000001
 43
0.0000000001
 40
1.701781506879605
 40
1.701781506879605
 40
1.73375295841592
 40
1.73375295841592
 10
-13.63217303806538
 20
-14.30945838319873
 30
0.0
 10
-13.65301575574005
 20
-14.17554605138379
 30
0.0
  0
SPLINE
  5
7980
330
1F
100
AcDbEntity
  8
AM_0
100
AcDbSpline
210
0.0
220
0.0
230
1.0
 70
    24
 71
     1
 72
     4
 73
     2
 74
     0
 42
0.0000000001
 43
0.0000000001
 40
1.669810055343289
 40
1.669810055343289
 40
1.701781506879605
 40
1.701781506879605
 10
-13.61561355442552
 20
-14.4439581683023
 30
0.0
 10
-13.63217303806538
 20
-14.30945838319873
 30
0.0
  0
SPLINE
  5
7981
330
1F
100
AcDbEntity
  8
AM_0
100
AcDbSpline
210
0.0
220
0.0
230
1.0
 70
    24
 71
     1
 72
     4
 73
     2
 74
     0
 42
0.0000000001
 43
0.0000000001
 40
1.637838603806973
 40
1.637838603806973
 40
1.669810055343289
 40
1.669810055343289
 10
-13.60335561152067
 20
-14.57890849183753
 30
0.0
 10
-13.61561355442552
 20
-14.4439581683023
 30
0.0
  0
SPLINE
  5
7982
330
1F
100
AcDbEntity
  8
AM_0
100
AcDbSpline
210
0.0
220
0.0
230
1.0
 70
    24
 71
     1
 72
     4
 73
     2
 74
     0
 42
0.0000000001
 43
0.0000000001
 40
1.605867152270657
 40
1.605867152270657
 40
1.637838603806973
 40
1.637838603806973
 10
-13.59541316729507
 20
-14.71417184436633
 30
0.0
 10
-13.60335561152067
 20
-14.57890849183753
 30
0.0
  0
SPLINE
  5
7983
330
1F
100
AcDbEntity
  8
AM_0
100
AcDbSpline
210
0.0
220
0.0
230
1.0
 70
    24
 71
     1
 72
     4
 73
     2
 74
     0
 42
0.0000000001
 43
0.0000000001
 40
1.573895700734341
 40
1.573895700734341
 40
1.605867152270657
 40
1.605867152270657
 10
-13.59179580369243
 20
-14.84961025823487
 30
0.0
 10
-13.59541316729507
 20
-14.71417184436633
 30
0.0
  0
SPLINE
  5
7984
330
1F
100
AcDbEntity
  8
AM_0
100
AcDbSpline
210
0.0
220
0.0
230
1.0
 70
    24
 71
     1
 72
     4
 73
     2
 74
     0
 42
0.0000000001
 43
0.0000000001
 40
1.541924249198026
 40
1.541924249198026
 40
1.573895700734341
 40
1.573895700734341
 10
-13.59250870351149
 20
-14.98508544565562
 30
0.0
 10
-13.59179580369243
 20
-14.84961025823487
 30
0.0
  0
SPLINE
  5
7985
330
1F
100
AcDbEntity
  8
AM_0
100
AcDbSpline
210
0.0
220
0.0
230
1.0
 70
    24
 71
     1
 72
     4
 73
     2
 74
     0
 42
0.0000000001
 43
0.0000000001
 40
1.50995279766171
 40
1.50995279766171
 40
1.541924249198026
 40
1.541924249198026
 10
-13.59755263150873
 20
-15.12045893840162
 30
0.0
 10
-13.59250870351149
 20
-14.98508544565562
 30
0.0
  0
SPLINE
  5
7986
330
1F
100
AcDbEntity
  8
AM_0
100
AcDbSpline
210
0.0
220
0.0
230
1.0
 70
    24
 71
     1
 72
     4
 73
     2
 74
     0
 42
0.0000000001
 43
0.0000000001
 40
1.477981346125394
 40
1.477981346125394
 40
1.50995279766171
 40
1.50995279766171
 10
-13.6069239198872
 20
-15.25559222899381
 30
0.0
 10
-13.59755263150873
 20
-15.12045893840162
 30
0.0
  0
SPLINE
  5
7987
330
1F
100
AcDbEntity
  8
AM_0
100
AcDbSpline
210
0.0
220
0.0
230
1.0
 70
    24
 71
     1
 72
     4
 73
     2
 74
     0
 42
0.0000000001
 43
0.0000000001
 40
1.446009894589079
 40
1.446009894589079
 40
1.477981346125394
 40
1.477981346125394
 10
-13.62061445831614
 20
-15.39034691324742
 30
0.0
 10
-13.6069239198872
 20
-15.25559222899381
 30
0.0
  0
SPLINE
  5
7988
330
1F
100
AcDbEntity
  8
AM_0
100
AcDbSpline
210
0.0
220
0.0
230
1.0
 70
    24
 71
     1
 72
     4
 73
     2
 74
     0
 42
0.0000000001
 43
0.0000000001
 40
1.414038443052763
 40
1.414038443052763
 40
1.446009894589079
 40
1.446009894589079
 10
-13.63861168861637
 20
-15.52458483403417
 30
0.0
 10
-13.62061445831614
 20
-15.39034691324742
 30
0.0
  0
SPLINE
  5
7989
330
1F
100
AcDbEntity
  8
AM_0
100
AcDbSpline
210
0.0
220
0.0
230
1.0
 70
    24
 71
     1
 72
     4
 73
     2
 74
     0
 42
0.0000000001
 43
0.0000000001
 40
1.382119735423959
 40
1.382119735423959
 40
1.414038443052763
 40
1.414038443052763
 10
-13.66085831570615
 20
-15.65794846541861
 30
0.0
 10
-13.63861168861637
 20
-15.52458483403417
 30
0.0
  0
SPLINE
  5
798A
330
1F
100
AcDbEntity
  8
AM_0
100
AcDbSpline
210
0.0
220
0.0
230
1.0
 70
    24
 71
     1
 72
     4
 73
     2
 74
     0
 42
0.0000000001
 43
0.0000000001
 40
1.350201027795156
 40
1.350201027795156
 40
1.382119735423959
 40
1.382119735423959
 10
-13.6873591466001
 20
-15.79052317552499
 30
0.0
 10
-13.66085831570615
 20
-15.65794846541861
 30
0.0
  0
SPLINE
  5
798B
330
1F
100
AcDbEntity
  8
AM_0
100
AcDbSpline
210
0.0
220
0.0
230
1.0
 70
    24
 71
     1
 72
     4
 73
     2
 74
     0
 42
0.0000000001
 43
0.0000000001
 40
1.318282320166352
 40
1.318282320166352
 40
1.350201027795156
 40
1.350201027795156
 10
-13.7180884351078
 20
-15.92217309337071
 30
0.0
 10
-13.6873591466001
 20
-15.79052317552499
 30
0.0
  0
SPLINE
  5
798C
330
1F
100
AcDbEntity
  8
AM_0
100
AcDbSpline
210
0.0
220
0.0
230
1.0
 70
    24
 71
     1
 72
     4
 73
     2
 74
     0
 42
0.0000000001
 43
0.0000000001
 40
1.286363612537548
 40
1.286363612537548
 40
1.318282320166352
 40
1.318282320166352
 10
-13.75301604419883
 20
-16.0527631728752
 30
0.0
 10
-13.7180884351078
 20
-15.92217309337071
 30
0.0
  0
SPLINE
  5
798D
330
1F
100
AcDbEntity
  8
AM_0
100
AcDbSpline
210
0.0
220
0.0
230
1.0
 70
    24
 71
     1
 72
     4
 73
     2
 74
     0
 42
0.0000000001
 43
0.0000000001
 40
1.254444904908745
 40
1.254444904908745
 40
1.286363612537548
 40
1.286363612537548
 10
-13.79210746569458
 20
-16.18215933882153
 30
0.0
 10
-13.75301604419883
 20
-16.0527631728752
 30
0.0
  0
SPLINE
  5
798E
330
1F
100
AcDbEntity
  8
AM_0
100
AcDbSpline
210
0.0
220
0.0
230
1.0
 70
    24
 71
     1
 72
     4
 73
     2
 74
     0
 42
0.0000000001
 43
0.0000000001
 40
1.222526197279941
 40
1.222526197279941
 40
1.254444904908745
 40
1.254444904908745
 10
-13.83532384525517
 20
-16.31022863287798
 30
0.0
 10
-13.79210746569458
 20
-16.18215933882153
 30
0.0
  0
SPLINE
  5
798F
330
1F
100
AcDbEntity
  8
AM_0
100
AcDbSpline
210
0.0
220
0.0
230
1.0
 70
    24
 71
     1
 72
     4
 73
     2
 74
     0
 42
0.0000000001
 43
0.0000000001
 40
1.190607489651138
 40
1.190607489651138
 40
1.222526197279941
 40
1.222526197279941
 10
-13.88262201273948
 20
-16.43683935944604
 30
0.0
 10
-13.83532384525517
 20
-16.31022863287798
 30
0.0
  0
SPLINE
  5
7990
330
1F
100
AcDbEntity
  8
AM_0
100
AcDbSpline
210
0.0
220
0.0
230
1.0
 70
    24
 71
     1
 72
     4
 73
     2
 74
     0
 42
0.0000000001
 43
0.0000000001
 40
1.158688782022334
 40
1.158688782022334
 40
1.190607489651138
 40
1.190607489651138
 10
-13.93395451799858
 20
-16.56186123109445
 30
0.0
 10
-13.88262201273948
 20
-16.43683935944604
 30
0.0
  0
SPLINE
  5
7991
330
1F
100
AcDbEntity
  8
AM_0
100
AcDbSpline
210
0.0
220
0.0
230
1.0
 70
    24
 71
     1
 72
     4
 73
     2
 74
     0
 42
0.0000000001
 43
0.0000000001
 40
1.12677007439353
 40
1.12677007439353
 40
1.158688782022334
 40
1.158688782022334
 10
-13.989269672153
 20
-16.68516551332506
 30
0.0
 10
-13.93395451799858
 20
-16.56186123109445
 30
0.0
  0
SPLINE
  5
7992
330
1F
100
AcDbEntity
  8
AM_0
100
AcDbSpline
210
0.0
220
0.0
230
1.0
 70
    24
 71
     1
 72
     4
 73
     2
 74
     0
 42
0.0000000001
 43
0.0000000001
 40
1.094851366764727
 40
1.094851366764727
 40
1.12677007439353
 40
1.12677007439353
 10
-14.04851159438214
 20
-16.80662516841324
 30
0.0
 10
-13.989269672153
 20
-16.68516551332506
 30
0.0
  0
SPLINE
  5
7993
330
1F
100
AcDbEntity
  8
AM_0
100
AcDbSpline
210
0.0
220
0.0
230
1.0
 70
    24
 71
     1
 72
     4
 73
     2
 74
     0
 42
0.0000000001
 43
0.0000000001
 40
1.062953094810253
 40
1.062953094810253
 40
1.094851366764727
 40
1.094851366764727
 10
-14.11157863588471
 20
-16.92603915229291
 30
0.0
 10
-14.04851159438214
 20
-16.80662516841324
 30
0.0
  0
SPLINE
  5
7994
330
1F
100
AcDbEntity
  8
AM_0
100
AcDbSpline
210
0.0
220
0.0
230
1.0
 70
    24
 71
     1
 72
     4
 73
     2
 74
     0
 42
0.0000000001
 43
0.0000000001
 40
1.03105482285578
 40
1.03105482285578
 40
1.062953094810253
 40
1.062953094810253
 10
-14.17844349784024
 20
-17.04336285017679
 30
0.0
 10
-14.11157863588471
 20
-16.92603915229291
 30
0.0
  0
SPLINE
  5
7995
330
1F
100
AcDbEntity
  8
AM_0
100
AcDbSpline
210
0.0
220
0.0
230
1.0
 70
    24
 71
     1
 72
     4
 73
     2
 74
     0
 42
0.0000000001
 43
0.0000000001
 40
0.9991565509013064
 40
0.9991565509013064
 40
1.03105482285578
 40
1.03105482285578
 10
-14.24903819415919
 20
-17.15847539474806
 30
0.0
 10
-14.17844349784024
 20
-17.04336285017679
 30
0.0
  0
SPLINE
  5
7996
330
1F
100
AcDbEntity
  8
AM_0
100
AcDbSpline
210
0.0
220
0.0
230
1.0
 70
    24
 71
     1
 72
     4
 73
     2
 74
     0
 42
0.0000000001
 43
0.0000000001
 40
0.9672582789468329
 40
0.9672582789468329
 40
0.9991565509013064
 40
0.9991565509013064
 10
-14.32329079914154
 20
-17.27125817022876
 30
0.0
 10
-14.24903819415919
 20
-17.15847539474806
 30
0.0
  0
SPLINE
  5
7997
330
1F
100
AcDbEntity
  8
AM_0
100
AcDbSpline
210
0.0
220
0.0
230
1.0
 70
    24
 71
     1
 72
     4
 73
     2
 74
     0
 42
0.0000000001
 43
0.0000000001
 40
0.9353600069923592
 40
0.9353600069923592
 40
0.9672582789468329
 40
0.9672582789468329
 10
-14.4011255214458
 20
-17.38159494709567
 30
0.0
 10
-14.32329079914154
 20
-17.27125817022876
 30
0.0
  0
SPLINE
  5
7998
330
1F
100
AcDbEntity
  8
AM_0
100
AcDbSpline
210
0.0
220
0.0
230
1.0
 70
    24
 71
     1
 72
     4
 73
     2
 74
     0
 42
0.0000000001
 43
0.0000000001
 40
0.9034617350378855
 40
0.9034617350378855
 40
0.9353600069923592
 40
0.9353600069923592
 10
-14.48246278335943
 20
-17.48937201424111
 30
0.0
 10
-14.4011255214458
 20
-17.38159494709567
 30
0.0
  0
SPLINE
  5
7999
330
1F
100
AcDbEntity
  8
AM_0
100
AcDbSpline
210
0.0
220
0.0
230
1.0
 70
    24
 71
     1
 72
     4
 73
     2
 74
     0
 42
0.0000000001
 43
0.0000000001
 40
0.8715634630834118
 40
0.8715634630834118
 40
0.9034617350378855
 40
0.9034617350378855
 10
-14.56721930527715
 20
-17.59447830830903
 30
0.0
 10
-14.48246278335943
 20
-17.48937201424111
 30
0.0
  0
SPLINE
  5
799A
330
1F
100
AcDbEntity
  8
AM_0
100
AcDbSpline
210
0.0
220
0.0
230
1.0
 70
    24
 71
     1
 72
     4
 73
     2
 74
     0
 42
0.0000000001
 43
0.0000000001
 40
0.8396651911289383
 40
0.8396651911289383
 40
0.8715634630834118
 40
0.8715634630834118
 10
-14.6553081952677
 20
-17.69680553994023
 30
0.0
 10
-14.56721930527715
 20
-17.59447830830903
 30
0.0
  0
SPLINE
  5
799B
330
1F
100
AcDbEntity
  8
AM_0
100
AcDbSpline
210
0.0
220
0.0
230
1.0
 70
    24
 71
     1
 72
     4
 73
     2
 74
     0
 42
0.0000000001
 43
0.0000000001
 40
0.8077669191744648
 40
0.8077669191744648
 40
0.8396651911289383
 40
0.8396651911289383
 10
-14.74663904359295
 20
-17.79624831666821
 30
0.0
 10
-14.6553081952677
 20
-17.69680553994023
 30
0.0
  0
SPLINE
  5
799C
330
1F
100
AcDbEntity
  8
AM_0
100
AcDbSpline
210
0.0
220
0.0
230
1.0
 70
    24
 71
     1
 72
     4
 73
     2
 74
     0
 42
0.0000000001
 43
0.0000000001
 40
0.7758686472199912
 40
0.7758686472199912
 40
0.8077669191744648
 40
0.8077669191744648
 10
-14.84111802202585
 20
-17.89270426221527
 30
0.0
 10
-14.74663904359295
 20
-17.79624831666821
 30
0.0
  0
SPLINE
  5
799D
330
1F
100
AcDbEntity
  8
AM_0
100
AcDbSpline
210
0.0
220
0.0
230
1.0
 70
    24
 71
     1
 72
     4
 73
     2
 74
     0
 42
0.0000000001
 43
0.0000000001
 40
1.693108380535172
 40
1.693108380535172
 40
1.733829390777973
 40
1.733829390777973
 10
57.91338226355833
 20
-9.345447997616172
 30
0.0
 10
57.94905102692564
 20
-9.336966171830379
 30
0.0
  0
SPLINE
  5
799E
330
1F
100
AcDbEntity
  8
AM_0
100
AcDbSpline
210
0.0
220
0.0
230
1.0
 70
    24
 71
     1
 72
     4
 73
     2
 74
     0
 42
0.0000000001
 43
0.0000000001
 40
1.659610713157011
 40
1.659610713157011
 40
1.693108380535172
 40
1.693108380535172
 10
57.8829847651881
 20
-9.352836010742105
 30
0.0
 10
57.91338226355833
 20
-9.345447997616172
 30
0.0
  0
SPLINE
  5
799F
330
1F
100
AcDbEntity
  8
AM_0
100
AcDbSpline
210
0.0
220
0.0
230
1.0
 70
    24
 71
     1
 72
     4
 73
     2
 74
     0
 42
0.0000000001
 43
0.0000000001
 40
1.62611304577885
 40
1.62611304577885
 40
1.659610713157011
 40
1.659610713157011
 10
57.85173312388486
 20
-9.36058949686382
 30
0.0
 10
57.8829847651881
 20
-9.352836010742105
 30
0.0
  0
SPLINE
  5
79A0
330
1F
100
AcDbEntity
  8
AM_0
100
AcDbSpline
210
0.0
220
0.0
230
1.0
 70
    24
 71
     1
 72
     4
 73
     2
 74
     0
 42
0.0000000001
 43
0.0000000001
 40
1.592615378400688
 40
1.592615378400688
 40
1.62611304577885
 40
1.62611304577885
 10
57.81988670471458
 20
-9.368662273794068
 30
0.0
 10
57.85173312388486
 20
-9.36058949686382
 30
0.0
  0
SPLINE
  5
79A1
330
1F
100
AcDbEntity
  8
AM_0
100
AcDbSpline
210
0.0
220
0.0
230
1.0
 70
    24
 71
     1
 72
     4
 73
     2
 74
     0
 42
0.0000000001
 43
0.0000000001
 40
1.554220005801778
 40
1.554220005801778
 40
1.592615378400688
 40
1.592615378400688
 10
57.78275422766535
 20
-9.378310350711029
 30
0.0
 10
57.81988670471458
 20
-9.368662273794068
 30
0.0
  0
SPLINE
  5
79A2
330
1F
100
AcDbEntity
  8
AM_0
100
AcDbSpline
210
0.0
220
0.0
230
1.0
 70
    24
 71
     1
 72
     4
 73
     2
 74
     0
 42
0.0000000001
 43
0.0000000001
 40
1.515824633202869
 40
1.515824633202869
 40
1.554220005801778
 40
1.554220005801778
 10
57.74539477976396
 20
-9.388282967476509
 30
0.0
 10
57.78275422766535
 20
-9.378310350711029
 30
0.0
  0
SPLINE
  5
79A3
330
1F
100
AcDbEntity
  8
AM_0
100
AcDbSpline
210
0.0
220
0.0
230
1.0
 70
    24
 71
     1
 72
     4
 73
     2
 74
     0
 42
0.0000000001
 43
0.0000000001
 40
1.477429260603959
 40
1.477429260603959
 40
1.515824633202869
 40
1.515824633202869
 10
57.70863192748539
 20
-9.398378031335521
 30
0.0
 10
57.74539477976396
 20
-9.388282967476509
 30
0.0
  0
SPLINE
  5
79A4
330
1F
100
AcDbEntity
  8
AM_0
100
AcDbSpline
210
0.0
220
0.0
230
1.0
 70
    24
 71
     1
 72
     4
 73
     2
 74
     0
 42
0.0000000001
 43
0.0000000001
 40
1.436773144089244
 40
1.436773144089244
 40
1.477429260603959
 40
1.477429260603959
 10
57.67087405360678
 20
-9.409076510184416
 30
0.0
 10
57.70863192748539
 20
-9.398378031335521
 30
0.0
  0
SPLINE
  5
79A5
330
1F
100
AcDbEntity
  8
AM_0
100
AcDbSpline
210
0.0
220
0.0
230
1.0
 70
    24
 71
     1
 72
     4
 73
     2
 74
     0
 42
0.0000000001
 43
0.0000000001
 40
1.396117027574528
 40
1.396117027574528
 40
1.436773144089244
 40
1.436773144089244
 10
57.63457765485521
 20
-9.41970149568753
 30
0.0
 10
57.67087405360678
 20
-9.409076510184416
 30
0.0
  0
SPLINE
  5
79A6
330
1F
100
AcDbEntity
  8
AM_0
100
AcDbSpline
210
0.0
220
0.0
230
1.0
 70
    24
 71
     1
 72
     4
 73
     2
 74
     0
 42
0.0000000001
 43
0.0000000001
 40
1.355460911059812
 40
1.355460911059812
 40
1.396117027574528
 40
1.396117027574528
 10
57.60024579239246
 20
-9.430096207344075
 30
0.0
 10
57.63457765485521
 20
-9.41970149568753
 30
0.0
  0
SPLINE
  5
79A7
330
1F
100
AcDbEntity
  8
AM_0
100
AcDbSpline
210
0.0
220
0.0
230
1.0
 70
    24
 71
     1
 72
     4
 73
     2
 74
     0
 42
0.0000000001
 43
0.0000000001
 40
1.252785069199351
 40
1.252785069199351
 40
1.355460911059812
 40
1.355460911059812
 10
57.52208084656854
 20
-9.455276921252373
 30
0.0
 10
57.60024579239246
 20
-9.430096207344075
 30
0.0
  0
SPLINE
  5
79A8
330
1F
100
AcDbEntity
  8
AM_0
100
AcDbSpline
210
0.0
220
0.0
230
1.0
 70
    24
 71
     1
 72
     4
 73
     2
 74
     0
 42
0.0000000001
 43
0.0000000001
 40
1.15010922733889
 40
1.15010922733889
 40
1.252785069199351
 40
1.252785069199351
 10
57.45273223451488
 20
-9.479937156172962
 30
0.0
 10
57.52208084656854
 20
-9.455276921252373
 30
0.0
  0
SPLINE
  5
79A9
330
1F
100
AcDbEntity
  8
AM_0
100
AcDbSpline
210
0.0
220
0.0
230
1.0
 70
    24
 71
     1
 72
     4
 73
     2
 74
     0
 42
0.0000000001
 43
0.0000000001
 40
1.093334212437217
 40
1.093334212437217
 40
1.15010922733889
 40
1.15010922733889
 10
57.41657033483591
 20
-9.493875954192542
 30
0.0
 10
57.45273223451488
 20
-9.479937156172962
 30
0.0
  0
SPLINE
  5
79AA
330
1F
100
AcDbEntity
  8
AM_0
100
AcDbSpline
210
0.0
220
0.0
230
1.0
 70
    24
 71
     1
 72
     4
 73
     2
 74
     0
 42
0.0000000001
 43
0.0000000001
 40
1.036559197535544
 40
1.036559197535544
 40
1.093334212437217
 40
1.093334212437217
 10
57.38082834356214
 20
-9.508587568070122
 30
0.0
 10
57.41657033483591
 20
-9.493875954192542
 30
0.0
  0
SPLINE
  5
79AB
330
1F
100
AcDbEntity
  8
AM_0
100
AcDbSpline
210
0.0
220
0.0
230
1.0
 70
    24
 71
     1
 72
     4
 73
     2
 74
     0
 42
0.0000000001
 43
0.0000000001
 40
0.9797841826338718
 40
0.9797841826338718
 40
1.036559197535544
 40
1.036559197535544
 10
57.34485944771233
 20
-9.524534411655093
 30
0.0
 10
57.38082834356214
 20
-9.508587568070122
 30
0.0
  0
SPLINE
  5
79AC
330
1F
100
AcDbEntity
  8
AM_0
100
AcDbSpline
210
0.0
220
0.0
230
1.0
 70
    24
 71
     1
 72
     4
 73
     2
 74
     0
 42
0.0000000001
 43
0.0000000001
 40
0.923009167732199
 40
0.923009167732199
 40
0.9797841826338718
 40
0.9797841826338718
 10
57.30801683430502
 20
-9.542178898796446
 30
0.0
 10
57.34485944771233
 20
-9.524534411655093
 30
0.0
  0
SPLINE
  5
79AD
330
1F
100
AcDbEntity
  8
AM_0
100
AcDbSpline
210
0.0
220
0.0
230
1.0
 70
    24
 71
     1
 72
     4
 73
     2
 74
     0
 42
0.0000000001
 43
0.0000000001
 40
0.8680424473809472
 40
0.8680424473809472
 40
0.923009167732199
 40
0.923009167732199
 10
57.27082870004972
 20
-9.561501365856809
 30
0.0
 10
57.30801683430502
 20
-9.542178898796446
 30
0.0
  0
SPLINE
  5
79AE
330
1F
100
AcDbEntity
  8
AM_0
100
AcDbSpline
210
0.0
220
0.0
230
1.0
 70
    24
 71
     1
 72
     4
 73
     2
 74
     0
 42
0.0000000001
 43
0.0000000001
 40
0.8130757270296955
 40
0.8130757270296955
 40
0.8680424473809472
 40
0.8680424473809472
 10
57.2322054556746
 20
-9.583392197521714
 30
0.0
 10
57.27082870004972
 20
-9.561501365856809
 30
0.0
  0
SPLINE
  5
79AF
330
1F
100
AcDbEntity
  8
AM_0
100
AcDbSpline
210
0.0
220
0.0
230
1.0
 70
    24
 71
     1
 72
     4
 73
     2
 74
     0
 42
0.0000000001
 43
0.0000000001
 40
0.7581090066784439
 40
0.7581090066784439
 40
0.8130757270296955
 40
0.8130757270296955
 10
57.19265628424523
 20
-9.607897106401747
 30
0.0
 10
57.2322054556746
 20
-9.583392197521714
 30
0.0
  0
SPLINE
  5
79B0
330
1F
100
AcDbEntity
  8
AM_0
100
AcDbSpline
210
0.0
220
0.0
230
1.0
 70
    24
 71
     1
 72
     4
 73
     2
 74
     0
 42
0.0000000001
 43
0.0000000001
 40
0.7031422863271923
 40
0.7031422863271923
 40
0.7581090066784439
 40
0.7581090066784439
 10
57.15269036882762
 20
-9.635061805107664
 30
0.0
 10
57.19265628424523
 20
-9.607897106401747
 30
0.0
  0
SPLINE
  5
79B1
330
1F
100
AcDbEntity
  8
AM_0
100
AcDbSpline
210
0.0
220
0.0
230
1.0
 70
    24
 71
     1
 72
     4
 73
     2
 74
     0
 42
0.0000000001
 43
0.0000000001
 40
0.6481755659759405
 40
0.6481755659759405
 40
0.7031422863271923
 40
0.7031422863271923
 10
57.11281689248721
 20
-9.664932006250108
 30
0.0
 10
57.15269036882762
 20
-9.635061805107664
 30
0.0
  0
SPLINE
  5
79B2
330
1F
100
AcDbEntity
  8
AM_0
100
AcDbSpline
210
0.0
220
0.0
230
1.0
 70
    24
 71
     1
 72
     4
 73
     2
 74
     0
 42
0.0000000001
 43
0.0000000001
 40
0.5843628977383477
 40
0.5843628977383477
 40
0.6481755659759405
 40
0.6481755659759405
 10
57.06721502288985
 20
-9.703103797429303
 30
0.0
 10
57.11281689248721
 20
-9.664932006250108
 30
0.0
  0
SPLINE
  5
79B3
330
1F
100
AcDbEntity
  8
AM_0
100
AcDbSpline
210
0.0
220
0.0
230
1.0
 70
    24
 71
     1
 72
     4
 73
     2
 74
     0
 42
0.0000000001
 43
0.0000000001
 40
0.5205502295007547
 40
0.5205502295007547
 40
0.5843628977383477
 40
0.5843628977383477
 10
57.0228637891363
 20
-9.744852585580968
 30
0.0
 10
57.06721502288985
 20
-9.703103797429303
 30
0.0
  0
SPLINE
  5
79B4
330
1F
100
AcDbEntity
  8
AM_0
100
AcDbSpline
210
0.0
220
0.0
230
1.0
 70
    24
 71
     1
 72
     4
 73
     2
 74
     0
 42
0.0000000001
 43
0.0000000001
 40
0.4567375612631619
 40
0.4567375612631619
 40
0.5205502295007547
 40
0.5205502295007547
 10
56.98032557554824
 20
-9.789824809863983
 30
0.0
 10
57.0228637891363
 20
-9.744852585580968
 30
0.0
  0
SPLINE
  5
79B5
330
1F
100
AcDbEntity
  8
AM_0
100
AcDbSpline
210
0.0
220
0.0
230
1.0
 70
    24
 71
     1
 72
     4
 73
     2
 74
     0
 42
0.0000000001
 43
0.0000000001
 40
0.392924893025569
 40
0.392924893025569
 40
0.4567375612631619
 40
0.4567375612631619
 10
56.94016276644731
 20
-9.837666909437114
 30
0.0
 10
56.98032557554824
 20
-9.789824809863983
 30
0.0
  0
SPLINE
  5
79B6
330
1F
100
AcDbEntity
  8
AM_0
100
AcDbSpline
210
0.0
220
0.0
230
1.0
 70
    24
 71
     1
 72
     4
 73
     2
 74
     0
 42
0.0000000001
 43
0.0000000001
 40
0.3291122247879761
 40
0.3291122247879761
 40
0.392924893025569
 40
0.392924893025569
 10
56.9029377461552
 20
-9.888025323459071
 30
0.0
 10
56.94016276644731
 20
-9.837666909437114
 30
0.0
  0
SPLINE
  5
79B7
330
1F
100
AcDbEntity
  8
AM_0
100
AcDbSpline
210
0.0
220
0.0
230
1.0
 70
    24
 71
     1
 72
     4
 73
     2
 74
     0
 42
0.0000000001
 43
0.0000000001
 40
0.2632897798303809
 40
0.2632897798303809
 40
0.3291122247879761
 40
0.3291122247879761
 10
56.86786066612819
 20
-9.94253895580395
 30
0.0
 10
56.9029377461552
 20
-9.888025323459071
 30
0.0
  0
SPLINE
  5
79B8
330
1F
100
AcDbEntity
  8
AM_0
100
AcDbSpline
210
0.0
220
0.0
230
1.0
 70
    24
 71
     1
 72
     4
 73
     2
 74
     0
 42
0.0000000001
 43
0.0000000001
 40
0.1974673348727856
 40
0.1974673348727856
 40
0.2632897798303809
 40
0.2632897798303809
 10
56.83615861462374
 20
-9.999574194253948
 30
0.0
 10
56.86786066612819
 20
-9.94253895580395
 30
0.0
  0
SPLINE
  5
79B9
330
1F
100
AcDbEntity
  8
AM_0
100
AcDbSpline
210
0.0
220
0.0
230
1.0
 70
    24
 71
     1
 72
     4
 73
     2
 74
     0
 42
0.0000000001
 43
0.0000000001
 40
0.1316448899151904
 40
0.1316448899151904
 40
0.1974673348727856
 40
0.1974673348727856
 10
56.80805868136713
 20
-10.05873455225814
 30
0.0
 10
56.83615861462374
 20
-9.999574194253948
 30
0.0
  0
SPLINE
  5
79BA
330
1F
100
AcDbEntity
  8
AM_0
100
AcDbSpline
210
0.0
220
0.0
230
1.0
 70
    24
 71
     1
 72
     4
 73
     2
 74
     0
 42
0.0000000001
 43
0.0000000001
 40
0.0658224449575952
 40
0.0658224449575952
 40
0.1316448899151904
 40
0.1316448899151904
 10
56.7837879560833
 20
-10.1196235432656
 30
0.0
 10
56.80805868136713
 20
-10.05873455225814
 30
0.0
  0
SPLINE
  5
79BB
330
1F
100
AcDbEntity
  8
AM_0
100
AcDbSpline
210
0.0
220
0.0
230
1.0
 70
    24
 71
     1
 72
     4
 73
     2
 74
     0
 42
0.0000000001
 43
0.0000000001
 40
0.0
 40
0.0
 40
0.0658224449575952
 40
0.0658224449575952
 10
56.76357352849731
 20
-10.1818446807254
 30
0.0
 10
56.7837879560833
 20
-10.1196235432656
 30
0.0
  0
SPLINE
  5
79BC
330
1F
100
AcDbEntity
  8
AM_0
100
AcDbSpline
210
0.0
220
0.0
230
1.0
 70
    24
 71
     1
 72
     4
 73
     2
 74
     0
 42
0.0000000001
 43
0.0000000001
 40
3.045307366392775
 40
3.045307366392775
 40
3.061281173289517
 40
3.061281173289517
 10
55.34095047602034
 20
-11.54193909939901
 30
0.0
 10
55.40630728615917
 20
-11.4817577790241
 30
0.0
  0
SPLINE
  5
79BD
330
1F
100
AcDbEntity
  8
AM_0
100
AcDbSpline
210
0.0
220
0.0
230
1.0
 70
    24
 71
     1
 72
     4
 73
     2
 74
     0
 42
0.0000000001
 43
0.0000000001
 40
3.029333559496033
 40
3.029333559496033
 40
3.045307366392775
 40
3.045307366392775
 10
55.28934382274963
 20
-11.59734708635236
 30
0.0
 10
55.34095047602034
 20
-11.54193909939901
 30
0.0
  0
SPLINE
  5
79BE
330
1F
100
AcDbEntity
  8
AM_0
100
AcDbSpline
210
0.0
220
0.0
230
1.0
 70
    24
 71
     1
 72
     4
 73
     2
 74
     0
 42
0.0000000001
 43
0.0000000001
 40
3.013359752599291
 40
3.013359752599291
 40
3.029333559496033
 40
3.029333559496033
 10
55.24807275753119
 20
-11.64780992997013
 30
0.0
 10
55.28934382274963
 20
-11.59734708635236
 30
0.0
  0
SPLINE
  5
79BF
330
1F
100
AcDbEntity
  8
AM_0
100
AcDbSpline
210
0.0
220
0.0
230
1.0
 70
    24
 71
     1
 72
     4
 73
     2
 74
     0
 42
0.0000000001
 43
0.0000000001
 40
2.997385945702549
 40
2.997385945702549
 40
3.013359752599291
 40
3.013359752599291
 10
55.21454862567987
 20
-11.69367669451075
 30
0.0
 10
55.24807275753119
 20
-11.64780992997013
 30
0.0
  0
SPLINE
  5
79C0
330
1F
100
AcDbEntity
  8
AM_0
100
AcDbSpline
210
0.0
220
0.0
230
1.0
 70
    24
 71
     1
 72
     4
 73
     2
 74
     0
 42
0.0000000001
 43
0.0000000001
 40
2.976087536506893
 40
2.976087536506893
 40
2.997385945702549
 40
2.997385945702549
 10
55.17866795683517
 20
-11.74863988353699
 30
0.0
 10
55.21454862567987
 20
-11.69367669451075
 30
0.0
  0
SPLINE
  5
79C1
330
1F
100
AcDbEntity
  8
AM_0
100
AcDbSpline
210
0.0
220
0.0
230
1.0
 70
    24
 71
     1
 72
     4
 73
     2
 74
     0
 42
0.0000000001
 43
0.0000000001
 40
2.954789127311237
 40
2.954789127311237
 40
2.976087536506893
 40
2.976087536506893
 10
55.15002229622223
 20
-11.79778921229045
 30
0.0
 10
55.17866795683517
 20
-11.74863988353699
 30
0.0
  0
SPLINE
  5
79C2
330
1F
100
AcDbEntity
  8
AM_0
100
AcDbSpline
210
0.0
220
0.0
230
1.0
 70
    24
 71
     1
 72
     4
 73
     2
 74
     0
 42
0.0000000001
 43
0.0000000001
 40
2.933490718115581
 40
2.933490718115581
 40
2.954789127311237
 40
2.954789127311237
 10
55.12648965252902
 20
-11.842368946998
 30
0.0
 10
55.15002229622223
 20
-11.79778921229045
 30
0.0
  0
SPLINE
  5
79C3
330
1F
100
AcDbEntity
  8
AM_0
100
AcDbSpline
210
0.0
220
0.0
230
1.0
 70
    24
 71
     1
 72
     4
 73
     2
 74
     0
 42
0.0000000001
 43
0.0000000001
 40
2.887103625458755
 40
2.887103625458755
 40
2.933490718115581
 40
2.933490718115581
 10
55.0866721969918
 20
-11.92836938922179
 30
0.0
 10
55.12648965252902
 20
-11.842368946998
 30
0.0
  0
SPLINE
  5
79C4
330
1F
100
AcDbEntity
  8
AM_0
100
AcDbSpline
210
0.0
220
0.0
230
1.0
 70
    24
 71
     1
 72
     4
 73
     2
 74
     0
 42
0.0000000001
 43
0.0000000001
 40
2.84071653280193
 40
2.84071653280193
 40
2.887103625458755
 40
2.887103625458755
 10
55.05623708834708
 20
-12.00506266019344
 30
0.0
 10
55.0866721969918
 20
-11.92836938922179
 30
0.0
  0
SPLINE
  5
79C5
330
1F
100
AcDbEntity
  8
AM_0
100
AcDbSpline
210
0.0
220
0.0
230
1.0
 70
    24
 71
     1
 72
     4
 73
     2
 74
     0
 42
0.0000000001
 43
0.0000000001
 40
2.794329440145104
 40
2.794329440145104
 40
2.84071653280193
 40
2.84071653280193
 10
55.03103477456284
 20
-12.07717478271085
 30
0.0
 10
55.05623708834708
 20
-12.00506266019344
 30
0.0
  0
SPLINE
  5
79C6
330
1F
100
AcDbEntity
  8
AM_0
100
AcDbSpline
210
0.0
220
0.0
230
1.0
 70
    24
 71
     1
 72
     4
 73
     2
 74
     0
 42
0.0000000001
 43
0.0000000001
 40
2.747942347488278
 40
2.747942347488278
 40
2.794329440145104
 40
2.794329440145104
 10
55.00893251926914
 20
-12.14761650876122
 30
0.0
 10
55.03103477456284
 20
-12.07717478271085
 30
0.0
  0
SPLINE
  5
79C7
330
1F
100
AcDbEntity
  8
AM_0
100
AcDbSpline
210
0.0
220
0.0
230
1.0
 70
    24
 71
     1
 72
     4
 73
     2
 74
     0
 42
0.0000000001
 43
0.0000000001
 40
2.701555254831452
 40
2.701555254831452
 40
2.747942347488278
 40
2.747942347488278
 10
54.98875738178765
 20
-12.21822272251817
 30
0.0
 10
55.00893251926914
 20
-12.14761650876122
 30
0.0
  0
SPLINE
  5
79C8
330
1F
100
AcDbEntity
  8
AM_0
100
AcDbSpline
210
0.0
220
0.0
230
1.0
 70
    24
 71
     1
 72
     4
 73
     2
 74
     0
 42
0.0000000001
 43
0.0000000001
 40
2.655168162174627
 40
2.655168162174627
 40
2.701555254831452
 40
2.701555254831452
 10
54.96982884617512
 20
-12.29017461729078
 30
0.0
 10
54.98875738178765
 20
-12.21822272251817
 30
0.0
  0
SPLINE
  5
79C9
330
1F
100
AcDbEntity
  8
AM_0
100
AcDbSpline
210
0.0
220
0.0
230
1.0
 70
    24
 71
     1
 72
     4
 73
     2
 74
     0
 42
0.0000000001
 43
0.0000000001
 40
2.608781069517801
 40
2.608781069517801
 40
2.655168162174627
 40
2.655168162174627
 10
54.95173581396591
 20
-12.36424199271077
 30
0.0
 10
54.96982884617512
 20
-12.29017461729078
 30
0.0
  0
SPLINE
  5
79CA
330
1F
100
AcDbEntity
  8
AM_0
100
AcDbSpline
210
0.0
220
0.0
230
1.0
 70
    24
 71
     1
 72
     4
 73
     2
 74
     0
 42
0.0000000001
 43
0.0000000001
 40
2.562393976860975
 40
2.562393976860975
 40
2.608781069517801
 40
2.608781069517801
 10
54.9342228534
 20
-12.44092609682966
 30
0.0
 10
54.95173581396591
 20
-12.36424199271077
 30
0.0
  0
SPLINE
  5
79CB
330
1F
100
AcDbEntity
  8
AM_0
100
AcDbSpline
210
0.0
220
0.0
230
1.0
 70
    24
 71
     1
 72
     4
 73
     2
 74
     0
 42
0.0000000001
 43
0.0000000001
 40
2.51600688420415
 40
2.51600688420415
 40
2.562393976860975
 40
2.562393976860975
 10
54.9171287421899
 20
-12.52054658491685
 30
0.0
 10
54.9342228534
 20
-12.44092609682966
 30
0.0
  0
SPLINE
  5
79CC
330
1F
100
AcDbEntity
  8
AM_0
100
AcDbSpline
210
0.0
220
0.0
230
1.0
 70
    24
 71
     1
 72
     4
 73
     2
 74
     0
 42
0.0000000001
 43
0.0000000001
 40
2.472884042057261
 40
2.472884042057261
 40
2.51600688420415
 40
2.51600688420415
 10
54.90152331407284
 20
-12.59736820836887
 30
0.0
 10
54.9171287421899
 20
-12.52054658491685
 30
0.0
  0
SPLINE
  5
79CD
330
1F
100
AcDbEntity
  8
AM_0
100
AcDbSpline
210
0.0
220
0.0
230
1.0
 70
    24
 71
     1
 72
     4
 73
     2
 74
     0
 42
0.0000000001
 43
0.0000000001
 40
2.429761199910371
 40
2.429761199910371
 40
2.472884042057261
 40
2.472884042057261
 10
54.88613987233122
 20
-12.6769781744537
 30
0.0
 10
54.90152331407284
 20
-12.59736820836887
 30
0.0
  0
SPLINE
  5
79CE
330
1F
100
AcDbEntity
  8
AM_0
100
AcDbSpline
210
0.0
220
0.0
230
1.0
 70
    24
 71
     1
 72
     4
 73
     2
 74
     0
 42
0.0000000001
 43
0.0000000001
 40
2.386638357763482
 40
2.386638357763482
 40
2.429761199910371
 40
2.429761199910371
 10
54.87094667066514
 20
-12.75940814214326
 30
0.0
 10
54.88613987233122
 20
-12.6769781744537
 30
0.0
  0
SPLINE
  5
79CF
330
1F
100
AcDbEntity
  8
AM_0
100
AcDbSpline
210
0.0
220
0.0
230
1.0
 70
    24
 71
     1
 72
     4
 73
     2
 74
     0
 42
0.0000000001
 43
0.0000000001
 40
2.343515515616592
 40
2.343515515616592
 40
2.386638357763482
 40
2.386638357763482
 10
54.85592591283318
 20
-12.84464982443425
 30
0.0
 10
54.87094667066514
 20
-12.75940814214326
 30
0.0
  0
SPLINE
  5
79D0
330
1F
100
AcDbEntity
  8
AM_0
100
AcDbSpline
210
0.0
220
0.0
230
1.0
 70
    24
 71
     1
 72
     4
 73
     2
 74
     0
 42
0.0000000001
 43
0.0000000001
 40
2.300392673469703
 40
2.300392673469703
 40
2.343515515616592
 40
2.343515515616592
 10
54.84106981041179
 20
-12.93266334681076
 30
0.0
 10
54.85592591283318
 20
-12.84464982443425
 30
0.0
  0
SPLINE
  5
79D1
330
1F
100
AcDbEntity
  8
AM_0
100
AcDbSpline
210
0.0
220
0.0
230
1.0
 70
    24
 71
     1
 72
     4
 73
     2
 74
     0
 42
0.0000000001
 43
0.0000000001
 40
2.257269831322814
 40
2.257269831322814
 40
2.300392673469703
 40
2.300392673469703
 10
54.82637786429984
 20
-13.02338338039912
 30
0.0
 10
54.84106981041179
 20
-12.93266334681076
 30
0.0
  0
SPLINE
  5
79D2
330
1F
100
AcDbEntity
  8
AM_0
100
AcDbSpline
210
0.0
220
0.0
230
1.0
 70
    24
 71
     1
 72
     4
 73
     2
 74
     0
 42
0.0000000001
 43
0.0000000001
 40
2.214146989175925
 40
2.214146989175925
 40
2.257269831322814
 40
2.257269831322814
 10
54.81185494867225
 20
-13.1167237358184
 30
0.0
 10
54.82637786429984
 20
-13.02338338039912
 30
0.0
  0
SPLINE
  5
79D3
330
1F
100
AcDbEntity
  8
AM_0
100
AcDbSpline
210
0.0
220
0.0
230
1.0
 70
    24
 71
     1
 72
     4
 73
     2
 74
     0
 42
0.0000000001
 43
0.0000000001
 40
2.171024147029035
 40
2.171024147029035
 40
2.214146989175925
 40
2.214146989175925
 10
54.79750993270989
 20
-13.21258087460345
 30
0.0
 10
54.81185494867225
 20
-13.1167237358184
 30
0.0
  0
SPLINE
  5
79D4
330
1F
100
AcDbEntity
  8
AM_0
100
AcDbSpline
210
0.0
220
0.0
230
1.0
 70
    24
 71
     1
 72
     4
 73
     2
 74
     0
 42
0.0000000001
 43
0.0000000001
 40
2.129438247989725
 40
2.129438247989725
 40
2.171024147029035
 40
2.171024147029035
 10
54.78385576424614
 20
-13.30729492472088
 30
0.0
 10
54.79750993270989
 20
-13.21258087460345
 30
0.0
  0
SPLINE
  5
79D5
330
1F
100
AcDbEntity
  8
AM_0
100
AcDbSpline
210
0.0
220
0.0
230
1.0
 70
    24
 71
     1
 72
     4
 73
     2
 74
     0
 42
0.0000000001
 43
0.0000000001
 40
2.087852348950414
 40
2.087852348950414
 40
2.129438247989725
 40
2.129438247989725
 10
54.77039065610802
 20
-13.40412280537735
 30
0.0
 10
54.78385576424614
 20
-13.30729492472088
 30
0.0
  0
SPLINE
  5
79D6
330
1F
100
AcDbEntity
  8
AM_0
100
AcDbSpline
210
0.0
220
0.0
230
1.0
 70
    24
 71
     1
 72
     4
 73
     2
 74
     0
 42
0.0000000001
 43
0.0000000001
 40
2.046266449911104
 40
2.046266449911104
 40
2.087852348950414
 40
2.087852348950414
 10
54.75712865881667
 20
-13.50293831254252
 30
0.0
 10
54.77039065610802
 20
-13.40412280537735
 30
0.0
  0
SPLINE
  5
79D7
330
1F
100
AcDbEntity
  8
AM_0
100
AcDbSpline
210
0.0
220
0.0
230
1.0
 70
    24
 71
     1
 72
     4
 73
     2
 74
     0
 42
0.0000000001
 43
0.0000000001
 40
2.004680550871793
 40
2.004680550871793
 40
2.046266449911104
 40
2.046266449911104
 10
54.74408489498182
 20
-13.60360721226588
 30
0.0
 10
54.75712865881667
 20
-13.50293831254252
 30
0.0
  0
SPLINE
  5
79D8
330
1F
100
AcDbEntity
  8
AM_0
100
AcDbSpline
210
0.0
220
0.0
230
1.0
 70
    24
 71
     1
 72
     4
 73
     2
 74
     0
 42
0.0000000001
 43
0.0000000001
 40
1.963094651832482
 40
1.963094651832482
 40
2.004680550871793
 40
2.004680550871793
 10
54.73127526295491
 20
-13.70598829090617
 30
0.0
 10
54.74408489498182
 20
-13.60360721226588
 30
0.0
  0
SPLINE
  5
79D9
330
1F
100
AcDbEntity
  8
AM_0
100
AcDbSpline
210
0.0
220
0.0
230
1.0
 70
    24
 71
     1
 72
     4
 73
     2
 74
     0
 42
0.0000000001
 43
0.0000000001
 40
1.921508752793172
 40
1.921508752793172
 40
1.963094651832482
 40
1.963094651832482
 10
54.71871619876288
 20
-13.80993426459836
 30
0.0
 10
54.73127526295491
 20
-13.70598829090617
 30
0.0
  0
SPLINE
  5
79DA
330
1F
100
AcDbEntity
  8
AM_0
100
AcDbSpline
210
0.0
220
0.0
230
1.0
 70
    24
 71
     1
 72
     4
 73
     2
 74
     0
 42
0.0000000001
 43
0.0000000001
 40
1.879922853753861
 40
1.879922853753861
 40
1.921508752793172
 40
1.921508752793172
 10
54.70642448215449
 20
-13.9152925811101
 30
0.0
 10
54.71871619876288
 20
-13.80993426459836
 30
0.0
  0
SPLINE
  5
79DB
330
1F
100
AcDbEntity
  8
AM_0
100
AcDbSpline
210
0.0
220
0.0
230
1.0
 70
    24
 71
     1
 72
     4
 73
     2
 74
     0
 42
0.0000000001
 43
0.0000000001
 40
1.838336954714551
 40
1.838336954714551
 40
1.879922853753861
 40
1.879922853753861
 10
54.69441707646149
 20
-14.02190613907514
 30
0.0
 10
54.70642448215449
 20
-13.9152925811101
 30
0.0
  0
SPLINE
  5
79DC
330
1F
100
AcDbEntity
  8
AM_0
100
AcDbSpline
210
0.0
220
0.0
230
1.0
 70
    24
 71
     1
 72
     4
 73
     2
 74
     0
 42
0.0000000001
 43
0.0000000001
 40
1.79697753980832
 40
1.79697753980832
 40
1.838336954714551
 40
1.838336954714551
 10
54.68277390146352
 20
-14.12902467893165
 30
0.0
 10
54.69441707646149
 20
-14.02190613907514
 30
0.0
  0
SPLINE
  5
79DD
330
1F
100
AcDbEntity
  8
AM_0
100
AcDbSpline
210
0.0
220
0.0
230
1.0
 70
    24
 71
     1
 72
     4
 73
     2
 74
     0
 42
0.0000000001
 43
0.0000000001
 40
1.75561812490209
 40
1.75561812490209
 40
1.79697753980832
 40
1.79697753980832
 10
54.67144545181884
 20
-14.23706397706324
 30
0.0
 10
54.68277390146352
 20
-14.12902467893165
 30
0.0
  0
SPLINE
  5
79DE
330
1F
100
AcDbEntity
  8
AM_0
100
AcDbSpline
210
0.0
220
0.0
230
1.0
 70
    24
 71
     1
 72
     4
 73
     2
 74
     0
 42
0.0000000001
 43
0.0000000001
 40
1.714258709995859
 40
1.714258709995859
 40
1.75561812490209
 40
1.75561812490209
 10
54.66044824575897
 20
-14.34585976703355
 30
0.0
 10
54.67144545181884
 20
-14.23706397706324
 30
0.0
  0
SPLINE
  5
79DF
330
1F
100
AcDbEntity
  8
AM_0
100
AcDbSpline
210
0.0
220
0.0
230
1.0
 70
    24
 71
     1
 72
     4
 73
     2
 74
     0
 42
0.0000000001
 43
0.0000000001
 40
1.672899295089629
 40
1.672899295089629
 40
1.714258709995859
 40
1.714258709995859
 10
54.64979856405079
 20
-14.45524564733345
 30
0.0
 10
54.66044824575897
 20
-14.34585976703355
 30
0.0
  0
SPLINE
  5
79E0
330
1F
100
AcDbEntity
  8
AM_0
100
AcDbSpline
210
0.0
220
0.0
230
1.0
 70
    24
 71
     1
 72
     4
 73
     2
 74
     0
 42
0.0000000001
 43
0.0000000001
 40
1.631539880183399
 40
1.631539880183399
 40
1.672899295089629
 40
1.672899295089629
 10
54.63951237956291
 20
-14.56505358757475
 30
0.0
 10
54.64979856405079
 20
-14.45524564733345
 30
0.0
  0
SPLINE
  5
79E1
330
1F
100
AcDbEntity
  8
AM_0
100
AcDbSpline
210
0.0
220
0.0
230
1.0
 70
    24
 71
     1
 72
     4
 73
     2
 74
     0
 42
0.0000000001
 43
0.0000000001
 40
1.590180465277168
 40
1.590180465277168
 40
1.631539880183399
 40
1.631539880183399
 10
54.62960529588952
 20
-14.67511442021365
 30
0.0
 10
54.63951237956291
 20
-14.56505358757475
 30
0.0
  0
SPLINE
  5
79E2
330
1F
100
AcDbEntity
  8
AM_0
100
AcDbSpline
210
0.0
220
0.0
230
1.0
 70
    24
 71
     1
 72
     4
 73
     2
 74
     0
 42
0.0000000001
 43
0.0000000001
 40
1.548821050370938
 40
1.548821050370938
 40
1.590180465277168
 40
1.590180465277168
 10
54.62009249380571
 20
-14.7852583228669
 30
0.0
 10
54.62960529588952
 20
-14.67511442021365
 30
0.0
  0
SPLINE
  5
79E3
330
1F
100
AcDbEntity
  8
AM_0
100
AcDbSpline
210
0.0
220
0.0
230
1.0
 70
    24
 71
     1
 72
     4
 73
     2
 74
     0
 42
0.0000000001
 43
0.0000000001
 40
1.507461635464707
 40
1.507461635464707
 40
1.548821050370938
 40
1.548821050370938
 10
54.61098868468559
 20
-14.89531529574246
 30
0.0
 10
54.62009249380571
 20
-14.7852583228669
 30
0.0
  0
SPLINE
  5
79E4
330
1F
100
AcDbEntity
  8
AM_0
100
AcDbSpline
210
0.0
220
0.0
230
1.0
 70
    24
 71
     1
 72
     4
 73
     2
 74
     0
 42
0.0000000001
 43
0.0000000001
 40
1.465452066156155
 40
1.465452066156155
 40
1.507461635464707
 40
1.507461635464707
 10
54.60217506684933
 20
-15.00683870211154
 30
0.0
 10
54.61098868468559
 20
-14.89531529574246
 30
0.0
  0
SPLINE
  5
79E5
330
1F
100
AcDbEntity
  8
AM_0
100
AcDbSpline
210
0.0
220
0.0
230
1.0
 70
    24
 71
     1
 72
     4
 73
     2
 74
     0
 42
0.0000000001
 43
0.0000000001
 40
1.423442496847603
 40
1.423442496847603
 40
1.465452066156155
 40
1.465452066156155
 10
54.59381235940714
 20
-15.11792034652971
 30
0.0
 10
54.60217506684933
 20
-15.00683870211154
 30
0.0
  0
SPLINE
  5
79E6
330
1F
100
AcDbEntity
  8
AM_0
100
AcDbSpline
210
0.0
220
0.0
230
1.0
 70
    24
 71
     1
 72
     4
 73
     2
 74
     0
 42
0.0000000001
 43
0.0000000001
 40
1.381432927539051
 40
1.381432927539051
 40
1.423442496847603
 40
1.423442496847603
 10
54.58591426099577
 20
-15.2283845847783
 30
0.0
 10
54.59381235940714
 20
-15.11792034652971
 30
0.0
  0
SPLINE
  5
79E7
330
1F
100
AcDbEntity
  8
AM_0
100
AcDbSpline
210
0.0
220
0.0
230
1.0
 70
    24
 71
     1
 72
     4
 73
     2
 74
     0
 42
0.0000000001
 43
0.0000000001
 40
1.339423358230499
 40
1.339423358230499
 40
1.381432927539051
 40
1.381432927539051
 10
54.57849383774135
 20
-15.33805767277332
 30
0.0
 10
54.58591426099577
 20
-15.2283845847783
 30
0.0
  0
SPLINE
  5
79E8
330
1F
100
AcDbEntity
  8
AM_0
100
AcDbSpline
210
0.0
220
0.0
230
1.0
 70
    24
 71
     1
 72
     4
 73
     2
 74
     0
 42
0.0000000001
 43
0.0000000001
 40
1.297413788921947
 40
1.297413788921947
 40
1.339423358230499
 40
1.339423358230499
 10
54.57156350707077
 20
-15.44676832904148
 30
0.0
 10
54.57849383774135
 20
-15.33805767277332
 30
0.0
  0
SPLINE
  5
79E9
330
1F
100
AcDbEntity
  8
AM_0
100
AcDbSpline
210
0.0
220
0.0
230
1.0
 70
    24
 71
     1
 72
     4
 73
     2
 74
     0
 42
0.0000000001
 43
0.0000000001
 40
1.255404219613394
 40
1.255404219613394
 40
1.297413788921947
 40
1.297413788921947
 10
54.56513502972336
 20
-15.55434832494829
 30
0.0
 10
54.57156350707077
 20
-15.44676832904148
 30
0.0
  0
SPLINE
  5
79EA
330
1F
100
AcDbEntity
  8
AM_0
100
AcDbSpline
210
0.0
220
0.0
230
1.0
 70
    24
 71
     1
 72
     4
 73
     2
 74
     0
 42
0.0000000001
 43
0.0000000001
 40
1.213394650304842
 40
1.213394650304842
 40
1.255404219613394
 40
1.255404219613394
 10
54.559219511288
 20
-15.66063311179975
 30
0.0
 10
54.56513502972336
 20
-15.55434832494829
 30
0.0
  0
SPLINE
  5
79EB
330
1F
100
AcDbEntity
  8
AM_0
100
AcDbSpline
210
0.0
220
0.0
230
1.0
 70
    24
 71
     1
 72
     4
 73
     2
 74
     0
 42
0.0000000001
 43
0.0000000001
 40
1.17138508099629
 40
1.17138508099629
 40
1.213394650304842
 40
1.213394650304842
 10
54.55382741518235
 20
-15.765462496271
 30
0.0
 10
54.559219511288
 20
-15.66063311179975
 30
0.0
  0
SPLINE
  5
79EC
330
1F
100
AcDbEntity
  8
AM_0
100
AcDbSpline
210
0.0
220
0.0
230
1.0
 70
    24
 71
     1
 72
     4
 73
     2
 74
     0
 42
0.0000000001
 43
0.0000000001
 40
1.125713280951644
 40
1.125713280951644
 40
1.17138508099629
 40
1.17138508099629
 10
54.54857059677284
 20
-15.87759831381985
 30
0.0
 10
54.55382741518235
 20
-15.765462496271
 30
0.0
  0
SPLINE
  5
79ED
330
1F
100
AcDbEntity
  8
AM_0
100
AcDbSpline
210
0.0
220
0.0
230
1.0
 70
    24
 71
     1
 72
     4
 73
     2
 74
     0
 42
0.0000000001
 43
0.0000000001
 40
1.080041480906999
 40
1.080041480906999
 40
1.125713280951644
 40
1.125713280951644
 10
54.54395596289441
 20
-15.98763938395567
 30
0.0
 10
54.54857059677284
 20
-15.87759831381985
 30
0.0
  0
SPLINE
  5
79EE
330
1F
100
AcDbEntity
  8
AM_0
100
AcDbSpline
210
0.0
220
0.0
230
1.0
 70
    24
 71
     1
 72
     4
 73
     2
 74
     0
 42
0.0000000001
 43
0.0000000001
 40
1.034369680862353
 40
1.034369680862353
 40
1.080041480906999
 40
1.080041480906999
 10
54.53999471874374
 20
-16.09540407404192
 30
0.0
 10
54.54395596289441
 20
-15.98763938395567
 30
0.0
  0
SPLINE
  5
79EF
330
1F
100
AcDbEntity
  8
AM_0
100
AcDbSpline
210
0.0
220
0.0
230
1.0
 70
    24
 71
     1
 72
     4
 73
     2
 74
     0
 42
0.0000000001
 43
0.0000000001
 40
0.9886978808177079
 40
0.9886978808177079
 40
1.034369680862353
 40
1.034369680862353
 10
54.53669753867655
 20
-16.20072209184779
 30
0.0
 10
54.53999471874374
 20
-16.09540407404192
 30
0.0
  0
SPLINE
  5
79F0
330
1F
100
AcDbEntity
  8
AM_0
100
AcDbSpline
210
0.0
220
0.0
230
1.0
 70
    24
 71
     1
 72
     4
 73
     2
 74
     0
 42
0.0000000001
 43
0.0000000001
 40
0.9430260807730622
 40
0.9430260807730622
 40
0.9886978808177079
 40
0.9886978808177079
 10
54.53407479741497
 20
-16.30343646187445
 30
0.0
 10
54.53669753867655
 20
-16.20072209184779
 30
0.0
  0
SPLINE
  5
79F1
330
1F
100
AcDbEntity
  8
AM_0
100
AcDbSpline
210
0.0
220
0.0
230
1.0
 70
    24
 71
     1
 72
     4
 73
     2
 74
     0
 42
0.0000000001
 43
0.0000000001
 40
0.8973542807284166
 40
0.8973542807284166
 40
0.9430260807730622
 40
0.9430260807730622
 10
54.53213690434688
 20
-16.40340593882562
 30
0.0
 10
54.53407479741497
 20
-16.30343646187445
 30
0.0
  0
SPLINE
  5
79F2
330
1F
100
AcDbEntity
  8
AM_0
100
AcDbSpline
210
0.0
220
0.0
230
1.0
 70
    24
 71
     1
 72
     4
 73
     2
 74
     0
 42
0.0000000001
 43
0.0000000001
 40
0.8516824806837711
 40
0.8516824806837711
 40
0.8973542807284166
 40
0.8973542807284166
 10
54.53089478682954
 20
-16.50050802337652
 30
0.0
 10
54.53213690434688
 20
-16.40340593882562
 30
0.0
  0
SPLINE
  5
79F3
330
1F
100
AcDbEntity
  8
AM_0
100
AcDbSpline
210
0.0
220
0.0
230
1.0
 70
    24
 71
     1
 72
     4
 73
     2
 74
     0
 42
0.0000000001
 43
0.0000000001
 40
0.8060106806391253
 40
0.8060106806391253
 40
0.8516824806837711
 40
0.8516824806837711
 10
54.53036059320663
 20
-16.5946428180703
 30
0.0
 10
54.53089478682954
 20
-16.50050802337652
 30
0.0
  0
SPLINE
  5
79F4
330
1F
100
AcDbEntity
  8
AM_0
100
AcDbSpline
210
0.0
220
0.0
230
1.0
 70
    24
 71
     1
 72
     4
 73
     2
 74
     0
 42
0.0000000001
 43
0.0000000001
 40
0.7581713111486738
 40
0.7581713111486738
 40
0.8060106806391253
 40
0.8060106806391253
 10
54.53057589803063
 20
-16.68998507159191
 30
0.0
 10
54.53036059320663
 20
-16.5946428180703
 30
0.0
  0
SPLINE
  5
79F5
330
1F
100
AcDbEntity
  8
AM_0
100
AcDbSpline
210
0.0
220
0.0
230
1.0
 70
    24
 71
     1
 72
     4
 73
     2
 74
     0
 42
0.0000000001
 43
0.0000000001
 40
0.7103319416582221
 40
0.7103319416582221
 40
0.7581713111486738
 40
0.7581713111486738
 10
54.53160483404781
 20
-16.78195040883262
 30
0.0
 10
54.53057589803063
 20
-16.68998507159191
 30
0.0
  0
SPLINE
  5
79F6
330
1F
100
AcDbEntity
  8
AM_0
100
AcDbSpline
210
0.0
220
0.0
230
1.0
 70
    24
 71
     1
 72
     4
 73
     2
 74
     0
 42
0.0000000001
 43
0.0000000001
 40
0.6624925721677706
 40
0.6624925721677706
 40
0.7103319416582221
 40
0.7103319416582221
 10
54.53347606867317
 20
-16.87054974767469
 30
0.0
 10
54.53160483404781
 20
-16.78195040883262
 30
0.0
  0
SPLINE
  5
79F7
330
1F
100
AcDbEntity
  8
AM_0
100
AcDbSpline
210
0.0
220
0.0
230
1.0
 70
    24
 71
     1
 72
     4
 73
     2
 74
     0
 42
0.0000000001
 43
0.0000000001
 40
0.614653202677319
 40
0.614653202677319
 40
0.6624925721677706
 40
0.6624925721677706
 10
54.5362306196289
 20
-16.95586406530945
 30
0.0
 10
54.53347606867317
 20
-16.87054974767469
 30
0.0
  0
SPLINE
  5
79F8
330
1F
100
AcDbEntity
  8
AM_0
100
AcDbSpline
210
0.0
220
0.0
230
1.0
 70
    24
 71
     1
 72
     4
 73
     2
 74
     0
 42
0.0000000001
 43
0.0000000001
 40
0.5668138331868673
 40
0.5668138331868673
 40
0.614653202677319
 40
0.614653202677319
 10
54.53992963583107
 20
-17.03806906879348
 30
0.0
 10
54.5362306196289
 20
-16.95586406530945
 30
0.0
  0
SPLINE
  5
79F9
330
1F
100
AcDbEntity
  8
AM_0
100
AcDbSpline
210
0.0
220
0.0
230
1.0
 70
    24
 71
     1
 72
     4
 73
     2
 74
     0
 42
0.0000000001
 43
0.0000000001
 40
0.5189744636964157
 40
0.5189744636964157
 40
0.5668138331868673
 40
0.5668138331868673
 10
54.54466752094095
 20
-17.11747243355743
 30
0.0
 10
54.53992963583107
 20
-17.03806906879348
 30
0.0
  0
SPLINE
  5
79FA
330
1F
100
AcDbEntity
  8
AM_0
100
AcDbSpline
210
0.0
220
0.0
230
1.0
 70
    24
 71
     1
 72
     4
 73
     2
 74
     0
 42
0.0000000001
 43
0.0000000001
 40
0.4711350942059641
 40
0.4711350942059641
 40
0.5189744636964157
 40
0.5189744636964157
 10
54.55059490732242
 20
-17.19457177732014
 30
0.0
 10
54.54466752094095
 20
-17.11747243355743
 30
0.0
  0
SPLINE
  5
79FB
330
1F
100
AcDbEntity
  8
AM_0
100
AcDbSpline
210
0.0
220
0.0
230
1.0
 70
    24
 71
     1
 72
     4
 73
     2
 74
     0
 42
0.0000000001
 43
0.0000000001
 40
0.4232957247155124
 40
0.4232957247155124
 40
0.4711350942059641
 40
0.4711350942059641
 10
54.55796064790502
 20
-17.27014800052425
 30
0.0
 10
54.55059490732242
 20
-17.19457177732014
 30
0.0
  0
SPLINE
  5
79FC
330
1F
100
AcDbEntity
  8
AM_0
100
AcDbSpline
210
0.0
220
0.0
230
1.0
 70
    24
 71
     1
 72
     4
 73
     2
 74
     0
 42
0.0000000001
 43
0.0000000001
 40
0.3754563552250608
 40
0.3754563552250608
 40
0.4232957247155124
 40
0.4232957247155124
 10
54.56719253094831
 20
-17.34542116407901
 30
0.0
 10
54.55796064790502
 20
-17.27014800052425
 30
0.0
  0
SPLINE
  5
79FD
330
1F
100
AcDbEntity
  8
AM_0
100
AcDbSpline
210
0.0
220
0.0
230
1.0
 70
    24
 71
     1
 72
     4
 73
     2
 74
     0
 42
0.0000000001
 43
0.0000000001
 40
0.3276169857346092
 40
0.3276169857346092
 40
0.3754563552250608
 40
0.3754563552250608
 10
54.57906185883087
 20
-17.42232116962956
 30
0.0
 10
54.56719253094831
 20
-17.34542116407901
 30
0.0
  0
SPLINE
  5
79FE
330
1F
100
AcDbEntity
  8
AM_0
100
AcDbSpline
210
0.0
220
0.0
230
1.0
 70
    24
 71
     1
 72
     4
 73
     2
 74
     0
 42
0.0000000001
 43
0.0000000001
 40
0.3045455830698501
 40
0.3045455830698501
 40
0.3276169857346092
 40
0.3276169857346092
 10
54.5861208740032
 20
-17.46084831078307
 30
0.0
 10
54.57906185883087
 20
-17.42232116962956
 30
0.0
  0
SPLINE
  5
79FF
330
1F
100
AcDbEntity
  8
AM_0
100
AcDbSpline
210
0.0
220
0.0
230
1.0
 70
    24
 71
     1
 72
     4
 73
     2
 74
     0
 42
0.0000000001
 43
0.0000000001
 40
0.2814741804050911
 40
0.2814741804050911
 40
0.3045455830698501
 40
0.3045455830698501
 10
54.59437913411114
 20
-17.50094913472052
 30
0.0
 10
54.5861208740032
 20
-17.46084831078307
 30
0.0
  0
SPLINE
  5
7A00
330
1F
100
AcDbEntity
  8
AM_0
100
AcDbSpline
210
0.0
220
0.0
230
1.0
 70
    24
 71
     1
 72
     4
 73
     2
 74
     0
 42
0.0000000001
 43
0.0000000001
 40
0.2584027777403319
 40
0.2584027777403319
 40
0.2814741804050911
 40
0.2814741804050911
 10
54.60421489501027
 20
-17.54326572357494
 30
0.0
 10
54.59437913411114
 20
-17.50094913472052
 30
0.0
  0
SPLINE
  5
7A01
330
1F
100
AcDbEntity
  8
AM_0
100
AcDbSpline
210
0.0
220
0.0
230
1.0
 70
    24
 71
     1
 72
     4
 73
     2
 74
     0
 42
0.0000000001
 43
0.0000000001
 40
0.235331375075573
 40
0.235331375075573
 40
0.2584027777403319
 40
0.2584027777403319
 10
54.61618152651453
 20
-17.58863269966483
 30
0.0
 10
54.60421489501027
 20
-17.54326572357494
 30
0.0
  0
SPLINE
  5
7A02
330
1F
100
AcDbEntity
  8
AM_0
100
AcDbSpline
210
0.0
220
0.0
230
1.0
 70
    24
 71
     1
 72
     4
 73
     2
 74
     0
 42
0.0000000001
 43
0.0000000001
 40
0.2122599724108138
 40
0.2122599724108138
 40
0.235331375075573
 40
0.235331375075573
 10
54.63110663975328
 20
-17.63814059054667
 30
0.0
 10
54.61618152651453
 20
-17.58863269966483
 30
0.0
  0
SPLINE
  5
7A03
330
1F
100
AcDbEntity
  8
AM_0
100
AcDbSpline
210
0.0
220
0.0
230
1.0
 70
    24
 71
     1
 72
     4
 73
     2
 74
     0
 42
0.0000000001
 43
0.0000000001
 40
0.1988478108729282
 40
0.1988478108729282
 40
0.2122599724108138
 40
0.2122599724108138
 10
54.64161861905904
 20
-17.66937163325273
 30
0.0
 10
54.63110663975328
 20
-17.63814059054667
 30
0.0
  0
SPLINE
  5
7A04
330
1F
100
AcDbEntity
  8
AM_0
100
AcDbSpline
210
0.0
220
0.0
230
1.0
 70
    24
 71
     1
 72
     4
 73
     2
 74
     0
 42
0.0000000001
 43
0.0000000001
 40
0.1854356493350426
 40
0.1854356493350426
 40
0.1988478108729282
 40
0.1988478108729282
 10
54.65389319913402
 20
-17.70281808237716
 30
0.0
 10
54.64161861905904
 20
-17.66937163325273
 30
0.0
  0
SPLINE
  5
7A05
330
1F
100
AcDbEntity
  8
AM_0
100
AcDbSpline
210
0.0
220
0.0
230
1.0
 70
    24
 71
     1
 72
     4
 73
     2
 74
     0
 42
0.0000000001
 43
0.0000000001
 40
0.172023487797157
 40
0.172023487797157
 40
0.1854356493350426
 40
0.1854356493350426
 10
54.66838464162425
 20
-17.73887454407353
 30
0.0
 10
54.65389319913402
 20
-17.70281808237716
 30
0.0
  0
SPLINE
  5
7A06
330
1F
100
AcDbEntity
  8
AM_0
100
AcDbSpline
210
0.0
220
0.0
230
1.0
 70
    24
 71
     1
 72
     4
 73
     2
 74
     0
 42
0.0000000001
 43
0.0000000001
 40
0.1586113262592714
 40
0.1586113262592714
 40
0.172023487797157
 40
0.172023487797157
 10
54.68569045110427
 20
-17.77798890740983
 30
0.0
 10
54.66838464162425
 20
-17.73887454407353
 30
0.0
  0
SPLINE
  5
7A07
330
1F
100
AcDbEntity
  8
AM_0
100
AcDbSpline
210
0.0
220
0.0
230
1.0
 70
    24
 71
     1
 72
     4
 73
     2
 74
     0
 42
0.0000000001
 43
0.0000000001
 40
0.1451991647213858
 40
0.1451991647213858
 40
0.1586113262592714
 40
0.1586113262592714
 10
54.70660040577229
 20
-17.82065561909295
 30
0.0
 10
54.68569045110427
 20
-17.77798890740983
 30
0.0
  0
SPLINE
  5
7A08
330
1F
100
AcDbEntity
  8
AM_0
100
AcDbSpline
210
0.0
220
0.0
230
1.0
 70
    24
 71
     1
 72
     4
 73
     2
 74
     0
 42
0.0000000001
 43
0.0000000001
 40
0.1352714472802118
 40
0.1352714472802118
 40
0.1451991647213858
 40
0.1451991647213858
 10
54.72500265540168
 20
-17.85483102916775
 30
0.0
 10
54.70660040577229
 20
-17.82065561909295
 30
0.0
  0
SPLINE
  5
7A09
330
1F
100
AcDbEntity
  8
AM_0
100
AcDbSpline
210
0.0
220
0.0
230
1.0
 70
    24
 71
     1
 72
     4
 73
     2
 74
     0
 42
0.0000000001
 43
0.0000000001
 40
0.1253437298390379
 40
0.1253437298390379
 40
0.1352714472802118
 40
0.1352714472802118
 10
54.74648445981245
 20
-17.89144233551995
 30
0.0
 10
54.72500265540168
 20
-17.85483102916775
 30
0.0
  0
SPLINE
  5
7A0A
330
1F
100
AcDbEntity
  8
AM_0
100
AcDbSpline
210
0.0
220
0.0
230
1.0
 70
    24
 71
     1
 72
     4
 73
     2
 74
     0
 42
0.0000000001
 43
0.0000000001
 40
0.1154160123978639
 40
0.1154160123978639
 40
0.1253437298390379
 40
0.1253437298390379
 10
54.7717048398789
 20
-17.93066729188528
 30
0.0
 10
54.74648445981245
 20
-17.89144233551995
 30
0.0
  0
SPLINE
  5
7A0B
330
1F
100
AcDbEntity
  8
AM_0
100
AcDbSpline
210
0.0
220
0.0
230
1.0
 70
    24
 71
     1
 72
     4
 73
     2
 74
     0
 42
0.0000000001
 43
0.0000000001
 40
0.10548829495669
 40
0.10548829495669
 40
0.1154160123978639
 40
0.1154160123978639
 10
54.8014626785847
 20
-17.97262430450301
 30
0.0
 10
54.7717048398789
 20
-17.93066729188528
 30
0.0
  0
SPLINE
  5
7A0C
330
1F
100
AcDbEntity
  8
AM_0
100
AcDbSpline
210
0.0
220
0.0
230
1.0
 70
    24
 71
     1
 72
     4
 73
     2
 74
     0
 42
0.0000000001
 43
0.0000000001
 40
0.0955605775155161
 40
0.0955605775155161
 40
0.10548829495669
 40
0.10548829495669
 10
54.83671101810057
 20
-18.01732336765966
 30
0.0
 10
54.8014626785847
 20
-17.97262430450301
 30
0.0
  0
SPLINE
  5
7A0D
330
1F
100
AcDbEntity
  8
AM_0
100
AcDbSpline
210
0.0
220
0.0
230
1.0
 70
    24
 71
     1
 72
     4
 73
     2
 74
     0
 42
0.0000000001
 43
0.0000000001
 40
3.213110530999284
 40
3.213110530999284
 40
3.221904133890075
 40
3.221904133890075
 10
56.16175134315563
 20
-10.84439819728599
 30
0.0
 10
56.11783832981416
 20
-10.87961487169875
 30
0.0
  0
SPLINE
  5
7A0E
330
1F
100
AcDbEntity
  8
AM_0
100
AcDbSpline
210
0.0
220
0.0
230
1.0
 70
    24
 71
     1
 72
     4
 73
     2
 74
     0
 42
0.0000000001
 43
0.0000000001
 40
3.204316928108494
 40
3.204316928108494
 40
3.213110530999284
 40
3.213110530999284
 10
56.21189801383923
 20
-10.80857273364862
 30
0.0
 10
56.16175134315563
 20
-10.84439819728599
 30
0.0
  0
SPLINE
  5
7A0F
330
1F
100
AcDbEntity
  8
AM_0
100
AcDbSpline
210
0.0
220
0.0
230
1.0
 70
    24
 71
     1
 72
     4
 73
     2
 74
     0
 42
0.0000000001
 43
0.0000000001
 40
3.198454526181301
 40
3.198454526181301
 40
3.204316928108494
 40
3.204316928108494
 10
56.24918419657285
 20
-10.784671438968
 30
0.0
 10
56.21189801383923
 20
-10.80857273364862
 30
0.0
  0
SPLINE
  5
7A10
330
1F
100
AcDbEntity
  8
AM_0
100
AcDbSpline
210
0.0
220
0.0
230
1.0
 70
    24
 71
     1
 72
     4
 73
     2
 74
     0
 42
0.0000000001
 43
0.0000000001
 40
3.192592124254107
 40
3.192592124254107
 40
3.198454526181301
 40
3.198454526181301
 10
56.2898097927033
 20
-10.76106081564845
 30
0.0
 10
56.24918419657285
 20
-10.784671438968
 30
0.0
  0
SPLINE
  5
7A11
330
1F
100
AcDbEntity
  8
AM_0
100
AcDbSpline
210
0.0
220
0.0
230
1.0
 70
    24
 71
     1
 72
     4
 73
     2
 74
     0
 42
0.0000000001
 43
0.0000000001
 40
3.186729722326913
 40
3.186729722326913
 40
3.192592124254107
 40
3.192592124254107
 10
56.33395871863786
 20
-10.73807188796949
 30
0.0
 10
56.2898097927033
 20
-10.76106081564845
 30
0.0
  0
SPLINE
  5
7A12
330
1F
100
AcDbEntity
  8
AM_0
100
AcDbSpline
210
0.0
220
0.0
230
1.0
 70
    24
 71
     1
 72
     4
 73
     2
 74
     0
 42
0.0000000001
 43
0.0000000001
 40
3.18086732039972
 40
3.18086732039972
 40
3.186729722326913
 40
3.186729722326913
 10
56.38176224027859
 20
-10.71610038192782
 30
0.0
 10
56.33395871863786
 20
-10.73807188796949
 30
0.0
  0
SPLINE
  5
7A13
330
1F
100
AcDbEntity
  8
AM_0
100
AcDbSpline
210
0.0
220
0.0
230
1.0
 70
    24
 71
     1
 72
     4
 73
     2
 74
     0
 42
0.0000000001
 43
0.0000000001
 40
3.175004918472526
 40
3.175004918472526
 40
3.18086732039972
 40
3.18086732039972
 10
56.43327570064968
 20
-10.6956038900303
 30
0.0
 10
56.38176224027859
 20
-10.71610038192782
 30
0.0
  0
SPLINE
  5
7A14
330
1F
100
AcDbEntity
  8
AM_0
100
AcDbSpline
210
0.0
220
0.0
230
1.0
 70
    24
 71
     1
 72
     4
 73
     2
 74
     0
 42
0.0000000001
 43
0.0000000001
 40
3.169142516545333
 40
3.169142516545333
 40
3.175004918472526
 40
3.175004918472526
 10
56.48845344591416
 20
-10.67709207191175
 30
0.0
 10
56.43327570064968
 20
-10.6956038900303
 30
0.0
  0
SPLINE
  5
7A15
330
1F
100
AcDbEntity
  8
AM_0
100
AcDbSpline
210
0.0
220
0.0
230
1.0
 70
    24
 71
     1
 72
     4
 73
     2
 74
     0
 42
0.0000000001
 43
0.0000000001
 40
3.16328011461814
 40
3.16328011461814
 40
3.169142516545333
 40
3.169142516545333
 10
56.54712464381919
 20
-10.66110822938018
 30
0.0
 10
56.48845344591416
 20
-10.67709207191175
 30
0.0
  0
SPLINE
  5
7A16
330
1F
100
AcDbEntity
  8
AM_0
100
AcDbSpline
210
0.0
220
0.0
230
1.0
 70
    24
 71
     1
 72
     4
 73
     2
 74
     0
 42
0.0000000001
 43
0.0000000001
 40
3.157417712690946
 40
3.157417712690946
 40
3.16328011461814
 40
3.16328011461814
 10
56.60897384156112
 20
-10.64820151661653
 30
0.0
 10
56.54712464381919
 20
-10.66110822938018
 30
0.0
  0
SPLINE
  5
7A17
330
1F
100
AcDbEntity
  8
AM_0
100
AcDbSpline
210
0.0
220
0.0
230
1.0
 70
    24
 71
     1
 72
     4
 73
     2
 74
     0
 42
0.0000000001
 43
0.0000000001
 40
3.151555310763753
 40
3.151555310763753
 40
3.157417712690946
 40
3.157417712690946
 10
56.67353085579122
 20
-10.63889067084771
 30
0.0
 10
56.60897384156112
 20
-10.64820151661653
 30
0.0
  0
SPLINE
  5
7A18
330
1F
100
AcDbEntity
  8
AM_0
100
AcDbSpline
210
0.0
220
0.0
230
1.0
 70
    24
 71
     1
 72
     4
 73
     2
 74
     0
 42
0.0000000001
 43
0.0000000001
 40
3.145692908836559
 40
3.145692908836559
 40
3.151555310763753
 40
3.151555310763753
 10
56.74017443092759
 20
-10.63362230937506
 30
0.0
 10
56.67353085579122
 20
-10.63889067084771
 30
0.0
  0
SPLINE
  5
7A19
330
1F
100
AcDbEntity
  8
AM_0
100
AcDbSpline
210
0.0
220
0.0
230
1.0
 70
    24
 71
     1
 72
     4
 73
     2
 74
     0
 42
0.0000000001
 43
0.0000000001
 40
3.139830506909366
 40
3.139830506909366
 40
3.145692908836559
 40
3.145692908836559
 10
56.80815264491878
 20
-10.63272903122473
 30
0.0
 10
56.74017443092759
 20
-10.63362230937506
 30
0.0
  0
SPLINE
  5
7A1A
330
1F
100
AcDbEntity
  8
AM_0
100
AcDbSpline
210
0.0
220
0.0
230
1.0
 70
    24
 71
     1
 72
     4
 73
     2
 74
     0
 42
0.0000000001
 43
0.0000000001
 40
3.133968104982172
 40
3.133968104982172
 40
3.139830506909366
 40
3.139830506909366
 10
56.87662025479937
 20
-10.63639400846333
 30
0.0
 10
56.80815264491878
 20
-10.63272903122473
 30
0.0
  0
SPLINE
  5
7A1B
330
1F
100
AcDbEntity
  8
AM_0
100
AcDbSpline
210
0.0
220
0.0
230
1.0
 70
    24
 71
     1
 72
     4
 73
     2
 74
     0
 42
0.0000000001
 43
0.0000000001
 40
6.269698356644772
 40
6.269698356644772
 40
6.275560758571965
 40
6.275560758571965
 10
56.07054518491622
 20
-19.09606034823654
 30
0.0
 10
56.13861453067591
 20
-19.10429502058904
 30
0.0
  0
SPLINE
  5
7A1C
330
1F
100
AcDbEntity
  8
AM_0
100
AcDbSpline
210
0.0
220
0.0
230
1.0
 70
    24
 71
     1
 72
     4
 73
     2
 74
     0
 42
0.0000000001
 43
0.0000000001
 40
6.263835954717579
 40
6.263835954717579
 40
6.269698356644772
 40
6.269698356644772
 10
56.00374640115171
 20
-19.0834208066755
 30
0.0
 10
56.07054518491622
 20
-19.09606034823654
 30
0.0
  0
SPLINE
  5
7A1D
330
1F
100
AcDbEntity
  8
AM_0
100
AcDbSpline
210
0.0
220
0.0
230
1.0
 70
    24
 71
     1
 72
     4
 73
     2
 74
     0
 42
0.0000000001
 43
0.0000000001
 40
6.257973552790386
 40
6.257973552790386
 40
6.263835954717579
 40
6.263835954717579
 10
55.93901899129662
 20
-19.06670302712761
 30
0.0
 10
56.00374640115171
 20
-19.0834208066755
 30
0.0
  0
SPLINE
  5
7A1E
330
1F
100
AcDbEntity
  8
AM_0
100
AcDbSpline
210
0.0
220
0.0
230
1.0
 70
    24
 71
     1
 72
     4
 73
     2
 74
     0
 42
0.0000000001
 43
0.0000000001
 40
6.252111150863193
 40
6.252111150863193
 40
6.257973552790386
 40
6.257973552790386
 10
55.87704600357404
 20
-19.04636467104891
 30
0.0
 10
55.93901899129662
 20
-19.06670302712761
 30
0.0
  0
SPLINE
  5
7A1F
330
1F
100
AcDbEntity
  8
AM_0
100
AcDbSpline
210
0.0
220
0.0
230
1.0
 70
    24
 71
     1
 72
     4
 73
     2
 74
     0
 42
0.0000000001
 43
0.0000000001
 40
6.246248748935999
 40
6.246248748935999
 40
6.252111150863193
 40
6.252111150863193
 10
55.81836206545779
 20
-19.02295309479158
 30
0.0
 10
55.87704600357404
 20
-19.04636467104891
 30
0.0
  0
SPLINE
  5
7A20
330
1F
100
AcDbEntity
  8
AM_0
100
AcDbSpline
210
0.0
220
0.0
230
1.0
 70
    24
 71
     1
 72
     4
 73
     2
 74
     0
 42
0.0000000001
 43
0.0000000001
 40
6.240386347008805
 40
6.240386347008805
 40
6.246248748935999
 40
6.246248748935999
 10
55.76334053366986
 20
-18.99706055290418
 30
0.0
 10
55.81836206545779
 20
-19.02295309479158
 30
0.0
  0
SPLINE
  5
7A21
330
1F
100
AcDbEntity
  8
AM_0
100
AcDbSpline
210
0.0
220
0.0
230
1.0
 70
    24
 71
     1
 72
     4
 73
     2
 74
     0
 42
0.0000000001
 43
0.0000000001
 40
6.234523945081612
 40
6.234523945081612
 40
6.240386347008805
 40
6.240386347008805
 10
55.71219710533239
 20
-18.9692824910492
 30
0.0
 10
55.76334053366986
 20
-18.99706055290418
 30
0.0
  0
SPLINE
  5
7A22
330
1F
100
AcDbEntity
  8
AM_0
100
AcDbSpline
210
0.0
220
0.0
230
1.0
 70
    24
 71
     1
 72
     4
 73
     2
 74
     0
 42
0.0000000001
 43
0.0000000001
 40
6.228661543154418
 40
6.228661543154418
 40
6.234523945081612
 40
6.234523945081612
 10
55.66500604986152
 20
-18.94018357246015
 30
0.0
 10
55.71219710533239
 20
-18.9692824910492
 30
0.0
  0
SPLINE
  5
7A23
330
1F
100
AcDbEntity
  8
AM_0
100
AcDbSpline
210
0.0
220
0.0
230
1.0
 70
    24
 71
     1
 72
     4
 73
     2
 74
     0
 42
0.0000000001
 43
0.0000000001
 40
6.222799141227224
 40
6.222799141227224
 40
6.228661543154418
 40
6.228661543154418
 10
55.62172416540659
 20
-18.91027367047051
 30
0.0
 10
55.66500604986152
 20
-18.94018357246015
 30
0.0
  0
SPLINE
  5
7A24
330
1F
100
AcDbEntity
  8
AM_0
100
AcDbSpline
210
0.0
220
0.0
230
1.0
 70
    24
 71
     1
 72
     4
 73
     2
 74
     0
 42
0.0000000001
 43
0.0000000001
 40
6.214005538336434
 40
6.214005538336434
 40
6.222799141227224
 40
6.222799141227224
 10
55.56382044614645
 20
-18.86483292070083
 30
0.0
 10
55.62172416540659
 20
-18.91027367047051
 30
0.0
  0
SPLINE
  5
7A25
330
1F
100
AcDbEntity
  8
AM_0
100
AcDbSpline
210
0.0
220
0.0
230
1.0
 70
    24
 71
     1
 72
     4
 73
     2
 74
     0
 42
0.0000000001
 43
0.0000000001
 40
6.205211935445643
 40
6.205211935445643
 40
6.214005538336434
 40
6.214005538336434
 10
55.51369988374199
 20
-18.8197201533204
 30
0.0
 10
55.56382044614645
 20
-18.86483292070083
 30
0.0
  0
SPLINE
  5
7A26
330
1F
100
AcDbEntity
  8
AM_0
100
AcDbSpline
210
0.0
220
0.0
230
1.0
 70
    24
 71
     1
 72
     4
 73
     2
 74
     0
 42
0.0000000001
 43
0.0000000001
 40
6.196418332554853
 40
6.196418332554853
 40
6.205211935445643
 40
6.205211935445643
 10
55.47050681044481
 20
-18.77575982069394
 30
0.0
 10
55.51369988374199
 20
-18.8197201533204
 30
0.0
  0
SPLINE
  5
7A27
330
1F
100
AcDbEntity
  8
AM_0
100
AcDbSpline
210
0.0
220
0.0
230
1.0
 70
    24
 71
     1
 72
     4
 73
     2
 74
     0
 42
0.0000000001
 43
0.0000000001
 40
6.187624729664062
 40
6.187624729664062
 40
6.196418332554853
 40
6.196418332554853
 10
55.43334809429859
 20
-18.73347747553934
 30
0.0
 10
55.47050681044481
 20
-18.77575982069394
 30
0.0
  0
SPLINE
  5
7A28
330
1F
100
AcDbEntity
  8
AM_0
100
AcDbSpline
210
0.0
220
0.0
230
1.0
 70
    24
 71
     1
 72
     4
 73
     2
 74
     0
 42
0.0000000001
 43
0.0000000001
 40
0.0628924050301885
 40
0.0628924050301885
 40
0.0786155062877355
 40
0.0786155062877355
 10
-21.30508784273399
 20
-9.377330197338665
 30
0.0
 10
-21.29117580715149
 20
-9.372114817378474
 30
0.0
  0
SPLINE
  5
7A29
330
1F
100
AcDbEntity
  8
AM_0
100
AcDbSpline
210
0.0
220
0.0
230
1.0
 70
    24
 71
     1
 72
     4
 73
     2
 74
     0
 42
0.0000000001
 43
0.0000000001
 40
0.0471693037726413
 40
0.0471693037726413
 40
0.0628924050301885
 40
0.0628924050301885
 10
-21.31899791534272
 20
-9.382728725590141
 30
0.0
 10
-21.30508784273399
 20
-9.377330197338665
 30
0.0
  0
SPLINE
  5
7A2A
330
1F
100
AcDbEntity
  8
AM_0
100
AcDbSpline
210
0.0
220
0.0
230
1.0
 70
    24
 71
     1
 72
     4
 73
     2
 74
     0
 42
0.0000000001
 43
0.0000000001
 40
0.0314462025150942
 40
0.0314462025150942
 40
0.0471693037726413
 40
0.0471693037726413
 10
-21.33289773434353
 20
-9.388312508986473
 30
0.0
 10
-21.31899791534272
 20
-9.382728725590141
 30
0.0
  0
SPLINE
  5
7A2B
330
1F
100
AcDbEntity
  8
AM_0
100
AcDbSpline
210
0.0
220
0.0
230
1.0
 70
    24
 71
     1
 72
     4
 73
     2
 74
     0
 42
0.0000000001
 43
0.0000000001
 40
0.0157231012575471
 40
0.0157231012575471
 40
0.0314462025150942
 40
0.0314462025150942
 10
-21.34677900910253
 20
-9.394083654381688
 30
0.0
 10
-21.33289773434353
 20
-9.388312508986473
 30
0.0
  0
SPLINE
  5
7A2C
330
1F
100
AcDbEntity
  8
AM_0
100
AcDbSpline
210
0.0
220
0.0
230
1.0
 70
    24
 71
     1
 72
     4
 73
     2
 74
     0
 42
0.0000000001
 43
0.0000000001
 40
0.0
 40
0.0
 40
0.0157231012575471
 40
0.0157231012575471
 10
-21.36063344898582
 20
-9.400044268629528
 30
0.0
 10
-21.34677900910253
 20
-9.394083654381688
 30
0.0
  0
ELLIPSE
  5
7A2D
330
1F
100
AcDbEntity
  8
AM_0
100
AcDbEllipse
 10
-24.21586084404555
 20
-25.20853618805892
 30
0.0
 11
-0.7030524280084448
 21
0.7111380199872813
 31
0.0
210
0.0
220
0.0
230
1.0
 40
0.9924038765061041
 41
3.254675432221185
 42
4.347776113092499
  0
SPLINE
  5
7A2E
330
1F
100
AcDbEntity
  8
AM_0
100
AcDbSpline
210
0.0
220
0.0
230
1.0
 70
     8
 71
     3
 72
    30
 73
    26
 74
     0
 42
0.0000000001
 43
0.0000000001
 40
2.525967697351975
 40
2.525967697351975
 40
2.525967697351975
 40
2.525967697351975
 40
2.757812864419602
 40
2.757812864419602
 40
3.034281509471056
 40
3.034281509471056
 40
3.310017964890366
 40
3.310017964890366
 40
3.585754420309676
 40
3.585754420309676
 40
3.856343183308701
 40
3.856343183308701
 40
4.126931946307725
 40
4.126931946307725
 40
4.558925299702051
 40
4.558925299702051
 40
4.990918653096377
 40
4.990918653096377
 40
5.237637429248325
 40
5.237637429248325
 40
5.484356205400272
 40
5.484356205400272
 40
5.666619058908585
 40
5.666619058908585
 40
5.687931206450979
 40
5.687931206450979
 40
5.687931206450979
 40
5.687931206450979
 10
-24.92293547223346
 20
-25.40613903350549
 30
0.0
 10
-24.89088180586941
 20
-25.47838109159693
 30
0.0
 10
-24.84845005574527
 20
-25.5509102513281
 30
0.0
 10
-24.73802341338353
 20
-25.69572995532485
 30
0.0
 10
-24.66647886010003
 20
-25.76520861746371
 30
0.0
 10
-24.522045889119
 20
-25.87372576968903
 30
0.0
 10
-24.43740220873951
 20
-25.92169049533055
 30
0.0
 10
-24.2610728446624
 20
-25.99019064949857
 30
0.0
 10
-24.16942425349384
 20
-26.01078437179421
 30
0.0
 10
-24.00309005043402
 20
-26.02676265641673
 30
0.0
 10
-23.91418935430044
 20
-26.02394851706708
 30
0.0
 10
-23.74409102784295
 20
-25.99368901546176
 30
0.0
 10
-23.66290864279324
 20
-25.96631392226993
 30
0.0
 10
-23.48264585967524
 20
-25.87923350245825
 30
0.0
 10
-23.37836355227659
 20
-25.79889382167897
 30
0.0
 10
-23.21611719034365
 20
-25.60085635610312
 30
0.0
 10
-23.15809247283311
 20
-25.48339017136777
 30
0.0
 10
-23.1090528264134
 20
-25.29575314136684
 30
0.0
 10
-23.09772265583251
 20
-25.21798283108228
 30
0.0
 10
-23.09583921697015
 20
-25.05746336564027
 30
0.0
 10
-23.10531722448956
 20
-24.97458732435143
 30
0.0
 10
-23.13619823754709
 20
-24.84015652810683
 30
0.0
 10
-23.15581697734319
 20
-24.77776778266866
 30
0.0
 10
-23.1841794916603
 20
-24.71017506541488
 30
0.0
 10
-23.1872233825635
 20
-24.70312278253317
 30
0.0
 10
-23.19033715004184
 20
-24.69610502149157
 30
0.0
  0
ELLIPSE
  5
7A2F
330
1F
100
AcDbEntity
  8
AM_0
100
AcDbEllipse
 10
-23.21789646689524
 20
-22.75522407397738
 30
0.0
 11
1.371096824688663
 21
0.608353102505992
 31
0.0
210
0.0
220
0.0
230
1.0
 40
0.0438683177378096
 41
1.455494996016034
 42
3.026291322810931
  0
ELLIPSE
  5
7A30
330
1F
100
AcDbEntity
  8
AM_0
100
AcDbEllipse
 10
-23.21789646689524
 20
-22.75522407397738
 30
0.0
 11
-1.054578642012667
 21
1.066707029980921
 31
0.0
210
0.0
220
0.0
230
1.0
 40
0.9924038765061041
 41
1.206183459502667
 42
2.776979786297592
  0
ELLIPSE
  5
7A31
330
1F
100
AcDbEntity
  8
AM_0
100
AcDbEllipse
 10
-23.21789646689524
 20
-22.75522407397738
 30
0.0
 11
0.6013793328154046
 21
-1.374169894177026
 31
0.0
210
0.0
220
0.0
230
0.9999999999999998
 40
0.1149352713248289
 41
0.0441753395945538
 42
1.614971666389448
  0
ELLIPSE
  5
7A32
330
1F
100
AcDbEntity
  8
AM_0
100
AcDbEllipse
 10
-23.79921801195098
 20
-23.32993603173838
 30
0.0
 11
-1.38943990814851
 21
-0.9457658275931001
 31
0.0
210
0.0
220
0.0
230
1.0
 40
0.8885711502008032
 41
0.9908906743572734
 42
1.407120444187027
  0
ELLIPSE
  5
7A33
330
1F
100
AcDbEntity
  8
AM_0
100
AcDbEllipse
 10
-23.85654431866782
 20
-23.3866105421614
 30
0.0
 11
-1.054578642012667
 21
1.066707029980921
 31
0.0
210
0.0
220
0.0
230
1.0
 40
0.9924038765061041
 41
1.20618345950265
 42
2.35741667696143
  0
ELLIPSE
  5
7A34
330
1F
100
AcDbEntity
  8
AM_0
100
AcDbEllipse
 10
-23.53337614328495
 20
-24.78452748857353
 30
0.0
 11
1.251433321854947
 21
-1.265825675577267
 31
0.0
210
0.0
220
0.0
230
0.9999999999999998
 40
0.9924038765061039
 41
4.347776113092439
 42
7.489368766682504
  0
ELLIPSE
  5
7A35
330
1F
100
AcDbEntity
  8
AM_0
100
AcDbEllipse
 10
-26.3944987305432
 20
-17.07370496121302
 30
0.0
 11
-1.054578642012667
 21
1.066707029980921
 31
0.0
210
0.0
220
0.0
230
1.0
 40
0.9924038765061039
 41
1.814042237243305
 42
2.112045618741142
  0
ELLIPSE
  5
7A36
330
1F
100
AcDbEntity
  8
AM_0
100
AcDbEllipse
 10
-26.3944987305432
 20
-19.07370496121302
 30
0.0
 11
-1.054578642012667
 21
1.066707029980921
 31
0.0
210
0.0
220
0.0
230
1.0
 40
0.9924038765061039
 41
0.3003213002642162
 42
0.5983246817621061
  0
ELLIPSE
  5
7A37
330
1F
100
AcDbEntity
  8
AM_0
100
AcDbEllipse
 10
-26.11165855626916
 20
-19.0222323989268
 30
0.0
 11
-1.019426020612245
 21
1.031150128981557
 31
0.0
210
0.0
220
0.0
230
1.0
 40
0.9924038765061041
 41
0.6185732785357015
 42
1.793793640469665
  0
ELLIPSE
  5
7A38
330
1F
100
AcDbEntity
  8
AM_0
100
AcDbEllipse
 10
-27.26967949584679
 20
-13.62337807460869
 30
0.0
 11
0.6013793328154046
 21
-1.374169894177026
 31
0.0
210
0.0
220
0.0
230
0.9999999999999998
 40
0.1149352713248289
 41
1.614971666389456
 42
3.141592653589672
  0
ELLIPSE
  5
7A39
330
1F
100
AcDbEntity
  8
AM_0
100
AcDbEllipse
 10
-27.26967949584679
 20
-13.62337807460869
 30
0.0
 11
-1.054578642012667
 21
1.066707029980921
 31
0.0
210
0.0
220
0.0
230
1.0
 40
0.9924038765061041
 41
-0.0000000000000278
 42
1.206183459502674
  0
ELLIPSE
  5
7A3A
330
1F
100
AcDbEntity
  8
AM_0
100
AcDbEllipse
 10
-27.26967949584679
 20
-13.62337807460869
 30
0.0
 11
-1.371096824688663
 21
-0.608353102505992
 31
0.0
210
0.0
220
0.0
230
1.0
 40
0.0438683177378096
 41
4.597087649605827
 42
6.167883976400724
  0
ELLIPSE
  5
7A3B
330
1F
100
AcDbEntity
  8
AM_0
100
AcDbEllipse
 10
-27.90832734761937
 20
-14.25476454279271
 30
0.0
 11
-1.054578642012667
 21
1.066707029980921
 31
0.0
210
0.0
220
0.0
230
1.0
 40
0.9924038765061041
 41
0.0549502420438524
 42
1.206183459502674
  0
ELLIPSE
  5
7A3C
330
1F
100
AcDbEntity
  8
AM_0
100
AcDbEllipse
 10
-27.85100104090258
 20
-14.19809003236969
 30
0.0
 11
-1.389439908148503
 21
-0.9457658275931118
 31
0.0
210
0.0
220
0.0
230
1.0
 40
0.8885711502008025
 41
4.916659304575373
 42
4.971609546619257
  0
ELLIPSE
  5
7A3D
330
1F
100
AcDbEntity
  8
AM_0
100
AcDbEllipse
 10
-17.37720057127683
 20
-14.67433156541881
 30
0.0
 11
3.163735926038003
 21
-3.200121089942762
 31
0.0
210
0.0
220
0.0
230
1.0
 40
0.9924038765061041
 41
2.681276930502967
 42
2.776979786297554
  0
ELLIPSE
  5
7A3E
330
1F
100
AcDbEntity
  8
AM_0
100
AcDbEllipse
 10
-20.11523798386917
 20
-10.46827038999492
 30
0.0
 11
0.0250720265251336
 21
0.9996856473341622
 31
0.0
210
0.0
220
0.0
230
1.0
 40
0.0856271792190199
 41
4.801163096668407
 42
6.022893573064439
  0
ELLIPSE
  5
7A3F
330
1F
100
AcDbEntity
  8
AM_0
100
AcDbEllipse
 10
-20.94548958244877
 20
-10.31046498338832
 30
0.0
 11
0.3456862247027713
 21
-0.9383501660098671
 31
0.0
210
0.0
220
0.0
230
1.0
 40
0.8269733421120879
 41
2.668026624375755
 42
3.141592653589794
  0
ELLIPSE
  5
7A40
330
1F
100
AcDbEntity
  8
AM_0
100
AcDbEllipse
 10
-19.76710457098613
 20
-10.34001877396536
 30
0.0
 11
-1.602640349874469
 21
0.9323971864403578
 31
0.0
210
0.0
220
0.0
230
1.0
 40
0.0907122450273384
 41
6.216954221559467
 42
7.743575208759679
  0
ELLIPSE
  5
7A41
330
1F
100
AcDbEntity
  8
AM_0
100
AcDbEllipse
 10
-19.72084680236037
 20
-9.374560117620831
 30
0.0
 11
-1.228734048093668
 21
-0.0080867790593975
 31
0.0
210
0.0
220
0.0
230
1.0
 40
0.1069100567988307
 41
5.995220369863067
 42
7.566016696658033
  0
ELLIPSE
  5
7A42
330
1F
100
AcDbEntity
  8
AM_0
100
AcDbEllipse
 10
-18.57594655932268
 20
-15.35801550006942
 30
0.0
 11
-3.163735926038003
 21
3.200121089942762
 31
0.0
210
0.0
220
0.0
230
1.0
 40
0.9924038765061041
 41
5.918572439887333
 42
6.237716105104787
  0
ELLIPSE
  5
7A43
330
1F
100
AcDbEntity
  8
AM_0
100
AcDbEllipse
 10
-18.12092547700183
 20
-15.15888417281314
 30
0.0
 11
-2.987972819035891
 21
3.022336584945943
 31
0.0
210
0.0
220
0.0
230
1.0
 40
0.9924038765061041
 41
0.0000000000000118
 42
1.206183459502671
  0
ELLIPSE
  5
7A44
330
1F
100
AcDbEntity
  8
AM_0
100
AcDbEllipse
 10
-16.48852825060214
 20
-20.35549558269383
 30
0.0
 11
0.3456862247027703
 21
-0.9383501660098675
 31
0.0
210
0.0
220
0.0
230
1.0
 40
0.8269733421120857
 41
0.0781034105051453
 42
0.6297728502243699
  0
ELLIPSE
  5
7A45
330
1F
100
AcDbEntity
  8
AM_0
100
AcDbEllipse
 10
-16.06345495491757
 20
-19.60011638936362
 30
0.0
 11
-0.7525641378927119
 21
0.6585189582371943
 31
0.0
210
0.0
220
0.0
230
1.0
 40
0.1227062835947048
 41
3.481775714474157
 42
4.703506190870204
  0
ELLIPSE
  5
7A46
330
1F
100
AcDbEntity
  8
AM_0
100
AcDbEllipse
 10
-17.37720057127683
 20
-14.67433156541881
 30
0.0
 11
3.163735926038003
 21
-3.200121089942762
 31
0.0
210
0.0
220
0.0
230
1.0
 40
0.9924038765061041
 41
5.918572439887375
 42
6.014275295681959
  0
ELLIPSE
  5
7A47
330
1F
100
AcDbEntity
  8
AM_0
100
AcDbEllipse
 10
-12.85974604098043
 20
-15.93887565100989
 30
0.0
 11
-0.7525641378927124
 21
0.6585189582371937
 31
0.0
210
0.0
220
0.0
230
1.0
 40
0.1227062835947024
 41
3.481775714474166
 42
4.703506190870179
  0
ELLIPSE
  5
7A48
330
1F
100
AcDbEntity
  8
AM_0
100
AcDbEllipse
 10
-13.35532753465543
 20
-19.20123103842753
 30
0.0
 11
1.204708094371892
 21
0.5171493775465639
 31
0.0
210
0.0
220
0.0
230
1.0
 40
0.7620089740182491
 41
4.721621748398455
 42
5.273291188117649
  0
ELLIPSE
  5
7A49
330
1F
100
AcDbEntity
  8
AM_0
100
AcDbEllipse
 10
-17.37720057127683
 20
-14.67433156541881
 30
0.0
 11
3.163735926038003
 21
-3.200121089942762
 31
0.0
210
0.0
220
0.0
230
1.0
 40
0.9924038765061041
 41
0.4123489029103557
 42
0.6230650202161569
  0
SPLINE
  5
7A4A
330
1F
100
AcDbEntity
  8
AM_0
100
AcDbSpline
210
0.0
220
0.0
230
1.0
 70
     8
 71
     3
 72
    18
 73
    14
 74
     0
 42
0.0000000001
 43
0.0000000001
 40
9.276068108291021
 40
9.276068108291021
 40
9.276068108291021
 40
9.276068108291021
 40
9.355248639068548
 40
9.355248639068548
 40
10.05507723093724
 40
10.05507723093724
 40
10.75490582280593
 40
10.75490582280593
 40
11.45473441467462
 40
11.45473441467462
 40
12.15456300654332
 40
12.15456300654332
 40
12.23374353732084
 40
12.23374353732084
 40
12.23374353732084
 40
12.23374353732084
 10
-13.20589622472027
 20
-16.34794950368838
 30
0.0
 10
-13.21591428641761
 20
-16.37332868653943
 30
0.0
 10
-13.22619061849946
 20
-16.39866125903417
 30
0.0
 10
-13.32979591729224
 20
-16.64731190027329
 30
0.0
 10
-13.44296300437702
 20
-16.86586033752338
 30
0.0
 10
-13.70033894194205
 20
-17.27719181099929
 30
0.0
 10
-13.8445442483819
 20
-17.46995340086631
 30
0.0
 10
-14.14945609017524
 20
-17.81841066922926
 30
0.0
 10
-14.32045163613236
 20
-17.98586476454484
 30
0.0
 10
-14.69130932098312
 20
-18.29248694833974
 30
0.0
 10
-14.89118770971481
 20
-18.43169100353056
 30
0.0
 10
-15.12339467997378
 20
-18.56681104587097
 30
0.0
 10
-15.14710623179212
 20
-18.5803202747037
 30
0.0
 10
-15.17091832688663
 20
-18.59360264056319
 30
0.0
  0
ELLIPSE
  5
7A4B
330
1F
100
AcDbEntity
  8
AM_0
100
AcDbEllipse
 10
-15.2327110690843
 20
-10.59072372784534
 30
0.0
 11
0.0250720265251331
 21
0.9996856473341622
 31
0.0
210
0.0
220
0.0
230
1.0
 40
0.0856271792190219
 41
4.801163096668416
 42
6.022893573064439
  0
ELLIPSE
  5
7A4C
330
1F
100
AcDbEntity
  8
AM_0
100
AcDbEllipse
 10
-17.37720057127683
 20
-14.67433156541881
 30
0.0
 11
3.163735926038003
 21
-3.200121089942762
 31
0.0
210
0.0
220
0.0
230
1.0
 40
0.9924038765061041
 41
1.789301898789189
 42
2.000018016094999
  0
SPLINE
  5
7A4D
330
1F
100
AcDbEntity
  8
AM_0
100
AcDbSpline
210
0.0
220
0.0
230
1.0
 70
     8
 71
     3
 72
    22
 73
    18
 74
     0
 42
0.0000000001
 43
0.0000000001
 40
9.15431167361735
 40
9.15431167361735
 40
9.15431167361735
 40
9.15431167361735
 40
9.593966598349517
 40
9.593966598349517
 40
10.27711070050388
 40
10.27711070050388
 40
10.96025480265826
 40
10.96025480265826
 40
11.64339890481262
 40
11.64339890481262
 40
12.32654300696703
 40
12.32654300696703
 40
13.00968710912143
 40
13.00968710912143
 40
13.69283121127583
 40
13.69283121127583
 40
14.13248613601277
 40
14.13248613601277
 40
14.13248613601277
 40
14.13248613601277
 10
-14.96270702829326
 20
-10.91558875567592
 30
0.0
 10
-14.8365881963864
 20
-10.99717953054916
 30
0.0
 10
-14.71212790765707
 20
-11.08680151016427
 30
0.0
 10
-14.40374613282745
 20
-11.33448531215016
 30
0.0
 10
-14.22514950460493
 20
-11.50309283120977
 30
0.0
 10
-13.89792313277473
 20
-11.86698243460922
 30
0.0
 10
-13.74911070110408
 20
-12.06246126285942
 30
0.0
 10
-13.48849596524621
 20
-12.46726805989477
 30
0.0
 10
-13.37669814367279
 20
-12.67659877863595
 30
0.0
 10
-13.19216803171036
 20
-13.09248989438607
 30
0.0
 10
-13.11210318039718
 20
-13.31557630393332
 30
0.0
 10
-12.98733712962632
 20
-13.77933477050227
 30
0.0
 10
-12.94263060818923
 20
-14.02000596931738
 30
0.0
 10
-12.89331807793303
 20
-14.50475392672866
 30
0.0
 10
-12.88868787989633
 20
-14.74910019823427
 30
0.0
 10
-12.91288023116953
 20
-15.14191812894985
 30
0.0
 10
-12.93030410031235
 20
-15.29353317831363
 30
0.0
 10
-12.95477806758742
 20
-15.44102802915621
 30
0.0
  0
ELLIPSE
  5
7A4E
330
1F
100
AcDbEntity
  8
AM_0
100
AcDbEllipse
 10
-8.529684099005976
 20
-12.12576266171323
 30
0.0
 11
0.4925002083915759
 21
-0.8703123259693931
 31
0.0
210
0.0
220
0.0
230
1.0
 40
0.7267387351930131
 41
0.5030118346022419
 42
1.530145906252924
  0
ELLIPSE
  5
7A4F
330
1F
100
AcDbEntity
  8
AM_0
100
AcDbEllipse
 10
-5.695814825353977
 20
-10.34889599439226
 30
0.0
 11
1.054578642012667
 21
-1.06670702998092
 31
0.0
210
0.0
220
0.0
230
1.0
 40
0.9924038765061041
 41
0.0038705303134443
 42
0.4131678392774592
  0
ELLIPSE
  5
7A50
330
1F
100
AcDbEntity
  8
AM_0
100
AcDbEllipse
 10
-5.69581482535375
 20
-10.34889599439215
 30
0.0
 11
-1.339314875356087
 21
1.35471792807577
 31
0.0
210
0.0
220
0.0
230
1.0
 40
0.9924038765061037
 41
3.928897092613808
 42
4.032248470060608
  0
ELLIPSE
  5
7A51
330
1F
100
AcDbEntity
  8
AM_0
100
AcDbEllipse
 10
-5.69581482535375
 20
-10.34889599439215
 30
0.0
 11
-1.339314875356087
 21
1.35471792807577
 31
0.0
210
0.0
220
0.0
230
1.0
 40
0.9924038765061037
 41
3.456520420155402
 42
3.928897092613823
  0
ELLIPSE
  5
7A52
330
1F
100
AcDbEntity
  8
AM_0
100
AcDbEllipse
 10
-5.279381431595197
 20
-9.937197420617408
 30
0.0
 11
1.339314875356087
 21
-1.35471792807577
 31
0.0
210
0.0
220
0.0
230
1.0
 40
0.9924038765061037
 41
0.1554998075045948
 42
0.7873044390240671
  0
ELLIPSE
  5
7A53
330
1F
100
AcDbEntity
  8
AM_0
100
AcDbEllipse
 10
-5.279381431595197
 20
-9.937197420617636
 30
0.0
 11
-1.339314875356087
 21
1.35471792807577
 31
0.0
210
0.0
220
0.0
230
1.0
 40
0.9924038765061037
 41
3.297092461094619
 42
3.928897092613823
  0
ELLIPSE
  5
7A54
330
1F
100
AcDbEntity
  8
AM_0
100
AcDbEllipse
 10
-4.862948037836645
 20
-9.525498846842836
 30
0.0
 11
1.339314875356087
 21
-1.35471792807577
 31
0.0
210
0.0
220
0.0
230
1.0
 40
0.9924038765061037
 41
5.556086000011752
 42
7.070489746203645
  0
SPLINE
  5
7A55
330
1F
100
AcDbEntity
  8
AM_0
100
AcDbSpline
210
0.0
220
0.0
230
1.0
 70
     8
 71
     3
 72
    14
 73
    10
 74
     0
 42
0.0000000001
 43
0.0000000001
 40
-2.939477701641874
 40
-2.939477701641874
 40
-2.939477701641874
 40
-2.939477701641874
 40
-2.718451941802024
 40
-2.718451941802024
 40
-2.212019067573048
 40
-2.212019067573048
 40
-1.95880263045856
 40
-1.95880263045856
 40
-1.795693929180012
 40
-1.795693929180012
 40
-1.795693929180012
 40
-1.795693929180012
 10
-4.031837096895628
 20
-10.58717023622774
 30
0.0
 10
-3.983586028580361
 20
-10.52320780369986
 30
0.0
 10
-3.940759799607462
 20
-10.45557502620126
 30
0.0
 10
-3.825946068280131
 20
-10.2421449881382
 30
0.0
 10
-3.766787140321298
 20
-10.06838309359746
 30
0.0
 10
-3.730978398786305
 20
-9.804387640062216
 30
0.0
 10
-3.727486111754046
 20
-9.715788002049308
 30
0.0
 10
-3.735074835479167
 20
-9.574536005068026
 30
0.0
 10
-3.741380638012856
 20
-9.520302847984353
 30
0.0
 10
-3.750582851826607
 20
-9.468016625970463
 30
0.0
  0
ELLIPSE
  5
7A56
330
1F
100
AcDbEntity
  8
AM_0
100
AcDbEllipse
 10
-4.870966371011149
 20
-9.330345893643212
 30
0.0
 11
0.0761571945034738
 21
1.749953113872263
 31
0.0
210
0.0
220
0.0
230
1.0
 40
0.7100117763089196
 41
3.86684002751862
 42
3.942552189218451
  0
ELLIPSE
  5
7A57
330
1F
100
AcDbEntity
  8
AM_0
100
AcDbEllipse
 10
-11.44625703765064
 20
-20.60785480561254
 30
0.0
 11
6.033173560267021
 21
8.267832715171108
 31
0.0
210
0.0
220
0.0
230
1.0
 40
0.3006442376017896
 41
0.5858083328335948
 42
1.28394003363133
  0
ELLIPSE
  5
7A58
330
1F
100
AcDbEntity
  8
AM_0
100
AcDbEllipse
 10
-12.18265560896918
 20
-20.01788478203049
 30
0.0
 11
-6.997868036154112
 21
-8.624740645478491
 31
0.0
210
0.0
220
0.0
230
1.0
 40
0.2872363582373918
 41
3.753520030266308
 42
4.451651731064037
  0
ELLIPSE
  5
7A59
330
1F
100
AcDbEntity
  8
AM_0
100
AcDbEllipse
 10
-17.48454962875416
 20
-8.068557943031692
 30
0.0
 11
11.05096913840013
 21
-0.3871988503006214
 31
0.0
210
0.0
220
0.0
230
1.0
 40
0.2180249904467219
 41
4.933320298306244
 42
5.63145199910398
  0
ELLIPSE
  5
7A5A
330
1F
100
AcDbEntity
  8
AM_0
100
AcDbEllipse
 10
-11.85807361367403
 20
-9.409154557730076
 30
0.0
 11
1.933394177023237
 21
-1.955629554965025
 31
0.0
210
0.0
220
0.0
230
0.9999999999999998
 40
0.9924038765061041
 41
1.7869970985174
 42
3.472711821447076
  0
ELLIPSE
  5
7A5B
330
1F
100
AcDbEntity
  8
AM_0
100
AcDbEllipse
 10
-12.69094040119125
 20
-10.23255170527956
 30
0.0
 11
-1.933394177023231
 21
1.95562955496503
 31
0.0
210
0.0
220
0.0
230
1.0
 40
0.9924038765061041
 41
5.067654868243705
 42
6.066932992481146
  0
ELLIPSE
  5
7A5C
330
1F
100
AcDbEntity
  8
AM_0
100
AcDbEllipse
 10
-4.870966371011149
 20
-9.330345893643212
 30
0.0
 11
-1.487409867333922
 21
0.5379955030782626
 31
0.0
210
0.0
220
0.0
230
1.0
 40
0.6742496572838938
 41
5.096125717337661
 42
5.17183787903757
  0
SPLINE
  5
7A5D
330
1F
100
AcDbEntity
  8
AM_0
100
AcDbSpline
210
0.0
220
0.0
230
1.0
 70
     8
 71
     3
 72
    14
 73
    10
 74
     0
 42
0.0000000001
 43
0.0000000001
 40
1.795693929180001
 40
1.795693929180001
 40
1.795693929180001
 40
1.795693929180001
 40
1.95880263045855
 40
1.95880263045855
 40
2.212019067573022
 40
2.212019067573022
 40
2.718451941801968
 40
2.718451941801968
 40
2.93947770164182
 40
2.93947770164182
 40
2.93947770164182
 40
2.93947770164182
 10
-4.071211185915444
 20
-8.74538943961501
 30
0.0
 10
-4.10428445138416
 20
-8.702395839486953
 30
0.0
 10
-4.140678001433229
 20
-8.660393855332372
 30
0.0
 10
-4.241203298319533
 20
-8.557980142787201
 30
0.0
 10
-4.30961714517582
 20
-8.500260572166169
 30
0.0
 10
-4.530099467225909
 20
-8.348041562743972
 30
0.0
 10
-4.698547361318674
 20
-8.275489673690245
 30
0.0
 10
-4.933316028947615
 20
-8.218567129360963
 30
0.0
 10
-5.011968813345561
 20
-8.205454569684945
 30
0.0
 10
-5.091473111934078
 20
-8.198978954617814
 30
0.0
  0
ELLIPSE
  5
7A5E
330
1F
100
AcDbEntity
  8
AM_0
100
AcDbEllipse
 10
-5.279381431595197
 20
-9.937197420617408
 30
0.0
 11
1.339314875356087
 21
-1.35471792807577
 31
0.0
210
0.0
220
0.0
230
1.0
 40
0.9924038765061037
 41
0.7873044390240521
 42
2.743473179944379
  0
ELLIPSE
  5
7A5F
330
1F
100
AcDbEntity
  8
AM_0
100
AcDbEllipse
 10
-5.279381431595197
 20
-9.937197420617636
 30
0.0
 11
-1.339314875356087
 21
1.35471792807577
 31
0.0
210
0.0
220
0.0
230
1.0
 40
0.9924038765061037
 41
3.928897092613808
 42
5.885065833533974
  0
ELLIPSE
  5
7A60
330
1F
100
AcDbEntity
  8
AM_0
100
AcDbEllipse
 10
-4.862948037836645
 20
-9.525498846842836
 30
0.0
 11
1.339314875356087
 21
-1.35471792807577
 31
0.0
210
0.0
220
0.0
230
1.0
 40
0.9924038765061037
 41
0.7873044390240446
 42
3.13946622617356
  0
ELLIPSE
  5
7A61
330
1F
100
AcDbEntity
  8
AM_0
100
AcDbEllipse
 10
-5.121400900090748
 20
-9.577932998787289
 30
0.0
 11
0.8497188046746273
 21
-1.242186283859863
 31
0.0
210
0.0
220
0.0
230
1.0
 40
0.8900090315943952
 41
1.099575949798883
 42
1.633444444709914
  0
ELLIPSE
  5
7A62
330
1F
100
AcDbEntity
  8
AM_0
100
AcDbEllipse
 10
-9.401845187178309
 20
-10.16009947419219
 30
0.0
 11
0.2273816218223202
 21
-0.9738057291151326
 31
0.0
210
0.0
220
0.0
230
1.0
 40
0.7180889249926202
 41
1.737126742954573
 42
2.764260814605238
  0
ELLIPSE
  5
7A63
330
1F
100
AcDbEntity
  8
AM_0
100
AcDbEllipse
 10
-17.4382918601284
 20
-7.103099286687154
 30
0.0
 11
-10.14194875000106
 21
0.8489845201230419
 31
0.0
210
0.0
220
0.0
230
1.0
 40
0.2354481220518916
 41
1.814357104683151
 42
2.512488805480887
  0
ELLIPSE
  5
7A64
330
1F
100
AcDbEntity
  8
AM_0
100
AcDbEllipse
 10
-1.451987799084349
 20
-16.87156274609664
 30
0.0
 11
-0.5624419424067562
 21
0.5689104159898248
 31
0.0
210
0.0
220
0.0
230
0.9999999999999998
 40
0.9924038765061037
 41
2.530602483675937
 42
3.141592653589815
  0
ELLIPSE
  5
7A65
330
1F
100
AcDbEntity
  8
AM_0
100
AcDbEllipse
 10
-1.035554405325797
 20
-16.4598641723219
 30
0.0
 11
0.5624419424067562
 21
-0.5689104159898248
 31
0.0
210
0.0
220
0.0
230
0.9999999999999998
 40
0.9924038765061037
 41
4.958641350627974
 42
7.053036453683704
  0
ELLIPSE
  5
7A66
330
1F
100
AcDbEntity
  8
AM_0
100
AcDbEllipse
 10
-0.7969303208016072
 20
-2.789099569136624
 30
0.0
 11
0.5624419424067561
 21
-0.5689104159898248
 31
0.0
210
0.0
220
0.0
230
1.0
 40
0.9924038765061037
 41
0.7698511465041179
 42
2.864246248234807
  0
ELLIPSE
  5
7A67
330
1F
100
AcDbEntity
  8
AM_0
100
AcDbEllipse
 10
-14.9789229707161
 20
-20.06183479691618
 30
0.0
 11
-0.838839157950206
 21
-0.8851130398920753
 31
0.0
210
0.0
220
0.0
230
0.9999999999999998
 40
0.1401786914523338
 41
4.988600844396466
 42
6.559397171191444
  0
ELLIPSE
  5
7A68
330
1F
100
AcDbEntity
  8
AM_0
100
AcDbEllipse
 10
-15.71532154203475
 20
-19.47186477333406
 30
0.0
 11
-0.3810087313522912
 21
-1.796572095275737
 31
0.0
210
0.0
220
0.0
230
1.0
 40
0.1342982272863114
 41
4.764099744920246
 42
6.334896071715142
  0
ELLIPSE
  5
7A69
330
1F
100
AcDbEntity
  8
AM_0
100
AcDbEllipse
 10
56.8929140476364
 20
-22.75520091123421
 30
0.0
 11
-1.49827219317631
 21
0.0719752398721215
 31
0.0
210
0.0
220
0.0
230
1.0
 40
0.4051783028951539
 41
6.187345809605459
 42
6.283185307179553
  0
ELLIPSE
  5
7A6A
330
1F
100
AcDbEntity
  8
AM_0
100
AcDbEllipse
 10
56.8929140476364
 20
-22.75520091123421
 30
0.0
 11
-0.1302363042570601
 21
-1.494335472728083
 31
0.0
210
0.0
220
0.0
230
1.0
 40
0.0874860070921377
 41
-0.000000000000052
 42
0.4188803285353658
  0
ELLIPSE
  5
7A6B
330
1F
100
AcDbEntity
  8
AM_0
100
AcDbEllipse
 10
56.8929140476364
 20
-22.75520091123421
 30
0.0
 11
-1.441185445786409
 21
0.4159140666693402
 31
0.0
210
0.0
220
0.0
230
1.0
 40
0.9100421646418793
 41
0.2126551284210079
 42
1.783451455215902
  0
ELLIPSE
  5
7A6C
330
1F
100
AcDbEntity
  8
AM_0
100
AcDbEllipse
 10
57.69529018101696
 20
-20.35547241995065
 30
0.0
 11
-0.2287906492071447
 21
0.9734756488147883
 31
0.0
210
0.0
220
0.0
230
1.0
 40
0.5275790603202664
 41
2.092733274406599
 42
2.644402714125823
  0
ELLIPSE
  5
7A6D
330
1F
100
AcDbEntity
  8
AM_0
100
AcDbEllipse
 10
62.02880980449311
 20
-24.78450432583035
 30
0.0
 11
-0.1545470810517163
 21
-1.773278094303865
 31
0.0
210
0.0
220
0.0
230
1.0
 40
0.0874860070921373
 41
5.131269308920038
 42
8.272861962510104
  0
SPLINE
  5
7A6E
330
1F
100
AcDbEntity
  8
AM_0
100
AcDbSpline
210
0.0
220
0.0
230
1.0
 70
     8
 71
     3
 72
    18
 73
    14
 74
     0
 42
0.0000000001
 43
0.0000000001
 40
9.276068108291021
 40
9.276068108291021
 40
9.276068108291021
 40
9.276068108291021
 40
9.355248639068548
 40
9.355248639068548
 40
10.05507723093724
 40
10.05507723093724
 40
10.75490582280593
 40
10.75490582280593
 40
11.45473441467462
 40
11.45473441467462
 40
12.15456300654332
 40
12.15456300654332
 40
12.23374353732084
 40
12.23374353732084
 40
12.23374353732084
 40
12.23374353732084
 10
56.8224622995441
 20
-16.34792634094519
 30
0.0
 10
56.81936727066397
 20
-16.37330552379624
 30
0.0
 10
56.81638069264238
 20
-16.39863809629097
 30
0.0
 10
56.78789813719595
 20
-16.6472887375301
 30
0.0
 10
56.76906772952122
 20
-16.86583717478019
 30
0.0
 10
56.7265518474926
 20
-17.2771686482561
 30
0.0
 10
56.7026377402999
 20
-17.46993023812312
 30
0.0
 10
56.64538882985891
 20
-17.81838750648607
 30
0.0
 10
56.61012220709483
 20
-17.98584160180165
 30
0.0
 10
56.53468369885058
 20
-18.29246378559655
 30
0.0
 10
56.4947380606244
 20
-18.43166784078736
 30
0.0
 10
56.46016997689958
 20
-18.56678788312778
 30
0.0
 10
56.45677513886983
 20
-18.58029711196051
 30
0.0
 10
56.45351836584882
 20
-18.59357947781999
 30
0.0
  0
ELLIPSE
  5
7A6F
330
1F
100
AcDbEntity
  8
AM_0
100
AcDbEllipse
 10
57.29476946774468
 20
-19.60009322662044
 30
0.0
 11
-0.986771199388353
 21
0.1621190922059196
 31
0.0
210
0.0
220
0.0
230
1.0
 40
0.6535425502820285
 41
0.1158451268917919
 42
1.33757560328784
  0
ELLIPSE
  5
7A70
330
1F
100
AcDbEntity
  8
AM_0
100
AcDbEllipse
 10
57.89628380583758
 20
-15.9388524882667
 30
0.0
 11
-0.9867711993883535
 21
0.1621190922059164
 31
0.0
210
0.0
220
0.0
230
1.0
 40
0.653542550282028
 41
0.1158451268918081
 42
1.337575603287821
  0
ELLIPSE
  5
7A71
330
1F
100
AcDbEntity
  8
AM_0
100
AcDbEllipse
 10
56.60059962782736
 20
-14.67430840267563
 30
0.0
 11
-0.3907089127712207
 21
-4.483006418184244
 31
0.0
210
0.0
220
0.0
230
0.9999999999999998
 40
0.0874860070921377
 41
0.4188803285354011
 42
0.5145831843299855
  0
ELLIPSE
  5
7A72
330
1F
100
AcDbEntity
  8
AM_0
100
AcDbEllipse
 10
56.48566435650252
 20
-15.07257105718825
 30
0.0
 11
-0.3907089127712207
 21
-4.483006418184244
 31
0.0
210
0.0
220
0.0
230
0.9999999999999998
 40
0.0874860070921377
 41
5.822477567794246
 42
6.702065635714987
  0
ELLIPSE
  5
7A73
330
1F
100
AcDbEntity
  8
AM_0
100
AcDbEllipse
 10
56.60059962782736
 20
-14.67430840267563
 30
0.0
 11
-0.3907089127712207
 21
-4.483006418184244
 31
0.0
210
0.0
220
0.0
230
0.9999999999999998
 40
0.0874860070921377
 41
1.195842098737967
 42
1.406558216043769
  0
ELLIPSE
  5
7A74
330
1F
100
AcDbEntity
  8
AM_0
100
AcDbEllipse
 10
56.60059962782736
 20
-14.67430840267563
 30
0.0
 11
-0.3907089127712207
 21
-4.483006418184244
 31
0.0
210
0.0
220
0.0
230
0.9999999999999998
 40
0.0874860070921377
 41
3.46477012633058
 42
3.560472982125166
  0
SPLINE
  5
7A75
330
1F
100
AcDbEntity
  8
AM_0
100
AcDbSpline
210
0.0
220
0.0
230
1.0
 70
     8
 71
     3
 72
    18
 73
    14
 74
     0
 42
0.0000000001
 43
0.0000000001
 40
1.668738724846723
 40
1.668738724846723
 40
1.668738724846723
 40
1.668738724846723
 40
1.747919255624235
 40
1.747919255624235
 40
2.447747847492926
 40
2.447747847492926
 40
3.147576439361617
 40
3.147576439361617
 40
3.847405031230308
 40
3.847405031230308
 40
4.547233623098999
 40
4.547233623098999
 40
4.626414153876513
 40
4.626414153876513
 40
4.626414153876513
 40
4.626414153876513
 10
56.84652654320041
 20
-10.4125268705225
 30
0.0
 10
56.84955309732277
 20
-10.40403685512391
 30
0.0
 10
56.85269543464698
 20
-10.39578380587026
 30
0.0
 10
56.88455940864276
 20
-10.31695384913909
 30
0.0
 10
56.92030378149514
 20
-10.26520541197866
 30
0.0
 10
56.98406905942125
 20
-10.20157896423391
 30
0.0
 10
57.01186228405629
 20
-10.18969482082313
 30
0.0
 10
57.051811849562
 20
-10.2013492731409
 30
0.0
 10
57.0653162571416
 20
-10.22528113920888
 30
0.0
 10
57.08386218137786
 20
-10.31292016302749
 30
0.0
 10
57.08913304318764
 20
-10.37663393925042
 30
0.0
 10
57.10126721029769
 20
-10.46829943577044
 30
0.0
 10
57.10257796730491
 20
-10.47785158239586
 30
0.0
 10
57.10398384209987
 20
-10.48763466646282
 30
0.0
  0
ELLIPSE
  5
7A76
330
1F
100
AcDbEntity
  8
AM_0
100
AcDbEllipse
 10
57.73345264512272
 20
-10.46824722725174
 30
0.0
 11
0.2800552694531822
 21
0.9599838780164517
 31
0.0
210
0.0
220
0.0
230
1.0
 40
0.9960140504112208
 41
0.545218983393431
 42
1.766949459789463
  0
ELLIPSE
  5
7A77
330
1F
100
AcDbEntity
  8
AM_0
100
AcDbEllipse
 10
58.27914725964729
 20
-10.33999561122219
 30
0.0
 11
-1.539157107500849
 21
-0.0104960237558353
 31
0.0
210
0.0
220
0.0
230
1.0
 40
0.6130657383063478
 41
6.103675195321869
 42
6.316330323742863
  0
ELLIPSE
  5
7A78
330
1F
100
AcDbEntity
  8
AM_0
100
AcDbEllipse
 10
56.60059962782736
 20
-14.67430840267563
 30
0.0
 11
-0.3907089127712207
 21
-4.483006418184244
 31
0.0
210
0.0
220
0.0
230
0.9999999999999998
 40
0.0874860070921377
 41
2.572795094616803
 42
2.78351121192261
  0
ELLIPSE
  5
7A79
330
1F
100
AcDbEntity
  8
AM_0
100
AcDbEllipse
 10
56.50761739273765
 20
-14.87034451452619
 30
0.0
 11
-0.3690028620616701
 21
-4.233950506062901
 31
0.0
210
0.0
220
0.0
230
1.0
 40
0.0874860070921377
 41
1.989676655330196
 42
3.141592653589741
  0
ELLIPSE
  5
7A7A
330
1F
100
AcDbEntity
  8
AM_0
100
AcDbEllipse
 10
60.73204553189782
 20
-12.12573949897004
 30
0.0
 11
-0.4220253408522426
 21
0.9065840345376424
 31
0.0
210
0.0
220
0.0
230
1.0
 40
0.5978297004125889
 41
0.9498484173511368
 42
1.976982489001819
  0
ELLIPSE
  5
7A7B
330
1F
100
AcDbEntity
  8
AM_0
100
AcDbEllipse
 10
58.17784167613286
 20
-10.31044182064514
 30
0.0
 11
-0.228790649207144
 21
0.9734756488147887
 31
0.0
210
0.0
220
0.0
230
1.0
 40
0.5275790603202634
 41
0.0000000000003126
 42
0.0544795002552103
  0
ELLIPSE
  5
7A7C
330
1F
100
AcDbEntity
  8
AM_0
100
AcDbEllipse
 10
58.15320275507485
 20
-10.59070056510215
 30
0.0
 11
0.2800552694531619
 21
0.9599838780164578
 31
0.0
210
0.0
220
0.0
230
1.0
 40
0.9960140504112205
 41
0.5452189833934048
 42
1.766949459789427
  0
ELLIPSE
  5
7A7D
330
1F
100
AcDbEntity
  8
AM_0
100
AcDbEllipse
 10
67.24339399612995
 20
-8.068534780288512
 30
0.0
 11
10.12867580904029
 21
2.439052230730592
 31
0.0
210
0.0
220
0.0
230
1.0
 40
0.0077078699516268
 41
3.235179715418
 42
3.933311416215724
  0
ELLIPSE
  5
7A7E
330
1F
100
AcDbEntity
  8
AM_0
100
AcDbEllipse
 10
58.02273001816161
 20
-9.374536954877651
 30
0.0
 11
0.5549097443600355
 21
0.1217172896233998
 31
0.0
210
0.0
220
0.0
230
1.0
 40
0.0902272916423107
 41
1.734563444169574
 42
3.305359770964536
  0
ELLIPSE
  5
7A7F
330
1F
100
AcDbEntity
  8
AM_0
100
AcDbEllipse
 10
66.33822412991037
 20
-20.60783164286935
 30
0.0
 11
7.579085900398751
 21
-6.676099474047394
 31
0.0
210
0.0
220
0.0
230
1.0
 40
0.6865648401866817
 41
2.849367220830181
 42
3.547498921627916
  0
ELLIPSE
  5
7A80
330
1F
100
AcDbEntity
  8
AM_0
100
AcDbEllipse
 10
66.66936234189233
 20
-20.0178616192873
 30
0.0
 11
-8.796375531110177
 21
6.486877971050727
 31
0.0
210
0.0
220
0.0
230
1.0
 40
0.6853770161940757
 41
5.917327435525266
 42
6.615459136322996
  0
SPLINE
  5
7A81
330
1F
100
AcDbEntity
  8
AM_0
100
AcDbSpline
210
0.0
220
0.0
230
1.0
 70
     8
 71
     3
 72
    22
 73
    18
 74
     0
 42
0.0000000001
 43
0.0000000001
 40
9.15431167361735
 40
9.15431167361735
 40
9.15431167361735
 40
9.15431167361735
 40
9.593966598349517
 40
9.593966598349517
 40
10.27711070050388
 40
10.27711070050388
 40
10.96025480265826
 40
10.96025480265826
 40
11.64339890481262
 40
11.64339890481262
 40
12.32654300696703
 40
12.32654300696703
 40
13.00968710912143
 40
13.00968710912143
 40
13.69283121127583
 40
13.69283121127583
 40
14.13248613601277
 40
14.13248613601277
 40
14.13248613601277
 40
14.13248613601277
 10
57.14103780291896
 20
-10.91556559293273
 30
0.0
 10
57.14504498303359
 20
-10.99715636780596
 30
0.0
 10
57.14924946368421
 20
-11.08677834742108
 30
0.0
 10
57.15914027536985
 20
-11.33446214940697
 30
0.0
 10
57.16431153560813
 20
-11.50306966846657
 30
0.0
 10
57.16944356539034
 20
-11.86695927186603
 30
0.0
 10
57.1693677046527
 20
-12.06243810011623
 30
0.0
 10
57.16228723739925
 20
-12.46724489715158
 30
0.0
 10
57.15527486130714
 20
-12.67657561589275
 30
0.0
 10
57.13529593961777
 20
-13.09246673164288
 30
0.0
 10
57.12153550375012
 20
-13.31555314119013
 30
0.0
 10
57.08689111388003
 20
-13.77931160775908
 30
0.0
 10
57.06601483857639
 20
-14.01998280657418
 30
0.0
 10
57.02011525515331
 20
-14.50473076398547
 30
0.0
 10
56.99510617888449
 20
-14.74907703549108
 30
0.0
 10
56.95444641476171
 20
-15.14189496620666
 30
0.0
 10
56.93865319001929
 20
-15.29351001557044
 30
0.0
 10
56.92364100498128
 20
-15.44100486641302
 30
0.0
  0
ELLIPSE
  5
7A82
330
1F
100
AcDbEntity
  8
AM_0
100
AcDbEllipse
 10
56.50761739273765
 20
-14.87034451452619
 30
0.0
 11
-0.3690028620616701
 21
-4.233950506062901
 31
0.0
210
0.0
220
0.0
230
1.0
 40
0.0874860070921377
 41
-0.0000000000000524
 42
1.989676655330213
  0
ELLIPSE
  5
7A83
330
1F
100
AcDbEntity
  8
AM_0
100
AcDbEllipse
 10
54.85604540210454
 20
-14.72640452501245
 30
0.0
 11
-0.2245088461563946
 21
-2.576021599096707
 31
0.0
210
0.0
220
0.0
230
1.0
 40
0.0874860070921377
 41
0.7834931958276052
 42
7.066678503007189
  0
ELLIPSE
  5
7A84
330
1F
100
AcDbEntity
  8
AM_0
100
AcDbEllipse
 10
64.73764194750685
 20
-16.4598410095787
 30
0.0
 11
-0.0694593622704392
 21
-0.7969789187883105
 31
0.0
210
0.0
220
0.0
230
1.0
 40
0.0874860070921377
 41
5.742134546455575
 42
7.836529649511305
  0
ELLIPSE
  5
7A85
330
1F
100
AcDbEntity
  8
AM_0
100
AcDbEllipse
 10
62.60654171173825
 20
-19.20120787568434
 30
0.0
 11
0.1149084467120434
 21
1.053577233777743
 31
0.0
210
0.0
220
0.0
230
1.0
 40
0.1027917985205306
 41
3.675066724872515
 42
4.226736164591709
  0
ELLIPSE
  5
7A86
330
1F
100
AcDbEntity
  8
AM_0
100
AcDbEllipse
 10
69.4614843996759
 20
-16.87153958335344
 30
0.0
 11
-0.069459362270432
 21
-0.796978918788311
 31
0.0
210
0.0
220
0.0
230
0.9999999999999998
 40
0.0874860070921377
 41
-0.0000000000000524
 42
1.553344342331661
  0
ELLIPSE
  5
7A87
330
1F
100
AcDbEntity
  8
AM_0
100
AcDbEllipse
 10
65.00458857150306
 20
-9.525475684099642
 30
0.0
 11
-0.1654001064064833
 21
-1.897806050364663
 31
0.0
210
0.0
220
0.0
230
1.0
 40
0.0874860070921377
 41
0.056393888659893
 42
1.570797634851665
  0
SPLINE
  5
7A88
330
1F
100
AcDbEntity
  8
AM_0
100
AcDbSpline
210
0.0
220
0.0
230
1.0
 70
     8
 71
     3
 72
    14
 73
    10
 74
     0
 42
0.0000000001
 43
0.0000000001
 40
-2.939477701641874
 40
-2.939477701641874
 40
-2.939477701641874
 40
-2.939477701641874
 40
-2.718451941802024
 40
-2.718451941802024
 40
-2.212019067573048
 40
-2.212019067573048
 40
-1.95880263045856
 40
-1.95880263045856
 40
-1.795693929180012
 40
-1.795693929180012
 40
-1.795693929180012
 40
-1.795693929180012
 10
64.97343068769237
 20
-10.58714707348455
 30
0.0
 10
64.96677515844488
 20
-10.52318464095666
 30
0.0
 10
64.96225935374923
 20
-10.45555186345806
 30
0.0
 10
64.95419779998804
 20
-10.24212182539501
 30
0.0
 10
64.95781094159553
 20
-10.06835993085426
 30
0.0
 10
64.98799415841836
 20
-9.804364477319023
 30
0.0
 10
65.00217243014458
 20
-9.715764839306114
 30
0.0
 10
65.03297890691112
 20
-9.574512842324832
 30
0.0
 10
65.04693417166549
 20
-9.52027968524116
 30
0.0
 10
65.06274220928538
 20
-9.467993463227269
 30
0.0
  0
ELLIPSE
  5
7A89
330
1F
100
AcDbEntity
  8
AM_0
100
AcDbEllipse
 10
60.86812892409671
 20
-9.330322730900018
 30
0.0
 11
4.091349215978495
 21
-1.392569893655781
 31
0.0
210
0.0
220
0.0
230
1.0
 40
0.2593608062267237
 41
0.0432220170355766
 42
0.118934178735409
  0
ELLIPSE
  5
7A8A
330
1F
100
AcDbEntity
  8
AM_0
100
AcDbEllipse
 10
63.29205302876312
 20
-15.45958923633774
 30
0.0
 11
-0.369002862061708
 21
-4.233950506062896
 31
0.0
210
0.0
220
0.0
230
1.0
 40
0.0874860070921377
 41
5.676007593790695
 42
8.339952266240894
  0
ELLIPSE
  5
7A8B
330
1F
100
AcDbEntity
  8
AM_0
100
AcDbEllipse
 10
64.39806853311711
 20
-9.409131394986882
 30
0.0
 11
-0.2387665578046358
 21
-2.739615033334826
 31
0.0
210
0.0
220
0.0
230
1.0
 40
0.0874860070921373
 41
2.570490294345012
 42
4.272466365635516
  0
ELLIPSE
  5
7A8C
330
1F
100
AcDbEntity
  8
AM_0
100
AcDbEllipse
 10
60.86812892409682
 20
-9.330322730900018
 30
0.0
 11
4.224323198817764
 21
1.136092304331068
 31
0.0
210
0.0
220
0.0
230
1.0
 40
0.0159027836888615
 41
6.233605727316161
 42
6.30931788901607
  0
SPLINE
  5
7A8D
330
1F
100
AcDbEntity
  8
AM_0
100
AcDbSpline
210
0.0
220
0.0
230
1.0
 70
     8
 71
     3
 72
    14
 73
    10
 74
     0
 42
0.0000000001
 43
0.0000000001
 40
1.795693929180001
 40
1.795693929180001
 40
1.795693929180001
 40
1.795693929180001
 40
1.95880263045855
 40
1.95880263045855
 40
2.212019067573022
 40
2.212019067573022
 40
2.718451941801968
 40
2.718451941801968
 40
2.93947770164182
 40
2.93947770164182
 40
2.93947770164182
 40
2.93947770164182
 10
65.09745637224785
 20
-8.745366276871816
 30
0.0
 10
65.08622546559582
 20
-8.70237267674376
 30
0.0
 10
65.07689322421879
 20
-8.660370692589179
 30
0.0
 10
65.05779216251085
 20
-8.557956980044007
 30
0.0
 10
65.05064289405073
 20
-8.500237409422975
 30
0.0
 10
65.04045413213805
 20
-8.348018400000778
 30
0.0
 10
65.04867361596314
 20
-8.275466510947051
 30
0.0
 10
65.06972259087274
 20
-8.218543966617783
 30
0.0
 10
65.07811730691583
 20
-8.205431406941766
 30
0.0
 10
65.08815659740173
 20
-8.198955791874634
 30
0.0
  0
ELLIPSE
  5
7A8E
330
1F
100
AcDbEntity
  8
AM_0
100
AcDbEllipse
 10
63.08909320685415
 20
-9.15617727637878
 30
0.0
 11
0.1149084467120431
 21
1.053577233777743
 31
0.0
210
0.0
220
0.0
230
1.0
 40
0.1027917985205305
 41
6.264989938743132
 42
6.319469438997989
  0
ELLIPSE
  5
7A8F
330
1F
100
AcDbEntity
  8
AM_0
100
AcDbEllipse
 10
65.95013059099722
 20
-2.789076406393445
 30
0.0
 11
-0.0694593622704392
 21
-0.7969789187883104
 31
0.0
210
0.0
220
0.0
230
1.0
 40
0.0874860070921377
 41
1.553344342331714
 42
3.6477394440624
  0
ELLIPSE
  5
7A90
330
1F
100
AcDbEntity
  8
AM_0
100
AcDbEllipse
 10
65.00458857150306
 20
-9.525475684099642
 30
0.0
 11
-0.1654001064064833
 21
-1.897806050364663
 31
0.0
210
0.0
220
0.0
230
1.0
 40
0.0874860070921377
 41
1.57079763485165
 42
3.922959422001164
  0
ELLIPSE
  5
7A91
330
1F
100
AcDbEntity
  8
AM_0
100
AcDbEllipse
 10
63.70895119648366
 20
-9.577909836044096
 30
0.0
 11
-1.160242950553527
 21
-1.228683755751735
 31
0.0
210
0.0
220
0.0
230
1.0
 40
0.6705515766163766
 41
2.21092371646434
 42
2.74479221137537
  0
ELLIPSE
  5
7A92
330
1F
100
AcDbEntity
  8
AM_0
100
AcDbEllipse
 10
60.82647368725838
 20
-10.160076311449
 30
0.0
 11
0.2152080951032854
 21
-0.9765682135939194
 31
0.0
210
0.0
220
0.0
230
1.0
 40
0.6777214217753123
 41
3.204542678049928
 42
4.231676749700595
  0
ELLIPSE
  5
7A93
330
1F
100
AcDbEntity
  8
AM_0
100
AcDbEllipse
 10
66.98697675464427
 20
-7.103076123943975
 30
0.0
 11
-9.129052197595038
 21
-2.494343147323736
 31
0.0
210
0.0
220
0.0
230
1.0
 40
0.0491233050929683
 41
0.079849105016476
 42
0.7779808058142117
  0
ELLIPSE
  5
7A94
330
1F
100
AcDbEntity
  8
AM_0
100
AcDbEllipse
 10
74.2148004537803
 20
-16.51761422623171
 30
0.0
 11
-0.104189043405648
 21
-1.195468378182466
 31
0.0
210
0.0
220
0.0
230
1.0
 40
0.0874860070921377
 41
-0.0000000000000524
 42
1.553344342331661
  0
ELLIPSE
  5
7A95
330
1F
100
AcDbEntity
  8
AM_0
100
AcDbEllipse
 10
70.67397304316625
 20
-3.200774980168188
 30
0.0
 11
-0.069459362270432
 21
-0.796978918788311
 31
0.0
210
0.0
220
0.0
230
0.9999999999999998
 40
0.0874860070921377
 41
1.553344342331661
 42
3.141592653589705
  0
ELLIPSE
  5
7A96
330
1F
100
AcDbEntity
  8
AM_0
100
AcDbEllipse
 10
75.29341811139625
 20
-4.356240036647759
 30
0.0
 11
-0.104189043405648
 21
-1.195468378182466
 31
0.0
210
0.0
220
0.0
230
1.0
 40
0.0874860070921377
 41
1.553344342331661
 42
3.141592653589715
  0
ELLIPSE
  5
7A97
330
1F
100
AcDbEntity
  8
AM_0
100
AcDbEllipse
 10
57.50932587028728
 20
-20.06181163417299
 30
0.0
 11
-0.3161438134633013
 21
-0.8768080291169884
 31
0.0
210
0.0
220
0.0
230
1.0
 40
0.5336167287773121
 41
5.046603353646711
 42
6.617399680441689
  0
ELLIPSE
  5
7A98
330
1F
100
AcDbEntity
  8
AM_0
100
AcDbEllipse
 10
57.84046408226925
 20
-19.47184161059088
 30
0.0
 11
-0.6941374840427632
 21
-1.706674783231097
 31
0.0
210
0.0
220
0.0
230
1.0
 40
0.8118224480953777
 41
5.054539408314991
 42
6.625335735109888
  0
ELLIPSE
  5
7A99
330
1F
100
AcDbEntity
  8
AM_0
100
AcDbEllipse
 10
-18.28724273591876
 20
-15.07259421993143
 30
0.0
 11
3.163735926038003
 21
-3.200121089942762
 31
0.0
210
0.0
220
0.0
230
1.0
 40
0.9924038765061041
 41
2.776979786297541
 42
5.918572439887375
  0
ELLIPSE
  5
7A9A
330
1F
100
AcDbEntity
  8
AM_0
100
AcDbEllipse
 10
-17.81228886650206
 20
-9.15620043912196
 30
0.0
 11
1.204708094371889
 21
0.5171493775465624
 31
0.0
210
0.0
220
0.0
230
1.0
 40
0.7620089740182512
 41
1.028359655089482
 42
1.501925684303434
  0
SPLINE
  5
7A9B
330
1F
100
AcDbEntity
  8
AM_0
100
AcDbSpline
210
0.0
220
0.0
230
1.0
 70
     8
 71
     3
 72
    18
 73
    14
 74
     0
 42
0.0000000001
 43
0.0000000001
 40
1.668738724846723
 40
1.668738724846723
 40
1.668738724846723
 40
1.668738724846723
 40
1.747919255624235
 40
1.747919255624235
 40
2.447747847492926
 40
2.447747847492926
 40
3.147576439361617
 40
3.147576439361617
 40
3.847405031230308
 40
3.847405031230308
 40
4.547233623098999
 40
4.547233623098999
 40
4.626414153876513
 40
4.626414153876513
 40
4.626414153876513
 40
4.626414153876513
 10
-18.80083610205486
 20
-10.41255003326568
 30
0.0
 10
-18.77489765000393
 20
-10.40406001786709
 30
0.0
 10
-18.74885394111481
 20
-10.39580696861344
 30
0.0
 10
-18.49167116491423
 20
-10.31697701188227
 30
0.0
 10
-18.25298888166367
 20
-10.26522857472184
 30
0.0
 10
-17.77431444218257
 20
-10.20160212697709
 30
0.0
 10
-17.53429279887507
 20
-10.18971798356631
 30
0.0
 10
-17.06960005862117
 20
-10.20137243588408
 30
0.0
 10
-16.8292482701554
 20
-10.22530430195206
 30
0.0
 10
-16.35048005407122
 20
-10.31294332577067
 30
0.0
 10
-16.11207374959906
 20
-10.3766571019936
 30
0.0
 10
-15.85747081554757
 20
-10.46832259851362
 30
0.0
 10
-15.83171619869062
 20
-10.47787474513904
 30
0.0
 10
-15.80609670477826
 20
-10.487657829206
 30
0.0
  0
ELLIPSE
  5
7A9C
330
1F
100
AcDbEntity
  8
AM_0
100
AcDbEllipse
 10
-17.66590439468086
 20
-14.9597528455568
 30
0.0
 11
-3.163735926038003
 21
3.200121089942762
 31
0.0
210
0.0
220
0.0
230
1.0
 40
0.9924038765061041
 41
3.186699098159926
 42
5.918572439887347
  0
ELLIPSE
  5
7A9D
330
1F
100
AcDbEntity
  8
AM_0
100
AcDbEllipse
 10
-17.82909084106165
 20
-14.87036767726937
 30
0.0
 11
-2.987972819035891
 21
3.022336584945943
 31
0.0
210
0.0
220
0.0
230
1.0
 40
0.9924038765061041
 41
-0.0000000000000025
 42
3.14159265358979
  0
ELLIPSE
  5
7A9E
330
1F
100
AcDbEntity
  8
AM_0
100
AcDbEllipse
 10
-18.12092547700183
 20
-15.15888417281314
 30
0.0
 11
-2.987972819035891
 21
3.022336584945943
 31
0.0
210
0.0
220
0.0
230
1.0
 40
0.9924038765061041
 41
1.206183459502653
 42
3.141592653589806
  0
ELLIPSE
  5
7A9F
330
1F
100
AcDbEntity
  8
AM_0
100
AcDbEllipse
 10
-17.68349544154114
 20
-14.72642768775563
 30
0.0
 11
1.817943433284902
 21
-1.83885104736396
 31
0.0
210
0.0
220
0.0
230
0.9999999999999998
 40
0.9924038765061041
 41
-0.000000000000006
 42
6.28318530717958
  0
ELLIPSE
  5
7AA0
330
1F
100
AcDbEntity
  8
AM_0
100
AcDbEllipse
 10
-27.26967949584679
 20
56.92407720120278
 30
0.0
 11
0.1879519008451065
 21
-1.488178108617618
 31
0.0
210
0.0
220
0.0
230
1.0
 40
0.3982626545125849
 41
4.61795675904841
 42
6.188753085843295
  0
ELLIPSE
  5
7AA1
330
1F
100
AcDbEntity
  8
AM_0
100
AcDbEllipse
 10
-27.26967949584679
 20
56.92407720120278
 30
0.0
 11
-0.1614601738655159
 21
-1.491284886349793
 31
0.0
210
0.0
220
0.0
230
0.9999999999999998
 40
0.9131845999368682
 41
-0.0000000000000031
 42
0.213850786062087
  0
ELLIPSE
  5
7AA2
330
1F
100
AcDbEntity
  8
AM_0
100
AcDbEllipse
 10
-27.26967949584679
 20
56.92407720120278
 30
0.0
 11
-1.494205189887953
 21
-0.1317226271826663
 31
0.0
210
0.0
220
0.0
230
1.0
 40
0.0864912970115022
 41
5.123644760312443
 42
6.283185307179575
  0
ELLIPSE
  5
7AA3
330
1F
100
AcDbEntity
  8
AM_0
100
AcDbEllipse
 10
-23.21789646689524
 20
56.48539402382462
 30
0.0
 11
-0.161460173865516
 21
-1.491284886349793
 31
0.0
210
0.0
220
0.0
230
0.9999999999999998
 40
0.9131845999368682
 41
-0.0000000000000031
 42
0.2138507860620868
  0
ELLIPSE
  5
7AA4
330
1F
100
AcDbEntity
  8
AM_0
100
AcDbEllipse
 10
-23.21789646689524
 20
56.48539402382462
 30
0.0
 11
0.1879519008451065
 21
-1.488178108617618
 31
0.0
210
0.0
220
0.0
230
1.0
 40
0.3982626545125849
 41
6.188753085843304
 42
6.283185307179589
  0
ELLIPSE
  5
7AA5
330
1F
100
AcDbEntity
  8
AM_0
100
AcDbEllipse
 10
-17.37720057127683
 20
56.1930796040156
 30
0.0
 11
-4.482615569663865
 21
-0.3951678815479586
 31
0.0
210
0.0
220
0.0
230
1.0
 40
0.0864912970115022
 41
5.027941904517906
 42
5.123644760312492
  0
ELLIPSE
  5
7AA6
330
1F
100
AcDbEntity
  8
AM_0
100
AcDbEllipse
 10
-18.28724273591876
 20
56.07814433269076
 30
0.0
 11
-4.482615569663865
 21
-0.3951678815479586
 31
0.0
210
0.0
220
0.0
230
1.0
 40
0.0864912970115022
 41
5.12364476031248
 42
6.859473930350851
  0
ELLIPSE
  5
7AA7
330
1F
100
AcDbEntity
  8
AM_0
100
AcDbEllipse
 10
-18.42257629100129
 20
62.88453300495135
 30
0.0
 11
-4.233581371349204
 21
-0.3732141103508499
 31
0.0
210
0.0
220
0.0
230
1.0
 40
0.0864912970115022
 41
0.7719685002913394
 42
0.8869965866299684
  0
ELLIPSE
  5
7AA8
330
1F
100
AcDbEntity
  8
AM_0
100
AcDbEllipse
 10
-20.94548958244877
 20
57.77032165232109
 30
0.0
 11
0.843049913540501
 21
-0.5378353310069484
 31
0.0
210
0.0
220
0.0
230
1.0
 40
0.1943590145775386
 41
4.338563406365276
 42
4.890232846084448
  0
ELLIPSE
  5
7AA9
330
1F
100
AcDbEntity
  8
AM_0
100
AcDbEllipse
 10
-20.11523798386917
 20
57.32593262131095
 30
0.0
 11
0.0856539073039204
 21
-0.9963249510895387
 31
0.0
210
0.0
220
0.0
230
1.0
 40
0.0249799432030541
 41
0.0866265975973579
 42
1.30835707399339
  0
ELLIPSE
  5
7AAA
330
1F
100
AcDbEntity
  8
AM_0
100
AcDbEllipse
 10
-19.76710457098613
 20
57.87162723583552
 30
0.0
 11
-1.339078355056098
 21
-1.087097419735572
 31
0.0
210
0.0
220
0.0
230
1.0
 40
0.8137066784111384
 41
5.536270349958194
 42
7.107066676753079
  0
ELLIPSE
  5
7AAB
330
1F
100
AcDbEntity
  8
AM_0
100
AcDbEllipse
 10
-19.72084680236037
 20
57.61520999434984
 30
0.0
 11
-1.223463109913273
 21
-0.2964518568895456
 31
0.0
210
0.0
220
0.0
230
1.0
 40
0.3835129522035023
 41
5.903262797144488
 42
7.474059123939454
  0
ELLIPSE
  5
7AAC
330
1F
100
AcDbEntity
  8
AM_0
100
AcDbEllipse
 10
-17.37720057127683
 20
56.1930796040156
 30
0.0
 11
-4.482615569663865
 21
-0.3951678815479586
 31
0.0
210
0.0
220
0.0
230
1.0
 40
0.0864912970115022
 41
4.135966872804129
 42
4.346682990109938
  0
ELLIPSE
  5
7AAD
330
1F
100
AcDbEntity
  8
AM_0
100
AcDbEllipse
 10
-17.82909084106165
 20
56.10009736892587
 30
0.0
 11
-4.233581371349202
 21
-0.3732141103508877
 31
0.0
210
0.0
220
0.0
230
1.0
 40
0.0864912970115022
 41
3.141592653589794
 42
3.552848433517544
  0
ELLIPSE
  5
7AAE
330
1F
100
AcDbEntity
  8
AM_0
100
AcDbEllipse
 10
-12.85974604098043
 20
57.48876378202581
 30
0.0
 11
0.1845312226891877
 21
-0.9828266519854015
 31
0.0
210
0.0
220
0.0
230
1.0
 40
0.7468770333443381
 41
6.152746233681394
 42
6.283185307179606
  0
ELLIPSE
  5
7AAF
330
1F
100
AcDbEntity
  8
AM_0
100
AcDbEllipse
 10
-17.37720057127683
 20
56.1930796040156
 30
0.0
 11
-4.482615569663865
 21
-0.3951678815479586
 31
0.0
210
0.0
220
0.0
230
1.0
 40
0.0864912970115022
 41
2.759013876925295
 42
2.969729994231095
  0
SPLINE
  5
7AB0
330
1F
100
AcDbEntity
  8
AM_0
100
AcDbSpline
210
0.0
220
0.0
230
1.0
 70
     8
 71
     3
 72
    12
 73
     8
 74
     0
 42
0.0000000001
 43
0.0000000001
 40
9.276068108291021
 40
9.276068108291021
 40
9.276068108291021
 40
9.276068108291021
 40
9.355248639068548
 40
9.355248639068548
 40
10.05507723093724
 40
10.05507723093724
 40
10.09282763637971
 40
10.09282763637971
 40
10.09282763637971
 40
10.09282763637971
 10
-13.20589622472027
 20
56.41494227573232
 30
0.0
 10
-13.21591428641761
 20
56.41184724685214
 30
0.0
 10
-13.22619061849946
 20
56.40886066883061
 30
0.0
 10
-13.32979591729224
 20
56.38037811338418
 30
0.0
 10
-13.44296300437702
 20
56.36154770570946
 30
0.0
 10
-13.57859270582605
 20
56.33914306120018
 30
0.0
 10
-13.58557959050233
 20
56.33798862885092
 30
0.0
 10
-13.59260874088192
 20
56.33683161331899
 30
0.0
  0
SPLINE
  5
7AB1
330
1F
100
AcDbEntity
  8
AM_0
100
AcDbSpline
210
0.0
220
0.0
230
1.0
 70
     8
 71
     3
 72
    22
 73
    18
 74
     0
 42
0.0000000001
 43
0.0000000001
 40
9.15431167361735
 40
9.15431167361735
 40
9.15431167361735
 40
9.15431167361735
 40
9.593966598349517
 40
9.593966598349517
 40
10.27711070050388
 40
10.27711070050388
 40
10.96025480265826
 40
10.96025480265826
 40
11.64339890481262
 40
11.64339890481262
 40
12.32654300696703
 40
12.32654300696703
 40
13.00968710912143
 40
13.00968710912143
 40
13.69283121127583
 40
13.69283121127583
 40
14.13248613601277
 40
14.13248613601277
 40
14.13248613601277
 40
14.13248613601277
 10
-14.96270702829326
 20
56.73351777910713
 30
0.0
 10
-14.8365881963864
 20
56.73752495922181
 30
0.0
 10
-14.71212790765707
 20
56.74172943987244
 30
0.0
 10
-14.40374613282745
 20
56.75162025155808
 30
0.0
 10
-14.22514950460493
 20
56.75679151179631
 30
0.0
 10
-13.89792313277473
 20
56.76192354157857
 30
0.0
 10
-13.74911070110408
 20
56.76184768084093
 30
0.0
 10
-13.48849596524621
 20
56.75476721358748
 30
0.0
 10
-13.37669814367279
 20
56.74775483749536
 30
0.0
 10
-13.19216803171036
 20
56.72777591580606
 30
0.0
 10
-13.11210318039718
 20
56.71401547993841
 30
0.0
 10
-12.98733712962632
 20
56.67937109006826
 30
0.0
 10
-12.94263060818923
 20
56.65849481476462
 30
0.0
 10
-12.89331807793303
 20
56.61259523134154
 30
0.0
 10
-12.88868787989633
 20
56.58758615507273
 30
0.0
 10
-12.91288023116953
 20
56.54692639094989
 30
0.0
 10
-12.93030410031235
 20
56.53113316620753
 30
0.0
 10
-12.95477806758742
 20
56.51612098116951
 30
0.0
  0
ELLIPSE
  5
7AB2
330
1F
100
AcDbEntity
  8
AM_0
100
AcDbEllipse
 10
-15.2327110690843
 20
57.74568273126309
 30
0.0
 11
0.0856539073039224
 21
-0.9963249510895384
 31
0.0
210
0.0
220
0.0
230
1.0
 40
0.0249799432030537
 41
0.0866265975973719
 42
1.308357073993395
  0
ELLIPSE
  5
7AB3
330
1F
100
AcDbEntity
  8
AM_0
100
AcDbEllipse
 10
-8.529684099005976
 20
60.32452550808605
 30
0.0
 11
0.7722748252072194
 21
-0.6352885913906836
 31
0.0
210
0.0
220
0.0
230
1.0
 40
0.3383052764510978
 41
5.933665870252283
 42
6.283185307179617
  0
ELLIPSE
  5
7AB4
330
1F
100
AcDbEntity
  8
AM_0
100
AcDbEllipse
 10
-12.18265560896918
 20
66.26184231808057
 30
0.0
 11
-3.178442913398788
 21
-9.60271588782195
 31
0.0
210
0.0
220
0.0
230
1.0
 40
0.6986113868413425
 41
0.3629510373535879
 42
1.061082738151317
  0
ELLIPSE
  5
7AB5
330
1F
100
AcDbEntity
  8
AM_0
100
AcDbEllipse
 10
-9.401845187178309
 20
60.41895366344661
 30
0.0
 11
0.7272525763890341
 21
-0.6863699367946673
 31
0.0
210
0.0
220
0.0
230
0.9999999999999998
 40
0.1582465489980497
 41
4.923593869699183
 42
5.950727941349849
  0
ELLIPSE
  5
7AB6
330
1F
100
AcDbEntity
  8
AM_0
100
AcDbEllipse
 10
-17.4382918601284
 20
66.57945673083251
 30
0.0
 11
9.408824285906069
 21
-4.485824388734195
 31
0.0
210
0.0
220
0.0
230
0.9999999999999998
 40
0.8451485634787838
 41
5.319280857940555
 42
6.017412558738292
  0
ELLIPSE
  5
7AB7
330
1F
100
AcDbEntity
  8
AM_0
100
AcDbEllipse
 10
-17.48454962875416
 20
66.83587397231818
 30
0.0
 11
10.13650120841808
 21
-5.099336047089183
 31
0.0
210
0.0
220
0.0
230
0.9999999999999998
 40
0.8633562089497132
 41
5.335424431948562
 42
6.033556132746298
  0
ELLIPSE
  5
7AB8
330
1F
100
AcDbEntity
  8
AM_0
100
AcDbEllipse
 10
-17.81228886650206
 20
62.68157318304239
 30
0.0
 11
1.267489925330615
 21
0.1303507033329753
 31
0.0
210
0.0
220
0.0
230
0.9999999999999998
 40
0.0703076173812685
 41
1.337268670585348
 42
1.888938110304499
  0
SPLINE
  5
7AB9
330
1F
100
AcDbEntity
  8
AM_0
100
AcDbSpline
210
0.0
220
0.0
230
1.0
 70
     8
 71
     3
 72
    18
 73
    14
 74
     0
 42
0.0000000001
 43
0.0000000001
 40
1.668738724846723
 40
1.668738724846723
 40
1.668738724846723
 40
1.668738724846723
 40
1.747919255624235
 40
1.747919255624235
 40
2.447747847492926
 40
2.447747847492926
 40
3.147576439361617
 40
3.147576439361617
 40
3.847405031230308
 40
3.847405031230308
 40
4.547233623098999
 40
4.547233623098999
 40
4.626414153876513
 40
4.626414153876513
 40
4.626414153876513
 40
4.626414153876513
 10
-18.80083610205486
 20
56.43900651938858
 30
0.0
 10
-18.77489765000393
 20
56.442033073511
 30
0.0
 10
-18.74885394111481
 20
56.44517541083522
 30
0.0
 10
-18.49167116491423
 20
56.47703938483104
 30
0.0
 10
-18.25298888166367
 20
56.51278375768331
 30
0.0
 10
-17.77431444218257
 20
56.57654903560947
 30
0.0
 10
-17.53429279887507
 20
56.60434226024452
 30
0.0
 10
-17.06960005862117
 20
56.64429182575023
 30
0.0
 10
-16.8292482701554
 20
56.65779623332984
 30
0.0
 10
-16.35048005407122
 20
56.6763421575661
 30
0.0
 10
-16.11207374959906
 20
56.68161301937587
 30
0.0
 10
-15.85747081554757
 20
56.69374718648592
 30
0.0
 10
-15.83171619869062
 20
56.69505794349314
 30
0.0
 10
-15.80609670477826
 20
56.69646381828809
 30
0.0
  0
ELLIPSE
  5
7ABA
330
1F
100
AcDbEntity
  8
AM_0
100
AcDbEllipse
 10
-17.82909084106165
 20
56.10009736892587
 30
0.0
 11
-4.233581371349202
 21
-0.3732141103508877
 31
0.0
210
0.0
220
0.0
230
1.0
 40
0.0864912970115022
 41
3.552848433517527
 42
6.283185307179588
  0
ELLIPSE
  5
7ABB
330
1F
100
AcDbEntity
  8
AM_0
100
AcDbEllipse
 10
-17.68349544154114
 20
54.44852537829283
 30
0.0
 11
-2.575797010029337
 21
-0.2270710552649927
 31
0.0
210
0.0
220
0.0
230
1.0
 40
0.0864912970115022
 41
2.346664974014934
 42
8.629850281194519
  0
LINE
  5
7ABC
330
1F
100
AcDbEntity
  8
AM_0
100
AcDbLine
 10
69.52998614305113
 20
-16.89152353791591
 30
0.0
 11
64.80614369088209
 21
-16.47982496414116
 31
0.0
  0
LINE
  5
7ABD
330
1F
100
AcDbEntity
  8
AM_0
100
AcDbLine
 10
64.66818258523642
 20
-17.25681992836704
 30
0.0
 11
69.39202503740546
 21
-17.66851850214179
 31
0.0
  0
LINE
  5
7ABE
330
1F
100
AcDbEntity
  8
AM_0
100
AcDbLine
 10
74.12318221477358
 20
-18.54029373156246
 30
0.0
 11
65.24451183270731
 21
-17.30704893824842
 31
0.0
  0
LINE
  5
7ABF
330
1F
100
AcDbEntity
  8
AM_0
100
AcDbLine
 10
66.01863233437246
 20
-2.809060360955908
 30
0.0
 11
70.74247478654149
 21
-3.220758934730651
 31
0.0
  0
LINE
  5
7AC0
330
1F
100
AcDbEntity
  8
AM_0
100
AcDbLine
 10
66.01958995326765
 20
-1.992097487605104
 30
0.0
 11
70.7434324054368
 21
-2.403796061379847
 31
0.0
  0
LINE
  5
7AC1
330
1F
100
AcDbEntity
  8
AM_0
100
AcDbLine
 10
64.04624288308525
 20
-23.99817315942355
 30
0.0
 11
91.08931445626216
 21
-23.99817315942355
 31
0.0
  0
LINE
  5
7AC2
330
1F
100
AcDbEntity
  8
AM_0
100
AcDbLine
 10
91.08931445626216
 20
-26.99209732216673
 30
0.0
 11
61.64780902081133
 21
-26.99209732216673
 31
0.0
  0
LINE
  5
7AC3
330
1F
100
AcDbEntity
  8
AM_0
100
AcDbLine
 10
91.08931445626216
 20
-23.99817315942355
 30
0.0
 11
91.08931445626216
 21
-26.99209732216673
 31
0.0
  0
LINE
  5
7AC4
330
1F
100
AcDbEntity
  8
AM_0
100
AcDbLine
 10
74.31755306884304
 20
-16.54759015807534
 30
0.0
 11
75.3961707264591
 21
-4.386215968491453
 31
0.0
  0
LINE
  5
7AC5
330
1F
100
AcDbEntity
  8
AM_0
100
AcDbLine
 10
69.52998614305113
 20
-16.89152353791591
 30
0.0
 11
70.74247478654149
 21
-3.220758934730651
 31
0.0
  0
LINE
  5
7AC6
330
1F
100
AcDbEntity
  8
AM_0
100
AcDbLine
 10
91.08931445626216
 20
-4.378224064957916
 30
0.0
 11
91.08931445626216
 21
-23.99817315942355
 31
0.0
  0
LINE
  5
7AC7
330
1F
100
AcDbEntity
  8
AM_0
100
AcDbLine
 10
75.39687718859681
 20
-4.378224064957916
 30
0.0
 11
91.08931445626216
 21
-4.378224064957916
 31
0.0
  0
LINE
  5
7AC8
330
1F
100
AcDbEntity
  8
AM_0
100
AcDbLine
 10
91.08931445626216
 20
-3.360771658465236
 30
0.0
 11
75.43786146858145
 21
-3.360771658465236
 31
0.0
  0
LINE
  5
7AC9
330
1F
100
AcDbEntity
  8
AM_0
100
AcDbLine
 10
91.08931445626216
 20
-3.360771658465236
 30
0.0
 11
91.08931445626216
 21
-4.378224064957916
 31
0.0
  0
LINE
  5
7ACA
330
1F
100
AcDbEntity
  8
AM_0
100
AcDbLine
 10
70.67559710816874
 20
-3.974802284456285
 30
0.0
 11
75.3961707264591
 21
-4.38621596849151
 31
0.0
  0
LINE
  5
7ACB
330
1F
100
AcDbEntity
  8
AM_0
100
AcDbLine
 10
70.77069135938472
 20
-2.757520565052044
 30
0.0
 11
75.3976071548019
 21
-3.160771658465304
 31
0.0
  0
LINE
  5
7ACC
330
1F
100
AcDbEntity
  8
AM_0
100
AcDbLine
 10
74.31755306884304
 20
-16.54759015807534
 30
0.0
 11
69.59697945055279
 21
-16.13617647404013
 31
0.0
  0
LINE
  5
7ACD
330
1F
100
AcDbEntity
  8
AM_0
100
AcDbLine
 10
69.48227375758813
 20
-17.30970759140431
 30
0.0
 11
74.11061141037464
 21
-17.71308260441416
 31
0.0
  0
LINE
  5
7ACE
330
1F
100
AcDbEntity
  8
AM_0
100
AcDbLine
 10
74.24167238885423
 20
-17.20432140197116
 30
0.0
 11
74.12318221477358
 21
-18.54029373156246
 31
0.0
  0
LINE
  5
7ACF
330
1F
100
AcDbEntity
  8
AM_0
100
AcDbLine
 10
74.07526118176486
 20
-17.71000171447159
 30
0.0
 11
74.12318221477369
 21
-18.54029373156246
 31
0.0
  0
LINE
  5
7AD1
330
1F
100
AcDbEntity
  8
AM_0
100
AcDbLine
 10
-28.79422739846376
 20
-24.50595630553937
 30
0.0
 11
-26.33032398502928
 21
-26.99819632216673
 31
0.0
  0
LINE
  5
7AD2
330
1F
100
AcDbEntity
  8
AM_0
100
AcDbLine
 10
-28.7942273984637
 20
-24.50595630553937
 30
0.0
 11
-28.7942273984637
 21
-26.99819632216673
 31
0.0
  0
LINE
  5
7AD3
330
1F
100
AcDbEntity
  8
AM_0
100
AcDbLine
 10
-29.99999876440387
 20
-6.998196322166734
 30
0.0
 11
-29.99999876440387
 21
-26.99819632216673
 31
0.0
  0
LINE
  5
7AD4
330
1F
100
AcDbEntity
  8
AM_0
100
AcDbLine
 10
61.58931445626217
 20
-24.67019381929024
 30
0.0
 11
61.58931445626217
 21
-26.99209732216673
 31
0.0
  0
LINE
  5
7AD5
330
1F
100
AcDbEntity
  8
AM_0
100
AcDbLine
 10
61.64780902081133
 20
-26.99209732216673
 30
0.0
 11
64.04624288308525
 21
-23.99817315942361
 31
0.0
  0
LINE
  5
7AD6
330
1F
100
AcDbEntity
  8
AM_0
100
AcDbLine
 10
-6.611456746439906
 20
-26.99209732216672
 30
0.0
 11
-1.425868101608671
 21
-23.9981963221668
 31
0.0
  0
POLYLINE
  5
7AD9
102
{ACAD_REACTORS
330
7C11
102
}
330
1F
100
AcDbEntity
  8
AM_5
 62
     7
100
AcDb3dPolyline
 66
     1
 10
0.0
 20
0.0
 30
0.0
 70
     8
  0
VERTEX
  5
7ADA
330
7AD9
100
AcDbEntity
  8
AM_5
 62
     7
100
AcDbVertex
100
AcDb3dPolylineVertex
 10
29.12325039868903
 20
16.03775106207456
 30
0.0
 70
    32
  0
VERTEX
  5
7ADB
330
7AD9
100
AcDbEntity
  8
AM_5
 62
     7
100
AcDbVertex
100
AcDb3dPolylineVertex
 10
29.53795576423908
 20
19.18775106207453
 30
0.0
 70
    32
  0
SEQEND
  5
7ADC
330
7AD9
100
AcDbEntity
  8
AM_5
 62
     7
  0
POLYLINE
  5
7ADD
102
{ACAD_REACTORS
330
7C11
102
}
330
1F
100
AcDbEntity
  8
AM_5
 62
     7
100
AcDb3dPolyline
 66
     1
 10
0.0
 20
0.0
 30
0.0
 70
     8
  0
VERTEX
  5
7ADE
330
7ADD
100
AcDbEntity
  8
AM_5
 62
     7
100
AcDbVertex
100
AcDb3dPolylineVertex
 10
28.7085450331391
 20
19.18775106207453
 30
0.0
 70
    32
  0
VERTEX
  5
7ADF
330
7ADD
100
AcDbEntity
  8
AM_5
 62
     7
100
AcDbVertex
100
AcDb3dPolylineVertex
 10
29.12325039868903
 20
16.03775106207456
 30
0.0
 70
    32
  0
SEQEND
  5
7AE0
330
7ADD
100
AcDbEntity
  8
AM_5
 62
     7
  0
POLYLINE
  5
7AE1
102
{ACAD_REACTORS
330
7C11
102
}
330
1F
100
AcDbEntity
  8
AM_5
 62
     7
100
AcDb3dPolyline
 66
     1
 10
0.0
 20
0.0
 30
0.0
 70
     8
  0
VERTEX
  5
7AE2
330
7AE1
100
AcDbEntity
  8
AM_5
 62
     7
100
AcDbVertex
100
AcDb3dPolylineVertex
 10
29.12325039868903
 20
19.18775106207453
 30
0.0
 70
    32
  0
VERTEX
  5
7AE3
330
7AE1
100
AcDbEntity
  8
AM_5
 62
     7
100
AcDbVertex
100
AcDb3dPolylineVertex
 10
29.12325039868903
 20
16.03775106207456
 30
0.0
 70
    32
  0
SEQEND
  5
7AE4
330
7AE1
100
AcDbEntity
  8
AM_5
 62
     7
  0
POLYLINE
  5
7AE5
102
{ACAD_REACTORS
330
7C11
102
}
330
1F
100
AcDbEntity
  8
AM_5
 62
     7
100
AcDb3dPolyline
 66
     1
 10
0.0
 20
0.0
 30
0.0
 70
     8
  0
VERTEX
  5
7AE6
330
7AE5
100
AcDbEntity
  8
AM_5
 62
     7
100
AcDbVertex
100
AcDb3dPolylineVertex
 10
29.12325039868903
 20
27.1055001538806
 30
0.0
 70
    32
  0
VERTEX
  5
7AE7
330
7AE5
100
AcDbEntity
  8
AM_5
 62
     7
100
AcDbVertex
100
AcDb3dPolylineVertex
 10
21.20550130688309
 20
27.1055001538806
 30
0.0
 70
    32
  0
SEQEND
  5
7AE8
330
7AE5
100
AcDbEntity
  8
AM_5
 62
     7
  0
POLYLINE
  5
7AE9
102
{ACAD_REACTORS
330
7C11
102
}
330
1F
100
AcDbEntity
  8
AM_5
 62
     7
100
AcDb3dPolyline
 66
     1
 10
0.0
 20
0.0
 30
0.0
 70
     8
  0
VERTEX
  5
7AEA
330
7AE9
100
AcDbEntity
  8
AM_5
 62
     7
100
AcDbVertex
100
AcDb3dPolylineVertex
 10
29.12325039868903
 20
27.1055001538806
 30
0.0
 70
    32
  0
VERTEX
  5
7AEB
330
7AE9
100
AcDbEntity
  8
AM_5
 62
     7
100
AcDbVertex
100
AcDb3dPolylineVertex
 10
29.12325039868903
 20
19.18775106207453
 30
0.0
 70
    32
  0
SEQEND
  5
7AEC
330
7AE9
100
AcDbEntity
  8
AM_5
 62
     7
  0
POLYLINE
  5
7AED
102
{ACAD_REACTORS
330
7C11
102
}
330
1F
100
AcDbEntity
  8
AM_5
 62
     7
100
AcDb3dPolyline
 66
     1
 10
0.0
 20
0.0
 30
0.0
 70
     8
  0
VERTEX
  5
7AEE
330
7AED
100
AcDbEntity
  8
AM_5
 62
     7
100
AcDbVertex
100
AcDb3dPolylineVertex
 10
18.055501306883
 20
27.1055001538806
 30
0.0
 70
    32
  0
VERTEX
  5
7AEF
330
7AED
100
AcDbEntity
  8
AM_5
 62
     7
100
AcDbVertex
100
AcDb3dPolylineVertex
 10
21.20550130688309
 20
26.6907947883306
 30
0.0
 70
    32
  0
SEQEND
  5
7AF0
330
7AED
100
AcDbEntity
  8
AM_5
 62
     7
  0
POLYLINE
  5
7AF1
102
{ACAD_REACTORS
330
7C11
102
}
330
1F
100
AcDbEntity
  8
AM_5
 62
     7
100
AcDb3dPolyline
 66
     1
 10
0.0
 20
0.0
 30
0.0
 70
     8
  0
VERTEX
  5
7AF2
330
7AF1
100
AcDbEntity
  8
AM_5
 62
     7
100
AcDbVertex
100
AcDb3dPolylineVertex
 10
21.20550130688309
 20
27.52020551943059
 30
0.0
 70
    32
  0
VERTEX
  5
7AF3
330
7AF1
100
AcDbEntity
  8
AM_5
 62
     7
100
AcDbVertex
100
AcDb3dPolylineVertex
 10
18.055501306883
 20
27.1055001538806
 30
0.0
 70
    32
  0
SEQEND
  5
7AF4
330
7AF1
100
AcDbEntity
  8
AM_5
 62
     7
  0
POLYLINE
  5
7AF5
102
{ACAD_REACTORS
330
7C11
102
}
330
1F
100
AcDbEntity
  8
AM_5
 62
     7
100
AcDb3dPolyline
 66
     1
 10
0.0
 20
0.0
 30
0.0
 70
     8
  0
VERTEX
  5
7AF6
330
7AF5
100
AcDbEntity
  8
AM_5
 62
     7
100
AcDbVertex
100
AcDb3dPolylineVertex
 10
21.20550130688309
 20
27.1055001538806
 30
0.0
 70
    32
  0
VERTEX
  5
7AF7
330
7AF5
100
AcDbEntity
  8
AM_5
 62
     7
100
AcDbVertex
100
AcDb3dPolylineVertex
 10
18.055501306883
 20
27.1055001538806
 30
0.0
 70
    32
  0
SEQEND
  5
7AF8
330
7AF5
100
AcDbEntity
  8
AM_5
 62
     7
  0
TEXT
  5
7AF9
330
1F
100
AcDbEntity
  8
AM_6
100
AcDbText
 10
10.44787470475466
 20
25.13995271143369
 30
0.0
 40
3.149999999999999
  1
-5%%D
100
AcDbText
  0
LINE
  5
7AFA
330
1F
100
AcDbEntity
  8
AM_0
100
AcDbLine
 10
65.08815659740173
 20
-8.198955791874634
 30
0.0
 11
60.5700564457727
 21
-9.194617655104405
 31
0.0
  0
LINE
  5
7AFB
330
1F
100
AcDbEntity
  8
AM_0
100
AcDbLine
 10
66.01863233437246
 20
-2.809060360955908
 30
0.0
 11
64.80614369088209
 21
-16.47982496414111
 31
0.0
  0
LINE
  5
7AFC
330
1F
100
AcDbEntity
  8
AM_0
100
AcDbLine
 10
57.92142443464718
 20
-9.344983164300554
 30
0.0
 11
63.20595306591201
 21
-8.102989347841837
 31
0.0
  0
LINE
  5
7AFD
330
1F
100
AcDbEntity
  8
AM_0
100
AcDbLine
 10
63.19999734458349
 20
-8.10286502258047
 30
0.0
 11
57.94905102692564
 21
-9.336966171830379
 31
0.0
  0
LINE
  5
7AFE
330
1F
100
AcDbEntity
  8
AM_0
100
AcDbLine
 10
64.4635593649383
 20
-8.182182360577069
 30
0.0
 11
65.97707788434343
 21
-2.089077382642227
 31
0.0
  0
LINE
  5
7AFF
330
1F
100
AcDbEntity
  8
AM_0
100
AcDbLine
 10
63.0198663195016
 20
-7.70401222609841
 30
0.0
 11
62.99843014401949
 21
-8.150238257578319
 31
0.0
  0
LINE
  5
7B00
330
1F
100
AcDbEntity
  8
AM_0
100
AcDbLine
 10
63.03054476597367
 20
-7.578593205826149
 30
0.0
 11
63.0198663195016
 21
-7.70401222609841
 31
0.0
  0
LINE
  5
7B01
330
1F
100
AcDbEntity
  8
AM_0
100
AcDbLine
 10
63.91084662902859
 20
-8.308627339557158
 30
0.0
 11
63.20595306591201
 21
-8.102989347841837
 31
0.0
  0
LINE
  5
7B02
330
1F
100
AcDbEntity
  8
AM_0
100
AcDbLine
 10
64.79444693928417
 20
-8.106484679549264
 30
0.0
 11
63.91084662902859
 21
-8.308627339557158
 31
0.0
  0
LINE
  5
7B03
330
1F
100
AcDbEntity
  8
AM_0
100
AcDbLine
 10
65.09053770044147
 20
-8.192862982141075
 30
0.0
 11
64.79444693928406
 21
-8.106484679549264
 31
0.0
  0
LINE
  5
7B04
330
1F
100
AcDbEntity
  8
AM_0
100
AcDbLine
 10
65.08941689884341
 20
-8.192536011656709
 30
0.0
 11
65.23894110732886
 21
-8.205567543508475
 31
0.0
  0
LINE
  5
7B05
330
1F
100
AcDbEntity
  8
AM_0
100
AcDbLine
 10
65.66119085392961
 20
-3.360771658465222
 30
0.0
 11
63.6128150799085
 21
-3.360771658465222
 31
0.0
  0
LINE
  5
7B06
330
1F
100
AcDbEntity
  8
AM_0
100
AcDbLine
 10
64.72850445476388
 20
-7.115569547454623
 30
0.0
 11
65.66119085392961
 21
-3.360771658465222
 31
0.0
  0
LINE
  5
7B07
330
1F
100
AcDbEntity
  8
AM_0
100
AcDbLine
 10
63.6128150799085
 20
-3.360771658465222
 30
0.0
 11
63.03054476597367
 21
-7.578593205826149
 31
0.0
  0
LINE
  5
7B08
330
1F
100
AcDbEntity
  8
AM_0
100
AcDbLine
 10
56.96363125576272
 20
-20.19006325020249
 30
0.0
 11
57.56514559385562
 21
-16.52882251184864
 31
0.0
  0
LINE
  5
7B09
330
1F
100
AcDbEntity
  8
AM_0
100
AcDbLine
 10
64.04624288308525
 20
-23.99817315942355
 30
0.0
 11
64.64705293342547
 21
-17.22406206689815
 31
0.0
  0
LINE
  5
7B0A
330
1F
100
AcDbEntity
  8
AM_0
100
AcDbLine
 10
62.64868060029982
 20
-19.70344862707399
 30
0.0
 11
57.36415196903499
 21
-20.9454424435327
 31
0.0
  0
LINE
  5
7B0B
330
1F
100
AcDbEntity
  8
AM_0
100
AcDbLine
 10
55.40430823287727
 20
-22.62546396571694
 30
0.0
 11
55.58416124335633
 21
-18.88155474167608
 31
0.0
  0
LINE
  5
7B0C
330
1F
100
AcDbEntity
  8
AM_0
100
AcDbLine
 10
56.30236559123853
 20
-19.513601929609
 30
0.0
 11
55.40430823287727
 21
-22.62546396571694
 31
0.0
  0
LINE
  5
7B0D
330
1F
100
AcDbEntity
  8
AM_0
100
AcDbLine
 10
55.39464185446013
 20
-22.68322567136207
 30
0.0
 11
55.5775271404525
 21
-18.87619510042888
 31
0.0
  0
LINE
  5
7B0E
330
1F
100
AcDbEntity
  8
AM_0
100
AcDbLine
 10
64.64705293342547
 20
-17.22406206689792
 30
0.0
 11
64.42060578743383
 21
-13.30058116915544
 31
0.0
  0
LINE
  5
7B0F
330
1F
100
AcDbEntity
  8
AM_0
100
AcDbLine
 10
64.64219291083225
 20
-17.13985607823955
 30
0.0
 11
64.42060578743383
 21
-13.3005811691555
 31
0.0
  0
LINE
  5
7B10
330
1F
100
AcDbEntity
  8
AM_0
100
AcDbLine
 10
62.64868060029982
 20
-19.70344862707399
 30
0.0
 11
63.65881395105077
 21
-13.55506422336286
 31
0.0
  0
LINE
  5
7B11
330
1F
100
AcDbEntity
  8
AM_0
100
AcDbLine
 10
65.06274220928538
 20
-9.467993463227269
 30
0.0
 11
60.0456990252942
 21
-11.80348502179468
 31
0.0
  0
LINE
  5
7B12
330
1F
100
AcDbEntity
  8
AM_0
100
AcDbLine
 10
60.40090731991597
 20
-12.7157095225521
 30
0.0
 11
64.97343068769237
 21
-10.58714707348455
 31
0.0
  0
LINE
  5
7B13
330
1F
100
AcDbEntity
  8
AM_0
100
AcDbLine
 10
60.14012718065476
 20
-9.837821834273693
 30
0.0
 11
65.09745637224785
 21
-8.745366276871816
 31
0.0
  0
LINE
  5
7B14
330
1F
100
AcDbEntity
  8
AM_0
100
AcDbLine
 10
63.65881395105077
 20
-13.55506422336286
 30
0.0
 11
64.54695627732474
 21
-13.25837271136905
 31
0.0
  0
LINE
  5
7B15
330
1F
100
AcDbEntity
  8
AM_0
100
AcDbLine
 10
64.54695627732474
 20
-13.25837271136905
 30
0.0
 11
64.97126310653152
 21
-10.67574192391525
 31
0.0
  0
LINE
  5
7B16
330
1F
100
AcDbEntity
  8
AM_0
100
AcDbLine
 10
64.88738224842075
 20
-11.18630001943328
 30
0.0
 11
64.9407666102079
 21
-11.19095264403544
 31
0.0
  0
LINE
  5
7B17
330
1F
100
AcDbEntity
  8
AM_0
100
AcDbLine
 10
60.0456990252942
 20
-11.80348502179468
 30
0.0
 11
60.14012718065476
 21
-9.837821834273693
 31
0.0
  0
LINE
  5
7B18
330
1F
100
AcDbEntity
  8
AM_0
100
AcDbLine
 10
63.29608417288546
 20
-18.45897369644948
 30
0.0
 11
62.85939132486601
 21
-18.4209144629912
 31
0.0
  0
LINE
  5
7B19
330
1F
100
AcDbEntity
  8
AM_0
100
AcDbLine
 10
64.65174918353307
 20
-17.22471437470373
 30
0.0
 11
64.64705293342547
 21
-17.22406206689815
 31
0.0
  0
LINE
  5
7B1A
330
1F
100
AcDbEntity
  8
AM_0
100
AcDbLine
 10
63.37423489040588
 20
-17.97826972302344
 30
0.0
 11
62.93835572426417
 21
-17.94028140464585
 31
0.0
  0
LINE
  5
7B1B
330
1F
100
AcDbEntity
  8
AM_0
100
AcDbLine
 10
54.67682962956462
 20
-14.46847508485084
 30
0.0
 11
54.95735494232383
 21
-12.61749502663893
 31
0.0
  0
LINE
  5
7B1C
330
1F
100
AcDbEntity
  8
AM_0
100
AcDbLine
 10
55.13657071486386
 20
-12.87542446680053
 30
0.0
 11
55.03526117464457
 21
-14.98433396517399
 31
0.0
  0
LINE
  5
7B1D
330
1F
100
AcDbEntity
  8
AM_0
100
AcDbLine
 10
56.77850217017544
 20
-10.63256416420055
 30
0.0
 11
56.79800705764751
 21
-10.56497770295974
 31
0.0
  0
LINE
  5
7B1E
330
1F
100
AcDbEntity
  8
AM_0
100
AcDbLine
 10
56.74104876861668
 20
-10.38175593024031
 30
0.0
 11
56.84652654320041
 21
-10.4125268705225
 31
0.0
  0
LINE
  5
7B1F
330
1F
100
AcDbEntity
  8
AM_0
100
AcDbLine
 10
56.66661144919931
 20
-10.63968897450273
 30
0.0
 11
56.74104876861668
 21
-10.38175593024031
 31
0.0
  0
LINE
  5
7B20
330
1F
100
AcDbEntity
  8
AM_0
100
AcDbLine
 10
57.10398384209987
 20
-10.48763466646282
 30
0.0
 11
57.1607988785687
 21
-10.5042092680906
 31
0.0
  0
LINE
  5
7B21
330
1F
100
AcDbEntity
  8
AM_0
100
AcDbLine
 10
57.1607988785687
 20
-10.5042092680906
 30
0.0
 11
57.14103780291896
 21
-10.91556559293273
 31
0.0
  0
LINE
  5
7B22
330
1F
100
AcDbEntity
  8
AM_0
100
AcDbLine
 10
56.79800705764751
 20
-10.56497770295974
 30
0.0
 11
57.1170524873105
 21
-10.59278357279803
 31
0.0
  0
LINE
  5
7B23
330
1F
100
AcDbEntity
  8
AM_0
100
AcDbLine
 10
54.95735494232383
 20
-12.61749502663898
 30
0.0
 11
55.13657071486386
 21
-12.87542446680053
 31
0.0
  0
LINE
  5
7B24
330
1F
100
AcDbEntity
  8
AM_0
100
AcDbLine
 10
56.62999465037308
 20
-10.64470936947922
 30
0.0
 11
56.76357352849743
 21
-10.1818446807254
 31
0.0
  0
LINE
  5
7B25
330
1F
100
AcDbEntity
  8
AM_0
100
AcDbLine
 10
55.40630728615917
 20
-11.4817577790241
 30
0.0
 11
56.11783832981416
 21
-10.87961487169881
 31
0.0
  0
LINE
  5
7B26
330
1F
100
AcDbEntity
  8
AM_0
100
AcDbLine
 10
56.87662025479937
 20
-10.63639400846328
 30
0.0
 11
57.12350623413204
 21
-10.65791094231648
 31
0.0
  0
LINE
  5
7B27
330
1F
100
AcDbEntity
  8
AM_0
100
AcDbLine
 10
57.89678551358917
 20
-9.625241908757555
 30
0.0
 11
57.47703540363705
 21
-9.502788570907267
 31
0.0
  0
LINE
  5
7B28
330
1F
100
AcDbEntity
  8
AM_0
100
AcDbLine
 10
54.57552008934533
 20
-16.57738458322437
 30
0.0
 11
54.79098044914929
 21
-16.5961626698634
 31
0.0
  0
LINE
  5
7B29
330
1F
100
AcDbEntity
  8
AM_0
100
AcDbLine
 10
54.75473586188525
 20
-16.83531402338591
 30
0.0
 11
54.57552008934533
 21
-16.57738458322437
 31
0.0
  0
LINE
  5
7B2A
330
1F
100
AcDbEntity
  8
AM_0
100
AcDbLine
 10
54.57552008934533
 20
-16.57738458322437
 30
0.0
 11
54.67682962956462
 21
-14.46847508485084
 31
0.0
  0
LINE
  5
7B2B
330
1F
100
AcDbEntity
  8
AM_0
100
AcDbLine
 10
56.45351836584882
 20
-18.59357947781999
 30
0.0
 11
56.30236559123853
 21
-19.513601929609
 31
0.0
  0
LINE
  5
7B2C
330
1F
100
AcDbEntity
  8
AM_0
100
AcDbLine
 10
56.90387992933143
 20
-15.85236119125515
 30
0.0
 11
56.8224622995441
 21
-16.34792634094519
 31
0.0
  0
LINE
  5
7B2D
330
1F
100
AcDbEntity
  8
AM_0
100
AcDbLine
 10
56.40319219800722
 20
-18.78363910239151
 30
0.0
 11
56.28825692668238
 21
-19.18190175690408
 31
0.0
  0
LINE
  5
7B2E
330
1F
100
AcDbEntity
  8
AM_0
100
AcDbLine
 10
56.92364100498128
 20
-15.44100486641302
 30
0.0
 11
56.90387992933143
 21
-15.85236119125515
 31
0.0
  0
LINE
  5
7B2F
330
1F
100
AcDbEntity
  8
AM_0
100
AcDbLine
 10
54.83671101810045
 20
-18.01732336765966
 30
0.0
 11
55.43334809429859
 21
-18.73347747553934
 31
0.0
  0
LINE
  5
7B30
330
1F
100
AcDbEntity
  8
AM_0
100
AcDbLine
 10
56.13861453067591
 20
-19.10429502058904
 30
0.0
 11
56.3064326668748
 21
-19.11892092905786
 31
0.0
  0
LINE
  5
7B31
330
1F
100
AcDbEntity
  8
AM_0
100
AcDbLine
 10
54.67682962956462
 20
-14.46847508485084
 30
0.0
 11
55.05844470610316
 21
-14.50173410742256
 31
0.0
  0
LINE
  5
7B32
330
1F
100
AcDbEntity
  8
AM_0
100
AcDbLine
 10
55.03526117464457
 20
-14.98433396517399
 30
0.0
 11
54.75473586188525
 21
-16.83531402338591
 31
0.0
  0
LINE
  5
7B33
330
1F
100
AcDbEntity
  8
AM_0
100
AcDbLine
 10
62.20074438275901
 20
-24.59330777493043
 30
0.0
 11
56.82711157102971
 21
-24.12497781113954
 31
0.0
  0
LINE
  5
7B34
330
1F
100
AcDbEntity
  8
AM_0
100
AcDbLine
 10
56.76267774337941
 20
-24.2495363839623
 30
0.0
 11
62.19038072169735
 21
-24.72257874252367
 31
0.0
  0
LINE
  5
7B35
330
1F
100
AcDbEntity
  8
AM_0
100
AcDbLine
 10
57.6514218632791
 20
-21.26865701988758
 30
0.0
 11
62.56267339400051
 21
-20.11439247562115
 31
0.0
  0
LINE
  5
7B36
330
1F
100
AcDbEntity
  8
AM_0
100
AcDbLine
 10
61.82422502153463
 20
-25.49341185086289
 30
0.0
 11
61.86262716058763
 21
-24.69401393008028
 31
0.0
  0
LINE
  5
7B37
330
1F
100
AcDbEntity
  8
AM_0
100
AcDbLine
 10
62.12099781827624
 20
-25.4098554644651
 30
0.0
 11
61.82422502153475
 21
-25.49341185086289
 31
0.0
  0
LINE
  5
7B38
330
1F
100
AcDbEntity
  8
AM_0
100
AcDbLine
 10
62.16721330136795
 20
-24.72055962482361
 30
0.0
 11
62.14365663928617
 21
-25.21092675418405
 31
0.0
  0
LINE
  5
7B39
330
1F
100
AcDbEntity
  8
AM_0
100
AcDbLine
 10
62.23294101133433
 20
-24.0849796720734
 30
0.0
 11
61.52279955795677
 21
-23.71766333866609
 31
0.0
  0
LINE
  5
7B3A
330
1F
100
AcDbEntity
  8
AM_0
100
AcDbLine
 10
62.39593020769621
 20
-20.69217493729676
 30
0.0
 11
62.23339458745101
 21
-24.07559680079775
 31
0.0
  0
LINE
  5
7B3B
330
1F
100
AcDbEntity
  8
AM_0
100
AcDbLine
 10
61.52279955795688
 20
-23.71766333866609
 30
0.0
 11
62.56267339400051
 21
-20.11439247562115
 31
0.0
  0
ARC
  5
7B3C
330
1F
100
AcDbEntity
  8
AM_0
100
AcDbCircle
 10
56.8929140476364
 20
-22.75520091123419
 30
0.0
 40
1.5
100
AcDbArc
 50
177.2496922693741
 51
265.0190681213293
  0
LINE
  5
7B3D
330
1F
100
AcDbEntity
  8
AM_0
100
AcDbLine
 10
56.82711157102971
 20
-24.12497781113954
 30
0.0
 11
57.6514218632791
 21
-21.26865701988758
 31
0.0
  0
TEXT
  5
7B40
330
1F
100
AcDbEntity
  8
AM_6
100
AcDbText
 10
25.8826634213317
 20
11.41265960153919
 30
0.0
 40
3.149999999999999
  1
-5%%d
100
AcDbText
  0
LINE
  5
7B49
330
1F
100
AcDbEntity
  8
AM_5
 62
     3
100
AcDbLine
 10
0.0
 20
-0.7970818683049288
 30
0.0
 11
0.0000014465194909
 21
65.61243533654044
 31
0.0
  0
LINE
  5
7B4A
330
1F
100
AcDbEntity
  8
AM_0
100
AcDbLine
 10
-15.14522506199216
 20
56.75327885475699
 30
0.0
 11
-14.96270702829326
 21
56.73351777910713
 31
0.0
  0
LINE
  5
7B4B
330
1F
100
AcDbEntity
  8
AM_0
100
AcDbLine
 10
-7.877702101698218
 20
59.63817900148242
 30
0.0
 11
-8.749863189870666
 21
59.73260715684293
 31
0.0
  0
LINE
  5
7B4C
330
1F
100
AcDbEntity
  8
AM_0
100
AcDbLine
 10
-14.43916101570641
 20
55.00263721158572
 30
0.0
 11
-13.83768303946601
 21
55.71494483326157
 31
0.0
  0
LINE
  5
7B4D
330
1F
100
AcDbEntity
  8
AM_0
100
AcDbLine
 10
-13.59550946971251
 20
56.47331147927676
 30
0.0
 11
-13.62063784532836
 21
56.75835703342037
 31
0.0
  0
LINE
  5
7B4E
330
1F
100
AcDbEntity
  8
AM_0
100
AcDbLine
 10
-12.7722600338883
 20
56.49635990551965
 30
0.0
 11
-13.20589622472027
 21
56.41494227573232
 31
0.0
  0
LINE
  5
7B4F
330
1F
100
AcDbEntity
  8
AM_0
100
AcDbLine
 10
-12.95477806758742
 20
56.51612098116951
 30
0.0
 11
-12.7722600338883
 21
56.49635990551965
 31
0.0
  0
LINE
  5
7B50
330
1F
100
AcDbEntity
  8
AM_0
100
AcDbLine
 10
-12.67521481829123
 20
56.50593713004039
 30
0.0
 11
-13.39362691765359
 21
56.37105122434966
 31
0.0
  0
ARC
  5
7B51
330
1F
100
AcDbEntity
  8
AM_0
100
AcDbCircle
 10
-23.21789646689524
 20
56.48539402382462
 30
0.0
 40
1.5
100
AcDbArc
 50
263.8207036167938
 51
277.1981539107254
  0
LINE
  5
7B52
330
1F
100
AcDbEntity
  8
AM_0
100
AcDbLine
 10
-25.15492751338513
 20
62.17682110554179
 30
0.0
 11
-22.64912043419895
 21
62.49329613024272
 31
0.0
  0
LINE
  5
7B53
330
1F
100
AcDbEntity
  8
AM_0
100
AcDbLine
 10
-27.13845048520852
 20
55.4354713864436
 30
0.0
 11
-20.02775197677704
 21
56.33352874480485
 31
0.0
  0
LINE
  5
7B54
330
1F
100
AcDbEntity
  8
AM_0
100
AcDbLine
 10
-23.08666745625703
 20
54.9967882090655
 30
0.0
 11
-27.13845048520852
 21
55.4354713864436
 31
0.0
  0
LINE
  5
7B55
330
1F
100
AcDbEntity
  8
AM_0
100
AcDbLine
 10
-18.21746716939719
 20
62.72544150078025
 30
0.0
 11
-26.4510496528203
 21
61.68556766473662
 31
0.0
  0
LINE
  5
7B56
330
1F
100
AcDbEntity
  8
AM_0
100
AcDbLine
 10
-21.35066788534391
 20
57.81418997005889
 30
0.0
 11
-27.87744695018949
 21
56.98987967780945
 31
0.0
  0
LINE
  5
7B57
330
1F
100
AcDbEntity
  8
AM_0
100
AcDbLine
 10
-15.18645330045854
 20
57.48926548977741
 30
0.0
 11
-20.06898021524341
 21
57.06951537982527
 31
0.0
  0
LINE
  5
7B58
330
1F
100
AcDbEntity
  8
AM_0
100
AcDbLine
 10
-18.21746716939719
 20
62.72544150078025
 30
0.0
 11
-21.35066788534391
 21
57.81418997005895
 31
0.0
  0
LINE
  5
7B59
330
1F
100
AcDbEntity
  8
AM_0
100
AcDbLine
 10
-20.899231813823
 20
57.51390441083541
 30
0.0
 11
-17.52789381833497
 21
62.79843304210024
 31
0.0
  0
LINE
  5
7B5A
330
1F
100
AcDbEntity
  8
AM_0
100
AcDbLine
 10
-22.64912043419895
 20
62.49329613024272
 30
0.0
 11
-22.65238208200855
 21
62.53029486910069
 31
0.0
  0
LINE
  5
7B5B
330
1F
100
AcDbEntity
  8
AM_0
100
AcDbLine
 10
-23.06774007007027
 20
62.44042587510492
 30
0.0
 11
-23.03918197963355
 21
62.11647510175239
 31
0.0
  0
LINE
  5
7B5C
330
1F
100
AcDbEntity
  8
AM_0
100
AcDbLine
 10
-22.99779090256117
 20
62.12170265587966
 30
0.0
 11
-23.02634899299789
 21
62.44565342923218
 31
0.0
  0
LINE
  5
7B5D
330
1F
100
AcDbEntity
  8
AM_0
100
AcDbLine
 10
-21.43358552551342
 20
62.36169117702925
 30
0.0
 11
-23.00149056385555
 21
62.16367003252074
 31
0.0
  0
LINE
  5
7B5E
330
1F
100
AcDbEntity
  8
AM_0
100
AcDbLine
 10
-21.47861884862197
 20
62.8725299489702
 30
0.0
 11
-21.43358552551342
 21
62.36169117702925
 31
0.0
  0
LINE
  5
7B5F
330
1F
100
AcDbEntity
  8
AM_0
100
AcDbLine
 10
-20.94356263415022
 20
62.96042149334019
 30
0.0
 11
-20.89305842292594
 21
62.38752330464947
 31
0.0
  0
LINE
  5
7B60
330
1F
100
AcDbEntity
  8
AM_0
100
AcDbLine
 10
-20.11054509894677
 20
56.2755517625109
 30
0.0
 11
-19.20050293430495
 21
56.39048703383574
 31
0.0
  0
LINE
  5
7B61
330
1F
100
AcDbEntity
  8
AM_0
100
AcDbLine
 10
-20.02775197677704
 20
56.33352874480485
 30
0.0
 11
-18.80083610205486
 21
56.43900651938858
 31
0.0
  0
LINE
  5
7B62
330
1F
100
AcDbEntity
  8
AM_0
100
AcDbLine
 10
-19.97143937531757
 20
54.2693096057528
 30
0.0
 11
-18.61921465052637
 21
54.54983491851206
 31
0.0
  0
LINE
  5
7B63
330
1F
100
AcDbEntity
  8
AM_0
100
AcDbLine
 10
-19.03572016633222
 20
54.16800006553351
 30
0.0
 11
-19.97143937531757
 21
54.2693096057528
 31
0.0
  0
LINE
  5
7B64
330
1F
100
AcDbEntity
  8
AM_0
100
AcDbLine
 10
-19.03572016633222
 20
54.16800006553351
 30
0.0
 11
-19.06129614651592
 21
54.45812305460814
 31
0.0
  0
LINE
  5
7B65
330
1F
100
AcDbEntity
  8
AM_0
100
AcDbLine
 10
-15.80609670477826
 20
56.69646381828809
 30
0.0
 11
-15.14522506199216
 21
56.75327885475699
 31
0.0
  0
LINE
  5
7B66
330
1F
100
AcDbEntity
  8
AM_0
100
AcDbLine
 10
-16.74777623255579
 20
54.34721583807354
 30
0.0
 11
-16.77834992655664
 21
54.69403075687049
 31
0.0
  0
LINE
  5
7B67
330
1F
100
AcDbEntity
  8
AM_0
100
AcDbLine
 10
-15.3955515077647
 20
54.62774115083281
 30
0.0
 11
-16.74777623255579
 21
54.34721583807354
 31
0.0
  0
LINE
  5
7B68
330
1F
100
AcDbEntity
  8
AM_0
100
AcDbLine
 10
-16.33127071675005
 20
54.72905069105209
 30
0.0
 11
-15.3955515077647
 21
54.62774115083281
 31
0.0
  0
LINE
  5
7B69
330
1F
100
AcDbEntity
  8
AM_0
100
AcDbLine
 10
-18.61921465052626
 20
54.54983491851206
 30
0.0
 11
-16.33127071674994
 21
54.72905069105209
 31
0.0
  0
LINE
  5
7B6A
330
1F
100
AcDbEntity
  8
AM_0
100
AcDbLine
 10
-16.74777623255579
 20
54.34721583807354
 30
0.0
 11
-19.03572016633222
 21
54.16800006553356
 31
0.0
  0
LINE
  5
7B6B
330
1F
100
AcDbEntity
  8
AM_0
100
AcDbLine
 10
-21.82562623106457
 20
55.15605348379736
 30
0.0
 11
-23.08666745625703
 21
54.9967882090655
 31
0.0
  0
LINE
  5
7B6C
330
1F
100
AcDbEntity
  8
AM_0
100
AcDbLine
 10
-21.82048579601257
 20
55.14996649896173
 30
0.0
 11
-23.02994456605017
 21
54.99721591520702
 31
0.0
  0
LINE
  5
7B6D
330
1F
100
AcDbEntity
  8
AM_0
100
AcDbLine
 10
-22.06267221241091
 20
55.72688325857498
 30
0.0
 11
-22.08269153258368
 21
55.95397387117523
 31
0.0
  0
LINE
  5
7B6E
330
1F
100
AcDbEntity
  8
AM_0
100
AcDbLine
 10
-20.97473536092059
 20
54.42648941828045
 30
0.0
 11
-21.69155616618547
 21
55.02258155624182
 31
0.0
  0
LINE
  5
7B6F
330
1F
100
AcDbEntity
  8
AM_0
100
AcDbLine
 10
-27.87744695018949
 20
56.98987967780945
 30
0.0
 11
-28.36534710840129
 21
62.5244105639592
 31
0.0
  0
LINE
  5
7B70
330
1F
100
AcDbEntity
  8
AM_0
100
AcDbLine
 10
-28.76388468573475
 20
56.79235457402009
 30
0.0
 11
-29.32569077478751
 21
63.16524275525299
 31
0.0
  0
LINE
  5
7B71
330
1F
100
AcDbEntity
  8
AM_0
100
AcDbLine
 10
-29.17754261494962
 20
62.61234629568983
 30
0.0
 11
-25.1549275133857
 21
62.17682110554162
 31
0.0
  0
LINE
  5
7B72
330
1F
100
AcDbEntity
  8
AM_0
100
AcDbLine
 10
-26.74524349029559
 20
63.20529505609673
 30
0.0
 11
-29.18040389605818
 21
62.6230247421619
 31
0.0
  0
LINE
  5
7B73
330
1F
100
AcDbEntity
  8
AM_0
100
AcDbLine
 10
-26.45104965282035
 20
61.68556766473656
 30
0.0
 11
-27.20529736144811
 21
62.39881294304175
 31
0.0
  0
LINE
  5
7B74
330
1F
100
AcDbEntity
  8
AM_0
100
AcDbLine
 10
-24.47530233602595
 20
62.26265548464406
 30
0.0
 11
-24.44674424558923
 21
61.93870471129153
 31
0.0
  0
LINE
  5
7B75
330
1F
100
AcDbEntity
  8
AM_0
100
AcDbLine
 10
-23.79327708334437
 20
62.02123542087034
 30
0.0
 11
-23.82183517378109
 21
62.34518619422281
 31
0.0
  0
LINE
  5
7B76
330
1F
100
AcDbEntity
  8
AM_0
100
AcDbLine
 10
-25.15914693182764
 20
62.17727793846584
 30
0.0
 11
-24.85264755321827
 21
61.8874404857352
 31
0.0
  0
LINE
  5
7B77
330
1F
100
AcDbEntity
  8
AM_0
100
AcDbLine
 10
-29.18040389605818
 20
62.6230247421619
 30
0.0
 11
-29.17754261494962
 21
62.61234629568983
 31
0.0
  0
LINE
  5
7B78
330
1F
100
AcDbEntity
  8
AM_0
100
AcDbLine
 10
-23.37935664076076
 20
54.99410913747491
 30
0.0
 11
-27.43113966971231
 21
55.43279231485294
 31
0.0
  0
ARC
  5
7B79
330
1F
100
AcDbEntity
  8
AM_0
100
AcDbCircle
 10
-27.26967949584679
 20
56.92407720120278
 30
0.0
 40
1.5
100
AcDbArc
 50
185.0379229209354
 51
263.8207036167938
  0
LINE
  5
7B7F
330
1F
100
AcDbEntity
  8
AM_0
100
AcDbLine
 10
-29.51586401303379
 20
-6.457144131451078
 30
0.0
 11
-27.27633839599912
 21
-11.98894008802039
 31
0.0
  0
LINE
  5
7B80
330
1F
100
AcDbEntity
  8
AM_0
100
AcDbLine
 10
-29.44933543657782
 20
-10.58967137128405
 30
0.0
 11
-29.51586401303379
 21
-6.457144131451078
 31
0.0
  0
LINE
  5
7B81
330
1F
100
AcDbEntity
  8
AM_0
100
AcDbLine
 10
-18.12252368027259
 20
-8.204790047996311
 30
0.0
 11
-21.29117580715149
 21
-9.372114817378417
 31
0.0
  0
LINE
  5
7B82
330
1F
100
AcDbEntity
  8
AM_0
100
AcDbLine
 10
-5.091473111934078
 20
-8.198978954617814
 30
0.0
 11
-9.355587418552545
 21
-9.194640817847599
 31
0.0
  0
LINE
  5
7B83
330
1F
100
AcDbEntity
  8
AM_0
100
AcDbLine
 10
-0.0001190804727003
 20
-2.809083523699086
 30
0.0
 11
-0.2387431649968903
 21
-16.4798481268843
 31
0.0
  0
LINE
  5
7B84
330
1F
100
AcDbEntity
  8
AM_0
100
AcDbLine
 10
-20.899231813823
 20
-9.345006327043734
 30
0.0
 11
-17.52789381833497
 21
-8.103012510585017
 31
0.0
  0
LINE
  5
7B85
330
1F
100
AcDbEntity
  8
AM_0
100
AcDbLine
 10
-9.3285825796371
 20
-8.308650502300352
 30
0.0
 11
-17.52789381833497
 21
-8.103012510585017
 31
0.0
  0
LINE
  5
7B86
330
1F
100
AcDbEntity
  8
AM_0
100
AcDbLine
 10
-3.509344101963847
 20
-3.360794821208401
 30
0.0
 11
-26.74524349029565
 21
-3.360794821208401
 31
0.0
  0
LINE
  5
7B87
330
1F
100
AcDbEntity
  8
AM_0
100
AcDbLine
 10
-5.20543883449784
 20
-8.192886144884255
 30
0.0
 11
-8.649562079003203
 21
-8.106507842292444
 31
0.0
  0
LINE
  5
7B88
330
1F
100
AcDbEntity
  8
AM_0
100
AcDbLine
 10
-10.37723393523822
 20
-7.115592710197802
 30
0.0
 11
-3.509344101963847
 21
-3.360794821208401
 31
0.0
  0
LINE
  5
7B89
330
1F
100
AcDbEntity
  8
AM_0
100
AcDbLine
 10
-12.41774163370928
 20
-8.231174669821939
 30
0.0
 11
-1.183291822673481
 21
-2.089100545385463
 31
0.0
  0
LINE
  5
7B8A
330
1F
100
AcDbEntity
  8
AM_0
100
AcDbLine
 10
-8.649562079003203
 20
-8.106507842292444
 30
0.0
 11
-9.3285825796371
 21
-8.308650502300352
 31
0.0
  0
LINE
  5
7B8B
330
1F
100
AcDbEntity
  8
AM_0
100
AcDbLine
 10
-26.74524349029559
 20
-3.360794821208401
 30
0.0
 11
-29.99999876440387
 21
-6.998196322166734
 31
0.0
  0
LINE
  5
7B8D
330
1F
100
AcDbEntity
  8
AM_0
100
AcDbLine
 10
-14.84111802202585
 20
-17.89270426221539
 30
0.0
 11
-15.1329526579658
 21
-18.1812207577591
 31
0.0
  0
LINE
  5
7B8E
330
1F
100
AcDbEntity
  8
AM_0
100
AcDbLine
 10
-15.32705638359902
 20
-20.19008641294568
 30
0.0
 11
-12.12334746966189
 21
-16.52884567459183
 31
0.0
  0
LINE
  5
7B8F
330
1F
100
AcDbEntity
  8
AM_0
100
AcDbLine
 10
-15.14522506199216
 20
-10.50423243083379
 30
0.0
 11
-14.96270702829326
 21
-10.91558875567592
 31
0.0
  0
LINE
  5
7B90
330
1F
100
AcDbEntity
  8
AM_0
100
AcDbLine
 10
-12.38079168379545
 20
-19.70347178981718
 30
0.0
 11
-15.75212967928348
 21
-20.94546560627589
 31
0.0
  0
LINE
  5
7B91
330
1F
100
AcDbEntity
  8
AM_0
100
AcDbLine
 10
-16.083349947707
 20
-21.26868018263075
 30
0.0
 11
-12.95014923176017
 21
-20.11441563836434
 31
0.0
  0
LINE
  5
7B92
330
1F
100
AcDbEntity
  8
AM_0
100
AcDbLine
 10
-21.1837317151834
 20
-23.71768650140927
 30
0.0
 11
-12.95014923176029
 21
-20.11441563836434
 31
0.0
  0
LINE
  5
7B93
330
1F
100
AcDbEntity
  8
AM_0
100
AcDbLine
 10
-1.425868101608671
 20
-23.99819632216674
 30
0.0
 11
-1.307625552282502
 21
-17.22408522964134
 31
0.0
  0
LINE
  5
7B94
330
1F
100
AcDbEntity
  8
AM_0
100
AcDbLine
 10
-7.000748324686014
 20
-13.55508738610605
 30
0.0
 11
-6.363678973240325
 21
-13.25839587411225
 31
0.0
  0
LINE
  5
7B95
330
1F
100
AcDbEntity
  8
AM_0
100
AcDbLine
 10
-3.750582851826493
 20
-9.468016625970463
 30
0.0
 11
-7.877702101698218
 21
-11.80350818453787
 31
0.0
  0
LINE
  5
7B96
330
1F
100
AcDbEntity
  8
AM_0
100
AcDbLine
 10
-7.79328552768743
 20
-12.71573268529529
 30
0.0
 11
-4.031837096895628
 21
-10.58717023622774
 31
0.0
  0
LINE
  5
7B97
330
1F
100
AcDbEntity
  8
AM_0
100
AcDbLine
 10
-1.307625552282274
 20
-17.22408522964111
 30
0.0
 11
-7.117587971539023
 21
-13.68861327325903
 31
0.0
  0
LINE
  5
7B98
330
1F
100
AcDbEntity
  8
AM_0
100
AcDbLine
 10
-1.446004143773848
 20
-17.13987924098275
 30
0.0
 11
-7.117587971539137
 21
-13.68861327325909
 31
0.0
  0
LINE
  5
7B99
330
1F
100
AcDbEntity
  8
AM_0
100
AcDbLine
 10
-8.749863189870666
 20
-9.837844997016887
 30
0.0
 11
-4.071211185915331
 21
-8.74538943961501
 31
0.0
  0
LINE
  5
7B9A
330
1F
100
AcDbEntity
  8
AM_0
100
AcDbLine
 10
-6.363678973240325
 20
-13.25839587411225
 30
0.0
 11
-4.103790081341117
 21
-10.67576508665844
 31
0.0
  0
LINE
  5
7B9B
330
1F
100
AcDbEntity
  8
AM_0
100
AcDbLine
 10
-0.4731124629191755
 20
-17.02877458831166
 30
0.0
 11
-0.8895458566777278
 21
-17.4404731620864
 31
0.0
  0
LINE
  5
7B9C
330
1F
100
AcDbEntity
  8
AM_0
100
AcDbLine
 10
-12.38079168379545
 20
-19.70347178981718
 30
0.0
 11
-7.000748324686014
 21
-13.55508738610605
 31
0.0
  0
LINE
  5
7B9D
330
1F
100
AcDbEntity
  8
AM_0
100
AcDbLine
 10
-7.877702101698218
 20
-11.80350818453787
 30
0.0
 11
-8.749863189870666
 21
-9.837844997016887
 31
0.0
  0
LINE
  5
7B9E
330
1F
100
AcDbEntity
  8
AM_0
100
AcDbLine
 10
-12.7722600338883
 20
-15.85238435399834
 30
0.0
 11
-13.20589622472027
 21
-16.34794950368838
 31
0.0
  0
LINE
  5
7B9F
330
1F
100
AcDbEntity
  8
AM_0
100
AcDbLine
 10
-12.95477806758742
 20
-15.44102802915621
 30
0.0
 11
-12.7722600338883
 21
-15.85238435399834
 31
0.0
  0
LINE
  5
7BA0
330
1F
100
AcDbEntity
  8
AM_0
100
AcDbLine
 10
-25.15325119634804
 20
-25.49343501360607
 30
0.0
 11
-28.96783499734209
 21
-16.8961849699956
 31
0.0
  0
LINE
  5
7BA1
330
1F
100
AcDbEntity
  8
AM_0
100
AcDbLine
 10
-28.96783499734209
 20
-16.8961849699956
 30
0.0
 11
-28.7942273984637
 21
-24.50595630553937
 31
0.0
  0
LINE
  5
7BA2
330
1F
100
AcDbEntity
  8
AM_0
100
AcDbLine
 10
-29.06027739220315
 20
-16.08146172726043
 30
0.0
 11
-24.92293547223346
 21
-25.40613903350549
 31
0.0
  0
LINE
  5
7BA3
330
1F
100
AcDbEntity
  8
AM_0
100
AcDbLine
 10
-27.24749908010642
 20
-19.41808152424596
 30
0.0
 11
-25.22160756563073
 21
-23.98400452393025
 31
0.0
  0
LINE
  5
7BA4
330
1F
100
AcDbEntity
  8
AM_0
100
AcDbLine
 10
-28.63474274280958
 20
-14.22077205637765
 30
0.0
 11
-24.58295971385803
 21
-23.35261805574635
 31
0.0
  0
LINE
  5
7BA5
330
1F
100
AcDbEntity
  8
AM_0
100
AcDbLine
 10
-23.08666745625703
 20
-22.62548712846012
 30
0.0
 11
-27.13845048520852
 21
-13.49364112909142
 31
0.0
  0
LINE
  5
7BA6
330
1F
100
AcDbEntity
  8
AM_0
100
AcDbLine
 10
-15.97596894782543
 20
-19.51362509235218
 30
0.0
 11
-23.08666745625703
 21
-22.62548712846012
 31
0.0
  0
LINE
  5
7BA7
330
1F
100
AcDbEntity
  8
AM_0
100
AcDbLine
 10
-27.13845048520852
 20
-13.49364112909148
 30
0.0
 11
-20.02775197677704
 21
-10.38177909298349
 31
0.0
  0
LINE
  5
7BA8
330
1F
100
AcDbEntity
  8
AM_0
100
AcDbLine
 10
-27.87105882866217
 20
-12.2492081804317
 30
0.0
 11
-21.36063344898582
 21
-9.400044268629528
 31
0.0
  0
LINE
  5
7BA9
330
1F
100
AcDbEntity
  8
AM_0
100
AcDbLine
 10
-19.97143937531757
 20
-14.46849824759402
 30
0.0
 11
-18.61921465052637
 21
-12.61751818938211
 31
0.0
  0
LINE
  5
7BAA
330
1F
100
AcDbEntity
  8
AM_0
100
AcDbLine
 10
-16.33127071675005
 20
-12.87544762954371
 30
0.0
 11
-15.3955515077647
 21
-14.98435712791719
 31
0.0
  0
LINE
  5
7BAB
330
1F
100
AcDbEntity
  8
AM_0
100
AcDbLine
 10
-15.65800952904112
 20
-15.24383101895172
 30
0.0
 11
-16.59372873802635
 21
-13.13492152057824
 31
0.0
  0
LINE
  5
7BAC
330
1F
100
AcDbEntity
  8
AM_0
100
AcDbLine
 10
-20.11054509894677
 20
-10.96326352021549
 30
0.0
 11
-19.20050293430495
 21
-10.56500086570292
 31
0.0
  0
LINE
  5
7BAD
330
1F
100
AcDbEntity
  8
AM_0
100
AcDbLine
 10
-20.02775197677704
 20
-10.38177909298349
 30
0.0
 11
-18.80083610205486
 21
-10.41255003326568
 31
0.0
  0
LINE
  5
7BAE
330
1F
100
AcDbEntity
  8
AM_0
100
AcDbLine
 10
-19.20050293430506
 20
-10.56500086570292
 30
0.0
 11
-19.48920675770898
 21
-10.85042214584086
 31
0.0
  0
LINE
  5
7BAF
330
1F
100
AcDbEntity
  8
AM_0
100
AcDbLine
 10
-15.18645330045854
 20
-9.625265071500749
 30
0.0
 11
-20.06898021524341
 21
-9.502811733650446
 31
0.0
  0
LINE
  5
7BB0
330
1F
100
AcDbEntity
  8
AM_0
100
AcDbLine
 10
-15.80609670477826
 20
-10.487657829206
 30
0.0
 11
-15.14522506199216
 21
-10.50423243083379
 31
0.0
  0
LINE
  5
7BB1
330
1F
100
AcDbEntity
  8
AM_0
100
AcDbLine
 10
-16.33127071674994
 20
-12.87544762954371
 30
0.0
 11
-16.59372873802635
 21
-13.13492152057818
 31
0.0
  0
LINE
  5
7BB2
330
1F
100
AcDbEntity
  8
AM_0
100
AcDbLine
 10
-16.59372873802635
 20
-13.13492152057824
 30
0.0
 11
-18.81431913666654
 21
-12.88458512470157
 31
0.0
  0
LINE
  5
7BB3
330
1F
100
AcDbEntity
  8
AM_0
100
AcDbLine
 10
-18.61921465052626
 20
-12.61751818938216
 30
0.0
 11
-16.33127071674994
 21
-12.87544762954371
 31
0.0
  0
LINE
  5
7BB4
330
1F
100
AcDbEntity
  8
AM_0
100
AcDbLine
 10
-19.48920675770898
 20
-10.85042214584086
 30
0.0
 11
-20.39924892235092
 21
-11.24868480035343
 31
0.0
  0
LINE
  5
7BB5
330
1F
100
AcDbEntity
  8
AM_0
100
AcDbLine
 10
-20.11054509894688
 20
-10.96326352021549
 30
0.0
 11
-20.39924892235092
 21
-11.24868480035343
 31
0.0
  0
LINE
  5
7BB6
330
1F
100
AcDbEntity
  8
AM_0
100
AcDbLine
 10
-20.81706366009768
 20
-11.84803109232342
 30
0.0
 11
-21.10889829603763
 21
-12.13654758786719
 31
0.0
  0
LINE
  5
7BB7
330
1F
100
AcDbEntity
  8
AM_0
100
AcDbLine
 10
-19.03572016633222
 20
-16.57740774596754
 30
0.0
 11
-19.97143937531757
 21
-14.46849824759402
 31
0.0
  0
LINE
  5
7BB8
330
1F
100
AcDbEntity
  8
AM_0
100
AcDbLine
 10
-15.17091832688663
 20
-18.59360264056319
 30
0.0
 11
-15.97596894782543
 21
-19.51362509235218
 31
0.0
  0
LINE
  5
7BB9
330
1F
100
AcDbEntity
  8
AM_0
100
AcDbLine
 10
-15.55389820824859
 20
-18.7836622651347
 30
0.0
 11
-16.46394037289041
 21
-19.18192491964726
 31
0.0
  0
LINE
  5
7BBA
330
1F
100
AcDbEntity
  8
AM_0
100
AcDbLine
 10
-16.81512976769215
 20
-16.82774414184416
 30
0.0
 11
-15.65800952904112
 21
-15.24383101895172
 31
0.0
  0
LINE
  5
7BBB
330
1F
100
AcDbEntity
  8
AM_0
100
AcDbLine
 10
-15.3955515077647
 20
-14.98435712791719
 30
0.0
 11
-16.74777623255579
 21
-16.83533718612909
 31
0.0
  0
LINE
  5
7BBC
330
1F
100
AcDbEntity
  8
AM_0
100
AcDbLine
 10
-15.3955515077647
 20
-14.98435712791719
 30
0.0
 11
-15.65800952904112
 21
-15.24383101895166
 31
0.0
  0
LINE
  5
7BBD
330
1F
100
AcDbEntity
  8
AM_0
100
AcDbLine
 10
-16.74777623255579
 20
-16.83533718612909
 30
0.0
 11
-19.03572016633222
 21
-16.57740774596754
 31
0.0
  0
LINE
  5
7BBE
330
1F
100
AcDbEntity
  8
AM_0
100
AcDbLine
 10
-29.68956527265402
 20
-15.32128733075296
 30
0.0
 11
-29.8073785409727
 21
-10.15715835258129
 31
0.0
  0
LINE
  5
7BBF
330
1F
100
AcDbEntity
  8
AM_0
100
AcDbLine
 10
-28.49964661508119
 20
-12.73006536653122
 30
0.0
 11
-29.44933543657583
 21
-10.58967137128439
 31
0.0
  0
LINE
  5
7BC0
330
1F
100
AcDbEntity
  8
AM_0
100
AcDbLine
 10
-29.80737854097276
 20
-10.15715835258129
 30
0.0
 11
-29.44933543657725
 21
-10.5896713712849
 31
0.0
  0
LINE
  5
7BC1
330
1F
100
AcDbEntity
  8
AM_0
100
AcDbLine
 10
-28.6151281444429
 20
-12.84423387858657
 30
0.0
 11
-29.80737854097117
 21
-10.1571583525806
 31
0.0
  0
ARC
  5
7BC2
330
1F
100
AcDbEntity
  8
AM_0
100
AcDbCircle
 10
-27.26967949584679
 20
-13.62337807460869
 30
0.0
 40
1.5
100
AcDbArc
 50
113.635676908438
 51
134.6724166479925
  0
LINE
  5
7BC3
330
1F
100
AcDbEntity
  8
AM_0
100
AcDbLine
 10
-28.32425813785943
 20
-12.55667104462782
 30
0.0
 11
-28.95576079378412
 21
-13.18099355736535
 31
0.0
  0
LINE
  5
7BC4
330
1F
100
AcDbEntity
  8
AM_0
100
AcDbLine
 10
-29.27339059458222
 20
-14.85215852456156
 30
0.0
 11
-27.24749908010642
 21
-19.41808152424596
 31
0.0
  0
LINE
  5
7BC5
330
1F
100
AcDbEntity
  8
AM_0
100
AcDbLine
 10
-29.06027739220315
 20
-16.08146172726043
 30
0.0
 11
-28.96783499734209
 21
-16.8961849699956
 31
0.0
  0
LINE
  5
7BC6
330
1F
100
AcDbEntity
  8
AM_0
100
AcDbLine
 10
-29.68956527265402
 20
-15.32128733075296
 30
0.0
 11
-29.0602773922032
 21
-16.08146172726037
 31
0.0
  0
LINE
  5
7BC7
330
1F
100
AcDbEntity
  8
AM_0
100
AcDbLine
 10
-29.27339059458216
 20
-14.85215852456156
 30
0.0
 11
-28.63474274280958
 21
-14.22077205637765
 31
0.0
  0
LINE
  5
7BC8
330
1F
100
AcDbEntity
  8
AM_0
100
AcDbLine
 10
-23.30581867940372
 20
-24.81027353354636
 30
0.0
 11
-23.32815338108105
 21
-24.75993592792884
 31
0.0
  0
LINE
  5
7BC9
330
1F
100
AcDbEntity
  8
AM_0
100
AcDbLine
 10
-22.61012901255242
 20
-24.12500097388272
 30
0.0
 11
-16.083349947707
 21
-21.26868018263075
 31
0.0
  0
LINE
  5
7BCA
330
1F
100
AcDbEntity
  8
AM_0
100
AcDbLine
 10
-21.91386007784103
 20
-24.07481088279308
 30
0.0
 11
-21.913501090223
 21
-24.07561996354093
 31
0.0
  0
LINE
  5
7BCB
330
1F
100
AcDbEntity
  8
AM_0
100
AcDbLine
 10
-21.91350109022312
 20
-24.07561996354093
 30
0.0
 11
-23.19033715004184
 21
-24.69610502149151
 31
0.0
  0
LINE
  5
7BCC
330
1F
100
AcDbEntity
  8
AM_0
100
AcDbLine
 10
-23.19033715004184
 20
-24.69610502149157
 30
0.0
 11
-23.19034052653728
 21
-24.6960974115982
 31
0.0
  0
LINE
  5
7BCD
330
1F
100
AcDbEntity
  8
AM_0
100
AcDbLine
 10
-23.19033715004195
 20
-24.69610502149112
 30
0.0
 11
-23.30581867940372
 21
-24.81027353354636
 31
0.0
  0
LINE
  5
7BCE
330
1F
100
AcDbEntity
  8
AM_0
100
AcDbLine
 10
-23.18534950918388
 20
-24.69368125173389
 30
0.0
 11
-22.61012901255242
 21
-24.12500097388272
 31
0.0
  0
LINE
  5
7BCF
330
1F
100
AcDbEntity
  8
AM_0
100
AcDbLine
 10
-22.22409096119986
 20
-24.22655271063058
 30
0.0
 11
-21.18373171518328
 21
-23.71768650140927
 31
0.0
  0
LINE
  5
7BD0
330
1F
100
AcDbEntity
  8
AM_0
100
AcDbLine
 10
-24.92293547223346
 20
-25.40613903350549
 30
0.0
 11
-25.15325119634792
 21
-25.49343501360607
 31
0.0
  0
LINE
  5
7BD1
330
1F
100
AcDbEntity
  8
AM_0
100
AcDbLine
 10
-24.58295971385803
 20
-23.35261805574629
 30
0.0
 11
-25.22160756563062
 21
-23.98400452393025
 31
0.0
  0
LINE
  5
7BDB
330
1F
100
AcDbEntity
  8
AM_0
100
AcDbLine
 10
-124.9999997644039
 20
65.64094443245048
 30
0.0
 11
-124.9999997644039
 21
85.64094443245039
 31
0.0
  0
LINE
  5
7BE1
330
1F
100
AcDbEntity
  8
AM_0
100
AcDbLine
 10
-124.9999997644039
 20
-26.99209732216678
 30
0.0
 11
-124.9999997644038
 21
-6.992097322166721
 31
0.0
  0
LINE
  5
7BE3
330
1F
100
AcDbEntity
  8
AM_5
 62
     3
100
AcDbLine
 10
-124.9999997644039
 20
-6.980660905292197
 30
0.0
 11
-124.9999997644039
 21
65.68179443245051
 31
0.0
  0
DIMENSION
  5
7BEB
330
1F
100
AcDbEntity
  8
AM_5
100
AcDbDimension
  2
*D3
 10
22.91153721623107
 20
-1.992097487605104
 30
0.0
 11
19.51116320048303
 21
-14.49209740488591
 31
0.0
 70
    32
  3
AM_JIS$0
100
AcDbAlignedDimension
 13
-6.62202052431526
 23
-26.99209732216672
 33
0.0
 14
-0.802931817000006
 24
-1.992097487605097
 34
0.0
 50
270.0
100
AcDbRotatedDimension
1001
ACAD
1000
DSTYLE
1002
{
1070
   271
1070
     6
1002
}
  0
DIMENSION
  5
7C12
330
1F
100
AcDbEntity
  8
AM_5
100
AcDbDimension
  2
*D5
 10
0.0000000000000012
 20
18.59117570144587
 30
0.0
 11
-14.9999993822019
 21
21.99117570144587
 31
0.0
 70
    32
  3
AM_JIS$0
100
AcDbAlignedDimension
 13
-29.99999876440381
 23
-6.998196322166734
 33
0.0
 14
0.0
 24
-0.7970818683049288
 34
0.0
 50
180.0
100
AcDbRotatedDimension
  0
DIMENSION
  5
7C28
330
1F
100
AcDbEntity
  8
AM_5
100
AcDbDimension
  2
*D6
 10
-140.5433019421424
 20
-26.99209732216677
 30
0.0
 11
-143.9436759578904
 21
-16.99209732216677
 31
0.0
 70
    32
  3
AM_JIS$0
100
AcDbAlignedDimension
 13
-124.9999987644039
 23
-6.992097322166721
 33
0.0
 14
-124.9935957644038
 24
-26.99209732216678
 34
0.0
 50
270.0
100
AcDbRotatedDimension
  0
DIMENSION
  5
7C35
330
1F
100
AcDbEntity
  8
AM_5
100
AcDbDimension
  2
*D7
 10
-124.9999997644039
 20
31.27682814156577
 30
0.0
 11
-62.49999874318727
 21
34.6772021573138
 31
0.0
 70
    32
  3
AM_JIS$0
100
AcDbAlignedDimension
 13
0.0000022780293994
 23
-2.795175382707151
 33
0.0
 14
-124.9999997644039
 24
-6.99819632216672
 34
0.0
 50
180.0
100
AcDbRotatedDimension
  0
DIMENSION
  5
7C55
330
1F
100
AcDbEntity
  8
AM_5
100
AcDbDimension
  2
*D8
 10
-142.5227619845508
 20
85.64094443245039
 30
0.0
 11
-145.9231360002988
 21
75.64094443245045
 31
0.0
 70
    32
  3
AM_JIS$0
100
AcDbAlignedDimension
 13
-124.9935957644038
 23
65.64094443245053
 33
0.0
 14
-125.0001187644038
 24
85.64094443245039
 34
0.0
 50
270.0
100
AcDbRotatedDimension
  0
DIMENSION
  5
7C62
330
1F
100
AcDbEntity
  8
AM_5
100
AcDbDimension
  2
*D9
 10
13.2976685043767
 20
85.64094443245039
 30
0.0
 11
9.897294488628656
 21
75.64094449754385
 31
0.0
 70
    32
  3
AM_JIS$0
100
AcDbAlignedDimension
 13
-0.2095853781753476
 23
65.64094456263731
 33
0.0
 14
-1.083248310345084
 24
85.64094443245039
 34
0.0
 50
270.0
100
AcDbRotatedDimension
1001
ACAD
1000
DSTYLE
1002
{
1070
   271
1070
     6
1002
}
  0
DIMENSION
  5
7F3B
330
1F
100
AcDbEntity
  8
AM_5
100
AcDbDimension
  2
*D10
 10
32.21980927343372
 20
-1.992097487605147
 30
0.0
 11
6.541935633507995
 21
-8.634829094788702
 31
0.0
 70
    34
  3
AM_JIS$2
100
AcDb2LineAngularDimension
 13
-0.0001190804727003
 23
-2.809083523699086
 33
0.0
 14
-0.2387431649968903
 24
-16.4798481268843
 34
0.0
 15
23.91153721623106
 25
-1.992097487605104
 35
0.0
 16
6.24226754441211
 26
-13.07537407390491
 36
0.0
1001
ACAD
1000
DSTYLE
1002
{
1070
   271
1070
     0
1002
}
  0
ENDSEC
  0
SECTION
  2
OBJECTS
  0
DICTIONARY
  5
C
330
0
100
AcDbDictionary
  3
ACAD_GROUP
350
D
  3
ACAD_LAYOUT
350
1A
  3
ACAD_MLINESTYLE
350
17
  3
ACAD_PLOTSETTINGS
350
19
  3
ACAD_PLOTSTYLENAME
350
E
  3
ACDBVARIABLEDICTIONARY
350
30
  3
ACMDICTIONARY
350
4D
  3
AMG
350
3F
  3
AMGSNAPSETTINGS
350
73
  3
ENG_DATA
350
21C6
  3
FILENAME
350
21C9
  3
HOLD_DIC_DATA
350
21C4
  3
TABLE_DIC_DATA
350
1C0B
  3
ZWKSIZE
350
21CB
  3
DWGPROPS
350
7F59
  3
ACDBHEADERROUNDTRIPXREC
350
7F64
  0
DICTIONARY
  5
165
330
1F
100
AcDbDictionary
280
     1
  3
ACAD_INDEX
360
7F5B
  3
ACAD_LAYOUTSELFREF
360
7F87
  0
DICTIONARY
  5
7F85
330
1B
100
AcDbDictionary
280
     1
  3
ACAD_LAYOUTSELFREF
360
7F86
  0
DICTIONARY
  5
D
102
{ACAD_REACTORS
330
C
102
}
330
C
100
AcDbDictionary
  3
*A1
350
7C11
  0
DICTIONARY
  5
1A
102
{ACAD_REACTORS
330
C
102
}
330
C
100
AcDbDictionary
  0
DICTIONARY
  5
17
102
{ACAD_REACTORS
330
C
102
}
330
C
100
AcDbDictionary
  3
STANDARD
350
18
  0
DICTIONARY
  5
19
102
{ACAD_REACTORS
330
C
102
}
330
C
100
AcDbDictionary
  0
ACDBDICTIONARYWDFLT
  5
E
102
{ACAD_REACTORS
330
C
102
}
330
C
100
AcDbDictionary
281
     1
  3
Normal
350
F
100
AcDbDictionaryWithDefault
340
F
  0
DICTIONARY
  5
30
102
{ACAD_REACTORS
330
C
102
}
330
C
100
AcDbDictionary
  3
INDEXCTL
350
31
  3
SORTENTS
350
42BE
  0
DICTIONARY
  5
4D
102
{ACAD_REACTORS
330
C
102
}
330
C
100
AcDbDictionary
  3
ACMSTDDICTIONARY
350
17E
  0
DICTIONARY
  5
3F
102
{ACAD_REACTORS
330
C
102
}
330
C
100
AcDbDictionary
  3
ACMGSETTINGS
350
40
  0
DICTIONARY
  5
73
102
{ACAD_REACTORS
330
C
102
}
330
C
100
AcDbDictionary
  0
DICTIONARY
  5
21C6
102
{ACAD_REACTORS
330
C
102
}
330
C
100
AcDbDictionary
  3
ENG_ID
350
21C7
  0
DICTIONARY
  5
21C9
102
{ACAD_REACTORS
330
C
102
}
330
C
100
AcDbDictionary
  3
FILENAME
350
21CA
  0
DICTIONARY
  5
21C4
102
{ACAD_REACTORS
330
C
102
}
330
C
100
AcDbDictionary
  3
HOLD_DATA
350
21C5
  0
DICTIONARY
  5
1C0B
102
{ACAD_REACTORS
330
C
102
}
330
C
100
AcDbDictionary
  3
INPUT_DATA
350
1C0D
  3
TABLE_DATA
350
1C0C
  0
DICTIONARY
  5
21CB
102
{ACAD_REACTORS
330
C
102
}
330
C
100
AcDbDictionary
  3
ZWKSIZE
350
21CC
  0
XRECORD
  5
7F59
102
{ACAD_REACTORS
330
C
102
}
330
C
100
AcDbXrecord
  1
DWGPROPS COOKIE
  2

  3

  4

  6

  7

  8

  9

300
AmdtFileType=82
301
=
302
=
303
=
304
=
305
=
306
=
307
=
308
=
309
=
 40
0.4460842476851852
 41
2451943.610431666
 42
2453025.629226307
  1

 90
        1
  0
DICTIONARY
  5
7F64
102
{ACAD_REACTORS
330
C
102
}
330
C
100
AcDbDictionary
  3
TSTACKALIGN
350
7F65
  3
TSTACKSIZE
350
7F66
  3
HYPERLINKBASE
350
7F67
  3
STYLESHEET
350
7F68
  3
LAYOUTDICT
350
7F69
  3
PLOTSETDICT
350
7F6A
  3
PLOTSTYLNAMDICT
350
7F6B
  3
LWETCUNION
350
7F6C
  3
INSUNITS
350
7F6D
  3
CEPSNTYPE
350
7F6E
  3
FINGERPRINTGUID
350
7F6F
  3
VERSIONGUID
350
7F70
  3
PSVPSCALE
350
7F71
  3
DIMSTYLEDATA
350
7F72
  3
PUCSORTHOREF
350
7F73
  3
PUCSORTHOVIEW
350
7F74
  3
PUCSBASE
350
7F75
  3
PUCSORGTOP
350
7F76
  3
PUCSORGBOTTOM
350
7F77
  3
PUCSORGLEFT
350
7F78
  3
PUCSORGRIGHT
350
7F79
  3
PUCSORGFRONT
350
7F7A
  3
PUCSORGBACK
350
7F7B
  3
UCSORTHOREF
350
7F7C
  3
UCSORTHOVIEW
350
7F7D
  3
UCSBASE
350
7F7E
  3
UCSORGTOP
350
7F7F
  3
UCSORGBOTTOM
350
7F80
  3
UCSORGLEFT
350
7F81
  3
UCSORGRIGHT
350
7F82
  3
UCSORGFRONT
350
7F83
  3
UCSORGBACK
350
7F84
  0
DICTIONARY
  5
7F5B
102
{ACAD_REACTORS
330
165
102
}
330
165
100
AcDbDictionary
  3
*A1
350
7F5C
  0
XRECORD
  5
7F87
102
{ACAD_REACTORS
330
165
102
}
330
165
100
AcDbXrecord
340
1F
  0
XRECORD
  5
7F86
102
{ACAD_REACTORS
330
7F85
102
}
330
7F85
100
AcDbXrecord
340
1B
  0
GROUP
  5
7C11
102
{ACAD_REACTORS
330
D
102
}
330
D
100
AcDbGroup
300

 70
     1
 71
     1
340
7AE5
340
7AE1
340
7ADD
340
7AD9
340
7AE9
340
7AF5
340
7AF1
340
7AED
  0
MLINESTYLE
  5
18
102
{ACAD_REACTORS
330
17
102
}
330
17
100
AcDbMlineStyle
  2
STANDARD
 70
     0
  3

 62
   256
 51
90.0
 52
90.0
 71
     2
 49
0.5
 62
   256
  6
BYLAYER
 49
-0.5
 62
   256
  6
BYLAYER
  0
ACDBPLACEHOLDER
  5
F
102
{ACAD_REACTORS
330
E
102
}
330
E
100
AcDbPlaceHolder
280
     0
  0
DICTIONARYVAR
  5
31
102
{ACAD_REACTORS
330
30
102
}
330
30
100
DictionaryVariables
280
     0
  1
1
  0
DICTIONARYVAR
  5
42BE
102
{ACAD_REACTORS
330
30
102
}
330
30
100
DictionaryVariables
280
     0
  1
96
  0
DICTIONARY
  5
17E
102
{ACAD_REACTORS
330
4D
102
}
330
4D
100
AcDbDictionary
  0
DICTIONARY
  5
40
102
{ACAD_REACTORS
330
3F
102
}
330
3F
100
AcDbDictionary
  3
DWGSETTINGS
350
41
  0
XRECORD
  5
21C7
102
{ACAD_REACTORS
330
21C6
102
}
330
21C6
100
AcDbXrecord
  1
HOLD
  0

  0
XRECORD
  5
21CA
102
{ACAD_REACTORS
330
21C9
102
}
330
21C9
100
AcDbXrecord
  1
21000065__00___
  0

  0
XRECORD
  5
21C5
102
{ACAD_REACTORS
330
21C4
102
}
330
21C4
100
AcDbXrecord
  1
クランクシャフト加工用 ^M^J１コーナー型 ^M^J15.875 ^M^J20 ^M^Jクランプオン ^M^J９０° ^M^J1 ^M^J鋼 ^M^J ^M^J ^M^J ^M^J ^M^J
  0

  0
XRECORD
  5
1C0D
102
{ACAD_REACTORS
330
1C0B
102
}
330
1C0B
100
AcDbXrecord
  1
1,,,,,,,,,^M^J2,,,,,,,,,^M^J3,,,,,,,,,^M^J4,,,,,,,,,^M^J5,,,,,,,,,^M^J6,,,,,,,,,^M^J7,,,,,,,,,^M^J8,,,,,,,,,^M^J9,,,,,,,,,^M^J10,,,,,,,,,
  0

  0
XRECORD
  5
1C0C
102
{ACAD_REACTORS
330
1C0B
102
}
330
1C0B
100
AcDbXrecord
  1
10,10
  0

  0
XRECORD
  5
21CC
102
{ACAD_REACTORS
330
21CB
102
}
330
21CB
100
AcDbXrecord
  1
3
  0

  0
XRECORD
  5
7F65
102
{ACAD_REACTORS
330
7F64
102
}
330
7F64
100
AcDbXrecord
 90
        1
  0
XRECORD
  5
7F66
102
{ACAD_REACTORS
330
7F64
102
}
330
7F64
100
AcDbXrecord
 90
       70
  0
XRECORD
  5
7F67
102
{ACAD_REACTORS
330
7F64
102
}
330
7F64
100
AcDbXrecord
  1

  0
XRECORD
  5
7F68
102
{ACAD_REACTORS
330
7F64
102
}
330
7F64
100
AcDbXrecord
  1
ASAMI.ctb
  0
XRECORD
  5
7F69
102
{ACAD_REACTORS
330
7F64
102
}
330
7F64
100
AcDbXrecord
340
1A
  0
XRECORD
  5
7F6A
102
{ACAD_REACTORS
330
7F64
102
}
330
7F64
100
AcDbXrecord
340
19
  0
XRECORD
  5
7F6B
102
{ACAD_REACTORS
330
7F64
102
}
330
7F64
100
AcDbXrecord
340
E
  0
XRECORD
  5
7F6C
102
{ACAD_REACTORS
330
7F64
102
}
330
7F64
100
AcDbXrecord
 90
    10781
  0
XRECORD
  5
7F6D
102
{ACAD_REACTORS
330
7F64
102
}
330
7F64
100
AcDbXrecord
 90
        4
  0
XRECORD
  5
7F6E
102
{ACAD_REACTORS
330
7F64
102
}
330
7F64
100
AcDbXrecord
 90
        0
  0
XRECORD
  5
7F6F
102
{ACAD_REACTORS
330
7F64
102
}
330
7F64
100
AcDbXrecord
  1
{C77AB3BE-9CA2-11D3-BAF3-006094EB760E}
  0
XRECORD
  5
7F70
102
{ACAD_REACTORS
330
7F64
102
}
330
7F64
100
AcDbXrecord
  1
{E95A4924-B7C8-42DE-B4F8-4FEDDB41493F}
  0
XRECORD
  5
7F71
102
{ACAD_REACTORS
330
7F64
102
}
330
7F64
100
AcDbXrecord
 40
0.0
  0
XRECORD
  5
7F72
102
{ACAD_REACTORS
330
7F64
102
}
330
7F64
100
AcDbXrecord
1000
DSTYLE
1002
{
1070
    79
 70
     2
1070
   179
 70
     1
1070
   341
340
59
1070
   342
340
59
1070
   371
 70
    -1
1070
   372
 70
    -1
1002
}
  0
XRECORD
  5
7F73
102
{ACAD_REACTORS
330
7F64
102
}
330
7F64
100
AcDbXrecord
340
0
  0
XRECORD
  5
7F74
102
{ACAD_REACTORS
330
7F64
102
}
330
7F64
100
AcDbXrecord
 70
     0
  0
XRECORD
  5
7F75
102
{ACAD_REACTORS
330
7F64
102
}
330
7F64
100
AcDbXrecord
340
0
  0
XRECORD
  5
7F76
102
{ACAD_REACTORS
330
7F64
102
}
330
7F64
100
AcDbXrecord
 10
0.0
 20
0.0
 30
0.0
  0
XRECORD
  5
7F77
102
{ACAD_REACTORS
330
7F64
102
}
330
7F64
100
AcDbXrecord
 10
0.0
 20
0.0
 30
0.0
  0
XRECORD
  5
7F78
102
{ACAD_REACTORS
330
7F64
102
}
330
7F64
100
AcDbXrecord
 10
0.0
 20
0.0
 30
0.0
  0
XRECORD
  5
7F79
102
{ACAD_REACTORS
330
7F64
102
}
330
7F64
100
AcDbXrecord
 10
0.0
 20
0.0
 30
0.0
  0
XRECORD
  5
7F7A
102
{ACAD_REACTORS
330
7F64
102
}
330
7F64
100
AcDbXrecord
 10
0.0
 20
0.0
 30
0.0
  0
XRECORD
  5
7F7B
102
{ACAD_REACTORS
330
7F64
102
}
330
7F64
100
AcDbXrecord
 10
0.0
 20
0.0
 30
0.0
  0
XRECORD
  5
7F7C
102
{ACAD_REACTORS
330
7F64
102
}
330
7F64
100
AcDbXrecord
340
0
  0
XRECORD
  5
7F7D
102
{ACAD_REACTORS
330
7F64
102
}
330
7F64
100
AcDbXrecord
 70
     0
  0
XRECORD
  5
7F7E
102
{ACAD_REACTORS
330
7F64
102
}
330
7F64
100
AcDbXrecord
340
0
  0
XRECORD
  5
7F7F
102
{ACAD_REACTORS
330
7F64
102
}
330
7F64
100
AcDbXrecord
 10
0.0
 20
0.0
 30
0.0
  0
XRECORD
  5
7F80
102
{ACAD_REACTORS
330
7F64
102
}
330
7F64
100
AcDbXrecord
 10
0.0
 20
0.0
 30
0.0
  0
XRECORD
  5
7F81
102
{ACAD_REACTORS
330
7F64
102
}
330
7F64
100
AcDbXrecord
 10
0.0
 20
0.0
 30
0.0
  0
XRECORD
  5
7F82
102
{ACAD_REACTORS
330
7F64
102
}
330
7F64
100
AcDbXrecord
 10
0.0
 20
0.0
 30
0.0
  0
XRECORD
  5
7F83
102
{ACAD_REACTORS
330
7F64
102
}
330
7F64
100
AcDbXrecord
 10
0.0
 20
0.0
 30
0.0
  0
XRECORD
  5
7F84
102
{ACAD_REACTORS
330
7F64
102
}
330
7F64
100
AcDbXrecord
 10
0.0
 20
0.0
 30
0.0
  0
LAYER_INDEX
  5
7F5C
102
{ACAD_REACTORS
330
7F5B
102
}
330
7F5B
100
AcDbIndex
 40
2453151.555508518
100
AcDbLayerIndex
  8
0
360
7F5D
 90
        1
  8
AM_5
360
7F5E
 90
       17
  8
Defpoints
360
7F5F
 90
        0
  8
AM_0
360
7F60
 90
      810
  8
AM_6
360
7F61
 90
        3
  8
AM_1
360
7F62
 90
        0
  0
XRECORD
  5
41
102
{ACAD_REACTORS
330
40
102
}
330
40
100
AcDbXrecord
  1
VERSION
140
15.0
  1
PRODUCT
  2
AutoCAD Mechanical 2000
  0
IDBUFFER
  5
7F5D
330
0
100
AcDbIdBuffer
330
1649
  0
IDBUFFER
  5
7F5E
330
0
100
AcDbIdBuffer
330
7F3B
330
7AD9
330
7ADD
330
7AE1
330
7AE5
330
7AE9
330
7AED
330
7AF1
330
7AF5
330
7B49
330
7BE3
330
7BEB
330
7C12
330
7C28
330
7C35
330
7C55
330
7C62
  0
IDBUFFER
  5
7F5F
330
0
100
AcDbIdBuffer
  0
IDBUFFER
  5
7F60
330
0
100
AcDbIdBuffer
330
7A64
330
7A65
330
7A66
330
7A67
330
7A68
330
7A69
330
7A6A
330
7A6B
330
7A6C
330
7A6D
330
7A6E
330
7A6F
330
7A70
330
7A71
330
7A72
330
7A73
330
7A74
330
7A75
330
7A76
330
7A77
330
7A78
330
7A79
330
7A7A
330
7A7B
330
7A7C
330
7A7D
330
7A7E
330
7A7F
330
7A80
330
7A81
330
7A82
330
7A83
330
7A84
330
7A85
330
7A86
330
7A87
330
7A88
330
7A89
330
7A8A
330
7A8B
330
7A8C
330
7A8D
330
7A8E
330
7A8F
330
7A90
330
7A91
330
7A92
330
7A93
330
7A94
330
7A95
330
7A96
330
7A97
330
7A98
330
7A99
330
7A9A
330
7A9B
330
7A9C
330
7A9D
330
7A9E
330
7A9F
330
7AA0
330
7AA1
330
7AA2
330
7AA3
330
7AA4
330
7AA5
330
7AA6
330
7AA7
330
7AA8
330
7AA9
330
7AAA
330
7AAB
330
7AAC
330
7AAD
330
7AAE
330
7AAF
330
7AB0
330
7AB1
330
7AB2
330
7AB3
330
7AB4
330
7AB5
330
7AB6
330
7AB7
330
7AB8
330
7AB9
330
7ABA
330
7ABB
330
7ABC
330
7ABD
330
7ABE
330
7ABF
330
7AC0
330
7AC1
330
7AC2
330
7AC3
330
7AC4
330
7AC5
330
7AC6
330
7AC7
330
7AC8
330
7AC9
330
7ACA
330
7ACB
330
7ACC
330
7ACD
330
7ACE
330
7ACF
330
7AD1
330
7AD2
330
7AD3
330
7AD4
330
7AD5
330
7AD6
330
7AFA
330
7AFB
330
7AFC
330
7AFD
330
7AFE
330
7AFF
330
7B00
330
7B01
330
7B02
330
7B03
330
7B04
330
7B05
330
7B06
330
7B07
330
7B08
330
7B09
330
7B0A
330
7B0B
330
7B0C
330
7B0D
330
7B0E
330
7B0F
330
7B10
330
7B11
330
7B12
330
7B13
330
7B14
330
7B15
330
7B16
330
7B17
330
7B18
330
7B19
330
7B1A
330
7B1B
330
7B1C
330
7B1D
330
7B1E
330
7B1F
330
7B20
330
7B21
330
7B22
330
7B23
330
7B24
330
7B25
330
7B26
330
7B27
330
7B28
330
7B29
330
7B2A
330
7B2B
330
7B2C
330
7B2D
330
7B2E
330
7B2F
330
7B30
330
7B31
330
7B32
330
7B33
330
7B34
330
7B35
330
7B36
330
7B37
330
7B38
330
7B39
330
7B3A
330
7B3B
330
7B3C
330
7B3D
330
7B4A
330
7B4B
330
7B4C
330
7B4D
330
7B4E
330
7B4F
330
7B50
330
7B51
330
7B52
330
7B53
330
7B54
330
7B55
330
7B56
330
7B57
330
7B58
330
7B59
330
7B5A
330
7B5B
330
7B5C
330
7B5D
330
7B5E
330
7B5F
330
7B60
330
7B61
330
7B62
330
7B63
330
7B64
330
7B65
330
7B66
330
7B67
330
7B68
330
7B69
330
7B6A
330
7B6B
330
7B6C
330
7B6D
330
7B6E
330
7B6F
330
7B70
330
7B71
330
7B72
330
7B73
330
7B74
330
7B75
330
7B76
330
7B77
330
7B78
330
7B79
330
7B7F
330
7B80
330
7B81
330
7B82
330
7B83
330
7B84
330
7B85
330
7B86
330
7B87
330
7B88
330
7B89
330
7B8A
330
7B8B
330
7B8D
330
7B8E
330
7B8F
330
7B90
330
7B91
330
7B92
330
7B93
330
7B94
330
7B95
330
7B96
330
7B97
330
7B98
330
7B99
330
7B9A
330
7B9B
330
7B9C
330
7B9D
330
7B9E
330
7B9F
330
7BA0
330
7BA1
330
7BA2
330
7BA3
330
7BA4
330
7BA5
330
7BA6
330
7BA7
330
7BA8
330
7BA9
330
7BAA
330
7BAB
330
7BAC
330
7BAD
330
7BAE
330
7BAF
330
7BB0
330
7BB1
330
7BB2
330
7BB3
330
7BB4
330
7BB5
330
7BB6
330
7BB7
330
7BB8
330
7BB9
330
7BBA
330
7BBB
330
7BBC
330
7BBD
330
7BBE
330
7BBF
330
7BC0
330
7BC1
330
7BC2
330
7BC3
330
7BC4
330
7BC5
330
7BC6
330
7BC7
330
7BC8
330
7BC9
330
7BCA
330
7BCB
330
7BCC
330
7BCD
330
7BCE
330
7BCF
330
7BD0
330
7BD1
330
7BDB
330
7BE1
330
786E
330
786F
330
7870
330
7871
330
7872
330
7873
330
7874
330
7875
330
7876
330
7877
330
7878
330
7879
330
787A
330
787B
330
787C
330
787D
330
787E
330
787F
330
7880
330
7881
330
7882
330
7883
330
7884
330
7885
330
7886
330
7887
330
7888
330
788F
330
7890
330
7891
330
7892
330
7893
330
7894
330
7895
330
7896
330
7897
330
7898
330
7899
330
789A
330
789B
330
789C
330
789D
330
789E
330
789F
330
78A0
330
78A1
330
78A2
330
78A3
330
78A4
330
78A5
330
78A6
330
78A7
330
78A8
330
78A9
330
78AA
330
78AB
330
78AC
330
78AD
330
78AE
330
78AF
330
78B0
330
78B1
330
78B2
330
78B3
330
78B4
330
78B5
330
78B6
330
78B7
330
78B8
330
78B9
330
78BA
330
78BB
330
78BC
330
78BD
330
78BE
330
78BF
330
78C0
330
78C1
330
78C2
330
78C3
330
78C4
330
78C5
330
78C6
330
78C7
330
78C8
330
78C9
330
78CA
330
78CB
330
78CC
330
78CD
330
78CE
330
78CF
330
78D0
330
78D1
330
78D2
330
78D3
330
78D4
330
78D5
330
78D6
330
78D7
330
78D8
330
78D9
330
78DA
330
78DB
330
78DC
330
78DD
330
78DE
330
78DF
330
78E0
330
78E1
330
78E2
330
78E3
330
78E4
330
78E5
330
78E6
330
78E7
330
78E8
330
78E9
330
78EA
330
78EB
330
78EC
330
78ED
330
78EE
330
78EF
330
78F0
330
78F1
330
78F2
330
78F3
330
78F4
330
78F5
330
78F6
330
78F7
330
78F8
330
78F9
330
78FA
330
78FB
330
78FC
330
78FD
330
78FE
330
78FF
330
7900
330
7901
330
7902
330
7903
330
7904
330
7905
330
7906
330
7907
330
7908
330
7909
330
790A
330
790B
330
790C
330
790D
330
790E
330
790F
330
7910
330
7911
330
7912
330
7913
330
7914
330
7915
330
7916
330
7917
330
7918
330
7919
330
791A
330
791B
330
791C
330
791D
330
791E
330
791F
330
7920
330
7921
330
7922
330
7923
330
7924
330
7925
330
7926
330
7927
330
7928
330
7929
330
792A
330
792B
330
792C
330
792D
330
792E
330
792F
330
7930
330
7931
330
7932
330
7933
330
7934
330
7935
330
7936
330
7937
330
7938
330
7939
330
793A
330
793B
330
793C
330
793D
330
793E
330
793F
330
7940
330
7941
330
7942
330
7943
330
7944
330
7945
330
7946
330
7947
330
7948
330
7949
330
794A
330
794B
330
794C
330
794D
330
794E
330
794F
330
7950
330
7951
330
7952
330
7953
330
7954
330
7955
330
7956
330
7957
330
7958
330
7959
330
795A
330
795B
330
795C
330
795D
330
795E
330
795F
330
7960
330
7961
330
7962
330
7963
330
7964
330
7965
330
7966
330
7967
330
7968
330
7969
330
796A
330
796B
330
796C
330
796D
330
796E
330
796F
330
7970
330
7971
330
7972
330
7973
330
7974
330
7975
330
7976
330
7977
330
7978
330
7979
330
797A
330
797B
330
797C
330
797D
330
797E
330
797F
330
7980
330
7981
330
7982
330
7983
330
7984
330
7985
330
7986
330
7987
330
7988
330
7989
330
798A
330
798B
330
798C
330
798D
330
798E
330
798F
330
7990
330
7991
330
7992
330
7993
330
7994
330
7995
330
7996
330
7997
330
7998
330
7999
330
799A
330
799B
330
799C
330
799D
330
799E
330
799F
330
79A0
330
79A1
330
79A2
330
79A3
330
79A4
330
79A5
330
79A6
330
79A7
330
79A8
330
79A9
330
79AA
330
79AB
330
79AC
330
79AD
330
79AE
330
79AF
330
79B0
330
79B1
330
79B2
330
79B3
330
79B4
330
79B5
330
79B6
330
79B7
330
79B8
330
79B9
330
79BA
330
79BB
330
79BC
330
79BD
330
79BE
330
79BF
330
79C0
330
79C1
330
79C2
330
79C3
330
79C4
330
79C5
330
79C6
330
79C7
330
79C8
330
79C9
330
79CA
330
79CB
330
79CC
330
79CD
330
79CE
330
79CF
330
79D0
330
79D1
330
79D2
330
79D3
330
79D4
330
79D5
330
79D6
330
79D7
330
79D8
330
79D9
330
79DA
330
79DB
330
79DC
330
79DD
330
79DE
330
79DF
330
79E0
330
79E1
330
79E2
330
79E3
330
79E4
330
79E5
330
79E6
330
79E7
330
79E8
330
79E9
330
79EA
330
79EB
330
79EC
330
79ED
330
79EE
330
79EF
330
79F0
330
79F1
330
79F2
330
79F3
330
79F4
330
79F5
330
79F6
330
79F7
330
79F8
330
79F9
330
79FA
330
79FB
330
79FC
330
79FD
330
79FE
330
79FF
330
7A00
330
7A01
330
7A02
330
7A03
330
7A04
330
7A05
330
7A06
330
7A07
330
7A08
330
7A09
330
7A0A
330
7A0B
330
7A0C
330
7A0D
330
7A0E
330
7A0F
330
7A10
330
7A11
330
7A12
330
7A13
330
7A14
330
7A15
330
7A16
330
7A17
330
7A18
330
7A19
330
7A1A
330
7A1B
330
7A1C
330
7A1D
330
7A1E
330
7A1F
330
7A20
330
7A21
330
7A22
330
7A23
330
7A24
330
7A25
330
7A26
330
7A27
330
7A28
330
7A29
330
7A2A
330
7A2B
330
7A2C
330
7A2D
330
7A2E
330
7A2F
330
7A30
330
7A31
330
7A32
330
7A33
330
7A34
330
7A35
330
7A36
330
7A37
330
7A38
330
7A39
330
7A3A
330
7A3B
330
7A3C
330
7A3D
330
7A3E
330
7A3F
330
7A40
330
7A41
330
7A42
330
7A43
330
7A44
330
7A45
330
7A46
330
7A47
330
7A48
330
7A49
330
7A4A
330
7A4B
330
7A4C
330
7A4D
330
7A4E
330
7A4F
330
7A50
330
7A51
330
7A52
330
7A53
330
7A54
330
7A55
330
7A56
330
7A57
330
7A58
330
7A59
330
7A5A
330
7A5B
330
7A5C
330
7A5D
330
7A5E
330
7A5F
330
7A60
330
7A61
330
7A62
330
7A63
  0
IDBUFFER
  5
7F61
330
0
100
AcDbIdBuffer
330
7495
330
7AF9
330
7B40
  0
IDBUFFER
  5
7F62
330
0
100
AcDbIdBuffer
  0
ENDSEC
  0
EOF
